0
SECTION
2
HEADER
9
$ACADVER
1
AC1015
9
$DWGCODEPAGE
3
ANSI_1252
9
$HANDSEED
5
304
9
$ANGBASE
50
0
9
$ANGDIR
70
0
9
$ATTMODE
70
1
9
$AUNITS
70
0
9
$AUPREC
70
0
9
$CECOLOR
62
256
9
$CELTSCALE
40
1
9
$CELTYPE
6
ByLayer
9
$CELWEIGHT
370
18
9
$CLAYER
8
0
9
$CMLJUST
70
0
9
$CMLSCALE
40
1
9
$CMLSTYLE
2
Standard
9
$DIMSTYLE
2
Standard
9
$TEXTSIZE
40
0.2
9
$TEXTSTYLE
7
Standard
9
$LUNITS
70
2
9
$LUPREC
70
4
9
$EXTNAMES
290
1
9
$INSUNITS
70
4
9
$LTSCALE
40
1
9
$LWDISPLAY
290
1
9
$PDMODE
70
0
9
$PDSIZE
40
0
9
$PLINEGEN
70
0
0
ENDSEC
0
SECTION
2
CLASSES
0
CLASS
1
RASTERVARIABLES
2
AcDbRasterVariables
3
ISM
90
0
280
0
281
0
0
ENDSEC
0
SECTION
2
TABLES
0
TABLE
2
VPORT
5
2fa
100
AcDbSymbolTable
0
VPORT
5
1
100
AcDbSymbolTableRecord
100
AcDbViewportTableRecord
2
*Active
70
0
10
0
20
0
11
1
21
1
12
-1
22
1
13
0
23
0
14
0.5
24
0.5
15
10
25
10
16
0
26
0
36
1
17
0
27
0
37
0
0
ENDTAB
0
TABLE
2
LTYPE
5
2fb
100
AcDbSymbolTable
0
LTYPE
5
14
100
AcDbSymbolTableRecord
100
AcDbLinetypeTableRecord
70
0
2
ByBlock
3

72
65
73
0
40
0
0
LTYPE
5
15
100
AcDbSymbolTableRecord
100
AcDbLinetypeTableRecord
70
0
2
ByLayer
3

72
65
73
0
40
0
0
LTYPE
5
16
100
AcDbSymbolTableRecord
100
AcDbLinetypeTableRecord
70
0
2
Continuous
3
Solid line
72
65
73
0
40
0
0
LTYPE
5
6E
100
AcDbSymbolTableRecord
100
AcDbLinetypeTableRecord
70
0
2
CENTER
3
____ _ ____ _ ____ _ ____
72
65
73
4
40
47.5
49
22
74
0
49
-8.5
74
0
49
8.5
74
0
49
-8.5
74
0
0
LTYPE
5
6F
100
AcDbSymbolTableRecord
100
AcDbLinetypeTableRecord
70
0
2
DASHED
3
__ __ __ __ __ __ __ __ __
72
65
73
2
40
25.72
49
12.86
74
0
49
-12.86
74
0
0
ENDTAB
0
TABLE
2
LAYER
5
2fc
100
AcDbSymbolTable
0
LAYER
5
10
100
AcDbSymbolTableRecord
100
AcDbLayerTableRecord
2
0
70
0
62
7
6
Continuous
290
1
370
-3
390
0
0
LAYER
5
71
100
AcDbSymbolTableRecord
100
AcDbLayerTableRecord
2
80
70
0
62
-6
6
Continuous
290
1
370
-3
390
0
0
LAYER
5
73
100
AcDbSymbolTableRecord
100
AcDbLayerTableRecord
2
81
70
0
62
-3
6
Continuous
290
1
370
-3
390
0
0
LAYER
5
75
100
AcDbSymbolTableRecord
100
AcDbLayerTableRecord
2
1
70
0
62
4
6
Continuous
290
1
370
-3
390
0
0
LAYER
5
81
100
AcDbSymbolTableRecord
100
AcDbLayerTableRecord
2
4
70
0
62
-2
6
CENTER
290
1
370
-3
390
0
0
LAYER
5
C9
100
AcDbSymbolTableRecord
100
AcDbLayerTableRecord
2
2
70
0
62
7
6
Continuous
290
1
370
-3
390
0
0
LAYER
5
20A
100
AcDbSymbolTableRecord
100
AcDbLayerTableRecord
2
Defpoints
70
0
62
7
6
Continuous
290
0
370
-3
390
0
0
LAYER
5
2e6
100
AcDbSymbolTableRecord
100
AcDbLayerTableRecord
2
SK4
70
0
62
2
6
CENTER
290
1
370
-3
390
0
0
LAYER
5
2e7
100
AcDbSymbolTableRecord
100
AcDbLayerTableRecord
2
SK1
70
0
62
4
6
Continuous
290
1
370
-3
390
0
0
LAYER
5
2e8
100
AcDbSymbolTableRecord
100
AcDbLayerTableRecord
2
SK2
70
0
62
7
6
Continuous
290
1
370
-3
390
0
0
LAYER
5
2e9
100
AcDbSymbolTableRecord
100
AcDbLayerTableRecord
2
SK6
70
0
62
5
6
Continuous
290
1
370
-3
390
0
0
ENDTAB
0
TABLE
2
STYLE
5
2fd
100
AcDbSymbolTable
0
STYLE
5
11
100
AcDbSymbolTableRecord
100
AcDbTextStyleTableRecord
2
Standard
3
txt
70
0
71
0
40
0
41
1
42
0
50
0
0
STYLE
5
1F0
100
AcDbSymbolTableRecord
100
AcDbTextStyleTableRecord
2
iso_b_vert
3
simplex.shx
70
0
71
0
40
0
41
1
42
0
50
0
0
STYLE
5
1F1
100
AcDbSymbolTableRecord
100
AcDbTextStyleTableRecord
2
DWGDirectTextStyle
3
simplex
70
0
71
0
40
0
41
1
42
0
50
0
0
ENDTAB
0
TABLE
2
DIMSTYLE
5
2fe
100
AcDbSymbolTable
100
AcDbDimStyleTable
0
DIMSTYLE
105
27
100
AcDbSymbolTableRecord
100
AcDbDimStyleTableRecord
2
Standard
70
0
3
<>
41
0.18
42
0.0625
44
0.18
140
0.18
147
0.09
73
0
74
0
77
1
271
2
275
0
278
52
280
0
340
11
0
ENDTAB
0
TABLE
2
VIEW
5
2ff
100
AcDbSymbolTable
0
ENDTAB
0
TABLE
2
UCS
5
300
100
AcDbSymbolTable
0
ENDTAB
0
TABLE
2
APPID
5
301
100
AcDbSymbolTable
0
APPID
5
12
100
AcDbSymbolTableRecord
100
AcDbRegAppTableRecord
2
ACAD
70
0
0
APPID
5
206
100
AcDbSymbolTableRecord
100
AcDbRegAppTableRecord
2
ACAD_DSTYLE_DIMBREAK
70
0
0
APPID
5
2A5
100
AcDbSymbolTableRecord
100
AcDbRegAppTableRecord
2
ACAD_DSTYLE_DIM_LINETYPE
70
0
0
APPID
5
2A6
100
AcDbSymbolTableRecord
100
AcDbRegAppTableRecord
2
ACAD_DSTYLE_DIM_EXT1_LINETYPE
70
0
0
APPID
5
2A7
100
AcDbSymbolTableRecord
100
AcDbRegAppTableRecord
2
ACAD_DSTYLE_DIM_EXT2_LINETYPE
70
0
0
APPID
5
2E2
100
AcDbSymbolTableRecord
100
AcDbRegAppTableRecord
2
ACAD_MLEADERVER
70
0
0
ENDTAB
0
TABLE
2
BLOCK_RECORD
5
302
100
AcDbSymbolTable
0
BLOCK_RECORD
5
1F
100
AcDbSymbolTableRecord
100
AcDbBlockTableRecord
2
*Model_Space
340
0
70
0
0
BLOCK_RECORD
5
1B
100
AcDbSymbolTableRecord
100
AcDbBlockTableRecord
2
*Paper_Space
340
0
70
0
0
BLOCK_RECORD
5
23
100
AcDbSymbolTableRecord
100
AcDbBlockTableRecord
2
*Paper_Space0
340
0
70
0
0
BLOCK_RECORD
5
20B
100
AcDbSymbolTableRecord
100
AcDbBlockTableRecord
2
*D1
340
0
70
0
0
BLOCK_RECORD
5
219
100
AcDbSymbolTableRecord
100
AcDbBlockTableRecord
2
_U0
340
0
70
0
0
BLOCK_RECORD
5
225
100
AcDbSymbolTableRecord
100
AcDbBlockTableRecord
2
*D3
340
0
70
0
0
BLOCK_RECORD
5
232
100
AcDbSymbolTableRecord
100
AcDbBlockTableRecord
2
_U1
340
0
70
0
0
BLOCK_RECORD
5
23F
100
AcDbSymbolTableRecord
100
AcDbBlockTableRecord
2
*D5
340
0
70
0
0
BLOCK_RECORD
5
24D
100
AcDbSymbolTableRecord
100
AcDbBlockTableRecord
2
_U2
340
0
70
0
0
BLOCK_RECORD
5
25A
100
AcDbSymbolTableRecord
100
AcDbBlockTableRecord
2
*D7
340
0
70
0
0
BLOCK_RECORD
5
266
100
AcDbSymbolTableRecord
100
AcDbBlockTableRecord
2
_U3
340
0
70
0
0
BLOCK_RECORD
5
272
100
AcDbSymbolTableRecord
100
AcDbBlockTableRecord
2
*D9
340
0
70
0
0
BLOCK_RECORD
5
27E
100
AcDbSymbolTableRecord
100
AcDbBlockTableRecord
2
_U4
340
0
70
0
0
ENDTAB
0
ENDSEC
0
SECTION
2
BLOCKS
0
BLOCK
5
20
100
AcDbEntity
8
0
100
AcDbBlockBegin
2
*Model_Space
70
0
10
0
20
0
30
0
3
*Model_Space
0
ENDBLK
5
21
100
AcDbEntity
8
0
100
AcDbBlockEnd
0
BLOCK
5
1C
100
AcDbEntity
8
0
100
AcDbBlockBegin
2
*Paper_Space
70
0
10
0
20
0
30
0
3
*Paper_Space
0
ENDBLK
5
1D
100
AcDbEntity
8
0
100
AcDbBlockEnd
0
BLOCK
5
24
100
AcDbEntity
8
0
100
AcDbBlockBegin
2
*Paper_Space0
70
0
10
0
20
0
30
0
3
*Paper_Space0
0
ENDBLK
5
25
100
AcDbEntity
8
0
100
AcDbBlockEnd
0
BLOCK
5
20C
100
AcDbEntity
8
0
100
AcDbBlockBegin
2
*D1
70
1
10
0
20
0
30
0
3
*D1
0
LINE
5
20E
100
AcDbEntity
8
0
62
256
6
ByLayer
370
-2
48
1
60
0
100
AcDbLine
10
67.5875
20
4.067419
30
0
11
87.5
21
4.067419
31
0
39
0
210
0
220
0
230
1
0
LINE
5
20F
100
AcDbEntity
8
0
62
256
6
ByLayer
370
-2
48
1
60
0
100
AcDbLine
10
67.5875
20
-4.067419
30
0
11
87.5
21
-4.067419
31
0
39
0
210
0
220
0
230
1
0
LINE
5
210
100
AcDbEntity
8
0
62
256
6
ByLayer
370
-2
48
1
60
0
100
AcDbLine
10
85.5
20
4.067419
30
0
11
85.5
21
32.067419
31
0
39
0
210
0
220
0
230
1
0
LINE
5
211
100
AcDbEntity
8
0
62
256
6
ByLayer
370
-2
48
1
60
0
100
AcDbLine
10
85.5
20
7.567419
30
0
11
85.5
21
11.067419
31
0
39
0
210
0
220
0
230
1
0
LINE
5
212
100
AcDbEntity
8
0
62
256
6
ByLayer
370
-2
48
1
60
0
100
AcDbLine
10
85.5
20
-7.567419
30
0
11
85.5
21
-11.067419
31
0
39
0
210
0
220
0
230
1
0
SOLID
5
213
100
AcDbEntity
8
0
62
256
6
ByLayer
370
-1
48
1
60
0
100
AcDbTrace
10
84.916667
20
7.567419
30
0
11
86.083333
21
7.567419
31
0
12
85.5
22
4.067419
32
0
13
85.5
23
4.067419
33
0
39
0
210
0
220
0
230
1
0
SOLID
5
214
100
AcDbEntity
8
0
62
256
6
ByLayer
370
-1
48
1
60
0
100
AcDbTrace
10
86.083333
20
-7.567419
30
0
11
84.916667
21
-7.567419
31
0
12
85.5
22
-4.067419
32
0
13
85.5
23
-4.067419
33
0
39
0
210
0
220
0
230
1
0
MTEXT
5
215
100
AcDbEntity
8
0
62
256
6
ByLayer
370
18
48
1
60
0
100
AcDbMText
10
79.5
20
21.567419
30
0
210
0
220
0
230
1
1
\A1;8.135
40
3
41
0
44
1
50
90
71
5
72
5
7
iso_b_vert
0
POINT
5
216
100
AcDbEntity
8
Defpoints
62
0
6
ByLayer
370
-1
48
1
60
0
100
AcDbPoint
10
66
20
4.067419
30
0
39
0
210
0
220
0
230
1
50
360
0
POINT
5
217
100
AcDbEntity
8
Defpoints
62
0
6
ByLayer
370
-1
48
1
60
0
100
AcDbPoint
10
66
20
-4.067419
30
0
39
0
210
0
220
0
230
1
50
360
0
POINT
5
218
100
AcDbEntity
8
Defpoints
62
0
6
ByLayer
370
-1
48
1
60
0
100
AcDbPoint
10
85.5
20
-4.067419
30
0
39
0
210
0
220
0
230
1
50
360
0
ENDBLK
5
20D
100
AcDbEntity
8
0
100
AcDbBlockEnd
0
BLOCK
5
220
100
AcDbEntity
8
0
100
AcDbBlockBegin
2
_U0
70
0
10
0
20
0
30
0
3
_U0
0
MTEXT
5
21A
100
AcDbEntity
8
2
62
256
6
ByLayer
370
18
48
1
60
0
100
AcDbMText
10
84.908886
20
14.202419
30
0
210
0
220
0
230
1
1
\W0.7203;M8
40
3
41
0
44
1.084337
50
90
71
7
72
5
7
iso_b_vert
0
LINE
5
21B
100
AcDbEntity
8
2
62
256
6
ByLayer
370
13
48
1
60
0
100
AcDbLine
10
67.5875
20
4.067419
30
0
11
87.5
21
4.067419
31
0
39
0
210
0
220
0
230
1
0
LINE
5
21C
100
AcDbEntity
8
2
62
256
6
ByLayer
370
13
48
1
60
0
100
AcDbLine
10
67.5875
20
-4.067419
30
0
11
87.5
21
-4.067419
31
0
39
0
210
0
220
0
230
1
0
LINE
5
21D
100
AcDbEntity
8
2
62
256
6
ByLayer
370
13
48
1
60
0
100
AcDbLine
10
85.5
20
-4.067419
30
0
11
85.5
21
18.322218
31
0
39
0
210
0
220
0
230
1
0
SOLID
5
21E
100
AcDbEntity
8
2
62
256
6
ByLayer
370
18
48
1
60
0
100
AcDbTrace
10
85.5
20
4.067419
30
0
11
85.960784
21
0.56742
31
0
12
85.039216
22
0.567417
32
0
13
85.039216
23
0.567417
33
0
39
0
210
0
220
0
230
1
0
SOLID
5
21F
100
AcDbEntity
8
2
62
256
6
ByLayer
370
18
48
1
60
0
100
AcDbTrace
10
85.5
20
-4.067419
30
0
11
85.039216
21
-0.56742
31
0
12
85.960784
22
-0.567417
32
0
13
85.960784
23
-0.567417
33
0
39
0
210
0
220
0
230
1
0
ENDBLK
5
221
100
AcDbEntity
8
0
100
AcDbBlockEnd
0
BLOCK
5
226
100
AcDbEntity
8
0
100
AcDbBlockBegin
2
*D3
70
1
10
0
20
0
30
0
3
*D3
0
LINE
5
228
100
AcDbEntity
8
0
62
256
6
ByLayer
370
-2
48
1
60
0
100
AcDbLine
10
66
20
5.654919
30
0
11
66
21
15.894014
31
0
39
0
210
0
220
0
230
1
0
LINE
5
229
100
AcDbEntity
8
0
62
256
6
ByLayer
370
-2
48
1
60
0
100
AcDbLine
10
62.56
20
1.5875
30
0
11
62.56
21
15.894014
31
0
39
0
210
0
220
0
230
1
0
LINE
5
22A
100
AcDbEntity
8
0
62
256
6
ByLayer
370
-2
48
1
60
0
100
AcDbLine
10
69.5
20
13.894014
30
0
11
73
21
13.894014
31
0
39
0
210
0
220
0
230
1
0
LINE
5
22B
100
AcDbEntity
8
0
62
256
6
ByLayer
370
-2
48
1
60
0
100
AcDbLine
10
59.06
20
13.894014
30
0
11
55.56
21
13.894014
31
0
39
0
210
0
220
0
230
1
0
SOLID
5
22C
100
AcDbEntity
8
0
62
256
6
ByLayer
370
-1
48
1
60
0
100
AcDbTrace
10
69.5
20
14.477347
30
0
11
69.5
21
13.310681
31
0
12
66
22
13.894014
32
0
13
66
23
13.894014
33
0
39
0
210
0
220
0
230
1
0
SOLID
5
22D
100
AcDbEntity
8
0
62
256
6
ByLayer
370
-1
48
1
60
0
100
AcDbTrace
10
59.06
20
13.310681
30
0
11
59.06
21
14.477347
31
0
12
62.56
22
13.894014
32
0
13
62.56
23
13.894014
33
0
39
0
210
0
220
0
230
1
0
MTEXT
5
22E
100
AcDbEntity
8
0
62
256
6
ByLayer
370
18
48
1
60
0
100
AcDbMText
10
64.28
20
19.894014
30
0
210
0
220
0
230
1
1
\A1;3.44
40
3
41
0
44
1
50
0
71
5
72
5
7
iso_b_vert
0
POINT
5
22F
100
AcDbEntity
8
Defpoints
62
0
6
ByLayer
370
-1
48
1
60
0
100
AcDbPoint
10
66
20
4.067419
30
0
39
0
210
0
220
0
230
1
50
360
0
POINT
5
230
100
AcDbEntity
8
Defpoints
62
0
6
ByLayer
370
-1
48
1
60
0
100
AcDbPoint
10
62.56
20
0
30
0
39
0
210
0
220
0
230
1
50
360
0
POINT
5
231
100
AcDbEntity
8
Defpoints
62
0
6
ByLayer
370
-1
48
1
60
0
100
AcDbPoint
10
62.56
20
13.894014
30
0
39
0
210
0
220
0
230
1
50
360
0
ENDBLK
5
227
100
AcDbEntity
8
0
100
AcDbBlockEnd
0
BLOCK
5
23A
100
AcDbEntity
8
0
100
AcDbBlockBegin
2
_U1
70
0
10
0
20
0
30
0
3
_U1
0
MTEXT
5
233
100
AcDbEntity
8
SK2
62
256
6
ByLayer
370
18
48
1
60
0
100
AcDbMText
10
60.629158
20
14.676647
30
0
210
0
220
0
230
1
1
\W0.6474;'C'
40
3.5
41
0
44
1.084337
50
0
71
7
72
5
7
iso_b_vert
0
MTEXT
5
234
100
AcDbEntity
8
SK2
62
256
6
ByLayer
370
18
48
1
60
0
100
AcDbMText
10
60.602658
20
21.779128
30
0
210
0
220
0
230
1
1
\W0.7865;3.44
40
3
41
0
44
1.084337
50
0
71
7
72
5
7
iso_b_vert
0
LINE
5
235
100
AcDbEntity
8
SK2
62
256
6
ByLayer
370
13
48
1
60
0
100
AcDbLine
10
66
20
5.654919
30
0
11
66
21
15.894014
31
0
39
0
210
0
220
0
230
1
0
LINE
5
236
100
AcDbEntity
8
SK2
62
256
6
ByLayer
370
13
48
1
60
0
100
AcDbLine
10
62.56
20
1.5875
30
0
11
62.56
21
15.894014
31
0
39
0
210
0
220
0
230
1
0
LINE
5
237
100
AcDbEntity
8
SK2
62
256
6
ByLayer
370
13
48
1
60
0
100
AcDbLine
10
73.5
20
13.894014
30
0
11
55.06
21
13.894014
31
0
39
0
210
0
220
0
230
1
0
SOLID
5
238
100
AcDbEntity
8
SK2
62
256
6
ByLayer
370
18
48
1
60
0
100
AcDbTrace
10
66
20
13.894014
30
0
11
69.499998
21
14.354798
31
0
12
69.500002
22
13.43323
32
0
13
69.500002
23
13.43323
33
0
39
0
210
0
220
0
230
1
0
SOLID
5
239
100
AcDbEntity
8
SK2
62
256
6
ByLayer
370
18
48
1
60
0
100
AcDbTrace
10
62.56
20
13.894014
30
0
11
59.060002
21
13.43323
31
0
12
59.059998
22
14.354798
32
0
13
59.059998
23
14.354798
33
0
39
0
210
0
220
0
230
1
0
ENDBLK
5
23B
100
AcDbEntity
8
0
100
AcDbBlockEnd
0
BLOCK
5
240
100
AcDbEntity
8
0
100
AcDbBlockBegin
2
*D5
70
1
10
0
20
0
30
0
3
*D5
0
LINE
5
242
100
AcDbEntity
8
0
62
256
6
ByLayer
370
-2
48
1
60
0
100
AcDbLine
10
66
20
-5.654919
30
0
11
66
21
-13.067419
31
0
39
0
210
0
220
0
230
1
0
LINE
5
243
100
AcDbEntity
8
0
62
256
6
ByLayer
370
-2
48
1
60
0
100
AcDbLine
10
54
20
-5.654919
30
0
11
54
21
-13.067419
31
0
39
0
210
0
220
0
230
1
0
LINE
5
244
100
AcDbEntity
8
0
62
256
6
ByLayer
370
-2
48
1
60
0
100
AcDbLine
10
66
20
-11.067419
30
0
11
86.428571
21
-11.067419
31
0
39
0
210
0
220
0
230
1
0
LINE
5
245
100
AcDbEntity
8
0
62
256
6
ByLayer
370
-2
48
1
60
0
100
AcDbLine
10
69.5
20
-11.067419
30
0
11
73
21
-11.067419
31
0
39
0
210
0
220
0
230
1
0
LINE
5
246
100
AcDbEntity
8
0
62
256
6
ByLayer
370
-2
48
1
60
0
100
AcDbLine
10
50.5
20
-11.067419
30
0
11
47
21
-11.067419
31
0
39
0
210
0
220
0
230
1
0
SOLID
5
247
100
AcDbEntity
8
0
62
256
6
ByLayer
370
-1
48
1
60
0
100
AcDbTrace
10
69.5
20
-10.484085
30
0
11
69.5
21
-11.650752
31
0
12
66
22
-11.067419
32
0
13
66
23
-11.067419
33
0
39
0
210
0
220
0
230
1
0
SOLID
5
248
100
AcDbEntity
8
0
62
256
6
ByLayer
370
-1
48
1
60
0
100
AcDbTrace
10
50.5
20
-11.650752
30
0
11
50.5
21
-10.484085
31
0
12
54
22
-11.067419
32
0
13
54
23
-11.067419
33
0
39
0
210
0
220
0
230
1
0
MTEXT
5
249
100
AcDbEntity
8
0
62
256
6
ByLayer
370
18
48
1
60
0
100
AcDbMText
10
79.714286
20
-5.067419
30
0
210
0
220
0
230
1
1
\A1;12
40
3
41
0
44
1
50
0
71
5
72
5
7
iso_b_vert
0
POINT
5
24A
100
AcDbEntity
8
Defpoints
62
0
6
ByLayer
370
-1
48
1
60
0
100
AcDbPoint
10
66
20
-4.067419
30
0
39
0
210
0
220
0
230
1
50
360
0
POINT
5
24B
100
AcDbEntity
8
Defpoints
62
0
6
ByLayer
370
-1
48
1
60
0
100
AcDbPoint
10
54
20
-4.067419
30
0
39
0
210
0
220
0
230
1
50
360
0
POINT
5
24C
100
AcDbEntity
8
Defpoints
62
0
6
ByLayer
370
-1
48
1
60
0
100
AcDbPoint
10
54
20
-11.067419
30
0
39
0
210
0
220
0
230
1
50
360
0
ENDBLK
5
241
100
AcDbEntity
8
0
100
AcDbBlockEnd
0
BLOCK
5
255
100
AcDbEntity
8
0
100
AcDbBlockBegin
2
_U2
70
0
10
0
20
0
30
0
3
_U2
0
MTEXT
5
24E
100
AcDbEntity
8
SK2
62
256
6
ByLayer
370
18
48
1
60
0
100
AcDbMText
10
72.159
20
-10.182304
30
0
210
0
220
0
230
1
1
\W0.5321;12
40
3
41
0
44
1.084337
50
0
71
7
72
5
7
iso_b_vert
0
MTEXT
5
24F
100
AcDbEntity
8
SK2
62
256
6
ByLayer
370
18
48
1
60
0
100
AcDbMText
10
77.466271
20
-9.829823
30
0
210
0
220
0
230
1
1
\W0.8315;\W0.4158;%%p\W0.8315;0.5
40
2.5
41
0
44
1.084337
50
0
71
7
72
5
7
iso_b_vert
0
LINE
5
250
100
AcDbEntity
8
SK2
62
256
6
ByLayer
370
13
48
1
60
0
100
AcDbLine
10
66
20
-5.654919
30
0
11
66
21
-13.067419
31
0
39
0
210
0
220
0
230
1
0
LINE
5
251
100
AcDbEntity
8
SK2
62
256
6
ByLayer
370
13
48
1
60
0
100
AcDbLine
10
54
20
-5.654919
30
0
11
54
21
-13.067419
31
0
39
0
210
0
220
0
230
1
0
LINE
5
252
100
AcDbEntity
8
SK2
62
256
6
ByLayer
370
13
48
1
60
0
100
AcDbLine
10
54
20
-11.067419
30
0
11
84.583008
21
-11.067419
31
0
39
0
210
0
220
0
230
1
0
SOLID
5
253
100
AcDbEntity
8
SK2
62
256
6
ByLayer
370
18
48
1
60
0
100
AcDbTrace
10
66
20
-11.067419
30
0
11
62.500002
21
-11.528202
31
0
12
62.499998
22
-10.606635
32
0
13
62.499998
23
-10.606635
33
0
39
0
210
0
220
0
230
1
0
SOLID
5
254
100
AcDbEntity
8
SK2
62
256
6
ByLayer
370
18
48
1
60
0
100
AcDbTrace
10
54
20
-11.067419
30
0
11
57.499998
21
-10.606635
31
0
12
57.500002
22
-11.528202
32
0
13
57.500002
23
-11.528202
33
0
39
0
210
0
220
0
230
1
0
ENDBLK
5
256
100
AcDbEntity
8
0
100
AcDbBlockEnd
0
BLOCK
5
25B
100
AcDbEntity
8
0
100
AcDbBlockBegin
2
*D7
70
1
10
0
20
0
30
0
3
*D7
0
LINE
5
25D
100
AcDbEntity
8
0
62
256
6
ByLayer
370
-2
48
1
60
0
100
AcDbLine
10
66
20
-5.654919
30
0
11
66
21
-35.567419
31
0
39
0
210
0
220
0
230
1
0
LINE
5
25E
100
AcDbEntity
8
0
62
256
6
ByLayer
370
-2
48
1
60
0
100
AcDbLine
10
31
20
-4.70135
30
0
11
31
21
-35.567419
31
0
39
0
210
0
220
0
230
1
0
LINE
5
25F
100
AcDbEntity
8
0
62
256
6
ByLayer
370
-2
48
1
60
0
100
AcDbLine
10
62.5
20
-33.567419
30
0
11
34.5
21
-33.567419
31
0
39
0
210
0
220
0
230
1
0
SOLID
5
260
100
AcDbEntity
8
0
62
256
6
ByLayer
370
-1
48
1
60
0
100
AcDbTrace
10
62.5
20
-34.150752
30
0
11
62.5
21
-32.984085
31
0
12
66
22
-33.567419
32
0
13
66
23
-33.567419
33
0
39
0
210
0
220
0
230
1
0
SOLID
5
261
100
AcDbEntity
8
0
62
256
6
ByLayer
370
-1
48
1
60
0
100
AcDbTrace
10
34.5
20
-32.984085
30
0
11
34.5
21
-34.150752
31
0
12
31
22
-33.567419
32
0
13
31
23
-33.567419
33
0
39
0
210
0
220
0
230
1
0
MTEXT
5
262
100
AcDbEntity
8
0
62
256
6
ByLayer
370
18
48
1
60
0
100
AcDbMText
10
48.5
20
-27.567419
30
0
210
0
220
0
230
1
1
\A1;35
40
3
41
0
44
1
50
0
71
5
72
5
7
iso_b_vert
0
POINT
5
263
100
AcDbEntity
8
Defpoints
62
0
6
ByLayer
370
-1
48
1
60
0
100
AcDbPoint
10
66
20
-4.067419
30
0
39
0
210
0
220
0
230
1
50
360
0
POINT
5
264
100
AcDbEntity
8
Defpoints
62
0
6
ByLayer
370
-1
48
1
60
0
100
AcDbPoint
10
31
20
-3.11385
30
0
39
0
210
0
220
0
230
1
50
360
0
POINT
5
265
100
AcDbEntity
8
Defpoints
62
0
6
ByLayer
370
-1
48
1
60
0
100
AcDbPoint
10
31
20
-33.567419
30
0
39
0
210
0
220
0
230
1
50
360
0
ENDBLK
5
25C
100
AcDbEntity
8
0
100
AcDbBlockEnd
0
BLOCK
5
26D
100
AcDbEntity
8
0
100
AcDbBlockBegin
2
_U3
70
0
10
0
20
0
30
0
3
_U3
0
MTEXT
5
267
100
AcDbEntity
8
SK2
62
256
6
ByLayer
370
18
48
1
60
0
100
AcDbMText
10
46.867172
20
-32.682304
30
0
210
0
220
0
230
1
1
\W0.6740;35
40
3
41
0
44
1.084337
50
0
71
7
72
5
7
iso_b_vert
0
LINE
5
268
100
AcDbEntity
8
SK2
62
256
6
ByLayer
370
13
48
1
60
0
100
AcDbLine
10
66
20
-5.654919
30
0
11
66
21
-35.567419
31
0
39
0
210
0
220
0
230
1
0
LINE
5
269
100
AcDbEntity
8
SK2
62
256
6
ByLayer
370
13
48
1
60
0
100
AcDbLine
10
31
20
-4.70135
30
0
11
31
21
-35.567419
31
0
39
0
210
0
220
0
230
1
0
LINE
5
26A
100
AcDbEntity
8
SK2
62
256
6
ByLayer
370
13
48
1
60
0
100
AcDbLine
10
66
20
-33.567419
30
0
11
31
21
-33.567419
31
0
39
0
210
0
220
0
230
1
0
SOLID
5
26B
100
AcDbEntity
8
SK2
62
256
6
ByLayer
370
18
48
1
60
0
100
AcDbTrace
10
66
20
-33.567419
30
0
11
62.500002
21
-34.028202
31
0
12
62.499998
22
-33.106635
32
0
13
62.499998
23
-33.106635
33
0
39
0
210
0
220
0
230
1
0
SOLID
5
26C
100
AcDbEntity
8
SK2
62
256
6
ByLayer
370
18
48
1
60
0
100
AcDbTrace
10
31
20
-33.567419
30
0
11
34.499998
21
-33.106635
31
0
12
34.500002
22
-34.028202
32
0
13
34.500002
23
-34.028202
33
0
39
0
210
0
220
0
230
1
0
ENDBLK
5
26E
100
AcDbEntity
8
0
100
AcDbBlockEnd
0
BLOCK
5
273
100
AcDbEntity
8
0
100
AcDbBlockBegin
2
*D9
70
1
10
0
20
0
30
0
3
*D9
0
LINE
5
275
100
AcDbEntity
8
0
62
256
6
ByLayer
370
-2
48
1
60
0
100
AcDbLine
10
66
20
-5.654919
30
0
11
66
21
-24.567419
31
0
39
0
210
0
220
0
230
1
0
LINE
5
276
100
AcDbEntity
8
0
62
256
6
ByLayer
370
-2
48
1
60
0
100
AcDbLine
10
36.25
20
-1.5875
30
0
11
36.25
21
-24.567419
31
0
39
0
210
0
220
0
230
1
0
LINE
5
277
100
AcDbEntity
8
0
62
256
6
ByLayer
370
-2
48
1
60
0
100
AcDbLine
10
62.5
20
-22.567419
30
0
11
39.75
21
-22.567419
31
0
39
0
210
0
220
0
230
1
0
SOLID
5
278
100
AcDbEntity
8
0
62
256
6
ByLayer
370
-1
48
1
60
0
100
AcDbTrace
10
62.5
20
-23.150752
30
0
11
62.5
21
-21.984085
31
0
12
66
22
-22.567419
32
0
13
66
23
-22.567419
33
0
39
0
210
0
220
0
230
1
0
SOLID
5
279
100
AcDbEntity
8
0
62
256
6
ByLayer
370
-1
48
1
60
0
100
AcDbTrace
10
39.75
20
-21.984085
30
0
11
39.75
21
-23.150752
31
0
12
36.25
22
-22.567419
32
0
13
36.25
23
-22.567419
33
0
39
0
210
0
220
0
230
1
0
MTEXT
5
27A
100
AcDbEntity
8
0
62
256
6
ByLayer
370
18
48
1
60
0
100
AcDbMText
10
51.125
20
-16.567419
30
0
210
0
220
0
230
1
1
\A1;29.8
40
3
41
0
44
1
50
0
71
5
72
5
7
iso_b_vert
0
POINT
5
27B
100
AcDbEntity
8
Defpoints
62
0
6
ByLayer
370
-1
48
1
60
0
100
AcDbPoint
10
66
20
-4.067419
30
0
39
0
210
0
220
0
230
1
50
360
0
POINT
5
27C
100
AcDbEntity
8
Defpoints
62
0
6
ByLayer
370
-1
48
1
60
0
100
AcDbPoint
10
36.25
20
0
30
0
39
0
210
0
220
0
230
1
50
360
0
POINT
5
27D
100
AcDbEntity
8
Defpoints
62
0
6
ByLayer
370
-1
48
1
60
0
100
AcDbPoint
10
36.25
20
-22.567419
30
0
39
0
210
0
220
0
230
1
50
360
0
ENDBLK
5
274
100
AcDbEntity
8
0
100
AcDbBlockEnd
0
BLOCK
5
285
100
AcDbEntity
8
0
100
AcDbBlockBegin
2
_U4
70
0
10
0
20
0
30
0
3
_U4
0
MTEXT
5
27F
100
AcDbEntity
8
2
62
256
6
ByLayer
370
18
48
1
60
0
100
AcDbMText
10
47.763544
20
-21.682304
30
0
210
0
220
0
230
1
1
\W0.7346;29.8
40
3
41
0
44
1.084337
50
0
71
7
72
5
7
iso_b_vert
0
LINE
5
280
100
AcDbEntity
8
2
62
256
6
ByLayer
370
13
48
1
60
0
100
AcDbLine
10
66
20
-5.654919
30
0
11
66
21
-24.567419
31
0
39
0
210
0
220
0
230
1
0
LINE
5
281
100
AcDbEntity
8
2
62
256
6
ByLayer
370
13
48
1
60
0
100
AcDbLine
10
36.25
20
-1.5875
30
0
11
36.25
21
-24.567419
31
0
39
0
210
0
220
0
230
1
0
LINE
5
282
100
AcDbEntity
8
2
62
256
6
ByLayer
370
13
48
1
60
0
100
AcDbLine
10
66
20
-22.567419
30
0
11
36.25
21
-22.567419
31
0
39
0
210
0
220
0
230
1
0
SOLID
5
283
100
AcDbEntity
8
2
62
256
6
ByLayer
370
18
48
1
60
0
100
AcDbTrace
10
66
20
-22.567419
30
0
11
62.500002
21
-23.028202
31
0
12
62.499998
22
-22.106635
32
0
13
62.499998
23
-22.106635
33
0
39
0
210
0
220
0
230
1
0
SOLID
5
284
100
AcDbEntity
8
2
62
256
6
ByLayer
370
18
48
1
60
0
100
AcDbTrace
10
36.25
20
-22.567419
30
0
11
39.749998
21
-22.106635
31
0
12
39.750002
22
-23.028202
32
0
13
39.750002
23
-23.028202
33
0
39
0
210
0
220
0
230
1
0
ENDBLK
5
286
100
AcDbEntity
8
0
100
AcDbBlockEnd
0
ENDSEC
0
SECTION
2
ENTITIES
0
ARC
5
D2
100
AcDbEntity
8
SK1
62
256
6
ByLayer
370
18
48
1
60
0
100
AcDbCircle
39
0
10
-18.1
20
0
30
0
40
3.84000000000008
210
0
220
0
230
1
100
AcDbArc
50
323.832158
51
36.167842
0
ARC
5
D3
100
AcDbEntity
8
1
62
256
6
ByLayer
370
18
48
1
60
0
100
AcDbCircle
39
0
10
31.096238
20
-4.21385
30
0
40
1.1
210
0
220
0
230
1
100
AcDbArc
50
90
51
100
0
ARC
5
D4
100
AcDbEntity
8
1
62
256
6
ByLayer
370
18
48
1
60
0
100
AcDbCircle
39
0
10
31.096238
20
4.21385
30
0
40
1.1
210
0
220
0
230
1
100
AcDbArc
50
260
51
270
0
POINT
5
70
100
AcDbEntity
8
80
62
256
6
ByLayer
370
18
48
1
60
0
100
AcDbPoint
10
0
20
0
30
0
39
0
210
0
220
0
230
1
50
360
0
POINT
5
72
100
AcDbEntity
8
81
62
256
6
ByLayer
370
18
48
1
60
0
100
AcDbPoint
10
67.55
20
0
30
0
39
0
210
0
220
0
230
1
50
360
0
POINT
5
74
100
AcDbEntity
8
1
62
256
6
ByLayer
370
18
48
1
60
1
100
AcDbPoint
10
66
20
4.067419
30
0
39
0
210
0
220
0
230
1
50
360
0
POINT
5
76
100
AcDbEntity
8
1
62
256
6
ByLayer
370
18
48
1
60
1
100
AcDbPoint
10
66
20
-4.067419
30
0
39
0
210
0
220
0
230
1
50
360
0
POINT
5
77
100
AcDbEntity
8
1
62
256
6
ByLayer
370
18
48
1
60
1
100
AcDbPoint
10
66
20
4.067419
30
0
39
0
210
0
220
0
230
1
50
360
0
POINT
5
78
100
AcDbEntity
8
1
62
256
6
ByLayer
370
18
48
1
60
1
100
AcDbPoint
10
62.56
20
0
30
0
39
0
210
0
220
0
230
1
50
360
0
POINT
5
79
100
AcDbEntity
8
1
62
256
6
ByLayer
370
18
48
1
60
1
100
AcDbPoint
10
66
20
-4.067419
30
0
39
0
210
0
220
0
230
1
50
360
0
POINT
5
7A
100
AcDbEntity
8
1
62
256
6
ByLayer
370
18
48
1
60
1
100
AcDbPoint
10
54
20
-4.067419
30
0
39
0
210
0
220
0
230
1
50
360
0
POINT
5
7B
100
AcDbEntity
8
1
62
256
6
ByLayer
370
18
48
1
60
1
100
AcDbPoint
10
66
20
-4.067419
30
0
39
0
210
0
220
0
230
1
50
360
0
POINT
5
7C
100
AcDbEntity
8
1
62
256
6
ByLayer
370
18
48
1
60
1
100
AcDbPoint
10
31
20
-3.11385
30
0
39
0
210
0
220
0
230
1
50
360
0
POINT
5
7D
100
AcDbEntity
8
1
62
256
6
ByLayer
370
18
48
1
60
1
100
AcDbPoint
10
66
20
-4.067419
30
0
39
0
210
0
220
0
230
1
50
360
0
POINT
5
7E
100
AcDbEntity
8
1
62
256
6
ByLayer
370
18
48
1
60
1
100
AcDbPoint
10
36.25
20
0
30
0
39
0
210
0
220
0
230
1
50
360
0
SPLINE
5
D5
100
AcDbEntity
8
1
62
256
6
ByLayer
370
13
48
1
60
0
100
AcDbSpline
70
4
71
3
72
8
73
4
40
0
40
0
40
0
40
0
40
1
40
1
40
1
40
1
41
1.04
10
64.4697611985128
20
-3.33605518098204
30
0
41
1.04
10
64.463063626915
20
-3.35158921097957
30
0
41
1.04
10
64.4564039107618
20
-3.36137311644042
30
0
41
1.04
10
64.4497768276544
20
-3.36556618752584
30
0
0
SPLINE
5
D6
100
AcDbEntity
8
1
62
256
6
ByLayer
370
18
48
1
60
0
100
AcDbSpline
70
4
71
3
72
8
73
4
40
0
40
0
40
0
40
0
40
1
40
1
40
1
40
1
41
1.04
10
57.5875628589999
20
3.35032479511676
30
0
41
1.04
10
57.5835734467495
20
3.35721392951899
30
0
41
1.04
10
57.5795891826952
20
3.36210078217024
30
0
41
1.04
10
57.5756141938642
20
3.3649756718357
30
0
0
SPLINE
5
D7
100
AcDbEntity
8
1
62
256
6
ByLayer
370
13
48
1
60
0
100
AcDbSpline
70
4
71
3
72
8
73
4
40
0
40
0
40
0
40
0
40
1
40
1
40
1
40
1
41
1.04
10
55.7100099306796
20
-3.3541076052729
30
0
41
1.04
10
55.7022689202689
20
-3.3658089320479
30
0
41
1.04
10
55.6945060578832
20
-3.37000833330425
30
0
41
1.04
10
55.6867154718524
20
-3.3664963337534
30
0
0
SPLINE
5
D8
100
AcDbEntity
8
1
62
256
6
ByLayer
370
18
48
1
60
0
100
AcDbSpline
70
4
71
3
72
10
73
6
40
0
40
0
40
0
40
0
40
0.880860974599493
40
0.880860974599493
40
1
40
1
40
1
40
1
41
1
10
63.6717255589423
20
-3.66109049919086
30
0
41
1
10
63.6783654998695
20
-3.68173186101973
30
0
41
1
10
63.6849107015119
20
-3.69628270099608
30
0
41
1
10
63.6922338184503
20
-3.70597027837312
30
0
41
1
10
63.6931045742113
20
-3.70701436678971
30
0
41
1
10
63.6939737954068
20
-3.70794825945413
30
0
0
SPLINE
5
D9
100
AcDbEntity
8
1
62
256
6
ByLayer
370
18
48
1
60
0
100
AcDbSpline
70
4
71
3
72
10
73
6
40
0
40
0
40
0
40
0
40
0.908771401833908
40
0.908771401833908
40
1
40
1
40
1
40
1
41
1
10
63.7003451866656
20
-3.71282979072393
30
0
41
1
10
63.7037450193382
20
-3.71437683008412
30
0
41
1
10
63.707127828944
20
-3.71420829942156
30
0
41
1
10
63.7108435276684
20
-3.71212727337576
30
0
41
1
10
63.7111824561865
20
-3.7119200430466
30
0
41
1
10
63.711521353601
20
-3.71169541006347
30
0
0
SPLINE
5
DA
100
AcDbEntity
8
1
62
256
6
ByLayer
370
13
48
1
60
0
100
AcDbSpline
70
4
71
3
72
8
73
4
40
0
40
0
40
0
40
0
40
1
40
1
40
1
40
1
41
1
10
63.4875450643797
20
-3.35433703279529
30
0
41
1
10
63.4798381283528
20
-3.34258920881948
30
0
41
1
10
63.4721829572658
20
-3.32345821502926
30
0
41
1
10
63.4645806587276
20
-3.29734133144555
30
0
0
SPLINE
5
DB
100
AcDbEntity
8
1
62
256
6
ByLayer
370
13
48
1
60
0
100
AcDbSpline
70
4
71
3
72
9
73
5
40
0
40
0
40
0
40
0
40
0.358592183571592
40
1
40
1
40
1
40
1
41
1
10
54.7345851947743
20
-3.34996456266103
30
0
41
1
10
54.73064882854
20
-3.34296472445592
30
0
41
1
10
54.719670842953
20
-3.31793702894382
30
0
41
1
10
54.7086764897261
20
-3.27762492568621
30
0
41
1
10
54.7016158086672
20
-3.24564969436756
30
0
0
SPLINE
5
DC
100
AcDbEntity
8
1
62
256
6
ByLayer
370
13
48
1
60
0
100
AcDbSpline
70
4
71
3
72
9
73
5
40
0
40
0
40
0
40
0
40
0.671856595646097
40
1
40
1
40
1
40
1
41
1
10
57.9168352648862
20
3.31160837640834
30
0
41
1
10
57.9046694215609
20
3.34896534621046
30
0
41
1
10
57.8865510985725
20
3.37711150062197
30
0
41
1
10
57.8686751908187
20
3.36384951734075
30
0
41
1
10
57.8628306194958
20
3.35516885566167
30
0
0
SPLINE
5
DD
100
AcDbEntity
8
1
62
256
6
ByLayer
370
13
48
1
60
0
100
AcDbSpline
70
4
71
3
72
9
73
5
40
0
40
0
40
0
40
0
40
0.989200130787185
40
1
40
1
40
1
40
1
41
1.04
10
63.2111694930465
20
-3.3533534473952
30
0
41
1.04
10
63.1856227501117
20
-3.39380056134693
30
0
41
1.04
10
63.1603314413205
20
-3.34940183928173
30
0
41
1.04
10
63.1356191626993
20
-3.23254464973068
30
0
41
1.04
10
63.1353523404807
20
-3.23127417762253
30
0
0
SPLINE
5
DE
100
AcDbEntity
8
1
62
256
6
ByLayer
370
13
48
1
60
0
100
AcDbSpline
70
4
71
3
72
9
73
5
40
0
40
0
40
0
40
0
40
0.808715943685301
40
1
40
1
40
1
40
1
41
1.04
10
58.9021171211279
20
3.06566907381986
30
0
41
1.04
10
58.8847818556795
20
3.18668801442086
30
0
41
1.04
10
58.8637394410264
20
3.2913498776943
30
0
41
1.04
10
58.8433406638738
20
3.3401087621488
30
0
41
1.04
10
58.8394618014551
20
3.34746082597251
30
0
0
SPLINE
5
DF
100
AcDbEntity
8
1
62
256
6
ByLayer
370
18
48
1
60
0
100
AcDbSpline
70
4
71
3
72
20
73
16
40
0
40
0
40
0
40
0
40
0.0008378548604184
40
0.0008378548604184
40
0.250628391145314
40
0.250628391145314
40
0.50041892743021
40
0.50041892743021
40
0.562866561501433
40
0.562866561501433
40
0.625314195572657
40
0.625314195572657
40
0.750209463715105
40
0.750209463715105
40
1
40
1
40
1
40
1
41
1
10
62.8666074151092
20
-3.93512940921985
30
0
41
1
10
62.8665840777676
20
-3.93513562506851
30
0
41
1
10
62.8665607418257
20
-3.93514176416653
30
0
41
1
10
62.8595806572106
20
-3.93695520155092
30
0
41
1
10
62.8527494505624
20
-3.93194004642365
30
0
41
1
10
62.8393291786733
20
-3.90826044651649
30
0
41
1
10
62.8327419286292
20
-3.88959496278827
30
0
41
1
10
62.8244928436578
20
-3.85762059202509
30
0
41
1
10
62.8228396645306
20
-3.85078472644986
30
0
41
1
10
62.8195331588054
20
-3.8362888436254
30
0
41
1
10
62.8178806775744
20
-3.82863373899369
30
0
41
1
10
62.8129129067628
20
-3.80446620546343
30
0
41
1
10
62.8095814633544
20
-3.78676062407015
30
0
41
1
10
62.7994908960069
20
-3.72888495164409
30
0
41
1
10
62.7926646087709
20
-3.6839329815225
30
0
41
1
10
62.7857796944269
20
-3.63245912967537
30
0
0
SPLINE
5
E0
100
AcDbEntity
8
1
62
256
6
ByLayer
370
18
48
1
60
0
100
AcDbSpline
70
4
71
3
72
17
73
13
40
0
40
0
40
0
40
0
40
0.272935177446635
40
0.272935177446635
40
0.54587035489327
40
0.54587035489327
40
0.682337943616589
40
0.682337943616589
40
0.750571737978248
40
0.750571737978248
40
0.818805532339907
40
1
40
1
40
1
40
1
41
1
10
62.5292102801464
20
-3.58341724838854
30
0
41
1
10
62.5360572419507
20
-3.64383857758187
30
0
41
1
10
62.5427993907788
20
-3.69778161655958
30
0
41
1
10
62.5560929977801
20
-3.79285206432789
30
0
41
1
10
62.5626450364931
20
-3.83398077240827
30
0
41
1
10
62.5725745957379
20
-3.88603582891699
30
0
41
1
10
62.5759013887557
20
-3.90177614369281
30
0
41
1
10
62.5809288311576
20
-3.92288314731664
30
0
41
1
10
62.5826102383673
20
-3.92949657842871
30
0
41
1
10
62.5859695437569
20
-3.94180707794337
30
0
41
1
10
62.5921148278228
20
-3.96266826347434
30
0
41
1
10
62.5982694943198
20
-3.97759405326121
30
0
41
1
10
62.6027386940762
20
-3.98533802091905
30
0
0
SPLINE
5
E1
100
AcDbEntity
8
1
62
256
6
ByLayer
370
13
48
1
60
0
100
AcDbSpline
70
4
71
3
72
9
73
5
40
0
40
0
40
0
40
0
40
0.570224972077377
40
1
40
1
40
1
40
1
41
1.04
10
54.4615291402313
20
-3.35262301546755
30
0
41
1.04
10
54.4445142530594
20
-3.38052832202172
30
0
41
1.04
10
54.4148655536114
20
-3.36436737928643
30
0
41
1.04
10
54.3850970808058
20
-3.23623884372467
30
0
41
1.04
10
54.3722687998134
20
-3.16148089469832
30
0
0
SPLINE
5
E2
100
AcDbEntity
8
1
62
256
6
ByLayer
370
13
48
1
60
0
100
AcDbSpline
70
4
71
3
72
9
73
5
40
0
40
0
40
0
40
0
40
0.156324129402749
40
1
40
1
40
1
40
1
41
1
10
62.2353420405877
20
-3.35175450465849
30
0
41
1
10
62.2309710822386
20
-3.34424726792344
30
0
41
1
10
62.2029341080519
20
-3.28032573829231
30
0
41
1
10
62.1743283820478
20
-3.11312648860726
30
0
41
1
10
62.1501661896752
20
-2.90789213119558
30
0
0
SPLINE
5
E3
100
AcDbEntity
8
1
62
256
6
ByLayer
370
18
48
1
60
0
100
AcDbSpline
70
4
71
3
72
19
73
15
40
0
40
0
40
0
40
0
40
0.155625076525177
40
0.155625076525177
40
0.366718807393883
40
0.366718807393883
40
0.577812538262589
40
0.577812538262589
40
0.630585970979765
40
0.630585970979765
40
0.683359403696941
40
0.788906269131294
40
0.788906269131294
40
1
40
1
40
1
40
1
41
1
10
54.0381199129503
20
-4.06742104186372
30
0
41
1
10
54.0330395831028
20
-4.06743397665954
30
0
41
1
10
54.0279757364512
20
-4.06349220847255
30
0
41
1
10
54.0160484722354
20
-4.04511823300976
30
0
41
1
10
54.0091844258173
20
-4.02744636391512
30
0
41
1
10
53.9954076118596
20
-3.97794382840425
30
0
41
1
10
53.9885056570027
20
-3.94611415389736
30
0
41
1
10
53.97986109155
20
-3.89721194981757
30
0
41
1
10
53.9781291843015
20
-3.88696233163358
30
0
41
1
10
53.9746717938256
20
-3.86559509512566
30
0
41
1
10
53.9695044127557
20
-3.83230165550094
30
0
41
1
10
53.9643885014867
20
-3.7953273314086
30
0
41
1
10
53.9542081423375
20
-3.71655626630041
30
0
41
1
10
53.9474913355874
20
-3.65762473461973
30
0
41
1
10
53.9407798795597
20
-3.59234628518047
30
0
0
SPLINE
5
E4
100
AcDbEntity
8
1
62
256
6
ByLayer
370
13
48
1
60
0
100
AcDbSpline
70
4
71
3
72
8
73
4
40
0
40
0
40
0
40
0
40
1
40
1
40
1
40
1
41
1
10
53.4851862186897
20
-3.35087266742059
30
0
41
1
10
53.4516839298316
20
-3.29393164613001
30
0
41
1
10
53.4192561551826
20
-3.09556800731059
30
0
41
1
10
53.3870961230103
20
-2.79034597307035
30
0
0
SPLINE
5
E5
100
AcDbEntity
8
1
62
256
6
ByLayer
370
18
48
1
60
0
100
AcDbSpline
70
4
71
3
72
8
73
4
40
0
40
0
40
0
40
0
40
1
40
1
40
1
40
1
41
1.04
10
53.2056893129454
20
-3.36005464784663
30
0
41
1.04
10
53.2027547620233
20
-3.36340225831058
30
0
41
1.04
10
53.1998241385238
20
-3.36566089553081
30
0
41
1.04
10
53.1968987674317
20
-3.36683875085162
30
0
0
SPLINE
5
E6
100
AcDbEntity
8
1
62
256
6
ByLayer
370
13
48
1
60
0
100
AcDbSpline
70
4
71
3
72
9
73
5
40
0
40
0
40
0
40
0
40
0.137075086808636
40
1
40
1
40
1
40
1
41
1.04
10
53.1968983628639
20
-3.36683891373774
30
0
41
1.04
10
53.1903236750304
20
-3.36948588636051
30
0
41
1.04
10
53.1425530911287
20
-3.3489701626397
30
0
41
1.04
10
53.0969950360956
20
-3.04286119828435
30
0
41
1.04
10
53.0578667755046
20
-2.62833936069286
30
0
0
SPLINE
5
E7
100
AcDbEntity
8
1
62
256
6
ByLayer
370
18
48
1
60
0
100
AcDbSpline
70
4
71
3
72
23
73
19
40
0
40
0
40
0
40
0
40
0.0698568442469834
40
0.0698568442469834
40
0.202734437925986
40
0.202734437925986
40
0.269173234765487
40
0.269173234765487
40
0.335612031604988
40
0.335612031604988
40
0.46848962528399
40
0.601367218962993
40
0.601367218962993
40
0.734244812641995
40
0.734244812641995
40
0.867122406320997
40
0.867122406320997
40
1
40
1
40
1
40
1
41
1
10
53.0152832628606
20
-3.67389455231955
30
0
41
1
10
53.0128315930538
20
-3.67248707907765
30
0
41
1
10
53.0103871445936
20
-3.66955257398661
30
0
41
1
10
53.0032872286312
20
-3.65660089736116
30
0
41
1
10
52.9986076927477
20
-3.64257228667256
30
0
41
1
10
52.9914882824932
20
-3.61299846265735
30
0
41
1
10
52.9890970839307
20
-3.60170347304501
30
0
41
1
10
52.9842890011952
20
-3.57625785738216
30
0
41
1
10
52.9818868562617
20
-3.56218819265024
30
0
41
1
10
52.9746809243796
20
-3.51601940381281
30
0
41
1
10
52.9650736461532
20
-3.44391963625637
30
0
41
1
10
52.9554315591272
20
-3.3511424081274
30
0
41
1
10
52.9457547025758
20
-3.24794087767828
30
0
41
1
10
52.9408992202159
20
-3.19112922541106
30
0
41
1
10
52.931127717979
20
-3.06669301534654
30
0
41
1
10
52.9262931722574
20
-3.00010594750643
30
0
41
1
10
52.9166858770052
20
-2.85848330458848
30
0
41
1
10
52.9119132674396
20
-2.78344677933109
30
0
41
1
10
52.907144959098
20
-2.70420383893648
30
0
0
SPLINE
5
E8
100
AcDbEntity
8
1
62
256
6
ByLayer
370
18
48
1
60
0
100
AcDbSpline
70
4
71
3
72
8
73
4
40
0
40
0
40
0
40
0
40
1
40
1
40
1
40
1
41
1.04
10
61.962352584445
20
-3.35140384632565
30
0
41
1.04
10
61.9598299361208
20
-3.35575163812483
30
0
41
1.04
10
61.9573052785222
20
-3.35929116965489
30
0
41
1.04
10
61.9547782124222
20
-3.36201463090309
30
0
0
SPLINE
5
E9
100
AcDbEntity
8
1
62
256
6
ByLayer
370
13
48
1
60
0
100
AcDbSpline
70
4
71
3
72
9
73
5
40
0
40
0
40
0
40
0
40
0.338643268365317
40
1
40
1
40
1
40
1
41
1.04
10
61.9547782124222
20
-3.36201463090306
30
0
41
1.04
10
61.939988232474
20
-3.37795403876058
30
0
41
1.04
10
61.8960703980606
20
-3.3424781725912
30
0
41
1.04
10
61.8507352824656
20
-3.04959956080697
30
0
41
1.04
10
61.8208463082558
20
-2.76070256887959
30
0
0
SPLINE
5
EA
100
AcDbEntity
8
1
62
256
6
ByLayer
370
13
48
1
60
0
100
AcDbSpline
70
4
71
3
72
9
73
5
40
0
40
0
40
0
40
0
40
0.966452958632079
40
1
40
1
40
1
40
1
41
1
10
60.9798611488765
20
-3.34029215522625
30
0
41
1
10
60.9338415462555
20
-3.23997278737553
30
0
41
1
10
60.8867999581328
20
-2.86158196576716
30
0
41
1
10
60.837386719886
20
-2.23754418497722
30
0
41
1
10
60.835726452838
20
-2.21634094099039
30
0
0
SPLINE
5
EB
100
AcDbEntity
8
1
62
256
6
ByLayer
370
18
48
1
60
0
100
AcDbSpline
70
4
71
3
72
11
73
7
40
0
40
0
40
0
40
0
40
0.136681175929948
40
0.524695805220709
40
0.979934100596992
40
1
40
1
40
1
40
1
41
1
10
66
20
0.267773770477532
30
0
41
1
10
66
20
0.178815878171889
30
0
41
1
10
66
20
-0.164684634555584
30
0
41
1
10
66.0000000000001
20
-0.810583167781886
30
0
41
1
10
66
20
-1.33916955459571
30
0
41
1
10
65.9999999999999
20
-1.60315843050159
30
0
41
1
10
65.9999999999999
20
-1.61425433455022
30
0
0
SPLINE
5
EC
100
AcDbEntity
8
1
62
256
6
ByLayer
370
13
48
1
60
0
100
AcDbSpline
70
4
71
3
72
9
73
5
40
0
40
0
40
0
40
0
40
0.854627553473128
40
1
40
1
40
1
40
1
41
1.04
10
60.6548588221933
20
-3.30834948173666
30
0
41
1.04
10
60.6132126605292
20
-3.1762412250613
30
0
41
1.04
10
60.5647682329862
20
-2.76948691699056
30
0
41
1.04
10
60.513831455764
20
-2.10345317985589
30
0
41
1.04
10
60.5063801139165
20
-2.00183390551288
30
0
0
SPLINE
5
ED
100
AcDbEntity
8
1
62
256
6
ByLayer
370
13
48
1
60
0
100
AcDbSpline
70
4
71
3
72
9
73
5
40
0
40
0
40
0
40
0
40
0.430153262924304
40
1
40
1
40
1
40
1
41
1
10
59.6696357889801
20
-3.06042708253247
30
0
41
1
10
59.6490332428788
20
-2.91477434433867
30
0
41
1
10
59.6008726012083
20
-2.45981581083635
30
0
41
1
10
59.5508020508668
20
-1.7541252001588
30
0
41
1
10
59.5212980127394
20
-1.2937594084608
30
0
0
SPLINE
5
EE
100
AcDbEntity
8
1
62
256
6
ByLayer
370
13
48
1
60
0
100
AcDbSpline
70
4
71
3
72
10
73
6
40
0
40
0
40
0
40
0
40
0.448438009776524
40
0.776643298130676
40
1
40
1
40
1
40
1
41
1.04
10
54.0821337130513
20
0.799233718895538
30
0
41
1.04
10
54.0604389195257
20
1.15579198860347
30
0
41
1.04
10
54.0221248111315
20
1.75974506997679
30
0
41
1.04
10
53.9716243957558
20
2.4228236288989
30
0
41
1.04
10
53.9448196447936
20
2.70387976797437
30
0
41
1.04
10
53.9341143601972
20
2.80405064934246
30
0
0
SPLINE
5
EF
100
AcDbEntity
8
1
62
256
6
ByLayer
370
13
48
1
60
0
100
AcDbSpline
70
4
71
3
72
9
73
5
40
0
40
0
40
0
40
0
40
0.879783429202592
40
1
40
1
40
1
40
1
41
1
10
58.355066250951
20
-2.45179679012287
30
0
41
1
10
58.3141867017013
20
-1.97490714385381
30
0
41
1
10
58.2656602345272
20
-1.23045778040677
30
0
41
1
10
58.213091333833
20
-0.343662136747497
30
0
41
1
10
58.206710531886
20
-0.235562644099559
30
0
0
SPLINE
5
F0
100
AcDbEntity
8
1
62
256
6
ByLayer
370
13
48
1
60
0
100
AcDbSpline
70
4
71
3
72
10
73
6
40
0
40
0
40
0
40
0
40
0.549821480545491
40
0.878797231891636
40
1
40
1
40
1
40
1
41
1.04
10
56.7112446481452
20
-1.3404695006674
30
0
41
1.04
10
56.6847008650804
20
-0.928444108064114
30
0
41
1.04
10
56.6420279059603
20
-0.210186371696198
30
0
41
1.04
10
56.5920909747995
20
0.637652671293027
30
0
41
1.04
10
56.5692852129339
20
1.00871382856993
30
0
41
1.04
10
56.5631227518051
20
1.10736350076905
30
0
0
SPLINE
5
F1
100
AcDbEntity
8
1
62
256
6
ByLayer
370
13
48
1
60
0
100
AcDbSpline
70
4
71
3
72
10
73
6
40
0
40
0
40
0
40
0
40
0.664299626843409
40
0.991080681879257
40
1
40
1
40
1
40
1
41
1
10
57.0405633180303
20
-1.58737118022884
30
0
41
1
10
57.0083407261323
20
-1.1060540079483
30
0
41
1
10
56.9600784455401
20
-0.293580546664856
30
0
41
1
10
56.9098060816644
20
0.559430958222634
30
0
41
1
10
56.8927463317225
20
0.839617147071948
30
0
41
1
10
56.8922929374837
20
0.847056941474904
30
0
0
SPLINE
5
F2
100
AcDbEntity
8
1
62
256
6
ByLayer
370
13
48
1
60
0
100
AcDbSpline
70
4
71
3
72
10
73
6
40
0
40
0
40
0
40
0
40
0.331050643552148
40
0.994524682257903
40
1
40
1
40
1
40
1
41
1.04
10
55.3966526051208
20
-0.285718900417218
30
0
41
1.04
10
55.3804941408437
20
-0.0131075616280349
30
0
41
1.04
10
55.3319333544381
20
0.814622969694385
30
0
41
1.04
10
55.2823413114036
20
1.61137825593754
30
0
41
1.04
10
55.2488611370722
20
2.05979470393435
30
0
41
1.04
10
55.2485870834783
20
2.06345927215647
30
0
0
SPLINE
5
F3
100
AcDbEntity
8
1
62
256
6
ByLayer
370
13
48
1
60
0
100
AcDbSpline
70
4
71
3
72
9
73
5
40
0
40
0
40
0
40
0
40
0.446965993773138
40
1
40
1
40
1
40
1
41
1
10
55.7259358691058
20
-0.55721887042472
30
0
41
1
10
55.7040462344299
20
-0.191687850976905
30
0
41
1
10
55.6551607366598
20
0.647337881661599
30
0
41
1
10
55.6055025166785
20
1.44883510283134
30
0
41
1
10
55.5778254246334
20
1.84125411363871
30
0
0
SPLINE
5
F4
100
AcDbEntity
8
1
62
256
6
ByLayer
370
18
48
1
60
0
100
AcDbSpline
70
4
71
3
72
30
73
26
40
0
40
0
40
0
40
0
40
0.124999999999999
40
0.124999999999999
40
0.187499999999998
40
0.187499999999998
40
0.218749999999998
40
0.218749999999998
40
0.249999999999998
40
0.249999999999998
40
0.374999999999998
40
0.374999999999998
40
0.499999999999998
40
0.499999999999998
40
0.562499999999998
40
0.562499999999998
40
0.593749999999998
40
0.593749999999998
40
0.624999999999998
40
0.624999999999998
40
0.749999999999999
40
0.749999999999999
40
0.874999999999999
40
0.874999999999999
40
1
40
1
40
1
40
1
41
1
10
56.2955702088481
20
-1.41012861304796
30
0
41
1
10
56.2887873069017
20
-1.2796229783988
30
0
41
1
10
56.2820331479358
20
-1.14664621623436
30
0
41
1
10
56.2718663005626
20
-0.943418512336791
30
0
41
1
10
56.2684712047405
20
-0.875047640238762
30
0
41
1
10
56.2633577039843
20
-0.77153031119667
30
0
41
1
10
56.2616475342788
20
-0.736819787098909
30
0
41
1
10
56.2582363138418
20
-0.667444129894619
30
0
41
1
10
56.2565337461868
20
-0.632748529324203
30
0
41
1
10
56.2480310950497
20
-0.45923233973636
30
0
41
1
10
56.2412607576469
20
-0.320297536236751
30
0
41
1
10
56.2276667597899
20
-0.0421958215946177
30
0
41
1
10
56.2208340194935
20
0.0969706529642167
30
0
41
1
10
56.2105377959206
20
0.305895363633368
30
0
41
1
10
56.2070985137933
20
0.375566189655927
30
0
41
1
10
56.2019249105603
20
0.480116818085264
30
0
41
1
10
56.2001978689233
20
0.514974426677412
30
0
41
1
10
56.1967374108409
20
0.584704539364225
30
0
41
1
10
56.1950014426881
20
0.619628183505853
30
0
41
1
10
56.1863409302069
20
0.793484949169198
30
0
41
1
10
56.1794638426412
20
0.930236804883748
30
0
41
1
10
56.1657043476367
20
1.19922253639709
30
0
41
1
10
56.1588466535101
20
1.33145719897485
30
0
41
1
10
56.1452099741598
20
1.59141856390838
30
0
41
1
10
56.1384306255283
20
1.71914556654769
30
0
41
1
10
56.1316480830245
20
1.84454729694281
30
0
0
SPLINE
5
F5
100
AcDbEntity
8
1
62
256
6
ByLayer
370
18
48
1
60
0
100
AcDbSpline
70
4
71
3
72
30
73
26
40
0
40
0
40
0
40
0
40
0.125
40
0.125
40
0.187500000000001
40
0.187500000000001
40
0.218750000000001
40
0.218750000000001
40
0.250000000000002
40
0.250000000000002
40
0.375000000000002
40
0.375000000000002
40
0.500000000000001
40
0.500000000000001
40
0.562500000000001
40
0.562500000000001
40
0.593750000000001
40
0.593750000000001
40
0.625
40
0.625
40
0.75
40
0.75
40
0.875
40
0.875
40
1
40
1
40
1
40
1
41
1
10
55.9966240905468
20
1.96508050005528
30
0
41
1
10
56.003527248467
20
1.84324647896994
30
0
41
1
10
56.010391968803
20
1.7179095638239
30
0
41
1
10
56.0206517199609
20
1.52455012946356
30
0
41
1
10
56.0240661568908
20
1.45920292567155
30
0
41
1
10
56.0291895554497
20
1.35981210782137
30
0
41
1
10
56.0308946692744
20
1.3265117346109
30
0
41
1
10
56.0342890733513
20
1.259823720687
30
0
41
1
10
56.0359802968164
20
1.22639863269481
30
0
41
1
10
56.0444136066687
20
1.05887232488843
30
0
41
1
10
56.051083691669
20
0.923571534573284
30
0
41
1
10
56.0645083909851
20
0.650476393582721
30
0
41
1
10
56.0712897680539
20
0.51268327975572
30
0
41
1
10
56.081583617627
20
0.304107412420734
30
0
41
1
10
56.0850332515472
20
0.234267048797562
30
0
41
1
10
56.0902339516955
20
0.129025685765356
30
0
41
1
10
56.0919719075106
20
0.0938650540597905
30
0
41
1
10
56.095456577138
20
0.0233815540437945
30
0
41
1
10
56.097202304092
20
-0.0119213368884914
30
0
41
1
10
56.105901999182
20
-0.187813073735469
30
0
41
1
10
56.1128077465525
20
-0.327344025072136
30
0
41
1
10
56.1265374720521
20
-0.604110946765331
30
0
41
1
10
56.1333613444996
20
-0.741346738401205
30
0
41
1
10
56.1469885230283
20
-1.01351668979683
30
0
41
1
10
56.1537917214201
20
-1.14845106478128
30
0
41
1
10
56.1606343903472
20
-1.28219333081387
30
0
0
SPLINE
5
F6
100
AcDbEntity
8
1
62
256
6
ByLayer
370
13
48
1
60
0
100
AcDbSpline
70
4
71
3
72
10
73
6
40
0
40
0
40
0
40
0
40
0.567246702038116
40
0.895454106186974
40
1
40
1
40
1
40
1
41
1
10
54.4113946909324
20
0.531351989046584
30
0
41
1
10
54.3842503257825
20
0.985342362906181
30
0
41
1
10
54.3402352585427
20
1.69610988708771
30
0
41
1
10
54.2897352925085
20
2.35643918208265
30
0
41
1
10
54.2685272232766
20
2.58990951560827
30
0
41
1
10
54.2634390834264
20
2.6432861604587
30
0
0
SPLINE
5
F7
100
AcDbEntity
8
1
62
256
6
ByLayer
370
13
48
1
60
0
100
AcDbSpline
70
4
71
3
72
9
73
5
40
0
40
0
40
0
40
0
40
0.769938372290978
40
1
40
1
40
1
40
1
41
1.04
10
58.0258150650541
20
-2.25550709259031
30
0
41
1.04
10
57.9901572764337
20
-1.80545804468418
30
0
41
1.04
10
57.9419223885747
20
-1.05788523992129
30
0
41
1.04
10
57.8897736453007
20
-0.170843963873816
30
0
41
1.04
10
57.8775508535661
20
0.0368480754349758
30
0
0
SPLINE
5
F8
100
AcDbEntity
8
1
62
256
6
ByLayer
370
18
48
1
60
0
100
AcDbSpline
70
4
71
3
72
33
73
29
40
0
40
0
40
0
40
0
40
0.0312500000000002
40
0.0312500000000002
40
0.0625000000000003
40
0.125000000000001
40
0.125000000000001
40
0.250000000000002
40
0.250000000000002
40
0.375000000000003
40
0.375000000000003
40
0.406250000000003
40
0.406250000000003
40
0.437500000000003
40
0.437500000000003
40
0.500000000000003
40
0.500000000000003
40
0.625000000000002
40
0.625000000000002
40
0.750000000000002
40
0.750000000000002
40
0.812500000000002
40
0.812500000000002
40
0.843750000000001
40
0.843750000000001
40
0.875000000000001
40
0.875000000000001
40
1
40
1
40
1
40
1
41
1
10
54.6822818642892
20
2.99670746849293
30
0
41
1
10
54.6840392196191
20
2.97291738910221
30
0
41
1
10
54.6858003405676
20
2.94872438202245
30
0
41
1
10
54.6893007829547
20
2.89984489121375
30
0
41
1
10
54.6945265746306
20
2.82568870870966
30
0
41
1
10
54.6996566337274
20
2.74905021368835
30
0
41
1
10
54.7097853837442
20
2.59251495369986
30
0
41
1
10
54.7163464683073
20
2.48382138116773
30
0
41
1
10
54.7294746186924
20
2.2578407005461
30
0
41
1
10
54.7361239279921
20
2.14055729524534
30
0
41
1
10
54.7446739884834
20
1.98846316175724
30
0
41
1
10
54.7463931764476
20
1.95776903178037
30
0
41
1
10
54.7498482726685
20
1.89582398042001
30
0
41
1
10
54.7515863728168
20
1.86453312500854
30
0
41
1
10
54.7567956174801
20
1.77032056908348
30
0
41
1
10
54.7602678729318
20
1.70694760308442
30
0
41
1
10
54.7706668095267
20
1.51516845246391
30
0
41
1
10
54.7775730017652
20
1.38510620605734
30
0
41
1
10
54.7913026139381
20
1.12063384197646
30
0
41
1
10
54.7981250135117
20
0.986223634448947
30
0
41
1
10
54.8083455241016
20
0.781300017515775
30
0
41
1
10
54.811751024233
20
0.712439729091273
30
0
41
1
10
54.816872668787
20
0.608304998817857
30
0
41
1
10
54.8185847064435
20
0.573401124845503
30
0
41
1
10
54.8220013963985
20
0.503625095287134
30
0
41
1
10
54.8237062366322
20
0.468749457802801
30
0
41
1
10
54.8322230059027
20
0.294432936557001
30
0
41
1
10
54.8390344224338
20
0.155177615200699
30
0
41
1
10
54.8458338844825
20
0.0161147055854372
30
0
0
SPLINE
5
F9
100
AcDbEntity
8
1
62
256
6
ByLayer
370
18
48
1
60
0
100
AcDbSpline
70
4
71
3
72
29
73
25
40
0
40
0
40
0
40
0
40
0.0312499999999999
40
0.0312499999999999
40
0.0624999999999998
40
0.125
40
0.125
40
0.249999999999999
40
0.249999999999999
40
0.374999999999999
40
0.374999999999999
40
0.437499999999999
40
0.437499999999999
40
0.499999999999999
40
0.499999999999999
40
0.624999999999999
40
0.624999999999999
40
0.749999999999999
40
0.749999999999999
40
0.812499999999999
40
0.812499999999999
40
0.874999999999999
40
0.874999999999999
40
1
40
1
40
1
40
1
41
1
10
57.610190428724
20
-2.55336847006814
30
0
41
1
10
57.6084717829641
20
-2.52599030228578
30
0
41
1
10
57.6067502650935
20
-2.49823905905996
30
0
41
1
10
57.6033139722716
20
-2.44221224189954
30
0
41
1
10
57.5981775086311
20
-2.35751656692426
30
0
41
1
10
57.5930865139943
20
-2.27087947334678
30
0
41
1
10
57.5829405504867
20
-2.09506244816839
30
0
41
1
10
57.5762244748793
20
-1.97446720342643
30
0
41
1
10
57.5627508288622
20
-1.72658711712188
30
0
41
1
10
57.5559923649489
20
-1.59930250071977
30
0
41
1
10
57.5457302685315
20
-1.4032568327631
30
0
41
1
10
57.5422864813823
20
-1.33700412787545
30
0
41
1
10
57.5353567091973
20
-1.20295484636682
30
0
41
1
10
57.5318960655894
20
-1.13565024309835
30
0
41
1
10
57.5215177049844
20
-0.932915255481191
30
0
41
1
10
57.5146002306519
20
-0.796666002241466
30
0
41
1
10
57.5007898469261
20
-0.522023584745682
30
0
41
1
10
57.4939089584418
20
-0.383629788447678
30
0
41
1
10
57.4836239687948
20
-0.174410398178225
30
0
41
1
10
57.4802004962344
20
-0.104398682178555
30
0
41
1
10
57.4733509484286
20
0.0361779512997202
30
0
41
1
10
57.4699170943604
20
0.106902712825701
30
0
41
1
10
57.4596963208664
20
0.317596513979026
30
0
41
1
10
57.4529549726635
20
0.456698571213792
30
0
41
1
10
57.4462271480168
20
0.594475439554571
30
0
0
SPLINE
5
FA
100
AcDbEntity
8
1
62
256
6
ByLayer
370
18
48
1
60
0
100
AcDbSpline
70
4
71
3
72
26
73
22
40
0
40
0
40
0
40
0
40
0.124999999999999
40
0.124999999999999
40
0.249999999999999
40
0.249999999999999
40
0.312499999999998
40
0.312499999999998
40
0.374999999999998
40
0.374999999999998
40
0.499999999999999
40
0.499999999999999
40
0.624999999999999
40
0.624999999999999
40
0.749999999999999
40
0.749999999999999
40
0.8125
40
0.8125
40
0.875
40
0.875
40
1
40
1
40
1
40
1
41
1
10
57.3108081509669
20
0.729038145887415
30
0
41
1
10
57.3176234811207
20
0.590687791024919
30
0
41
1
10
57.3243879582694
20
0.452028754850289
30
0
41
1
10
57.3379063191398
20
0.174114041703604
30
0
41
1
10
57.3446662594609
20
0.0348586231634158
30
0
41
1
10
57.3549338459317
20
-0.174467576422899
30
0
41
1
10
57.3583745087623
20
-0.244317120905663
30
0
41
1
10
57.3652938921782
20
-0.384166587781948
30
0
41
1
10
57.368774902579
20
-0.454212876050832
30
0
41
1
10
57.3792632652414
20
-0.664295379663514
30
0
41
1
10
57.3862107445164
20
-0.802182433735311
30
0
41
1
10
57.4000321381097
20
-1.07377260664859
30
0
41
1
10
57.4069055265276
20
-1.207475299484
30
0
41
1
10
57.420613031731
20
-1.47070940921046
30
0
41
1
10
57.4274466796256
20
-1.60024111458895
30
0
41
1
10
57.4377190190928
20
-1.79131845531921
30
0
41
1
10
57.4411548082688
20
-1.85461052083639
30
0
41
1
10
57.4479718194804
20
-1.97872775884252
30
0
41
1
10
57.451360559843
20
-2.03969558929651
30
0
41
1
10
57.4614904957448
20
-2.21938487287989
30
0
41
1
10
57.4681945845604
20
-2.33490045819286
30
0
41
1
10
57.4749203081798
20
-2.4461883609182
30
0
0
SPLINE
5
FB
100
AcDbEntity
8
1
62
256
6
ByLayer
370
13
48
1
60
0
100
AcDbSpline
70
4
71
3
72
10
73
6
40
0
40
0
40
0
40
0
40
0.313600130169263
40
0.971263282274
40
1
40
1
40
1
40
1
41
1.04
10
59.3403142994539
20
-2.93578487122265
30
0
41
1.04
10
59.325379058072
20
-2.81184247159482
30
0
41
1.04
10
59.2788311201612
20
-2.34859324405858
30
0
41
1.04
10
59.2290863093375
20
-1.63185655154151
30
0
41
1.04
10
59.1934872528372
20
-1.0610395138103
30
0
41
1.04
10
59.191994355614
20
-1.03701015779396
30
0
0
SPLINE
5
FC
100
AcDbEntity
8
1
62
256
6
ByLayer
370
18
48
1
60
0
100
AcDbSpline
70
4
71
3
72
27
73
23
40
0
40
0
40
0
40
0
40
0.0920424311712504
40
0.0920424311712504
40
0.156896543230447
40
0.156896543230447
40
0.189323599260046
40
0.189323599260046
40
0.221750655289644
40
0.221750655289644
40
0.351458879408038
40
0.351458879408038
40
0.383885935437637
40
0.383885935437637
40
0.416312991467235
40
0.481167103526432
40
0.481167103526432
40
0.610875327644824
40
0.610875327644824
40
0.740583551763216
40
0.740583551763216
40
1
40
1
40
1
40
1
41
1
10
66
20
0.26623823963925
30
0
41
1
10
66
20
0.266272893094794
30
0
41
1
10
66.0000000000001
20
0.269448951074878
30
0
41
1
10
66
20
0.280221012298142
30
0
41
1
10
66.0000000000001
20
0.286227756163697
30
0
41
1
10
66.0000000000001
20
0.297607229024351
30
0
41
1
10
66
20
0.301796107466828
30
0
41
1
10
66
20
0.310982373293712
30
0
41
1
10
66.0000000000001
20
0.315986316157108
30
0
41
1
10
66.0000000000001
20
0.342815855989272
30
0
41
1
10
66
20
0.370166903004474
30
0
41
1
10
65.9999999999999
20
0.411392750923227
30
0
41
1
10
65.9999999999999
20
0.419974071426168
30
0
41
1
10
65.9999999999999
20
0.437309794015221
30
0
41
1
10
66
20
0.463733206649266
30
0
41
1
10
65.9999999999999
20
0.49145171755913
30
0
41
1
10
65.9999999999999
20
0.548667904144594
30
0
41
1
10
66
20
0.589179451381966
30
0
41
1
10
66
20
0.674926008320085
30
0
41
1
10
66
20
0.719792539395968
30
0
41
1
10
66
20
0.860217132457905
30
0
41
1
10
66
20
0.961615078462188
30
0
41
1
10
66
20
1.07064123963724
30
0
0
SPLINE
5
FD
100
AcDbEntity
8
1
62
256
6
ByLayer
370
18
48
1
60
0
100
AcDbSpline
70
4
71
3
72
8
73
4
40
0
40
0
40
0
40
0
40
1
40
1
40
1
40
1
41
1
10
66
20
1.20085191129823
30
0
41
1
10
66.0052509684155
20
1.15649466047347
30
0
41
1
10
66.0056004153133
20
1.11283406598764
30
0
41
1
10
66
20
1.07064123963724
30
0
0
SPLINE
5
FE
100
AcDbEntity
8
1
62
256
6
ByLayer
370
18
48
1
60
0
100
AcDbSpline
70
4
71
3
72
35
73
31
40
0
40
0
40
0
40
0
40
0.125
40
0.125
40
0.187500000000001
40
0.187500000000001
40
0.250000000000001
40
0.250000000000001
40
0.375000000000001
40
0.437500000000001
40
0.437500000000001
40
0.468750000000001
40
0.468750000000001
40
0.500000000000001
40
0.500000000000001
40
0.531250000000001
40
0.531250000000001
40
0.562500000000001
40
0.562500000000001
40
0.625000000000001
40
0.625000000000001
40
0.750000000000001
40
0.750000000000001
40
0.781250000000001
40
0.781250000000001
40
0.812500000000002
40
0.812500000000002
40
0.875000000000001
40
0.875000000000001
40
1
40
1
40
1
40
1
41
1
10
66.0000000000001
20
1.20085191129826
30
0
41
1
10
66.0000000000001
20
1.2582842744915
30
0
41
1
10
66.0000000000001
20
1.31763964841369
30
0
41
1
10
66
20
1.40961519785705
30
0
41
1
10
66
20
1.44076278701848
30
0
41
1
10
66.0000000000001
20
1.50404529121616
30
0
41
1
10
66
20
1.53620126491768
30
0
41
1
10
66
20
1.63365583052834
30
0
41
1
10
66
20
1.73331612713889
30
0
41
1
10
65.9999999999999
20
1.83627872401058
30
0
41
1
10
65.9999999999999
20
1.88830251853903
30
0
41
1
10
66.0000000000001
20
1.90571555625067
30
0
41
1
10
66.0000000000001
20
1.94082002765552
30
0
41
1
10
66
20
1.95860347156068
30
0
41
1
10
66
20
1.9946939407981
30
0
41
1
10
66
20
2.01298379476177
30
0
41
1
10
66
20
2.05007044768161
30
0
41
1
10
66
20
2.06887013410346
30
0
41
1
10
66
20
2.12554125576963
30
0
41
1
10
66
20
2.16384345637479
30
0
41
1
10
66.0000000000001
20
2.28026912507914
30
0
41
1
10
66
20
2.35991731339513
30
0
41
1
10
66
20
2.46204138252963
30
0
41
1
10
66
20
2.4825944156795
30
0
41
1
10
65.9999999999999
20
2.52396103146967
30
0
41
1
10
66.0000000000001
20
2.54480810668332
30
0
41
1
10
66.0000000000001
20
2.60718272867135
30
0
41
1
10
66
20
2.64870308094478
30
0
41
1
10
66
20
2.77308072126172
30
0
41
1
10
65.9999999999999
20
2.85575868580665
30
0
41
1
10
65.9999999999999
20
2.93819180063267
30
0
0
SPLINE
5
FF
100
AcDbEntity
8
1
62
256
6
ByLayer
370
18
48
1
60
0
100
AcDbSpline
70
4
71
3
72
10
73
6
40
0
40
0
40
0
40
0
40
0.5
40
0.5
40
1
40
1
40
1
40
1
41
1
10
65.9999999999999
20
2.93819180063269
30
0
41
1
10
65.9507305217721
20
2.98866687546135
30
0
41
1
10
65.9010837854408
20
3.03899999565337
30
0
41
1
10
65.8010744854544
20
3.13955817126677
30
0
41
1
10
65.7507214513785
20
3.18977299244841
30
0
41
1
10
65.7000000303635
20
3.24004966035005
30
0
0
SPLINE
5
100
100
AcDbEntity
8
1
62
256
6
ByLayer
370
18
48
1
60
0
100
AcDbSpline
70
4
71
3
72
10
73
6
40
0
40
0
40
0
40
0
40
0.5
40
0.5
40
1
40
1
40
1
40
1
41
1
10
65.7000000303635
20
3.24004966035005
30
0
41
1
10
65.6390018588958
20
3.25538547802398
30
0
41
1
10
65.578136380984
20
3.26976609276753
30
0
41
1
10
65.4569693993216
20
3.29652911535212
30
0
41
1
10
65.3966391251657
20
3.30891848385713
30
0
41
1
10
65.3365548738275
20
3.32030658006519
30
0
0
SPLINE
5
101
100
AcDbEntity
8
1
62
256
6
ByLayer
370
18
48
1
60
0
100
AcDbSpline
70
4
71
3
72
30
73
26
40
0
40
0
40
0
40
0
40
0.0625000000000201
40
0.0625000000000201
40
0.12500000000004
40
0.12500000000004
40
0.250000000000079
40
0.250000000000079
40
0.375000000000118
40
0.375000000000118
40
0.500000000000157
40
0.500000000000157
40
0.562500000000137
40
0.562500000000137
40
0.625000000000117
40
0.625000000000117
40
0.750000000000077
40
0.750000000000077
40
0.812500000000058
40
0.812500000000058
40
0.875000000000039
40
0.875000000000039
40
0.937500000000019
40
0.937500000000019
40
1
40
1
40
1
40
1
41
1
10
65.3365548738275
20
3.32030658006519
30
0
41
1
10
65.3315878433034
20
3.31514479481376
30
0
41
1
10
65.3264009968126
20
3.31026430291897
30
0
41
1
10
65.3156072735597
20
3.30104059029262
30
0
41
1
10
65.3100067465647
20
3.29670679484198
30
0
41
1
10
65.2928526476945
20
3.28466470686817
30
0
41
1
10
65.280869854329
20
3.27783466153141
30
0
41
1
10
65.255883610078
20
3.26646087609086
30
0
41
1
10
65.2427970732954
20
3.26191169452801
30
0
41
1
10
65.2163429490237
20
3.25543517218222
30
0
41
1
10
65.2029075898699
20
3.25346018272992
30
0
41
1
10
65.1824500714895
20
3.25254419510895
30
0
41
1
10
65.1755797941702
20
3.25258250420009
30
0
41
1
10
65.1617330810907
20
3.2534121176771
30
0
41
1
10
65.1547226417844
20
3.25421103462614
30
0
41
1
10
65.1338990299922
20
3.2578177304317
30
0
41
1
10
65.1202272050209
20
3.26179837925665
30
0
41
1
10
65.1001432179301
20
3.27068891531667
30
0
41
1
10
65.0934848006434
20
3.27417157355353
30
0
41
1
10
65.080667489435
20
3.28209781588669
30
0
41
1
10
65.0744778322813
20
3.28654835481939
30
0
41
1
10
65.0625944698482
20
3.29654839363107
30
0
41
1
10
65.0568623044643
20
3.30214171975149
30
0
41
1
10
65.0461856468439
20
3.31441719607909
30
0
41
1
10
65.0412650888314
20
3.32105711652997
30
0
41
1
10
65.0368117586323
20
3.32826090123495
30
0
0
SPLINE
5
102
100
AcDbEntity
8
1
62
256
6
ByLayer
370
18
48
1
60
0
100
AcDbSpline
70
4
71
3
72
8
73
4
40
0
40
0
40
0
40
0
40
1
40
1
40
1
40
1
41
1
10
65.0368117586323
20
3.32826090123495
30
0
41
1
10
65.0276607818012
20
3.34306368117402
30
0
41
1
10
65.0185167027821
20
3.35782813252993
30
0
41
1
10
65.0093791740765
20
3.37255478691199
30
0
0
SPLINE
5
103
100
AcDbEntity
8
1
62
256
6
ByLayer
370
18
48
1
60
0
100
AcDbSpline
70
4
71
3
72
8
73
4
40
0
40
0
40
0
40
0
40
1
40
1
40
1
40
1
41
1
10
65.0093791740764
20
3.37255478691199
30
0
41
1
10
64.7378542569185
20
3.40759425023029
30
0
41
1
10
64.4711524811856
20
3.42076504174705
30
0
41
1
10
64.2063827308662
20
3.41087626106167
30
0
0
SPLINE
5
104
100
AcDbEntity
8
1
62
256
6
ByLayer
370
18
48
1
60
0
100
AcDbSpline
70
4
71
3
72
8
73
4
40
0
40
0
40
0
40
0
40
1
40
1
40
1
40
1
41
1
10
64.2063827308661
20
3.41087626106184
30
0
41
1
10
64.1550015135485
20
3.31050332800302
30
0
41
1
10
64.1033996448951
20
3.2091059441172
30
0
41
1
10
64.0514803860054
20
3.10669855408128
30
0
0
SPLINE
5
105
100
AcDbEntity
8
1
62
256
6
ByLayer
370
18
48
1
60
0
100
AcDbSpline
70
4
71
3
72
30
73
26
40
0
40
0
40
0
40
0
40
0.124999999999935
40
0.124999999999935
40
0.24999999999987
40
0.24999999999987
40
0.374999999999805
40
0.374999999999805
40
0.437499999999804
40
0.437499999999804
40
0.499999999999802
40
0.499999999999802
40
0.6249999999998
40
0.6249999999998
40
0.687499999999833
40
0.687499999999833
40
0.749999999999866
40
0.749999999999866
40
0.8124999999999
40
0.8124999999999
40
0.874999999999933
40
0.874999999999933
40
0.937499999999966
40
0.937499999999966
40
1
40
1
40
1
40
1
41
1
10
64.0514803860054
20
3.10669855408125
30
0
41
1
10
64.042643839152
20
3.08926903525634
30
0
41
1
10
64.0323892122023
20
3.07336621162489
30
0
41
1
10
64.009667173426
20
3.04391968773504
30
0
41
1
10
63.9970845727639
20
3.03031766586994
30
0
41
1
10
63.9706611583948
20
3.0060860326046
30
0
41
1
10
63.9567582810218
20
2.9953517612748
30
0
41
1
10
63.9349108282397
20
2.98127837063018
30
0
41
1
10
63.9274572654759
20
2.97693156700316
30
0
41
1
10
63.9124733142393
20
2.96907925303287
30
0
41
1
10
63.9049116381593
20
2.96555222012296
30
0
41
1
10
63.8820242467585
20
2.95618779263751
30
0
41
1
10
63.866499324513
20
2.95154317083825
30
0
41
1
10
63.8427897068628
20
2.94740346536801
30
0
41
1
10
63.83480235245
20
2.94650676814399
30
0
41
1
10
63.8190590231199
20
2.94582024693986
30
0
41
1
10
63.8112583110959
20
2.94601940539383
30
0
41
1
10
63.7958245309027
20
2.94762764510386
30
0
41
1
10
63.7881744820636
20
2.94903954899124
30
0
41
1
10
63.7731520716386
20
2.953280328277
30
0
41
1
10
63.7659147696735
20
2.95606892257896
30
0
41
1
10
63.7520590578919
20
2.96314172590743
30
0
41
1
10
63.7454151163396
20
2.96744314637743
30
0
41
1
10
63.7329808849956
20
2.97776749719284
30
0
41
1
10
63.727300327706
20
2.98369184792992
30
0
41
1
10
63.7222259540766
20
2.99048216437686
30
0
0
SPLINE
5
106
100
AcDbEntity
8
1
62
256
6
ByLayer
370
18
48
1
60
0
100
AcDbSpline
70
4
71
3
72
8
73
4
40
0
40
0
40
0
40
0
40
1
40
1
40
1
40
1
41
1
10
63.7222259540766
20
2.99048216437689
30
0
41
1
10
63.6352808351875
20
3.10682851840687
30
0
41
1
10
63.5488685623042
20
3.21704129741661
30
0
41
1
10
63.4632083756372
20
3.32075100567985
30
0
0
SPLINE
5
107
100
AcDbEntity
8
1
62
256
6
ByLayer
370
18
48
1
60
0
100
AcDbSpline
70
4
71
3
72
8
73
4
40
0
40
0
40
0
40
0
40
1
40
1
40
1
40
1
41
1
10
63.4632083756371
20
3.32075100567985
30
0
41
1
10
63.3307874231671
20
3.29318554647048
30
0
41
1
10
63.1998919461619
20
3.25954356671886
30
0
41
1
10
63.0701190753521
20
3.22007973923485
30
0
0
SPLINE
5
108
100
AcDbEntity
8
1
62
256
6
ByLayer
370
18
48
1
60
0
100
AcDbSpline
70
4
71
3
72
12
73
8
40
0
40
0
40
0
40
0
40
0.27205779944594
40
0.27205779944594
40
0.54411559889188
40
0.54411559889188
40
1
40
1
40
1
40
1
41
1
10
63.0701190753521
20
3.22007973923485
30
0
41
1
10
63.0426684483484
20
3.1626528427374
30
0
41
1
10
63.0151393971527
20
3.10516913059541
30
0
41
1
10
62.9598994320765
20
2.99009813260963
30
0
41
1
10
62.9321873870206
20
2.93250866494353
30
0
41
1
10
62.8578920748517
20
2.77856586064854
30
0
41
1
10
62.811175218488
20
2.68224211272852
30
0
41
1
10
62.7642190954013
20
2.58602805058234
30
0
0
SPLINE
5
109
100
AcDbEntity
8
1
62
256
6
ByLayer
370
18
48
1
60
0
100
AcDbSpline
70
4
71
3
72
8
73
4
40
0
40
0
40
0
40
0
40
1
40
1
40
1
40
1
41
1
10
53.2056893129453
20
-3.36005464784674
30
0
41
1
10
53.1441421040072
20
-3.46539776300131
30
0
41
1
10
53.0828681163121
20
-3.57014039597237
30
0
41
1
10
53.0219429171943
20
-3.67397633312819
30
0
0
SPLINE
5
10A
100
AcDbEntity
8
1
62
256
6
ByLayer
370
18
48
1
60
0
100
AcDbSpline
70
4
71
3
72
26
73
22
40
0
40
0
40
0
40
0
40
0.0045843328396843
40
0.0045843328396843
40
0.0995616870726884
40
0.0995616870726884
40
0.289516395538698
40
0.289516395538698
40
0.479471104004707
40
0.479471104004707
40
0.574448458237712
40
0.574448458237712
40
0.669425812470717
40
0.669425812470717
40
0.764403166703722
40
0.764403166703722
40
0.859380520936727
40
0.859380520936727
40
0.954357875169731
40
0.954357875169731
40
1
40
1
40
1
40
1
41
1
10
40.8262935338242
20
3.08720727796114
30
0
41
1
10
40.8251010997324
20
3.08382302785634
30
0
41
1
10
40.8239006311055
20
3.0804354236204
30
0
41
1
10
40.7976447591933
20
3.00678711946648
30
0
41
1
10
40.7689392006369
20
2.93500261024531
30
0
41
1
10
40.6710944342208
20
2.71475302406938
30
0
41
1
10
40.5886901632023
20
2.55906703106456
30
0
41
1
10
40.3994878826031
20
2.25812282331614
30
0
41
1
10
40.2899342377734
20
2.10849481710176
30
0
41
1
10
40.1155931524328
20
1.90848935028484
30
0
41
1
10
40.0546201459329
20
1.84545743524964
30
0
41
1
10
39.9314875342456
20
1.72540367727902
30
0
41
1
10
39.8699268336157
20
1.66907834024906
30
0
41
1
10
39.7468170038445
20
1.56406918563837
30
0
41
1
10
39.685267856482
20
1.51537333524146
30
0
41
1
10
39.5621819394414
20
1.42615554535652
30
0
41
1
10
39.5007379573656
20
1.38579826627142
30
0
41
1
10
39.3822310402188
20
1.3164561189196
30
0
41
1
10
39.3246114483367
20
1.28704850404014
30
0
41
1
10
39.2417460106165
20
1.25138116816788
30
0
41
1
10
39.2151306749131
20
1.2410113550383
30
0
41
1
10
39.1889817175534
20
1.2319176926635
30
0
0
SPLINE
5
10B
100
AcDbEntity
8
1
62
256
6
ByLayer
370
18
48
1
60
0
100
AcDbSpline
70
4
71
3
72
8
73
4
40
0
40
0
40
0
40
0
40
1
40
1
40
1
40
1
41
1
10
61.5696659292301
20
-4.027812678825
30
0
41
1
10
61.5646483280132
20
-4.03646738035337
30
0
41
1
10
61.5596331585963
20
-4.04511615344765
30
0
41
1
10
61.5546203536467
20
-4.05375898303137
30
0
0
SPLINE
5
10C
100
AcDbEntity
8
1
62
256
6
ByLayer
370
18
48
1
60
0
100
AcDbSpline
70
4
71
3
72
30
73
26
40
0
40
0
40
0
40
0
40
0.125000000000031
40
0.125000000000031
40
0.250000000000063
40
0.250000000000063
40
0.375000000000094
40
0.375000000000094
40
0.437500000000078
40
0.437500000000078
40
0.500000000000062
40
0.500000000000062
40
0.625000000000097
40
0.625000000000097
40
0.687500000000081
40
0.687500000000081
40
0.750000000000065
40
0.750000000000065
40
0.812500000000049
40
0.812500000000049
40
0.875000000000032
40
0.875000000000032
40
0.937500000000016
40
0.937500000000016
40
1
40
1
40
1
40
1
41
1
10
60.9841222528305
20
-3.34881854424597
30
0
41
1
10
60.9752808548492
20
-3.33353499788274
30
0
41
1
10
60.9650197953195
20
-3.3200688204324
30
0
41
1
10
60.9422830264358
20
-3.29593424108501
30
0
41
1
10
60.9296916485791
20
-3.28523342554016
30
0
41
1
10
60.9032517253855
20
-3.26703402045234
30
0
41
1
10
60.88934152258
20
-3.25944545498905
30
0
41
1
10
60.8674849321048
20
-3.25028852729957
30
0
41
1
10
60.8600294829864
20
-3.24761513936124
30
0
41
1
10
60.8450424361321
20
-3.24312176956917
30
0
41
1
10
60.8374795197527
20
-3.24128734670518
30
0
41
1
10
60.8145894685622
20
-3.23704451141529
30
0
41
1
10
60.7990641230226
20
-3.23587154903103
30
0
41
1
10
60.775357479528
20
-3.2370580816478
30
0
41
1
10
60.7673740452739
20
-3.23795966237358
30
0
41
1
10
60.7516390346295
20
-3.24083136272924
30
0
41
1
10
60.7438425394124
20
-3.24280062214939
30
0
41
1
10
60.7284172660214
20
-3.24793230009018
30
0
41
1
10
60.7207707040758
20
-3.25110181070986
30
0
41
1
10
60.7057588408677
20
-3.25882321426116
30
0
41
1
10
60.6985262319715
20
-3.26330459088999
30
0
41
1
10
60.6846787230159
20
-3.27365884393032
30
0
41
1
10
60.6780381201129
20
-3.27955533769242
30
0
41
1
10
60.6656101729812
20
-3.29291796411726
30
0
41
1
10
60.6599318212413
20
-3.30025920872757
30
0
41
1
10
60.6548588221933
20
-3.30834948173666
30
0
0
SPLINE
5
10D
100
AcDbEntity
8
1
62
256
6
ByLayer
370
18
48
1
60
0
100
AcDbSpline
70
4
71
3
72
12
73
8
40
0
40
0
40
0
40
0
40
0.500000000000001
40
0.500000000000001
40
0.75
40
0.75
40
1
40
1
40
1
40
1
41
1
10
60.6548588221933
20
-3.30834948173663
30
0
41
1
10
60.5847334325627
20
-3.4201834366832
30
0
41
1
10
60.5149648325114
20
-3.52963856546333
30
0
41
1
10
60.4109936332056
20
-3.68975701212994
30
0
41
1
10
60.3764472324688
20
-3.74245653993293
30
0
41
1
10
60.3076511460486
20
-3.84634831096949
30
0
41
1
10
60.2733855803703
20
-3.89756527124237
30
0
41
1
10
60.2392308943788
20
-3.94806134869958
30
0
0
SPLINE
5
10E
100
AcDbEntity
8
1
62
256
6
ByLayer
370
18
48
1
60
0
100
AcDbSpline
70
4
71
3
72
8
73
4
40
0
40
0
40
0
40
0
40
1
40
1
40
1
40
1
41
1
10
60.1041847282607
20
-3.91326075109544
30
0
41
1
10
60.149193507556
20
-3.92558700918317
30
0
41
1
10
60.194204810671
20
-3.93718846792126
30
0
41
1
10
60.2392308943788
20
-3.9480613486995
30
0
0
SPLINE
5
10F
100
AcDbEntity
8
1
62
256
6
ByLayer
370
18
48
1
60
0
100
AcDbSpline
70
4
71
3
72
10
73
6
40
0
40
0
40
0
40
0
40
0.5
40
0.5
40
1
40
1
40
1
40
1
41
1
10
60.1041847282606
20
-3.91326075109544
30
0
41
1
10
60.0327466929185
20
-3.77552141663878
30
0
41
1
10
59.9608856837289
20
-3.63541667068992
30
0
41
1
10
59.8159341938478
20
-3.35062461455971
30
0
41
1
10
59.7430866840983
20
-3.20641118224154
30
0
41
1
10
59.6696357889802
20
-3.06042708253273
30
0
0
SPLINE
5
110
100
AcDbEntity
8
1
62
256
6
ByLayer
370
18
48
1
60
0
100
AcDbSpline
70
4
71
3
72
28
73
24
40
0
40
0
40
0
40
0
40
0.125
40
0.125
40
0.25
40
0.25
40
0.375
40
0.375
40
0.499999999999999
40
0.499999999999999
40
0.624999999999999
40
0.624999999999999
40
0.687499999999999
40
0.687499999999999
40
0.749999999999999
40
0.749999999999999
40
0.8125
40
0.8125
40
0.875
40
0.875
40
0.9375
40
0.9375
40
1
40
1
40
1
40
1
41
1
10
59.6696357889802
20
-3.06042708253298
30
0
41
1
10
59.6607732381955
20
-3.04281270907512
30
0
41
1
10
59.6504860437277
20
-3.02669328658752
30
0
41
1
10
59.6276936983267
20
-2.99676130190585
30
0
41
1
10
59.6150626033436
20
-2.9828811894823
30
0
41
1
10
59.5886374901235
20
-2.95813670502622
30
0
41
1
10
59.5747730882598
20
-2.94715307612208
30
0
41
1
10
59.5458188943755
20
-2.92785610457656
30
0
41
1
10
59.530590543871
20
-2.91950215274386
30
0
41
1
10
59.4999473770455
20
-2.90624030576305
30
0
41
1
10
59.4844490778895
20
-2.90124244001387
30
0
41
1
10
59.4609502545022
20
-2.89652069413535
30
0
41
1
10
59.4530750471545
20
-2.89541378791472
30
0
41
1
10
59.4372363561224
20
-2.89427291078559
30
0
41
1
10
59.4293608298936
20
-2.89425015970957
30
0
41
1
10
59.4139100738631
20
-2.89540951105519
30
0
41
1
10
59.4063056639095
20
-2.89658780463714
30
0
41
1
10
59.3913841910347
20
-2.90032703049431
30
0
41
1
10
59.3840278828215
20
-2.90291548281939
30
0
41
1
10
59.3701243177993
20
-2.90955331564893
30
0
41
1
10
59.3635263144105
20
-2.91360481012239
30
0
41
1
10
59.3511562436699
20
-2.92341642481964
30
0
41
1
10
59.3453955114715
20
-2.92919235831178
30
0
41
1
10
59.340314299454
20
-2.93578487122264
30
0
0
SPLINE
5
111
100
AcDbEntity
8
1
62
256
6
ByLayer
370
18
48
1
60
0
100
AcDbSpline
70
4
71
3
72
12
73
8
40
0
40
0
40
0
40
0
40
0.500000000000013
40
0.500000000000013
40
0.750000000000006
40
0.750000000000006
40
1
40
1
40
1
40
1
41
1
10
59.3403142994539
20
-2.93578487122264
30
0
41
1
10
59.270282846021
20
-3.02664572476107
30
0
41
1
10
59.2006001517263
20
-3.113428556912
30
0
41
1
10
59.0967464530351
20
-3.23714344205831
30
0
41
1
10
59.062237724813
20
-3.27730516339969
30
0
41
1
10
58.9935175003124
20
-3.35535848658799
30
0
41
1
10
58.9592901376126
20
-3.39326906299672
30
0
41
1
10
58.9251734548469
20
-3.43008345264505
30
0
0
SPLINE
5
112
100
AcDbEntity
8
1
62
256
6
ByLayer
370
18
48
1
60
0
100
AcDbSpline
70
4
71
3
72
8
73
4
40
0
40
0
40
0
40
0
40
1
40
1
40
1
40
1
41
1
10
58.7892266845337
20
-3.35479231577892
30
0
41
1
10
58.834537965993
20
-3.38052019013165
30
0
41
1
10
58.8798492289861
20
-3.40561986909441
30
0
41
1
10
58.925173454847
20
-3.43008345264494
30
0
0
SPLINE
5
113
100
AcDbEntity
8
1
62
256
6
ByLayer
370
18
48
1
60
0
100
AcDbSpline
70
4
71
3
72
10
73
6
40
0
40
0
40
0
40
0
40
0.5
40
0.5
40
1
40
1
40
1
40
1
41
1
10
58.7892266845337
20
-3.35479231577892
30
0
41
1
10
58.7178224242455
20
-3.20430588631189
30
0
41
1
10
58.6460080797978
20
-3.05360209617359
30
0
41
1
10
58.5011937443837
20
-2.75201143534042
30
0
41
1
10
58.4284332427142
20
-2.60163227045516
30
0
41
1
10
58.355066250951
20
-2.45179679012287
30
0
0
SPLINE
5
114
100
AcDbEntity
8
1
62
256
6
ByLayer
370
18
48
1
60
0
100
AcDbSpline
70
4
71
3
72
28
73
24
40
0
40
0
40
0
40
0
40
0.125
40
0.125
40
0.25
40
0.25
40
0.375
40
0.375
40
0.5
40
0.5
40
0.625
40
0.625
40
0.6875
40
0.6875
40
0.75
40
0.75
40
0.8125
40
0.8125
40
0.875
40
0.875
40
0.9375
40
0.9375
40
1
40
1
40
1
40
1
41
1
10
58.355066250951
20
-2.45179679012287
30
0
41
1
10
58.3462091256483
20
-2.4337081157451
30
0
41
1
10
58.335927315565
20
-2.41662113432489
30
0
41
1
10
58.3131446851875
20
-2.38400470364141
30
0
41
1
10
58.3005179540713
20
-2.3683831567109
30
0
41
1
10
58.27410025076
20
-2.33958943894382
30
0
41
1
10
58.2602388933029
20
-2.32629211472371
30
0
41
1
10
58.2312898567018
20
-2.30179821653579
30
0
41
1
10
58.2160638889664
20
-2.29053122993167
30
0
41
1
10
58.1854259172705
20
-2.27101800905356
30
0
41
1
10
58.1699298462344
20
-2.26267024448632
30
0
41
1
10
58.1464338281985
20
-2.25252103953949
30
0
41
1
10
58.1385594671785
20
-2.24953720555342
30
0
41
1
10
58.122722299576
20
-2.24448280625879
30
0
41
1
10
58.11484958044
20
-2.24244507499839
30
0
41
1
10
58.0994022300721
20
-2.23949074765869
30
0
41
1
10
58.0917992991884
20
-2.23856365002402
30
0
41
1
10
58.0768801601143
20
-2.23797709201742
30
0
41
1
10
58.0695252354571
20
-2.23833132900799
30
0
41
1
10
58.0556240762394
20
-2.24050496400375
30
0
41
1
10
58.0490267595071
20
-2.24231324004114
30
0
41
1
10
58.0366569734521
20
-2.24761296685767
30
0
41
1
10
58.030896495647
20
-2.25112056705842
30
0
41
1
10
58.0258150650541
20
-2.25550709259031
30
0
0
SPLINE
5
115
100
AcDbEntity
8
1
62
256
6
ByLayer
370
18
48
1
60
0
100
AcDbSpline
70
4
71
3
72
12
73
8
40
0
40
0
40
0
40
0
40
0.5
40
0.5
40
0.75
40
0.75
40
1
40
1
40
1
40
1
41
1
10
58.0258150650541
20
-2.25550709259031
30
0
41
1
10
57.9556974416187
20
-2.31603586294528
30
0
41
1
10
57.8859341256838
20
-2.37113875493185
30
0
41
1
10
57.7819625279616
20
-2.44562487182736
30
0
41
1
10
57.7474148076291
20
-2.46909461422251
30
0
41
1
10
57.6786143863879
20
-2.51327701148463
30
0
41
1
10
57.6443462544249
20
-2.53400069532461
30
0
41
1
10
57.6101904287239
20
-2.55336847006819
30
0
0
SPLINE
5
116
100
AcDbEntity
8
1
62
256
6
ByLayer
370
18
48
1
60
0
100
AcDbSpline
70
4
71
3
72
8
73
4
40
0
40
0
40
0
40
0
40
1
40
1
40
1
40
1
41
1
10
57.4749203081798
20
-2.44618836091814
30
0
41
1
10
57.520009436146
20
-2.48236875356019
30
0
41
1
10
57.5650947454943
20
-2.51809942431319
30
0
41
1
10
57.6101904287239
20
-2.55336847006814
30
0
0
SPLINE
5
117
100
AcDbEntity
8
1
62
256
6
ByLayer
370
18
48
1
60
0
100
AcDbSpline
70
4
71
3
72
10
73
6
40
0
40
0
40
0
40
0
40
0.5
40
0.5
40
1
40
1
40
1
40
1
41
1
10
57.4749203081798
20
-2.44618836091817
30
0
41
1
10
57.4035542446324
20
-2.29860767366856
30
0
41
1
10
57.3317438345628
20
-2.15302429187821
30
0
41
1
10
57.1868515289301
20
-1.86617601754406
30
0
41
1
10
57.114015243014
20
-1.72538188297688
30
0
41
1
10
57.0405633180309
20
-1.5873711802395
30
0
0
SPLINE
5
118
100
AcDbEntity
8
1
62
256
6
ByLayer
370
18
48
1
60
0
100
AcDbSpline
70
4
71
3
72
28
73
24
40
0
40
0
40
0
40
0
40
0.124999999999974
40
0.124999999999974
40
0.249999999999948
40
0.249999999999948
40
0.374999999999922
40
0.374999999999922
40
0.499999999999896
40
0.499999999999896
40
0.62499999999987
40
0.62499999999987
40
0.687499999999892
40
0.687499999999892
40
0.749999999999913
40
0.749999999999913
40
0.812499999999935
40
0.812499999999935
40
0.874999999999957
40
0.874999999999957
40
0.937499999999978
40
0.937499999999978
40
1
40
1
40
1
40
1
41
1
10
57.0405633180311
20
-1.58737118024175
30
0
41
1
10
57.0316976221519
20
-1.57071319722996
30
0
41
1
10
57.021405318005
20
-1.55446349335412
30
0
41
1
10
56.9985998877111
20
-1.52261461730751
30
0
41
1
10
56.9859603733512
20
-1.50690834901772
30
0
41
1
10
56.959519345396
20
-1.47712624784288
30
0
41
1
10
56.9456472663944
20
-1.46293240211719
30
0
41
1
10
56.916679872833
20
-1.43585776486014
30
0
41
1
10
56.9014471771966
20
-1.42288488773215
30
0
41
1
10
56.8708016372165
20
-1.39921703450761
30
0
41
1
10
56.85530354465
20
-1.38841929711978
30
0
41
1
10
56.8318076213858
20
-1.37394203351477
30
0
41
1
10
56.8239338302123
20
-1.36940557405751
30
0
41
1
10
56.8080990010378
20
-1.36098981506646
30
0
41
1
10
56.8002321118897
20
-1.35716338610641
30
0
41
1
10
56.7847928033514
20
-1.3504266494557
30
0
41
1
10
56.7771939507776
20
-1.3475012343942
30
0
41
1
10
56.7622829907681
20
-1.34266809206969
30
0
41
1
10
56.7549327061726
20
-1.34075911562422
30
0
41
1
10
56.7410401197044
20
-1.3382542589286
30
0
41
1
10
56.7344465689632
20
-1.33763508496224
30
0
41
1
10
56.7220831603788
20
-1.33787439928159
30
0
41
1
10
56.7163248567507
20
-1.3387482505502
30
0
41
1
10
56.7112446481453
20
-1.34046950066735
30
0
0
SPLINE
5
119
100
AcDbEntity
8
1
62
256
6
ByLayer
370
18
48
1
60
0
100
AcDbSpline
70
4
71
3
72
12
73
8
40
0
40
0
40
0
40
0
40
0.500000000000012
40
0.500000000000012
40
0.750000000000006
40
0.750000000000006
40
1
40
1
40
1
40
1
41
1
10
56.7112446481453
20
-1.34046950066738
30
0
41
1
10
56.6411167005854
20
-1.36422989070888
30
0
41
1
10
56.5713459150398
20
-1.38180448928938
30
0
41
1
10
56.4673637352736
20
-1.39912921613723
30
0
41
1
10
56.432812699355
20
-1.40339886096123
30
0
41
1
10
56.3640044008806
20
-1.40897255243186
30
0
41
1
10
56.3297317260793
20
-1.41027951402884
30
0
41
1
10
56.2955702088481
20
-1.4101286130481
30
0
0
SPLINE
5
11A
100
AcDbEntity
8
1
62
256
6
ByLayer
370
18
48
1
60
0
100
AcDbSpline
70
4
71
3
72
8
73
4
40
0
40
0
40
0
40
0
40
1
40
1
40
1
40
1
41
1
10
56.1606343903472
20
-1.28219333081387
30
0
41
1
10
56.20560828374
20
-1.32507775538105
30
0
41
1
10
56.2505821013373
20
-1.36772744977839
30
0
41
1
10
56.2955702088481
20
-1.41012861304802
30
0
0
SPLINE
5
11B
100
AcDbEntity
8
1
62
256
6
ByLayer
370
18
48
1
60
0
100
AcDbSpline
70
4
71
3
72
10
73
6
40
0
40
0
40
0
40
0
40
0.5
40
0.5
40
1
40
1
40
1
40
1
41
1
10
56.1606343903472
20
-1.28219333081387
30
0
41
1
10
56.0892386544635
20
-1.15292526644737
30
0
41
1
10
56.0173982626208
20
-1.02762808828962
30
0
41
1
10
55.8723886706012
20
-0.785446608937548
30
0
41
1
10
55.7994732769458
20
-0.668957488058481
30
0
41
1
10
55.7259358691058
20
-0.557218870424691
30
0
0
SPLINE
5
11C
100
AcDbEntity
8
1
62
256
6
ByLayer
370
18
48
1
60
0
100
AcDbSpline
70
4
71
3
72
28
73
24
40
0
40
0
40
0
40
0
40
0.125000000000026
40
0.125000000000026
40
0.250000000000052
40
0.250000000000052
40
0.375000000000078
40
0.375000000000078
40
0.500000000000104
40
0.500000000000104
40
0.625000000000129
40
0.625000000000129
40
0.687500000000108
40
0.687500000000108
40
0.750000000000086
40
0.750000000000086
40
0.812500000000065
40
0.812500000000065
40
0.875000000000043
40
0.875000000000043
40
0.937500000000022
40
0.937500000000022
40
1
40
1
40
1
40
1
41
1
10
55.7259358691058
20
-0.557218870424663
30
0
41
1
10
55.7170667442405
20
-0.543742412915719
30
0
41
1
10
55.7067695077958
20
-0.530036599754339
30
0
41
1
10
55.6839518625073
20
-0.502298957688851
30
0
41
1
10
55.6713043080736
20
-0.488155767204404
30
0
41
1
10
55.6448474656618
20
-0.460508252840214
30
0
41
1
10
55.6309678845945
20
-0.446905913021027
30
0
41
1
10
55.6019872475894
20
-0.420089030975476
30
0
41
1
10
55.5867495853388
20
-0.406770470253377
30
0
41
1
10
55.5561003022469
20
-0.381432437714096
30
0
41
1
10
55.5406020188451
20
-0.369319287829455
30
0
41
1
10
55.5171090344016
20
-0.352037613764509
30
0
41
1
10
55.5092367621533
20
-0.346426447322813
30
0
41
1
10
55.4934062123319
20
-0.335537236706642
30
0
41
1
10
55.4855480670093
20
-0.33032944231536
30
0
41
1
10
55.4701215462895
20
-0.320527478884372
30
0
41
1
10
55.4625293706549
20
-0.315916385294031
30
0
41
1
10
55.4476322747683
20
-0.307356218213044
30
0
41
1
10
55.4402901697833
20
-0.303391674109037
30
0
41
1
10
55.4264141165097
20
-0.296486585964146
30
0
41
1
10
55.41982847318
20
-0.293512760704147
30
0
41
1
10
55.4074797312804
20
-0.288681955762456
30
0
41
1
10
55.4017279236037
20
-0.286837640869948
30
0
41
1
10
55.3966526051208
20
-0.28571890041718
30
0
0
SPLINE
5
11D
100
AcDbEntity
8
1
62
256
6
ByLayer
370
18
48
1
60
0
100
AcDbSpline
70
4
71
3
72
12
73
8
40
0
40
0
40
0
40
0
40
0.500000000000001
40
0.500000000000001
40
0.75
40
0.75
40
1
40
1
40
1
40
1
41
1
10
55.3966526051207
20
-0.285718900416811
30
0
41
1
10
55.3265863468066
20
-0.270274360766024
30
0
41
1
10
55.2568817711004
20
-0.248509851691466
30
0
41
1
10
55.1530012797883
20
-0.206897743824498
30
0
41
1
10
55.1184843566691
20
-0.191532584878303
30
0
41
1
10
55.049743842673
20
-0.15793285300569
30
0
41
1
10
55.0155048974629
20
-0.139692288860118
30
0
41
1
10
54.9813764817931
20
-0.120038737907151
30
0
0
SPLINE
5
11E
100
AcDbEntity
8
1
62
256
6
ByLayer
370
18
48
1
60
0
100
AcDbSpline
70
4
71
3
72
8
73
4
40
0
40
0
40
0
40
0
40
1
40
1
40
1
40
1
41
1
10
54.8458338844824
20
0.0161147055853519
30
0
41
1
10
54.8910074252445
20
-0.0292713574509946
30
0
41
1
10
54.936183888876
20
-0.0746602357838526
30
0
41
1
10
54.9813764817931
20
-0.120038737907151
30
0
0
SPLINE
5
11F
100
AcDbEntity
8
1
62
256
6
ByLayer
370
18
48
1
60
0
100
AcDbSpline
70
4
71
3
72
10
73
6
40
0
40
0
40
0
40
0
40
0.5
40
0.5
40
1
40
1
40
1
40
1
41
1
10
54.8458338844824
20
0.016114705585295
30
0
41
1
10
54.7744301878019
20
0.113469239996419
30
0
41
1
10
54.7026074556213
20
0.205346557848714
30
0
41
1
10
54.5577098780284
20
0.377575127956277
30
0
41
1
10
54.4848801474265
20
0.45761713232099
30
0
41
1
10
54.4113946909324
20
0.531351989046584
30
0
0
SPLINE
5
120
100
AcDbEntity
8
1
62
256
6
ByLayer
370
18
48
1
60
0
100
AcDbSpline
70
4
71
3
72
28
73
24
40
0
40
0
40
0
40
0
40
0.124999999999974
40
0.124999999999974
40
0.249999999999948
40
0.249999999999948
40
0.374999999999922
40
0.374999999999922
40
0.499999999999896
40
0.499999999999896
40
0.62499999999987
40
0.62499999999987
40
0.687499999999892
40
0.687499999999892
40
0.749999999999913
40
0.749999999999913
40
0.812499999999935
40
0.812499999999935
40
0.874999999999957
40
0.874999999999957
40
0.937499999999978
40
0.937499999999978
40
1
40
1
40
1
40
1
41
1
10
54.4113946909323
20
0.531351989046584
30
0
41
1
10
54.4025336063171
20
0.540243147048614
30
0
41
1
10
54.3922452801692
20
0.549976500646153
30
0
41
1
10
54.3694433710762
20
0.570710631838864
30
0
41
1
10
54.3568026212091
20
0.581814711204032
30
0
41
1
10
54.3303543959962
20
0.604445300472662
30
0
41
1
10
54.3164771250432
20
0.61603961510221
30
0
41
1
10
54.2874968294646
20
0.639809530744486
30
0
41
1
10
54.2722569912763
20
0.652091150644281
30
0
41
1
10
54.2416019190024
20
0.676472528030729
30
0
41
1
10
54.2260996438507
20
0.688646450839997
30
0
41
1
10
54.2025994852583
20
0.706944462366039
30
0
41
1
10
54.1947246223911
20
0.713050107576663
30
0
41
1
10
54.1788885348258
20
0.725287548670252
30
0
41
1
10
54.1710295285941
20
0.73134032406162
30
0
41
1
10
54.1556002248235
20
0.743195843698146
30
0
41
1
10
54.148006857293
20
0.74901644444634
30
0
41
1
10
54.1331077709825
20
0.760418967393235
30
0
41
1
10
54.1257654533766
20
0.766028802061044
30
0
41
1
10
54.1118902536323
20
0.776617157490932
30
0
41
1
10
54.105305250147
20
0.781635775887594
30
0
41
1
10
54.0929579925654
20
0.791030204308527
30
0
41
1
10
54.087207712445
20
0.795396827253938
30
0
41
1
10
54.0821337130512
20
0.79923371889555
30
0
0
SPLINE
5
121
100
AcDbEntity
8
1
62
256
6
ByLayer
370
18
48
1
60
0
100
AcDbSpline
70
4
71
3
72
12
73
8
40
0
40
0
40
0
40
0
40
0.5
40
0.5
40
0.75
40
0.75
40
1
40
1
40
1
40
1
41
1
10
54.0821337130513
20
0.79923371889555
30
0
41
1
10
54.0133451647671
20
0.85125071485254
30
0
41
1
10
53.9449074802175
20
0.908882462723284
30
0
41
1
10
53.8429086108918
20
1.00303797003661
30
0
41
1
10
53.8090123680418
20
1.03571264531106
30
0
41
1
10
53.7415067327669
20
1.10345569225979
30
0
41
1
10
53.707882227877
20
1.13853768369884
30
0
41
1
10
53.6743661781122
20
1.17480093670971
30
0
0
SPLINE
5
122
100
AcDbEntity
8
1
62
256
6
ByLayer
370
18
48
1
60
0
100
AcDbSpline
70
4
71
3
72
77
73
73
40
0
40
0
40
0
40
0
40
0.0088730018617986
40
0.0088730018617986
40
0.0560695255826633
40
0.0560695255826633
40
0.0796677874430971
40
0.0796677874430971
40
0.103266049303531
40
0.103266049303531
40
0.115065180233748
40
0.115065180233748
40
0.126864311163965
40
0.150462573024402
40
0.150462573024402
40
0.197659096745275
40
0.197659096745275
40
0.221257358605712
40
0.221257358605712
40
0.244855620466149
40
0.244855620466149
40
0.268453882326586
40
0.268453882326586
40
0.292052144187023
40
0.292052144187023
40
0.339248667907899
40
0.339248667907899
40
0.362846929768336
40
0.362846929768336
40
0.374646060698553
40
0.374646060698553
40
0.38644519162877
40
0.38644519162877
40
0.410043453489204
40
0.410043453489204
40
0.433641715349638
40
0.433641715349638
40
0.480838239070505
40
0.480838239070505
40
0.528034762791373
40
0.528034762791373
40
0.575231286512241
40
0.575231286512241
40
0.622427810233109
40
0.622427810233109
40
0.634226941163327
40
0.634226941163327
40
0.646026072093546
40
0.66962433395398
40
0.66962433395398
40
0.716820857674844
40
0.716820857674844
40
0.764017381395709
40
0.764017381395709
40
0.78761564325614
40
0.78761564325614
40
0.811213905116571
40
0.811213905116571
40
0.85841042883743
40
0.85841042883743
40
0.882008690697857
40
0.882008690697857
40
0.893807821628073
40
0.893807821628073
40
0.905606952558288
40
0.929205214418717
40
0.929205214418717
40
0.952803476279144
40
0.952803476279144
40
0.976401738139572
40
0.976401738139572
40
1
40
1
40
1
40
1
41
1
10
42.9998241811246
20
3.11385056664756
30
0
41
1
10
43.025591496475
20
3.11385143856404
30
0
41
1
10
43.0513592047694
20
3.11366510136583
30
0
41
1
10
43.214195861972
20
3.11130350699864
30
0
41
1
10
43.3512817679568
20
3.10401506634901
30
0
41
1
10
43.5570927284861
20
3.08492168738596
30
0
41
1
10
43.6257304679166
20
3.07719109736166
30
0
41
1
10
43.7635086145976
20
3.05906340821451
30
0
41
1
10
43.8326131799566
20
3.04866293151082
30
0
41
1
10
43.9366051712228
20
3.03105373983493
30
0
41
1
10
43.9713548398457
20
3.02484330738764
30
0
41
1
10
44.0407985793581
20
3.01178156346558
30
0
41
1
10
44.1448567349897
20
2.99123349187718
30
0
41
1
10
44.2485954591678
20
2.96784639966478
30
0
41
1
10
44.4556937575284
20
2.91735413887403
30
0
41
1
10
44.5932396509869
20
2.87873477531738
30
0
41
1
10
44.7989539351757
20
2.81351707926152
30
0
41
1
10
44.8674251306231
20
2.79056209706565
30
0
41
1
10
45.0041788251391
20
2.74221721401679
30
0
41
1
10
45.072452477908
20
2.71681984403261
30
0
41
1
10
45.2090216356834
20
2.66371035782677
30
0
41
1
10
45.2773355380074
20
2.63601001155342
30
0
41
1
10
45.4142988469078
20
2.57853296841586
30
0
41
1
10
45.4828845652168
20
2.54871335953894
30
0
41
1
10
45.6888756787485
20
2.45595552295552
30
0
41
1
10
45.8265782649979
20
2.38977006231292
30
0
41
1
10
46.0338878595898
20
2.28402254182089
30
0
41
1
10
46.1031166832114
20
2.24769346464206
30
0
41
1
10
46.2071751421498
20
2.19157560637046
30
0
41
1
10
46.2419270213871
20
2.17258201151805
30
0
41
1
10
46.311308567118
20
2.13416014534647
30
0
41
1
10
46.3459456069726
20
2.11472850280194
30
0
41
1
10
46.4496984620633
20
2.05577626573736
30
0
41
1
10
46.5186495974712
20
2.01559206223561
30
0
41
1
10
46.6561515641064
20
1.93349646858366
30
0
41
1
10
46.7247245078815
20
1.89160625431791
30
0
41
1
10
46.9304595200338
20
1.76401437604102
30
0
41
1
10
47.067591104524
20
1.67635470539739
30
0
41
1
10
47.3417856348495
20
1.49594793940875
30
0
41
1
10
47.4788878419382
20
1.40324439154875
30
0
41
1
10
47.7531565012267
20
1.21289231765814
30
0
41
1
10
47.8903515601066
20
1.11527640376693
30
0
41
1
10
48.1651084774447
20
0.915340972086597
30
0
41
1
10
48.3025257532991
20
0.812816006251865
30
0
41
1
10
48.4757976370285
20
0.683283003089826
30
0
41
1
10
48.510542502144
20
0.657269477685446
30
0
41
1
10
48.5799308197035
20
0.605203841020597
30
0
41
1
10
48.6839031822637
20
0.527025059058815
30
0
41
1
10
48.7875783497334
20
0.448647781384039
30
0
41
1
10
48.9945912041729
20
0.291703243988565
30
0
41
1
10
49.1321401984503
20
0.186806992984231
30
0
41
1
10
49.4065597748639
20
-0.0232069624668156
30
0
41
1
10
49.543444080847
20
-0.128306666393371
30
0
41
1
10
49.7483440064058
20
-0.286008122920691
30
0
41
1
10
49.816568249635
20
-0.338589579244541
30
0
41
1
10
49.9533302019435
20
-0.44316947969682
30
0
41
1
10
50.0218171794568
20
-0.495234884402464
30
0
41
1
10
50.2276156320257
20
-0.650732675801777
30
0
41
1
10
50.3652868948872
20
-0.753437894512444
30
0
41
1
10
50.5726636518741
20
-0.90583982018731
30
0
41
1
10
50.641930103329
20
-0.956369705190866
30
0
41
1
10
50.7460719566731
20
-1.03171643389214
30
0
41
1
10
50.780842940207
20
-1.0567692519389
30
0
41
1
10
50.8503059538306
20
-1.10660287154673
30
0
41
1
10
50.9544300696458
20
-1.18098070265748
30
0
41
1
10
51.0583556465704
20
-1.25422718336262
30
0
41
1
10
51.1967528642168
20
-1.35087131100457
30
0
41
1
10
51.2658459806514
20
-1.39870799461178
30
0
41
1
10
51.4039542081752
20
-1.49324314033794
30
0
41
1
10
51.4730869568475
20
-1.5398056874499
30
0
41
1
10
51.611630196405
20
-1.63139442532653
30
0
41
1
10
51.6810221774771
20
-1.67644222886295
30
0
41
1
10
51.7505174772729
20
-1.72076345292746
30
0
0
SPLINE
5
123
100
AcDbEntity
8
1
62
256
6
ByLayer
370
18
48
1
60
0
100
AcDbSpline
70
4
71
3
72
16
73
12
40
0
40
0
40
0
40
0
40
0.249999999999989
40
0.249999999999989
40
0.499999999999977
40
0.499999999999977
40
0.749999999999966
40
0.749999999999966
40
0.874999999999983
40
0.874999999999983
40
1
40
1
40
1
40
1
41
1
10
51.7505174772729
20
-1.72076345292746
30
0
41
1
10
51.7973818615575
20
-1.75065161633748
30
0
41
1
10
51.8441449228454
20
-1.78152234380409
30
0
41
1
10
51.9372186306957
20
-1.84553372413771
30
0
41
1
10
51.9835298681818
20
-1.87867235214011
30
0
41
1
10
52.0755311984566
20
-1.94751365237096
30
0
41
1
10
52.1212212420724
20
-1.98321380493908
30
0
41
1
10
52.1892188096896
20
-2.03894930465643
30
0
41
1
10
52.2117944548565
20
-2.0578939693531
30
0
41
1
10
52.2564694743408
20
-2.09631052697898
30
0
41
1
10
52.2786147794572
20
-2.11580084922701
30
0
41
1
10
52.300517477273
20
-2.13563110762587
30
0
0
SPLINE
5
124
100
AcDbEntity
8
1
62
256
6
ByLayer
370
18
48
1
60
0
100
AcDbSpline
70
4
71
3
72
10
73
6
40
0
40
0
40
0
40
0
40
0.5
40
0.5
40
1
40
1
40
1
40
1
41
1
10
52.3005174772573
20
-2.13563110761172
30
0
41
1
10
52.4039773264026
20
-2.22930155678188
30
0
41
1
10
52.5061482086436
20
-2.32365193242123
30
0
41
1
10
52.7081997796757
20
-2.51334986309115
30
0
41
1
10
52.8080985923019
20
-2.60868165357397
30
0
41
1
10
52.907144959098
20
-2.70420383893648
30
0
0
SPLINE
5
125
100
AcDbEntity
8
1
62
256
6
ByLayer
370
18
48
1
60
0
100
AcDbSpline
70
4
71
3
72
8
73
4
40
0
40
0
40
0
40
0
40
1
40
1
40
1
40
1
41
1
10
52.9071449590979
20
-2.70420383893648
30
0
41
1
10
52.957076506077
20
-2.68210714137086
30
0
41
1
10
53.0072794853606
20
-2.65686502121088
30
0
41
1
10
53.0578667755046
20
-2.62833936069282
30
0
0
SPLINE
5
126
100
AcDbEntity
8
1
62
256
6
ByLayer
370
18
48
1
60
0
100
AcDbSpline
70
4
71
3
72
30
73
26
40
0
40
0
40
0
40
0
40
0.125000000000009
40
0.125000000000009
40
0.250000000000017
40
0.250000000000017
40
0.375000000000026
40
0.375000000000026
40
0.437499999999997
40
0.437499999999997
40
0.499999999999967
40
0.499999999999967
40
0.624999999999976
40
0.624999999999976
40
0.68749999999998
40
0.68749999999998
40
0.749999999999984
40
0.749999999999984
40
0.812499999999988
40
0.812499999999988
40
0.874999999999992
40
0.874999999999992
40
0.937499999999996
40
0.937499999999996
40
1
40
1
40
1
40
1
41
1
10
53.0578667755046
20
-2.62833936069285
30
0
41
1
10
53.067009844314
20
-2.62318367680055
30
0
41
1
10
53.0776585336939
20
-2.6201776872463
30
0
41
1
10
53.1012279311657
20
-2.61734629450419
30
0
41
1
10
53.11430029455
20
-2.61757939712427
30
0
41
1
10
53.1414947868974
20
-2.62087557330568
30
0
41
1
10
53.1556940438672
20
-2.62390938020812
30
0
41
1
10
53.1778118414539
20
-2.63043669350031
30
0
41
1
10
53.1853442775476
20
-2.63295404956023
30
0
41
1
10
53.2005898374601
20
-2.6386467419745
30
0
41
1
10
53.208242241633
20
-2.64179767649801
30
0
41
1
10
53.2312764219053
20
-2.65216505448032
30
0
41
1
10
53.2467344268857
20
-2.66028053736196
30
0
41
1
10
53.2700424382941
20
-2.67451191222961
30
0
41
1
10
53.2778757212216
20
-2.67963382759055
30
0
41
1
10
53.2933369343553
20
-2.69049756557337
30
0
41
1
10
53.3009535694094
20
-2.69622647654396
30
0
41
1
10
53.3159328856344
20
-2.70833376833701
30
0
41
1
10
53.3232958427791
20
-2.71471143664064
30
0
41
1
10
53.3377248701746
20
-2.72821590234494
30
0
41
1
10
53.3448082622516
20
-2.73537011944751
30
0
41
1
10
53.3582008413157
20
-2.75011762049027
30
0
41
1
10
53.3645623056056
20
-2.7577546887411
30
0
41
1
10
53.376509030788
20
-2.77363925226482
30
0
41
1
10
53.3821116458305
20
-2.78192590997588
30
0
41
1
10
53.3870961230105
20
-2.79034597307114
30
0
0
SPLINE
5
127
100
AcDbEntity
8
1
62
256
6
ByLayer
370
18
48
1
60
0
100
AcDbSpline
70
4
71
3
72
12
73
8
40
0
40
0
40
0
40
0
40
0.25
40
0.25
40
0.5
40
0.5
40
1
40
1
40
1
40
1
41
1
10
53.3870961230105
20
-2.79034597307029
30
0
41
1
10
53.4225066185488
20
-2.85016340143923
30
0
41
1
10
53.4577698715789
20
-2.91042646402764
30
0
41
1
10
53.5280482212328
20
-3.03180367880322
30
0
41
1
10
53.5630762146292
20
-3.0929405133403
30
0
41
1
10
53.667758394368
20
-3.27740750701776
30
0
41
1
10
53.7369895583304
20
-3.40175432021596
30
0
41
1
10
53.8056525474348
20
-3.5270047160364
30
0
0
SPLINE
5
128
100
AcDbEntity
8
1
62
256
6
ByLayer
370
18
48
1
60
0
100
AcDbSpline
70
4
71
3
72
8
73
4
40
0
40
0
40
0
40
0
40
1
40
1
40
1
40
1
41
1
10
53.9407798795598
20
-3.59234628518044
30
0
41
1
10
53.8957509406438
20
-3.5712167863872
30
0
41
1
10
53.8507090284288
20
-3.54943575976157
30
0
41
1
10
53.8056525474348
20
-3.5270047160364
30
0
0
SPLINE
5
129
100
AcDbEntity
8
1
62
256
6
ByLayer
370
18
48
1
60
0
100
AcDbSpline
70
4
71
3
72
10
73
6
40
0
40
0
40
0
40
0
40
0.5
40
0.5
40
1
40
1
40
1
40
1
41
1
10
53.9407798795597
20
-3.59234628518038
30
0
41
1
10
54.0115444938012
20
-3.53165684833743
30
0
41
1
10
54.0828043176931
20
-3.4653692999679
30
0
41
1
10
54.2267145720219
20
-3.32156209615456
30
0
41
1
10
54.2991270207132
20
-3.24429125317192
30
0
41
1
10
54.3722687998134
20
-3.16148089469834
30
0
0
SPLINE
5
12A
100
AcDbEntity
8
1
62
256
6
ByLayer
370
18
48
1
60
0
100
AcDbSpline
70
4
71
3
72
30
73
26
40
0
40
0
40
0
40
0
40
0.124999999999994
40
0.124999999999994
40
0.249999999999987
40
0.249999999999987
40
0.374999999999981
40
0.374999999999981
40
0.43750000000001
40
0.43750000000001
40
0.50000000000004
40
0.50000000000004
40
0.62500000000003
40
0.62500000000003
40
0.687500000000025
40
0.687500000000025
40
0.75000000000002
40
0.75000000000002
40
0.812500000000015
40
0.812500000000015
40
0.87500000000001
40
0.87500000000001
40
0.937500000000005
40
0.937500000000005
40
1
40
1
40
1
40
1
41
1
10
54.3722687998134
20
-3.16148089469834
30
0
41
1
10
54.3814314683562
20
-3.15110701706038
30
0
41
1
10
54.3921029820423
20
-3.14302555948277
30
0
41
1
10
54.4157143760203
20
-3.13025880988943
30
0
41
1
10
54.4288054351536
20
-3.1255937035728
30
0
41
1
10
54.4560233010004
20
-3.11963675385252
30
0
41
1
10
54.4702292574628
20
-3.11827570672708
30
0
41
1
10
54.4923495490095
20
-3.11852193466282
30
0
41
1
10
54.4998818058866
20
-3.11899238844646
30
0
41
1
10
54.5151234646616
20
-3.12072152612242
30
0
41
1
10
54.5227733954789
20
-3.12197115040507
30
0
41
1
10
54.5457993765023
20
-3.1268693988134
30
0
41
1
10
54.56125105025
20
-3.13164809415136
30
0
41
1
10
54.5845494781892
20
-3.1413751515594
30
0
41
1
10
54.5923791643147
20
-3.14507263453223
30
0
41
1
10
54.6078356104163
20
-3.15331805270682
30
0
41
1
10
54.6154504141908
20
-3.15785340651897
30
0
41
1
10
54.630427017657
20
-3.16782181960193
30
0
41
1
10
54.6377890920495
20
-3.17325389206062
30
0
41
1
10
54.6522171418654
20
-3.18514968968947
30
0
41
1
10
54.6593019971689
20
-3.19164287644304
30
0
41
1
10
54.6726996443139
20
-3.20543677621146
30
0
41
1
10
54.6790642013005
20
-3.21277360263133
30
0
41
1
10
54.6910178408666
20
-3.22846753221259
30
0
41
1
10
54.6966255655701
20
-3.23686896158765
30
0
41
1
10
54.7016158086672
20
-3.24564969436798
30
0
0
SPLINE
5
12B
100
AcDbEntity
8
1
62
256
6
ByLayer
370
18
48
1
60
0
100
AcDbSpline
70
4
71
3
72
10
73
6
40
0
40
0
40
0
40
0
40
0.5
40
0.5
40
1
40
1
40
1
40
1
41
1
10
54.7016158086672
20
-3.24564969436756
30
0
41
1
10
54.7724507248741
20
-3.37028940803012
30
0
41
1
10
54.8426829197419
20
-3.4947086845192
30
0
41
1
10
54.9823072401529
20
-3.74293868188377
30
0
41
1
10
55.0514644519234
20
-3.86633267154323
30
0
41
1
10
55.1201430958666
20
-3.98892223690837
30
0
0
SPLINE
5
12C
100
AcDbEntity
8
1
62
256
6
ByLayer
370
18
48
1
60
0
100
AcDbSpline
70
4
71
3
72
10
73
6
40
0
40
0
40
0
40
0
40
0.5
40
0.5
40
1
40
1
40
1
40
1
41
1
10
55.2555838398371
20
-4.01318213959769
30
0
41
1
10
55.3262833721452
20
-3.91384319199412
30
0
41
1
10
55.3974769572275
20
-3.81017252677876
30
0
41
1
10
55.541272215932
20
-3.59423883917393
30
0
41
1
10
55.6136392935578
20
-3.48232748054704
30
0
41
1
10
55.6867154718523
20
-3.36649633375339
30
0
0
SPLINE
5
12D
100
AcDbEntity
8
1
62
256
6
ByLayer
370
18
48
1
60
0
100
AcDbSpline
70
4
71
3
72
30
73
26
40
0
40
0
40
0
40
0
40
0.124999999999975
40
0.124999999999975
40
0.24999999999995
40
0.24999999999995
40
0.374999999999924
40
0.374999999999924
40
0.437499999999911
40
0.437499999999911
40
0.499999999999898
40
0.499999999999898
40
0.624999999999873
40
0.624999999999873
40
0.687499999999894
40
0.687499999999894
40
0.749999999999915
40
0.749999999999915
40
0.812499999999936
40
0.812499999999936
40
0.874999999999957
40
0.874999999999957
40
0.937499999999979
40
0.937499999999979
40
1
40
1
40
1
40
1
41
1
10
55.6867154718523
20
-3.36649633375339
30
0
41
1
10
55.6958845190293
20
-3.35196271590016
30
0
41
1
10
55.7065674708648
20
-3.33960879431837
30
0
41
1
10
55.7302095982313
20
-3.31814205271058
30
0
41
1
10
55.7433211703228
20
-3.30900745544315
30
0
41
1
10
55.770579316696
20
-3.29430503903856
30
0
41
1
10
55.7848050931159
20
-3.28863450692168
30
0
41
1
10
55.8069511948259
20
-3.2824939714464
30
0
41
1
10
55.8144928947351
20
-3.28084224198332
30
0
41
1
10
55.8297436104024
20
-3.27837922330068
30
0
41
1
10
55.8373970048619
20
-3.27757408188236
30
0
41
1
10
55.8604295104151
20
-3.27642581075779
30
0
41
1
10
55.875880241228
20
-3.27732900385595
30
0
41
1
10
55.899166976829
20
-3.28147832815483
30
0
41
1
10
55.9069913444042
20
-3.28334674577144
30
0
41
1
10
55.9224227303857
20
-3.28806948189339
30
0
41
1
10
55.9300246107568
20
-3.29091508516962
30
0
41
1
10
55.9449753833615
20
-3.29765623016857
30
0
41
1
10
55.9523245663912
20
-3.3015506233869
30
0
41
1
10
55.9667277220369
20
-3.31054342581035
30
0
41
1
10
55.9737987608175
20
-3.31566743202325
30
0
41
1
10
55.987172232712
20
-3.32700372679244
30
0
41
1
10
55.9935265076764
20
-3.33324139344742
30
0
41
1
10
56.0054636556964
20
-3.34703916360218
30
0
41
1
10
56.011065059493
20
-3.35464214057924
30
0
41
1
10
56.0160514753956
20
-3.36282992310404
30
0
0
SPLINE
5
12E
100
AcDbEntity
8
1
62
256
6
ByLayer
370
18
48
1
60
0
100
AcDbSpline
70
4
71
3
72
12
73
8
40
0
40
0
40
0
40
0
40
0.25
40
0.25
40
0.500000000000001
40
0.500000000000001
40
1
40
1
40
1
40
1
41
1
10
56.0160514753955
20
-3.36282992310413
30
0
41
1
10
56.0515006355914
20
-3.42103806699777
30
0
41
1
10
56.0867966698714
20
-3.47869320964742
30
0
41
1
10
56.1571399847558
20
-3.59292995132182
30
0
41
1
10
56.1922006051418
20
-3.64953457627951
30
0
41
1
10
56.2969855344997
20
-3.81759080865373
30
0
41
1
10
56.3662909281083
20
-3.9272479566699
30
0
41
1
10
56.4350337873048
20
-4.03420699876921
30
0
0
SPLINE
5
12F
100
AcDbEntity
8
1
62
256
6
ByLayer
370
18
48
1
60
0
100
AcDbSpline
70
4
71
3
72
8
73
4
40
0
40
0
40
0
40
0
40
1
40
1
40
1
40
1
41
1
10
56.569920067114
20
-4.01476947900457
30
0
41
1
10
56.5249100196358
20
-4.0219907485554
30
0
41
1
10
56.479948396331
20
-4.02846938069803
30
0
41
1
10
56.4350337873048
20
-4.03420699876918
30
0
0
SPLINE
5
130
100
AcDbEntity
8
1
62
256
6
ByLayer
370
18
48
1
60
0
100
AcDbSpline
70
4
71
3
72
10
73
6
40
0
40
0
40
0
40
0
40
0.5
40
0.5
40
1
40
1
40
1
40
1
41
1
10
56.569920067114
20
-4.01476947900454
30
0
41
1
10
56.6406296061572
20
-3.88744144139409
30
0
41
1
10
56.7118423446754
20
-3.7575252309874
30
0
41
1
10
56.8556781651725
20
-3.49269579984335
30
0
41
1
10
56.9280644220061
20
-3.35822420464618
30
0
41
1
10
57.0011528663171
20
-3.22178005100852
30
0
0
SPLINE
5
131
100
AcDbEntity
8
1
62
256
6
ByLayer
370
18
48
1
60
0
100
AcDbSpline
70
4
71
3
72
30
73
26
40
0
40
0
40
0
40
0
40
0.124999999999993
40
0.124999999999993
40
0.249999999999986
40
0.249999999999986
40
0.374999999999979
40
0.374999999999979
40
0.437500000000008
40
0.437500000000008
40
0.500000000000037
40
0.500000000000037
40
0.625000000000027
40
0.625000000000027
40
0.687500000000023
40
0.687500000000023
40
0.750000000000018
40
0.750000000000018
40
0.812500000000014
40
0.812500000000014
40
0.875000000000009
40
0.875000000000009
40
0.937500000000005
40
0.937500000000005
40
1
40
1
40
1
40
1
41
1
10
57.0011528663171
20
-3.22178005100852
30
0
41
1
10
57.0103211329774
20
-3.20466439891641
30
0
41
1
10
57.0210045471308
20
-3.18938713470305
30
0
41
1
10
57.0446499541737
20
-3.1615739723795
30
0
41
1
10
57.057765939946
20
-3.14897571194419
30
0
41
1
10
57.0850346452511
20
-3.12715504284458
30
0
41
1
10
57.0992652207988
20
-3.11780863358945
30
0
41
1
10
57.1214180660787
20
-3.10597780179026
30
0
41
1
10
57.1289624510714
20
-3.10239330615931
30
0
41
1
10
57.1442157964405
20
-3.09602900395083
30
0
41
1
10
57.1518702064502
20
-3.09326901747639
30
0
41
1
10
57.1749049803611
20
-3.08623929490864
30
0
41
1
10
57.1903562499959
20
-3.08319944538084
30
0
41
1
10
57.2136422419467
20
-3.08137763493335
30
0
41
1
10
57.2214661974253
20
-3.08123505662871
30
0
41
1
10
57.2368882967395
20
-3.08197476265684
30
0
41
1
10
57.2444848562215
20
-3.08284973071994
30
0
41
1
10
57.2594233659639
20
-3.08569142418543
30
0
41
1
10
57.266765629247
20
-3.08765699143413
30
0
41
1
10
57.2811532240207
20
-3.09283702694987
30
0
41
1
10
57.2882140397327
20
-3.0960715459351
30
0
41
1
10
57.3015660093436
20
-3.10379062522247
30
0
41
1
10
57.3079092282735
20
-3.10828724742882
30
0
41
1
10
57.3198245259962
20
-3.11875878978282
30
0
41
1
10
57.3254151152922
20
-3.12477073941534
30
0
41
1
10
57.3303925618854
20
-3.13150624141187
30
0
0
SPLINE
5
132
100
AcDbEntity
8
1
62
256
6
ByLayer
370
18
48
1
60
0
100
AcDbSpline
70
4
71
3
72
12
73
8
40
0
40
0
40
0
40
0
40
0.250000000000006
40
0.250000000000006
40
0.500000000000012
40
0.500000000000012
40
1
40
1
40
1
40
1
41
1
10
57.3303925618853
20
-3.13150624141244
30
0
41
1
10
57.3658425859565
20
-3.17947736544909
30
0
41
1
10
57.4011390765106
20
-3.22644584894442
30
0
41
1
10
57.4714747197574
20
-3.31840142448041
30
0
41
1
10
57.5065288477017
20
-3.36340722422497
30
0
41
1
10
57.6112297843039
20
-3.49528412342755
30
0
41
1
10
57.6804506048721
20
-3.57905596461421
30
0
41
1
10
57.7491303495037
20
-3.6587717301847
30
0
0
SPLINE
5
133
100
AcDbEntity
8
1
62
256
6
ByLayer
370
18
48
1
60
0
100
AcDbSpline
70
4
71
3
72
8
73
4
40
0
40
0
40
0
40
0
40
1
40
1
40
1
40
1
41
1
10
57.884493374304
20
-3.59730787462146
30
0
41
1
10
57.839300987386
20
-3.61847015625429
30
0
41
1
10
57.7941785470611
20
-3.63895762774791
30
0
41
1
10
57.7491303495037
20
-3.65877173018467
30
0
0
SPLINE
5
134
100
AcDbEntity
8
1
62
256
6
ByLayer
370
18
48
1
60
0
100
AcDbSpline
70
4
71
3
72
10
73
6
40
0
40
0
40
0
40
0
40
0.5
40
0.5
40
1
40
1
40
1
40
1
41
1
10
57.8844933743039
20
-3.59730787462144
30
0
41
1
10
57.9551349928923
20
-3.45514445601472
30
0
41
1
10
58.0263112596141
20
-3.31245826771925
30
0
41
1
10
58.1701206534763
20
-3.02630076806548
30
0
41
1
10
58.2425117225885
20
-2.88331164237175
30
0
41
1
10
58.3156267663998
20
-2.74053075386607
30
0
0
SPLINE
5
135
100
AcDbEntity
8
1
62
256
6
ByLayer
370
18
48
1
60
0
100
AcDbSpline
70
4
71
3
72
16
73
12
40
0
40
0
40
0
40
0
40
0.326464179751402
40
0.326464179751402
40
0.489696269627171
40
0.489696269627171
40
0.652928359502941
40
0.652928359502941
40
0.979392539254315
40
0.979392539254315
40
1
40
1
40
1
40
1
41
1
10
58.3156267663998
20
-2.74053075386607
30
0
41
1
10
58.3247936474314
20
-2.72262943902996
30
0
41
1
10
58.3354761004601
20
-2.70603151070287
30
0
41
1
10
58.3532099875424
20
-2.68259996900755
30
0
41
1
10
58.3594134882824
20
-2.67503997447446
30
0
41
1
10
58.3723718347984
20
-2.66039286006162
30
0
41
1
10
58.3790573854143
20
-2.65338671014166
30
0
41
1
10
58.3995127001811
20
-2.63339979049752
30
0
41
1
10
58.4137459973768
20
-2.62135869526389
30
0
41
1
10
58.4294504539465
20
-2.60982230836302
30
0
41
1
10
58.4303854747824
20
-2.60914188186644
30
0
41
1
10
58.4313228993759
20
-2.60846612143749
30
0
0
SPLINE
5
136
100
AcDbEntity
8
1
62
256
6
ByLayer
370
18
48
1
60
0
100
AcDbSpline
70
4
71
3
72
12
73
8
40
0
40
0
40
0
40
0
40
0.499999999999999
40
0.499999999999999
40
0.75
40
0.75
40
1
40
1
40
1
40
1
41
1
10
58.9021171211278
20
3.06566907382043
30
0
41
1
10
58.831956598345
20
3.18412646039204
30
0
41
1
10
58.7621546837884
20
3.3040901521409
30
0
41
1
10
58.6581312697634
20
3.48548975274602
30
0
41
1
10
58.6235673017259
20
3.54620237960646
30
0
41
1
10
58.5547351834003
20
3.66788647684663
30
0
41
1
10
58.5204514384979
20
3.72888505491829
30
0
41
1
10
58.486279307032
20
3.7900268134577
30
0
0
SPLINE
5
137
100
AcDbEntity
8
1
62
256
6
ByLayer
370
18
48
1
60
0
100
AcDbSpline
70
4
71
3
72
10
73
6
40
0
40
0
40
0
40
0
40
0.5
40
0.5
40
1
40
1
40
1
40
1
41
1
10
58.3514719263313
20
3.83705710831765
30
0
41
1
10
58.279995480343
20
3.7606381076757
30
0
41
1
10
58.2081032963573
20
3.67862552911981
30
0
41
1
10
58.0631221160831
20
3.50323319851475
30
0
41
1
10
57.9902893037731
20
3.41014398952009
30
0
41
1
10
57.9168352648862
20
3.31160837640837
30
0
0
SPLINE
5
138
100
AcDbEntity
8
1
62
256
6
ByLayer
370
18
48
1
60
0
100
AcDbSpline
70
4
71
3
72
28
73
24
40
0
40
0
40
0
40
0
40
0.125
40
0.125
40
0.25
40
0.25
40
0.375
40
0.375
40
0.500000000000001
40
0.500000000000001
40
0.625000000000001
40
0.625000000000001
40
0.687500000000001
40
0.687500000000001
40
0.750000000000001
40
0.750000000000001
40
0.8125
40
0.8125
40
0.875
40
0.875
40
0.9375
40
0.9375
40
1
40
1
40
1
40
1
41
1
10
57.916835264886
20
3.3116083764084
30
0
41
1
10
57.9079790832049
20
3.29972816798136
30
0
41
1
10
57.8976991960701
20
3.28981093831933
30
0
41
1
10
57.874920777323
20
3.27298759561666
30
0
41
1
10
57.8622961403362
20
3.26607640641578
30
0
41
1
10
57.8358806764215
20
3.25545280720775
30
0
41
1
10
57.8220198277292
20
3.25166482357369
30
0
41
1
10
57.7930692482934
20
3.24704614752773
30
0
41
1
10
57.7778409558121
20
3.24624023200911
30
0
41
1
10
57.7471964797848
20
3.24789114408102
30
0
41
1
10
57.7316961151963
20
3.25030283056611
30
0
41
1
10
57.7081920680264
20
3.25665512803746
30
0
41
1
10
57.7003147732715
20
3.25923281805748
30
0
41
1
10
57.6844713068322
20
3.26545263842627
30
0
41
1
10
57.6765963799484
20
3.26906350824402
30
0
41
1
10
57.6611447219548
20
3.27730685772298
30
0
41
1
10
57.6535399656133
20
3.28194870656154
30
0
41
1
10
57.6386181175819
20
3.29243899790575
30
0
41
1
10
57.6312625576264
20
3.29833171229564
30
0
41
1
10
57.6173622365388
20
3.3111631941168
30
0
41
1
10
57.6107661329642
20
3.31812795735698
30
0
41
1
10
57.5984001774918
20
3.33333767043024
30
0
41
1
10
57.59264203478
20
3.34159231114421
30
0
41
1
10
57.5875628589999
20
3.35032479511676
30
0
0
SPLINE
5
139
100
AcDbEntity
8
1
62
256
6
ByLayer
370
18
48
1
60
0
100
AcDbSpline
70
4
71
3
72
12
73
8
40
0
40
0
40
0
40
0
40
0.5
40
0.5
40
0.750000000000001
40
0.750000000000001
40
1
40
1
40
1
40
1
41
1
10
57.5875628589999
20
3.35032479511676
30
0
41
1
10
57.5174620350488
20
3.47084716884797
30
0
41
1
10
57.4477209145408
20
3.59080433048473
30
0
41
1
10
57.3437967473987
20
3.76922023027922
30
0
41
1
10
57.3092668566714
20
3.82844304338747
30
0
41
1
10
57.2405052856477
20
3.94618335457781
30
0
41
1
10
57.2062578594769
20
4.00472785415022
30
0
41
1
10
57.1721217819076
20
4.06294404809012
30
0
0
SPLINE
5
13A
100
AcDbEntity
8
1
62
256
6
ByLayer
370
18
48
1
60
0
100
AcDbSpline
70
4
71
3
72
10
73
6
40
0
40
0
40
0
40
0
40
0.5
40
0.5
40
1
40
1
40
1
40
1
41
1
10
57.0368442512081
20
4.0670474597969
30
0
41
1
10
56.9654196227837
20
3.95282320721915
30
0
41
1
10
56.8935682089889
20
3.83452166843821
30
0
41
1
10
56.7486178367719
20
3.58981995389809
30
0
41
1
10
56.6757603940586
20
3.46382765149443
30
0
41
1
10
56.6022854512333
20
3.33418267172996
30
0
0
SPLINE
5
13B
100
AcDbEntity
8
1
62
256
6
ByLayer
370
18
48
1
60
0
100
AcDbSpline
70
4
71
3
72
28
73
24
40
0
40
0
40
0
40
0
40
0.125000000000026
40
0.125000000000026
40
0.250000000000051
40
0.250000000000051
40
0.375000000000077
40
0.375000000000077
40
0.500000000000103
40
0.500000000000103
40
0.625000000000128
40
0.625000000000128
40
0.687500000000107
40
0.687500000000107
40
0.750000000000085
40
0.750000000000085
40
0.812500000000064
40
0.812500000000064
40
0.875000000000043
40
0.875000000000043
40
0.937500000000021
40
0.937500000000021
40
1
40
1
40
1
40
1
41
1
10
56.6022854512333
20
3.33418267172996
30
0
41
1
10
56.5934222597767
20
3.31854375820564
30
0
41
1
10
56.5831337822551
20
3.30470757951215
30
0
41
1
10
56.5603376228153
20
3.27980737154019
30
0
41
1
10
56.5477037839378
20
3.26870354389825
30
0
41
1
10
56.5212733426258
20
3.24975337145779
30
0
41
1
10
56.5074062731616
20
3.24180342559103
30
0
41
1
10
56.4784474098432
20
3.2288485231278
30
0
41
1
10
56.4632177236404
20
3.22383367732019
30
0
41
1
10
56.4325747606474
20
3.21732769582476
30
0
41
1
10
56.417076934143
20
3.21576427373645
30
0
41
1
10
56.3935796791218
20
3.2163084388828
30
0
41
1
10
56.3857051570203
20
3.21697606496562
30
0
41
1
10
56.3698682544391
20
3.21943161466189
30
0
41
1
10
56.3619974926198
20
3.22121012281244
30
0
41
1
10
56.3465529142099
20
3.22593885942015
30
0
41
1
10
56.3389514938814
20
3.22889163102323
30
0
41
1
10
56.3240356818428
20
3.23615888738704
30
0
41
1
10
56.3166826856445
20
3.24051045157972
30
0
41
1
10
56.3027853344112
20
3.25053942387339
30
0
41
1
10
56.2961899030342
20
3.25623089934558
30
0
41
1
10
56.2838237913833
20
3.26919334246708
30
0
41
1
10
56.2780645384972
20
3.27647799412696
30
0
41
1
10
56.2729839757884
20
3.28445155264626
30
0
0
SPLINE
5
13C
100
AcDbEntity
8
1
62
256
6
ByLayer
370
18
48
1
60
0
100
AcDbSpline
70
4
71
3
72
12
73
8
40
0
40
0
40
0
40
0
40
0.500000000000012
40
0.500000000000012
40
0.750000000000006
40
0.750000000000006
40
1
40
1
40
1
40
1
41
1
10
56.2729839757884
20
3.28445155264626
30
0
41
1
10
56.2028532401058
20
3.39451643266321
30
0
41
1
10
56.1330782756374
20
3.50204283325542
30
0
41
1
10
56.0290973979236
20
3.65900756973156
30
0
41
1
10
55.9945484003466
20
3.71060974001182
30
0
41
1
10
55.9257506424709
20
3.81220775105973
30
0
41
1
10
55.8914861141447
20
3.86222746403124
30
0
41
1
10
55.8573344156013
20
3.91147556631665
30
0
0
SPLINE
5
13D
100
AcDbEntity
8
1
62
256
6
ByLayer
370
18
48
1
60
0
100
AcDbSpline
70
4
71
3
72
8
73
4
40
0
40
0
40
0
40
0
40
1
40
1
40
1
40
1
41
1
10
55.7223651611884
20
3.8721381065435
30
0
41
1
10
55.767371093049
20
3.88597392453806
30
0
41
1
10
55.8123569217282
20
3.89908718310065
30
0
41
1
10
55.8573344156013
20
3.9114755663166
30
0
0
SPLINE
5
13E
100
AcDbEntity
8
1
62
256
6
ByLayer
370
18
48
1
60
0
100
AcDbSpline
70
4
71
3
72
10
73
6
40
0
40
0
40
0
40
0
40
0.5
40
0.5
40
1
40
1
40
1
40
1
41
1
10
55.7223651611883
20
3.87213810654347
30
0
41
1
10
55.6509192412596
20
3.73238196966645
30
0
41
1
10
55.5790489284763
20
3.59047848647273
30
0
41
1
10
55.4340841993137
20
3.30254080777877
30
0
41
1
10
55.3612325777086
20
3.15699372016346
30
0
41
1
10
55.2877827143497
20
3.00993440189774
30
0
0
SPLINE
5
13F
100
AcDbEntity
8
1
62
256
6
ByLayer
370
18
48
1
60
0
100
AcDbSpline
70
4
71
3
72
28
73
24
40
0
40
0
40
0
40
0
40
0.125
40
0.125
40
0.25
40
0.25
40
0.375000000000001
40
0.375000000000001
40
0.500000000000001
40
0.500000000000001
40
0.625000000000001
40
0.625000000000001
40
0.687500000000001
40
0.687500000000001
40
0.750000000000001
40
0.750000000000001
40
0.8125
40
0.8125
40
0.875
40
0.875
40
0.9375
40
0.9375
40
1
40
1
40
1
40
1
41
1
10
55.2877827143497
20
3.00993440189771
30
0
41
1
10
55.2789136560198
20
2.99217701458613
30
0
41
1
10
55.2686176750968
20
2.97587172019428
30
0
41
1
10
55.245805415945
20
2.94550193998114
30
0
41
1
10
55.2331627048647
20
2.93136674549368
30
0
41
1
10
55.2067168447751
20
2.90607054047354
30
0
41
1
10
55.192843049608
20
2.89478875075255
30
0
41
1
10
55.1638738226714
20
2.87484890155386
30
0
41
1
10
55.1486409900484
20
2.86614757532899
30
0
41
1
10
55.1179959415678
20
2.8521608999699
30
0
41
1
10
55.1024986686984
20
2.84678343067375
30
0
41
1
10
55.079005120853
20
2.84145878951219
30
0
41
1
10
55.0711323140266
20
2.84014526438853
30
0
41
1
10
55.0552999152353
20
2.83857729916628
30
0
41
1
10
55.0474335784155
20
2.83833654600266
30
0
41
1
10
55.0319963242256
20
2.83905317855721
30
0
41
1
10
55.0243986521126
20
2.84000626572774
30
0
41
1
10
55.0094904040408
20
2.84328600926949
30
0
41
1
10
55.0021413208165
20
2.84563855006726
30
0
41
1
10
54.9882508870862
20
2.85180858685283
30
0
41
1
10
54.9816585443798
20
2.85562694066567
30
0
41
1
10
54.9692977361734
20
2.86497488346126
30
0
41
1
10
54.9635402025071
20
2.87052071813076
30
0
41
1
10
54.9584607054437
20
2.87689349381688
30
0
0
SPLINE
5
140
100
AcDbEntity
8
1
62
256
6
ByLayer
370
18
48
1
60
0
100
AcDbSpline
70
4
71
3
72
12
73
8
40
0
40
0
40
0
40
0
40
0.499999999999988
40
0.499999999999988
40
0.749999999999994
40
0.749999999999994
40
1
40
1
40
1
40
1
41
1
10
54.9584607054377
20
2.87689349383257
30
0
41
1
10
54.8884040863811
20
2.96478706146379
30
0
41
1
10
54.8187029377726
20
3.04841711211026
30
0
41
1
10
54.7148220612377
20
3.1672117804159
30
0
41
1
10
54.6803040830856
20
3.20570450565558
30
0
41
1
10
54.6115616065535
20
3.28037743179445
30
0
41
1
10
54.5773216427435
20
3.31657550160173
30
0
41
1
10
54.5431927956868
20
3.35164292837726
30
0
0
SPLINE
5
141
100
AcDbEntity
8
1
62
256
6
ByLayer
370
18
48
1
60
0
100
AcDbSpline
70
4
71
3
72
8
73
4
40
0
40
0
40
0
40
0
40
1
40
1
40
1
40
1
41
1
10
54.4076773831773
20
3.27264528519129
30
0
41
1
10
54.4528665630128
20
3.29960142014431
30
0
41
1
10
54.4980336877239
20
3.32593637675291
30
0
41
1
10
54.5431927956868
20
3.3516429283772
30
0
0
SPLINE
5
142
100
AcDbEntity
8
1
62
256
6
ByLayer
370
18
48
1
60
0
100
AcDbSpline
70
4
71
3
72
10
73
6
40
0
40
0
40
0
40
0
40
0.719424053091119
40
0.719424053091119
40
1
40
1
40
1
40
1
41
1
10
54.4076773831773
20
3.27264528519132
30
0
41
1
10
54.3363034127886
20
3.12168289631529
30
0
41
1
10
54.2644803893182
20
2.97076736709283
30
0
41
1
10
54.1637418914593
20
2.76125301830217
30
0
41
1
10
54.1354157842013
20
2.70257318140565
30
0
41
1
10
54.1070152101191
20
2.64400510890221
30
0
0
SPLINE
5
143
100
AcDbEntity
8
1
62
256
6
ByLayer
370
18
48
1
60
0
100
AcDbSpline
70
4
71
3
72
12
73
8
40
0
40
0
40
0
40
0
40
0.249999999999995
40
0.249999999999995
40
0.499999999999989
40
0.499999999999989
40
1
40
1
40
1
40
1
41
1
10
53.5536975945618
20
3.55821923579393
30
0
41
1
10
53.5849329474091
20
3.49576966948382
30
0
41
1
10
53.616275281803
20
3.43317994553487
30
0
41
1
10
53.6792102308532
20
3.30773558018112
30
0
41
1
10
53.7108179200303
20
3.2448510329753
30
0
41
1
10
53.8059566369193
20
3.05605642959415
30
0
41
1
10
53.869766810829
20
2.93007558232577
30
0
41
1
10
53.9341143601974
20
2.80405064933962
30
0
0
SPLINE
5
144
100
AcDbEntity
8
1
62
256
6
ByLayer
370
18
48
1
60
0
100
AcDbSpline
70
4
71
3
72
30
73
26
40
0
40
0
40
0
40
0
40
0.124999999999999
40
0.124999999999999
40
0.249999999999998
40
0.249999999999998
40
0.374999999999997
40
0.374999999999997
40
0.437499999999997
40
0.437499999999997
40
0.499999999999997
40
0.499999999999997
40
0.624999999999998
40
0.624999999999998
40
0.687499999999999
40
0.687499999999999
40
0.749999999999999
40
0.749999999999999
40
0.812499999999999
40
0.812499999999999
40
0.874999999999999
40
0.874999999999999
40
0.9375
40
0.9375
40
1
40
1
40
1
40
1
41
1
10
53.9341143601953
20
2.80405064934269
30
0
41
1
10
53.9432733997744
20
2.78611263366841
30
0
41
1
10
53.953944327359
20
2.76953672520301
30
0
41
1
10
53.9775627048917
20
2.7384272410406
30
0
41
1
10
53.9906626564645
20
2.7238019103244
30
0
41
1
10
54.0179039069512
20
2.6974465941029
30
0
41
1
10
54.0321231861535
20
2.68558406144962
30
0
41
1
10
54.0542632837647
20
2.66962174641859
30
0
41
1
10
54.0618029521671
20
2.66459574898184
30
0
41
1
10
54.0770545599154
20
2.65523987740127
30
0
41
1
10
54.0847088768385
20
2.65094278029571
30
0
41
1
10
54.1077456504996
20
2.63917582048504
30
0
41
1
10
54.1232012625809
20
2.63281214671343
30
0
41
1
10
54.146498810757
20
2.62571313970472
30
0
41
1
10
54.1543274456314
20
2.62375164235215
30
0
41
1
10
54.1697705787319
20
2.6208014023515
30
0
41
1
10
54.1773780586171
20
2.61980765245664
30
0
41
1
10
54.1923392882346
20
2.61885882889223
30
0
41
1
10
54.199693339061
20
2.61890263776792
30
0
41
1
10
54.2141054463735
20
2.62017748265848
30
0
41
1
10
54.2211802245487
20
2.62142302016193
30
0
41
1
10
54.2345589410038
20
2.62521250734539
30
0
41
1
10
54.2409149816361
20
2.62775493018319
30
0
41
1
10
54.2528540675722
20
2.63434406571568
30
0
41
1
10
54.2584547568513
20
2.63841922195772
30
0
41
1
10
54.2634390834265
20
2.64328616045762
30
0
0
SPLINE
5
145
100
AcDbEntity
8
1
62
256
6
ByLayer
370
18
48
1
60
0
100
AcDbSpline
70
4
71
3
72
12
73
8
40
0
40
0
40
0
40
0
40
0.250000000000006
40
0.250000000000006
40
0.500000000000012
40
0.500000000000012
40
1
40
1
40
1
40
1
41
1
10
54.2634390834264
20
2.64328616045873
30
0
41
1
10
54.2988841127912
20
2.67789640829187
30
0
41
1
10
54.3341786371921
20
2.71119629678813
30
0
41
1
10
54.4045158253409
20
2.77521630477685
30
0
41
1
10
54.4395728999428
20
2.80594752752833
30
0
41
1
10
54.5442977892721
20
2.89424414867173
30
0
41
1
10
54.6135626380401
20
2.94798483927232
30
0
41
1
10
54.6822818642892
20
2.99670746849276
30
0
0
SPLINE
5
146
100
AcDbEntity
8
1
62
256
6
ByLayer
370
18
48
1
60
0
100
AcDbSpline
70
4
71
3
72
8
73
4
40
0
40
0
40
0
40
0
40
1
40
1
40
1
40
1
41
1
10
54.8174172353239
20
2.90326948034681
30
0
41
1
10
54.7723258567942
20
2.93494906275399
30
0
41
1
10
54.7272821768505
20
2.96609653507332
30
0
41
1
10
54.6822818642891
20
2.99670746849293
30
0
0
SPLINE
5
147
100
AcDbEntity
8
1
62
256
6
ByLayer
370
18
48
1
60
0
100
AcDbSpline
70
4
71
3
72
10
73
6
40
0
40
0
40
0
40
0
40
0.5
40
0.5
40
1
40
1
40
1
40
1
41
1
10
54.8174172353239
20
2.90326948034692
30
0
41
1
10
54.8880644798093
20
2.7601281600239
30
0
41
1
10
54.9592509807515
20
2.6183588301756
30
0
41
1
10
55.1030841309826
20
2.33785764113367
30
0
41
1
10
55.1754857496313
20
2.19959759162728
30
0
41
1
10
55.2485870834786
20
2.06345927215156
30
0
0
SPLINE
5
148
100
AcDbEntity
8
1
62
256
6
ByLayer
370
18
48
1
60
0
100
AcDbSpline
70
4
71
3
72
30
73
26
40
0
40
0
40
0
40
0
40
0.125000000000026
40
0.125000000000026
40
0.250000000000052
40
0.250000000000052
40
0.375000000000078
40
0.375000000000078
40
0.437500000000092
40
0.437500000000092
40
0.500000000000105
40
0.500000000000105
40
0.625000000000131
40
0.625000000000131
40
0.687500000000109
40
0.687500000000109
40
0.750000000000087
40
0.750000000000087
40
0.812500000000065
40
0.812500000000065
40
0.875000000000044
40
0.875000000000044
40
0.937500000000022
40
0.937500000000022
40
1
40
1
40
1
40
1
41
1
10
55.2485870834786
20
2.06345927215156
30
0
41
1
10
55.2577424933446
20
2.04640893876285
30
0
41
1
10
55.268409461944
20
2.03006398594084
30
0
41
1
10
55.2920197624887
20
1.99844503110677
30
0
41
1
10
55.3051164099865
20
1.98305431915034
30
0
41
1
10
55.3323526870847
20
1.954356117667
30
0
41
1
10
55.3465693756724
20
1.94092056648711
30
0
41
1
10
55.3687063948692
20
1.92202556019674
30
0
41
1
10
55.3762452772715
20
1.91592172182186
30
0
41
1
10
55.3914952746322
20
1.90422502705283
30
0
41
1
10
55.3991488301513
20
1.89867422845731
30
0
41
1
10
55.4221836241989
20
1.88289563470264
30
0
41
1
10
55.4376383341829
20
1.87352778914027
30
0
41
1
10
55.4609356313679
20
1.86135644424965
30
0
41
1
10
55.4687645617893
20
1.8575979353401
30
0
41
1
10
55.4842053020805
20
1.85089781698943
30
0
41
1
10
55.4918114503855
20
1.84795365915227
30
0
41
1
10
55.5067695786003
20
1.84293803252603
30
0
41
1
10
55.5141218545322
20
1.84086563474989
30
0
41
1
10
55.5285296613089
20
1.83771533086622
30
0
41
1
10
55.5356007784753
20
1.83664393188346
30
0
41
1
10
55.5489707941782
20
1.83571295256479
30
0
41
1
10
55.5553220570611
20
1.83583727767984
30
0
41
1
10
55.567251041572
20
1.83745435249943
30
0
41
1
10
55.5728461273862
20
1.83896365141632
30
0
41
1
10
55.5778254246336
20
1.84125411363715
30
0
0
SPLINE
5
149
100
AcDbEntity
8
1
62
256
6
ByLayer
370
18
48
1
60
0
100
AcDbSpline
70
4
71
3
72
12
73
8
40
0
40
0
40
0
40
0
40
0.250000000000006
40
0.250000000000006
40
0.500000000000011
40
0.500000000000011
40
1
40
1
40
1
40
1
41
1
10
55.5778254246334
20
1.8412541136386
30
0
41
1
10
55.6132764838674
20
1.85756149755858
30
0
41
1
10
55.6485786311461
20
1.87236067463209
30
0
41
1
10
55.7189303953964
20
1.89897543531583
30
0
41
1
10
55.7539953499713
20
1.9107953915393
30
0
41
1
10
55.8587374421419
20
1.9417518083834
30
0
41
1
10
55.9279792133916
20
1.95634111454365
30
0
41
1
10
55.9966240905468
20
1.96508050005528
30
0
0
SPLINE
5
14A
100
AcDbEntity
8
1
62
256
6
ByLayer
370
18
48
1
60
0
100
AcDbSpline
70
4
71
3
72
8
73
4
40
0
40
0
40
0
40
0
40
1
40
1
40
1
40
1
41
1
10
56.1316480830244
20
1.84454729694281
30
0
41
1
10
56.0865991817016
20
1.88506907702487
30
0
41
1
10
56.041613921026
20
1.92526686068672
30
0
41
1
10
55.9966240905469
20
1.96508050005525
30
0
0
SPLINE
5
14B
100
AcDbEntity
8
1
62
256
6
ByLayer
370
18
48
1
60
0
100
AcDbSpline
70
4
71
3
72
10
73
6
40
0
40
0
40
0
40
0
40
0.5
40
0.5
40
1
40
1
40
1
40
1
41
1
10
56.1316480830245
20
1.84454729694289
30
0
41
1
10
56.202252533338
20
1.7144015914908
30
0
41
1
10
56.2734369007575
20
1.58769150865478
30
0
41
1
10
56.4173741337692
20
1.34145543350806
30
0
41
1
10
56.4898760261945
20
1.22235429363778
30
0
41
1
10
56.5631227518051
20
1.10736350076905
30
0
0
SPLINE
5
14C
100
AcDbEntity
8
1
62
256
6
ByLayer
370
18
48
1
60
0
100
AcDbSpline
70
4
71
3
72
32
73
28
40
0
40
0
40
0
40
0
40
0.12499999999996
40
0.12499999999996
40
0.18749999999994
40
0.18749999999994
40
0.24999999999992
40
0.24999999999992
40
0.374999999999878
40
0.374999999999878
40
0.43749999999989
40
0.43749999999989
40
0.499999999999902
40
0.499999999999902
40
0.624999999999927
40
0.624999999999927
40
0.687499999999939
40
0.687499999999939
40
0.749999999999951
40
0.749999999999951
40
0.812499999999963
40
0.812499999999963
40
0.874999999999976
40
0.874999999999976
40
0.937499999999988
40
0.937499999999988
40
1
40
1
40
1
40
1
41
1
10
56.5631227518051
20
1.10736350076905
30
0
41
1
10
56.5722825540125
20
1.09298343245101
30
0
41
1
10
56.5829557027652
20
1.07857865491008
30
0
41
1
10
56.6006747157965
20
1.05696328556621
30
0
41
1
10
56.6068730755704
20
1.04975622015505
30
0
41
1
10
56.6198209783017
20
1.03533783413405
30
0
41
1
10
56.6265018253608
20
1.02820446438943
30
0
41
1
10
56.6469435494283
20
1.00717961482573
30
0
41
1
10
56.6611689892756
20
0.993581221979071
30
0
41
1
10
56.6833176228854
20
0.97373891787592
30
0
41
1
10
56.6908612869334
20
0.967198100821349
30
0
41
1
10
56.7061140687648
20
0.954393996351769
30
0
41
1
10
56.7137685563571
20
0.948175113806371
30
0
41
1
10
56.7368047806572
20
0.930050060659795
30
0
41
1
10
56.7522586577342
20
0.918667411447217
30
0
41
1
10
56.7755515857202
20
0.902708592385295
30
0
41
1
10
56.7833785601313
20
0.897549761003859
30
0
41
1
10
56.7988038328866
20
0.887811976908864
30
0
41
1
10
56.8064019497942
20
0.883229970424679
30
0
41
1
10
56.8213434027152
20
0.874679081347097
30
0
41
1
10
56.8286870379538
20
0.870709566616227
30
0
41
1
10
56.8430769284673
20
0.863466047702758
30
0
41
1
10
56.8501367469694
20
0.860190937958805
30
0
41
1
10
56.8634847105567
20
0.854637292472205
30
0
41
1
10
56.8698253744363
20
0.852329639577562
30
0
41
1
10
56.8817345032181
20
0.848802188898787
30
0
41
1
10
56.8873204864739
20
0.847585368531639
30
0
41
1
10
56.8922929374838
20
0.847056941473284
30
0
0
SPLINE
5
14D
100
AcDbEntity
8
1
62
256
6
ByLayer
370
18
48
1
60
0
100
AcDbSpline
70
4
71
3
72
12
73
8
40
0
40
0
40
0
40
0
40
0.250000000000006
40
0.250000000000006
40
0.500000000000012
40
0.500000000000012
40
1
40
1
40
1
40
1
41
1
10
56.8922929374837
20
0.847056941474904
30
0
41
1
10
56.927714373738
20
0.843292672038046
30
0
41
1
10
56.9629867809035
20
0.837979237206639
30
0
41
1
10
57.0332798446707
20
0.824303001043717
30
0
41
1
10
57.068315229798
20
0.815936022384847
30
0
41
1
10
57.1729872229454
20
0.786334801902967
30
0
41
1
10
57.2421975769132
20
0.76059796189017
30
0
41
1
10
57.3108081509669
20
0.729038145887415
30
0
0
SPLINE
5
14E
100
AcDbEntity
8
1
62
256
6
ByLayer
370
18
48
1
60
0
100
AcDbSpline
70
4
71
3
72
8
73
4
40
0
40
0
40
0
40
0
40
1
40
1
40
1
40
1
41
1
10
57.446227148024
20
0.594475439555509
30
0
41
1
10
57.401104991648
20
0.639496305523323
30
0
41
1
10
57.3559719967164
20
0.684356801577053
30
0
41
1
10
57.3108081509669
20
0.729038145887387
30
0
0
SPLINE
5
14F
100
AcDbEntity
8
1
62
256
6
ByLayer
370
18
48
1
60
0
100
AcDbSpline
70
4
71
3
72
10
73
6
40
0
40
0
40
0
40
0
40
0.5
40
0.5
40
1
40
1
40
1
40
1
41
1
10
57.4462271480235
20
0.594475439552724
30
0
41
1
10
57.5168952680608
20
0.491191175933153
30
0
41
1
10
57.5880323471914
20
0.3926779471293
30
0
41
1
10
57.731856661026
20
0.206204939718901
30
0
41
1
10
57.8043144887605
20
0.118655042546749
30
0
41
1
10
57.87755085777
20
0.0368480040011718
30
0
0
SPLINE
5
150
100
AcDbEntity
8
1
62
256
6
ByLayer
370
18
48
1
60
0
100
AcDbSpline
70
4
71
3
72
32
73
28
40
0
40
0
40
0
40
0
40
0.125000000000006
40
0.125000000000006
40
0.187499999999983
40
0.187499999999983
40
0.249999999999959
40
0.249999999999959
40
0.374999999999912
40
0.374999999999912
40
0.43749999999992
40
0.43749999999992
40
0.499999999999929
40
0.499999999999929
40
0.624999999999947
40
0.624999999999947
40
0.687499999999956
40
0.687499999999956
40
0.749999999999965
40
0.749999999999965
40
0.812499999999974
40
0.812499999999974
40
0.874999999999982
40
0.874999999999982
40
0.937499999999991
40
0.937499999999991
40
1
40
1
40
1
40
1
41
1
10
57.87755085777
20
0.0368480040011718
30
0
41
1
10
57.8867124192819
20
0.0266142878042785
30
0
41
1
10
57.8973875917468
20
0.015622141532674
30
0
41
1
10
57.9151097078022
20
-0.0016903117635252
30
0
41
1
10
57.9213091265722
20
-0.0076028204813383
30
0
41
1
10
57.9342591986382
20
-0.0196961024483358
30
0
41
1
10
57.9409405684004
20
-0.0258116316441033
30
0
41
1
10
57.9613844331279
20
-0.0442049589948112
30
0
41
1
10
57.9756111402673
20
-0.0565926499610327
30
0
41
1
10
57.9977610564722
20
-0.0753862744300022
30
0
41
1
10
58.0053053177579
20
-0.0817068863602515
30
0
41
1
10
58.0205576865899
20
-0.0943381685760016
30
0
41
1
10
58.0282119021394
20
-0.100604761689055
30
0
41
1
10
58.0512471029669
20
-0.119272231728644
30
0
41
1
10
58.0667000319405
20
-0.131542246644102
30
0
41
1
10
58.0899909278925
20
-0.149716168197926
30
0
41
1
10
58.0978170743725
20
-0.155768660494289
30
0
41
1
10
58.1132393205418
20
-0.167593910148071
30
0
41
1
10
58.1208359064458
20
-0.173367875604725
30
0
41
1
10
58.1357742350012
20
-0.18462437808958
30
0
41
1
10
58.1431162740832
20
-0.190107201159321
30
0
41
1
10
58.1575028690334
20
-0.200746452242413
30
0
41
1
10
58.1645611040861
20
-0.205911970199537
30
0
41
1
10
58.1779062722346
20
-0.21555999568946
30
0
41
1
10
58.1842456485271
20
-0.220081870349134
30
0
41
1
10
58.1961525111815
20
-0.228425232554031
30
0
41
1
10
58.2017379468028
20
-0.232257893514827
30
0
41
1
10
58.206710531886
20
-0.235562644101122
30
0
0
SPLINE
5
151
100
AcDbEntity
8
1
62
256
6
ByLayer
370
18
48
1
60
0
100
AcDbSpline
70
4
71
3
72
12
73
8
40
0
40
0
40
0
40
0
40
0.249999999999994
40
0.249999999999994
40
0.499999999999988
40
0.499999999999988
40
1
40
1
40
1
40
1
41
1
10
58.2067105318859
20
-0.235562644099559
30
0
41
1
10
58.2421286015515
20
-0.259101283365197
30
0
41
1
10
58.2773965715529
20
-0.284074681664635
30
0
41
1
10
58.3476795905814
20
-0.336826587025655
30
0
41
1
10
58.3827082140983
20
-0.364616390656096
30
0
41
1
10
58.4873786639021
20
-0.452040693686314
30
0
41
1
10
58.556592809408
20
-0.515716825902814
30
0
41
1
10
58.625228330176
20
-0.584450347427264
30
0
0
SPLINE
5
152
100
AcDbEntity
8
1
62
256
6
ByLayer
370
18
48
1
60
0
100
AcDbSpline
70
4
71
3
72
10
73
6
40
0
40
0
40
0
40
0
40
0.5
40
0.5
40
1
40
1
40
1
40
1
41
1
10
58.7607073604966
20
-0.718437831888735
30
0
41
1
10
58.8314568691335
20
-0.783662958455494
30
0
41
1
10
58.9026922495041
20
-0.843011621095712
30
0
41
1
10
59.0465154842008
20
-0.949615602661424
30
0
41
1
10
59.1188679859019
20
-0.996715172760929
30
0
41
1
10
59.191994355614
20
-1.03701015779393
30
0
0
SPLINE
5
153
100
AcDbEntity
8
1
62
256
6
ByLayer
370
18
48
1
60
0
100
AcDbSpline
70
4
71
3
72
30
73
26
40
0
40
0
40
0
40
0
40
0.124999999999966
40
0.124999999999966
40
0.249999999999931
40
0.249999999999931
40
0.374999999999897
40
0.374999999999897
40
0.43749999999988
40
0.43749999999988
40
0.499999999999864
40
0.499999999999864
40
0.624999999999899
40
0.624999999999899
40
0.687499999999915
40
0.687499999999915
40
0.749999999999932
40
0.749999999999932
40
0.812499999999949
40
0.812499999999949
40
0.874999999999966
40
0.874999999999966
40
0.937499999999983
40
0.937499999999983
40
1
40
1
40
1
40
1
41
1
10
59.191994355614
20
-1.03701015779396
30
0
41
1
10
59.2011675959599
20
-1.04206490868478
30
0
41
1
10
59.2118536494936
20
-1.04853804045254
30
0
41
1
10
59.2354991597087
20
-1.06355714104845
30
0
41
1
10
59.2486120259768
20
-1.07221654938189
30
0
41
1
10
59.275872483933
20
-1.09074831172893
30
0
41
1
10
59.2900985262589
20
-1.10066726589008
30
0
41
1
10
59.3122457820165
20
-1.1164963903764
30
0
41
1
10
59.3197878281445
20
-1.12195035947883
30
0
41
1
10
59.3350405835614
20
-1.13311974181212
30
0
41
1
10
59.342695103619
20
-1.1387936173102
30
0
41
1
10
59.3657314414961
20
-1.1560931766393
30
0
41
1
10
59.3811854574195
20
-1.16799149865963
30
0
41
1
10
59.4044775103885
20
-1.18651067736189
30
0
41
1
10
59.4123037966188
20
-1.19283310743305
30
0
41
1
10
59.4277371119224
20
-1.20553554928577
30
0
41
1
10
59.4353391903846
20
-1.21190996549942
30
0
41
1
10
59.4502881317462
20
-1.2247178401289
30
0
41
1
10
59.4576352822569
20
-1.23115121962087
30
0
41
1
10
59.4720313859748
20
-1.24409303080387
30
0
41
1
10
59.4790978674194
20
-1.25062102601319
30
0
41
1
10
59.4924593402457
20
-1.26337799502863
30
0
41
1
10
59.4988060627275
20
-1.26965181471596
30
0
41
1
10
59.5107257316994
20
-1.28195712669935
30
0
41
1
10
59.5163184751407
20
-1.28801453382809
30
0
41
1
10
59.5212980127395
20
-1.29375940846205
30
0
0
SPLINE
5
154
100
AcDbEntity
8
1
62
256
6
ByLayer
370
18
48
1
60
0
100
AcDbSpline
70
4
71
3
72
10
73
6
40
0
40
0
40
0
40
0
40
0.5
40
0.5
40
1
40
1
40
1
40
1
41
1
10
59.5212980127394
20
-1.2937594084608
30
0
41
1
10
59.5921544588255
20
-1.37550623569143
30
0
41
1
10
59.6624008157975
20
-1.46193725494217
30
0
41
1
10
59.8020510055932
20
-1.64371023462709
30
0
41
1
10
59.8712184959248
20
-1.73874172149675
30
0
41
1
10
59.9399058784772
20
-1.83772472729217
30
0
0
SPLINE
5
155
100
AcDbEntity
8
1
62
256
6
ByLayer
370
18
48
1
60
0
100
AcDbSpline
70
4
71
3
72
10
73
6
40
0
40
0
40
0
40
0
40
0.5
40
0.5
40
1
40
1
40
1
40
1
41
1
10
60.0747301838134
20
-1.95692246266279
30
0
41
1
10
60.1454793833911
20
-1.97730399766724
30
0
41
1
10
60.2167492933507
20
-1.99132197727576
30
0
41
1
10
60.3607228151951
20
-2.00640019100803
30
0
41
1
10
60.4331921130261
20
-2.00745867072641
30
0
41
1
10
60.5063801139166
20
-2.00183390551342
30
0
0
SPLINE
5
156
100
AcDbEntity
8
1
62
256
6
ByLayer
370
18
48
1
60
0
100
AcDbSpline
70
4
71
3
72
30
73
26
40
0
40
0
40
0
40
0
40
0.125000000000034
40
0.125000000000034
40
0.250000000000068
40
0.250000000000068
40
0.375000000000102
40
0.375000000000102
40
0.437500000000118
40
0.437500000000118
40
0.500000000000135
40
0.500000000000135
40
0.625000000000101
40
0.625000000000101
40
0.687500000000084
40
0.687500000000084
40
0.750000000000067
40
0.750000000000067
40
0.812500000000051
40
0.812500000000051
40
0.875000000000034
40
0.875000000000034
40
0.937500000000017
40
0.937500000000017
40
1
40
1
40
1
40
1
41
1
10
60.5063801139166
20
-2.00183390551339
30
0
41
1
10
60.5155784182566
20
-2.00112698222489
30
0
41
1
10
60.5262965009031
20
-2.00236380603249
30
0
41
1
10
60.5500085236906
20
-2.00769602763793
30
0
41
1
10
60.5631568043514
20
-2.01188005225276
30
0
41
1
10
60.5904727187465
20
-2.02248802626073
30
0
41
1
10
60.6047205725301
20
-2.02891689153549
30
0
41
1
10
60.6268889026476
20
-2.04016565108432
30
0
41
1
10
60.6344377680049
20
-2.04420022726072
30
0
41
1
10
60.6496902910251
20
-2.05276902838037
30
0
41
1
10
60.657343070663
20
-2.0572732518973
30
0
41
1
10
60.6803694570519
20
-2.07144913955787
30
0
41
1
10
60.695810620283
20
-2.08177244561779
30
0
41
1
10
60.7190770036479
20
-2.09876282712369
30
0
41
1
10
60.7268931961501
20
-2.10471512531231
30
0
41
1
10
60.7422950121715
20
-2.11699009087209
30
0
41
1
10
60.7498821239159
20
-2.1233101219716
30
0
41
1
10
60.76480326641
20
-2.13635260832649
30
0
41
1
10
60.772137647945
20
-2.14307455443614
30
0
41
1
10
60.7865106433272
20
-2.15698563009008
30
0
41
1
10
60.7935652750711
20
-2.16419843651627
30
0
41
1
10
60.8069077697436
20
-2.17873878636672
30
0
41
1
10
60.8132472730929
20
-2.18611264741944
30
0
41
1
10
60.8251567039197
20
-2.20110118283532
30
0
41
1
10
60.8307468726053
20
-2.20875299166948
30
0
41
1
10
60.835726452838
20
-2.21634094099136
30
0
0
SPLINE
5
157
100
AcDbEntity
8
1
62
256
6
ByLayer
370
18
48
1
60
0
100
AcDbSpline
70
4
71
3
72
10
73
6
40
0
40
0
40
0
40
0
40
0.5
40
0.5
40
1
40
1
40
1
40
1
41
1
10
60.835726452838
20
-2.21634094099036
30
0
41
1
10
60.9065809347404
20
-2.32430992487645
30
0
41
1
10
60.976821602265
20
-2.43539745672012
30
0
41
1
10
61.11645609209
20
-2.66345355670856
30
0
41
1
10
61.185613317497
20
-2.78004840371489
30
0
41
1
10
61.2542941404561
20
-2.89903314425314
30
0
0
SPLINE
5
158
100
AcDbEntity
8
1
62
256
6
ByLayer
370
18
48
1
60
0
100
AcDbSpline
70
4
71
3
72
10
73
6
40
0
40
0
40
0
40
0
40
0.5
40
0.5
40
1
40
1
40
1
40
1
41
1
10
61.3902434568422
20
-2.99277407299212
30
0
41
1
10
61.460890663311
20
-2.96663620936826
30
0
41
1
10
61.5320406079908
20
-2.93426873181113
30
0
41
1
10
61.6756844410511
20
-2.856848154651
30
0
41
1
10
61.7479302096549
20
-2.81190371954639
30
0
41
1
10
61.8208463082558
20
-2.76070256887959
30
0
0
SPLINE
5
159
100
AcDbEntity
8
1
62
256
6
ByLayer
370
18
48
1
60
0
100
AcDbSpline
70
4
71
3
72
30
73
26
40
0
40
0
40
0
40
0
40
0.125000000000034
40
0.125000000000034
40
0.250000000000068
40
0.250000000000068
40
0.375000000000102
40
0.375000000000102
40
0.437500000000119
40
0.437500000000119
40
0.500000000000136
40
0.500000000000136
40
0.625000000000102
40
0.625000000000102
40
0.687500000000085
40
0.687500000000085
40
0.750000000000068
40
0.750000000000068
40
0.812500000000051
40
0.812500000000051
40
0.875000000000034
40
0.875000000000034
40
0.937500000000017
40
0.937500000000017
40
1
40
1
40
1
40
1
41
1
10
61.8208463082558
20
-2.76070256887959
30
0
41
1
10
61.8300330550879
20
-2.75425170250426
30
0
41
1
10
61.840740492674
20
-2.75004139943971
30
0
41
1
10
61.8644365894921
20
-2.74493089968067
30
0
41
1
10
61.877579885592
20
-2.74408285379587
30
0
41
1
10
61.9048941577909
20
-2.74540568275316
30
0
41
1
10
61.9191442718297
20
-2.74753751688166
30
0
41
1
10
61.9413200623902
20
-2.75282032633021
30
0
41
1
10
61.9488721206877
20
-2.75494115431752
30
0
41
1
10
61.9641323930186
20
-2.75987511016845
30
0
41
1
10
61.9717893687654
20
-2.76266945084279
30
0
41
1
10
61.9948286466069
20
-2.77203257674938
30
0
41
1
10
62.0102786249843
20
-2.77956511393324
30
0
41
1
10
62.0335547208876
20
-2.79305614061016
30
0
41
1
10
62.0413735773231
20
-2.79795299624905
30
0
41
1
10
62.0567768520307
20
-2.80840501461657
30
0
41
1
10
62.0643634886208
20
-2.81395594810255
30
0
41
1
10
62.0792811054794
20
-2.82576625229393
30
0
41
1
10
62.086612353476
20
-2.83202484541229
30
0
41
1
10
62.1009774916029
20
-2.84535680372622
30
0
41
1
10
62.1080277027844
20
-2.85245697172076
30
0
41
1
10
62.1213619640696
20
-2.8671791408679
30
0
41
1
10
62.1276975223292
20
-2.87484359420654
30
0
41
1
10
62.1396004574688
20
-2.89087551953682
30
0
41
1
10
62.1451881465901
20
-2.89928704610557
30
0
41
1
10
62.1501661896754
20
-2.90789213119626
30
0
0
SPLINE
5
15A
100
AcDbEntity
8
1
62
256
6
ByLayer
370
18
48
1
60
0
100
AcDbSpline
70
4
71
3
72
10
73
6
40
0
40
0
40
0
40
0
40
0.5
40
0.5
40
1
40
1
40
1
40
1
41
1
10
62.1501661896752
20
-2.90789213119558
30
0
41
1
10
62.2142253135895
20
-3.01862524512751
30
0
41
1
10
62.2777941520535
20
-3.1304704278875
30
0
41
1
10
62.4041995576966
20
-3.35596835247441
30
0
41
1
10
62.4669436657815
20
-3.46948978104317
30
0
41
1
10
62.5292102801464
20
-3.58341724838854
30
0
0
SPLINE
5
15B
100
AcDbEntity
8
1
62
256
6
ByLayer
370
18
48
1
60
0
100
AcDbSpline
70
4
71
3
72
8
73
4
40
0
40
0
40
0
40
0
40
1
40
1
40
1
40
1
41
1
10
62.5292102801464
20
-3.58341724838854
30
0
41
1
10
62.6141234144645
20
-3.6028446049678
30
0
41
1
10
62.6996204541741
20
-3.61920009295781
30
0
41
1
10
62.785779694427
20
-3.63245912967534
30
0
0
SPLINE
5
15C
100
AcDbEntity
8
1
62
256
6
ByLayer
370
18
48
1
60
0
100
AcDbSpline
70
4
71
3
72
12
73
8
40
0
40
0
40
0
40
0
40
0.249999999999994
40
0.249999999999994
40
0.499999999999988
40
0.499999999999988
40
1
40
1
40
1
40
1
41
1
10
62.7857796944269
20
-3.6324591296754
30
0
41
1
10
62.8145090292479
20
-3.60250372147365
30
0
41
1
10
62.8433355902475
20
-3.57166236095577
30
0
41
1
10
62.9012118206642
20
-3.50820457315618
30
0
41
1
10
62.9302718723073
20
-3.47557568630595
30
0
41
1
10
63.0176768772975
20
-3.37519586821642
30
0
41
1
10
63.0762863409789
20
-3.30491233389915
30
0
41
1
10
63.1353523404806
20
-3.23127417762132
30
0
0
SPLINE
5
15D
100
AcDbEntity
8
1
62
256
6
ByLayer
370
18
48
1
60
0
100
AcDbSpline
70
4
71
3
72
32
73
28
40
0
40
0
40
0
40
0
40
0.124999999999941
40
0.124999999999941
40
0.187499999999911
40
0.187499999999911
40
0.249999999999881
40
0.249999999999881
40
0.374999999999821
40
0.374999999999821
40
0.437499999999792
40
0.437499999999792
40
0.499999999999762
40
0.499999999999762
40
0.624999999999771
40
0.624999999999771
40
0.687499999999809
40
0.687499999999809
40
0.749999999999847
40
0.749999999999847
40
0.812499999999885
40
0.812499999999885
40
0.874999999999924
40
0.874999999999924
40
0.937499999999962
40
0.937499999999962
40
1
40
1
40
1
40
1
41
1
10
63.1353523404803
20
-3.23127417762117
30
0
41
1
10
63.1445392493853
20
-3.21982076890259
30
0
41
1
10
63.1552477242292
20
-3.21068377236716
30
0
41
1
10
63.1730227024366
20
-3.19955033307221
30
0
41
1
10
63.1792403279503
20
-3.19627975388434
30
0
41
1
10
63.1922271806445
20
-3.19057053636541
30
0
41
1
10
63.1989264536649
20
-3.18816529673907
30
0
41
1
10
63.2194193581127
20
-3.18223379044082
30
0
41
1
10
63.2336733392219
20
-3.17994387646399
30
0
41
1
10
63.2558542649261
20
-3.17885449363865
30
0
41
1
10
63.2634087361934
20
-3.17888854714624
30
0
41
1
10
63.2786694950722
20
-3.17976728974159
30
0
41
1
10
63.286326392581
20
-3.18060624892078
30
0
41
1
10
63.3093646848495
20
-3.18431332428466
30
0
41
1
10
63.3248129723435
20
-3.18835192394883
30
0
41
1
10
63.348086866685
20
-3.19704614956618
30
0
41
1
10
63.3559048809783
20
-3.20041124870804
30
0
41
1
10
63.3712977686903
20
-3.20800902284861
30
0
41
1
10
63.3788791687452
20
-3.21223775406619
30
0
41
1
10
63.3937862246707
20
-3.22162825417109
30
0
41
1
10
63.4011121814295
20
-3.22678900584722
30
0
41
1
10
63.4154663113929
20
-3.23818062183878
30
0
41
1
10
63.4225078568031
20
-3.24443597254862
30
0
41
1
10
63.4358234828379
20
-3.2578102149042
30
0
41
1
10
63.4421495625912
20
-3.26496419781711
30
0
41
1
10
63.4540335966927
20
-3.28035384415077
30
0
41
1
10
63.4596112649218
20
-3.28863484253279
30
0
41
1
10
63.4645806587272
20
-3.29734133144436
30
0
0
SPLINE
5
15E
100
AcDbEntity
8
1
62
256
6
ByLayer
370
18
48
1
60
0
100
AcDbSpline
70
4
71
3
72
10
73
6
40
0
40
0
40
0
40
0
40
0.5
40
0.5
40
1
40
1
40
1
40
1
41
1
10
63.4645806587271
20
-3.29734133144407
30
0
41
1
10
63.4993792182438
20
-3.35830918475429
30
0
41
1
10
63.5340261818313
20
-3.41911298731279
30
0
41
1
10
63.6030630775423
20
-3.54037532414298
30
0
41
1
10
63.6374676988493
20
-3.60085966372654
30
0
41
1
10
63.6717255589423
20
-3.66109049919089
30
0
0
SPLINE
5
15F
100
AcDbEntity
8
1
62
256
6
ByLayer
370
18
48
1
60
0
100
AcDbSpline
70
4
71
3
72
12
73
8
40
0
40
0
40
0
40
0
40
0.25
40
0.25
40
0.5
40
0.5
40
1
40
1
40
1
40
1
41
1
10
63.6717255589423
20
-3.66109049919086
30
0
41
1
10
63.7267391021111
20
-3.65640953879472
30
0
41
1
10
63.7817847384607
20
-3.6505478805995
30
0
41
1
10
63.8921768656584
20
-3.63638359339637
30
0
41
1
10
63.9475880217208
20
-3.62805593266339
30
0
41
1
10
64.114417487963
20
-3.59943530056796
30
0
41
1
10
64.2263767215241
20
-3.57552249483646
30
0
41
1
10
64.3392770949385
20
-3.54686588188582
30
0
0
SPLINE
5
160
100
AcDbEntity
8
1
62
256
6
ByLayer
370
18
48
1
60
0
100
AcDbSpline
70
4
71
3
72
8
73
4
40
0
40
0
40
0
40
0
40
1
40
1
40
1
40
1
41
1
10
64.3392770949385
20
-3.54686588188582
30
0
41
1
10
64.3759419398466
20
-3.48733395483157
30
0
41
1
10
64.4127653654699
20
-3.42689867435695
30
0
41
1
10
64.4497768276544
20
-3.36556618752584
30
0
0
SPLINE
5
161
100
AcDbEntity
8
1
62
256
6
ByLayer
370
18
48
1
60
0
100
AcDbSpline
70
4
71
3
72
32
73
28
40
0
40
0
40
0
40
0
40
0.124999999999958
40
0.124999999999958
40
0.187499999999911
40
0.187499999999911
40
0.249999999999864
40
0.249999999999864
40
0.374999999999832
40
0.374999999999832
40
0.437499999999849
40
0.437499999999849
40
0.499999999999866
40
0.499999999999866
40
0.6249999999999
40
0.6249999999999
40
0.687499999999916
40
0.687499999999916
40
0.749999999999933
40
0.749999999999933
40
0.81249999999995
40
0.81249999999995
40
0.874999999999966
40
0.874999999999966
40
0.937499999999983
40
0.937499999999983
40
1
40
1
40
1
40
1
41
1
10
64.4497768276544
20
-3.36556618752584
30
0
41
1
10
64.4589710526284
20
-3.35033024036645
30
0
41
1
10
64.4696891558617
20
-3.33724802237356
30
0
41
1
10
64.4874810565709
20
-3.32002074922897
30
0
41
1
10
64.4937047630921
20
-3.31468861091796
30
0
41
1
10
64.5067046893665
20
-3.3047988312409
30
0
41
1
10
64.5134118541037
20
-3.30029677793007
30
0
41
1
10
64.5339256839135
20
-3.28811023852245
30
0
41
1
10
64.5481926225672
20
-3.28167255983948
30
0
41
1
10
64.5703911126732
20
-3.27437988170334
30
0
41
1
10
64.5779520651175
20
-3.27234213168723
30
0
41
1
10
64.5932197002825
20
-3.26911404432246
30
0
41
1
10
64.6008794777186
20
-3.26793028276202
30
0
41
1
10
64.6239246450783
20
-3.26565545707121
30
0
41
1
10
64.6393751476552
20
-3.26581989537232
30
0
41
1
10
64.6626483064161
20
-3.26887203462803
30
0
41
1
10
64.6704647704155
20
-3.27037508058638
30
0
41
1
10
64.6858451136655
20
-3.27437000064873
30
0
41
1
10
64.693419811621
20
-3.27685684611248
30
0
41
1
10
64.7083126215803
20
-3.28288939934396
30
0
41
1
10
64.7156310291361
20
-3.2864339655527
30
0
41
1
10
64.7299692160847
20
-3.29473478489686
30
0
41
1
10
64.7370003837528
20
-3.29951216283999
30
0
41
1
10
64.7502954903204
20
-3.31017933407583
30
0
41
1
10
64.7566115448755
20
-3.31609292927365
30
0
41
1
10
64.7684764597611
20
-3.32926340858171
30
0
41
1
10
64.7740450719387
20
-3.3365629986391
30
0
41
1
10
64.7790073700402
20
-3.34447338724746
30
0
0
SPLINE
5
162
100
AcDbEntity
8
1
62
256
6
ByLayer
370
18
48
1
60
0
100
AcDbSpline
70
4
71
3
72
8
73
4
40
0
40
0
40
0
40
0
40
1
40
1
40
1
40
1
41
1
10
64.7790073700402
20
-3.34447338724763
30
0
41
1
10
64.7908017384572
20
-3.36327476428272
30
0
41
1
10
64.8025788607464
20
-3.38200333169036
30
0
41
1
10
64.8143396499254
20
-3.40065914044902
30
0
0
SPLINE
5
163
100
AcDbEntity
8
1
62
256
6
ByLayer
370
18
48
1
60
0
100
AcDbSpline
70
4
71
3
72
12
73
8
40
0
40
0
40
0
40
0
40
0.5
40
0.5
40
0.75
40
0.75
40
1
40
1
40
1
40
1
41
1
10
64.8143396499254
20
-3.40065914044899
30
0
41
1
10
64.9605598748113
20
-3.34806006356229
30
0
41
1
10
65.1070926215173
20
-3.28863454426571
30
0
41
1
10
65.3277494243941
20
-3.18984065012967
30
0
41
1
10
65.4014207259972
20
-3.15528668357584
30
0
41
1
10
65.5498682529524
20
-3.08308745509231
30
0
41
1
10
65.624641218441
20
-3.04545023876739
30
0
41
1
10
65.6999999186302
20
-3.00634973989443
30
0
0
SPLINE
5
164
100
AcDbEntity
8
1
62
256
6
ByLayer
370
18
48
1
60
0
100
AcDbSpline
70
4
71
3
72
10
73
6
40
0
40
0
40
0
40
0
40
0.5
40
0.5
40
1
40
1
40
1
40
1
41
1
10
65.6999999186302
20
-3.00634973989446
30
0
41
1
10
65.748153934879
20
-2.94660994602427
30
0
41
1
10
65.7971653082069
20
-2.88625585903128
30
0
41
1
10
65.897173799125
20
-2.76476337459081
30
0
41
1
10
65.9481038947097
20
-2.70371334057339
30
0
41
1
10
66.0000000000002
20
-2.6427552581969
30
0
0
SPLINE
5
165
100
AcDbEntity
8
1
62
256
6
ByLayer
370
18
48
1
60
0
100
AcDbSpline
70
4
71
3
72
33
73
29
40
0
40
0
40
0
40
0
40
0.0312500000000005
40
0.0312500000000005
40
0.062500000000001
40
0.062500000000001
40
0.125000000000001
40
0.125000000000001
40
0.250000000000002
40
0.250000000000002
40
0.312500000000002
40
0.312500000000002
40
0.343750000000002
40
0.343750000000002
40
0.375000000000002
40
0.375000000000002
40
0.406250000000002
40
0.406250000000002
40
0.437500000000002
40
0.500000000000002
40
0.500000000000002
40
0.750000000000001
40
0.750000000000001
40
0.875000000000001
40
0.875000000000001
40
0.9375
40
0.9375
40
1
40
1
40
1
40
1
41
1
10
66.0000000000001
20
-2.64275525819642
30
0
41
1
10
66.0000000000001
20
-2.62426251116028
30
0
41
1
10
66
20
-2.60589704922697
30
0
41
1
10
65.9999999999999
20
-2.56942602821826
30
0
41
1
10
66
20
-2.5514107819329
30
0
41
1
10
66
20
-2.49821410239741
30
0
41
1
10
66
20
-2.46380065352892
30
0
41
1
10
66
20
-2.36361490242797
30
0
41
1
10
66.0000000000001
20
-2.3008456230684
30
0
41
1
10
66.0000000000001
20
-2.21274733545835
30
0
41
1
10
66.0000000000001
20
-2.18439740397326
30
0
41
1
10
66.0000000000001
20
-2.14342185957946
30
0
41
1
10
66
20
-2.13002217581297
30
0
41
1
10
66
20
-2.10374964716954
30
0
41
1
10
66
20
-2.09085603950544
30
0
41
1
10
66
20
-2.06581789231828
30
0
41
1
10
66
20
-2.05365252146478
30
0
41
1
10
66
20
-2.02949447604266
30
0
41
1
10
66
20
-1.99367077943833
30
0
41
1
10
66
20
-1.95911388590639
30
0
41
1
10
66.0000000000001
20
-1.84679167251227
30
0
41
1
10
65.9999999999999
20
-1.76601629608305
30
0
41
1
10
65.9999999999999
20
-1.65825064365291
30
0
41
1
10
66
20
-1.62457227646203
30
0
41
1
10
66
20
-1.57749355239616
30
0
41
1
10
65.9999999999999
20
-1.56237323129218
30
0
41
1
10
65.9999999999999
20
-1.53328464568702
30
0
41
1
10
66
20
-1.51930016436319
30
0
41
1
10
66
20
-1.50597529682327
30
0
0
SPLINE
5
166
100
AcDbEntity
8
1
62
256
6
ByLayer
370
18
48
1
60
0
100
AcDbSpline
70
4
71
3
72
24
73
20
40
0
40
0
40
0
40
0
40
0.0294794749336318
40
0.0294794749336318
40
0.138253334107071
40
0.138253334107071
40
0.247027193280511
40
0.247027193280511
40
0.464574911627386
40
0.464574911627386
40
0.573348770800822
40
0.573348770800822
40
0.68212262997426
40
0.68212262997426
40
0.790896489147699
40
0.790896489147699
40
0.899670348321136
40
0.899670348321136
40
1
40
1
40
1
40
1
41
1
10
39.490101481186
20
-1.15005581589395
30
0
41
1
10
39.4737626832779
20
-1.15819307782061
30
0
41
1
10
39.4575431443162
20
-1.16677989991871
30
0
41
1
10
39.3822310402188
20
-1.20908103326499
30
0
41
1
10
39.3246114483367
20
-1.24841274767445
30
0
41
1
10
39.2126733287468
20
-1.33930033357959
30
0
41
1
10
39.157921239299
20
-1.39136395140972
30
0
41
1
10
39.0023259539604
20
-1.56287950418223
30
0
41
1
10
38.9106573513685
20
-1.69635289153123
30
0
41
1
10
38.7892050478974
20
-1.92021928190675
30
0
41
1
10
38.752129377344
20
-1.99739190269696
30
0
41
1
10
38.68386100699
20
-2.1561393057803
30
0
41
1
10
38.6528932791528
20
-2.23788243208824
30
0
41
1
10
38.6025225477479
20
-2.41002243909273
30
0
41
1
10
38.58246217392
20
-2.49983766815581
30
0
41
1
10
38.5527348162776
20
-2.6784939602382
30
0
41
1
10
38.5427853840567
20
-2.76836110648739
30
0
41
1
10
38.5319926350398
20
-2.94203298909656
30
0
41
1
10
38.5305326160284
20
-3.02617098164296
30
0
41
1
10
38.5325534642178
20
-3.10939006381082
30
0
0
SPLINE
5
167
100
AcDbEntity
8
1
62
256
6
ByLayer
370
18
48
1
60
0
100
AcDbSpline
70
4
71
3
72
8
73
4
40
0
40
0
40
0
40
0
40
1
40
1
40
1
40
1
41
1
10
57.1721217819076
20
4.06294404809006
30
0
41
1
10
57.1690487682466
20
4.06591759882065
30
0
41
1
10
57.16597729355
20
4.06741291289472
30
0
41
1
10
57.1629003103009
20
4.0674222089782
30
0
0
SPLINE
5
168
100
AcDbEntity
8
1
62
256
6
ByLayer
370
18
48
1
60
0
100
AcDbSpline
70
4
71
3
72
10
73
6
40
0
40
0
40
0
40
0
40
0.369775557394494
40
0.369775557394494
40
1
40
1
40
1
40
1
41
1
10
55.2876608608374
20
-4.06742204642859
30
0
41
1
10
55.283722051978
20
-4.06742648941605
30
0
41
1
10
55.2797911027144
20
-4.06497118033971
30
0
41
1
10
55.2691434620465
20
-4.05166827058227
30
0
41
1
10
55.2624145067419
20
-4.0361291141657
30
0
41
1
10
55.2555838398371
20
-4.01318213959772
30
0
0
SPLINE
5
169
100
AcDbEntity
8
1
62
256
6
ByLayer
370
18
48
1
60
0
100
AcDbSpline
70
4
71
3
72
14
73
10
40
0
40
0
40
0
40
0
40
0.524622557356273
40
0.524622557356273
40
0.786933836034411
40
0.786933836034411
40
0.91808947537348
40
0.91808947537348
40
1
40
1
40
1
40
1
41
1
10
55.1201430958666
20
-3.98892223690825
30
0
41
1
10
55.1268703084528
20
-4.01612329447406
30
0
41
1
10
55.1336013687424
20
-4.03633653937675
30
0
41
1
10
55.1437772122679
20
-4.05602095326313
30
0
41
1
10
55.1471816427317
20
-4.06080640838317
30
0
41
1
10
55.1523148993655
20
-4.06526850694067
30
0
41
1
10
55.154032906273
20
-4.06630345678624
30
0
41
1
10
55.1568211618777
20
-4.06723686281839
30
0
41
1
10
55.1578921058663
20
-4.06741667088886
30
0
41
1
10
55.1589622443207
20
-4.0674187435896
30
0
0
SPLINE
5
16A
100
AcDbEntity
8
1
62
256
6
ByLayer
370
18
48
1
60
0
100
AcDbSpline
70
4
71
3
72
17
73
13
40
0
40
0
40
0
40
0
40
0.0847088582650267
40
0.0847088582650267
40
0.389805905510015
40
0.389805905510015
40
0.466080167321263
40
0.466080167321263
40
0.542354429132511
40
0.694902952755008
40
0.694902952755008
40
1
40
1
40
1
40
1
41
1
10
58.2843291256567
20
4.0674210016866
30
0
41
1
10
58.2862388670414
20
4.06742470798358
30
0
41
1
10
58.2881493984753
20
4.06687638506114
30
0
41
1
10
58.2969447344853
20
4.06181239443245
30
0
41
1
10
58.303805997717
20
4.05068761988485
30
0
41
1
10
58.3123609833376
20
4.02753112293257
30
0
41
1
10
58.3140732175206
20
4.02242996854727
30
0
41
1
10
58.3174811289853
20
4.01135585066621
30
0
41
1
10
58.3225750350533
20
3.9934212404111
30
0
41
1
10
58.3276345775076
20
3.97156326284073
30
0
41
1
10
58.3377849816654
20
3.92270027082401
30
0
41
1
10
58.3446161086046
20
3.8832759982983
30
0
41
1
10
58.3514719263313
20
3.83705710831774
30
0
0
SPLINE
5
16B
100
AcDbEntity
8
1
62
256
6
ByLayer
370
18
48
1
60
0
100
AcDbSpline
70
4
71
3
72
20
73
16
40
0
40
0
40
0
40
0
40
0.0694324419826853
40
0.0694324419826853
40
0.138864883965371
40
0.138864883965371
40
0.277729767930741
40
0.277729767930741
40
0.555459535861483
40
0.555459535861483
40
0.833189303792225
40
0.833189303792225
40
0.972054187757596
40
0.972054187757596
40
1
40
1
40
1
40
1
41
1
10
58.486279307032
20
3.79002681345764
30
0
41
1
10
58.4845494148183
20
3.80276459570592
30
0
41
1
10
58.4828231562195
20
3.81510149534634
30
0
41
1
10
58.4793768348142
20
3.83896421578763
30
0
41
1
10
58.4776564923536
20
3.85049040905983
30
0
41
1
10
58.4725320637702
20
3.88364911540543
30
0
41
1
10
58.469154807369
20
3.90393490199185
30
0
41
1
10
58.45909906234
20
3.95943744587711
30
0
41
1
10
58.4525024795667
20
3.98931311752517
30
0
41
1
10
58.4391449224783
20
4.03502215278752
30
0
41
1
10
58.4323912186721
20
4.05085592232393
30
0
41
1
10
58.4221349044842
20
4.06390059245132
30
0
41
1
10
58.4186955137527
20
4.06646100101389
30
0
41
1
10
58.4145391788068
20
4.06734483472763
30
0
41
1
10
58.4138417787353
20
4.06741869391078
30
0
41
1
10
58.4131440362549
20
4.0674184125329
30
0
0
SPLINE
5
16C
100
AcDbEntity
8
1
62
256
6
ByLayer
370
18
48
1
60
0
100
AcDbSpline
70
4
71
3
72
21
73
17
40
0
40
0
40
0
40
0
40
0.0988362665675922
40
0.0988362665675922
40
0.197672533135184
40
0.197672533135184
40
0.395345066270368
40
0.593017599405551
40
0.593017599405551
40
0.691853865973143
40
0.691853865973143
40
0.790690132540735
40
0.790690132540735
40
0.988362665675919
40
0.988362665675919
40
1
40
1
40
1
40
1
41
1
10
53.8056525474348
20
-3.5270047160364
30
0
41
1
10
53.8090542466215
20
-3.56198417037575
30
0
41
1
10
53.8124722697755
20
-3.59557827008612
30
0
41
1
10
53.8192655723762
20
-3.65911503114515
30
0
41
1
10
53.8226487536426
20
-3.68914537691867
30
0
41
1
10
53.8327805211488
20
-3.77411537688093
30
0
41
1
10
53.8462425790165
20
-3.87377872049635
30
0
41
1
10
53.859839321327
20
-3.94650932378275
30
0
41
1
10
53.8701586475322
20
-3.99075848351311
30
0
41
1
10
53.873618538569
20
-4.00378839291193
30
0
41
1
10
53.8805875022776
20
-4.02633238492081
30
0
41
1
10
53.8840713879505
20
-4.03576195712819
30
0
41
1
10
53.8945035960153
20
-4.05856822999795
30
0
41
1
10
53.9014519223172
20
-4.06651180827862
30
0
41
1
10
53.9087243677698
20
-4.06739469070803
30
0
41
1
10
53.9091284106412
20
-4.06741913391227
30
0
41
1
10
53.9095321708087
20
-4.06741891757841
30
0
0
SPLINE
5
16D
100
AcDbEntity
8
1
62
256
6
ByLayer
370
13
48
1
60
0
100
AcDbSpline
70
4
71
3
72
9
73
5
40
0
40
0
40
0
40
0
40
0.57778875877384
40
1
40
1
40
1
40
1
41
1
10
59.2313838665859
20
2.94330076993066
30
0
41
1
10
59.2081007937039
20
3.13392600481714
30
0
41
1
10
59.1686711519181
20
3.35275104766609
30
0
41
1
10
59.1314651675033
20
3.37850130239534
30
0
41
1
10
59.1161215678072
20
3.35987085804143
30
0
0
SPLINE
5
16E
100
AcDbEntity
8
1
62
256
6
ByLayer
370
18
48
1
60
0
100
AcDbSpline
70
4
71
3
72
8
73
4
40
0
40
0
40
0
40
0
40
1
40
1
40
1
40
1
41
1
10
59.1161219570174
20
3.35987133062028
30
0
41
1
10
59.114126794235
20
3.35744883788343
30
0
41
1
10
59.1121378061438
20
3.35452750533685
30
0
41
1
10
59.1101549241263
20
3.35111814029551
30
0
0
SPLINE
5
16F
100
AcDbEntity
8
1
62
256
6
ByLayer
370
18
48
1
60
0
100
AcDbSpline
70
4
71
3
72
28
73
24
40
0
40
0
40
0
40
0
40
0.0667465713608204
40
0.0667465713608204
40
0.222288809467352
40
0.222288809467352
40
0.377831047573883
40
0.377831047573883
40
0.416716607100515
40
0.416716607100515
40
0.455602166627147
40
0.455602166627147
40
0.533373285680412
40
0.533373285680412
40
0.68891552378694
40
0.68891552378694
40
0.844457761893469
40
0.844457761893469
40
0.922228880946734
40
0.922228880946734
40
0.961114440473367
40
0.961114440473367
40
1
40
1
40
1
40
1
41
1
10
59.5339739758715
20
4.06742243308432
30
0
41
1
10
59.5369112825271
20
4.06742614136874
30
0
41
1
10
59.5398470713507
20
4.06609846381562
30
0
41
1
10
59.5496365158332
20
4.05731227414526
30
0
41
1
10
59.5565075064964
20
4.04404587661847
30
0
41
1
10
59.5703800990815
20
4.00333844756486
30
0
41
1
10
59.5773880354287
20
3.975898586433
30
0
41
1
10
59.5861132044424
20
3.93249223016275
30
0
41
1
10
59.5878569317455
20
3.92335445487427
30
0
41
1
10
59.5913407470781
20
3.90415480474434
30
0
41
1
10
59.5930757544219
20
3.89412023853433
30
0
41
1
10
59.5982486938397
20
3.86279129851496
30
0
41
1
10
59.6016590918427
20
3.84024575844282
30
0
41
1
10
59.6117906384803
20
3.76772169276643
30
0
41
1
10
59.6184080334431
20
3.71286819523272
30
0
41
1
10
59.6315650343866
20
3.59032294709019
30
0
41
1
10
59.6381055195812
20
3.52263131760398
30
0
41
1
10
59.6480986321521
20
3.41129008901964
30
0
41
1
10
59.6514609465036
20
3.37253924215298
30
0
41
1
10
59.6565887053957
20
3.31190524324162
30
0
41
1
10
59.6583096761488
20
3.29130331632834
30
0
41
1
10
59.6617666465178
20
3.24949791646981
30
0
41
1
10
59.6635050409287
20
3.22826951324538
30
0
41
1
10
59.6652554811356
20
3.20671892725451
30
0
0
SPLINE
5
170
100
AcDbEntity
8
1
62
256
6
ByLayer
370
13
48
1
60
0
100
AcDbSpline
70
4
71
3
72
9
73
5
40
0
40
0
40
0
40
0
40
0.675935786728596
40
1
40
1
40
1
40
1
41
1.04
10
60.2167433796717
20
2.46099746692769
30
0
41
1.04
10
60.1888488952206
20
2.78360675560122
30
0
41
1.04
10
60.1479950747003
20
3.14875964606927
30
0
41
1.04
10
60.1077893429901
20
3.30481075337358
30
0
41
1.04
10
60.0948935829216
20
3.334578322992
30
0
0
SPLINE
5
171
100
AcDbEntity
8
1
62
256
6
ByLayer
370
18
48
1
60
0
100
AcDbSpline
70
4
71
3
72
8
73
4
40
0
40
0
40
0
40
0
40
1
40
1
40
1
40
1
41
1.04
10
60.0948936326106
20
3.33457820829373
30
0
41
1.04
10
60.0919710219123
20
3.34132454746505
30
0
41
1.04
10
60.0890552670415
20
3.34700238736507
30
0
41
1.04
10
60.086147129497
20
3.35162518862328
30
0
0
SPLINE
5
172
100
AcDbEntity
8
1
62
256
6
ByLayer
370
18
48
1
60
0
100
AcDbSpline
70
4
71
3
72
27
73
23
40
0
40
0
40
0
40
0
40
0.148277393803666
40
0.148277393803666
40
0.296554787607332
40
0.296554787607332
40
0.333624136058249
40
0.333624136058249
40
0.370693484509165
40
0.444832181410998
40
0.444832181410998
40
0.593109575214664
40
0.593109575214664
40
0.74138696901833
40
0.74138696901833
40
0.778456317469247
40
0.778456317469247
40
0.815525665920164
40
0.815525665920164
40
0.889664362821998
40
0.889664362821998
40
1
40
1
40
1
40
1
41
1
10
59.8011238393848
20
3.12096402272448
30
0
41
1
10
59.7943316016171
20
3.21043936532379
30
0
41
1
10
59.7876035307693
20
3.29416262569072
30
0
41
1
10
59.774199869235
20
3.45011985009225
30
0
41
1
10
59.7675250847478
20
3.52235465640283
30
0
41
1
10
59.7591031981329
20
3.6052436979964
30
0
41
1
10
59.7574122383109
20
3.6214722170194
30
0
41
1
10
59.7540303139874
20
3.65306187731844
30
0
41
1
10
59.7489611648988
20
3.6991132665265
30
0
41
1
10
59.7438844116604
20
3.74121465122178
30
0
41
1
10
59.7336632162925
20
3.82023991779587
30
0
41
1
10
59.7267129677279
20
3.86603277174825
30
0
41
1
10
59.7125820870649
20
3.94398164029448
30
0
41
1
10
59.7054414381368
20
3.97613876496931
30
0
41
1
10
59.6965551335318
20
4.00762903853334
30
0
41
1
10
59.694779506449
20
4.01349066734556
30
0
41
1
10
59.691233418062
20
4.02433185225351
30
0
41
1
10
59.6894609772854
20
4.02931638134552
30
0
41
1
10
59.6841671971571
20
4.04289500185558
30
0
41
1
10
59.6806824201592
20
4.05008708017783
30
0
41
1
10
59.6721200288265
20
4.0634522521801
30
0
41
1
10
59.667098968288
20
4.06742131184586
30
0
41
1
10
59.6621456030661
20
4.06742083986265
30
0
0
SPLINE
5
173
100
AcDbEntity
8
1
62
256
6
ByLayer
370
18
48
1
60
0
100
AcDbSpline
70
4
71
3
72
26
73
22
40
0
40
0
40
0
40
0
40
0.0282323128941817
40
0.167056268195015
40
0.167056268195015
40
0.201762257020223
40
0.201762257020223
40
0.236468245845431
40
0.236468245845431
40
0.305880223495847
40
0.305880223495847
40
0.444704178796677
40
0.583528134097508
40
0.583528134097508
40
0.652940111747923
40
0.652940111747923
40
0.722352089398338
40
0.722352089398338
40
0.861176044699169
40
0.861176044699169
40
1
40
1
40
1
40
1
41
1
10
61.5384359315991
20
-4.06742010400595
30
0
41
1
10
61.5370534437805
20
-4.06741826631819
30
0
41
1
10
61.5288606506002
20
-4.06565350786425
30
0
41
1
10
61.5205751011808
20
-4.05353292427276
30
0
41
1
10
61.5118112635083
20
-4.03181117719589
30
0
41
1
10
61.5100506750118
20
-4.02700909916274
30
0
41
1
10
61.5065121178993
20
-4.01647991159842
30
0
41
1
10
61.5047318335375
20
-4.01074615461332
30
0
41
1
10
61.4993826789149
20
-3.99218574964453
30
0
41
1
10
61.4958207748367
20
-3.97805450520693
30
0
41
1
10
61.4851916127704
20
-3.93050071665752
30
0
41
1
10
61.4711824064067
20
-3.85336278233316
30
0
41
1
10
61.4576509075763
20
-3.74926684650734
30
0
41
1
10
61.4476042404014
20
-3.66095392011374
30
0
41
1
10
61.4442710065215
20
-3.62980614455171
30
0
41
1
10
61.4376065523205
20
-3.56402671807385
30
0
41
1
10
61.4342692296586
20
-3.52932044762193
30
0
41
1
10
61.4243129673702
20
-3.42112440804348
30
0
41
1
10
61.4177192023757
20
-3.34325917157901
30
0
41
1
10
61.404199938253
20
-3.17638618140043
30
0
41
1
10
61.3972407185335
20
-3.08737919853073
30
0
41
1
10
61.3902434568342
20
-2.99277407300329
30
0
0
SPLINE
5
174
100
AcDbEntity
8
1
62
256
6
ByLayer
370
18
48
1
60
0
100
AcDbSpline
70
4
71
3
72
29
73
25
40
0
40
0
40
0
40
0
40
0.0663800695576924
40
0.0663800695576924
40
0.0995701043365387
40
0.0995701043365387
40
0.132760139115385
40
0.132760139115385
40
0.265520278230771
40
0.398280417346157
40
0.398280417346157
40
0.531040556461544
40
0.531040556461544
40
0.66380069557693
40
0.66380069557693
40
0.796560834692316
40
0.796560834692316
40
0.929320973807702
40
0.929320973807702
40
0.962511008586548
40
0.962511008586548
40
0.995701043365395
40
0.995701043365395
40
1
40
1
40
1
40
1
41
1
10
61.2542941404562
20
-2.89903314425311
30
0
41
1
10
61.2576601497361
20
-2.9480592483329
30
0
41
1
10
61.2610488656003
20
-2.995920265145
30
0
41
1
10
61.2661721037949
20
-3.06593124231844
30
0
41
1
10
61.2678878436953
20
-3.08898865278093
30
0
41
1
10
61.2713278171951
20
-3.13442662696085
30
0
41
1
10
61.273047293615
20
-3.1567449852198
30
0
41
1
10
61.2816435923499
20
-3.26635753893868
30
0
41
1
10
61.2953919774468
20
-3.42910300012983
30
0
41
1
10
61.3091767388946
20
-3.56726354241192
30
0
41
1
10
61.3229984805312
20
-3.69307571437673
30
0
41
1
10
61.3299278011175
20
-3.74981051723236
30
0
41
1
10
61.3438569308769
20
-3.85047076843765
30
0
41
1
10
61.3507340924266
20
-3.8935099986443
30
0
41
1
10
61.3643730030212
20
-3.96552686627643
30
0
41
1
10
61.37113459749
20
-3.99450294771995
30
0
41
1
10
61.3846192869095
20
-4.03844940671198
30
0
41
1
10
61.3913424008676
20
-4.05342063704336
30
0
41
1
10
61.3997832625673
20
-4.0631372482386
30
0
41
1
10
61.4014733557187
20
-4.06462954378472
30
0
41
1
10
61.4048596925293
20
-4.06670116672242
30
0
41
1
10
61.4065511609521
20
-4.06727685279409
30
0
41
1
10
61.4084569110772
20
-4.06741094581614
30
0
41
1
10
61.4086753970758
20
-4.0674186735705
30
0
41
1
10
61.4088938356255
20
-4.06741876143815
30
0
0
SPLINE
5
175
100
AcDbEntity
8
1
62
256
6
ByLayer
370
18
48
1
60
0
100
AcDbSpline
70
4
71
3
72
25
73
21
40
0
40
0
40
0
40
0
40
0.0624999999999999
40
0.0624999999999999
40
0.125
40
0.125
40
0.25
40
0.375
40
0.5
40
0.5
40
0.562500000000001
40
0.562500000000001
40
0.593750000000002
40
0.593750000000002
40
0.625000000000002
40
0.625000000000002
40
0.750000000000001
40
0.875000000000001
40
0.875000000000001
40
1
40
1
40
1
40
1
41
1
10
52.6957567248802
20
1.88993806107547
30
0
41
1
10
52.693485470198
20
1.93436213351248
30
0
41
1
10
52.6912085608286
20
1.97817251025705
30
0
41
1
10
52.6866353242075
20
2.06454540826712
30
0
41
1
10
52.6843364665879
20
2.10715374522928
30
0
41
1
10
52.6774141213437
20
2.23277037238603
30
0
41
1
10
52.6682204199614
20
2.39248086825265
30
0
41
1
10
52.6543599736585
20
2.60940182152737
30
0
41
1
10
52.6449843753257
20
2.7389929041822
30
0
41
1
10
52.6378835915565
20
2.83044072723266
30
0
41
1
10
52.6355051078014
20
2.85996416248491
30
0
41
1
10
52.631920858946
20
2.902783170004
30
0
41
1
10
52.6307226147013
20
2.91682473710864
30
0
41
1
10
52.6283364813303
20
2.94427740426434
30
0
41
1
10
52.6271473411362
20
2.95770394557041
30
0
41
1
10
52.6212258591373
20
3.02335567272965
30
0
41
1
10
52.6119231805812
20
3.11895001085662
30
0
41
1
10
52.6029171169897
20
3.19607413469717
30
0
41
1
10
52.5938224326675
20
3.2638156870058
30
0
41
1
10
52.5892095661162
20
3.29298441880937
30
0
41
1
10
52.5845235337235
20
3.31731293126811
30
0
0
SPLINE
5
176
100
AcDbEntity
8
1
62
256
6
ByLayer
370
13
48
1
60
0
100
AcDbSpline
70
4
71
3
72
10
73
6
40
0
40
0
40
0
40
0
40
0.574486184854479
40
0.900893520458192
40
1
40
1
40
1
40
1
41
1.04
10
52.7675815948232
20
1.80107072412503
30
0
41
1.04
10
52.7401805877203
20
2.19317719085199
30
0
41
1.04
10
52.6966103826124
20
2.7348055759521
30
0
41
1.04
10
52.6458303604351
20
3.1236870983011
30
0
41
1.04
10
52.6245857766844
20
3.2306250527526
30
0
41
1.04
10
52.6196556758242
20
3.25240332115745
30
0
0
SPLINE
5
177
100
AcDbEntity
8
1
62
256
6
ByLayer
370
18
48
1
60
0
100
AcDbSpline
70
4
71
3
72
60
73
56
40
0
40
0
40
0
40
0
40
0.114060832328206
40
0.114060832328206
40
0.228121664656413
40
0.228121664656413
40
0.285152080820519
40
0.285152080820519
40
0.313667288902573
40
0.313667288902573
40
0.342182496984626
40
0.342182496984626
40
0.399212913148741
40
0.399212913148741
40
0.456243329312855
40
0.456243329312855
40
0.484758537394913
40
0.484758537394913
40
0.51327374547697
40
0.51327374547697
40
0.527531349518003
40
0.527531349518003
40
0.541788953559035
40
0.541788953559035
40
0.570304161641101
40
0.570304161641101
40
0.627334577805232
40
0.627334577805232
40
0.684364993969363
40
0.684364993969363
40
0.741395410133494
40
0.741395410133494
40
0.769910618215557
40
0.769910618215557
40
0.79842582629762
40
0.79842582629762
40
0.826941034379684
40
0.826941034379684
40
0.841198638420718
40
0.841198638420718
40
0.855456242461751
40
0.855456242461751
40
0.883971450543822
40
0.883971450543822
40
0.912486658625893
40
0.912486658625893
40
0.941001866707964
40
0.941001866707964
40
0.955259470749001
40
0.955259470749001
40
0.969517074790039
40
0.969517074790039
40
0.998032282872113
40
0.998032282872113
40
1
40
1
40
1
40
1
41
1
10
40.826293536814
20
3.08720728644616
30
0
41
1
10
40.6821821494847
20
3.10262972246218
30
0
41
1
10
40.5349718843957
20
3.11076009443801
30
0
41
1
10
40.2310567460317
20
3.11545993582433
30
0
41
1
10
40.0743023700832
20
3.11204206691502
30
0
41
1
10
39.8298551464347
20
3.10139689027841
30
0
41
1
10
39.7468100198208
20
3.09693540525424
30
0
41
1
10
39.6194913475941
20
3.08935859953848
30
0
41
1
10
39.5766815887379
20
3.08669217017837
30
0
41
1
10
39.4907016036355
20
3.08119922975626
30
0
41
1
10
39.4474724996328
20
3.07836850095916
30
0
41
1
10
39.3170445326082
20
3.06975832889731
30
0
41
1
10
39.2291082952182
20
3.06386044959496
30
0
41
1
10
39.0510748456298
20
3.05246456275972
30
0
41
1
10
38.9609797282132
20
3.04696493923751
30
0
41
1
10
38.8239772021886
20
3.03957464673678
30
0
41
1
10
38.7780098878758
20
3.0372468764549
30
0
41
1
10
38.6853384405146
20
3.03301806854381
30
0
41
1
10
38.6386249220817
20
3.03112471211179
30
0
41
1
10
38.5680599406839
20
3.02860448402561
30
0
41
1
10
38.5444294006837
20
3.02781672187328
30
0
41
1
10
38.4971818828109
20
3.02634812076121
30
0
41
1
10
38.4735608661439
20
3.02566696688356
30
0
41
1
10
38.4027052221641
20
3.02377128569091
30
0
41
1
10
38.3554777918346
20
3.02270039691294
30
0
41
1
10
38.2138203361432
20
3.02000765552342
30
0
41
1
10
38.1194166937595
20
3.01894182426059
30
0
41
1
10
37.9306862649337
20
3.01851108740152
30
0
41
1
10
37.8363592369823
20
3.01914259088315
30
0
41
1
10
37.6477929053594
20
3.02229164414672
30
0
41
1
10
37.5535533602284
20
3.0248079964999
30
0
41
1
10
37.4122738603123
20
3.03010636286706
30
0
41
1
10
37.3651289500604
20
3.03212778185085
30
0
41
1
10
37.2717491453816
20
3.03663580170058
30
0
41
1
10
37.2254208417275
20
3.03912698091978
30
0
41
1
10
37.1335803118175
20
3.04456853550783
30
0
41
1
10
37.0880635506159
20
3.04751602877548
30
0
41
1
10
37.0204833114842
20
3.05225105496964
30
0
41
1
10
36.9980726410006
20
3.05388152766275
30
0
41
1
10
36.9535022580338
20
3.05723985316845
30
0
41
1
10
36.9313190539998
20
3.05896978933791
30
0
41
1
10
36.8656397566686
20
3.06425391263559
30
0
41
1
10
36.8228827746988
20
3.06791614491959
30
0
41
1
10
36.7397021577642
20
3.07538297361273
30
0
41
1
10
36.6992686502612
20
3.07918664600965
30
0
41
1
10
36.6211597905761
20
3.08675076181712
30
0
41
1
10
36.5834936761524
20
3.09051590881336
30
0
41
1
10
36.5295350652694
20
3.09591308673302
30
0
41
1
10
36.5121061623787
20
3.09765638293729
30
0
41
1
10
36.478680828929
20
3.10096106881724
30
0
41
1
10
36.4626452450414
20
3.10252641248201
30
0
41
1
10
36.4166889183578
20
3.10688321774731
30
0
41
1
10
36.3889098084966
20
3.10934079698569
30
0
41
1
10
36.3627037354945
20
3.1112100068527
30
0
41
1
10
36.3610282285566
20
3.11132720395432
30
0
41
1
10
36.3593700512239
20
3.11144078947237
30
0
0
SPLINE
5
178
100
AcDbEntity
8
1
62
256
6
ByLayer
370
18
48
1
60
0
100
AcDbSpline
70
4
71
3
72
51
73
47
40
0
40
0
40
0
40
0
40
0.0007491335308123
40
0.0007491335308123
40
0.036436664476141
40
0.036436664476141
40
0.0453585472124735
40
0.0453585472124735
40
0.0542804299488062
40
0.0721241954214711
40
0.0721241954214711
40
0.0899679608941357
40
0.0899679608941357
40
0.107811726366801
40
0.107811726366801
40
0.143499257312131
40
0.143499257312131
40
0.179186788257461
40
0.179186788257461
40
0.214874319202791
40
0.214874319202791
40
0.250561850148121
40
0.250561850148121
40
0.286249381093452
40
0.286249381093452
40
0.321936912038782
40
0.321936912038782
40
0.339780677511446
40
0.339780677511446
40
0.357624442984109
40
0.357624442984109
40
0.428999504874764
40
0.428999504874764
40
0.500374566765418
40
0.500374566765418
40
0.571749628656073
40
0.571749628656073
40
0.643124690546727
40
0.643124690546727
40
0.678812221492054
40
0.678812221492054
40
0.714499752437381
40
0.714499752437381
40
0.857249876218691
40
0.857249876218691
40
1
40
1
40
1
40
1
41
1
10
36.3036850700611
20
3.11384664143216
30
0
41
1
10
36.303333114958
20
3.11384801245055
30
0
41
1
10
36.3029829019973
20
3.11384896462673
30
0
41
1
10
36.2860337844435
20
3.11387482492714
30
0
41
1
10
36.2733701769333
20
3.11294703394623
30
0
41
1
10
36.2624295115197
20
3.11036103003767
30
0
41
1
10
36.2604861135764
20
3.10977142965641
30
0
41
1
10
36.2571175976619
20
3.10845754207765
30
0
41
1
10
36.2528250376664
20
3.10628147978508
30
0
41
1
10
36.2507170299166
20
3.10348919621009
30
0
41
1
10
36.2496993739681
20
3.09921685528053
30
0
41
1
10
36.250064619186
20
3.09680608806909
30
0
41
1
10
36.2526309630061
20
3.09143267418344
30
0
41
1
10
36.2548426964378
20
3.08846526260814
30
0
41
1
10
36.2643061353941
20
3.07875974516483
30
0
41
1
10
36.2742598590175
20
3.07134616347099
30
0
41
1
10
36.3005319192587
20
3.0548540287281
30
0
41
1
10
36.3169325928853
20
3.04578092929606
30
0
41
1
10
36.3545473384855
20
3.02608264900673
30
0
41
1
10
36.3754545876885
20
3.01559370553812
30
0
41
1
10
36.4202148896134
20
2.99350559555813
30
0
41
1
10
36.4440995127351
20
2.98189540505919
30
0
41
1
10
36.4942075492958
20
2.95761724776952
30
0
41
1
10
36.5204364896668
20
2.94494920272513
30
0
41
1
10
36.5748011124352
20
2.91860859138635
30
0
41
1
10
36.602930007897
20
2.90493403253637
30
0
41
1
10
36.6463030826875
20
2.88369228048967
30
0
41
1
10
36.660959735763
20
2.87648905176013
30
0
41
1
10
36.6905090042376
20
2.86190487875223
30
0
41
1
10
36.7054174886255
20
2.85451619496007
30
0
41
1
10
36.7805614956989
20
2.81709777131141
30
0
41
1
10
36.8425747409191
20
2.78564749619994
30
0
41
1
10
36.9691779998538
20
2.71983752403125
30
0
41
1
10
37.0337774915336
20
2.6854757070607
30
0
41
1
10
37.1648537482167
20
2.61388489094099
30
0
41
1
10
37.2313329674429
20
2.57665423905658
30
0
41
1
10
37.3656995847069
20
2.49930662352227
30
0
41
1
10
37.4335894589321
20
2.45918938660452
30
0
41
1
10
37.5362473532982
20
2.39680616427012
30
0
41
1
10
37.5706274159684
20
2.37562943783576
30
0
41
1
10
37.6395343731014
20
2.33259222121941
30
0
41
1
10
37.6739980989338
20
2.31077158875371
30
0
41
1
10
37.8463149543829
20
2.20015447519063
30
0
41
1
10
37.9841274444909
20
2.10681748987403
30
0
41
1
10
38.2589302256907
20
1.91029895000474
30
0
41
1
10
38.3959225738169
20
1.80710655614939
30
0
41
1
10
38.5325534642158
20
1.69897406902785
30
0
0
SPLINE
5
179
100
AcDbEntity
8
1
62
256
6
ByLayer
370
13
48
1
60
0
100
AcDbSpline
70
4
71
3
72
10
73
6
40
0
40
0
40
0
40
0
40
0.0085721155522742
40
0.66825032984789
40
1
40
1
40
1
40
1
41
1
10
60.5459903330083
20
2.26657144513845
30
0
41
1
10
60.5455576365451
20
2.27199697561144
30
0
41
1
10
60.5118309422904
20
2.69362037205883
30
0
41
1
10
60.4619617803984
20
3.16727754719918
30
0
41
1
10
60.4134654064024
20
3.33144067379183
30
0
41
1
10
60.3974703705799
20
3.35446554428549
30
0
0
SPLINE
5
17A
100
AcDbEntity
8
1
62
256
6
ByLayer
370
13
48
1
60
0
100
AcDbSpline
70
4
71
3
72
9
73
5
40
0
40
0
40
0
40
0
40
0.109298857609818
40
1
40
1
40
1
40
1
41
1.04
10
61.5312654694224
20
1.5999276980698
30
0
41
1.04
10
61.5259650829424
20
1.67888471094047
30
0
41
1.04
10
61.477403618084
20
2.38679898913869
30
0
41
1.04
10
61.4282664127598
20
2.93906309147053
30
0
41
1.04
10
61.3827555075835
20
3.18767811529318
30
0
0
SPLINE
5
17B
100
AcDbEntity
8
1
62
256
6
ByLayer
370
18
48
1
60
0
100
AcDbSpline
70
4
71
3
72
29
73
25
40
0
40
0
40
0
40
0
40
0.125000000000002
40
0.125000000000002
40
0.250000000000004
40
0.250000000000004
40
0.281250000000004
40
0.281250000000004
40
0.312500000000004
40
0.312500000000004
40
0.375000000000004
40
0.375000000000004
40
0.500000000000004
40
0.625000000000003
40
0.625000000000003
40
0.687500000000003
40
0.687500000000003
40
0.718750000000003
40
0.718750000000003
40
0.750000000000002
40
0.750000000000002
40
0.875000000000001
40
0.875000000000001
40
1
40
1
40
1
40
1
41
1
10
60.8168383972086
20
4.01425101643645
30
0
41
1
10
60.8234452398651
20
3.99171840677886
30
0
41
1
10
60.8299553544274
20
3.96218382033126
30
0
41
1
10
60.8431186455038
20
3.88924476056033
30
0
41
1
10
60.8498055131319
20
3.84584129698604
30
0
41
1
10
60.8584192762717
20
3.78272696168568
30
0
41
1
10
60.8601520020598
20
3.76965992793805
30
0
41
1
10
60.8636347637914
20
3.74262795880853
30
0
41
1
10
60.8653873172041
20
3.72864210966026
30
0
41
1
10
60.870647235537
20
3.68548933562775
30
0
41
1
10
60.8741526174579
20
3.65516625203517
30
0
41
1
10
60.8846450117658
20
3.55963088235896
30
0
41
1
10
60.8985647773441
20
3.42009797591274
30
0
41
1
10
60.912301472695
20
3.25669109486404
30
0
41
1
10
60.9225920013658
20
3.12505990986179
30
0
41
1
10
60.9260209025602
20
3.07966724740882
30
0
41
1
10
60.9311758495625
20
3.00926161679439
30
0
41
1
10
60.9328982301921
20
2.98537728278933
30
0
41
1
10
60.9363396923721
20
2.93696796911056
30
0
41
1
10
60.9380561694524
20
2.91248065865563
30
0
41
1
10
60.9466249290861
20
2.78864770714085
30
0
41
1
10
60.953464274292
20
2.68512535617026
30
0
41
1
10
60.9670547228607
20
2.46940181470265
30
0
41
1
10
60.9737809722806
20
2.35719910349124
30
0
41
1
10
60.9804913050377
20
2.24063469911991
30
0
0
SPLINE
5
17C
100
AcDbEntity
8
1
62
256
6
ByLayer
370
18
48
1
60
0
100
AcDbSpline
70
4
71
3
72
29
73
25
40
0
40
0
40
0
40
0
40
0.0624999999999998
40
0.0624999999999998
40
0.125
40
0.125
40
0.25
40
0.375
40
0.375
40
0.500000000000001
40
0.500000000000001
40
0.53125
40
0.53125
40
0.5625
40
0.625
40
0.625
40
0.75
40
0.875
40
0.875
40
0.90625
40
0.90625
40
0.9375
40
0.9375
40
1
40
1
40
1
40
1
41
1
10
61.1163814049603
20
2.12546041061034
30
0
41
1
10
61.1129775681106
20
2.18503619363196
30
0
41
1
10
61.1095407682387
20
2.24381026271948
30
0
41
1
10
61.1026020627984
20
2.35972584055674
30
0
41
1
10
61.0990943690883
20
2.41698976673635
30
0
41
1
10
61.0886136739134
20
2.58444226803115
30
0
41
1
10
61.0746979048499
20
2.7972106208309
30
0
41
1
10
61.0609702501896
20
2.98956247276084
30
0
41
1
10
61.0472998930476
20
3.1716680460666
30
0
41
1
10
61.0404931615235
20
3.25759872834826
30
0
41
1
10
61.0319574666926
20
3.35837513764807
30
0
41
1
10
61.030253305368
20
3.3781440012275
30
0
41
1
10
61.0268576539999
20
3.4168135712664
30
0
41
1
10
61.0217789816439
20
3.47356483671058
30
0
41
1
10
61.0167344702484
20
3.52659818390879
30
0
41
1
10
61.0066624029299
20
3.62777889381829
30
0
41
1
10
60.9932787639861
20
3.74968166792766
30
0
41
1
10
60.979669093396
20
3.8457084362671
30
0
41
1
10
60.9709985697897
20
3.89742078947532
30
0
41
1
10
60.9692562852983
20
3.90734698192867
30
0
41
1
10
60.9657532382212
20
3.92635696045991
30
0
41
1
10
60.9639943851194
20
3.93542723320812
30
0
41
1
10
60.9587201517177
20
3.96122378269106
30
0
41
1
10
60.9552005511145
20
3.97658608582344
30
0
41
1
10
60.9516918110744
20
3.990147857034
30
0
0
SPLINE
5
17D
100
AcDbEntity
8
1
62
256
6
ByLayer
370
18
48
1
60
0
100
AcDbSpline
70
4
71
3
72
32
73
28
40
0
40
0
40
0
40
0
40
0.0625000000000014
40
0.0625000000000014
40
0.0937500000000019
40
0.0937500000000019
40
0.125000000000002
40
0.125000000000002
40
0.250000000000005
40
0.375000000000008
40
0.375000000000008
40
0.437500000000008
40
0.437500000000008
40
0.468750000000008
40
0.468750000000008
40
0.500000000000008
40
0.500000000000008
40
0.625000000000006
40
0.625000000000006
40
0.750000000000005
40
0.750000000000005
40
0.875000000000003
40
0.875000000000003
40
0.906250000000002
40
0.906250000000002
40
0.937500000000002
40
1
40
1
40
1
40
1
41
1
10
60.2392308943789
20
-3.9480613486995
30
0
41
1
10
60.2358170364843
20
-3.93122821824099
30
0
41
1
10
60.2324031741783
20
-3.91259647774396
30
0
41
1
10
60.2272730622043
20
-3.88189520538705
30
0
41
1
10
60.225559978218
20
-3.87119145094098
30
0
41
1
10
60.2221484642124
20
-3.84898516988386
30
0
41
1
10
60.2204478223156
20
-3.83747022161251
30
0
41
1
10
60.2119655412022
20
-3.77785915684586
30
0
41
1
10
60.1985281692651
20
-3.66948197927826
30
0
41
1
10
60.1851158315299
20
-3.53572270927086
30
0
41
1
10
60.1749723958984
20
-3.42581081729207
30
0
41
1
10
60.1715772223989
20
-3.38757174659116
30
0
41
1
10
60.1664518757765
20
-3.32777221908185
30
0
41
1
10
60.1647379980193
20
-3.30743201386247
30
0
41
1
10
60.1612975015322
20
-3.26592855139643
30
0
41
1
10
60.1595686451926
20
-3.24473686584614
30
0
41
1
10
60.1509337813046
20
-3.13727050369619
30
0
41
1
10
60.1440303814989
20
-3.04621310703138
30
0
41
1
10
60.1301539641125
20
-2.85426105846645
30
0
41
1
10
60.1231686269678
20
-2.75336602737502
30
0
41
1
10
60.1091713594112
20
-2.541743558972
30
0
41
1
10
60.1021810753969
20
-2.43101610820591
30
0
41
1
10
60.0934973731745
20
-2.28626419493835
30
0
41
1
10
60.0917603918384
20
-2.25695218273941
30
0
41
1
10
60.0883064968159
20
-2.1979591212623
30
0
41
1
10
60.0831544848776
20
-2.10890049422523
30
0
41
1
10
60.0780834321002
20
-2.01815567870571
30
0
41
1
10
60.0747301838048
20
-1.9569224626691
30
0
0
SPLINE
5
17E
100
AcDbEntity
8
1
62
256
6
ByLayer
370
18
48
1
60
0
100
AcDbSpline
70
4
71
3
72
29
73
25
40
0
40
0
40
0
40
0
40
0.125
40
0.125
40
0.25
40
0.25
40
0.312499999999999
40
0.312499999999999
40
0.343749999999999
40
0.343749999999999
40
0.374999999999999
40
0.374999999999999
40
0.499999999999998
40
0.499999999999998
40
0.624999999999997
40
0.624999999999997
40
0.687499999999997
40
0.718749999999998
40
0.718749999999998
40
0.749999999999998
40
0.749999999999998
40
0.874999999999999
40
0.874999999999999
40
1
40
1
40
1
40
1
41
1
10
59.9399058784772
20
-1.83772472729217
30
0
41
1
10
59.9468505886394
20
-1.96264117308479
30
0
41
1
10
59.9537694827421
20
-2.08367934442782
30
0
41
1
10
59.9675535925867
20
-2.31810557039105
30
0
41
1
10
59.9744176636231
20
-2.43149373822365
30
0
41
1
10
59.9847044075299
20
-2.59573268767574
30
0
41
1
10
59.988132217854
20
-2.64950319059437
30
0
41
1
10
59.9932817979033
20
-2.72866343850302
30
0
41
1
10
59.9949988011481
20
-2.75478624599577
30
0
41
1
10
59.9984175863448
20
-2.80622846347245
30
0
41
1
10
60.0001218450653
20
-2.83158614578028
30
0
41
1
10
60.0086239492111
20
-2.95657655898631
30
0
41
1
10
60.0153707743135
20
-3.05082961365284
30
0
41
1
10
60.0288908565029
20
-3.22810804734345
30
0
41
1
10
60.0356587859033
20
-3.31113323839341
30
0
41
1
10
60.0458783140127
20
-3.42716944991787
30
0
41
1
10
60.051004780358
20
-3.48305802829066
30
0
41
1
10
60.0561658656088
20
-3.53569805259181
30
0
41
1
10
60.0596153588545
20
-3.57006056516636
30
0
41
1
10
60.0613448988944
20
-3.58687890335486
30
0
41
1
10
60.0699662221875
20
-3.66864960999348
30
0
41
1
10
60.0768195522196
20
-3.7270690480245
30
0
41
1
10
60.090503055006
20
-3.83034309310534
30
0
41
1
10
60.0973329028449
20
-3.87519659212367
30
0
41
1
10
60.1041847282606
20
-3.91326075109544
30
0
0
SPLINE
5
17F
100
AcDbEntity
8
1
62
256
6
ByLayer
370
13
48
1
60
0
100
AcDbSpline
70
4
71
3
72
9
73
5
40
0
40
0
40
0
40
0
40
0.69102913940609
40
1
40
1
40
1
40
1
41
1
10
53.0968387690917
20
1.56439572256369
30
0
41
1
10
53.0638743614236
20
2.05921729859105
30
0
41
1
10
53.0155827793321
20
2.68924640924055
30
0
41
1
10
52.9645804741928
20
3.07993057716121
30
0
41
1
10
52.9489937215089
20
3.16983171420083
30
0
0
SPLINE
5
180
100
AcDbEntity
8
1
62
256
6
ByLayer
370
13
48
1
60
0
100
AcDbSpline
70
4
71
3
72
10
73
6
40
0
40
0
40
0
40
0
40
0.106961884681976
40
0.766071098779011
40
1
40
1
40
1
40
1
41
1
10
64.4896869521776
20
-0.785653659588547
30
0
41
1
10
64.484437802365
20
-0.699098402373608
30
0
41
1
10
64.4468161509351
20
-0.0729028169928654
30
0
41
1
10
64.3977554661993
20
0.778855428214001
30
0
41
1
10
64.3527032856877
20
1.47710428041933
30
0
41
1
10
64.3409468471478
20
1.65077748599845
30
0
0
SPLINE
5
181
100
AcDbEntity
8
1
62
256
6
ByLayer
370
18
48
1
60
0
100
AcDbSpline
70
4
71
3
72
10
73
6
40
0
40
0
40
0
40
0
40
0.378384956915666
40
0.755700121774831
40
1
40
1
40
1
40
1
41
1
10
65.7000000303635
20
-1.61850452431679
30
0
41
1
10
65.7000000359474
20
-1.37295306721191
30
0
41
1
10
65.6999999976013
20
-0.84553851840613
30
0
41
1
10
65.6999999316831
20
-0.0983983718974173
30
0
41
1
10
65.6999999205129
20
0.362632057300544
30
0
41
1
10
65.6999999186302
20
0.540788969284449
30
0
0
SPLINE
5
182
100
AcDbEntity
8
1
62
256
6
ByLayer
370
18
48
1
60
0
100
AcDbSpline
70
4
71
3
72
28
73
24
40
0
40
0
40
0
40
0
40
0.125000000000002
40
0.125000000000002
40
0.250000000000004
40
0.250000000000004
40
0.375000000000007
40
0.375000000000007
40
0.406250000000007
40
0.406250000000007
40
0.437500000000007
40
0.437500000000007
40
0.500000000000007
40
0.500000000000007
40
0.750000000000003
40
0.750000000000003
40
0.812500000000002
40
0.812500000000002
40
0.843750000000002
40
0.843750000000002
40
0.875000000000001
40
0.875000000000001
40
1
40
1
40
1
40
1
41
1
10
64.4338953323523
20
1.67795311116885
30
0
41
1
10
64.440222916064
20
1.57829351345029
30
0
41
1
10
64.4464091980532
20
1.47673273198359
30
0
41
1
10
64.4586785580142
20
1.2699597393862
30
0
41
1
10
64.4647780106883
20
1.1647498162728
30
0
41
1
10
64.4771833056134
20
0.950719321481245
30
0
41
1
10
64.4834712061996
20
0.841899622659099
30
0
41
1
10
64.4914560527102
20
0.703563587169839
30
0
41
1
10
64.4930591469985
20
0.675780471303767
30
0
41
1
10
64.4962775727789
20
0.619979626836226
30
0
41
1
10
64.4978910046588
20
0.591994786547161
30
0
41
1
10
64.5027237478498
20
0.508128476386617
30
0
41
1
10
64.5059431644513
20
0.452203778736845
30
0
41
1
10
64.5220162782772
20
0.172511412339333
30
0
41
1
10
64.5347178059816
20
-0.0514668071526216
30
0
41
1
10
64.5504649825286
20
-0.331717469272491
30
0
41
1
10
64.5536154059043
20
-0.387781068281527
30
0
41
1
10
64.558353615133
20
-0.471896276152307
30
0
41
1
10
64.5599350910953
20
-0.499937983722816
30
0
41
1
10
64.5631037652159
20
-0.556027985218719
30
0
41
1
10
64.5646913384974
20
-0.58408105184543
30
0
41
1
10
64.5726101582339
20
-0.723771365780266
30
0
41
1
10
64.5789079405186
20
-0.834160919142022
30
0
41
1
10
64.5851766111164
20
-0.943192869287685
30
0
0
SPLINE
5
183
100
AcDbEntity
8
1
62
256
6
ByLayer
370
13
48
1
60
0
100
AcDbSpline
70
4
71
3
72
10
73
6
40
0
40
0
40
0
40
0
40
0.651272395842665
40
0.976099581534827
40
1
40
1
40
1
40
1
41
1.04
10
64.1603966306953
20
-0.516624362781133
30
0
41
1.04
10
64.1285081781067
20
0.0174525920021788
30
0
41
1.04
10
64.0807407171704
20
0.846108689460823
30
0
41
1.04
10
64.0302955116726
20
1.62062169481613
30
0
41
1.04
10
64.0129133998094
20
1.86626866691942
30
0
41
1.04
10
64.011723041685
20
1.88298818396589
30
0
0
SPLINE
5
184
100
AcDbEntity
8
1
62
256
6
ByLayer
370
18
48
1
60
0
100
AcDbSpline
70
4
71
3
72
29
73
25
40
0
40
0
40
0
40
0
40
0.125000000000002
40
0.125000000000002
40
0.250000000000003
40
0.250000000000003
40
0.281250000000004
40
0.281250000000004
40
0.312500000000004
40
0.312500000000004
40
0.375000000000004
40
0.375000000000004
40
0.500000000000003
40
0.500000000000003
40
0.625000000000002
40
0.625000000000002
40
0.687500000000002
40
0.687500000000002
40
0.718750000000002
40
0.718750000000002
40
0.750000000000002
40
0.750000000000002
40
0.875000000000001
40
1
40
1
40
1
40
1
41
1
10
53.1936554912983
20
3.49839154127738
30
0
41
1
10
53.2043063224001
20
3.45431959851072
30
0
41
1
10
53.2147572629133
20
3.40382684626769
30
0
41
1
10
53.2352348636429
20
3.29008242513763
30
0
41
1
10
53.2452687622799
20
3.2268334733468
30
0
41
1
10
53.2579726442384
20
3.13984212999031
30
0
41
1
10
53.2605204565367
20
3.12204579304387
30
0
41
1
10
53.265632870468
20
3.085649504407
30
0
41
1
10
53.268198841781
20
3.06703838922346
30
0
41
1
10
53.2758812433028
20
3.0103191558191
30
0
41
1
10
53.2809965807454
20
2.97122632311817
30
0
41
1
10
53.2963443743711
20
2.85019093520813
30
0
41
1
10
53.3065799314921
20
2.76450182810967
30
0
41
1
10
53.3271194354554
20
2.58329859457771
30
0
41
1
10
53.3374220923487
20
2.48778389341985
30
0
41
1
10
53.3529503930047
20
2.33702648781869
30
0
41
1
10
53.3581387833703
20
2.28552397745995
30
0
41
1
10
53.3659431013483
20
2.20635745602544
30
0
41
1
10
53.3685454739955
20
2.17967614464067
30
0
41
1
10
53.3737288893508
20
2.12597614437945
30
0
41
1
10
53.3763133282605
20
2.09892312395988
30
0
41
1
10
53.389201182128
20
1.96265398925723
30
0
41
1
10
53.409600577014
20
1.73821323720827
30
0
41
1
10
53.4296831012237
20
1.50126333890856
30
0
41
1
10
53.4396940847096
20
1.37964773180428
30
0
0
SPLINE
5
185
100
AcDbEntity
8
1
62
256
6
ByLayer
370
18
48
1
60
0
100
AcDbSpline
70
4
71
3
72
28
73
24
40
0
40
0
40
0
40
0
40
0.125000000000001
40
0.125000000000001
40
0.187500000000001
40
0.187500000000001
40
0.218750000000002
40
0.218750000000002
40
0.250000000000002
40
0.250000000000002
40
0.375000000000002
40
0.375000000000002
40
0.500000000000002
40
0.500000000000002
40
0.625000000000002
40
0.625000000000002
40
0.656250000000002
40
0.656250000000002
40
0.687500000000002
40
0.750000000000001
40
0.750000000000001
40
0.875000000000001
40
1
40
1
40
1
40
1
41
1
10
53.6743661781122
20
1.17480093670971
30
0
41
1
10
53.6694379807819
20
1.30328129079751
30
0
41
1
10
53.6645331349658
20
1.4295639375749
30
0
41
1
10
53.6571266535891
20
1.61564044901721
30
0
41
1
10
53.6546492175192
20
1.67710692765144
30
0
41
1
10
53.650906289509
20
1.76845127887302
30
0
41
1
10
53.6496541631354
20
1.79875675968518
30
0
41
1
10
53.6471383885055
20
1.85907870485116
30
0
41
1
10
53.6458736987305
20
1.8891187996268
30
0
41
1
10
53.6395508030612
20
2.03774505499334
30
0
41
1
10
53.6344487109448
20
2.15224491230813
30
0
41
1
10
53.6241335446841
20
2.37271212692187
30
0
41
1
10
53.6189796021396
20
2.47870188985209
30
0
41
1
10
53.6088644032348
20
2.68227535588497
30
0
41
1
10
53.6039046079803
20
2.7798601573848
30
0
41
1
10
53.5976954150171
20
2.8963793956957
30
0
41
1
10
53.5964507458326
20
2.91942711065798
30
0
41
1
10
53.593956225777
20
2.96488512404739
30
0
41
1
10
53.5902178836128
20
3.0319370042302
30
0
41
1
10
53.5864821524558
20
3.09562280782285
30
0
41
1
10
53.5789991685801
20
3.21857869208961
30
0
41
1
10
53.5689881037158
20
3.37076523993
30
0
41
1
10
53.5588255662012
20
3.49968838481948
30
0
41
1
10
53.5536975945618
20
3.5582192357939
30
0
0
SPLINE
5
186
100
AcDbEntity
8
1
62
256
6
ByLayer
370
13
48
1
60
0
100
AcDbSpline
70
4
71
3
72
9
73
5
40
0
40
0
40
0
40
0
40
0.688086171953984
40
1
40
1
40
1
40
1
41
1.04
10
62.8458729247843
20
0.571369742745658
30
0
41
1.04
10
62.8132465002333
20
1.1166866730979
30
0
41
1.04
10
62.7649207008716
20
1.88931242557219
30
0
41
1.04
10
62.7135707390934
20
2.50540929625142
30
0
41
1.04
10
62.6972451129538
20
2.6739543388646
30
0
0
SPLINE
5
187
100
AcDbEntity
8
1
62
256
6
ByLayer
370
18
48
1
60
0
100
AcDbSpline
70
4
71
3
72
27
73
23
40
0
40
0
40
0
40
0
40
0.124999999999999
40
0.124999999999999
40
0.249999999999998
40
0.249999999999998
40
0.312499999999997
40
0.312499999999997
40
0.343749999999997
40
0.343749999999997
40
0.374999999999997
40
0.499999999999997
40
0.499999999999997
40
0.624999999999998
40
0.624999999999998
40
0.687499999999998
40
0.687499999999998
40
0.749999999999999
40
0.749999999999999
40
0.874999999999999
40
0.874999999999999
40
1
40
1
40
1
40
1
41
1
10
62.4331591399909
20
0.906199715405307
30
0
41
1
10
62.4263043587325
20
1.04256782978371
30
0
41
1
10
62.419444910105
20
1.17662989139765
30
0
41
1
10
62.4056354058947
20
1.44020081249937
30
0
41
1
10
62.3986845166673
20
1.56971007121595
30
0
41
1
10
62.3882023160807
20
1.76045244631211
30
0
41
1
10
62.384699944204
20
1.82344461996692
30
0
41
1
10
62.3794342860313
20
1.91702610466041
30
0
41
1
10
62.3776744175508
20
1.94811399047245
30
0
41
1
10
62.3741640355475
20
2.00973766618151
30
0
41
1
10
62.3654158179973
20
2.16233121863721
30
0
41
1
10
62.3568017329451
20
2.30769369969042
30
0
41
1
10
62.3430915106808
20
2.53130165468954
30
0
41
1
10
62.3362702488079
20
2.63861892477809
30
0
41
1
10
62.3260011190584
20
2.79295384584995
30
0
41
1
10
62.3225702265495
20
2.84329145087185
30
0
41
1
10
62.3156589346397
20
2.94175267058245
30
0
41
1
10
62.312179944341
20
2.98990314982822
30
0
41
1
10
62.3017244461778
20
3.13070689847325
30
0
41
1
10
62.2948188309801
20
3.21862461877325
30
0
41
1
10
62.281080029999
20
3.38266848270774
30
0
41
1
10
62.2742493495504
20
3.45879400734631
30
0
41
1
10
62.2672955930549
20
3.52906297016918
30
0
0
SPLINE
5
188
100
AcDbEntity
8
1
62
256
6
ByLayer
370
13
48
1
60
0
100
AcDbSpline
70
4
71
3
72
9
73
5
40
0
40
0
40
0
40
0
40
0.799752306422031
40
1
40
1
40
1
40
1
41
1
10
63.1751460522436
20
0.299553517002209
30
0
41
1
10
63.137010539017
20
0.944005921156958
30
0
41
1
10
63.0884894006978
20
1.74340191498982
30
0
41
1
10
63.0368727827126
20
2.38102619750728
30
0
41
1
10
63.0264085358039
20
2.49992561507955
30
0
0
SPLINE
5
189
100
AcDbEntity
8
1
62
256
6
ByLayer
370
18
48
1
60
0
100
AcDbSpline
70
4
71
3
72
27
73
23
40
0
40
0
40
0
40
0
40
0.124999999999998
40
0.124999999999998
40
0.249999999999995
40
0.249999999999995
40
0.312499999999994
40
0.343749999999994
40
0.343749999999994
40
0.374999999999994
40
0.374999999999994
40
0.499999999999995
40
0.499999999999995
40
0.624999999999997
40
0.624999999999997
40
0.749999999999998
40
0.749999999999998
40
0.812499999999998
40
0.812499999999998
40
0.874999999999999
40
0.874999999999999
40
1
40
1
40
1
40
1
41
1
10
63.2904115367128
20
2.70591410750598
30
0
41
1
10
63.296996660909
20
2.61639325158214
30
0
41
1
10
63.3035856352049
20
2.52295005125939
30
0
41
1
10
63.3167660885892
20
2.32818850195977
30
0
41
1
10
63.3233665344598
20
2.22686908347069
30
0
41
1
10
63.3332843372915
20
2.06885910253601
30
0
41
1
10
63.3382479549205
20
1.98834475702097
30
0
41
1
10
63.343224424608
20
1.90552702107104
30
0
41
1
10
63.3465460351698
20
1.84979770176847
30
0
41
1
10
63.3482091793769
20
1.82166715210079
30
0
41
1
10
63.3564897788119
20
1.68053451951045
30
0
41
1
10
63.3630382001449
20
1.56545476287224
30
0
41
1
10
63.3761054550088
20
1.33113948962836
30
0
41
1
10
63.3826287008944
20
1.21190665372009
30
0
41
1
10
63.3957485311111
20
0.969335636548863
30
0
41
1
10
63.4023444167045
20
0.845997760275708
30
0
41
1
10
63.4123304298888
20
0.657821879886654
30
0
41
1
10
63.4156781388761
20
0.594491135291179
30
0
41
1
10
63.4223439346212
20
0.467951623141488
30
0
41
1
10
63.4256694047149
20
0.404603925251393
30
0
41
1
10
63.4356257830608
20
0.214327902690002
30
0
41
1
10
63.442235226826
20
0.0871672050935501
30
0
41
1
10
63.4488227249257
20
-0.0403097981792655
30
0
0
SPLINE
5
18A
100
AcDbEntity
8
1
62
256
6
ByLayer
370
18
48
1
60
0
100
AcDbSpline
70
4
71
3
72
27
73
23
40
0
40
0
40
0
40
0
40
0.125000000000001
40
0.125000000000001
40
0.250000000000001
40
0.250000000000001
40
0.375000000000002
40
0.375000000000002
40
0.406250000000002
40
0.406250000000002
40
0.437500000000002
40
0.500000000000002
40
0.500000000000002
40
0.625000000000001
40
0.625000000000001
40
0.750000000000001
40
0.750000000000001
40
0.812500000000001
40
0.812500000000001
40
0.875000000000001
40
0.875000000000001
40
1
40
1
40
1
40
1
41
1
10
63.9790043922073
20
-0.485300310730111
30
0
41
1
10
63.9723759459519
20
-0.365492548488959
30
0
41
1
10
63.9657948457367
20
-0.245712994958524
30
0
41
1
10
63.9527637297694
20
-0.0062076466556675
30
0
41
1
10
63.9463426323966
20
0.113519459291126
30
0
41
1
10
63.9335240724852
20
0.352914084894962
30
0
41
1
10
63.9271113866213
20
0.472580914289267
30
0
41
1
10
63.9189541948044
20
0.62211837414398
30
0
41
1
10
63.917314537581
20
0.652046591882254
30
0
41
1
10
63.9140360475716
20
0.711581294086869
30
0
41
1
10
63.9091137219519
20
0.800509890869336
30
0
41
1
10
63.9041667366803
20
0.888332299825805
30
0
41
1
10
63.8942198567689
20
1.06252563082251
30
0
41
1
10
63.8875009929272
20
1.1767243835678
30
0
41
1
10
63.8739548036517
20
1.40126657683834
30
0
41
1
10
63.8671699642085
20
1.51160826287213
30
0
41
1
10
63.8571366577886
20
1.67411339467463
30
0
41
1
10
63.8538136714186
20
1.72777972827845
30
0
41
1
10
63.8472012454118
20
1.83408164592967
30
0
41
1
10
63.8439298369015
20
1.88642633208025
30
0
41
1
10
63.8341883474195
20
2.0406718408982
30
0
41
1
10
63.8277572737597
20
2.13996498786125
30
0
41
1
10
63.8213209710325
20
2.23576471898704
30
0
0
SPLINE
5
18B
100
AcDbEntity
8
1
62
256
6
ByLayer
370
18
48
1
60
0
100
AcDbSpline
70
4
71
3
72
28
73
24
40
0
40
0
40
0
40
0
40
0.125
40
0.125
40
0.250000000000001
40
0.250000000000001
40
0.375000000000001
40
0.375000000000001
40
0.437500000000001
40
0.437500000000001
40
0.500000000000001
40
0.500000000000001
40
0.625000000000001
40
0.625000000000001
40
0.6875
40
0.6875
40
0.75
40
0.75
40
0.875
40
0.875
40
0.9375
40
0.9375
40
1
40
1
40
1
40
1
41
1
10
62.4152520705459
20
0.923730198377541
30
0
41
1
10
62.408589219229
20
1.06081848356371
30
0
41
1
10
62.4023725364061
20
1.19492124640107
30
0
41
1
10
62.3905400626995
20
1.45738905476256
30
0
41
1
10
62.384924235638
20
1.58575311621146
30
0
41
1
10
62.3734216378615
20
1.83676434968072
30
0
41
1
10
62.3674966652591
20
1.95941022390542
30
0
41
1
10
62.3579287653204
20
2.13898468966127
30
0
41
1
10
62.3546309482663
20
2.19810927020944
30
0
41
1
10
62.3478122560343
20
2.3148583234462
30
0
41
1
10
62.344282138514
20
2.37261505233357
30
0
41
1
10
62.3335522319383
20
2.54156155255913
30
0
41
1
10
62.3261599636683
20
2.64901629588954
30
0
41
1
10
62.3154390231484
20
2.80267812847757
30
0
41
1
10
62.3119372331602
20
2.8526429940529
30
0
41
1
10
62.3052328739217
20
2.95007106215056
30
0
41
1
10
62.3020049354847
20
2.99753330898838
30
0
41
1
10
62.2924442026427
20
3.13613354392007
30
0
41
1
10
62.2861928950628
20
3.22349464103542
30
0
41
1
10
62.2766899779147
20
3.34669391834461
30
0
41
1
10
62.2735270723693
20
3.38624865158044
30
0
41
1
10
62.2673008488524
20
3.46219573628278
30
0
41
1
10
62.2642386867837
20
3.49861454044256
30
0
41
1
10
62.261299823808
20
3.53347834104969
30
0
0
SPLINE
5
18C
100
AcDbEntity
8
1
62
256
6
ByLayer
370
18
48
1
60
0
100
AcDbSpline
70
4
71
3
72
31
73
27
40
0
40
0
40
0
40
0
40
0.0624999999999989
40
0.0624999999999989
40
0.0937499999999983
40
0.0937499999999983
40
0.124999999999998
40
0.124999999999998
40
0.249999999999996
40
0.374999999999994
40
0.374999999999994
40
0.437499999999993
40
0.468749999999993
40
0.468749999999993
40
0.499999999999993
40
0.499999999999993
40
0.624999999999995
40
0.624999999999995
40
0.749999999999997
40
0.749999999999997
40
0.874999999999999
40
0.874999999999999
40
0.906249999999999
40
0.906249999999999
40
0.9375
40
1
40
1
40
1
40
1
41
1
10
62.1307617146983
20
3.5969780752383
30
0
41
1
10
62.1342553523388
20
3.56427632506455
30
0
41
1
10
62.1377573574343
20
3.52988455948614
30
0
41
1
10
62.1430221081247
20
3.47570845881358
30
0
41
1
10
62.1447794646189
20
3.45721163403155
30
0
41
1
10
62.1482775790588
20
3.41957107783372
30
0
41
1
10
62.1500209116325
20
3.40040133179733
30
0
41
1
10
62.158709858329
20
3.30282416981947
30
0
41
1
10
62.1724313736262
20
3.13566716105572
30
0
41
1
10
62.1858949379479
20
2.94694668541976
30
0
41
1
10
62.195982270988
20
2.79725177269634
30
0
41
1
10
62.2010241628797
20
2.7203617430184
30
0
41
1
10
62.2060881563544
20
2.64035801079763
30
0
41
1
10
62.2094725101126
20
2.58632198083024
30
0
41
1
10
62.2111703241163
20
2.5589290694204
30
0
41
1
10
62.2196408483596
20
2.42098983761463
30
0
41
1
10
62.2263946426513
20
2.30698055369908
30
0
41
1
10
62.2401003352161
20
2.07188746153642
30
0
41
1
10
62.2470288664334
20
1.95080221053558
30
0
41
1
10
62.2609354841615
20
1.70155052261677
30
0
41
1
10
62.2679129478762
20
1.57338463997357
30
0
41
1
10
62.2766447189608
20
1.40860701905407
30
0
41
1
10
62.2783939747969
20
1.37537978726334
30
0
41
1
10
62.2818756218887
20
1.30881795991758
30
0
41
1
10
62.2870776394888
20
1.20872591529874
30
0
41
1
10
62.2922214158336
20
1.10789501592774
30
0
41
1
10
62.2956299222016
20
1.04035157876169
30
0
0
SPLINE
5
18D
100
AcDbEntity
8
1
62
256
6
ByLayer
370
13
48
1
60
0
100
AcDbSpline
70
4
71
3
72
9
73
5
40
0
40
0
40
0
40
0
40
0.22631314870357
40
1
40
1
40
1
40
1
41
1
10
61.8605745130758
20
1.35371774437579
30
0
41
1
10
61.8495666930394
20
1.52429133949363
30
0
41
1
10
61.8007771299613
20
2.25308331268371
30
0
41
1
10
61.7514048791747
20
2.82304937052302
30
0
41
1
10
61.7119980136359
20
3.08922112946431
30
0
0
SPLINE
5
18E
100
AcDbEntity
8
1
62
256
6
ByLayer
370
18
48
1
60
0
100
AcDbSpline
70
4
71
3
72
28
73
24
40
0
40
0
40
0
40
0
40
0.124999999999997
40
0.124999999999997
40
0.249999999999995
40
0.249999999999995
40
0.374999999999992
40
0.374999999999992
40
0.406249999999992
40
0.406249999999992
40
0.437499999999992
40
0.499999999999992
40
0.499999999999992
40
0.624999999999993
40
0.749999999999993
40
0.749999999999993
40
0.781249999999994
40
0.781249999999994
40
0.812499999999994
40
0.812499999999994
40
0.874999999999996
40
0.874999999999996
40
1
40
1
40
1
40
1
41
1
10
54.9813764817931
20
-0.120038737907151
30
0
41
1
10
54.9745733855844
20
0.0205112875774773
30
0
41
1
10
54.967819794739
20
0.16019848109346
30
0
41
1
10
54.9542584247611
20
0.437890382244206
30
0
41
1
10
54.9474441941831
20
0.575894651095126
30
0
41
1
10
54.9336261447235
20
0.850210473972908
30
0
41
1
10
54.9266482275886
20
0.98652347274006
30
0
41
1
10
54.917896424206
20
1.15582482956526
30
0
41
1
10
54.9161451414093
20
1.18961435622003
30
0
41
1
10
54.9126599147356
20
1.25668996366659
30
0
41
1
10
54.9074503931708
20
1.35669510226344
30
0
41
1
10
54.9022956088092
20
1.45489626785363
30
0
41
1
10
54.8920498016228
20
1.64892937671354
30
0
41
1
10
54.8785642169025
20
1.90133444527518
30
0
41
1
10
54.8651935164092
20
2.14120100840716
30
0
41
1
10
54.8567449353213
20
2.28709425712179
30
0
41
1
10
54.8550504130501
20
2.31607122114002
30
0
41
1
10
54.8516477072722
20
2.37361700732373
30
0
41
1
10
54.8499386816036
20
2.40219858948527
30
0
41
1
10
54.8448146898261
20
2.48683104814376
30
0
41
1
10
54.8413902167833
20
2.5419363159865
30
0
41
1
10
54.8311111084084
20
2.70338148192624
30
0
41
1
10
54.8242579567831
20
2.80586106908768
30
0
41
1
10
54.8174172353241
20
2.90326948034681
30
0
0
SPLINE
5
18F
100
AcDbEntity
8
1
62
256
6
ByLayer
370
18
48
1
60
0
100
AcDbSpline
70
4
71
3
72
33
73
29
40
0
40
0
40
0
40
0
40
0.124999999999998
40
0.124999999999998
40
0.156249999999997
40
0.156249999999997
40
0.187499999999997
40
0.249999999999996
40
0.249999999999996
40
0.374999999999995
40
0.374999999999995
40
0.499999999999993
40
0.499999999999993
40
0.531249999999993
40
0.531249999999993
40
0.562499999999994
40
0.562499999999994
40
0.624999999999995
40
0.624999999999995
40
0.749999999999997
40
0.749999999999997
40
0.874999999999999
40
0.874999999999999
40
0.9375
40
0.9375
40
0.96875
40
0.96875
40
1
40
1
40
1
40
1
41
1
10
58.625228330176
20
-0.584450347427264
30
0
41
1
10
58.6319489169144
20
-0.722381378917703
30
0
41
1
10
58.6387128472883
20
-0.859647301558311
30
0
41
1
10
58.6473047671043
20
-1.03036747860861
30
0
41
1
10
58.6490319537952
20
-1.0645119737004
30
0
41
1
10
58.6524823797153
20
-1.13235463326947
30
0
41
1
10
58.6576564717926
20
-1.23353828366385
30
0
41
1
10
58.6628297720313
20
-1.33300166318145
30
0
41
1
10
58.6731805598707
20
-1.52967189388926
30
0
41
1
10
58.6800871416955
20
-1.65778250800596
30
0
41
1
10
58.6939147569077
20
-1.90805001705877
30
0
41
1
10
58.7008344826472
20
-2.03020719893524
30
0
41
1
10
58.7094930336808
20
-2.17909588728728
30
0
41
1
10
58.7112252434201
20
-2.20868274860391
30
0
41
1
10
58.7146910056373
20
-2.2674705278157
30
0
41
1
10
58.7164271006488
20
-2.29671375911653
30
0
41
1
10
58.7216143343073
20
-2.38345890000545
30
0
41
1
10
58.7250455581093
20
-2.4400011770764
30
0
41
1
10
58.7352705470019
20
-2.6058437463135
30
0
41
1
10
58.7419929457223
20
-2.71136969312778
30
0
41
1
10
58.7553661381073
20
-2.91251886206638
30
0
41
1
10
58.7620153874173
20
-3.00814199754461
30
0
41
1
10
58.7720992339189
20
-3.14403705604084
30
0
41
1
10
58.7754808146668
20
-3.18807630712223
30
0
41
1
10
58.7806099550483
20
-3.25220918120667
30
0
41
1
10
58.7823308379548
20
-3.27329430899923
30
0
41
1
10
58.7857773618186
20
-3.31466381072968
30
0
41
1
10
58.7875016391097
20
-3.33493328108665
30
0
41
1
10
58.7892266845337
20
-3.35479231577892
30
0
0
SPLINE
5
190
100
AcDbEntity
8
1
62
256
6
ByLayer
370
18
48
1
60
0
100
AcDbSpline
70
4
71
3
72
28
73
24
40
0
40
0
40
0
40
0
40
0.125
40
0.125
40
0.250000000000001
40
0.250000000000001
40
0.281250000000001
40
0.281250000000001
40
0.312500000000001
40
0.375000000000002
40
0.375000000000002
40
0.500000000000002
40
0.625000000000003
40
0.625000000000003
40
0.656250000000003
40
0.656250000000003
40
0.687500000000003
40
0.687500000000003
40
0.750000000000002
40
0.750000000000002
40
0.875000000000001
40
0.875000000000001
40
1
40
1
40
1
40
1
41
1
10
58.925173454847
20
-3.43008345264494
30
0
41
1
10
58.9183128454952
20
-3.35510924490706
30
0
41
1
10
58.9114506249647
20
-3.27426175939311
30
0
41
1
10
58.8976632823048
20
-3.10078958730591
30
0
41
1
10
58.8907356064827
20
-3.00816621016409
30
0
41
1
10
58.8820246329855
20
-2.88476646980243
30
0
41
1
10
58.8802828084423
20
-2.85974185798378
30
0
41
1
10
58.876813902998
20
-2.80921146439405
30
0
41
1
10
58.8716262972816
20
-2.73260500292949
30
0
41
1
10
58.8664837585538
20
-2.65359333540388
30
0
41
1
10
58.8562466090444
20
-2.49241093932423
30
0
41
1
10
58.8427276708234
20
-2.26909315163297
30
0
41
1
10
58.8292542841632
20
-2.02906429125485
30
0
41
1
10
58.8207565318698
20
-1.87369036710959
30
0
41
1
10
58.8190530996911
20
-1.84234709032245
30
0
41
1
10
58.8156360261963
20
-1.77911736094012
30
0
41
1
10
58.8139234209477
20
-1.74724956300443
30
0
41
1
10
58.8087967860855
20
-1.65138975415604
30
0
41
1
10
58.8053841043391
20
-1.58696165690162
30
0
41
1
10
58.795135659318
20
-1.39214386247659
30
0
41
1
10
58.7882755490435
20
-1.26022531389251
30
0
41
1
10
58.7745131329472
20
-0.992366200254224
30
0
41
1
10
58.767622434036
20
-0.856425106489667
30
0
41
1
10
58.7607073604967
20
-0.71843783188865
30
0
0
SPLINE
5
191
100
AcDbEntity
8
1
62
256
6
ByLayer
370
18
48
1
60
0
100
AcDbSpline
70
4
71
3
72
8
73
4
40
0
40
0
40
0
40
0
40
1
40
1
40
1
40
1
41
1
10
62.261299823808
20
3.53347834104969
30
0
41
1
10
62.2178435368717
20
3.55521974876731
30
0
41
1
10
62.1743644623275
20
3.57640513790682
30
0
41
1
10
62.1307617146983
20
3.59697807523827
30
0
0
SPLINE
5
192
100
AcDbEntity
8
1
62
256
6
ByLayer
370
18
48
1
60
0
100
AcDbSpline
70
4
71
3
72
8
73
4
40
0
40
0
40
0
40
0
40
1
40
1
40
1
40
1
41
1
10
62.261299823808
20
3.53347834104969
30
0
41
1
10
62.2632981221105
20
3.53200767887503
30
0
41
1
10
62.2652967114822
20
3.53053588783524
30
0
41
1
10
62.2672955930548
20
3.52906297016921
30
0
0
SPLINE
5
193
100
AcDbEntity
8
1
62
256
6
ByLayer
370
18
48
1
60
0
100
AcDbSpline
70
4
71
3
72
10
73
6
40
0
40
0
40
0
40
0
40
0.5
40
0.5
40
1
40
1
40
1
40
1
41
1
10
62.2672955930549
20
3.52906297016921
30
0
41
1
10
62.3376823047421
20
3.38667541583672
30
0
41
1
10
62.4086282467167
20
3.24399945779945
30
0
41
1
10
62.5520412301715
20
2.95838631194942
30
0
41
1
10
62.6242661491557
20
2.81593331192727
30
0
41
1
10
62.6972451129538
20
2.6739543388646
30
0
0
SPLINE
5
194
100
AcDbEntity
8
1
62
256
6
ByLayer
370
18
48
1
60
0
100
AcDbSpline
70
4
71
3
72
32
73
28
40
0
40
0
40
0
40
0
40
0.125000000000013
40
0.125000000000013
40
0.187499999999994
40
0.187499999999994
40
0.249999999999975
40
0.249999999999975
40
0.374999999999879
40
0.374999999999879
40
0.437499999999864
40
0.437499999999864
40
0.49999999999985
40
0.49999999999985
40
0.624999999999889
40
0.624999999999889
40
0.687499999999907
40
0.687499999999907
40
0.749999999999926
40
0.749999999999926
40
0.812499999999944
40
0.812499999999944
40
0.874999999999963
40
0.874999999999963
40
0.937499999999981
40
0.937499999999981
40
1
40
1
40
1
40
1
41
1
10
62.6972451129539
20
2.6739543388646
30
0
41
1
10
62.7064237037714
20
2.6560975917883
30
0
41
1
10
62.7171214861539
20
2.63948221003145
30
0
41
1
10
62.7348802169803
20
2.6159539191309
30
0
41
1
10
62.741092371341
20
2.60834962512379
30
0
41
1
10
62.7540686122811
20
2.59359100244302
30
0
41
1
10
62.7607638523335
20
2.58651766773875
30
0
41
1
10
62.7812446978106
20
2.5663045294132
30
0
41
1
10
62.7954924867436
20
2.55407695660591
30
0
41
1
10
62.8176679776797
20
2.53746687485366
30
0
41
1
10
62.825221203381
20
2.53220550188021
30
0
41
1
10
62.8404811352252
20
2.52235679294762
30
0
41
1
10
62.8481380487729
20
2.517798755055
30
0
41
1
10
62.8711778853036
20
2.50520413560832
30
0
41
1
10
62.8866292727311
20
2.49822970440627
30
0
41
1
10
62.9099102940709
20
2.49010868335404
30
0
41
1
10
62.9177311926402
20
2.4877871042078
30
0
41
1
10
62.933128823962
20
2.48409086829517
30
0
41
1
10
62.9407124818154
20
2.48270799752442
30
0
41
1
10
62.9556236863211
20
2.48094386581659
30
0
41
1
10
62.9629515468154
20
2.48056157088837
30
0
41
1
10
62.9773087918593
20
2.48093918592892
30
0
41
1
10
62.9843503811751
20
2.48171147658974
30
0
41
1
10
62.9976642456512
20
2.48452500117145
30
0
41
1
10
63.003988805892
20
2.48656220961877
30
0
41
1
10
63.0158685911271
20
2.49209665342272
30
0
41
1
10
63.0214429313847
20
2.49562003417552
30
0
41
1
10
63.026408535804
20
2.49992561507864
30
0
0
SPLINE
5
195
100
AcDbEntity
8
1
62
256
6
ByLayer
370
18
48
1
60
0
100
AcDbSpline
70
4
71
3
72
10
73
6
40
0
40
0
40
0
40
0
40
0.5
40
0.5
40
1
40
1
40
1
40
1
41
1
10
63.0264085358039
20
2.49992561507955
30
0
41
1
10
63.0708436259066
20
2.53845443437731
30
0
41
1
10
63.1150366947798
20
2.57486999083852
30
0
41
1
10
63.2030318194284
20
2.6435357820466
30
0
41
1
10
63.2468435765514
20
2.67579223293919
30
0
41
1
10
63.2904115367127
20
2.70591410750595
30
0
0
SPLINE
5
196
100
AcDbEntity
8
1
62
256
6
ByLayer
370
18
48
1
60
0
100
AcDbSpline
70
4
71
3
72
10
73
6
40
0
40
0
40
0
40
0
40
0.5
40
0.5
40
1
40
1
40
1
40
1
41
1
10
63.2904115367127
20
2.70591410750598
30
0
41
1
10
63.3787667388987
20
2.62971858921216
30
0
41
1
10
63.467144563962
20
2.5524006440202
30
0
41
1
10
63.644040891745
20
2.39562086302715
30
0
41
1
10
63.7325381103719
20
2.3161415514418
30
0
41
1
10
63.8213209710324
20
2.23576471898701
30
0
0
SPLINE
5
197
100
AcDbEntity
8
1
62
256
6
ByLayer
370
18
48
1
60
0
100
AcDbSpline
70
4
71
3
72
8
73
4
40
0
40
0
40
0
40
0
40
1
40
1
40
1
40
1
41
1
10
63.8213209710324
20
2.23576471898701
30
0
41
1
10
63.8842978186577
20
2.11617322583993
30
0
41
1
10
63.9477153318221
20
1.99855904799884
30
0
41
1
10
64.0117230416847
20
1.88298818396984
30
0
0
SPLINE
5
198
100
AcDbEntity
8
1
62
256
6
ByLayer
370
18
48
1
60
0
100
AcDbSpline
70
4
71
3
72
31
73
27
40
0
40
0
40
0
40
0
40
0.124999999999927
40
0.124999999999927
40
0.187499999999891
40
0.187499999999891
40
0.249999999999854
40
0.249999999999854
40
0.374999999999781
40
0.374999999999781
40
0.437499999999776
40
0.437499999999776
40
0.499999999999772
40
0.499999999999772
40
0.624999999999829
40
0.624999999999829
40
0.687499999999858
40
0.687499999999858
40
0.749999999999886
40
0.812499999999915
40
0.812499999999915
40
0.874999999999943
40
0.874999999999943
40
0.937499999999971
40
0.937499999999971
40
1
40
1
40
1
40
1
41
1
10
64.0117230416847
20
1.88298818396982
30
0
41
1
10
64.0209082327428
20
1.8664036120623
30
0
41
1
10
64.0316129396556
20
1.85037060456568
30
0
41
1
10
64.0493801799759
20
1.82695218452079
30
0
41
1
10
64.055594885845
20
1.81925363537368
30
0
41
1
10
64.0685754282909
20
1.80405919558453
30
0
41
1
10
64.0752716008686
20
1.79664688618601
30
0
41
1
10
64.0957553821775
20
1.7750897589203
30
0
41
1
10
64.110003837762
20
1.76153390016305
30
0
41
1
10
64.1321787091563
20
1.74231659068411
30
0
41
1
10
64.1397311319345
20
1.73607901030357
30
0
41
1
10
64.1549907586445
20
1.72407777163912
30
0
41
1
10
64.1626474667893
20
1.71835165045155
30
0
41
1
10
64.1856865960367
20
1.7019772376793
30
0
41
1
10
64.201137423102
20
1.69212026469734
30
0
41
1
10
64.2244172691996
20
1.6790553603999
30
0
41
1
10
64.2322378397459
20
1.67497046575141
30
0
41
1
10
64.2476384131819
20
1.66757444661059
30
0
41
1
10
64.2628083203738
20
1.66093843695802
30
0
41
1
10
64.2774666613809
20
1.65592802953262
30
0
41
1
10
64.2918262608288
20
1.65184321195559
30
0
41
1
10
64.2988705634486
20
1.65026845194996
30
0
41
1
10
64.312189867355
20
1.64827749515229
30
0
41
1
10
64.3185168919275
20
1.64784244165753
30
0
41
1
10
64.33040104501
20
1.64826960559495
30
0
41
1
10
64.3359781901513
20
1.64914502263127
30
0
41
1
10
64.3409468471479
20
1.65077748599737
30
0
0
SPLINE
5
199
100
AcDbEntity
8
1
62
256
6
ByLayer
370
18
48
1
60
0
100
AcDbSpline
70
4
71
3
72
8
73
4
40
0
40
0
40
0
40
0
40
1
40
1
40
1
40
1
41
1
10
64.3409468471478
20
1.65077748599845
30
0
41
1
10
64.3720454933817
20
1.66099501575468
30
0
41
1
10
64.4030230315245
20
1.67004755543894
30
0
41
1
10
64.4338953323523
20
1.67795311116885
30
0
0
SPLINE
5
19A
100
AcDbEntity
8
1
62
256
6
ByLayer
370
18
48
1
60
0
100
AcDbSpline
70
4
71
3
72
20
73
16
40
0
40
0
40
0
40
0
40
0.249999999999987
40
0.249999999999987
40
0.374999999999989
40
0.374999999999989
40
0.499999999999991
40
0.499999999999991
40
0.624999999999993
40
0.624999999999993
40
0.749999999999996
40
0.749999999999996
40
0.874999999999998
40
0.874999999999998
40
1
40
1
40
1
40
1
41
1
10
64.4338953323523
20
1.67795311116885
30
0
41
1
10
64.5370109062637
20
1.58375739532735
30
0
41
1
10
64.6409149317961
20
1.48883796202449
30
0
41
1
10
64.798096955534
20
1.34553670801526
30
0
41
1
10
64.8507240112859
20
1.29761144097409
30
0
41
1
10
64.9559398941634
20
1.20197784573193
30
0
41
1
10
65.0085939838737
20
1.15420990920086
30
0
41
1
10
65.1140252324391
20
1.05880631828126
30
0
41
1
10
65.1668037693828
20
1.01117220625915
30
0
41
1
10
65.2724971508529
20
0.916051175015099
30
0
41
1
10
65.325388955989
20
0.868538467697505
30
0
41
1
10
65.4315240633443
20
0.773901150981715
30
0
41
1
10
65.4847974044488
20
0.726810162373965
30
0
41
1
10
65.5919550996181
20
0.633306919627728
30
0
41
1
10
65.6458289016092
20
0.586882858799527
30
0
41
1
10
65.6999999186302
20
0.540788969284478
30
0
0
SPLINE
5
19B
100
AcDbEntity
8
1
62
256
6
ByLayer
370
18
48
1
60
0
100
AcDbSpline
70
4
71
3
72
10
73
6
40
0
40
0
40
0
40
0
40
0.5
40
0.5
40
1
40
1
40
1
40
1
41
1
10
65.6999999186302
20
0.540788969284449
30
0
41
1
10
65.748153934879
20
0.489397480026156
30
0
41
1
10
65.797165308207
20
0.440700646274337
30
0
41
1
10
65.897173799125
20
0.34934813760762
30
0
41
1
10
65.9481038947098
20
0.306774755612878
30
0
41
1
10
66.0000000000003
20
0.267773770477333
30
0
0
SPLINE
5
19C
100
AcDbEntity
8
1
62
256
6
ByLayer
370
18
48
1
60
0
100
AcDbSpline
70
4
71
3
72
10
73
6
40
0
40
0
40
0
40
0
40
0.344825672185775
40
0.344825672185775
40
1
40
1
40
1
40
1
41
1
10
52.8542655958327
20
-3.58091574628074
30
0
41
1
10
52.7918536686438
20
-3.54469439500051
30
0
41
1
10
52.7290798380773
20
-3.50652917141613
30
0
41
1
10
52.5458198707387
20
-3.39027194332653
30
0
41
1
10
52.4242181913904
20
-3.30714456178549
30
0
41
1
10
52.3005174772573
20
-3.21699479133636
30
0
0
SPLINE
5
19D
100
AcDbEntity
8
1
62
256
6
ByLayer
370
18
48
1
60
0
100
AcDbSpline
70
4
71
3
72
12
73
8
40
0
40
0
40
0
40
0
40
0.250000000000011
40
0.250000000000011
40
0.500000000000021
40
0.500000000000021
40
1
40
1
40
1
40
1
41
1
10
52.3005174772729
20
-3.21699479134773
30
0
41
1
10
52.2591192944494
20
-3.1868249034479
30
0
41
1
10
52.2165606300527
20
-3.1588748953765
30
0
41
1
10
52.1289668958368
20
-3.10728088907066
30
0
41
1
10
52.0839133195473
20
-3.08365622571998
30
0
41
1
10
51.9456971347666
20
-3.01960502815254
30
0
41
1
10
51.8495023883531
20
-2.98592639968899
30
0
41
1
10
51.7505174772729
20
-2.96244369831973
30
0
0
SPLINE
5
19E
100
AcDbEntity
8
1
62
256
6
ByLayer
370
18
48
1
60
0
100
AcDbSpline
70
4
71
3
72
74
73
70
40
0
40
0
40
0
40
0
40
0.0312499999999996
40
0.0312499999999996
40
0.0468750000000007
40
0.0468750000000007
40
0.0625000000000017
40
0.125000000000003
40
0.125000000000003
40
0.156250000000004
40
0.156250000000004
40
0.187500000000005
40
0.187500000000005
40
0.203125000000005
40
0.203125000000005
40
0.210937500000005
40
0.210937500000005
40
0.218750000000006
40
0.250000000000006
40
0.250000000000006
40
0.281250000000007
40
0.281250000000007
40
0.312500000000008
40
0.312500000000008
40
0.343750000000008
40
0.343750000000008
40
0.375000000000009
40
0.375000000000009
40
0.40625000000001
40
0.40625000000001
40
0.42187500000001
40
0.42187500000001
40
0.437500000000011
40
0.437500000000011
40
0.468750000000009
40
0.468750000000009
40
0.500000000000007
40
0.500000000000007
40
0.562500000000004
40
0.562500000000004
40
0.593750000000002
40
0.593750000000002
40
0.609375000000003
40
0.609375000000003
40
0.625000000000003
40
0.625000000000003
40
0.687499999999997
40
0.687499999999997
40
0.749999999999992
40
0.749999999999992
40
0.781249999999989
40
0.781249999999989
40
0.812499999999986
40
0.812499999999986
40
0.820312499999987
40
0.820312499999987
40
0.828124999999988
40
0.828124999999988
40
0.84374999999999
40
0.84374999999999
40
0.874999999999992
40
0.874999999999992
40
0.890624999999993
40
0.890624999999993
40
0.906249999999994
40
0.906249999999994
40
0.937499999999996
40
0.937499999999996
40
1
40
1
40
1
40
1
41
1
10
51.7505174772729
20
-2.96244369831973
30
0
41
1
10
51.635682867468
20
-2.93520089111334
30
0
41
1
10
51.5213340878478
20
-2.9044958278113
30
0
41
1
10
51.3501287120667
20
-2.85357548560938
30
0
41
1
10
51.2930935313245
20
-2.83580374628045
30
0
41
1
10
51.1792050169215
20
-2.79861717405592
30
0
41
1
10
50.8949397319388
20
-2.7015367025293
30
0
41
1
10
50.6122986855542
20
-2.58430124824324
30
0
41
1
10
50.2724455159612
20
-2.42583556240837
30
0
41
1
10
50.1590487519287
20
-2.37004903930682
30
0
41
1
10
49.9316171372406
20
-2.25285803563418
30
0
41
1
10
49.8175582443525
20
-2.19147741864083
30
0
41
1
10
49.6457570256686
20
-2.09536773972062
30
0
41
1
10
49.5884129751586
20
-2.06261633400814
30
0
41
1
10
49.5022440397185
20
-2.01243584890838
30
0
41
1
10
49.473499778241
20
-1.99553728329869
30
0
41
1
10
49.4161181408184
20
-1.96149471933759
30
0
41
1
10
49.2728289970762
20
-1.87571456186876
30
0
41
1
10
49.1302938055741
20
-1.78665266048131
30
0
41
1
10
48.9028416301755
20
-1.64039434460051
30
0
41
1
10
48.7894190920619
20
-1.5653836115188
30
0
41
1
10
48.5627922067112
20
-1.41207327830855
30
0
41
1
10
48.4496054347538
20
-1.33375212520056
30
0
41
1
10
48.2229480738775
20
-1.17443913548817
30
0
41
1
10
48.1094537203202
20
-1.09348184764858
30
0
41
1
10
47.8823746484746
20
-0.928658644173908
30
0
41
1
10
47.768742692804
20
-0.844847331807472
30
0
41
1
10
47.5409309642076
20
-0.674832777598141
30
0
41
1
10
47.4267522653835
20
-0.58862807020185
30
0
41
1
10
47.2547851329403
20
-0.457853268392228
30
0
41
1
10
47.1973374632207
20
-0.414011650318514
30
0
41
1
10
47.0828216249667
20
-0.326422044275461
30
0
41
1
10
47.0256697743548
20
-0.282610624414133
30
0
41
1
10
46.8544449626266
20
-0.151239470654303
30
0
41
1
10
46.7405632530485
20
-0.0637954803356706
30
0
41
1
10
46.5130928100912
20
0.110516861456801
30
0
41
1
10
46.3996184901727
20
0.197537114420868
30
0
41
1
10
46.0596426062896
20
0.457749787546078
30
0
41
1
10
45.8334822513046
20
0.62995372187865
30
0
41
1
10
45.4928441959239
20
0.883547497999842
30
0
41
1
10
45.3790800658346
20
0.967311975048375
30
0
41
1
10
45.2076959086911
20
1.0912759265135
30
0
41
1
10
45.1504271643837
20
1.13229456008389
30
0
41
1
10
45.0356567511407
20
1.21378615570538
30
0
41
1
10
44.9780840694388
20
1.25431061835769
30
0
41
1
10
44.6911375503876
20
1.45451539499032
30
0
41
1
10
44.4637393086246
20
1.6075460985933
30
0
41
1
10
44.0103081383463
20
1.89636261366752
30
0
41
1
10
43.7842747171823
20
2.03213379856461
30
0
41
1
10
43.4436418300961
20
2.22032946295531
30
0
41
1
10
43.3299891718904
20
2.28063861706713
30
0
41
1
10
43.1022787132881
20
2.396162834313
30
0
41
1
10
42.9881908117897
20
2.45134955748071
30
0
41
1
10
42.8450681128156
20
2.51685700226807
30
0
41
1
10
42.8164178618021
20
2.52978461732829
30
0
41
1
10
42.7590601149813
20
2.55528539068342
30
0
41
1
10
42.7303371184939
20
2.56786500800084
30
0
41
1
10
42.6443086079607
20
2.60496028882852
30
0
41
1
10
42.5870797115911
20
2.62886147805506
30
0
41
1
10
42.4156850131094
20
2.69805233737517
30
0
41
1
10
42.301817020426
20
2.74083221527161
30
0
41
1
10
42.131270188965
20
2.79987286662325
30
0
41
1
10
42.074461527333
20
2.81869706574443
30
0
41
1
10
41.9608608613992
20
2.85461560123892
30
0
41
1
10
41.9040771341938
20
2.87171584349383
30
0
41
1
10
41.7339192255495
20
2.92052030370351
30
0
41
1
10
41.6206696581831
20
2.94968862133879
30
0
41
1
10
41.2808898372624
20
3.02678029426591
30
0
41
1
10
41.054353521456
20
3.06429692335752
30
0
41
1
10
40.8262811284789
20
3.08720829910021
30
0
0
SPLINE
5
19F
100
AcDbEntity
8
1
62
256
6
ByLayer
370
18
48
1
60
0
100
AcDbSpline
70
4
71
3
72
96
73
92
40
0
40
0
40
0
40
0
40
0.0177850498751624
40
0.0177850498751624
40
0.0355700997503248
40
0.0355700997503248
40
0.0711401995006474
40
0.0711401995006474
40
0.0889252493758087
40
0.0889252493758087
40
0.10671029925097
40
0.10671029925097
40
0.142280399001295
40
0.142280399001295
40
0.160065448876456
40
0.160065448876456
40
0.177850498751617
40
0.177850498751617
40
0.213420598501942
40
0.213420598501942
40
0.248990698252267
40
0.248990698252267
40
0.266775748127429
40
0.266775748127429
40
0.275668273065012
40
0.275668273065012
40
0.284560798002594
40
0.284560798002594
40
0.302345847877759
40
0.302345847877759
40
0.320130897752924
40
0.320130897752924
40
0.355700997503253
40
0.355700997503253
40
0.391271097253582
40
0.391271097253582
40
0.426841197003912
40
0.426841197003912
40
0.444626246879075
40
0.444626246879075
40
0.462411296754239
40
0.462411296754239
40
0.471303821691821
40
0.471303821691821
40
0.480196346629402
40
0.497981396504568
40
0.497981396504568
40
0.533551496254902
40
0.533551496254902
40
0.551336546130069
40
0.551336546130069
40
0.569121596005235
40
0.569121596005235
40
0.586906645880402
40
0.586906645880402
40
0.604691695755569
40
0.604691695755569
40
0.640261795505903
40
0.640261795505903
40
0.65804684538107
40
0.65804684538107
40
0.666939370318652
40
0.666939370318652
40
0.675831895256234
40
0.675831895256234
40
0.693616945131397
40
0.693616945131397
40
0.711401995006559
40
0.711401995006559
40
0.746972094756886
40
0.746972094756886
40
0.782542194507213
40
0.782542194507213
40
0.818112294257541
40
0.818112294257541
40
0.853682394007868
40
0.853682394007868
40
0.862574918945449
40
0.862574918945449
40
0.87146744388303
40
0.889252493758195
40
0.889252493758195
40
0.924822593508526
40
0.924822593508526
40
0.960392693258858
40
0.960392693258858
40
0.978177743134024
40
0.978177743134024
40
0.99596279300919
40
0.99596279300919
40
1
40
1
40
1
40
1
41
1
10
38.5325536372192
20
1.69897292089894
30
0
41
1
10
38.6018513286485
20
1.65442299106209
30
0
41
1
10
38.6710476226495
20
1.60912409154608
30
0
41
1
10
38.8092636211057
20
1.51705269023901
30
0
41
1
10
38.8782373098442
20
1.47022627787436
30
0
41
1
10
39.0853413975739
20
1.32804045948555
30
0
41
1
10
39.2237632882009
20
1.23111193001341
30
0
41
1
10
39.4320439321924
20
1.08269186594976
30
0
41
1
10
39.5016348186136
20
1.0326679237445
30
0
41
1
10
39.6403253714065
20
0.932090476119839
30
0
41
1
10
39.7095038980714
20
0.881486840722289
30
0
41
1
10
39.9166174937694
20
0.728835984931436
30
0
41
1
10
40.0541424898494
20
0.625964847110424
30
0
41
1
10
40.2597692560489
20
0.470222404549361
30
0
41
1
10
40.3281983791956
20
0.418064931003215
30
0
41
1
10
40.4648259817439
20
0.313256401183196
30
0
41
1
10
40.5330630524272
20
0.260655716796691
30
0
41
1
10
40.7381387471315
20
0.103048817765028
30
0
41
1
10
40.8751183934966
20
-0.0020551456571241
30
0
41
1
10
41.14979258084
20
-0.212072173186215
30
0
41
1
10
41.2874655271521
20
-0.317014070533219
30
0
41
1
10
41.4947139488892
20
-0.474022954670403
30
0
41
1
10
41.5639187870027
20
-0.526293518522891
30
0
41
1
10
41.6679234828404
20
-0.604583956095553
30
0
41
1
10
41.7026531189757
20
-0.630683139902999
30
0
41
1
10
41.7720298796595
20
-0.682730378216604
30
0
41
1
10
41.8066604414499
20
-0.708666103110573
30
0
41
1
10
41.9103785691979
20
-0.786211038868515
30
0
41
1
10
41.9792458026799
20
-0.837618333828061
30
0
41
1
10
42.1167581515822
20
-0.939424236729451
30
0
41
1
10
42.1854702089521
20
-0.989738158401963
30
0
41
1
10
42.3915443415079
20
-1.13886431156041
30
0
41
1
10
42.5287853405652
20
-1.23594049171143
30
0
41
1
10
42.8030262876004
20
-1.42545201114069
30
0
41
1
10
42.9400603463092
20
-1.51784438014639
30
0
41
1
10
43.214195861972
20
-1.69760293034665
30
0
41
1
10
43.3512817679568
20
-1.78498741404505
30
0
41
1
10
43.5570927284861
20
-1.91204690359456
30
0
41
1
10
43.6257304679166
20
-1.95372345046346
30
0
41
1
10
43.7635086145976
20
-2.0352571834853
30
0
41
1
10
43.8326131799566
20
-2.07515377600547
30
0
41
1
10
43.9366051712227
20
-2.13367799409116
30
0
41
1
10
43.9713548398457
20
-2.15298236461572
30
0
41
1
10
44.0407985793581
20
-2.19105839665582
30
0
41
1
10
44.1448567349896
20
-2.24736353525412
30
0
41
1
10
44.2485954591678
20
-2.30126529012637
30
0
41
1
10
44.4556937575284
20
-2.40586957729644
30
0
41
1
10
44.5932396509869
20
-2.47135831809584
30
0
41
1
10
44.7989539351757
20
-2.56313701845903
30
0
41
1
10
44.8674251306231
20
-2.59265251885589
30
0
41
1
10
45.0041788251391
20
-2.64950980166157
30
0
41
1
10
45.072452477908
20
-2.67685581711899
30
0
41
1
10
45.2090216356834
20
-2.72921607510844
30
0
41
1
10
45.2773355380074
20
-2.75421777017348
30
0
41
1
10
45.4142988469078
20
-2.80171300837597
30
0
41
1
10
45.4828845652167
20
-2.82424783313402
30
0
41
1
10
45.6888756787484
20
-2.88826161302575
30
0
41
1
10
45.8265782649979
20
-2.92611801306938
30
0
41
1
10
46.0338878595898
20
-2.97546978807785
30
0
41
1
10
46.1031166832113
20
-2.99068033335084
30
0
41
1
10
46.2071751421497
20
-3.01159639960673
30
0
41
1
10
46.2419270213871
20
-3.01825695209729
30
0
41
1
10
46.311308567118
20
-3.03090216769624
30
0
41
1
10
46.3459456069726
20
-3.03688895425543
30
0
41
1
10
46.4496984620633
20
-3.05384493814162
30
0
41
1
10
46.5186495974711
20
-3.06381193800897
30
0
41
1
10
46.6561515641063
20
-3.08106928013154
30
0
41
1
10
46.7247245078815
20
-3.08835098089773
30
0
41
1
10
46.9304595200338
20
-3.1061067241435
30
0
41
1
10
47.067591104524
20
-3.1125263344189
30
0
41
1
10
47.3417856348494
20
-3.11480559369386
30
0
41
1
10
47.4788878419382
20
-3.11066244192824
30
0
41
1
10
47.7531565012266
20
-3.09179627374712
30
0
41
1
10
47.8903515601065
20
-3.07707307693178
30
0
41
1
10
48.1651084774447
20
-3.03682661951484
30
0
41
1
10
48.302525753299
20
-3.011218632598
30
0
41
1
10
48.4757976370285
20
-2.97269082127704
30
0
41
1
10
48.5105425021439
20
-2.96464954453813
30
0
41
1
10
48.5799308197035
20
-2.94795117224976
30
0
41
1
10
48.6839031822637
20
-2.92197443533004
30
0
41
1
10
48.7875783497333
20
-2.89325048698129
30
0
41
1
10
48.9945912041728
20
-2.83221980472808
30
0
41
1
10
49.1321401984503
20
-2.78675629317277
30
0
41
1
10
49.4065597748639
20
-2.68652883659837
30
0
41
1
10
49.543444080847
20
-2.63177622596052
30
0
41
1
10
49.7483440064058
20
-2.54265788207942
30
0
41
1
10
49.816568249635
20
-2.51177732798641
30
0
41
1
10
49.9533302019435
20
-2.44802768265743
30
0
41
1
10
50.0218171794569
20
-2.4151221832644
30
0
41
1
10
50.1059887491385
20
-2.37349342593041
30
0
41
1
10
50.1215669188482
20
-2.36573959917806
30
0
41
1
10
50.1371513301218
20
-2.35793351267341
30
0
0
SPLINE
5
1A0
100
AcDbEntity
8
1
62
256
6
ByLayer
370
18
48
1
60
0
100
AcDbSpline
70
4
71
3
72
26
73
22
40
0
40
0
40
0
40
0
40
0.0016225816486147
40
0.0016225816486147
40
0.101460323483753
40
0.101460323483753
40
0.201298065318892
40
0.201298065318892
40
0.400973548989169
40
0.400973548989169
40
0.500811290824308
40
0.500811290824308
40
0.600649032659446
40
0.600649032659446
40
0.700486774494585
40
0.700486774494585
40
0.800324516329723
40
0.800324516329723
40
0.900162258164862
40
0.900162258164862
40
1
40
1
40
1
40
1
41
1
10
60.1808795687578
20
3.2815104927154
30
0
41
1
10
60.1809996185745
20
3.28147382392473
30
0
41
1
10
60.1811197038832
20
3.28143725949747
30
0
41
1
10
60.1886308772779
20
3.27915740155441
30
0
41
1
10
60.1961835172314
20
3.27730888001736
30
0
41
1
10
60.2114434406738
20
3.27445802180517
30
0
41
1
10
60.2191006426177
20
3.27346187392459
30
0
41
1
10
60.2421420159633
20
3.27174823049827
30
0
41
1
10
60.2575952593915
20
3.27228458557565
30
0
41
1
10
60.2808807966446
20
3.27589614547878
30
0
41
1
10
60.2887036188045
20
3.27758688186489
30
0
41
1
10
60.3041081385857
20
3.28195546515744
30
0
41
1
10
60.3116955798955
20
3.28462727390942
30
0
41
1
10
60.3266152148095
20
3.29102634071239
30
0
41
1
10
60.3339477205957
20
3.29475246288533
30
0
41
1
10
60.348315434148
20
3.30341331036084
30
0
41
1
10
60.3553632901934
20
3.3083703360503
30
0
41
1
10
60.3686906284
20
3.3193833843128
30
0
41
1
10
60.3750223814226
20
3.32546437753723
30
0
41
1
10
60.3869171163103
20
3.33895829981634
30
0
41
1
10
60.3924987883656
20
3.34641351253578
30
0
41
1
10
60.3974703705799
20
3.35446554428537
30
0
0
SPLINE
5
1A1
100
AcDbEntity
8
1
62
256
6
ByLayer
370
18
48
1
60
0
100
AcDbSpline
70
4
71
3
72
12
73
8
40
0
40
0
40
0
40
0
40
0.25
40
0.25
40
0.5
40
0.5
40
1
40
1
40
1
40
1
41
1
10
60.3974703705799
20
3.35446554428549
30
0
41
1
10
60.4329954170907
20
3.41200231830962
30
0
41
1
10
60.4683612601329
20
3.46892674200455
30
0
41
1
10
60.5388246789336
20
3.58155552882698
30
0
41
1
10
60.5739374628769
20
3.63728375964661
30
0
41
1
10
60.678801963352
20
3.80240692357066
30
0
41
1
10
60.748102305576
20
3.90975841533137
30
0
41
1
10
60.8168383972086
20
4.01425101643653
30
0
0
SPLINE
5
1A2
100
AcDbEntity
8
1
62
256
6
ByLayer
370
18
48
1
60
0
100
AcDbSpline
70
4
71
3
72
8
73
4
40
0
40
0
40
0
40
0
40
1
40
1
40
1
40
1
41
1
10
60.9516918110844
20
3.99014785703392
30
0
41
1
10
60.9067265719134
20
3.99891233737506
30
0
41
1
10
60.8617758528897
20
4.00694892166581
30
0
41
1
10
60.8168383972086
20
4.01425101643645
30
0
0
SPLINE
5
1A3
100
AcDbEntity
8
1
62
256
6
ByLayer
370
18
48
1
60
0
100
AcDbSpline
70
4
71
3
72
10
73
6
40
0
40
0
40
0
40
0
40
0.5
40
0.5
40
1
40
1
40
1
40
1
41
1
10
60.951691811083
20
3.9901478570192
30
0
41
1
10
61.0223365172625
20
3.86080826206424
30
0
41
1
10
61.093523411207
20
3.72908951436594
30
0
41
1
10
61.2373138344233
20
3.4610868602542
30
0
41
1
10
61.309679099363
20
3.32525258115345
30
0
41
1
10
61.3827555075834
20
3.18767811529315
30
0
0
SPLINE
5
1A4
100
AcDbEntity
8
1
62
256
6
ByLayer
370
18
48
1
60
0
100
AcDbSpline
70
4
71
3
72
32
73
28
40
0
40
0
40
0
40
0
40
0.125000000000032
40
0.125000000000032
40
0.187500000000049
40
0.187500000000049
40
0.250000000000066
40
0.250000000000066
40
0.3750000000001
40
0.3750000000001
40
0.437500000000118
40
0.437500000000118
40
0.500000000000135
40
0.500000000000135
40
0.625000000000101
40
0.625000000000101
40
0.687500000000084
40
0.687500000000084
40
0.750000000000068
40
0.750000000000068
40
0.812500000000051
40
0.812500000000051
40
0.875000000000034
40
0.875000000000034
40
0.937500000000017
40
0.937500000000017
40
1
40
1
40
1
40
1
41
1
10
61.3827555075834
20
3.18767811529315
30
0
41
1
10
61.3919341974222
20
3.17039821083944
30
0
41
1
10
61.4026314907672
20
3.15491684267769
30
0
41
1
10
61.4203885391722
20
3.13370391893815
30
0
41
1
10
61.4265999574171
20
3.12697675000996
30
0
41
1
10
61.4395742433085
20
3.11417133238015
30
0
41
1
10
61.4462679028431
20
3.10816433202572
30
0
41
1
10
61.4667449342489
20
3.09136723790519
30
0
41
1
10
61.4809903322138
20
3.08171526523111
30
0
41
1
10
61.5031622843553
20
3.06939737692881
30
0
41
1
10
61.510713683844
20
3.06564469393717
30
0
41
1
10
61.5259736469674
20
3.05893868625267
30
0
41
1
10
61.5336307348936
20
3.05600490798179
30
0
41
1
10
61.5566716629065
20
3.0484442737019
30
0
41
1
10
61.5721245444761
20
3.04503793102327
30
0
41
1
10
61.5954091992729
20
3.04264234171893
30
0
41
1
10
61.6032318200417
20
3.04230355851408
30
0
41
1
10
61.6186391211555
20
3.04264643282571
30
0
41
1
10
61.6262278085807
20
3.04332077023304
30
0
41
1
10
61.6411494726921
20
3.0457555876871
30
0
41
1
10
61.648482766919
20
3.04751492931956
30
0
41
1
10
61.6628512408824
20
3.05227513126496
30
0
41
1
10
61.6698997384464
20
3.05529458990995
30
0
41
1
10
61.6832269138042
20
3.06258503629868
30
0
41
1
10
61.6895578296089
20
3.06686695195216
30
0
41
1
10
61.7014493457041
20
3.07690596453082
30
0
41
1
10
61.7070288414545
20
3.08269930948538
30
0
41
1
10
61.711998013636
20
3.0892211294634
30
0
0
SPLINE
5
1A5
100
AcDbEntity
8
1
62
256
6
ByLayer
370
18
48
1
60
0
100
AcDbSpline
70
4
71
3
72
12
73
8
40
0
40
0
40
0
40
0
40
0.249999999999994
40
0.249999999999994
40
0.499999999999988
40
0.499999999999988
40
1
40
1
40
1
40
1
41
1
10
61.7119980136359
20
3.08922112946397
30
0
41
1
10
61.7474522702096
20
3.13575328218067
30
0
41
1
10
61.7827544194281
20
3.18125158343835
30
0
41
1
10
61.8531010873553
20
3.27018858154284
30
0
41
1
10
61.8881603599498
20
3.31364519074222
30
0
41
1
10
61.9929027129679
20
3.44077483288942
30
0
41
1
10
62.0621457685024
20
3.52120080056761
30
0
41
1
10
62.1307617146983
20
3.5969780752383
30
0
0
SPLINE
5
1A6
100
AcDbEntity
8
1
62
256
6
ByLayer
370
18
48
1
60
0
100
AcDbSpline
70
4
71
3
72
8
73
4
40
0
40
0
40
0
40
0
40
1
40
1
40
1
40
1
41
1
10
53.6743661781122
20
1.17480093670971
30
0
41
1
10
53.5963217269174
20
1.24626724222585
30
0
41
1
10
53.518144360452
20
1.31456442803815
30
0
41
1
10
53.4396940847096
20
1.37964773180428
30
0
0
SPLINE
5
1A7
100
AcDbEntity
8
1
62
256
6
ByLayer
370
18
48
1
60
0
100
AcDbSpline
70
4
71
3
72
12
73
8
40
0
40
0
40
0
40
0
40
0.25
40
0.25
40
0.499999999999999
40
0.499999999999999
40
1
40
1
40
1
40
1
41
1
10
53.4396940847096
20
1.37964773180428
30
0
41
1
10
53.411453038743
20
1.39919408612948
30
0
41
1
10
53.3831319966944
20
1.41773183146523
30
0
41
1
10
53.3263022237106
20
1.45276110121304
30
0
41
1
10
53.2977868258494
20
1.46925527255317
30
0
41
1
10
53.2120699729902
20
1.51553449773502
30
0
41
1
10
53.1546530549448
20
1.54215789936916
30
0
41
1
10
53.0968387690917
20
1.56439572256369
30
0
0
SPLINE
5
1A8
100
AcDbEntity
8
1
62
256
6
ByLayer
370
18
48
1
60
0
100
AcDbSpline
70
4
71
3
72
28
73
24
40
0
40
0
40
0
40
0
40
0.125
40
0.125
40
0.25
40
0.25
40
0.375
40
0.375
40
0.499999999999999
40
0.499999999999999
40
0.624999999999999
40
0.624999999999999
40
0.687499999999999
40
0.687499999999999
40
0.749999999999999
40
0.749999999999999
40
0.8125
40
0.8125
40
0.875
40
0.875
40
0.9375
40
0.9375
40
1
40
1
40
1
40
1
41
1
10
53.0968387690917
20
1.56439572256366
30
0
41
1
10
53.087976354043
20
1.56780458277913
30
0
41
1
10
53.0776880138731
20
1.57258363307881
30
0
41
1
10
53.0548889824539
20
1.58421934919394
30
0
41
1
10
53.0422511387553
20
1.5911606234767
30
0
41
1
10
53.0158091237008
20
1.60647607103147
30
0
41
1
10
53.0019352086688
20
1.61488115978966
30
0
41
1
10
52.9729593629245
20
1.63317208282183
30
0
41
1
10
52.957719854972
20
1.64315516428061
30
0
41
1
10
52.9270607563047
20
1.6640666661832
30
0
41
1
10
52.9115549884402
20
1.67504171150085
30
0
41
1
10
52.8880493988262
20
1.69245675656882
30
0
41
1
10
52.8801727054047
20
1.69842212338187
30
0
41
1
10
52.86433341682
20
1.71073361601151
30
0
41
1
10
52.8564709562239
20
1.71700323127811
30
0
41
1
10
52.8410383638179
20
1.72967747175974
30
0
41
1
10
52.833444126135
20
1.73610033439212
30
0
41
1
10
52.8185452069544
20
1.74915342365108
30
0
41
1
10
52.811203002751
20
1.75582221345377
30
0
41
1
10
52.7973289102538
20
1.76898587405316
30
0
41
1
10
52.7907454589862
20
1.77552272845051
30
0
41
1
10
52.7784028858434
20
1.78849167859383
30
0
41
1
10
52.7726540286793
20
1.79492111533443
30
0
41
1
10
52.7675815948288
20
1.80107072412821
30
0
0
SPLINE
5
1A9
100
AcDbEntity
8
1
62
256
6
ByLayer
370
18
48
1
60
0
100
AcDbSpline
70
4
71
3
72
8
73
4
40
0
40
0
40
0
40
0
40
1
40
1
40
1
40
1
41
1
10
52.7675815948232
20
1.80107072412491
30
0
41
1
10
52.7435879812201
20
1.83015958788727
30
0
41
1
10
52.7196481757672
20
1.85978555271882
30
0
41
1
10
52.6957567248802
20
1.88993806107547
30
0
0
SPLINE
5
1AA
100
AcDbEntity
8
1
62
256
6
ByLayer
370
18
48
1
60
0
100
AcDbSpline
70
4
71
3
72
8
73
4
40
0
40
0
40
0
40
0
40
1
40
1
40
1
40
1
41
1
10
52.6957567248802
20
1.88993806107544
30
0
41
1
10
52.5654148383575
20
1.96020962942947
30
0
41
1
10
52.4338831662421
20
2.02105108534792
30
0
41
1
10
52.3005174772572
20
2.07205468171867
30
0
0
SPLINE
5
1AB
100
AcDbEntity
8
1
62
256
6
ByLayer
370
18
48
1
60
0
100
AcDbSpline
70
4
71
3
72
12
73
8
40
0
40
0
40
0
40
0
40
0.25000000000001
40
0.25000000000001
40
0.500000000000021
40
0.500000000000021
40
1
40
1
40
1
40
1
41
1
10
52.3005174772729
20
2.0720546817127
30
0
41
1
10
52.2591192944495
20
2.08788676133764
30
0
41
1
10
52.2165606300527
20
2.10467924675021
30
0
41
1
10
52.1289668958367
20
2.13987393042564
30
0
41
1
10
52.0839133195473
20
2.1582750562311
30
0
41
1
10
51.9456971347667
20
2.21700474783037
30
0
41
1
10
51.8495023883531
20
2.26080944077182
30
0
41
1
10
51.7505174772729
20
2.31187934030112
30
0
0
SPLINE
5
1AC
100
AcDbEntity
8
1
62
256
6
ByLayer
370
18
48
1
60
0
100
AcDbSpline
70
4
71
3
72
44
73
40
40
0
40
0
40
0
40
0
40
0.0582716644652658
40
0.0582716644652658
40
0.0874074966978987
40
0.0874074966978987
40
0.116543328930532
40
0.233086657861063
40
0.233086657861063
40
0.291358322326329
40
0.291358322326329
40
0.349629986791595
40
0.349629986791595
40
0.37876581902423
40
0.37876581902423
40
0.393333735140548
40
0.393333735140548
40
0.407901651256865
40
0.466173315722136
40
0.466173315722136
40
0.524444980187406
40
0.524444980187406
40
0.582716644652676
40
0.582716644652676
40
0.640988309117947
40
0.640988309117947
40
0.699259973583217
40
0.699259973583217
40
0.757531638048488
40
0.757531638048488
40
0.786667470281123
40
0.786667470281123
40
0.815803302513758
40
0.815803302513758
40
0.874074966979028
40
0.874074966979028
40
0.932346631444299
40
0.932346631444299
40
1
40
1
40
1
40
1
41
1
10
51.7505174772729
20
2.31187934030112
30
0
41
1
10
51.6356828674724
20
2.37112667326323
30
0
41
1
10
51.5213340878567
20
2.42730174711841
30
0
41
1
10
51.3501287120822
20
2.50674861389589
30
0
41
1
10
51.2930935313421
20
2.53241437648222
30
0
41
1
10
51.1792050169435
20
2.58222097620731
30
0
41
1
10
50.8949397319718
20
2.70292024975626
30
0
41
1
10
50.612298685598
20
2.80408112579042
30
0
41
1
10
50.2724455160183
20
2.90532716733463
30
0
41
1
10
50.1590487519903
20
2.93571939361044
30
0
41
1
10
49.9316171373112
20
2.98955941628532
30
0
41
1
10
49.8175582444277
20
3.01299996373453
30
0
41
1
10
49.6457570257507
20
3.04281932149445
30
0
41
1
10
49.5884129752431
20
3.05188126587893
30
0
41
1
10
49.5022440398065
20
3.06412646326547
30
0
41
1
10
49.4734997783299
20
3.06798215635138
30
0
41
1
10
49.4161181409094
20
3.07521975928202
30
0
41
1
10
49.2728289971724
20
3.09214444785593
30
0
41
1
10
49.1302938056755
20
3.10323664795774
30
0
41
1
10
48.9028416302854
20
3.11358532194396
30
0
41
1
10
48.789419092176
20
3.11505966345789
30
0
41
1
10
48.5627922068339
20
3.11067715377891
30
0
41
1
10
48.4496054348809
20
3.10481690521877
30
0
41
1
10
48.2229480740137
20
3.08586843033424
30
0
41
1
10
48.1094537204608
20
3.07279783913853
30
0
41
1
10
47.8823746486241
20
3.03938957278996
30
0
41
1
10
47.7687426929581
20
3.01905300696967
30
0
41
1
10
47.5409309643711
20
2.97109437541556
30
0
41
1
10
47.4267522655517
20
2.94347174413494
30
0
41
1
10
47.2547851331158
20
2.89656365394018
30
0
41
1
10
47.1973374633982
20
2.88000998646666
30
0
41
1
10
47.0828216251483
20
2.84529826309418
30
0
41
1
10
47.0256697745382
20
2.82711831793239
30
0
41
1
10
46.8544449628163
20
2.77018429520228
30
0
41
1
10
46.7405632532424
20
2.7290613316176
30
0
41
1
10
46.5130928102935
20
2.64077260657118
30
0
41
1
10
46.3996184903792
20
2.59352984004531
30
0
41
1
10
46.1547225946032
20
2.4849283092575
30
0
41
1
10
46.0233171925525
20
2.42254577485352
30
0
41
1
10
45.891798838989
20
2.35633504679853
30
0
0
SPLINE
5
1AD
100
AcDbEntity
8
1
62
256
6
ByLayer
370
18
48
1
60
0
100
AcDbSpline
70
4
71
3
72
8
73
4
40
0
40
0
40
0
40
0
40
1
40
1
40
1
40
1
41
1
10
55.2555838398371
20
-4.01318213959772
30
0
41
1
10
55.210400575402
20
-4.00582986857788
30
0
41
1
10
55.1652557646889
20
-3.99774185506391
30
0
41
1
10
55.1201430958666
20
-3.98892223690828
30
0
0
SPLINE
5
1AE
100
AcDbEntity
8
1
62
256
6
ByLayer
370
18
48
1
60
0
100
AcDbSpline
70
4
71
3
72
8
73
4
40
0
40
0
40
0
40
0
40
1
40
1
40
1
40
1
41
1
10
64.1603966306948
20
-0.516624362772859
30
0
41
1
10
64.0996502970636
20
-0.510872249364951
30
0
41
1
10
64.0391617884659
20
-0.500378662707305
30
0
41
1
10
63.9790043922074
20
-0.485300310730139
30
0
0
SPLINE
5
1AF
100
AcDbEntity
8
1
62
256
6
ByLayer
370
18
48
1
60
0
100
AcDbSpline
70
4
71
3
72
12
73
8
40
0
40
0
40
0
40
0
40
0.5
40
0.5
40
0.75
40
0.75
40
1
40
1
40
1
40
1
41
1
10
63.9790043922074
20
-0.485300310730111
30
0
41
1
10
63.8903166447958
20
-0.414146699674632
30
0
41
1
10
63.8017393793592
20
-0.34141576497737
30
0
41
1
10
63.6689612477059
20
-0.229940136801815
30
0
41
1
10
63.6246645063139
20
-0.192335043188649
30
0
41
1
10
63.5364820302416
20
-0.116681358769228
30
0
41
1
10
63.4925693150103
20
-0.0786110485942402
30
0
41
1
10
63.4488227249258
20
-0.0403097981792655
30
0
0
SPLINE
5
1B0
100
AcDbEntity
8
1
62
256
6
ByLayer
370
18
48
1
60
0
100
AcDbSpline
70
4
71
3
72
10
73
6
40
0
40
0
40
0
40
0
40
0.5
40
0.5
40
1
40
1
40
1
40
1
41
1
10
63.4488227249258
20
-0.0403097981792371
30
0
41
1
10
63.4036043039443
20
0.0207777114644614
30
0
41
1
10
63.3581505281488
20
0.0797647445253347
30
0
41
1
10
63.2669476244221
20
0.193097797903562
30
0
41
1
10
63.2211667054694
20
0.247491125627732
30
0
41
1
10
63.1751460522436
20
0.299553517002181
30
0
0
SPLINE
5
1B1
100
AcDbEntity
8
1
62
256
6
ByLayer
370
18
48
1
60
0
100
AcDbSpline
70
4
71
3
72
28
73
24
40
0
40
0
40
0
40
0
40
0.124999999999974
40
0.124999999999974
40
0.249999999999948
40
0.249999999999948
40
0.374999999999922
40
0.374999999999922
40
0.499999999999896
40
0.499999999999896
40
0.62499999999987
40
0.62499999999987
40
0.687499999999892
40
0.687499999999892
40
0.749999999999913
40
0.749999999999913
40
0.812499999999935
40
0.812499999999935
40
0.874999999999957
40
0.874999999999957
40
0.937499999999978
40
0.937499999999978
40
1
40
1
40
1
40
1
41
1
10
63.1751460522436
20
0.299553517002181
30
0
41
1
10
63.1662883789336
20
0.30957405391797
30
0
41
1
10
63.1560064660932
20
0.320310047877598
30
0
41
1
10
63.1332241624444
20
0.342854771454114
30
0
41
1
10
63.1205979688285
20
0.354768511131425
30
0
41
1
10
63.0941811419419
20
0.378787018424305
30
0
41
1
10
63.0803197991899
20
0.390966925693021
30
0
41
1
10
63.0513696043317
20
0.41569644893201
30
0
41
1
10
63.036142527109
20
0.428354650623589
30
0
41
1
10
63.0055026247826
20
0.453241758219804
30
0
41
1
10
62.9900060622011
20
0.465547714847815
30
0
41
1
10
62.9665095732997
20
0.483834999711945
30
0
41
1
10
62.9586350828507
20
0.489901902514362
30
0
41
1
10
62.9427973370177
20
0.501980302078096
30
0
41
1
10
62.9349229836129
20
0.507923529551988
30
0
41
1
10
62.9194729859843
20
0.519464032305137
30
0
41
1
10
62.9118685496711
20
0.525083405861636
30
0
41
1
10
62.8969464130697
20
0.53598310498856
30
0
41
1
10
62.8895899179219
20
0.541290284647943
30
0
41
1
10
62.875685928323
20
0.551175285981458
30
0
41
1
10
62.8690873401459
20
0.555791439582009
30
0
41
1
10
62.8567154316915
20
0.564262845896479
30
0
41
1
10
62.8509544474871
20
0.568107758137558
30
0
41
1
10
62.8458729247844
20
0.571369742745702
30
0
0
SPLINE
5
1B2
100
AcDbEntity
8
1
62
256
6
ByLayer
370
18
48
1
60
0
100
AcDbSpline
70
4
71
3
72
12
73
8
40
0
40
0
40
0
40
0
40
0.500000000000001
40
0.500000000000001
40
0.75
40
0.75
40
1
40
1
40
1
40
1
41
1
10
62.8458729247844
20
0.571369742745674
30
0
41
1
10
62.7762606984617
20
0.61605595671864
30
0
41
1
10
62.7069943104614
20
0.666575885632625
30
0
41
1
10
62.603753339296
20
0.750512836200016
30
0
41
1
10
62.5694453032878
20
0.77985325430754
30
0
41
1
10
62.5011182593286
20
0.841097463323422
30
0
41
1
10
62.4670839381154
20
0.87301340197385
30
0
41
1
10
62.4331591399909
20
0.906199715405222
30
0
0
SPLINE
5
1B3
100
AcDbEntity
8
1
62
256
6
ByLayer
370
18
48
1
60
0
100
AcDbSpline
70
4
71
3
72
8
73
4
40
0
40
0
40
0
40
0
40
1
40
1
40
1
40
1
41
1
10
62.4331591399909
20
0.906199715405222
30
0
41
1
10
62.4271887983518
20
0.912040678265726
30
0
41
1
10
62.4212197850598
20
0.917884182590399
30
0
41
1
10
62.4152520705459
20
0.923730198377541
30
0
0
SPLINE
5
1B4
100
AcDbEntity
8
1
62
256
6
ByLayer
370
18
48
1
60
0
100
AcDbSpline
70
4
71
3
72
8
73
4
40
0
40
0
40
0
40
0
40
1
40
1
40
1
40
1
41
1
10
62.2956299222016
20
1.04035157876169
30
0
41
1
10
62.3355171358958
20
1.00161301463669
30
0
41
1
10
62.3753881279176
20
0.962736204057592
30
0
41
1
10
62.4152520705459
20
0.923730198377541
30
0
0
SPLINE
5
1B5
100
AcDbEntity
8
1
62
256
6
ByLayer
370
18
48
1
60
0
100
AcDbSpline
70
4
71
3
72
10
73
6
40
0
40
0
40
0
40
0
40
0.5
40
0.5
40
1
40
1
40
1
40
1
41
1
10
62.2956299222016
20
1.04035157876169
30
0
41
1
10
62.2241900266378
20
1.10569789216766
30
0
41
1
10
62.1522852440421
20
1.16464908166907
30
0
41
1
10
62.0071438645193
20
1.26935797856885
30
0
41
1
10
61.9341679747153
20
1.31499619820167
30
0
41
1
10
61.8605745130759
20
1.35371774437579
30
0
0
SPLINE
5
1B6
100
AcDbEntity
8
1
62
256
6
ByLayer
370
18
48
1
60
0
100
AcDbSpline
70
4
71
3
72
28
73
24
40
0
40
0
40
0
40
0
40
0.125
40
0.125
40
0.250000000000001
40
0.250000000000001
40
0.375000000000001
40
0.375000000000001
40
0.500000000000001
40
0.500000000000001
40
0.625000000000002
40
0.625000000000002
40
0.687500000000001
40
0.687500000000001
40
0.750000000000001
40
0.750000000000001
40
0.812500000000001
40
0.812500000000001
40
0.875000000000001
40
0.875000000000001
40
0.9375
40
0.9375
40
1
40
1
40
1
40
1
41
1
10
61.8605745130758
20
1.35371774437581
30
0
41
1
10
61.8517058954085
20
1.3583840092974
30
0
41
1
10
61.841410300086
20
1.36431714134648
30
0
41
1
10
61.8185979557421
20
1.3781050445219
30
0
41
1
10
61.8059544199066
20
1.38604895559249
30
0
41
1
10
61.779505647829
20
1.4031613130627
30
0
41
1
10
61.7656300307577
20
1.41236946852669
30
0
41
1
10
61.7366558010344
20
1.43208273357263
30
0
41
1
10
61.721420076401
20
1.44268851451397
30
0
41
1
10
61.6907716040004
20
1.46460853070886
30
0
41
1
10
61.6752733583422
20
1.47597516671723
30
0
41
1
10
61.6517791373656
20
1.49378176974733
30
0
41
1
10
61.6439062109996
20
1.49984467302508
30
0
41
1
10
61.6280735582504
20
1.51227473138934
30
0
41
1
10
61.6202095928356
20
1.51856774905147
30
0
41
1
10
61.6047750551112
20
1.53120006823093
30
0
41
1
10
61.5971787945703
20
1.53755922921525
30
0
41
1
10
61.5822735808384
20
1.55038623877192
30
0
41
1
10
61.5749267762802
20
1.55689108504629
30
0
41
1
10
61.5610417333536
20
1.56962190124335
30
0
41
1
10
61.5544520778008
20
1.5758896586178
30
0
41
1
10
61.5420965525578
20
1.58819777011601
30
0
41
1
10
61.5363422077826
20
1.59423300391714
30
0
41
1
10
61.5312654694224
20
1.59992769806982
30
0
0
SPLINE
5
1B7
100
AcDbEntity
8
1
62
256
6
ByLayer
370
18
48
1
60
0
100
AcDbSpline
70
4
71
3
72
12
73
8
40
0
40
0
40
0
40
0
40
0.499999999999987
40
0.499999999999987
40
0.749999999999994
40
0.749999999999994
40
1
40
1
40
1
40
1
41
1
10
61.5312654694224
20
1.59992769806979
30
0
41
1
10
61.4612815534363
20
1.67843026583486
30
0
41
1
10
61.3916514894792
20
1.76182601730346
30
0
41
1
10
61.2878697173088
20
1.89350273158288
30
0
41
1
10
61.2533832646849
20
1.93849437149311
30
0
41
1
10
61.1846992366974
20
2.03046780119266
30
0
41
1
10
61.1504862715104
20
2.07746889509917
30
0
41
1
10
61.1163814049602
20
2.1254604106104
30
0
0
SPLINE
5
1B8
100
AcDbEntity
8
1
62
256
6
ByLayer
370
18
48
1
60
0
100
AcDbSpline
70
4
71
3
72
8
73
4
40
0
40
0
40
0
40
0
40
1
40
1
40
1
40
1
41
1
10
60.9804913050377
20
2.24063469911988
30
0
41
1
10
61.0258026373564
20
2.20264376334782
30
0
41
1
10
61.0710950729742
20
2.16424851596139
30
0
41
1
10
61.1163814049602
20
2.12546041061034
30
0
0
SPLINE
5
1B9
100
AcDbEntity
8
1
62
256
6
ByLayer
370
18
48
1
60
0
100
AcDbSpline
70
4
71
3
72
10
73
6
40
0
40
0
40
0
40
0
40
0.5
40
0.5
40
1
40
1
40
1
40
1
41
1
10
60.9804913050377
20
2.24063469911988
30
0
41
1
10
60.9091251564979
20
2.25884622674249
30
0
41
1
10
60.8373261256839
20
2.27028231145067
30
0
41
1
10
60.6923950773725
20
2.27909675188133
30
0
41
1
10
60.6195048414598
20
2.27644458950283
30
0
41
1
10
60.5459903330084
20
2.26657144513726
30
0
0
SPLINE
5
1BA
100
AcDbEntity
8
1
62
256
6
ByLayer
370
18
48
1
60
0
100
AcDbSpline
70
4
71
3
72
28
73
24
40
0
40
0
40
0
40
0
40
0.125000000000025
40
0.125000000000025
40
0.250000000000051
40
0.250000000000051
40
0.375000000000076
40
0.375000000000076
40
0.500000000000101
40
0.500000000000101
40
0.625000000000127
40
0.625000000000127
40
0.687500000000105
40
0.687500000000105
40
0.750000000000084
40
0.750000000000084
40
0.812500000000063
40
0.812500000000063
40
0.875000000000042
40
0.875000000000042
40
0.937500000000021
40
0.937500000000021
40
1
40
1
40
1
40
1
41
1
10
60.5459903330085
20
2.26657144513607
30
0
41
1
10
60.5371328162555
20
2.26538186305947
30
0
41
1
10
60.5268494670756
20
2.2658712184722
30
0
41
1
10
60.5040606782834
20
2.26941159655087
30
0
41
1
10
60.4914285536915
20
2.27252541295059
30
0
41
1
10
60.464997381075
20
2.28088292587012
30
0
41
1
10
60.4511286193394
20
2.28612621252097
30
0
41
1
10
60.4221638586842
20
2.29870344579035
30
0
41
1
10
60.4069299221095
20
2.30612067959936
30
0
41
1
10
60.3762810494507
20
2.32273547644317
30
0
41
1
10
60.360781136251
20
2.33195352915078
30
0
41
1
10
60.3372826711922
20
2.34739130725734
30
0
41
1
10
60.3294080294233
20
2.35280831813435
30
0
41
1
10
60.3135713503384
20
2.3642763249473
30
0
41
1
10
60.3057041222282
20
2.37026111164502
30
0
41
1
10
60.2902647814212
20
2.38265929632882
30
0
41
1
10
60.2826663386929
20
2.38909086987732
30
0
41
1
10
60.2677570674083
20
2.40249968956417
30
0
41
1
10
60.2604084265206
20
2.40952084160557
30
0
41
1
10
60.2465208343633
20
2.42376358859224
30
0
41
1
10
60.2399303101811
20
2.43102590654468
30
0
41
1
10
60.2275736433987
20
2.44587961397542
30
0
41
1
10
60.2218196046231
20
2.45347038095218
30
0
41
1
10
60.2167433796712
20
2.46099746693463
30
0
0
SPLINE
5
1BB
100
AcDbEntity
8
1
62
256
6
ByLayer
370
18
48
1
60
0
100
AcDbSpline
70
4
71
3
72
12
73
8
40
0
40
0
40
0
40
0
40
0.499999999999999
40
0.499999999999999
40
0.75
40
0.75
40
1
40
1
40
1
40
1
41
1
10
60.2167433796712
20
2.46099746693463
30
0
41
1
10
60.1466238431251
20
2.56497153932736
30
0
41
1
10
60.0768624905874
20
2.67234576137088
30
0
41
1
10
59.9728951674664
20
2.83766251921219
30
0
41
1
10
59.9383490462374
20
2.89348025410769
30
0
41
1
10
59.8695500023042
20
3.00630453780548
30
0
41
1
10
59.8352816435587
20
3.06333547380942
30
0
41
1
10
59.8011238393847
20
3.12096402272454
30
0
0
SPLINE
5
1BC
100
AcDbEntity
8
1
62
256
6
ByLayer
370
18
48
1
60
0
100
AcDbSpline
70
4
71
3
72
8
73
4
40
0
40
0
40
0
40
0
40
1
40
1
40
1
40
1
41
1
10
59.6652554811354
20
3.20671892725451
30
0
41
1
10
59.7105586945261
20
3.1787203714469
30
0
41
1
10
59.755843878121
20
3.15013236469178
30
0
41
1
10
59.8011238393847
20
3.12096402272451
30
0
0
SPLINE
5
1BD
100
AcDbEntity
8
1
62
256
6
ByLayer
370
18
48
1
60
0
100
AcDbSpline
70
4
71
3
72
10
73
6
40
0
40
0
40
0
40
0
40
0.5
40
0.5
40
1
40
1
40
1
40
1
41
1
10
59.6652554811355
20
3.2067189272544
30
0
41
1
10
59.5938389053935
20
3.17610684039582
30
0
41
1
10
59.5220814446125
20
3.13888069023432
30
0
41
1
10
59.3773936206778
20
3.05100840145062
30
0
41
1
10
59.3047096035481
20
3.00052095041619
30
0
41
1
10
59.2313838665859
20
2.94330076993069
30
0
0
SPLINE
5
1BE
100
AcDbEntity
8
1
62
256
6
ByLayer
370
18
48
1
60
0
100
AcDbSpline
70
4
71
3
72
30
73
26
40
0
40
0
40
0
40
0
40
0.124999999999995
40
0.124999999999995
40
0.249999999999989
40
0.249999999999989
40
0.374999999999984
40
0.374999999999984
40
0.437500000000013
40
0.437500000000013
40
0.500000000000042
40
0.500000000000042
40
0.625000000000031
40
0.625000000000031
40
0.687500000000026
40
0.687500000000026
40
0.75000000000002
40
0.75000000000002
40
0.812500000000015
40
0.812500000000015
40
0.87500000000001
40
0.87500000000001
40
0.937500000000005
40
0.937500000000005
40
1
40
1
40
1
40
1
41
1
10
59.2313838665859
20
2.94330076993066
30
0
41
1
10
59.2225473707618
20
2.93640515719133
30
0
41
1
10
59.2122915018137
20
2.93141794381015
30
0
41
1
10
59.1895629392267
20
2.92436605538146
30
0
41
1
10
59.1769745697817
20
2.92232969514768
30
0
41
1
10
59.1505360613086
20
2.9210579193448
30
0
41
1
10
59.1366244064509
20
2.92178642745071
30
0
41
1
10
59.1147632597328
20
2.9249089628747
30
0
41
1
10
59.1073050677529
20
2.9262961977162
30
0
41
1
10
59.0923124704581
20
2.9297224748002
30
0
41
1
10
59.0847466953277
20
2.93176501694427
30
0
41
1
10
59.0618482965423
20
2.93890783544083
30
0
41
1
10
59.0463176423852
20
2.94500264600919
30
0
41
1
10
59.022606140416
20
2.95655486820201
30
0
41
1
10
59.0146209139995
20
2.96082430580515
30
0
41
1
10
58.9988840331893
20
2.97007546859484
30
0
41
1
10
58.9910875170263
20
2.97507663893964
30
0
41
1
10
58.9756639066778
20
2.98592513091836
30
0
41
1
10
58.9680202106754
20
2.9917848657482
30
0
41
1
10
58.9530098903842
20
3.00445941785176
30
0
41
1
10
58.9457785462409
20
3.0111585183914
30
0
41
1
10
58.9319338842367
20
3.02537122243601
30
0
41
1
10
58.9252957349491
20
3.03291358187928
30
0
41
1
10
58.9128684210829
20
3.04885383816009
30
0
41
1
10
58.9071902144439
20
3.05710378165597
30
0
41
1
10
58.9021171211278
20
3.06566907382043
30
0
0
SPLINE
5
1BF
100
AcDbEntity
8
1
62
256
6
ByLayer
370
18
48
1
60
0
100
AcDbSpline
70
4
71
3
72
8
73
4
40
0
40
0
40
0
40
0
40
1
40
1
40
1
40
1
41
1
10
58.3514719263312
20
3.83705710831774
30
0
41
1
10
58.3964212186078
20
3.82208061027049
30
0
41
1
10
58.44135306282
20
3.8064020459791
30
0
41
1
10
58.486279307032
20
3.79002681345764
30
0
0
SPLINE
5
1C0
100
AcDbEntity
8
1
62
256
6
ByLayer
370
18
48
1
60
0
100
AcDbSpline
70
4
71
3
72
8
73
4
40
0
40
0
40
0
40
0
40
1
40
1
40
1
40
1
41
1
10
57.0368442512081
20
4.06704745979692
30
0
41
1
10
57.081950686937
20
4.06643540399315
30
0
41
1
10
57.1270389484163
20
4.065067010033
30
0
41
1
10
57.1721217819076
20
4.06294404809006
30
0
0
SPLINE
5
1C1
100
AcDbEntity
8
1
62
256
6
ByLayer
370
18
48
1
60
0
100
AcDbSpline
70
4
71
3
72
30
73
26
40
0
40
0
40
0
40
0
40
0.0809668178563587
40
0.0809668178563587
40
0.264773454285067
40
0.264773454285067
40
0.356676772499422
40
0.356676772499422
40
0.448580090713776
40
0.448580090713776
40
0.471555920267368
40
0.471555920267368
40
0.49453174982096
40
0.49453174982096
40
0.540483408928144
40
0.540483408928144
40
0.632386727142513
40
0.632386727142513
40
0.678338386249701
40
0.678338386249701
40
0.724290045356888
40
0.724290045356888
40
0.816193363571256
40
0.816193363571256
40
1
40
1
40
1
40
1
41
1
10
44.5371519252212
20
-3.11384954476827
30
0
41
1
10
44.4368926032926
20
-3.11386953021454
30
0
41
1
10
44.336891931967
20
-3.11102183713464
30
0
41
1
10
44.0103081383463
20
-3.09242652060442
30
0
41
1
10
43.7842747171824
20
-3.06486634384621
30
0
41
1
10
43.4436418300961
20
-3.00233975799603
30
0
41
1
10
43.3299891718904
20
-2.97792663611975
30
0
41
1
10
43.1022787132881
20
-2.92191082293732
30
0
41
1
10
42.9881908117897
20
-2.89031819608118
30
0
41
1
10
42.8450681128157
20
-2.84634653982005
30
0
41
1
10
42.8164178618021
20
-2.83732817294614
30
0
41
1
10
42.7590601149813
20
-2.81884340710943
30
0
41
1
10
42.7303371184939
20
-2.80937154590907
30
0
41
1
10
42.6443086079607
20
-2.78036596539542
30
0
41
1
10
42.5870797115911
20
-2.76022265050096
30
0
41
1
10
42.4156850131093
20
-2.69744787775969
30
0
41
1
10
42.301817020426
20
-2.65246689697426
30
0
41
1
10
42.1312701889649
20
-2.58061950292768
30
0
41
1
10
42.074461527333
20
-2.55594283599316
30
0
41
1
10
41.9608608613992
20
-2.50519725884288
30
0
41
1
10
41.9040771341938
20
-2.47912306455442
30
0
41
1
10
41.7339192255495
20
-2.39868758976351
30
0
41
1
10
41.6206696581831
20
-2.34216467027795
30
0
41
1
10
41.2808898372624
20
-2.16437325013206
30
0
41
1
10
41.054353521456
20
-2.03485710871095
30
0
41
1
10
40.8262811284789
20
-1.89560564862396
30
0
0
SPLINE
5
1C2
100
AcDbEntity
8
1
62
256
6
ByLayer
370
18
48
1
60
0
100
AcDbSpline
70
4
71
3
72
30
73
26
40
0
40
0
40
0
40
0
40
0.0662646615109206
40
0.0662646615109206
40
0.132529323021841
40
0.132529323021841
40
0.265058646043674
40
0.265058646043674
40
0.331323307554591
40
0.331323307554591
40
0.397587969065507
40
0.397587969065507
40
0.530117292087348
40
0.530117292087348
40
0.596381953598264
40
0.596381953598264
40
0.662646615109181
40
0.662646615109181
40
0.795175938131005
40
0.795175938131005
40
0.92770526115283
40
0.92770526115283
40
0.993969922663738
40
0.993969922663738
40
1
40
1
40
1
40
1
41
1
10
38.5325536372192
20
-3.10939013702816
30
0
41
1
10
38.6018513286485
20
-3.11223431497581
30
0
41
1
10
38.6710476226495
20
-3.11372012072445
30
0
41
1
10
38.8092636211058
20
-3.11396359176561
30
0
41
1
10
38.8782373098442
20
-3.11271733245044
30
0
41
1
10
39.0853413975738
20
-3.10487971593989
30
0
41
1
10
39.2237632882009
20
-3.09422099850184
30
0
41
1
10
39.4320439321924
20
-3.07017875946224
30
0
41
1
10
39.5016348186136
20
-3.06080845658562
30
0
41
1
10
39.6403253714065
20
-3.03947840079022
30
0
41
1
10
39.7095038980714
20
-3.02751219409436
30
0
41
1
10
39.9166174937694
20
-2.98777602861381
30
0
41
1
10
40.0541424898494
20
-2.95617963946466
30
0
41
1
10
40.2597692560488
20
-2.90124966857562
30
0
41
1
10
40.3281983791956
20
-2.88168117170903
30
0
41
1
10
40.4648259817438
20
-2.84000995539867
30
0
41
1
10
40.5330630524272
20
-2.81792336329042
30
0
41
1
10
40.7381387471315
20
-2.74826303266579
30
0
41
1
10
40.8751183934966
20
-2.69717980959291
30
0
41
1
10
41.14979258084
20
-2.58591400419451
30
0
41
1
10
41.2874655271521
20
-2.52571421198419
30
0
41
1
10
41.4947139488892
20
-2.42862460814419
30
0
41
1
10
41.5639187870027
20
-2.39512784729899
30
0
41
1
10
41.6395648619294
20
-2.35733236681318
30
0
41
1
10
41.645876506912
20
-2.35416986939597
30
0
41
1
10
41.6521895669518
20
-2.35099768587585
30
0
0
SPLINE
5
1C3
100
AcDbEntity
8
1
62
256
6
ByLayer
370
18
48
1
60
0
100
AcDbSpline
70
4
71
3
72
10
73
6
40
0
40
0
40
0
40
0
40
0.168745380906925
40
0.168745380906925
40
1
40
1
40
1
40
1
41
1
10
51.5001886513239
20
3.11384986200656
30
0
41
1
10
51.5142399062433
20
3.1138471068416
30
0
41
1
10
51.5282963800415
20
3.11378807562781
30
0
41
1
10
51.611630196405
20
3.11310531214903
30
0
41
1
10
51.6810221774771
20
3.11117589949174
30
0
41
1
10
51.7505174772729
20
3.10788616943535
30
0
0
SPLINE
5
1C4
100
AcDbEntity
8
1
62
256
6
ByLayer
370
18
48
1
60
0
100
AcDbSpline
70
4
71
3
72
16
73
12
40
0
40
0
40
0
40
0
40
0.25
40
0.25
40
0.5
40
0.5
40
0.75
40
0.75
40
0.875
40
0.875
40
1
40
1
40
1
40
1
41
1
10
51.7505174772729
20
3.10788616943535
30
0
41
1
10
51.7973818615575
20
3.10566772913782
30
0
41
1
10
51.8441449228454
20
3.10583776548978
30
0
41
1
10
51.9372186306957
20
3.11101832751879
30
0
41
1
10
51.9835298681817
20
3.11602511653538
30
0
41
1
10
52.0755311984565
20
3.13116476513415
30
0
41
1
10
52.1212212420724
20
3.14129054110401
30
0
41
1
10
52.1892188096895
20
3.16082286080416
30
0
41
1
10
52.2117944548565
20
3.16806432489901
30
0
41
1
10
52.2564694743408
20
3.18402653360431
30
0
41
1
10
52.2786147794572
20
3.19276630210655
30
0
41
1
10
52.300517477273
20
3.20229132135282
30
0
0
SPLINE
5
1C5
100
AcDbEntity
8
1
62
256
6
ByLayer
370
18
48
1
60
0
100
AcDbSpline
70
4
71
3
72
8
73
4
40
0
40
0
40
0
40
0
40
1
40
1
40
1
40
1
41
1
10
52.3005174772573
20
3.20229132134597
30
0
41
1
10
52.3961260656822
20
3.24386947087433
30
0
41
1
10
52.49076152765
20
3.28229018881001
30
0
41
1
10
52.5845235337235
20
3.31731293126811
30
0
0
SPLINE
5
1C6
100
AcDbEntity
8
1
62
256
6
ByLayer
370
18
48
1
60
0
100
AcDbSpline
70
4
71
3
72
8
73
4
40
0
40
0
40
0
40
0
40
1
40
1
40
1
40
1
41
1
10
52.5845235337235
20
3.31731293126813
30
0
41
1
10
52.5962195052365
20
3.29573014612748
30
0
41
1
10
52.6079298861582
20
3.27409353922224
30
0
41
1
10
52.6196556758242
20
3.25240332115749
30
0
0
SPLINE
5
1C7
100
AcDbEntity
8
1
62
256
6
ByLayer
370
18
48
1
60
0
100
AcDbSpline
70
4
71
3
72
30
73
26
40
0
40
0
40
0
40
0
40
0.125000000000041
40
0.125000000000041
40
0.250000000000081
40
0.250000000000081
40
0.375000000000122
40
0.375000000000122
40
0.43750000000011
40
0.43750000000011
40
0.500000000000098
40
0.500000000000098
40
0.625000000000073
40
0.625000000000073
40
0.687500000000061
40
0.687500000000061
40
0.750000000000048
40
0.750000000000048
40
0.812500000000036
40
0.812500000000036
40
0.875000000000024
40
0.875000000000024
40
0.937500000000012
40
0.937500000000012
40
1
40
1
40
1
40
1
41
1
10
52.6196556758242
20
3.25240332115746
30
0
41
1
10
52.6288139633253
20
3.23546243626544
30
0
41
1
10
52.6394821034433
20
3.22039601110308
30
0
41
1
10
52.6630895833466
20
3.19305869780263
30
0
41
1
10
52.6761797073672
20
3.18073098746248
30
0
41
1
10
52.7033979245091
20
3.15947190852839
30
0
41
1
10
52.7176050896072
20
3.1504178167738
30
0
41
1
10
52.7397262162039
20
3.13904503431837
30
0
41
1
10
52.7472581100026
20
3.13561791514238
30
0
41
1
10
52.7625005938211
20
3.12956852067376
30
0
41
1
10
52.7701506775323
20
3.12696764583899
30
0
41
1
10
52.7931757600974
20
3.12042128203424
30
0
41
1
10
52.8086249033881
20
3.11771152108801
30
0
41
1
10
52.831915136991
20
3.1164030562818
30
0
41
1
10
52.8397410121342
20
3.11643515365799
30
0
41
1
10
52.8551936889604
20
3.11752984218711
30
0
41
1
10
52.8628065500212
20
3.11858471549382
30
0
41
1
10
52.8777799112143
20
3.12179305443729
30
0
41
1
10
52.8851407196218
20
3.12394532430196
30
0
41
1
10
52.899567926796
20
3.12950887071295
30
0
41
1
10
52.9066540742293
20
3.13294268018029
30
0
41
1
10
52.9200568280266
20
3.14106522095733
30
0
41
1
10
52.9264249537594
20
3.14576659461434
30
0
41
1
10
52.9383873860925
20
3.15665695684646
30
0
41
1
10
52.9439998176746
20
3.16288385800218
30
0
41
1
10
52.9489937215089
20
3.16983171420023
30
0
0
SPLINE
5
1C8
100
AcDbEntity
8
1
62
256
6
ByLayer
370
18
48
1
60
0
100
AcDbSpline
70
4
71
3
72
10
73
6
40
0
40
0
40
0
40
0
40
0.5
40
0.5
40
1
40
1
40
1
40
1
41
1
10
52.9489937215088
20
3.16983171420083
30
0
41
1
10
52.990115154762
20
3.22704262862379
30
0
41
1
10
53.0310471409007
20
3.2830214791471
30
0
41
1
10
53.1126057625734
20
3.39257388253441
30
0
41
1
10
53.153233791691
20
3.44614321289799
30
0
41
1
10
53.1936554912983
20
3.49839154127738
30
0
0
SPLINE
5
1C9
100
AcDbEntity
8
1
62
256
6
ByLayer
370
18
48
1
60
0
100
AcDbSpline
70
4
71
3
72
10
73
6
40
0
40
0
40
0
40
0
40
0.5
40
0.5
40
1
40
1
40
1
40
1
41
1
10
53.1936554912983
20
3.49839154127741
30
0
41
1
10
53.2541632770779
20
3.51155688947762
30
0
41
1
10
53.3144041842559
20
3.5231474030538
30
0
41
1
10
53.4344441741805
20
3.54311811854421
30
0
41
1
10
53.494262697844
20
3.55149851090306
30
0
41
1
10
53.5536975945618
20
3.5582192357939
30
0
0
SPLINE
5
1CA
100
AcDbEntity
8
1
62
256
6
ByLayer
370
18
48
1
60
0
100
AcDbSpline
70
4
71
3
72
8
73
4
40
0
40
0
40
0
40
0
40
1
40
1
40
1
40
1
41
1
10
58.7607073604966
20
-0.718437831888707
30
0
41
1
10
58.7155564645371
20
-0.673862684635111
30
0
41
1
10
58.6703973291946
20
-0.62919950927693
30
0
41
1
10
58.625228330176
20
-0.584450347427264
30
0
0
SPLINE
5
1CB
100
AcDbEntity
8
1
62
256
6
ByLayer
370
18
48
1
60
0
100
AcDbSpline
70
4
71
3
72
8
73
4
40
0
40
0
40
0
40
0
40
1
40
1
40
1
40
1
41
1
10
60.0747301838139
20
-1.95692246266862
30
0
41
1
10
60.0297814440086
20
-1.91752154900914
30
0
41
1
10
59.9848409273389
20
-1.87778789354329
30
0
41
1
10
59.9399058784772
20
-1.83772472729214
30
0
0
SPLINE
5
1CC
100
AcDbEntity
8
1
62
256
6
ByLayer
370
18
48
1
60
0
100
AcDbSpline
70
4
71
3
72
8
73
4
40
0
40
0
40
0
40
0
40
1
40
1
40
1
40
1
41
1
10
61.3902434568428
20
-2.99277407300153
30
0
41
1
10
61.3449034328666
20
-2.96207457635759
30
0
41
1
10
61.2995892083358
20
-2.9308260005221
30
0
41
1
10
61.2542941404559
20
-2.89903314425314
30
0
0
SPLINE
5
1CD
100
AcDbEntity
8
1
62
256
6
ByLayer
370
18
48
1
60
0
100
AcDbSpline
70
4
71
3
72
10
73
6
40
0
40
0
40
0
40
0
40
0.5
40
0.5
40
1
40
1
40
1
40
1
41
1
10
65.9999999999999
20
-1.61425433455022
30
0
41
1
10
65.9507305217721
20
-1.61419268293508
30
0
41
1
10
65.9010837854408
20
-1.6144085610222
30
0
41
1
10
65.8010744854545
20
-1.61569209297159
30
0
41
1
10
65.7507214513784
20
-1.61673726030875
30
0
41
1
10
65.7000000303635
20
-1.61850452431679
30
0
0
SPLINE
5
1CE
100
AcDbEntity
8
1
62
256
6
ByLayer
370
18
48
1
60
0
100
AcDbSpline
70
4
71
3
72
14
73
10
40
0
40
0
40
0
40
0
40
0.124999999999994
40
0.124999999999994
40
0.249999999999989
40
0.249999999999989
40
0.5
40
0.5
40
1
40
1
40
1
40
1
41
1
10
65.7000000303635
20
-1.61850452431679
30
0
41
1
10
65.6524140505373
20
-1.5942932916401
30
0
41
1
10
65.6049065517189
20
-1.56967540599399
30
0
41
1
10
65.5102013388105
20
-1.51944277912571
30
0
41
1
10
65.4630108088033
20
-1.49381851581532
30
0
41
1
10
65.3218819478493
20
-1.41546798929832
30
0
41
1
10
65.2284065425613
20
-1.36124151055094
30
0
41
1
10
64.9499784670364
20
-1.19224387714445
30
0
41
1
10
64.7668214536783
20
-1.07141208029336
30
0
41
1
10
64.5851766111164
20
-0.943192869287714
30
0
0
SPLINE
5
1CF
100
AcDbEntity
8
1
62
256
6
ByLayer
370
18
48
1
60
0
100
AcDbSpline
70
4
71
3
72
8
73
4
40
0
40
0
40
0
40
0
40
1
40
1
40
1
40
1
41
1
10
64.5851766111164
20
-0.943192869287685
30
0
41
1
10
64.5534512644819
20
-0.889869953286876
30
0
41
1
10
64.5216280186319
20
-0.837350427684356
30
0
41
1
10
64.4896869521776
20
-0.785653659588576
30
0
0
SPLINE
5
1D0
100
AcDbEntity
8
1
62
256
6
ByLayer
370
18
48
1
60
0
100
AcDbSpline
70
4
71
3
72
28
73
24
40
0
40
0
40
0
40
0
40
0.125
40
0.125
40
0.25
40
0.25
40
0.375
40
0.375
40
0.5
40
0.5
40
0.625
40
0.625
40
0.6875
40
0.6875
40
0.75
40
0.75
40
0.8125
40
0.8125
40
0.875
40
0.875
40
0.9375
40
0.9375
40
1
40
1
40
1
40
1
41
1
10
64.4896869521775
20
-0.785653659588291
30
0
41
1
10
64.4808301739033
20
-0.771318921793238
30
0
41
1
10
64.4705499377088
20
-0.756893314205712
30
0
41
1
10
64.4477716814707
20
-0.727928897218504
30
0
41
1
10
64.4351481267752
20
-0.713279563803042
30
0
41
1
10
64.4087355460777
20
-0.684844852379996
30
0
41
1
10
64.3948756830862
20
-0.670956424782474
30
0
41
1
10
64.3659273188781
20
-0.643777568780024
30
0
41
1
10
64.3507004604889
20
-0.630382667932111
30
0
41
1
10
64.3200596651819
20
-0.605120396921023
30
0
41
1
10
64.3045621824489
20
-0.593158253282439
30
0
41
1
10
64.2810633583848
20
-0.576300128563332
30
0
41
1
10
64.2731879261019
20
-0.570863344724842
30
0
41
1
10
64.2573478556658
20
-0.560400395089943
30
0
41
1
10
64.2494713334827
20
-0.555434495946571
30
0
41
1
10
64.2340174056144
20
-0.546201434376343
30
0
41
1
10
64.2264108399972
20
-0.541914351956621
30
0
41
1
10
64.2114841445379
20
-0.534093298859688
30
0
41
1
10
64.2041252832146
20
-0.53054603989483
30
0
41
1
10
64.1902169989946
20
-0.524556222336685
30
0
41
1
10
64.1836164352761
20
-0.522082462546251
30
0
41
1
10
64.1712410962002
20
-0.518350269569709
30
0
41
1
10
64.1654789128243
20
-0.517105607671624
30
0
41
1
10
64.1603966306948
20
-0.516624362772859
30
0
0
SPLINE
5
1D1
100
AcDbEntity
8
1
62
256
6
ByLayer
370
18
48
1
60
0
100
AcDbSpline
70
4
71
3
72
106
73
102
40
0
40
0
40
0
40
0
40
0.0625000000000111
40
0.0625000000000111
40
0.125000000000022
40
0.125000000000022
40
0.156250000000028
40
0.156250000000028
40
0.171875000000031
40
0.171875000000031
40
0.187500000000033
40
0.187500000000033
40
0.218750000000039
40
0.218750000000039
40
0.250000000000044
40
0.250000000000044
40
0.265625000000045
40
0.265625000000045
40
0.281250000000046
40
0.281250000000046
40
0.289062500000044
40
0.289062500000044
40
0.296875000000042
40
0.296875000000042
40
0.312500000000038
40
0.312500000000038
40
0.343750000000027
40
0.343750000000027
40
0.375000000000017
40
0.375000000000017
40
0.406250000000007
40
0.406250000000007
40
0.421875000000003
40
0.421875000000003
40
0.437499999999999
40
0.437499999999999
40
0.453124999999995
40
0.453124999999995
40
0.460937499999992
40
0.460937499999992
40
0.468749999999989
40
0.468749999999989
40
0.484374999999985
40
0.484374999999985
40
0.499999999999981
40
0.499999999999981
40
0.515624999999977
40
0.515624999999977
40
0.523437499999975
40
0.523437499999975
40
0.531249999999973
40
0.531249999999973
40
0.546874999999969
40
0.546874999999969
40
0.550781249999968
40
0.550781249999968
40
0.554687499999968
40
0.562499999999967
40
0.562499999999967
40
0.578124999999966
40
0.578124999999966
40
0.582031249999967
40
0.582031249999967
40
0.585937499999967
40
0.593749999999967
40
0.593749999999967
40
0.601562499999967
40
0.601562499999967
40
0.609374999999967
40
0.609374999999967
40
0.624999999999966
40
0.624999999999966
40
0.640624999999966
40
0.640624999999966
40
0.656249999999966
40
0.656249999999966
40
0.671874999999966
40
0.671874999999966
40
0.687499999999966
40
0.687499999999966
40
0.703124999999966
40
0.703124999999966
40
0.710937499999966
40
0.710937499999966
40
0.718749999999967
40
0.718749999999967
40
0.74999999999997
40
0.74999999999997
40
0.781249999999972
40
0.781249999999972
40
0.812499999999975
40
0.812499999999975
40
0.843749999999977
40
0.843749999999977
40
0.859374999999979
40
0.859374999999979
40
0.87499999999998
40
0.87499999999998
40
0.93749999999999
40
0.93749999999999
40
1
40
1
40
1
40
1
41
1
10
40.826293536814
20
-1.89561180329935
30
0
41
1
10
40.6821821494847
20
-1.80187880301202
30
0
41
1
10
40.5349718843957
20
-1.70749851306022
30
0
41
1
10
40.2310567460317
20
-1.52318517501945
30
0
41
1
10
40.0743023700833
20
-1.43331881771732
30
0
41
1
10
39.8298551464347
20
-1.30635683438999
30
0
41
1
10
39.7468100198208
20
-1.26535846667485
30
0
41
1
10
39.6194913475942
20
-1.20661978255458
30
0
41
1
10
39.5766815887379
20
-1.1875499166097
30
0
41
1
10
39.4907016036356
20
-1.15072680421153
30
0
41
1
10
39.4474724996328
20
-1.13294017370904
30
0
41
1
10
39.3170445326082
20
-1.0815651080427
30
0
41
1
10
39.2291082952182
20
-1.04995237310234
30
0
41
1
10
39.0510748456298
20
-0.99277341671376
30
0
41
1
10
38.9609797282132
20
-0.967200912224115
30
0
41
1
10
38.8239772021886
20
-0.934222920809162
30
0
41
1
10
38.7780098878758
20
-0.924096657695145
30
0
41
1
10
38.6853384405146
20
-0.906005487118819
30
0
41
1
10
38.6386249220816
20
-0.898068881371074
30
0
41
1
10
38.5680599406839
20
-0.887626549328587
30
0
41
1
10
38.5444294006837
20
-0.884386201018742
30
0
41
1
10
38.4971818828109
20
-0.878377624707667
30
0
41
1
10
38.4735608661439
20
-0.875608055028778
30
0
41
1
10
38.402705222164
20
-0.867934497040153
30
0
41
1
10
38.3554777918346
20
-0.86364774098459
30
0
41
1
10
38.2138203361431
20
-0.852924546424504
30
0
41
1
10
38.1194166937594
20
-0.848759446066452
30
0
41
1
10
37.9306862649337
20
-0.847069726489252
30
0
41
1
10
37.8363592369822
20
-0.849524756232796
30
0
41
1
10
37.6477929053594
20
-0.861998045927095
30
0
41
1
10
37.5535533602283
20
-0.871996662610457
30
0
41
1
10
37.4122738603121
20
-0.893819628920511
30
0
41
1
10
37.3651289500603
20
-0.902245659952001
30
0
41
1
10
37.2717491453815
20
-0.921447529118069
30
0
41
1
10
37.2254208417274
20
-0.932240565352686
30
0
41
1
10
37.1335803118175
20
-0.95649309831137
30
0
41
1
10
37.0880635506158
20
-0.969937673504575
30
0
41
1
10
37.0204833114841
20
-0.992350757065566
30
0
41
1
10
36.9980726410005
20
-1.00019690215183
30
0
41
1
10
36.9535022580337
20
-1.01669537675696
30
0
41
1
10
36.9313190539997
20
-1.02535889411738
30
0
41
1
10
36.8656397566685
20
-1.05245781772112
30
0
41
1
10
36.8228827746988
20
-1.07205703164846
30
0
41
1
10
36.7397021577642
20
-1.11466743322788
30
0
41
1
10
36.6992686502612
20
-1.13766406599888
30
0
41
1
10
36.6211597905761
20
-1.18761249754863
30
0
41
1
10
36.5834936761524
20
-1.21457933090832
30
0
41
1
10
36.5295350652694
20
-1.25859501870329
30
0
41
1
10
36.5121061623786
20
-1.27376488329719
30
0
41
1
10
36.4786808289289
20
-1.30492715767315
30
0
41
1
10
36.4626452450414
20
-1.32095114699686
30
0
41
1
10
36.4166889183578
20
-1.37040226388501
30
0
41
1
10
36.3889098084966
20
-1.40520462199223
30
0
41
1
10
36.358266767371
20
-1.45121931172167
30
0
41
1
10
36.3523499110466
20
-1.46054043005461
30
0
41
1
10
36.3410534867126
20
-1.47923998704192
30
0
41
1
10
36.3248669685206
20
-1.50744570796073
30
0
41
1
10
36.3109347529827
20
-1.53610202652089
30
0
41
1
10
36.2860337844435
20
-1.59396871947032
30
0
41
1
10
36.2733701769333
20
-1.63328143909985
30
0
41
1
10
36.2624295115198
20
-1.68321262549867
30
0
41
1
10
36.2604861135764
20
-1.69324794991468
30
0
41
1
10
36.257117597662
20
-1.7131993609413
30
0
41
1
10
36.2528250376664
20
-1.74301917590401
30
0
41
1
10
36.2507170299166
20
-1.77251531636304
30
0
41
1
10
36.2496993739682
20
-1.81155263208746
30
0
41
1
10
36.250064619186
20
-1.8309255421438
30
0
41
1
10
36.2526309630062
20
-1.86937964673231
30
0
41
1
10
36.2548426964378
20
-1.88848850540876
30
0
41
1
10
36.2643061353942
20
-1.94520149038056
30
0
41
1
10
36.2742598590177
20
-1.98148506253693
30
0
41
1
10
36.3005319192588
20
-2.05137730923926
30
0
41
1
10
36.3169325928853
20
-2.08496912774757
30
0
41
1
10
36.3545473384857
20
-2.14993721591318
30
0
41
1
10
36.3754545876886
20
-2.18086345994098
30
0
41
1
10
36.4202148896135
20
-2.24010055782978
30
0
41
1
10
36.4440995127352
20
-2.26843959085883
30
0
41
1
10
36.4942075492959
20
-2.32299104091604
30
0
41
1
10
36.520436489667
20
-2.34920030667416
30
0
41
1
10
36.5748011124354
20
-2.39977504752017
30
0
41
1
10
36.6029300078972
20
-2.42414277561781
30
0
41
1
10
36.6463030826877
20
-2.45946968020289
30
0
41
1
10
36.6609597357632
20
-2.47104101623179
30
0
41
1
10
36.6905090042377
20
-2.49370165150728
30
0
41
1
10
36.7054174886256
20
-2.50480410985995
30
0
41
1
10
36.780561495699
20
-2.55925025231232
30
0
41
1
10
36.8425747409193
20
-2.59942603892094
30
0
41
1
10
36.969177999854
20
-2.67431061765907
30
0
41
1
10
37.0337774915337
20
-2.70900813289168
30
0
41
1
10
37.1648537482168
20
-2.77365088236542
30
0
41
1
10
37.2313329674431
20
-2.80359206055928
30
0
41
1
10
37.365699584707
20
-2.85915259522386
30
0
41
1
10
37.4335894589323
20
-2.88476929428393
30
0
41
1
10
37.5362473532983
20
-2.92013273734384
30
0
41
1
10
37.5706274159685
20
-2.9314160282641
30
0
41
1
10
37.6395343731015
20
-2.95294579438036
30
0
41
1
10
37.6739980989339
20
-2.96317332046294
30
0
41
1
10
37.846314954383
20
-3.01170234914267
30
0
41
1
10
37.984127444491
20
-3.04223686653771
30
0
41
1
10
38.2589302256908
20
-3.08763996506488
30
0
41
1
10
38.395922573817
20
-3.10248655905312
30
0
41
1
10
38.5325534642158
20
-3.10939006372845
30
0
0
SPLINE
5
1D2
100
AcDbEntity
8
SK1
62
256
6
ByLayer
370
18
48
1
60
0
100
AcDbSpline
70
4
71
3
72
25
73
21
40
0
40
0
40
0
40
0
40
0.0625082023618181
40
0.0625082023618181
40
0.125016404723636
40
0.125016404723636
40
0.250032809447273
40
0.250032809447273
40
0.500065618894546
40
0.500065618894546
40
0.625082023618183
40
0.625082023618183
40
0.687590225980001
40
0.718844327160911
40
0.718844327160911
40
0.75009842834182
40
0.75009842834182
40
0.875114833065456
40
0.875114833065456
40
1
40
1
40
1
40
1
41
1
10
-22.8
20
3.09999999999997
30
0
41
1
10
-22.8255580387326
20
3.09999999999997
30
0
41
1
10
-22.8507859698115
20
3.09999999999997
30
0
41
1
10
-22.900515272324
20
3.09999999999997
30
0
41
1
10
-22.9250377452358
20
3.09999999999997
30
0
41
1
10
-22.9972279312134
20
3.09999999999997
30
0
41
1
10
-23.0434983576829
20
3.09999999999997
30
0
41
1
10
-23.1757222997548
20
3.09999999999997
30
0
41
1
10
-23.2551635800205
20
3.09999999999997
30
0
41
1
10
-23.3559652856179
20
3.09999999999997
30
0
41
1
10
-23.386487399267
20
3.09999999999997
30
0
41
1
10
-23.4268208094404
20
3.09999999999997
30
0
41
1
10
-23.4456232733698
20
3.09999999999997
30
0
41
1
10
-23.4622079504984
20
3.09999999999997
30
0
41
1
10
-23.4727515433793
20
3.09999999999997
30
0
41
1
10
-23.4777720281785
20
3.09999999999997
30
0
41
1
10
-23.5014388703221
20
3.09999999999997
30
0
41
1
10
-23.5158360601473
20
3.09999999999997
30
0
41
1
10
-23.5351008110145
20
3.09999999999997
30
0
41
1
10
-23.5399770620525
20
3.09999999999997
30
0
41
1
10
-23.5399999999961
20
3.09999999999997
30
0
0
SPLINE
5
1D3
100
AcDbEntity
8
SK1
62
256
6
ByLayer
370
18
48
1
60
0
100
AcDbSpline
70
4
71
3
72
25
73
21
40
0
40
0
40
0
40
0
40
0.124885193843347
40
0.124885193843347
40
0.249901594722869
40
0.249901594722869
40
0.28115569494275
40
0.28115569494275
40
0.31240979516263
40
0.374917995602391
40
0.374917995602391
40
0.499934396481913
40
0.499934396481913
40
0.749967198240956
40
0.749967198240956
40
0.874983599120478
40
0.874983599120478
40
0.937491799560239
40
0.937491799560239
40
1
40
1
40
1
40
1
41
1
10
-23.540000000013
20
-3.10000000000002
30
0
41
1
10
-23.5399770644537
20
-3.10000000000002
30
0
41
1
10
-23.5351008133849
20
-3.10000000000002
30
0
41
1
10
-23.5158360601473
20
-3.10000000000002
30
0
41
1
10
-23.501438870322
20
-3.10000000000002
30
0
41
1
10
-23.4777720281785
20
-3.10000000000002
30
0
41
1
10
-23.4727515433793
20
-3.10000000000002
30
0
41
1
10
-23.4622079504984
20
-3.10000000000002
30
0
41
1
10
-23.4456232733698
20
-3.10000000000002
30
0
41
1
10
-23.4268208094403
20
-3.10000000000002
30
0
41
1
10
-23.3864873992669
20
-3.10000000000002
30
0
41
1
10
-23.3559652856179
20
-3.10000000000002
30
0
41
1
10
-23.2551635800205
20
-3.10000000000002
30
0
41
1
10
-23.1757222997547
20
-3.10000000000002
30
0
41
1
10
-23.0434983576829
20
-3.10000000000002
30
0
41
1
10
-22.9972279312133
20
-3.10000000000002
30
0
41
1
10
-22.9250377452358
20
-3.10000000000002
30
0
41
1
10
-22.9005152723239
20
-3.10000000000002
30
0
41
1
10
-22.8507859698115
20
-3.10000000000002
30
0
41
1
10
-22.8255580387326
20
-3.10000000000002
30
0
41
1
10
-22.8
20
-3.10000000000002
30
0
0
SPLINE
5
1D4
100
AcDbEntity
8
SK1
62
256
6
ByLayer
370
18
48
1
60
0
100
AcDbSpline
70
4
71
3
72
42
73
38
40
0
40
0
40
0
40
0
40
0.0625
40
0.0625
40
0.09375
40
0.09375
40
0.125
40
0.125
40
0.25
40
0.25
40
0.375
40
0.375
40
0.390625
40
0.390625
40
0.40625
40
0.40625
40
0.4375
40
0.4375
40
0.5
40
0.5625
40
0.5625
40
0.625
40
0.625
40
0.640625
40
0.640625
40
0.65625
40
0.6875
40
0.6875
40
0.75
40
0.75
40
0.875
40
0.875
40
0.9375
40
0.9375
40
0.96875
40
0.96875
40
1
40
1
40
1
40
1
41
1
10
-22.8
20
-2.26618622359246
30
0
41
1
10
-22.8508894316494
20
-2.17995526185629
30
0
41
1
10
-22.9004658050821
20
-2.09275503916427
30
0
41
1
10
-22.9724426999165
20
-1.96019220081689
30
0
41
1
10
-22.996036028223
20
-1.91571008013594
30
0
41
1
10
-23.0423408985636
20
-1.82609493008272
30
0
41
1
10
-23.0650757832331
20
-1.78091234802616
30
0
41
1
10
-23.1758387500034
20
-1.55417609606832
30
0
41
1
10
-23.2554566958293
20
-1.36974721051177
30
0
41
1
10
-23.3897816515624
20
-0.992468314566707
30
0
41
1
10
-23.444474755522
20
-0.799613603282126
30
0
41
1
10
-23.486994699949
20
-0.57622580404788
30
0
41
1
10
-23.4914541484178
20
-0.551315357845539
30
0
41
1
10
-23.4998243597224
20
-0.501308982638278
30
0
41
1
10
-23.5037398055586
20
-0.476178764178911
30
0
41
1
10
-23.5145929273497
20
-0.40080194939722
30
0
41
1
10
-23.5206393479445
20
-0.350580412204323
30
0
41
1
10
-23.5351619313951
20
-0.200006058842433
30
0
41
1
10
-23.5448636827396
20
0.0005186273750724
30
0
41
1
10
-23.535110928051
20
0.200557804829629
30
0
41
1
10
-23.5158360601473
20
0.400359347393845
30
0
41
1
10
-23.5014388703221
20
0.500141333692056
30
0
41
1
10
-23.4777720281785
20
0.62472730657376
30
0
41
1
10
-23.4727515433793
20
0.649653694457953
30
0
41
1
10
-23.4622079504984
20
0.69924920209607
30
0
41
1
10
-23.4456232733698
20
0.773343264923909
30
0
41
1
10
-23.4268208094403
20
0.846574765308077
30
0
41
1
10
-23.386487399267
20
0.991976579143682
30
0
41
1
10
-23.3559652856179
20
1.08749807377382
30
0
41
1
10
-23.2551635800205
20
1.37047065302403
30
0
41
1
10
-23.1757222997547
20
1.55435848789429
30
0
41
1
10
-23.0434983576829
20
1.82511003621912
30
0
41
1
10
-22.9972279312134
20
1.91450654932038
30
0
41
1
10
-22.9250377452358
20
2.04751832711881
30
0
41
1
10
-22.9005152723239
20
2.09166174892783
30
0
41
1
10
-22.8507859698115
20
2.17932232815221
30
0
41
1
10
-22.8255580387326
20
2.22287871968496
30
0
41
1
10
-22.8
20
2.26618622359243
30
0
0
SPLINE
5
1D5
100
AcDbEntity
8
1
62
256
6
ByLayer
370
18
48
1
60
0
100
AcDbSpline
70
4
71
2
72
6
73
3
40
0
40
0
40
0
40
1
40
1
40
1
41
1
10
61.5697889229561
20
-4.02761853403953
30
0
41
1
10
61.7658393509204
20
-3.68941991080328
30
0
41
1
10
61.9623099524284
20
-3.35147724545456
30
0
0
SPLINE
5
1D6
100
AcDbEntity
8
1
62
256
6
ByLayer
370
18
48
1
60
0
100
AcDbSpline
70
4
71
2
72
6
73
3
40
0
40
0
40
0
40
1
40
1
40
1
41
1
10
64.3653088300183
20
-3.51513564041195
30
0
41
1
10
64.4175382686136
20
-3.42554356695692
30
0
41
1
10
64.469776183297
20
-3.33602041653594
30
0
0
SPLINE
5
1D7
100
AcDbEntity
8
1
62
256
6
ByLayer
370
18
48
1
60
0
100
AcDbSpline
70
4
71
2
72
6
73
3
40
0
40
0
40
0
40
1
40
1
40
1
41
1
10
55.7189125660755
20
-3.33733372942473
30
0
41
1
10
55.7416941338903
20
-3.29299043948493
30
0
41
1
10
55.7831844393024
20
-3.28375104765121
30
0
0
SPLINE
5
1D8
100
AcDbEntity
8
1
62
256
6
ByLayer
370
18
48
1
60
0
100
AcDbSpline
70
4
71
2
72
6
73
3
40
0
40
0
40
0
40
1
40
1
40
1
41
1
10
55.8127331978143
20
-3.28148221098471
30
0
41
1
10
55.8311941446437
20
-3.28240815060485
30
0
41
1
10
55.8524586606725
20
-3.28859453107518
30
0
0
SPLINE
5
1D9
100
AcDbEntity
8
1
62
256
6
ByLayer
370
18
48
1
60
0
100
AcDbSpline
70
4
71
1
72
4
73
2
40
0
40
0
40
1
40
1
41
1
10
65.9999999999999
20
2.94052563016092
30
0
41
1
10
65.7972877764075
20
3.14321232722744
30
0
0
SPLINE
5
1DA
100
AcDbEntity
8
1
62
256
6
ByLayer
370
18
48
1
60
0
100
AcDbSpline
70
4
71
1
72
4
73
2
40
0
40
0
40
1
40
1
41
1
10
63.7138813722245
20
-3.71107414527319
30
0
41
1
10
64.3467742095792
20
-3.544355537136
30
0
0
SPLINE
5
1DB
100
AcDbEntity
8
1
62
256
6
ByLayer
370
18
48
1
60
0
100
AcDbSpline
70
4
71
3
72
11
73
7
40
0
40
0
40
0
40
0
40
0.242348758115952
40
0.49841614287391
40
0.755315041338455
40
1
40
1
40
1
40
1
41
1
10
57.8623813413882
20
3.35449297627179
30
0
41
1
10
57.8496117574514
20
3.33128487764347
30
0
41
1
10
57.8144917992168
20
3.29553817647368
30
0
41
1
10
57.7192443637723
20
3.26636854737112
30
0
41
1
10
57.624174642909
20
3.30047289385786
30
0
41
1
10
57.589196066814
20
3.33939227831533
30
0
41
1
10
57.5765573876403
20
3.3642558951336
30
0
0
SPLINE
5
1DC
100
AcDbEntity
8
1
62
256
6
ByLayer
370
18
48
1
60
0
100
AcDbSpline
70
4
71
2
72
6
73
3
40
0
40
0
40
0
40
1
40
1
40
1
41
1
10
55.3000983720277
20
-4.06003835776457
30
0
41
1
10
55.5049182344676
20
-3.70687665724452
30
0
41
1
10
55.710030563253
20
-3.3540763991906
30
0
0
SPLINE
5
1DD
100
AcDbEntity
8
1
62
256
6
ByLayer
370
18
48
1
60
0
100
AcDbSpline
70
4
71
2
72
6
73
3
40
0
40
0
40
0
40
1
40
1
40
1
41
1
10
63.493308209743
20
-3.36172954063466
30
0
41
1
10
63.5943742305112
20
-3.5360452549269
30
0
41
1
10
63.6954122708792
20
-3.71042117188688
30
0
0
SPLINE
5
1DE
100
AcDbEntity
8
1
62
256
6
ByLayer
370
18
48
1
60
0
100
AcDbSpline
70
4
71
2
72
6
73
3
40
0
40
0
40
0
40
1
40
1
40
1
41
1
10
54.7390879983141
20
-3.35710976461081
30
0
41
1
10
54.9432908815778
20
-3.70911686171405
30
0
41
1
10
55.1473627206506
20
-4.06149325796079
30
0
0
SPLINE
5
1DF
100
AcDbEntity
8
1
62
256
6
ByLayer
370
18
48
1
60
0
100
AcDbSpline
70
4
71
3
72
11
73
7
40
0
40
0
40
0
40
0
40
0.220785917466824
40
0.464182907571681
40
0.727011099991151
40
1
40
1
40
1
40
1
41
1
10
63.2127084632177
20
-3.35081578993209
30
0
41
1
10
63.220580714928
20
-3.33469050592288
30
0
41
1
10
63.2466859763082
20
-3.30723005551201
30
0
41
1
10
63.3273175934264
20
-3.26897113837543
30
0
41
1
10
63.4320481607714
20
-3.28945207485702
30
0
41
1
10
63.470775819825
20
-3.32556879790303
30
0
41
1
10
63.4858479653376
20
-3.35162953947403
30
0
0
SPLINE
5
1E0
100
AcDbEntity
8
1
62
256
6
ByLayer
370
18
48
1
60
0
100
AcDbSpline
70
4
71
3
72
10
73
6
40
0
40
0
40
0
40
0
40
0.273404375799484
40
0.535842135364454
40
1
40
1
40
1
40
1
41
1
10
54.4624846808806
20
-3.35101704770472
30
0
41
1
10
54.4781690827387
20
-3.32471832245585
30
0
41
1
10
54.5168183519668
20
-3.28720647138675
30
0
41
1
10
54.6576034761422
20
-3.27034444188521
30
0
41
1
10
54.708482610076
20
-3.30498350808304
30
0
41
1
10
54.7328955943998
20
-3.34683881801539
30
0
0
SPLINE
5
1E1
100
AcDbEntity
8
1
62
256
6
ByLayer
370
18
48
1
60
0
100
AcDbSpline
70
4
71
2
72
6
73
3
40
0
40
0
40
0
40
1
40
1
40
1
41
1
10
58.2702288736879
20
4.05777743834878
30
0
41
1
10
58.0653349099974
20
3.70415067061103
30
0
41
1
10
57.8600767467757
20
3.35075613189071
30
0
0
SPLINE
5
1E2
100
AcDbEntity
8
1
62
256
6
ByLayer
370
18
48
1
60
0
100
AcDbSpline
70
4
71
2
72
6
73
3
40
0
40
0
40
0
40
1
40
1
40
1
41
1
10
58.839448094726
20
3.34748679790971
30
0
41
1
10
58.6323079139468
20
3.70391105793018
30
0
41
1
10
58.4263120793066
20
4.05922464939806
30
0
0
SPLINE
5
1E3
100
AcDbEntity
8
1
62
256
6
ByLayer
370
18
48
1
60
0
100
AcDbSpline
70
4
71
2
72
6
73
3
40
0
40
0
40
0
40
1
40
1
40
1
41
1
10
62.8788383110328
20
-3.92558819335528
30
0
41
1
10
63.0449451527455
20
-3.63928641185348
30
0
41
1
10
63.2111604711505
20
-3.35336772792209
30
0
0
SPLINE
5
1E4
100
AcDbEntity
8
1
62
256
6
ByLayer
370
18
48
1
60
0
100
AcDbSpline
70
4
71
3
72
10
73
6
40
0
40
0
40
0
40
0
40
0.456399395674908
40
0.720758281039703
40
1
40
1
40
1
40
1
41
1
10
59.1085068259737
20
3.3481696386421
30
0
41
1
10
59.0827802997931
20
3.30586092084047
30
0
41
1
10
59.0308223909792
20
3.26986171663447
30
0
41
1
10
58.8910128006283
20
3.28784360501467
30
0
41
1
10
58.8527852609914
20
3.32484390153488
30
0
41
1
10
58.8374571401141
20
3.35108858246298
30
0
0
SPLINE
5
1E5
100
AcDbEntity
8
1
62
256
6
ByLayer
370
18
48
1
60
0
100
AcDbSpline
70
4
71
1
72
4
73
2
40
0
40
0
40
1
40
1
41
1
10
62.6248410784105
20
-3.99883793787131
30
0
41
1
10
62.8695799875574
20
-3.93434609272237
30
0
0
SPLINE
5
1E6
100
AcDbEntity
8
1
62
256
6
ByLayer
370
18
48
1
60
0
100
AcDbSpline
70
4
71
2
72
6
73
3
40
0
40
0
40
0
40
1
40
1
40
1
41
1
10
62.2352186759869
20
-3.35154196822393
30
0
41
1
10
62.4208679572203
20
-3.67133731659942
30
0
41
1
10
62.6062076123889
20
-3.99132414633877
30
0
0
SPLINE
5
1E7
100
AcDbEntity
8
1
62
256
6
ByLayer
370
18
48
1
60
0
100
AcDbSpline
70
4
71
2
72
6
73
3
40
0
40
0
40
0
40
1
40
1
40
1
41
1
10
54.0540431543745
20
-4.05420842435001
30
0
41
1
10
54.259324319083
20
-3.70002251773255
30
0
41
1
10
54.4651529419801
20
-3.3461215711005
30
0
0
SPLINE
5
1E8
100
AcDbEntity
8
1
62
256
6
ByLayer
370
18
48
1
60
0
100
AcDbSpline
70
4
71
3
72
11
73
7
40
0
40
0
40
0
40
0
40
0.246236253320497
40
0.501916985018826
40
0.753097366912083
40
1
40
1
40
1
40
1
41
1
10
61.9557229918897
20
-3.36095829042722
30
0
41
1
10
61.9743147915509
20
-3.33113228714623
30
0
41
1
10
62.0181822952276
20
-3.28730314856548
30
0
41
1
10
62.1269597872805
20
-3.27029428265556
30
0
41
1
10
62.2052913842648
20
-3.31194576057467
30
0
41
1
10
62.2295597670178
20
-3.3368857307876
30
0
41
1
10
62.2354651294475
20
-3.35196526148411
30
0
0
SPLINE
5
1E9
100
AcDbEntity
8
1
62
256
6
ByLayer
370
18
48
1
60
0
100
AcDbSpline
70
4
71
2
72
6
73
3
40
0
40
0
40
0
40
1
40
1
40
1
41
1
10
53.4850411856619
20
-3.350625272153
30
0
41
1
10
53.6902255958415
20
-3.70387663626249
30
0
41
1
10
53.895049247671
20
-4.05736948907006
30
0
0
SPLINE
5
1EA
100
AcDbEntity
8
1
62
256
6
ByLayer
370
18
48
1
60
0
100
AcDbSpline
70
4
71
3
72
11
73
7
40
0
40
0
40
0
40
0
40
0.243119182030382
40
0.501429119085789
40
0.759021612456099
40
1
40
1
40
1
40
1
41
1
10
53.1975568988631
20
-3.36655556737807
30
0
41
1
10
53.2107012873949
20
-3.34073894957396
30
0
41
1
10
53.2465670387327
20
-3.29990969611202
30
0
41
1
10
53.3420782717331
20
-3.26514305697256
30
0
41
1
10
53.4377113427141
20
-3.29360659287275
30
0
41
1
10
53.4737178475598
20
-3.330173425043
30
0
41
1
10
53.4869838397774
20
-3.35379041269641
30
0
0
SPLINE
5
1EB
100
AcDbEntity
8
1
62
256
6
ByLayer
370
18
48
1
60
0
100
AcDbSpline
70
4
71
2
72
6
73
3
40
0
40
0
40
0
40
1
40
1
40
1
41
1
10
59.5245890866466
20
4.06482553977457
30
0
41
1
10
59.3203624723289
20
3.71213942745007
30
0
41
1
10
59.1160211086665
20
3.3597484510536
30
0
0
SPLINE
5
1EC
100
AcDbEntity
8
1
62
256
6
ByLayer
370
18
48
1
60
0
100
AcDbSpline
70
4
71
2
72
6
73
3
40
0
40
0
40
0
40
1
40
1
40
1
41
1
10
60.1823715105804
20
3.28634530066131
30
0
41
1
10
60.11231904661
20
3.29582501275189
30
0
41
1
10
60.096642761628
20
3.33041496137898
30
0
0
SPLINE
5
1ED
100
AcDbEntity
8
1
62
256
6
ByLayer
370
18
48
1
60
0
100
AcDbSpline
70
4
71
2
72
6
73
3
40
0
40
0
40
0
40
1
40
1
40
1
41
1
10
60.0862031501972
20
3.35153600861798
30
0
41
1
10
59.8809230595134
20
3.70448143269726
30
0
41
1
10
59.6758790140446
20
4.05794048034173
30
0
0
SPLINE
5
1EE
100
AcDbEntity
8
1
62
256
6
ByLayer
370
18
48
1
60
0
100
AcDbSpline
70
4
71
2
72
6
73
3
40
0
40
0
40
0
40
1
40
1
40
1
41
1
10
60.9797166147287
20
-3.33997620482953
30
0
41
1
10
61.183812872875
20
-3.69061028293208
30
0
41
1
10
61.3878018942777
20
-4.04199984313004
30
0
0
LINE
5
7F
100
AcDbEntity
8
80
62
256
6
ByLayer
370
18
48
1
60
0
100
AcDbLine
10
0
20
0
30
0
11
-5
21
0
31
0
39
0
210
0
220
0
230
1
0
LINE
5
80
100
AcDbEntity
8
4
62
256
6
ByLayer
370
18
48
0.05
60
0
100
AcDbLine
10
0
20
0
30
0
11
67.55
21
0
31
0
39
0
210
0
220
0
230
1
0
LINE
5
82
100
AcDbEntity
8
81
62
256
6
ByLayer
370
18
48
1
60
0
100
AcDbLine
10
67.55
20
0
30
0
11
72.55
21
0
31
0
39
0
210
0
220
0
230
1
0
LINE
5
83
100
AcDbEntity
8
SK4
62
256
6
ByLayer
370
18
48
0.05
60
0
100
AcDbLine
10
-24
20
0
30
0
11
67.55
21
0
31
0
39
0
210
0
220
0
230
1
0
LINE
5
85
100
AcDbEntity
8
1
62
256
6
ByLayer
370
18
48
1
60
0
100
AcDbLine
10
0
20
4
30
0
11
0
21
-4
31
0
39
0
210
0
220
0
230
1
0
LINE
5
86
100
AcDbEntity
8
1
62
256
6
ByLayer
370
18
48
1
60
0
100
AcDbLine
10
66
20
2.940525
30
0
11
66
21
2.938192
31
0
39
0
210
0
220
0
230
1
0
LINE
5
87
100
AcDbEntity
8
1
62
256
6
ByLayer
370
18
48
1
60
0
100
AcDbLine
10
64.366725
20
-3.512701
30
0
11
64.363503
21
-3.519975
31
0
39
0
210
0
220
0
230
1
0
LINE
5
88
100
AcDbEntity
8
1
62
256
6
ByLayer
370
18
48
1
60
0
100
AcDbLine
10
64.345545
20
-3.544681
30
0
11
64.339277
21
-3.546866
31
0
39
0
210
0
220
0
230
1
0
LINE
5
89
100
AcDbEntity
8
1
62
256
6
ByLayer
370
18
48
1
60
0
100
AcDbLine
10
54.739219
20
-3.357292
30
0
11
54.734585
21
-3.349965
31
0
39
0
210
0
220
0
230
1
0
LINE
5
8A
100
AcDbEntity
8
1
62
256
6
ByLayer
370
18
48
1
60
0
100
AcDbLine
10
57.862831
20
3.355169
30
0
11
57.860269
21
3.351086
31
0
39
0
210
0
220
0
230
1
0
LINE
5
8B
100
AcDbEntity
8
1
62
256
6
ByLayer
370
18
48
1
60
0
100
AcDbLine
10
58.839462
20
3.34746
30
0
11
58.836045
21
3.353438
31
0
39
0
210
0
220
0
230
1
0
LINE
5
8C
100
AcDbEntity
8
1
62
256
6
ByLayer
370
18
48
1
60
0
100
AcDbLine
10
54.465055
20
-3.346313
30
0
11
54.461529
21
-3.352623
31
0
39
0
210
0
220
0
230
1
0
LINE
5
8D
100
AcDbEntity
8
1
62
256
6
ByLayer
370
18
48
1
60
0
100
AcDbLine
10
62.23747
20
-3.355214
30
0
11
62.235342
21
-3.351754
31
0
39
0
210
0
220
0
230
1
0
LINE
5
8E
100
AcDbEntity
8
1
62
256
6
ByLayer
370
18
48
1
60
0
100
AcDbLine
10
53.487459
20
-3.354515
30
0
11
53.485186
21
-3.350872
31
0
39
0
210
0
220
0
230
1
0
LINE
5
8F
100
AcDbEntity
8
1
62
256
6
ByLayer
370
13
48
1
60
0
100
AcDbLine
10
52.300517
20
-2.135631
30
0
11
52.300517
21
-3.216995
31
0
39
0
210
0
220
0
230
1
0
LINE
5
90
100
AcDbEntity
8
1
62
256
6
ByLayer
370
18
48
1
60
0
100
AcDbLine
10
60.984122
20
-3.348819
30
0
11
60.979861
21
-3.340292
31
0
39
0
210
0
220
0
230
1
0
LINE
5
91
100
AcDbEntity
8
1
62
256
6
ByLayer
370
13
48
1
60
0
100
AcDbLine
10
51.750517
20
-2.962444
30
0
11
51.750517
21
-1.720763
31
0
39
0
210
0
220
0
230
1
0
LINE
5
92
100
AcDbEntity
8
1
62
256
6
ByLayer
370
18
48
1
60
0
100
AcDbLine
10
57.034203
20
4.067419
30
0
11
57.036844
21
4.067047
31
0
39
0
210
0
220
0
230
1
0
LINE
5
93
100
AcDbEntity
8
1
62
256
6
ByLayer
370
13
48
1
60
0
100
AcDbLine
10
52.300517
20
3.202291
30
0
11
52.300517
21
2.072055
31
0
39
0
210
0
220
0
230
1
0
LINE
5
94
100
AcDbEntity
8
1
62
256
6
ByLayer
370
13
48
1
60
0
100
AcDbLine
10
51.750517
20
2.311879
30
0
11
51.750517
21
3.107886
31
0
39
0
210
0
220
0
230
1
0
LINE
5
95
100
AcDbEntity
8
1
62
256
6
ByLayer
370
13
48
1
60
0
100
AcDbLine
10
31.096238
20
-3.11385
30
0
11
31.096238
21
3.11385
31
0
39
0
210
0
220
0
230
1
0
LINE
5
96
100
AcDbEntity
8
1
62
256
6
ByLayer
370
13
48
1
60
0
100
AcDbLine
10
30.905225
20
3.130561
30
0
11
30.905225
21
-3.130561
31
0
39
0
210
0
220
0
230
1
0
LINE
5
97
100
AcDbEntity
8
1
62
256
6
ByLayer
370
18
48
1
60
0
100
AcDbLine
10
25.974394
20
4
30
0
11
25.974394
21
-4
31
0
39
0
210
0
220
0
230
1
0
LINE
5
98
100
AcDbEntity
8
SK1
62
256
6
ByLayer
370
18
48
1
60
0
100
AcDbLine
10
-24
20
2.64
30
0
11
-24
21
-2.64
31
0
39
0
210
0
220
0
230
1
0
LINE
5
9A
100
AcDbEntity
8
SK1
62
256
6
ByLayer
370
18
48
1
60
0
100
AcDbLine
10
-15
20
2.266186
30
0
11
-15
21
-2.266186
31
0
39
0
210
0
220
0
230
1
0
LINE
5
9B
100
AcDbEntity
8
SK1
62
256
6
ByLayer
370
18
48
1
60
0
100
AcDbLine
10
-15
20
3.1
30
0
11
-14.26
21
3.84
31
0
39
0
210
0
220
0
230
1
0
LINE
5
9C
100
AcDbEntity
8
SK1
62
256
6
ByLayer
370
18
48
1
60
0
100
AcDbLine
10
-22.8
20
3.1
30
0
11
-15
21
3.1
31
0
39
0
210
0
220
0
230
1
0
LINE
5
9D
100
AcDbEntity
8
SK1
62
256
6
ByLayer
370
18
48
1
60
0
100
AcDbLine
10
-22.8
20
2.266186
30
0
11
-22.8
21
3.1
31
0
39
0
210
0
220
0
230
1
0
LINE
5
9E
100
AcDbEntity
8
SK1
62
256
6
ByLayer
370
18
48
1
60
0
100
AcDbLine
10
-15
20
2.266186
30
0
11
-22.8
21
2.266186
31
0
39
0
210
0
220
0
230
1
0
LINE
5
9F
100
AcDbEntity
8
SK1
62
256
6
ByLayer
370
18
48
1
60
0
100
AcDbLine
10
-22.8
20
-2.266186
30
0
11
-15
21
-2.266186
31
0
39
0
210
0
220
0
230
1
0
LINE
5
A0
100
AcDbEntity
8
SK1
62
256
6
ByLayer
370
18
48
1
60
0
100
AcDbLine
10
-22.8
20
-3.1
30
0
11
-22.8
21
-2.266186
31
0
39
0
210
0
220
0
230
1
0
LINE
5
A1
100
AcDbEntity
8
SK1
62
256
6
ByLayer
370
18
48
1
60
0
100
AcDbLine
10
-15
20
-3.1
30
0
11
-22.8
21
-3.1
31
0
39
0
210
0
220
0
230
1
0
LINE
5
A2
100
AcDbEntity
8
SK1
62
256
6
ByLayer
370
18
48
1
60
0
100
AcDbLine
10
-15
20
-3.1
30
0
11
-14.26
21
-3.84
31
0
39
0
210
0
220
0
230
1
0
LINE
5
A3
100
AcDbEntity
8
SK1
62
256
6
ByLayer
370
18
48
1
60
0
100
AcDbLine
10
0
20
4
30
0
11
0
21
-4
31
0
39
0
210
0
220
0
230
1
0
LINE
5
A4
100
AcDbEntity
8
SK1
62
256
6
ByLayer
370
18
48
1
60
0
100
AcDbLine
10
-14.1
20
3.84
30
0
11
-14.1
21
-3.84
31
0
39
0
210
0
220
0
230
1
0
LINE
5
A5
100
AcDbEntity
8
SK1
62
256
6
ByLayer
370
18
48
1
60
0
100
AcDbLine
10
-13.94
20
-4
30
0
11
-13.94
21
4
31
0
39
0
210
0
220
0
230
1
0
LINE
5
A6
100
AcDbEntity
8
1
62
256
6
ByLayer
370
18
48
1
60
0
100
AcDbLine
10
52.845777
20
-3.576028
30
0
11
53.008419
21
-3.669929
31
0
39
0
210
0
220
0
230
1
0
LINE
5
A7
100
AcDbEntity
8
1
62
256
6
ByLayer
370
18
48
1
60
0
100
AcDbLine
10
25.974394
20
4
30
0
11
0
21
4
31
0
39
0
210
0
220
0
230
1
0
LINE
5
A8
100
AcDbEntity
8
1
62
256
6
ByLayer
370
18
48
1
60
0
100
AcDbLine
10
0
20
-4
30
0
11
25.974394
21
-4
31
0
39
0
210
0
220
0
230
1
0
LINE
5
A9
100
AcDbEntity
8
1
62
256
6
ByLayer
370
18
48
1
60
0
100
AcDbLine
10
57.162846
20
4.067419
30
0
11
57.034189
21
4.067419
31
0
39
0
210
0
220
0
230
1
0
LINE
5
AA
100
AcDbEntity
8
1
62
256
6
ByLayer
370
18
48
1
60
0
100
AcDbLine
10
55.158993
20
-4.067419
30
0
11
55.287655
21
-4.067419
31
0
39
0
210
0
220
0
230
1
0
LINE
5
AB
100
AcDbEntity
8
1
62
256
6
ByLayer
370
18
48
1
60
0
100
AcDbLine
10
58.413143
20
4.067419
30
0
11
58.284311
21
4.067419
31
0
39
0
210
0
220
0
230
1
0
LINE
5
AC
100
AcDbEntity
8
1
62
256
6
ByLayer
370
18
48
1
60
0
100
AcDbLine
10
67.55
20
0
30
0
11
66
21
1.55
31
0
39
0
210
0
220
0
230
1
0
LINE
5
AD
100
AcDbEntity
8
1
62
256
6
ByLayer
370
18
48
1
60
0
100
AcDbLine
10
66
20
-1.55
30
0
11
67.55
21
0
31
0
39
0
210
0
220
0
230
1
0
LINE
5
AE
100
AcDbEntity
8
1
62
256
6
ByLayer
370
18
48
1
60
0
100
AcDbLine
10
53.909517
20
-4.067419
30
0
11
54.038086
21
-4.067419
31
0
39
0
210
0
220
0
230
1
0
LINE
5
AF
100
AcDbEntity
8
1
62
256
6
ByLayer
370
18
48
1
60
0
100
AcDbLine
10
59.662149
20
4.067419
30
0
11
59.534045
21
4.067419
31
0
39
0
210
0
220
0
230
1
0
LINE
5
B0
100
AcDbEntity
8
1
62
256
6
ByLayer
370
18
48
1
60
0
100
AcDbLine
10
61.4089
20
-4.067419
30
0
11
61.538393
21
-4.067419
31
0
39
0
210
0
220
0
230
1
0
LINE
5
B1
100
AcDbEntity
8
1
62
256
6
ByLayer
370
18
48
1
60
0
100
AcDbLine
10
31.096238
20
-3.11385
30
0
11
38.749029
21
-3.11385
31
0
39
0
210
0
220
0
230
1
0
LINE
5
B2
100
AcDbEntity
8
1
62
256
6
ByLayer
370
18
48
1
60
0
100
AcDbLine
10
44.537083
20
-3.11385
30
0
11
47.250021
21
-3.11385
31
0
39
0
210
0
220
0
230
1
0
LINE
5
B3
100
AcDbEntity
8
1
62
256
6
ByLayer
370
18
48
1
60
0
100
AcDbLine
10
51.500077
20
3.11385
30
0
11
48.777213
21
3.11385
31
0
39
0
210
0
220
0
230
1
0
LINE
5
B4
100
AcDbEntity
8
1
62
256
6
ByLayer
370
18
48
1
60
0
100
AcDbLine
10
42.999583
20
3.11385
30
0
11
40.283014
21
3.11385
31
0
39
0
210
0
220
0
230
1
0
LINE
5
B5
100
AcDbEntity
8
1
62
256
6
ByLayer
370
18
48
1
60
0
100
AcDbLine
10
36.315702
20
3.11385
30
0
11
31.096238
21
3.11385
31
0
39
0
210
0
220
0
230
1
0
LINE
5
B6
100
AcDbEntity
8
1
62
256
6
ByLayer
370
18
48
1
60
0
100
AcDbLine
10
30.905225
20
3.130561
30
0
11
25.974394
21
4
31
0
39
0
210
0
220
0
230
1
0
LINE
5
B7
100
AcDbEntity
8
1
62
256
6
ByLayer
370
18
48
1
60
0
100
AcDbLine
10
25.974394
20
-4
30
0
11
30.905225
21
-3.130561
31
0
39
0
210
0
220
0
230
1
0
LINE
5
B8
100
AcDbEntity
8
SK1
62
256
6
ByLayer
370
18
48
1
60
0
100
AcDbLine
10
-24
20
-2.64
30
0
11
-23.54
21
-3.1
31
0
39
0
210
0
220
0
230
1
0
LINE
5
B9
100
AcDbEntity
8
SK1
62
256
6
ByLayer
370
18
48
1
60
0
100
AcDbLine
10
-23.54
20
3.1
30
0
11
-24
21
2.64
31
0
39
0
210
0
220
0
230
1
0
LINE
5
BA
100
AcDbEntity
8
SK1
62
256
6
ByLayer
370
18
48
1
60
0
100
AcDbLine
10
-14.1
20
3.84
30
0
11
-14.26
21
3.84
31
0
39
0
210
0
220
0
230
1
0
LINE
5
BB
100
AcDbEntity
8
SK1
62
256
6
ByLayer
370
18
48
1
60
0
100
AcDbLine
10
-14.26
20
-3.84
30
0
11
-14.1
21
-3.84
31
0
39
0
210
0
220
0
230
1
0
LINE
5
BC
100
AcDbEntity
8
SK1
62
256
6
ByLayer
370
18
48
1
60
0
100
AcDbLine
10
0
20
4
30
0
11
-13.94
21
4
31
0
39
0
210
0
220
0
230
1
0
LINE
5
BD
100
AcDbEntity
8
SK1
62
256
6
ByLayer
370
18
48
1
60
0
100
AcDbLine
10
-13.94
20
-4
30
0
11
0
21
-4
31
0
39
0
210
0
220
0
230
1
0
LINE
5
BE
100
AcDbEntity
8
SK1
62
256
6
ByLayer
370
18
48
1
60
0
100
AcDbLine
10
-14.1
20
-3.84
30
0
11
-13.94
21
-4
31
0
39
0
210
0
220
0
230
1
0
LINE
5
BF
100
AcDbEntity
8
SK1
62
256
6
ByLayer
370
18
48
1
60
0
100
AcDbLine
10
-13.94
20
4
30
0
11
-14.1
21
3.84
31
0
39
0
210
0
220
0
230
1
0
LINE
5
C0
100
AcDbEntity
8
SK2
62
256
6
ByLayer
370
18
48
1
60
0
100
AcDbLine
10
14.017197
20
-4
30
0
11
14.017197
21
16.841828
31
0
39
0
210
0
220
0
230
1
0
LINE
5
C2
100
AcDbEntity
8
1
62
256
6
ByLayer
370
18
48
1
60
1
100
AcDbLine
10
14.017197
20
4
30
0
11
14.477981
21
0.500002
31
0
39
0
210
0
220
0
230
1
0
LINE
5
C3
100
AcDbEntity
8
1
62
256
6
ByLayer
370
18
48
1
60
1
100
AcDbLine
10
14.477981
20
0.500002
30
0
11
13.556413
21
0.499998
31
0
39
0
210
0
220
0
230
1
0
LINE
5
C4
100
AcDbEntity
8
1
62
256
6
ByLayer
370
18
48
1
60
1
100
AcDbLine
10
13.556413
20
0.499998
30
0
11
14.017197
21
4
31
0
39
0
210
0
220
0
230
1
0
LINE
5
C5
100
AcDbEntity
8
1
62
256
6
ByLayer
370
18
48
1
60
1
100
AcDbLine
10
14.017197
20
-4
30
0
11
13.556413
21
-0.500002
31
0
39
0
210
0
220
0
230
1
0
LINE
5
C6
100
AcDbEntity
8
1
62
256
6
ByLayer
370
18
48
1
60
1
100
AcDbLine
10
13.556413
20
-0.500002
30
0
11
14.477981
21
-0.499998
31
0
39
0
210
0
220
0
230
1
0
LINE
5
C7
100
AcDbEntity
8
1
62
256
6
ByLayer
370
18
48
1
60
1
100
AcDbLine
10
14.477981
20
-0.499998
30
0
11
14.017197
21
-4
31
0
39
0
210
0
220
0
230
1
0
LINE
5
C8
100
AcDbEntity
8
2
62
256
6
ByLayer
370
18
48
1
60
0
100
AcDbLine
10
66
20
-41.567419
30
0
11
-24
21
-41.567419
31
0
39
0
210
0
220
0
230
1
0
LINE
5
CA
100
AcDbEntity
8
2
62
256
6
ByLayer
370
18
48
1
60
0
100
AcDbLine
10
-24
20
-4.2275
30
0
11
-24
21
-43.567419
31
0
39
0
210
0
220
0
230
1
0
LINE
5
CB
100
AcDbEntity
8
2
62
256
6
ByLayer
370
18
48
1
60
0
100
AcDbLine
10
66
20
-5.654919
30
0
11
66
21
-43.567419
31
0
39
0
210
0
220
0
230
1
0
LINE
5
CC
100
AcDbEntity
8
1
62
256
6
ByLayer
370
18
48
1
60
1
100
AcDbLine
10
-24
20
-41.567419
30
0
11
-20.500002
21
-41.106635
31
0
39
0
210
0
220
0
230
1
0
LINE
5
CD
100
AcDbEntity
8
1
62
256
6
ByLayer
370
18
48
1
60
1
100
AcDbLine
10
-20.500002
20
-41.106635
30
0
11
-20.499998
21
-42.028202
31
0
39
0
210
0
220
0
230
1
0
LINE
5
CE
100
AcDbEntity
8
1
62
256
6
ByLayer
370
18
48
1
60
1
100
AcDbLine
10
-20.499998
20
-42.028202
30
0
11
-24
21
-41.567419
31
0
39
0
210
0
220
0
230
1
0
LINE
5
CF
100
AcDbEntity
8
1
62
256
6
ByLayer
370
18
48
1
60
1
100
AcDbLine
10
66
20
-41.567419
30
0
11
62.500002
21
-42.028202
31
0
39
0
210
0
220
0
230
1
0
LINE
5
D0
100
AcDbEntity
8
1
62
256
6
ByLayer
370
18
48
1
60
1
100
AcDbLine
10
62.500002
20
-42.028202
30
0
11
62.499998
21
-41.106635
31
0
39
0
210
0
220
0
230
1
0
LINE
5
D1
100
AcDbEntity
8
1
62
256
6
ByLayer
370
18
48
1
60
1
100
AcDbLine
10
62.499998
20
-41.106635
30
0
11
66
21
-41.567419
31
0
39
0
210
0
220
0
230
1
0
LINE
5
1F3
100
AcDbEntity
8
1
62
256
6
ByLayer
370
18
48
1
60
1
100
AcDbLine
10
14.017197
20
4
30
0
11
14.477981
21
0.500002
31
0
39
0
210
0
220
0
230
1
0
LINE
5
1F4
100
AcDbEntity
8
1
62
256
6
ByLayer
370
18
48
1
60
1
100
AcDbLine
10
14.477981
20
0.500002
30
0
11
13.556413
21
0.499998
31
0
39
0
210
0
220
0
230
1
0
LINE
5
1F5
100
AcDbEntity
8
1
62
256
6
ByLayer
370
18
48
1
60
1
100
AcDbLine
10
13.556413
20
0.499998
30
0
11
14.017197
21
4
31
0
39
0
210
0
220
0
230
1
0
LINE
5
1F7
100
AcDbEntity
8
1
62
256
6
ByLayer
370
18
48
1
60
1
100
AcDbLine
10
14.017197
20
-4
30
0
11
13.556413
21
-0.500002
31
0
39
0
210
0
220
0
230
1
0
LINE
5
1F8
100
AcDbEntity
8
1
62
256
6
ByLayer
370
18
48
1
60
1
100
AcDbLine
10
13.556413
20
-0.500002
30
0
11
14.477981
21
-0.499998
31
0
39
0
210
0
220
0
230
1
0
LINE
5
1F9
100
AcDbEntity
8
1
62
256
6
ByLayer
370
18
48
1
60
1
100
AcDbLine
10
14.477981
20
-0.499998
30
0
11
14.017197
21
-4
31
0
39
0
210
0
220
0
230
1
0
LINE
5
1FC
100
AcDbEntity
8
1
62
256
6
ByLayer
370
18
48
1
60
1
100
AcDbLine
10
-24
20
-41.567419
30
0
11
-20.500002
21
-41.106635
31
0
39
0
210
0
220
0
230
1
0
LINE
5
1FD
100
AcDbEntity
8
1
62
256
6
ByLayer
370
18
48
1
60
1
100
AcDbLine
10
-20.500002
20
-41.106635
30
0
11
-20.499998
21
-42.028202
31
0
39
0
210
0
220
0
230
1
0
LINE
5
1FE
100
AcDbEntity
8
1
62
256
6
ByLayer
370
18
48
1
60
1
100
AcDbLine
10
-20.499998
20
-42.028202
30
0
11
-24
21
-41.567419
31
0
39
0
210
0
220
0
230
1
0
LINE
5
200
100
AcDbEntity
8
1
62
256
6
ByLayer
370
18
48
1
60
1
100
AcDbLine
10
66
20
-41.567419
30
0
11
62.500002
21
-42.028202
31
0
39
0
210
0
220
0
230
1
0
LINE
5
201
100
AcDbEntity
8
1
62
256
6
ByLayer
370
18
48
1
60
1
100
AcDbLine
10
62.500002
20
-42.028202
30
0
11
62.499998
21
-41.106635
31
0
39
0
210
0
220
0
230
1
0
LINE
5
202
100
AcDbEntity
8
1
62
256
6
ByLayer
370
18
48
1
60
1
100
AcDbLine
10
62.499998
20
-41.106635
30
0
11
66
21
-41.567419
31
0
39
0
210
0
220
0
230
1
0
MTEXT
5
1EF
100
AcDbEntity
8
SK2
62
256
6
ByLayer
370
18
48
1
60
0
100
AcDbMText
10
12.676082
20
9.658437
30
0
210
0
220
0
230
1
1
%%c
40
3
41
0
44
1.084337
50
90
71
7
72
5
7
iso_b_vert
0
MTEXT
5
1F2
100
AcDbEntity
8
SK2
62
256
6
ByLayer
370
18
48
1
60
0
100
AcDbMText
10
12.676082
20
15.635
30
0
210
0
220
0
230
1
1
\W0.5404;8
40
3
41
0
44
1.084337
50
90
71
7
72
5
7
iso_b_vert
0
MTEXT
5
1FB
100
AcDbEntity
8
2
62
256
6
ByLayer
370
18
48
1
60
0
100
AcDbMText
10
19.367172
20
-40.682304
30
0
210
0
220
0
230
1
1
\W0.6740;90
40
3
41
0
44
1.084337
50
0
71
7
72
5
7
iso_b_vert
0
MTEXT
5
204
100
AcDbEntity
8
SK6
62
256
6
ByLayer
370
18
48
1
60
0
100
AcDbMText
10
3.045275
20
-82.114886
30
0
210
0
220
0
230
1
1
\W0.7320;T300-XM104DA-M8     C110
40
3
41
0
44
1.084337
50
0
71
7
72
5
7
iso_b_vert
0
HATCH
5
1F6
100
AcDbEntity
8
SK2
62
256
6
ByLayer
370
13
48
1
60
0
100
AcDbHatch
10
0
20
0
30
0
210
0
220
0
230
1
2
ANSI31
70
0
71
0
91
1
92
5
93
3
72
1
10
14.0171968077729
20
4.00000000000003
11
14.4779805493257
21
0.500001692553212
72
1
10
14.4779805493257
20
0.500001692553212
11
13.5564130662201
21
0.499998307446845
72
1
10
13.5564130662201
20
0.499998307446845
11
14.0171968077729
21
4.00000000000003
97
0
75
0
76
1
52
0
41
0.0062
77
0
78
1
53
45
43
0
44
0
45
-0.0139193969876572
46
0.0139193969876572
79
0
47
0
98
1
10
0
20
0
0
HATCH
5
1FA
100
AcDbEntity
8
SK2
62
256
6
ByLayer
370
13
48
1
60
0
100
AcDbHatch
10
0
20
0
30
0
210
0
220
0
230
1
2
ANSI31
70
0
71
0
91
1
92
5
93
3
72
1
10
14.0171968077729
20
-3.99999999999997
11
13.5564130662201
21
-0.500001692553155
72
1
10
13.5564130662201
20
-0.500001692553155
11
14.4779805493257
21
-0.499998307446788
72
1
10
14.4779805493257
20
-0.499998307446788
11
14.0171968077729
21
-3.99999999999997
97
0
75
0
76
1
52
0
41
0.0062
77
0
78
1
53
45
43
0
44
0
45
-0.0139193969876572
46
0.0139193969876572
79
0
47
0
98
1
10
0
20
0
0
HATCH
5
1FF
100
AcDbEntity
8
2
62
256
6
ByLayer
370
13
48
1
60
0
100
AcDbHatch
10
0
20
0
30
0
210
0
220
0
230
1
2
ANSI31
70
0
71
0
91
1
92
5
93
3
72
1
10
-24
20
-41.5674187478166
11
-20.5000016925532
21
-41.1066350062638
72
1
10
-20.5000016925532
20
-41.1066350062638
11
-20.4999983074468
21
-42.0282024893694
72
1
10
-20.4999983074468
20
-42.0282024893694
11
-24
21
-41.5674187478166
97
0
75
0
76
1
52
0
41
0.0062
77
0
78
1
53
45
43
0
44
0
45
-0.0139193969876572
46
0.0139193969876572
79
0
47
0
98
1
10
0
20
0
0
HATCH
5
203
100
AcDbEntity
8
2
62
256
6
ByLayer
370
13
48
1
60
0
100
AcDbHatch
10
0
20
0
30
0
210
0
220
0
230
1
2
ANSI31
70
0
71
0
91
1
92
5
93
3
72
1
10
66
20
-41.5674187478166
11
62.5000016925532
21
-42.0282024893694
72
1
10
62.5000016925532
20
-42.0282024893694
11
62.4999983074468
21
-41.1066350062638
72
1
10
62.4999983074468
20
-41.1066350062638
11
66
21
-41.5674187478166
97
0
75
0
76
1
52
0
41
0.0062
77
0
78
1
53
45
43
0
44
0
45
-0.0139193969876572
46
0.0139193969876572
79
0
47
0
98
1
10
0
20
0
0
DIMENSION
5
207
100
AcDbEntity
8
2
62
256
6
ByLayer
370
18
48
1
60
0
100
AcDbDimension
2
_U0
10
85.5
20
-4.067419
30
0
11
85.5
21
21.567419
31
0
70
32
71
1
72
1
41
1
210
0
220
0
230
1
3
Standard
100
AcDbAlignedDimension
13
66
23
4.067419
33
0
14
66
24
-4.067419
34
0
50
90
100
AcDbRotatedDimension
1001
ACAD
1000
DSTYLE
1002
{
1070
   371
1070
    13
1070
   372
1070
    13
1070
     3
1000

1070
   170
1070
     0
1070
   144
1040
1.0
1070
   277
1070
     2
1070
   284
1070
     8
1070
   278
1070
    46
1070
   146
1040
1.166667
1070
   345
1005
16
1070
   347
1005
16
1070
   346
1005
16
1070
   344
1005
0
1070
   343
1005
0
1070
   172
1070
     1
1070
    76
1070
     0
1070
    75
1070
     0
1070
   282
1070
     0
1070
   281
1070
     0
1070
    71
1070
     0
1070
    74
1070
     0
1070
   279
1070
     0
1070
   173
1070
     1
1070
   340
1005
1F0
1070
   271
1070
     3
1070
   272
1070
     3
1070
    77
1070
     1
1070
    73
1070
     0
1070
   171
1070
     3
1070
   274
1070
     4
1070
   177
1070
     2
1070
   176
1070
     2
1070
   178
1070
     2
1070
    78
1070
     8
1070
    48
1040
-0.1
1070
    41
1040
3.5
1070
   147
1040
1.5
1070
    42
1040
1.5875
1070
    44
1040
2.0
1070
   140
1040
3.0
1002
}
1001
ACAD_DSTYLE_DIM_LINETYPE
1070
   380
1005
16
1001
ACAD_DSTYLE_DIM_EXT1_LINETYPE
1070
   381
1005
16
1001
ACAD_DSTYLE_DIM_EXT2_LINETYPE
1070
   382
1005
16
0
DIMENSION
5
222
100
AcDbEntity
8
SK2
62
256
6
ByLayer
370
18
48
1
60
0
100
AcDbDimension
2
_U1
10
62.56
20
13.894014
30
0
11
64.28
21
13.894014
31
0
70
32
71
1
72
1
41
1
210
0
220
0
230
1
3
Standard
100
AcDbAlignedDimension
13
66
23
4.067419
33
0
14
62.56
24
0
34
0
50
0
100
AcDbRotatedDimension
1001
ACAD
1000
DSTYLE
1002
{
1070
   371
1070
    13
1070
   372
1070
    13
1070
   170
1070
     0
1070
   144
1040
1.0
1070
   277
1070
     2
1070
   284
1070
     8
1070
   278
1070
    46
1070
   146
1040
1.166667
1070
   345
1005
16
1070
   347
1005
16
1070
   346
1005
16
1070
   344
1005
0
1070
   343
1005
0
1070
   172
1070
     1
1070
    76
1070
     0
1070
    75
1070
     0
1070
   282
1070
     0
1070
   281
1070
     0
1070
    71
1070
     0
1070
    74
1070
     0
1070
   279
1070
     0
1070
   173
1070
     1
1070
   340
1005
1F0
1070
   271
1070
     3
1070
   272
1070
     3
1070
    77
1070
     1
1070
    73
1070
     1
1070
   171
1070
     3
1070
   274
1070
     4
1070
   177
1070
     2
1070
   176
1070
     2
1070
   178
1070
     2
1070
    78
1070
     8
1070
    48
1040
-0.1
1070
    41
1040
3.5
1070
   147
1040
1.5
1070
    42
1040
1.5875
1070
    44
1040
2.0
1070
   140
1040
3.0
1002
}
1001
ACAD_DSTYLE_DIM_LINETYPE
1070
   380
1005
16
1001
ACAD_DSTYLE_DIM_EXT1_LINETYPE
1070
   381
1005
16
1001
ACAD_DSTYLE_DIM_EXT2_LINETYPE
1070
   382
1005
16
0
DIMENSION
5
23C
100
AcDbEntity
8
SK2
62
256
6
ByLayer
370
18
48
1
60
0
100
AcDbDimension
2
_U2
10
54
20
-11.067419
30
0
11
79.714286
21
-11.067419
31
0
70
32
71
1
72
1
41
1
210
0
220
0
230
1
3
Standard
100
AcDbAlignedDimension
13
66
23
-4.067419
33
0
14
54
24
-4.067419
34
0
50
0
100
AcDbRotatedDimension
1001
ACAD
1000
DSTYLE
1002
{
1070
   371
1070
    13
1070
   372
1070
    13
1070
   170
1070
     0
1070
   144
1040
1.0
1070
   277
1070
     2
1070
   284
1070
     8
1070
   278
1070
    46
1070
   146
1040
0.833333
1070
   345
1005
16
1070
   347
1005
16
1070
   346
1005
16
1070
   344
1005
0
1070
   343
1005
0
1070
   172
1070
     1
1070
    76
1070
     0
1070
    75
1070
     0
1070
   282
1070
     0
1070
   281
1070
     0
1070
    47
1040
0.5
1070
    72
1070
     0
1070
    71
1070
     1
1070
    74
1070
     0
1070
   279
1070
     0
1070
   173
1070
     1
1070
   340
1005
1F0
1070
   271
1070
     1
1070
   272
1070
     3
1070
    77
1070
     1
1070
    73
1070
     1
1070
   171
1070
     3
1070
   274
1070
     4
1070
   177
1070
     2
1070
   176
1070
     2
1070
   178
1070
     2
1070
    78
1070
     8
1070
    48
1040
0.5
1070
    41
1040
3.5
1070
   147
1040
1.5
1070
    42
1040
1.5875
1070
    44
1040
2.0
1070
   140
1040
3.0
1002
}
1001
ACAD_DSTYLE_DIM_LINETYPE
1070
   380
1005
16
1001
ACAD_DSTYLE_DIM_EXT1_LINETYPE
1070
   381
1005
16
1001
ACAD_DSTYLE_DIM_EXT2_LINETYPE
1070
   382
1005
16
0
DIMENSION
5
257
100
AcDbEntity
8
SK2
62
256
6
ByLayer
370
18
48
1
60
0
100
AcDbDimension
2
_U3
10
31
20
-33.567419
30
0
11
48.5
21
-33.567419
31
0
70
32
71
1
72
1
41
1
210
0
220
0
230
1
3
Standard
100
AcDbAlignedDimension
13
66
23
-4.067419
33
0
14
31
24
-3.11385
34
0
50
0
100
AcDbRotatedDimension
1001
ACAD
1000
DSTYLE
1002
{
1070
   371
1070
    13
1070
   372
1070
    13
1070
   170
1070
     0
1070
   144
1040
1.0
1070
   277
1070
     2
1070
   284
1070
     8
1070
   278
1070
    46
1070
   146
1040
1.166667
1070
   345
1005
16
1070
   347
1005
16
1070
   346
1005
16
1070
   344
1005
0
1070
   343
1005
0
1070
   172
1070
     1
1070
    76
1070
     0
1070
    75
1070
     0
1070
   282
1070
     0
1070
   281
1070
     0
1070
    71
1070
     0
1070
    74
1070
     0
1070
   279
1070
     0
1070
   173
1070
     1
1070
   340
1005
1F0
1070
   271
1070
     1
1070
   272
1070
     3
1070
    77
1070
     1
1070
    73
1070
     1
1070
   171
1070
     3
1070
   274
1070
     4
1070
   177
1070
     2
1070
   176
1070
     2
1070
   178
1070
     2
1070
    78
1070
     8
1070
    48
1040
-0.1
1070
    41
1040
3.5
1070
   147
1040
1.5
1070
    42
1040
1.5875
1070
    44
1040
2.0
1070
   140
1040
3.0
1002
}
1001
ACAD_DSTYLE_DIM_LINETYPE
1070
   380
1005
16
1001
ACAD_DSTYLE_DIM_EXT1_LINETYPE
1070
   381
1005
16
1001
ACAD_DSTYLE_DIM_EXT2_LINETYPE
1070
   382
1005
16
0
DIMENSION
5
26F
100
AcDbEntity
8
2
62
256
6
ByLayer
370
18
48
1
60
0
100
AcDbDimension
2
_U4
10
36.25
20
-22.567419
30
0
11
51.125
21
-22.567419
31
0
70
32
71
1
72
1
41
1
210
0
220
0
230
1
3
Standard
100
AcDbAlignedDimension
13
66
23
-4.067419
33
0
14
36.25
24
0
34
0
50
0
100
AcDbRotatedDimension
1001
ACAD
1000
DSTYLE
1002
{
1070
   371
1070
    13
1070
   372
1070
    13
1070
   170
1070
     0
1070
   144
1040
1.0
1070
   277
1070
     2
1070
   284
1070
     8
1070
   278
1070
    46
1070
   146
1040
1.166667
1070
   345
1005
16
1070
   347
1005
16
1070
   346
1005
16
1070
   344
1005
0
1070
   343
1005
0
1070
   172
1070
     1
1070
    76
1070
     0
1070
    75
1070
     0
1070
   282
1070
     0
1070
   281
1070
     0
1070
    71
1070
     0
1070
    74
1070
     0
1070
   279
1070
     0
1070
   173
1070
     1
1070
   340
1005
1F0
1070
   271
1070
     1
1070
   272
1070
     3
1070
    77
1070
     1
1070
    73
1070
     1
1070
   171
1070
     3
1070
   274
1070
     4
1070
   177
1070
     2
1070
   176
1070
     2
1070
   178
1070
     2
1070
    78
1070
     8
1070
    48
1040
-0.1
1070
    41
1040
3.5
1070
   147
1040
1.5
1070
    42
1040
1.5875
1070
    44
1040
2.0
1070
   140
1040
3.0
1002
}
1001
ACAD_DSTYLE_DIM_LINETYPE
1070
   380
1005
16
1001
ACAD_DSTYLE_DIM_EXT1_LINETYPE
1070
   381
1005
16
1001
ACAD_DSTYLE_DIM_EXT2_LINETYPE
1070
   382
1005
16
0
ENDSEC
0
SECTION
2
OBJECTS
0
DICTIONARY
5
2f7
330
0
100
AcDbDictionary
280
0
281
1
3
ACAD_GROUP
350
2f8
3
ACAD_MLINESTYLE
350
2f9
0
DICTIONARY
5
2f8
330
0
100
AcDbDictionary
280
0
281
1
0
DICTIONARY
5
2f9
330
0
100
AcDbDictionary
280
0
281
1
3
Standard
350
18
0
MLINESTYLE
5
18
330
2f9
100
AcDbMlineStyle
2
Standard
70
0
3

62
256
51
90
52
90
71
2
49
-0.5
62
256
6
ByLayer
49
0.5
62
256
6
ByLayer
0
RASTERVARIABLES
5
2e5
330

100
AcDbRasterVariables
90
0
70
1
71
1
72
1
0
ENDSEC
0
EOF
