0
SECTION
2
HEADER
9
$ACADVER
1
AC1015
9
$DWGCODEPAGE
3
ANSI_1252
9
$HANDSEED
5
30b
9
$ANGBASE
50
0
9
$ANGDIR
70
0
9
$ATTMODE
70
1
9
$AUNITS
70
0
9
$AUPREC
70
0
9
$CECOLOR
62
256
9
$CELTSCALE
40
1
9
$CELTYPE
6
ByLayer
9
$CELWEIGHT
370
18
9
$CLAYER
8
0
9
$CMLJUST
70
0
9
$CMLSCALE
40
1
9
$CMLSTYLE
2
Standard
9
$DIMSTYLE
2
Standard
9
$TEXTSIZE
40
0.2
9
$TEXTSTYLE
7
Standard
9
$LUNITS
70
2
9
$LUPREC
70
4
9
$EXTNAMES
290
1
9
$INSUNITS
70
4
9
$LTSCALE
40
1
9
$LWDISPLAY
290
1
9
$PDMODE
70
0
9
$PDSIZE
40
0
9
$PLINEGEN
70
0
0
ENDSEC
0
SECTION
2
CLASSES
0
CLASS
1
RASTERVARIABLES
2
AcDbRasterVariables
3
ISM
90
0
280
0
281
0
0
ENDSEC
0
SECTION
2
TABLES
0
TABLE
2
VPORT
5
301
100
AcDbSymbolTable
0
VPORT
5
1
100
AcDbSymbolTableRecord
100
AcDbViewportTableRecord
2
*Active
70
0
10
0
20
0
11
1
21
1
12
-1
22
1
13
0
23
0
14
0.5
24
0.5
15
10
25
10
16
0
26
0
36
1
17
0
27
0
37
0
0
ENDTAB
0
TABLE
2
LTYPE
5
302
100
AcDbSymbolTable
0
LTYPE
5
14
100
AcDbSymbolTableRecord
100
AcDbLinetypeTableRecord
70
0
2
ByBlock
3

72
65
73
0
40
0
0
LTYPE
5
15
100
AcDbSymbolTableRecord
100
AcDbLinetypeTableRecord
70
0
2
ByLayer
3

72
65
73
0
40
0
0
LTYPE
5
16
100
AcDbSymbolTableRecord
100
AcDbLinetypeTableRecord
70
0
2
Continuous
3
Solid line
72
65
73
0
40
0
0
LTYPE
5
6E
100
AcDbSymbolTableRecord
100
AcDbLinetypeTableRecord
70
0
2
CENTER
3
____ _ ____ _ ____ _ ____
72
65
73
4
40
47.5
49
22
74
0
49
-8.5
74
0
49
8.5
74
0
49
-8.5
74
0
0
LTYPE
5
6F
100
AcDbSymbolTableRecord
100
AcDbLinetypeTableRecord
70
0
2
DASHED
3
__ __ __ __ __ __ __ __ __
72
65
73
2
40
25.72
49
12.86
74
0
49
-12.86
74
0
0
ENDTAB
0
TABLE
2
LAYER
5
303
100
AcDbSymbolTable
0
LAYER
5
10
100
AcDbSymbolTableRecord
100
AcDbLayerTableRecord
2
0
70
0
62
7
6
Continuous
290
1
370
-3
390
0
0
LAYER
5
71
100
AcDbSymbolTableRecord
100
AcDbLayerTableRecord
2
80
70
0
62
-6
6
Continuous
290
1
370
-3
390
0
0
LAYER
5
73
100
AcDbSymbolTableRecord
100
AcDbLayerTableRecord
2
81
70
0
62
-3
6
Continuous
290
1
370
-3
390
0
0
LAYER
5
75
100
AcDbSymbolTableRecord
100
AcDbLayerTableRecord
2
1
70
0
62
4
6
Continuous
290
1
370
-3
390
0
0
LAYER
5
81
100
AcDbSymbolTableRecord
100
AcDbLayerTableRecord
2
4
70
0
62
-2
6
CENTER
290
1
370
-3
390
0
0
LAYER
5
C7
100
AcDbSymbolTableRecord
100
AcDbLayerTableRecord
2
2
70
0
62
7
6
Continuous
290
1
370
-3
390
0
0
LAYER
5
211
100
AcDbSymbolTableRecord
100
AcDbLayerTableRecord
2
Defpoints
70
0
62
7
6
Continuous
290
0
370
-3
390
0
0
LAYER
5
2ed
100
AcDbSymbolTableRecord
100
AcDbLayerTableRecord
2
SK4
70
0
62
2
6
CENTER
290
1
370
-3
390
0
0
LAYER
5
2ee
100
AcDbSymbolTableRecord
100
AcDbLayerTableRecord
2
SK1
70
0
62
4
6
Continuous
290
1
370
-3
390
0
0
LAYER
5
2ef
100
AcDbSymbolTableRecord
100
AcDbLayerTableRecord
2
SK2
70
0
62
7
6
Continuous
290
1
370
-3
390
0
0
LAYER
5
2f0
100
AcDbSymbolTableRecord
100
AcDbLayerTableRecord
2
SK6
70
0
62
5
6
Continuous
290
1
370
-3
390
0
0
ENDTAB
0
TABLE
2
STYLE
5
304
100
AcDbSymbolTable
0
STYLE
5
11
100
AcDbSymbolTableRecord
100
AcDbTextStyleTableRecord
2
Standard
3
txt
70
0
71
0
40
0
41
1
42
0
50
0
0
STYLE
5
1F7
100
AcDbSymbolTableRecord
100
AcDbTextStyleTableRecord
2
iso_b_vert
3
simplex.shx
70
0
71
0
40
0
41
1
42
0
50
0
0
STYLE
5
1F8
100
AcDbSymbolTableRecord
100
AcDbTextStyleTableRecord
2
DWGDirectTextStyle
3
simplex
70
0
71
0
40
0
41
1
42
0
50
0
0
ENDTAB
0
TABLE
2
DIMSTYLE
5
305
100
AcDbSymbolTable
100
AcDbDimStyleTable
0
DIMSTYLE
105
27
100
AcDbSymbolTableRecord
100
AcDbDimStyleTableRecord
2
Standard
70
0
3
<>
41
0.18
42
0.0625
44
0.18
140
0.18
147
0.09
73
0
74
0
77
1
271
2
275
0
278
52
280
0
340
11
0
ENDTAB
0
TABLE
2
VIEW
5
306
100
AcDbSymbolTable
0
ENDTAB
0
TABLE
2
UCS
5
307
100
AcDbSymbolTable
0
ENDTAB
0
TABLE
2
APPID
5
308
100
AcDbSymbolTable
0
APPID
5
12
100
AcDbSymbolTableRecord
100
AcDbRegAppTableRecord
2
ACAD
70
0
0
APPID
5
20D
100
AcDbSymbolTableRecord
100
AcDbRegAppTableRecord
2
ACAD_DSTYLE_DIMBREAK
70
0
0
APPID
5
2AC
100
AcDbSymbolTableRecord
100
AcDbRegAppTableRecord
2
ACAD_DSTYLE_DIM_LINETYPE
70
0
0
APPID
5
2AD
100
AcDbSymbolTableRecord
100
AcDbRegAppTableRecord
2
ACAD_DSTYLE_DIM_EXT1_LINETYPE
70
0
0
APPID
5
2AE
100
AcDbSymbolTableRecord
100
AcDbRegAppTableRecord
2
ACAD_DSTYLE_DIM_EXT2_LINETYPE
70
0
0
APPID
5
2E9
100
AcDbSymbolTableRecord
100
AcDbRegAppTableRecord
2
ACAD_MLEADERVER
70
0
0
ENDTAB
0
TABLE
2
BLOCK_RECORD
5
309
100
AcDbSymbolTable
0
BLOCK_RECORD
5
1F
100
AcDbSymbolTableRecord
100
AcDbBlockTableRecord
2
*Model_Space
340
0
70
0
0
BLOCK_RECORD
5
1B
100
AcDbSymbolTableRecord
100
AcDbBlockTableRecord
2
*Paper_Space
340
0
70
0
0
BLOCK_RECORD
5
23
100
AcDbSymbolTableRecord
100
AcDbBlockTableRecord
2
*Paper_Space0
340
0
70
0
0
BLOCK_RECORD
5
212
100
AcDbSymbolTableRecord
100
AcDbBlockTableRecord
2
*D1
340
0
70
0
0
BLOCK_RECORD
5
220
100
AcDbSymbolTableRecord
100
AcDbBlockTableRecord
2
_U0
340
0
70
0
0
BLOCK_RECORD
5
22C
100
AcDbSymbolTableRecord
100
AcDbBlockTableRecord
2
*D3
340
0
70
0
0
BLOCK_RECORD
5
239
100
AcDbSymbolTableRecord
100
AcDbBlockTableRecord
2
_U1
340
0
70
0
0
BLOCK_RECORD
5
246
100
AcDbSymbolTableRecord
100
AcDbBlockTableRecord
2
*D5
340
0
70
0
0
BLOCK_RECORD
5
254
100
AcDbSymbolTableRecord
100
AcDbBlockTableRecord
2
_U2
340
0
70
0
0
BLOCK_RECORD
5
261
100
AcDbSymbolTableRecord
100
AcDbBlockTableRecord
2
*D7
340
0
70
0
0
BLOCK_RECORD
5
26D
100
AcDbSymbolTableRecord
100
AcDbBlockTableRecord
2
_U3
340
0
70
0
0
BLOCK_RECORD
5
279
100
AcDbSymbolTableRecord
100
AcDbBlockTableRecord
2
*D9
340
0
70
0
0
BLOCK_RECORD
5
285
100
AcDbSymbolTableRecord
100
AcDbBlockTableRecord
2
_U4
340
0
70
0
0
ENDTAB
0
ENDSEC
0
SECTION
2
BLOCKS
0
BLOCK
5
20
100
AcDbEntity
8
0
100
AcDbBlockBegin
2
*Model_Space
70
0
10
0
20
0
30
0
3
*Model_Space
0
ENDBLK
5
21
100
AcDbEntity
8
0
100
AcDbBlockEnd
0
BLOCK
5
1C
100
AcDbEntity
8
0
100
AcDbBlockBegin
2
*Paper_Space
70
0
10
0
20
0
30
0
3
*Paper_Space
0
ENDBLK
5
1D
100
AcDbEntity
8
0
100
AcDbBlockEnd
0
BLOCK
5
24
100
AcDbEntity
8
0
100
AcDbBlockBegin
2
*Paper_Space0
70
0
10
0
20
0
30
0
3
*Paper_Space0
0
ENDBLK
5
25
100
AcDbEntity
8
0
100
AcDbBlockEnd
0
BLOCK
5
213
100
AcDbEntity
8
0
100
AcDbBlockBegin
2
*D1
70
1
10
0
20
0
30
0
3
*D1
0
LINE
5
215
100
AcDbEntity
8
0
62
256
6
ByLayer
370
-2
48
1
60
0
100
AcDbLine
10
48.5875
20
2.553807
30
0
11
67.651193
21
2.553807
31
0
39
0
210
0
220
0
230
1
0
LINE
5
216
100
AcDbEntity
8
0
62
256
6
ByLayer
370
-2
48
1
60
0
100
AcDbLine
10
48.5875
20
-2.553807
30
0
11
67.651193
21
-2.553807
31
0
39
0
210
0
220
0
230
1
0
LINE
5
217
100
AcDbEntity
8
0
62
256
6
ByLayer
370
-2
48
1
60
0
100
AcDbLine
10
65.651193
20
2.553807
30
0
11
65.651193
21
30.553807
31
0
39
0
210
0
220
0
230
1
0
LINE
5
218
100
AcDbEntity
8
0
62
256
6
ByLayer
370
-2
48
1
60
0
100
AcDbLine
10
65.651193
20
6.053807
30
0
11
65.651193
21
9.553807
31
0
39
0
210
0
220
0
230
1
0
LINE
5
219
100
AcDbEntity
8
0
62
256
6
ByLayer
370
-2
48
1
60
0
100
AcDbLine
10
65.651193
20
-6.053807
30
0
11
65.651193
21
-9.553807
31
0
39
0
210
0
220
0
230
1
0
SOLID
5
21A
100
AcDbEntity
8
0
62
256
6
ByLayer
370
-1
48
1
60
0
100
AcDbTrace
10
65.067859
20
6.053807
30
0
11
66.234526
21
6.053807
31
0
12
65.651193
22
2.553807
32
0
13
65.651193
23
2.553807
33
0
39
0
210
0
220
0
230
1
0
SOLID
5
21B
100
AcDbEntity
8
0
62
256
6
ByLayer
370
-1
48
1
60
0
100
AcDbTrace
10
66.234526
20
-6.053807
30
0
11
65.067859
21
-6.053807
31
0
12
65.651193
22
-2.553807
32
0
13
65.651193
23
-2.553807
33
0
39
0
210
0
220
0
230
1
0
MTEXT
5
21C
100
AcDbEntity
8
0
62
256
6
ByLayer
370
18
48
1
60
0
100
AcDbMText
10
59.651193
20
20.053807
30
0
210
0
220
0
230
1
1
\A1;5.108
40
3
41
0
44
1
50
90
71
5
72
5
7
iso_b_vert
0
POINT
5
21D
100
AcDbEntity
8
Defpoints
62
0
6
ByLayer
370
-1
48
1
60
0
100
AcDbPoint
10
47
20
2.553807
30
0
39
0
210
0
220
0
230
1
50
360
0
POINT
5
21E
100
AcDbEntity
8
Defpoints
62
0
6
ByLayer
370
-1
48
1
60
0
100
AcDbPoint
10
47
20
-2.553807
30
0
39
0
210
0
220
0
230
1
50
360
0
POINT
5
21F
100
AcDbEntity
8
Defpoints
62
0
6
ByLayer
370
-1
48
1
60
0
100
AcDbPoint
10
65.651193
20
-2.553807
30
0
39
0
210
0
220
0
230
1
50
360
0
ENDBLK
5
214
100
AcDbEntity
8
0
100
AcDbBlockEnd
0
BLOCK
5
227
100
AcDbEntity
8
0
100
AcDbBlockBegin
2
_U0
70
0
10
0
20
0
30
0
3
_U0
0
MTEXT
5
221
100
AcDbEntity
8
2
62
256
6
ByLayer
370
18
48
1
60
0
100
AcDbMText
10
65.060078
20
12.688807
30
0
210
0
220
0
230
1
1
\W0.7203;M5
40
3
41
0
44
1.084337
50
90
71
7
72
5
7
iso_b_vert
0
LINE
5
222
100
AcDbEntity
8
2
62
256
6
ByLayer
370
13
48
1
60
0
100
AcDbLine
10
48.5875
20
2.553807
30
0
11
67.651193
21
2.553807
31
0
39
0
210
0
220
0
230
1
0
LINE
5
223
100
AcDbEntity
8
2
62
256
6
ByLayer
370
13
48
1
60
0
100
AcDbLine
10
48.5875
20
-2.553807
30
0
11
67.651193
21
-2.553807
31
0
39
0
210
0
220
0
230
1
0
LINE
5
224
100
AcDbEntity
8
2
62
256
6
ByLayer
370
13
48
1
60
0
100
AcDbLine
10
65.651193
20
-10.053807
30
0
11
65.651193
21
16.808607
31
0
39
0
210
0
220
0
230
1
0
SOLID
5
225
100
AcDbEntity
8
2
62
256
6
ByLayer
370
18
48
1
60
0
100
AcDbTrace
10
65.651193
20
2.553807
30
0
11
65.190409
21
6.053806
31
0
12
66.111977
22
6.053809
32
0
13
66.111977
23
6.053809
33
0
39
0
210
0
220
0
230
1
0
SOLID
5
226
100
AcDbEntity
8
2
62
256
6
ByLayer
370
18
48
1
60
0
100
AcDbTrace
10
65.651193
20
-2.553807
30
0
11
66.111977
21
-6.053806
31
0
12
65.190409
22
-6.053809
32
0
13
65.190409
23
-6.053809
33
0
39
0
210
0
220
0
230
1
0
ENDBLK
5
228
100
AcDbEntity
8
0
100
AcDbBlockEnd
0
BLOCK
5
22D
100
AcDbEntity
8
0
100
AcDbBlockBegin
2
*D3
70
1
10
0
20
0
30
0
3
*D3
0
LINE
5
22F
100
AcDbEntity
8
0
62
256
6
ByLayer
370
-2
48
1
60
0
100
AcDbLine
10
47
20
4.141307
30
0
11
47
21
13.85
31
0
39
0
210
0
220
0
230
1
0
LINE
5
230
100
AcDbEntity
8
0
62
256
6
ByLayer
370
-2
48
1
60
0
100
AcDbLine
10
44.8
20
1.5875
30
0
11
44.8
21
13.85
31
0
39
0
210
0
220
0
230
1
0
LINE
5
231
100
AcDbEntity
8
0
62
256
6
ByLayer
370
-2
48
1
60
0
100
AcDbLine
10
50.5
20
11.85
30
0
11
54
21
11.85
31
0
39
0
210
0
220
0
230
1
0
LINE
5
232
100
AcDbEntity
8
0
62
256
6
ByLayer
370
-2
48
1
60
0
100
AcDbLine
10
41.3
20
11.85
30
0
11
37.8
21
11.85
31
0
39
0
210
0
220
0
230
1
0
SOLID
5
233
100
AcDbEntity
8
0
62
256
6
ByLayer
370
-1
48
1
60
0
100
AcDbTrace
10
50.5
20
12.433333
30
0
11
50.5
21
11.266667
31
0
12
47
22
11.85
32
0
13
47
23
11.85
33
0
39
0
210
0
220
0
230
1
0
SOLID
5
234
100
AcDbEntity
8
0
62
256
6
ByLayer
370
-1
48
1
60
0
100
AcDbTrace
10
41.3
20
11.266667
30
0
11
41.3
21
12.433333
31
0
12
44.8
22
11.85
32
0
13
44.8
23
11.85
33
0
39
0
210
0
220
0
230
1
0
MTEXT
5
235
100
AcDbEntity
8
0
62
256
6
ByLayer
370
18
48
1
60
0
100
AcDbMText
10
45.9
20
17.85
30
0
210
0
220
0
230
1
1
\A1;2.2
40
3
41
0
44
1
50
0
71
5
72
5
7
iso_b_vert
0
POINT
5
236
100
AcDbEntity
8
Defpoints
62
0
6
ByLayer
370
-1
48
1
60
0
100
AcDbPoint
10
47
20
2.553807
30
0
39
0
210
0
220
0
230
1
50
360
0
POINT
5
237
100
AcDbEntity
8
Defpoints
62
0
6
ByLayer
370
-1
48
1
60
0
100
AcDbPoint
10
44.8
20
0
30
0
39
0
210
0
220
0
230
1
50
360
0
POINT
5
238
100
AcDbEntity
8
Defpoints
62
0
6
ByLayer
370
-1
48
1
60
0
100
AcDbPoint
10
44.8
20
11.85
30
0
39
0
210
0
220
0
230
1
50
360
0
ENDBLK
5
22E
100
AcDbEntity
8
0
100
AcDbBlockEnd
0
BLOCK
5
241
100
AcDbEntity
8
0
100
AcDbBlockBegin
2
_U1
70
0
10
0
20
0
30
0
3
_U1
0
MTEXT
5
23A
100
AcDbEntity
8
SK2
62
256
6
ByLayer
370
18
48
1
60
0
100
AcDbMText
10
43.685958
20
12.632634
30
0
210
0
220
0
230
1
1
\W0.6474;'C'
40
3.5
41
0
44
1.084337
50
0
71
7
72
5
7
iso_b_vert
0
MTEXT
5
23B
100
AcDbEntity
8
SK2
62
256
6
ByLayer
370
18
48
1
60
0
100
AcDbMText
10
43.659458
20
19.735114
30
0
210
0
220
0
230
1
1
\W0.7121;2.2
40
3
41
0
44
1.084337
50
0
71
7
72
5
7
iso_b_vert
0
LINE
5
23C
100
AcDbEntity
8
SK2
62
256
6
ByLayer
370
13
48
1
60
0
100
AcDbLine
10
47
20
4.141307
30
0
11
47
21
13.85
31
0
39
0
210
0
220
0
230
1
0
LINE
5
23D
100
AcDbEntity
8
SK2
62
256
6
ByLayer
370
13
48
1
60
0
100
AcDbLine
10
44.8
20
1.5875
30
0
11
44.8
21
13.85
31
0
39
0
210
0
220
0
230
1
0
LINE
5
23E
100
AcDbEntity
8
SK2
62
256
6
ByLayer
370
13
48
1
60
0
100
AcDbLine
10
54.5
20
11.85
30
0
11
37.3
21
11.85
31
0
39
0
210
0
220
0
230
1
0
SOLID
5
23F
100
AcDbEntity
8
SK2
62
256
6
ByLayer
370
18
48
1
60
0
100
AcDbTrace
10
47
20
11.85
30
0
11
50.499998
21
12.310784
31
0
12
50.500002
22
11.389216
32
0
13
50.500002
23
11.389216
33
0
39
0
210
0
220
0
230
1
0
SOLID
5
240
100
AcDbEntity
8
SK2
62
256
6
ByLayer
370
18
48
1
60
0
100
AcDbTrace
10
44.8
20
11.85
30
0
11
41.300002
21
11.389216
31
0
12
41.299998
22
12.310784
32
0
13
41.299998
23
12.310784
33
0
39
0
210
0
220
0
230
1
0
ENDBLK
5
242
100
AcDbEntity
8
0
100
AcDbBlockEnd
0
BLOCK
5
247
100
AcDbEntity
8
0
100
AcDbBlockBegin
2
*D5
70
1
10
0
20
0
30
0
3
*D5
0
LINE
5
249
100
AcDbEntity
8
0
62
256
6
ByLayer
370
-2
48
1
60
0
100
AcDbLine
10
47
20
-4.141307
30
0
11
47
21
-11.553807
31
0
39
0
210
0
220
0
230
1
0
LINE
5
24A
100
AcDbEntity
8
0
62
256
6
ByLayer
370
-2
48
1
60
0
100
AcDbLine
10
39
20
-4.141307
30
0
11
39
21
-11.553807
31
0
39
0
210
0
220
0
230
1
0
LINE
5
24B
100
AcDbEntity
8
0
62
256
6
ByLayer
370
-2
48
1
60
0
100
AcDbLine
10
47
20
-9.553807
30
0
11
65
21
-9.553807
31
0
39
0
210
0
220
0
230
1
0
LINE
5
24C
100
AcDbEntity
8
0
62
256
6
ByLayer
370
-2
48
1
60
0
100
AcDbLine
10
50.5
20
-9.553807
30
0
11
54
21
-9.553807
31
0
39
0
210
0
220
0
230
1
0
LINE
5
24D
100
AcDbEntity
8
0
62
256
6
ByLayer
370
-2
48
1
60
0
100
AcDbLine
10
35.5
20
-9.553807
30
0
11
32
21
-9.553807
31
0
39
0
210
0
220
0
230
1
0
SOLID
5
24E
100
AcDbEntity
8
0
62
256
6
ByLayer
370
-1
48
1
60
0
100
AcDbTrace
10
50.5
20
-8.970474
30
0
11
50.5
21
-10.137141
31
0
12
47
22
-9.553807
32
0
13
47
23
-9.553807
33
0
39
0
210
0
220
0
230
1
0
SOLID
5
24F
100
AcDbEntity
8
0
62
256
6
ByLayer
370
-1
48
1
60
0
100
AcDbTrace
10
35.5
20
-10.137141
30
0
11
35.5
21
-8.970474
31
0
12
39
22
-9.553807
32
0
13
39
23
-9.553807
33
0
39
0
210
0
220
0
230
1
0
MTEXT
5
250
100
AcDbEntity
8
0
62
256
6
ByLayer
370
18
48
1
60
0
100
AcDbMText
10
59.5
20
-3.553807
30
0
210
0
220
0
230
1
1
\A1;8
40
3
41
0
44
1
50
0
71
5
72
5
7
iso_b_vert
0
POINT
5
251
100
AcDbEntity
8
Defpoints
62
0
6
ByLayer
370
-1
48
1
60
0
100
AcDbPoint
10
47
20
-2.553807
30
0
39
0
210
0
220
0
230
1
50
360
0
POINT
5
252
100
AcDbEntity
8
Defpoints
62
0
6
ByLayer
370
-1
48
1
60
0
100
AcDbPoint
10
39
20
-2.553807
30
0
39
0
210
0
220
0
230
1
50
360
0
POINT
5
253
100
AcDbEntity
8
Defpoints
62
0
6
ByLayer
370
-1
48
1
60
0
100
AcDbPoint
10
39
20
-9.553807
30
0
39
0
210
0
220
0
230
1
50
360
0
ENDBLK
5
248
100
AcDbEntity
8
0
100
AcDbBlockEnd
0
BLOCK
5
25C
100
AcDbEntity
8
0
100
AcDbBlockBegin
2
_U2
70
0
10
0
20
0
30
0
3
_U2
0
MTEXT
5
255
100
AcDbEntity
8
SK2
62
256
6
ByLayer
370
18
48
1
60
0
100
AcDbMText
10
53.159
20
-8.668693
30
0
210
0
220
0
230
1
1
\W0.5404;8
40
3
41
0
44
1.084337
50
0
71
7
72
5
7
iso_b_vert
0
MTEXT
5
256
100
AcDbEntity
8
SK2
62
256
6
ByLayer
370
18
48
1
60
0
100
AcDbMText
10
56.974328
20
-8.316212
30
0
210
0
220
0
230
1
1
\W0.8315;\W0.4158;%%p\W0.8315;0.5
40
2.5
41
0
44
1.084337
50
0
71
7
72
5
7
iso_b_vert
0
LINE
5
257
100
AcDbEntity
8
SK2
62
256
6
ByLayer
370
13
48
1
60
0
100
AcDbLine
10
47
20
-4.141307
30
0
11
47
21
-11.553807
31
0
39
0
210
0
220
0
230
1
0
LINE
5
258
100
AcDbEntity
8
SK2
62
256
6
ByLayer
370
13
48
1
60
0
100
AcDbLine
10
39
20
-4.141307
30
0
11
39
21
-11.553807
31
0
39
0
210
0
220
0
230
1
0
LINE
5
259
100
AcDbEntity
8
SK2
62
256
6
ByLayer
370
13
48
1
60
0
100
AcDbLine
10
39
20
-9.553807
30
0
11
64.091065
21
-9.553807
31
0
39
0
210
0
220
0
230
1
0
SOLID
5
25A
100
AcDbEntity
8
SK2
62
256
6
ByLayer
370
18
48
1
60
0
100
AcDbTrace
10
47
20
-9.553807
30
0
11
43.500002
21
-10.014591
31
0
12
43.499998
22
-9.093023
32
0
13
43.499998
23
-9.093023
33
0
39
0
210
0
220
0
230
1
0
SOLID
5
25B
100
AcDbEntity
8
SK2
62
256
6
ByLayer
370
18
48
1
60
0
100
AcDbTrace
10
39
20
-9.553807
30
0
11
42.499998
21
-9.093023
31
0
12
42.500002
22
-10.014591
32
0
13
42.500002
23
-10.014591
33
0
39
0
210
0
220
0
230
1
0
ENDBLK
5
25D
100
AcDbEntity
8
0
100
AcDbBlockEnd
0
BLOCK
5
262
100
AcDbEntity
8
0
100
AcDbBlockBegin
2
*D7
70
1
10
0
20
0
30
0
3
*D7
0
LINE
5
264
100
AcDbEntity
8
0
62
256
6
ByLayer
370
-2
48
1
60
0
100
AcDbLine
10
47
20
-4.141307
30
0
11
47
21
-34.053807
31
0
39
0
210
0
220
0
230
1
0
LINE
5
265
100
AcDbEntity
8
0
62
256
6
ByLayer
370
-2
48
1
60
0
100
AcDbLine
10
22
20
-3.51915
30
0
11
22
21
-34.053807
31
0
39
0
210
0
220
0
230
1
0
LINE
5
266
100
AcDbEntity
8
0
62
256
6
ByLayer
370
-2
48
1
60
0
100
AcDbLine
10
43.5
20
-32.053807
30
0
11
25.5
21
-32.053807
31
0
39
0
210
0
220
0
230
1
0
SOLID
5
267
100
AcDbEntity
8
0
62
256
6
ByLayer
370
-1
48
1
60
0
100
AcDbTrace
10
43.5
20
-32.637141
30
0
11
43.5
21
-31.470474
31
0
12
47
22
-32.053807
32
0
13
47
23
-32.053807
33
0
39
0
210
0
220
0
230
1
0
SOLID
5
268
100
AcDbEntity
8
0
62
256
6
ByLayer
370
-1
48
1
60
0
100
AcDbTrace
10
25.5
20
-31.470474
30
0
11
25.5
21
-32.637141
31
0
12
22
22
-32.053807
32
0
13
22
23
-32.053807
33
0
39
0
210
0
220
0
230
1
0
MTEXT
5
269
100
AcDbEntity
8
0
62
256
6
ByLayer
370
18
48
1
60
0
100
AcDbMText
10
34.5
20
-26.053807
30
0
210
0
220
0
230
1
1
\A1;25
40
3
41
0
44
1
50
0
71
5
72
5
7
iso_b_vert
0
POINT
5
26A
100
AcDbEntity
8
Defpoints
62
0
6
ByLayer
370
-1
48
1
60
0
100
AcDbPoint
10
47
20
-2.553807
30
0
39
0
210
0
220
0
230
1
50
360
0
POINT
5
26B
100
AcDbEntity
8
Defpoints
62
0
6
ByLayer
370
-1
48
1
60
0
100
AcDbPoint
10
22
20
-1.93165
30
0
39
0
210
0
220
0
230
1
50
360
0
POINT
5
26C
100
AcDbEntity
8
Defpoints
62
0
6
ByLayer
370
-1
48
1
60
0
100
AcDbPoint
10
22
20
-32.053807
30
0
39
0
210
0
220
0
230
1
50
360
0
ENDBLK
5
263
100
AcDbEntity
8
0
100
AcDbBlockEnd
0
BLOCK
5
274
100
AcDbEntity
8
0
100
AcDbBlockBegin
2
_U3
70
0
10
0
20
0
30
0
3
_U3
0
MTEXT
5
26E
100
AcDbEntity
8
SK2
62
256
6
ByLayer
370
18
48
1
60
0
100
AcDbMText
10
32.867172
20
-31.168693
30
0
210
0
220
0
230
1
1
\W0.6740;25
40
3
41
0
44
1.084337
50
0
71
7
72
5
7
iso_b_vert
0
LINE
5
26F
100
AcDbEntity
8
SK2
62
256
6
ByLayer
370
13
48
1
60
0
100
AcDbLine
10
47
20
-4.141307
30
0
11
47
21
-34.053807
31
0
39
0
210
0
220
0
230
1
0
LINE
5
270
100
AcDbEntity
8
SK2
62
256
6
ByLayer
370
13
48
1
60
0
100
AcDbLine
10
22
20
-3.51915
30
0
11
22
21
-34.053807
31
0
39
0
210
0
220
0
230
1
0
LINE
5
271
100
AcDbEntity
8
SK2
62
256
6
ByLayer
370
13
48
1
60
0
100
AcDbLine
10
47
20
-32.053807
30
0
11
22
21
-32.053807
31
0
39
0
210
0
220
0
230
1
0
SOLID
5
272
100
AcDbEntity
8
SK2
62
256
6
ByLayer
370
18
48
1
60
0
100
AcDbTrace
10
47
20
-32.053807
30
0
11
43.500002
21
-32.514591
31
0
12
43.499998
22
-31.593023
32
0
13
43.499998
23
-31.593023
33
0
39
0
210
0
220
0
230
1
0
SOLID
5
273
100
AcDbEntity
8
SK2
62
256
6
ByLayer
370
18
48
1
60
0
100
AcDbTrace
10
22
20
-32.053807
30
0
11
25.499998
21
-31.593023
31
0
12
25.500002
22
-32.514591
32
0
13
25.500002
23
-32.514591
33
0
39
0
210
0
220
0
230
1
0
ENDBLK
5
275
100
AcDbEntity
8
0
100
AcDbBlockEnd
0
BLOCK
5
27A
100
AcDbEntity
8
0
100
AcDbBlockBegin
2
*D9
70
1
10
0
20
0
30
0
3
*D9
0
LINE
5
27C
100
AcDbEntity
8
0
62
256
6
ByLayer
370
-2
48
1
60
0
100
AcDbLine
10
47
20
-4.141307
30
0
11
47
21
-23.053807
31
0
39
0
210
0
220
0
230
1
0
LINE
5
27D
100
AcDbEntity
8
0
62
256
6
ByLayer
370
-2
48
1
60
0
100
AcDbLine
10
25.75
20
-1.5875
30
0
11
25.75
21
-23.053807
31
0
39
0
210
0
220
0
230
1
0
LINE
5
27E
100
AcDbEntity
8
0
62
256
6
ByLayer
370
-2
48
1
60
0
100
AcDbLine
10
43.5
20
-21.053807
30
0
11
29.25
21
-21.053807
31
0
39
0
210
0
220
0
230
1
0
SOLID
5
27F
100
AcDbEntity
8
0
62
256
6
ByLayer
370
-1
48
1
60
0
100
AcDbTrace
10
43.5
20
-21.637141
30
0
11
43.5
21
-20.470474
31
0
12
47
22
-21.053807
32
0
13
47
23
-21.053807
33
0
39
0
210
0
220
0
230
1
0
SOLID
5
280
100
AcDbEntity
8
0
62
256
6
ByLayer
370
-1
48
1
60
0
100
AcDbTrace
10
29.25
20
-20.470474
30
0
11
29.25
21
-21.637141
31
0
12
25.75
22
-21.053807
32
0
13
25.75
23
-21.053807
33
0
39
0
210
0
220
0
230
1
0
MTEXT
5
281
100
AcDbEntity
8
0
62
256
6
ByLayer
370
18
48
1
60
0
100
AcDbMText
10
36.375
20
-15.053807
30
0
210
0
220
0
230
1
1
\A1;21.3
40
3
41
0
44
1
50
0
71
5
72
5
7
iso_b_vert
0
POINT
5
282
100
AcDbEntity
8
Defpoints
62
0
6
ByLayer
370
-1
48
1
60
0
100
AcDbPoint
10
47
20
-2.553807
30
0
39
0
210
0
220
0
230
1
50
360
0
POINT
5
283
100
AcDbEntity
8
Defpoints
62
0
6
ByLayer
370
-1
48
1
60
0
100
AcDbPoint
10
25.75
20
0
30
0
39
0
210
0
220
0
230
1
50
360
0
POINT
5
284
100
AcDbEntity
8
Defpoints
62
0
6
ByLayer
370
-1
48
1
60
0
100
AcDbPoint
10
25.75
20
-21.053807
30
0
39
0
210
0
220
0
230
1
50
360
0
ENDBLK
5
27B
100
AcDbEntity
8
0
100
AcDbBlockEnd
0
BLOCK
5
28C
100
AcDbEntity
8
0
100
AcDbBlockBegin
2
_U4
70
0
10
0
20
0
30
0
3
_U4
0
MTEXT
5
286
100
AcDbEntity
8
2
62
256
6
ByLayer
370
18
48
1
60
0
100
AcDbMText
10
33.388486
20
-20.168693
30
0
210
0
220
0
230
1
1
\W0.6563;21.2
40
3
41
0
44
1.084337
50
0
71
7
72
5
7
iso_b_vert
0
LINE
5
287
100
AcDbEntity
8
2
62
256
6
ByLayer
370
13
48
1
60
0
100
AcDbLine
10
47
20
-4.141307
30
0
11
47
21
-23.053807
31
0
39
0
210
0
220
0
230
1
0
LINE
5
288
100
AcDbEntity
8
2
62
256
6
ByLayer
370
13
48
1
60
0
100
AcDbLine
10
25.75
20
-1.5875
30
0
11
25.75
21
-23.053807
31
0
39
0
210
0
220
0
230
1
0
LINE
5
289
100
AcDbEntity
8
2
62
256
6
ByLayer
370
13
48
1
60
0
100
AcDbLine
10
47
20
-21.053807
30
0
11
25.75
21
-21.053807
31
0
39
0
210
0
220
0
230
1
0
SOLID
5
28A
100
AcDbEntity
8
2
62
256
6
ByLayer
370
18
48
1
60
0
100
AcDbTrace
10
47
20
-21.053807
30
0
11
43.500002
21
-21.514591
31
0
12
43.499998
22
-20.593023
32
0
13
43.499998
23
-20.593023
33
0
39
0
210
0
220
0
230
1
0
SOLID
5
28B
100
AcDbEntity
8
2
62
256
6
ByLayer
370
18
48
1
60
0
100
AcDbTrace
10
25.75
20
-21.053807
30
0
11
29.249998
21
-20.593023
31
0
12
29.250002
22
-21.514591
32
0
13
29.250002
23
-21.514591
33
0
39
0
210
0
220
0
230
1
0
ENDBLK
5
28D
100
AcDbEntity
8
0
100
AcDbBlockEnd
0
ENDSEC
0
SECTION
2
ENTITIES
0
ARC
5
D0
100
AcDbEntity
8
SK1
62
256
6
ByLayer
370
18
48
1
60
0
100
AcDbCircle
39
0
10
-17.45
20
0
30
0
40
2.87999999999977
210
0
220
0
230
1
100
AcDbArc
50
328.287282
51
31.712718
0
ARC
5
D1
100
AcDbEntity
8
1
62
256
6
ByLayer
370
18
48
1
60
0
100
AcDbCircle
39
0
10
37.615212
20
2.43165
30
0
40
0.5
210
0
220
0
230
1
100
AcDbArc
50
270
51
298.574811
0
ARC
5
D2
100
AcDbEntity
8
1
62
256
6
ByLayer
370
18
48
1
60
0
100
AcDbCircle
39
0
10
22.043744
20
-2.43165
30
0
40
0.5
210
0
220
0
230
1
100
AcDbArc
50
90
51
100
0
ARC
5
D3
100
AcDbEntity
8
1
62
256
6
ByLayer
370
18
48
1
60
0
100
AcDbCircle
39
0
10
22.043744
20
2.43165
30
0
40
0.5
210
0
220
0
230
1
100
AcDbArc
50
260
51
270
0
POINT
5
70
100
AcDbEntity
8
80
62
256
6
ByLayer
370
18
48
1
60
0
100
AcDbPoint
10
0
20
0
30
0
39
0
210
0
220
0
230
1
50
360
0
POINT
5
72
100
AcDbEntity
8
81
62
256
6
ByLayer
370
18
48
1
60
0
100
AcDbPoint
10
47.2
20
0
30
0
39
0
210
0
220
0
230
1
50
360
0
POINT
5
74
100
AcDbEntity
8
1
62
256
6
ByLayer
370
18
48
1
60
1
100
AcDbPoint
10
47
20
2.553807
30
0
39
0
210
0
220
0
230
1
50
360
0
POINT
5
76
100
AcDbEntity
8
1
62
256
6
ByLayer
370
18
48
1
60
1
100
AcDbPoint
10
47
20
-2.553807
30
0
39
0
210
0
220
0
230
1
50
360
0
POINT
5
77
100
AcDbEntity
8
1
62
256
6
ByLayer
370
18
48
1
60
1
100
AcDbPoint
10
47
20
2.553807
30
0
39
0
210
0
220
0
230
1
50
360
0
POINT
5
78
100
AcDbEntity
8
1
62
256
6
ByLayer
370
18
48
1
60
1
100
AcDbPoint
10
44.8
20
0
30
0
39
0
210
0
220
0
230
1
50
360
0
POINT
5
79
100
AcDbEntity
8
1
62
256
6
ByLayer
370
18
48
1
60
1
100
AcDbPoint
10
47
20
-2.553807
30
0
39
0
210
0
220
0
230
1
50
360
0
POINT
5
7A
100
AcDbEntity
8
1
62
256
6
ByLayer
370
18
48
1
60
1
100
AcDbPoint
10
39
20
-2.553807
30
0
39
0
210
0
220
0
230
1
50
360
0
POINT
5
7B
100
AcDbEntity
8
1
62
256
6
ByLayer
370
18
48
1
60
1
100
AcDbPoint
10
47
20
-2.553807
30
0
39
0
210
0
220
0
230
1
50
360
0
POINT
5
7C
100
AcDbEntity
8
1
62
256
6
ByLayer
370
18
48
1
60
1
100
AcDbPoint
10
22
20
-1.93165
30
0
39
0
210
0
220
0
230
1
50
360
0
POINT
5
7D
100
AcDbEntity
8
1
62
256
6
ByLayer
370
18
48
1
60
1
100
AcDbPoint
10
47
20
-2.553807
30
0
39
0
210
0
220
0
230
1
50
360
0
POINT
5
7E
100
AcDbEntity
8
1
62
256
6
ByLayer
370
18
48
1
60
1
100
AcDbPoint
10
25.75
20
0
30
0
39
0
210
0
220
0
230
1
50
360
0
SPLINE
5
D4
100
AcDbEntity
8
1
62
256
6
ByLayer
370
13
48
1
60
0
100
AcDbSpline
70
4
71
3
72
9
73
5
40
0
40
0
40
0
40
0
40
0.814211077976924
40
1
40
1
40
1
40
1
41
1.04
10
46.0278563147685
20
-2.08896018938109
30
0
41
1.04
10
46.022807642403
20
-2.09845313289926
30
0
41
1.04
10
46.0166027984288
20
-2.10413271531193
30
0
41
1.04
10
46.0104247276718
20
-2.10237349545996
30
0
41
1.04
10
46.009277768333
20
-2.10179141220624
30
0
0
SPLINE
5
D5
100
AcDbEntity
8
1
62
256
6
ByLayer
370
18
48
1
60
0
100
AcDbSpline
70
4
71
3
72
8
73
4
40
0
40
0
40
0
40
0
40
1
40
1
40
1
40
1
41
1
10
45.9548585216987
20
-2.20954761778785
30
0
41
1
10
45.9522923195187
20
-2.20931011777492
30
0
41
1
10
45.9498003583636
20
-2.20570662715184
30
0
41
1
10
45.9473436039287
20
-2.19875975108667
30
0
0
SPLINE
5
D6
100
AcDbEntity
8
1
62
256
6
ByLayer
370
13
48
1
60
0
100
AcDbSpline
70
4
71
3
72
9
73
5
40
0
40
0
40
0
40
0
40
0.911076752034901
40
1
40
1
40
1
40
1
41
1.04
10
40.4260266567844
20
-2.09213373951207
30
0
41
1.04
10
40.4187656409508
20
-2.10438033287451
30
0
41
1.04
10
40.4108530965876
20
-2.10649955435761
30
0
41
1.04
10
40.4029790053656
20
-2.09633186679211
30
0
41
1.04
10
40.4022791115759
20
-2.0953312426939
30
0
0
SPLINE
5
D7
100
AcDbEntity
8
1
62
256
6
ByLayer
370
18
48
1
60
0
100
AcDbSpline
70
4
71
3
72
8
73
4
40
0
40
0
40
0
40
0
40
1
40
1
40
1
40
1
41
1
10
45.4945465216259
20
-2.22942224672957
30
0
41
1
10
45.5036580956041
20
-2.26274334034403
30
0
41
1
10
45.5125699752733
20
-2.28606002027968
30
0
41
1
10
45.5213230989916
20
-2.29950251410898
30
0
0
SPLINE
5
D8
100
AcDbEntity
8
1
62
256
6
ByLayer
370
13
48
1
60
0
100
AcDbSpline
70
4
71
3
72
9
73
5
40
0
40
0
40
0
40
0
40
0.0830324556161644
40
1
40
1
40
1
40
1
41
1
10
41.8290008001185
20
2.08763013510548
30
0
41
1
10
41.8282045441978
20
2.08920022895265
30
0
41
1
10
41.8186115810987
20
2.10659599684556
30
0
41
1
10
41.8089798646637
20
2.10559134653556
30
0
41
1
10
41.8002721257453
20
2.09057005636518
30
0
0
SPLINE
5
D9
100
AcDbEntity
8
1
62
256
6
ByLayer
370
13
48
1
60
0
100
AcDbSpline
70
4
71
3
72
8
73
4
40
0
40
0
40
0
40
0
40
1
40
1
40
1
40
1
41
1
10
45.4005081039854
20
-2.09156008896889
30
0
41
1
10
45.3934287441595
20
-2.07955289352114
30
0
41
1
10
45.3862373571686
20
-2.05773365449917
30
0
41
1
10
45.3789199987374
20
-2.02535402690864
30
0
0
SPLINE
5
DA
100
AcDbEntity
8
1
62
256
6
ByLayer
370
13
48
1
60
0
100
AcDbSpline
70
4
71
3
72
8
73
4
40
0
40
0
40
0
40
0
40
1
40
1
40
1
40
1
41
1
10
39.801906094352
20
-2.093738919608
30
0
41
1
10
39.7918652974003
20
-2.07850226934508
30
0
41
1
10
39.7819337117351
20
-2.04388896656286
30
0
41
1
10
39.7720442291419
20
-1.99147186521566
30
0
0
SPLINE
5
DB
100
AcDbEntity
8
1
62
256
6
ByLayer
370
13
48
1
60
0
100
AcDbSpline
70
4
71
3
72
8
73
4
40
0
40
0
40
0
40
0
40
1
40
1
40
1
40
1
41
1.04
10
42.4593780559724
20
1.96549468162404
30
0
41
1.04
10
42.4488084243889
20
2.02772305173445
30
0
41
1.04
10
42.4382393229499
20
2.06966021361265
30
0
41
1.04
10
42.4275899337742
20
2.08959364582015
30
0
0
SPLINE
5
DC
100
AcDbEntity
8
1
62
256
6
ByLayer
370
13
48
1
60
0
100
AcDbSpline
70
4
71
3
72
9
73
5
40
0
40
0
40
0
40
0
40
0.964542068398006
40
1
40
1
40
1
40
1
41
1.04
10
42.4185689874767
20
2.10116311789833
30
0
41
1.04
10
42.408042653228
20
2.10844626445535
30
0
41
1.04
10
42.3970355351181
20
2.09351614905489
30
0
41
1.04
10
42.3860703944633
20
2.05534822970838
30
0
41
1.04
10
42.3856816460383
20
2.05396580299631
30
0
0
SPLINE
5
DD
100
AcDbEntity
8
1
62
256
6
ByLayer
370
13
48
1
60
0
100
AcDbSpline
70
4
71
3
72
8
73
4
40
0
40
0
40
0
40
0
40
1
40
1
40
1
40
1
41
1.04
10
45.2275044035631
20
-2.08959019925519
30
0
41
1.04
10
45.2085801834934
20
-2.12439718370313
30
0
41
1.04
10
45.188929790301
20
-2.09103349656124
30
0
41
1.04
10
45.1682549572739
20
-1.97339352837373
30
0
0
SPLINE
5
DE
100
AcDbEntity
8
1
62
256
6
ByLayer
370
18
48
1
60
0
100
AcDbSpline
70
4
71
3
72
17
73
13
40
0
40
0
40
0
40
0
40
0.189705563369784
40
0.189705563369784
40
0.594852781684894
40
0.594852781684894
40
0.645496183974282
40
0.645496183974282
40
0.696139586263671
40
0.797426390842447
40
0.797426390842447
40
1
40
1
40
1
40
1
41
1
10
45.0212724940004
20
-2.44249783089117
30
0
41
1
10
45.0186691321059
20
-2.44383782547121
30
0
41
1
10
45.0161654425504
20
-2.44151914477374
30
0
41
1
10
45.0085401634513
20
-2.42315523544542
30
0
41
1
10
45.0036915976037
20
-2.394615675105
30
0
41
1
10
44.9982615286334
20
-2.34388755807601
30
0
41
1
10
44.9976574434742
20
-2.33799179867515
30
0
41
1
10
44.9964507616794
20
-2.3257412138579
30
0
41
1
10
44.9946408541483
20
-2.30665608710493
30
0
41
1
10
44.9928199547181
20
-2.28546902312436
30
0
41
1
10
44.9891433303075
20
-2.2403282735288
30
0
41
1
10
44.986641981126
20
-2.20655673680929
30
0
41
1
10
44.9840810940762
20
-2.16906769036226
30
0
0
SPLINE
5
DF
100
AcDbEntity
8
1
62
256
6
ByLayer
370
18
48
1
60
0
100
AcDbSpline
70
4
71
3
72
23
73
19
40
0
40
0
40
0
40
0
40
0.176628217752569
40
0.176628217752569
40
0.353256435505137
40
0.353256435505137
40
0.441570544381422
40
0.441570544381422
40
0.485727598819564
40
0.485727598819564
40
0.529884653257706
40
0.529884653257706
40
0.706512871010272
40
0.706512871010272
40
0.883141088762839
40
0.883141088762839
40
0.971455197639122
40
1
40
1
40
1
40
1
41
1
10
44.7461505972644
20
-2.10438496399181
30
0
41
1
10
44.7518515803838
20
-2.15021542718259
30
0
41
1
10
44.7574772687318
20
-2.19202437010623
30
0
41
1
10
44.7687896964774
20
-2.26781395733164
30
0
41
1
10
44.7744822107294
20
-2.30179318242182
30
0
41
1
10
44.7831917479571
20
-2.3467862272249
30
0
41
1
10
44.7861177317638
20
-2.36078652519936
30
0
41
1
10
44.7905286861748
20
-2.38025707480858
30
0
41
1
10
44.7920036908755
20
-2.38649536263884
30
0
41
1
10
44.7949419206383
20
-2.39838672705764
30
0
41
1
10
44.7964071807908
20
-2.40404921829139
30
0
41
1
10
44.8037098553787
20
-2.43095627798562
30
0
41
1
10
44.8094629453654
20
-2.44798219190722
30
0
41
1
10
44.8208375341458
20
-2.47324181058647
30
0
41
1
10
44.8264722239173
20
-2.48147949326602
30
0
41
1
10
44.8348953718488
20
-2.4871741922183
30
0
41
1
10
44.8386030589106
20
-2.4882135064521
30
0
41
1
10
44.8423023642536
20
-2.48726472862015
30
0
41
1
10
44.8432054654581
20
-2.48691319903873
30
0
0
SPLINE
5
E0
100
AcDbEntity
8
1
62
256
6
ByLayer
370
13
48
1
60
0
100
AcDbSpline
70
4
71
3
72
9
73
5
40
0
40
0
40
0
40
0
40
0.231047808923571
40
1
40
1
40
1
40
1
41
1.04
10
39.6266920313393
20
-2.09086610433696
30
0
41
1.04
10
39.6215585122935
20
-2.09972568420006
30
0
41
1.04
10
39.5993880376785
20
-2.11620579225795
30
0
41
1.04
10
39.577832530316
20
-2.03844899001486
30
0
41
1.04
10
39.5613056212543
20
-1.93022671091931
30
0
0
SPLINE
5
E1
100
AcDbEntity
8
1
62
256
6
ByLayer
370
13
48
1
60
0
100
AcDbSpline
70
4
71
3
72
9
73
5
40
0
40
0
40
0
40
0
40
0.515198241333883
40
1
40
1
40
1
40
1
41
1
10
44.6017712801233
20
-2.0938725617352
30
0
41
1
10
44.5910205382913
20
-2.07750738420083
30
0
41
1
10
44.5698035165495
20
-2.00183215937227
30
0
41
1
10
44.548341172583
20
-1.83816671101655
30
0
41
1
10
44.5378481973518
20
-1.74055447941237
30
0
0
SPLINE
5
E2
100
AcDbEntity
8
1
62
256
6
ByLayer
370
13
48
1
60
0
100
AcDbSpline
70
4
71
3
72
9
73
5
40
0
40
0
40
0
40
0
40
0.696326911216363
40
1
40
1
40
1
40
1
41
1
10
39.0008730933629
20
-2.09191859411911
30
0
41
1
10
38.9845622248323
20
-2.06452632220695
30
0
41
1
10
38.9610733393283
20
-1.95189717720353
30
0
41
1
10
38.9378886902944
20
-1.74453433872691
30
0
41
1
10
38.9308848793863
20
-1.67432171031584
30
0
0
SPLINE
5
E3
100
AcDbEntity
8
1
62
256
6
ByLayer
370
13
48
1
60
0
100
AcDbSpline
70
4
71
3
72
9
73
5
40
0
40
0
40
0
40
0
40
0.740070092755288
40
1
40
1
40
1
40
1
41
1
10
42.6700864253115
20
1.89861441428724
30
0
41
1
10
42.6533324576532
20
2.01775073854319
30
0
41
1
10
42.6307905955574
20
2.11180260001808
30
0
41
1
10
42.6077931170655
20
2.10317178345252
30
0
41
1
10
42.6018080160131
20
2.09400752015955
30
0
0
SPLINE
5
E4
100
AcDbEntity
8
1
62
256
6
ByLayer
370
13
48
1
60
0
100
AcDbSpline
70
4
71
3
72
10
73
6
40
0
40
0
40
0
40
0
40
0.303551971298863
40
0.756626514337264
40
1
40
1
40
1
40
1
41
1.04
10
43.3005149201068
20
1.62689875176554
30
0
41
1.04
10
43.2934213317187
20
1.70095116599184
30
0
41
1.04
10
43.275572306751
20
1.86856300825932
30
0
41
1.04
10
43.2512156726884
20
2.0258256401997
30
0
41
1.04
10
43.2339492799604
20
2.07737545375932
30
0
41
1.04
10
43.2279031486436
20
2.08843300647997
30
0
0
SPLINE
5
E5
100
AcDbEntity
8
1
62
256
6
ByLayer
370
18
48
1
60
0
100
AcDbSpline
70
4
71
3
72
21
73
17
40
0
40
0
40
0
40
0
40
0.139863683020504
40
0.139863683020504
40
0.311890946416405
40
0.311890946416405
40
0.397904578114354
40
0.397904578114354
40
0.483918209812304
40
0.483918209812304
40
0.655945473208202
40
0.8279727366041
40
0.8279727366041
40
0.91398636830205
40
0.91398636830205
40
1
40
1
40
1
40
1
41
1
10
42.8738632277335
20
2.55380807881949
30
0
41
1
10
42.8774342688008
20
2.55381134361832
30
0
41
1
10
42.881003050631
20
2.55081578377153
30
0
41
1
10
42.8890102919366
20
2.53754667464412
30
0
41
1
10
42.8934488699055
20
2.52575779569682
30
0
41
1
10
42.9001373642741
20
2.50127663055508
30
0
41
1
10
42.9023720594208
20
2.49198104823674
30
0
41
1
10
42.9068529453459
20
2.47107592001837
30
0
41
1
10
42.9091016135654
20
2.45944514024566
30
0
41
1
10
42.9157900156412
20
2.42147473510332
30
0
41
1
10
42.9246041661594
20
2.36244526350984
30
0
41
1
10
42.9332809240276
20
2.2870520662382
30
0
41
1
10
42.9397770798631
20
2.2243390339676
30
0
41
1
10
42.9419407118971
20
2.20240466675941
30
0
41
1
10
42.9462729998284
20
2.15644575393992
30
0
41
1
10
42.9484436752137
20
2.13239790509672
30
0
41
1
10
42.9506175334636
20
2.10732986727706
30
0
0
SPLINE
5
E6
100
AcDbEntity
8
1
62
256
6
ByLayer
370
13
48
1
60
0
100
AcDbSpline
70
4
71
3
72
9
73
5
40
0
40
0
40
0
40
0
40
0.657870443634033
40
1
40
1
40
1
40
1
41
1.04
10
38.8145581130968
20
-2.10266905607269
30
0
41
1.04
10
38.7938184172161
20
-2.10581955265015
30
0
41
1.04
10
38.7620511055204
20
-1.98107350679083
30
0
41
1.04
10
38.7308373944213
20
-1.68344036293317
30
0
41
1.04
10
38.720253587227
20
-1.56659478858785
30
0
0
SPLINE
5
E7
100
AcDbEntity
8
1
62
256
6
ByLayer
370
13
48
1
60
0
100
AcDbSpline
70
4
71
3
72
10
73
6
40
0
40
0
40
0
40
0
40
0.269699050971603
40
0.61860225963852
40
1
40
1
40
1
40
1
41
1
10
38.1841573409748
20
-2.04652308833497
30
0
41
1
10
38.1758149551973
20
-2.0151554186512
30
0
41
1
10
38.1565733151215
20
-1.91272414090454
30
0
41
1
10
38.124896309959
20
-1.63294047438706
30
0
41
1
10
38.1018426793926
20
-1.3482626775558
30
0
41
1
10
38.0898313717534
20
-1.18442769629291
30
0
0
SPLINE
5
E8
100
AcDbEntity
8
1
62
256
6
ByLayer
370
18
48
1
60
0
100
AcDbSpline
70
4
71
3
72
23
73
19
40
0
40
0
40
0
40
0
40
0.249999999999998
40
0.249999999999998
40
0.312499999999997
40
0.312499999999997
40
0.374999999999997
40
0.374999999999997
40
0.499999999999997
40
0.499999999999997
40
0.749999999999998
40
0.749999999999998
40
0.781249999999998
40
0.781249999999998
40
0.812499999999997
40
0.874999999999998
40
0.874999999999998
40
1
40
1
40
1
40
1
41
1
10
38.1134485579345
20
-1.21696411553501
30
0
41
1
10
38.1261938801138
20
-1.33822293196661
30
0
41
1
10
38.1385256869852
20
-1.45076733872534
30
0
41
1
10
38.1539856926554
20
-1.58074353274057
30
0
41
1
10
38.1570820254646
20
-1.60619930699403
30
0
41
1
10
38.1633056846718
20
-1.65601957564127
30
0
41
1
10
38.1664412735306
20
-1.68042904174337
30
0
41
1
10
38.1758197031729
20
-1.75126704917329
30
0
41
1
10
38.1820418458194
20
-1.79552610357072
30
0
41
1
10
38.2005607279169
20
-1.91961430337065
30
0
41
1
10
38.2126943754918
20
-1.99082470225855
30
0
41
1
10
38.2267599593429
20
-2.05786432926175
30
0
41
1
10
38.2283292171688
20
-2.06513781064675
30
0
41
1
10
38.2314618813352
20
-2.07924749206194
30
0
41
1
10
38.2361552019454
20
-2.09977227992397
30
0
41
1
10
38.2408309710893
20
-2.11839894077042
30
0
41
1
10
38.2501582744895
20
-2.15316022044669
30
0
41
1
10
38.2563436352971
20
-2.17301702630769
30
0
41
1
10
38.2624985622697
20
-2.18959139176965
30
0
0
SPLINE
5
E9
100
AcDbEntity
8
1
62
256
6
ByLayer
370
18
48
1
60
0
100
AcDbSpline
70
4
71
3
72
26
73
22
40
0
40
0
40
0
40
0
40
0.125
40
0.125
40
0.1875
40
0.1875
40
0.25
40
0.25
40
0.375
40
0.5
40
0.5
40
0.625
40
0.625
40
0.65625
40
0.65625
40
0.6875
40
0.6875
40
0.749999999999999
40
0.749999999999999
40
0.875
40
1
40
1
40
1
40
1
41
1
10
38.6183697483838
20
-2.43255498240413
30
0
41
1
10
38.6151928777151
20
-2.4285453945227
30
0
41
1
10
38.6120118001578
20
-2.42067914756456
30
0
41
1
10
38.6072665920564
20
-2.40306945592863
30
0
41
1
10
38.6056888072272
20
-2.39622919470975
30
0
41
1
10
38.6025410751094
20
-2.38057919014952
30
0
41
1
10
38.6009697350028
20
-2.37176065917819
30
0
41
1
10
38.5962703489917
20
-2.34233685105855
30
0
41
1
10
38.5901292546961
20
-2.29573884595291
30
0
41
1
10
38.5840753255429
20
-2.2348299631563
30
0
41
1
10
38.5779289551443
20
-2.16673633090832
30
0
41
1
10
38.5747922757987
20
-2.12908885760589
30
0
41
1
10
38.5707533663541
20
-2.07740136075378
30
0
41
1
10
38.5699408086387
20
-2.06683248031635
30
0
41
1
10
38.5683074054515
20
-2.04522764748117
30
0
41
1
10
38.5674853825271
20
-2.03417537793561
30
0
41
1
10
38.5650199289424
20
-2.00046588609277
30
0
41
1
10
38.5633763959535
20
-1.97724832135222
30
0
41
1
10
38.5584582343638
20
-1.90541187251742
30
0
41
1
10
38.5519363988577
20
-1.80381839152142
30
0
41
1
10
38.5455514498772
20
-1.69083371214629
30
0
41
1
10
38.5423850601745
20
-1.63145689535926
30
0
0
SPLINE
5
EA
100
AcDbEntity
8
1
62
256
6
ByLayer
370
13
48
1
60
0
100
AcDbSpline
70
4
71
3
72
9
73
5
40
0
40
0
40
0
40
0
40
0.838835259158021
40
1
40
1
40
1
40
1
41
1.04
10
38.5341703972285
20
1.22312795297872
30
0
41
1.04
10
38.5071671196441
20
1.5845604918223
30
0
41
1.04
10
38.475860265255
20
1.90507048296079
30
0
41
1.04
10
38.4449275346638
20
2.03967178361459
30
0
41
1.04
10
38.4399642964532
20
2.05661825555661
30
0
0
SPLINE
5
EB
100
AcDbEntity
8
1
62
256
6
ByLayer
370
13
48
1
60
0
100
AcDbSpline
70
4
71
3
72
10
73
6
40
0
40
0
40
0
40
0
40
0.169651714235144
40
0.538293523303945
40
1
40
1
40
1
40
1
41
1.04
10
44.4173232120952
20
-2.10152098532346
30
0
41
1.04
10
44.4123897794884
20
-2.10419650015075
30
0
41
1.04
10
44.3966351819829
20
-2.09775605836387
30
0
41
1.04
10
44.3666306997647
20
-1.99418111694787
30
0
41
1.04
10
44.3413784148462
20
-1.78661848293196
30
0
41
1.04
10
44.3271584614398
20
-1.63946346603105
30
0
0
SPLINE
5
EC
100
AcDbEntity
8
1
62
256
6
ByLayer
370
13
48
1
60
0
100
AcDbSpline
70
4
71
3
72
10
73
6
40
0
40
0
40
0
40
0
40
0.158822464471305
40
0.505431539076693
40
1
40
1
40
1
40
1
41
1
10
43.7916232298094
20
-2.07115962859206
30
0
41
1
10
43.7864468415855
20
-2.05658145018828
30
0
41
1
10
43.7700818651894
20
-1.99418751784259
30
0
41
1
10
43.7382576173741
20
-1.77496093584278
30
0
41
1
10
43.7121627434292
20
-1.47940292283252
30
0
41
1
10
43.6968952582452
20
-1.27916468755817
30
0
0
SPLINE
5
ED
100
AcDbEntity
8
1
62
256
6
ByLayer
370
13
48
1
60
0
100
AcDbSpline
70
4
71
3
72
10
73
6
40
0
40
0
40
0
40
0
40
0.352625478016259
40
0.699414851069436
40
1
40
1
40
1
40
1
41
1
10
43.5112190641083
20
1.51447119689422
30
0
41
1
10
43.500548296054
20
1.63646363481465
30
0
41
1
10
43.4791375271589
20
1.84954267616601
30
0
41
1
10
43.4473158051171
20
2.05231355893167
30
0
41
1
10
43.4262678507317
20
2.09796227656341
30
0
41
1
10
43.416502082824
20
2.10124608995738
30
0
0
SPLINE
5
EE
100
AcDbEntity
8
1
62
256
6
ByLayer
370
13
48
1
60
0
100
AcDbSpline
70
4
71
3
72
9
73
5
40
0
40
0
40
0
40
0
40
0.395823665581692
40
1
40
1
40
1
40
1
41
1.04
10
44.141701008631
20
1.12004655994459
30
0
41
1.04
10
44.1296080864091
20
1.28899557637093
30
0
41
1.04
10
44.098746372159
20
1.6816755329983
30
0
41
1.04
10
44.0668055336649
20
1.942898431758
30
0
41
1.04
10
44.0468939697323
20
2.02933390374675
30
0
0
SPLINE
5
EF
100
AcDbEntity
8
1
62
256
6
ByLayer
370
13
48
1
60
0
100
AcDbSpline
70
4
71
3
72
10
73
6
40
0
40
0
40
0
40
0
40
0.046154412337172
40
0.39071999501453
40
1
40
1
40
1
40
1
41
1.04
10
43.5809458244764
20
-2.03553433272275
30
0
41
1.04
10
43.5794457784946
20
-2.02934975034849
30
0
41
1.04
10
43.5667684886214
20
-1.97347072722073
30
0
41
1.04
10
43.5347558458021
20
-1.75522630339516
30
0
41
1.04
10
43.5050983904837
20
-1.40219224775729
30
0
41
1.04
10
43.4862111779475
20
-1.14016856725576
30
0
0
SPLINE
5
F0
100
AcDbEntity
8
1
62
256
6
ByLayer
370
13
48
1
60
0
100
AcDbSpline
70
4
71
3
72
9
73
5
40
0
40
0
40
0
40
0
40
0.756414940607952
40
1
40
1
40
1
40
1
41
1
10
46.0345879540943
20
-0.344973283801863
30
0
41
1
10
46.0103008601091
20
0.0504067243963959
30
0
41
1
10
45.9783738718673
20
0.595303130202609
30
0
41
1
10
45.9471241879632
20
1.05097838881201
30
0
41
1
10
45.939613464038
20
1.15459205491672
30
0
0
SPLINE
5
F1
100
AcDbEntity
8
1
62
256
6
ByLayer
370
18
48
1
60
0
100
AcDbSpline
70
4
71
3
72
24
73
20
40
0
40
0
40
0
40
0
40
0.125
40
0.125
40
0.25
40
0.25
40
0.3125
40
0.3125
40
0.375
40
0.375
40
0.500000000000001
40
0.625000000000001
40
0.750000000000001
40
0.750000000000001
40
0.812500000000001
40
0.812500000000001
40
0.875000000000001
40
0.875000000000001
40
1
40
1
40
1
40
1
41
1
10
45.9936370778452
20
1.17796246286718
30
0
41
1
10
45.9989271680695
20
1.11858511402525
30
0
41
1
10
46.0041125751441
20
1.05756098450161
30
0
41
1
10
46.014388754612
20
0.932271790878332
30
0
41
1
10
46.0194905596762
20
0.868005474775401
30
0
41
1
10
46.0271610434505
20
0.769129533012574
30
0
41
1
10
46.0297162118313
20
0.73575842317959
30
0
41
1
10
46.0348170073547
20
0.668182513458191
30
0
41
1
10
46.0373618664588
20
0.633984446586339
30
0
41
1
10
46.0448967751059
20
0.531218760180252
30
0
41
1
10
46.0547300668509
20
0.393030210352094
30
0
41
1
10
46.0688519957951
20
0.182347069480272
30
0
41
1
10
46.0779102934632
20
0.0396195802386501
30
0
41
1
10
46.0846164116614
20
-0.0683075607303749
30
0
41
1
10
46.0868246264471
20
-0.104224406544461
30
0
41
1
10
46.0911865330746
20
-0.175739865578692
30
0
41
1
10
46.0933422527194
20
-0.211371180348067
30
0
41
1
10
46.0997543276774
20
-0.317887055094673
30
0
41
1
10
46.1039560504798
20
-0.388394779676759
30
0
41
1
10
46.1081433980377
20
-0.45838964212561
30
0
0
SPLINE
5
F2
100
AcDbEntity
8
1
62
256
6
ByLayer
370
13
48
1
60
0
100
AcDbSpline
70
4
71
3
72
10
73
6
40
0
40
0
40
0
40
0
40
0.0045268012692337
40
0.337345194672339
40
1
40
1
40
1
40
1
41
1
10
42.9504506046038
20
-1.84977665637027
30
0
41
1
10
42.9503023966093
20
-1.84860107539026
30
0
41
1
10
42.9392546356671
20
-1.76067147212942
30
0
41
1
10
42.9058327787424
20
-1.42853513525949
30
0
41
1
10
42.8751897653741
20
-0.988725207306459
30
0
41
1
10
42.8556551914728
20
-0.683304333776078
30
0
0
SPLINE
5
F3
100
AcDbEntity
8
1
62
256
6
ByLayer
370
13
48
1
60
0
100
AcDbSpline
70
4
71
3
72
9
73
5
40
0
40
0
40
0
40
0
40
0.956836939284083
40
1
40
1
40
1
40
1
41
1
10
38.7449370002096
20
1.08062206819198
30
0
41
1
10
38.714032713717
20
1.51742270899138
30
0
41
1
10
38.6828221182964
20
1.85537156547431
30
0
41
1
10
38.6519820021416
20
2.0086636226217
30
0
41
1
10
38.650651772015
20
2.01493784800456
30
0
0
SPLINE
5
F4
100
AcDbEntity
8
1
62
256
6
ByLayer
370
13
48
1
60
0
100
AcDbSpline
70
4
71
3
72
10
73
6
40
0
40
0
40
0
40
0
40
0.657942729554343
40
0.999205464102006
40
1
40
1
40
1
40
1
41
1.04
10
39.3752716779296
20
0.616465803536697
30
0
41
1.04
10
39.355521155775
20
0.928279906116431
30
0
41
1.04
10
39.3244507016449
20
1.38765027712701
30
0
41
1.04
10
39.2919235195834
20
1.71992876513085
30
0
41
1.04
10
39.2808681725666
20
1.81247396185642
30
0
41
1.04
10
39.2808424934175
20
1.81268881333189
30
0
0
SPLINE
5
F5
100
AcDbEntity
8
1
62
256
6
ByLayer
370
13
48
1
60
0
100
AcDbSpline
70
4
71
3
72
9
73
5
40
0
40
0
40
0
40
0
40
0.51126730745607
40
1
40
1
40
1
40
1
41
1
10
44.3524249950481
20
0.972425742405534
30
0
41
1
10
44.3367505221061
20
1.20187574019644
30
0
41
1
10
44.3057306199524
20
1.61244568612801
30
0
41
1
10
44.2736117058939
20
1.88847039320564
30
0
41
1
10
44.257531924362
20
1.97851962308627
30
0
0
SPLINE
5
F6
100
AcDbEntity
8
1
62
256
6
ByLayer
370
18
48
1
60
0
100
AcDbSpline
70
4
71
3
72
8
73
4
40
0
40
0
40
0
40
0
40
1
40
1
40
1
40
1
41
1
10
44.6275521975991
20
0.916737351347848
30
0
41
1
10
44.6293534512662
20
0.882677135549386
30
0
41
1
10
44.6311440319166
20
0.848443537821339
30
0
41
1
10
44.6329256710505
20
0.814065199779918
30
0
0
SPLINE
5
F7
100
AcDbEntity
8
1
62
256
6
ByLayer
370
13
48
1
60
0
100
AcDbSpline
70
4
71
3
72
9
73
5
40
0
40
0
40
0
40
0
40
0.512893674031717
40
1
40
1
40
1
40
1
41
1.04
10
44.9827563429463
20
0.498235192874984
30
0
41
1.04
10
44.9667269533904
20
0.755702870733653
30
0
41
1.04
10
44.9351932360125
20
1.2389837077707
30
0
41
1.04
10
44.9031994194269
20
1.60992409977672
30
0
41
1.04
10
44.887914712718
20
1.75044020523986
30
0
0
SPLINE
5
F8
100
AcDbEntity
8
1
62
256
6
ByLayer
370
18
48
1
60
0
100
AcDbSpline
70
4
71
3
72
27
73
23
40
0
40
0
40
0
40
0
40
0.250000000000001
40
0.250000000000001
40
0.312500000000002
40
0.312500000000002
40
0.343750000000002
40
0.343750000000002
40
0.375000000000002
40
0.375000000000002
40
0.500000000000001
40
0.500000000000001
40
0.625000000000001
40
0.625000000000001
40
0.687500000000001
40
0.718750000000001
40
0.718750000000001
40
0.75
40
0.75
40
0.875
40
0.875
40
1
40
1
40
1
40
1
41
1
10
44.7254937593286
20
0.726277737432412
30
0
41
1
10
44.7193811526263
20
0.885938829292371
30
0
41
1
10
44.7140215040468
20
1.03857292146921
30
0
41
1
10
44.7075430411915
20
1.22063060213657
30
0
41
1
10
44.7062529741339
20
1.2566035993689
30
0
41
1
10
44.7043040329026
20
1.30989555664155
30
0
41
1
10
44.7036513954698
20
1.32756584390779
30
0
41
1
10
44.7023448981965
20
1.36249141278935
30
0
41
1
10
44.7016903007255
20
1.3797672290938
30
0
41
1
10
44.6984017304293
20
1.4652231754315
30
0
41
1
10
44.6956868209908
20
1.53064770546823
30
0
41
1
10
44.690298847413
20
1.65570631304126
30
0
41
1
10
44.6876499829837
20
1.71532451680565
30
0
41
1
10
44.6837862432566
20
1.80040027710615
30
0
41
1
10
44.6818786664382
20
1.84185011187935
30
0
41
1
10
44.6800025178644
20
1.8816509133145
30
0
41
1
10
44.6787576594684
20
1.90781451144053
30
0
41
1
10
44.6781375963456
20
1.92072359442974
30
0
41
1
10
44.6750628594124
20
1.98404769016415
30
0
41
1
10
44.6726796389655
20
2.0309943160741
30
0
41
1
10
44.6679243741152
20
2.11756053582619
30
0
41
1
10
44.6655390424976
20
2.15718283063546
30
0
41
1
10
44.6630720756944
20
2.19303057635571
30
0
0
SPLINE
5
F9
100
AcDbEntity
8
1
62
256
6
ByLayer
370
18
48
1
60
0
100
AcDbSpline
70
4
71
3
72
25
73
21
40
0
40
0
40
0
40
0
40
0.249999999999998
40
0.249999999999998
40
0.312499999999998
40
0.312499999999998
40
0.343749999999998
40
0.343749999999998
40
0.374999999999998
40
0.499999999999999
40
0.499999999999999
40
0.625
40
0.625
40
0.75
40
0.75
40
0.812500000000001
40
0.812500000000001
40
0.875000000000001
40
0.875000000000001
40
1
40
1
40
1
40
1
41
1
10
44.4968201953176
20
2.29445184254524
30
0
41
1
10
44.508029721648
20
2.23213002213828
30
0
41
1
10
44.5188140272224
20
2.15489741280925
30
0
41
1
10
44.532372907414
20
2.03995415343633
30
0
41
1
10
44.535092223885
20
2.01603938803365
30
0
41
1
10
44.5391993272525
20
1.97875349788913
30
0
41
1
10
44.5405748134852
20
1.9660723758646
30
0
41
1
10
44.5433243216185
20
1.94036260430607
30
0
41
1
10
44.5501982145116
20
1.87517259661342
30
0
41
1
10
44.5571224061162
20
1.80547467403443
30
0
41
1
10
44.5682105544749
20
1.68828240837937
30
0
41
1
10
44.5737491640103
20
1.62683635617105
30
0
41
1
10
44.5847862606999
20
1.49819981254805
30
0
41
1
10
44.5902904881801
20
1.43101755160652
30
0
41
1
10
44.5985241981136
20
1.32579798088807
30
0
41
1
10
44.6012490925638
20
1.29018241599326
30
0
41
1
10
44.6066452164648
20
1.21805835831751
30
0
41
1
10
44.6093187003554
20
1.18152097181507
30
0
41
1
10
44.6172639765115
20
1.07048821216981
30
0
41
1
10
44.6224578811072
20
0.99457443174191
30
0
41
1
10
44.6275521975991
20
0.916737351347848
30
0
0
SPLINE
5
FA
100
AcDbEntity
8
1
62
256
6
ByLayer
370
18
48
1
60
0
100
AcDbSpline
70
4
71
3
72
8
73
4
40
0
40
0
40
0
40
0
40
1
40
1
40
1
40
1
41
1
10
44.6437354721251
20
0.804006343509684
30
0
41
1
10
44.6384657197435
20
0.842015505466151
30
0
41
1
10
44.6330764122329
20
0.879590690889813
30
0
41
1
10
44.6275521975991
20
0.91673735134782
30
0
0
SPLINE
5
FB
100
AcDbEntity
8
1
62
256
6
ByLayer
370
13
48
1
60
0
100
AcDbSpline
70
4
71
3
72
10
73
6
40
0
40
0
40
0
40
0
40
0.638605933158069
40
0.972408859819156
40
1
40
1
40
1
40
1
41
1.04
10
45.8238833481694
20
-0.176522153759579
30
0
41
1.04
10
45.8032953529785
20
0.162020291251772
30
0
41
1.04
10
45.7721378970583
20
0.685361042798751
30
0
41
1.04
10
45.7407641714574
20
1.13709486739287
30
0
41
1.04
10
45.7297028212951
20
1.28221320834009
30
0
41
1.04
10
45.7288599112505
20
1.29318633618788
30
0
0
SPLINE
5
FC
100
AcDbEntity
8
1
62
256
6
ByLayer
370
13
48
1
60
0
100
AcDbSpline
70
4
71
3
72
9
73
5
40
0
40
0
40
0
40
0
40
0.629341562170796
40
1
40
1
40
1
40
1
41
1
10
45.1934752383348
20
0.331164787965122
30
0
41
1
10
45.1738597776641
20
0.651462077980312
30
0
41
1
10
45.1423333947246
20
1.14778039386292
30
0
41
1
10
45.1103461699971
20
1.53033129443406
30
0
41
1
10
45.0986072741997
20
1.65058357299759
30
0
0
SPLINE
5
FD
100
AcDbEntity
8
1
62
256
6
ByLayer
370
18
48
1
60
0
100
AcDbSpline
70
4
71
3
72
29
73
25
40
0
40
0
40
0
40
0
40
0.125
40
0.125
40
0.25
40
0.25
40
0.312499999999999
40
0.312499999999999
40
0.343749999999998
40
0.343749999999998
40
0.374999999999998
40
0.374999999999998
40
0.499999999999999
40
0.499999999999999
40
0.624999999999999
40
0.624999999999999
40
0.75
40
0.75
40
0.78125
40
0.78125
40
0.8125
40
0.875
40
0.875
40
1
40
1
40
1
40
1
41
1
10
45.2454936907348
20
1.78511295239792
30
0
41
1
10
45.2511638219307
20
1.73495191887537
30
0
41
1
10
45.2567355459572
20
1.68194663619766
30
0
41
1
10
45.2677615898794
20
1.57030108985924
30
0
41
1
10
45.2732060037436
20
1.51164841813096
30
0
41
1
10
45.2814220972203
20
1.41934489866691
30
0
41
1
10
45.2841732994115
20
1.38785645538806
30
0
41
1
10
45.2883377334275
20
1.33952413693672
30
0
41
1
10
45.2897312347087
20
1.32323008735708
30
0
41
1
10
45.292527549377
20
1.29027144410347
30
0
41
1
10
45.2939311290441
20
1.27359721945467
30
0
41
1
10
45.3009271530626
20
1.18978996694912
30
0
41
1
10
45.3064857344392
20
1.12097839009419
30
0
41
1
10
45.3174371312854
20
0.97992089974079
30
0
41
1
10
45.3228261500633
20
0.907671847460449
30
0
41
1
10
45.3333792257887
20
0.759712748853445
30
0
41
1
10
45.3385501887811
20
0.68400852054836
30
0
41
1
10
45.3449159543987
20
0.587168560435117
30
0
41
1
10
45.3461858827976
20
0.567665049673906
30
0
41
1
10
45.3487064352057
20
0.528604097635053
30
0
41
1
10
45.3524600650483
20
0.469907014593559
30
0
41
1
10
45.3561393759991
20
0.410896380582983
30
0
41
1
10
45.3634207813453
20
0.292462625102189
30
0
41
1
10
45.3681707825365
20
0.212957949267604
30
0
41
1
10
45.3728881226987
20
0.13290504717537
30
0
0
SPLINE
5
FE
100
AcDbEntity
8
1
62
256
6
ByLayer
370
18
48
1
60
0
100
AcDbSpline
70
4
71
3
72
25
73
21
40
0
40
0
40
0
40
0
40
0.125
40
0.25
40
0.25
40
0.3125
40
0.3125
40
0.375
40
0.375
40
0.499999999999999
40
0.499999999999999
40
0.624999999999999
40
0.624999999999999
40
0.687499999999999
40
0.687499999999999
40
0.749999999999999
40
0.749999999999999
40
0.874999999999999
40
0.874999999999999
40
1
40
1
40
1
40
1
41
1
10
45.6969174490542
20
-0.141383671132559
30
0
41
1
10
45.6931686674762
20
-0.0669328916742131
30
0
41
1
10
45.6859396007161
20
0.0815678850303811
30
0
41
1
10
45.6792406010309
20
0.229281047208531
30
0
41
1
10
45.6743829048352
20
0.33976488822546
30
0
41
1
10
45.6727882192485
20
0.376610805681253
30
0
41
1
10
45.6696578350447
20
0.449885526952869
30
0
41
1
10
45.6681275688589
20
0.486184321036234
30
0
41
1
10
45.6636201552502
20
0.594084175223628
30
0
41
1
10
45.6607274499564
20
0.664691348646926
30
0
41
1
10
45.6550295734947
20
0.803288482162543
30
0
41
1
10
45.652215460898
20
0.87127667350768
30
0
41
1
10
45.647961470371
20
0.971265345521687
30
0
41
1
10
45.6465442286961
20
1.00426274109066
30
0
41
1
10
45.6437277918975
20
1.06958349863589
30
0
41
1
10
45.6423251962798
20
1.10198600620257
30
0
41
1
10
45.6382005108688
20
1.19722682379535
30
0
41
1
10
45.6355569962347
20
1.25830498259327
30
0
41
1
10
45.6304595373391
20
1.37575942682977
30
0
41
1
10
45.6279957848892
20
1.43213656732698
30
0
41
1
10
45.6255875379505
20
1.48614577741537
30
0
0
SPLINE
5
FF
100
AcDbEntity
8
1
62
256
6
ByLayer
370
13
48
1
60
0
100
AcDbSpline
70
4
71
3
72
10
73
6
40
0
40
0
40
0
40
0
40
0.108929904372721
40
0.454073590349384
40
1
40
1
40
1
40
1
41
1.04
10
40.216443384068
20
-0.0536315941136678
30
0
41
1.04
10
40.2130017385633
20
0.0031028402481216
30
0
41
1.04
10
40.1986122976519
20
0.240626681791876
30
0
41
1.04
10
40.1664915858198
20
0.767609335344068
30
0
41
1.04
10
40.1387378634143
20
1.17208271443667
30
0
41
1.04
10
40.1219791542039
20
1.38090687153489
30
0
0
SPLINE
5
100
100
AcDbEntity
8
1
62
256
6
ByLayer
370
18
48
1
60
0
100
AcDbSpline
70
4
71
3
72
22
73
18
40
0
40
0
40
0
40
0
40
0.125
40
0.125
40
0.25
40
0.25
40
0.3125
40
0.3125
40
0.375
40
0.375
40
0.5
40
0.625
40
0.75
40
0.75
40
0.875
40
0.875
40
1
40
1
40
1
40
1
41
1
10
39.9489404032602
20
0.0739003967318865
30
0
41
1
10
39.9445245515178
20
0.16180708783304
30
0
41
1
10
39.9400423030165
20
0.249069326921131
30
0
41
1
10
39.9311293530623
20
0.422338156547141
30
0
41
1
10
39.9267047059613
20
0.508345008123428
30
0
41
1
10
39.9201094787931
20
0.636401178885222
30
0
41
1
10
39.9179162811059
20
0.678927152836451
30
0
41
1
10
39.9135170275427
20
0.763653123339168
30
0
41
1
10
39.911304081238
20
0.805924787308925
30
0
41
1
10
39.9046913015671
20
0.930813617348605
30
0
41
1
10
39.8959150518008
20
1.09308740292229
30
0
41
1
10
39.88287035276
20
1.32410795144742
30
0
41
1
10
39.8742018737503
20
1.46982458437645
30
0
41
1
10
39.8654790331756
20
1.61123607995535
30
0
41
1
10
39.861166533814
20
1.67855040728972
30
0
41
1
10
39.8525226823148
20
1.80660426492236
30
0
41
1
10
39.8481846456705
20
1.86734812364819
30
0
41
1
10
39.8437698136459
20
1.92482179204705
30
0
0
SPLINE
5
101
100
AcDbEntity
8
1
62
256
6
ByLayer
370
13
48
1
60
0
100
AcDbSpline
70
4
71
3
72
10
73
6
40
0
40
0
40
0
40
0
40
0.0691211181828026
40
0.773467461875656
40
1
40
1
40
1
40
1
41
1
10
39.5859633153457
20
0.452557698242145
30
0
41
1
10
39.5838975634518
20
0.485798417881909
30
0
41
1
10
39.5606961994806
20
0.857308265657935
30
0
41
1
10
39.5293982546351
20
1.32654296474277
30
0
41
1
10
39.4989996373507
20
1.65015397349967
30
0
41
1
10
39.4915984987344
20
1.72035788366617
30
0
0
SPLINE
5
102
100
AcDbEntity
8
1
62
256
6
ByLayer
370
18
48
1
60
0
100
AcDbSpline
70
4
71
3
72
27
73
23
40
0
40
0
40
0
40
0
40
0.0624999999999995
40
0.0624999999999995
40
0.124999999999999
40
0.124999999999999
40
0.249999999999998
40
0.374999999999997
40
0.374999999999997
40
0.437499999999997
40
0.437499999999997
40
0.499999999999997
40
0.499999999999997
40
0.624999999999998
40
0.624999999999998
40
0.749999999999998
40
0.749999999999998
40
0.874999999999999
40
0.874999999999999
40
0.937499999999999
40
0.937499999999999
40
1
40
1
40
1
40
1
41
1
10
39.761228745284
20
1.9770221725874
30
0
41
1
10
39.7633837314306
20
1.94919804900155
30
0
41
1
10
39.7655447571358
20
1.92037839823021
30
0
41
1
10
39.7698950072666
20
1.86089636888349
30
0
41
1
10
39.7720703298017
20
1.83043389673776
30
0
41
1
10
39.7786556433044
20
1.73693108561395
30
0
41
1
10
39.7875712992971
20
1.60663014302767
30
0
41
1
10
39.7965425787039
20
1.46527603411948
30
0
41
1
10
39.8032432815305
20
1.35506153717992
30
0
41
1
10
39.8054726051388
20
1.31762219956281
30
0
41
1
10
39.8099204001799
20
1.24131516604211
30
0
41
1
10
39.8121435200877
20
1.20236007939866
30
0
41
1
10
39.8187273505161
20
1.08462461472206
30
0
41
1
10
39.823020108297
20
1.00463842741718
30
0
41
1
10
39.8315111884046
20
0.841761161280061
30
0
41
1
10
39.83570841565
20
0.758869813723805
30
0
41
1
10
39.8442135041225
20
0.590180978667235
30
0
41
1
10
39.8485259016281
20
0.504384056019319
30
0
41
1
10
39.8551185680544
20
0.37343282504682
30
0
41
1
10
39.8573210294055
20
0.329713830766423
30
0
41
1
10
39.8617260965759
20
0.242367537618122
30
0
41
1
10
39.8639305476682
20
0.198703095141582
30
0
41
1
10
39.8661371835568
20
0.15504724569368
30
0
0
SPLINE
5
103
100
AcDbEntity
8
1
62
256
6
ByLayer
370
13
48
1
60
0
100
AcDbSpline
70
4
71
3
72
10
73
6
40
0
40
0
40
0
40
0
40
0.225717708157852
40
0.571417437308128
40
1
40
1
40
1
40
1
41
1
10
40.4271814555578
20
-0.223511098976729
30
0
41
1
10
40.4201046758156
20
-0.107494655039773
30
0
41
1
10
40.4020888483203
20
0.190429476880354
30
0
41
1
10
40.3700201193727
20
0.716104589322896
30
0
41
1
10
40.3458431186958
20
1.0735413547213
30
0
41
1
10
40.3326218286507
20
1.24923076371843
30
0
0
SPLINE
5
104
100
AcDbEntity
8
1
62
256
6
ByLayer
370
13
48
1
60
0
100
AcDbSpline
70
4
71
3
72
9
73
5
40
0
40
0
40
0
40
0
40
0.615531700693871
40
1
40
1
40
1
40
1
41
1.04
10
41.0575124364119
20
-0.717264374499312
30
0
41
1.04
10
41.0378627401635
20
-0.412521594200481
30
0
41
1.04
10
41.0062638381672
20
0.120180655812901
30
0
41
1.04
10
40.9750787507712
20
0.623537585238983
30
0
41
1.04
10
40.9630603607624
20
0.806733879656299
30
0
0
SPLINE
5
105
100
AcDbEntity
8
1
62
256
6
ByLayer
370
13
48
1
60
0
100
AcDbSpline
70
4
71
3
72
10
73
6
40
0
40
0
40
0
40
0
40
0.0347581123971172
40
0.73197910308096
40
1
40
1
40
1
40
1
41
1
10
41.2682707355581
20
-0.8750643044973
30
0
41
1
10
41.2671594124079
20
-0.858403228300062
30
0
41
1
10
41.2437669687899
20
-0.505576513572663
30
0
41
1
10
41.2122035093258
20
0.0286954974064315
30
0
41
1
10
41.1821210894244
20
0.516265693757049
30
0
41
1
10
41.1737673820876
20
0.647466211359045
30
0
0
SPLINE
5
106
100
AcDbEntity
8
1
62
256
6
ByLayer
370
18
48
1
60
0
100
AcDbSpline
70
4
71
3
72
28
73
24
40
0
40
0
40
0
40
0
40
0.124999999999999
40
0.124999999999999
40
0.1875
40
0.1875
40
0.25
40
0.25
40
0.375000000000001
40
0.375000000000001
40
0.500000000000002
40
0.500000000000002
40
0.562500000000002
40
0.562500000000002
40
0.625000000000002
40
0.625000000000002
40
0.750000000000002
40
0.875000000000001
40
0.875000000000001
40
0.9375
40
0.96875
40
0.96875
40
1
40
1
40
1
40
1
41
1
10
40.7897117794381
20
-0.739882514890382
30
0
41
1
10
40.785269874674
20
-0.656118036523708
30
0
41
1
10
40.780822172028
20
-0.570892776421857
30
0
41
1
10
40.7741550798025
20
-0.44080153193309
30
0
41
1
10
40.7719274542244
20
-0.396949199812809
30
0
41
1
10
40.7675165609812
20
-0.309412720781523
30
0
41
1
10
40.7653292107809
20
-0.265650895354838
30
0
41
1
10
40.7588095876911
20
-0.134384848546944
30
0
41
1
10
40.754521605265
20
-0.0468999086207305
30
0
41
1
10
40.7459562026232
20
0.128013910540943
30
0
41
1
10
40.7416774935845
20
0.215442726440358
30
0
41
1
10
40.7351453669514
20
0.34653705109443
30
0
41
1
10
40.7329508204055
20
0.390227086699781
30
0
41
1
10
40.7285266271214
20
0.477590660080352
30
0
41
1
10
40.7263102610319
20
0.521001123863044
30
0
41
1
10
40.7196754091748
20
0.649897299074098
30
0
41
1
10
40.7108440443585
20
0.818669040616186
30
0
41
1
10
40.7020221068413
20
0.981392015126431
30
0
41
1
10
40.6953918133839
20
1.10114187227464
30
0
41
1
10
40.6920730446548
20
1.16044258298317
30
0
41
1
10
40.6887440264309
20
1.21886679989362
30
0
41
1
10
40.6865217547688
20
1.25761902484928
30
0
41
1
10
40.6854099603617
20
1.2768821553332
30
0
41
1
10
40.6843028443627
20
1.29593505157237
30
0
0
SPLINE
5
107
100
AcDbEntity
8
1
62
256
6
ByLayer
370
18
48
1
60
0
100
AcDbSpline
70
4
71
3
72
26
73
22
40
0
40
0
40
0
40
0
40
0.124999999999999
40
0.124999999999999
40
0.187499999999998
40
0.218749999999998
40
0.218749999999998
40
0.249999999999999
40
0.249999999999999
40
0.374999999999999
40
0.374999999999999
40
0.499999999999999
40
0.499999999999999
40
0.625
40
0.625
40
0.687499999999999
40
0.687499999999999
40
0.749999999999999
40
0.749999999999999
40
0.875
40
1
40
1
40
1
40
1
41
1
10
40.6024117705097
20
1.3647838696811
30
0
41
1
10
40.6067987275295
20
1.29074673938942
30
0
41
1
10
40.6111590170232
20
1.21442242647339
30
0
41
1
10
40.617707827893
20
1.0964849232135
30
0
41
1
10
40.6209846780617
20
1.036651747706
30
0
41
1
10
40.6242770309098
20
0.975502471092994
30
0
41
1
10
40.6264768516425
20
0.934440502621555
30
0
41
1
10
40.6275807990255
20
0.913731759082054
30
0
41
1
10
40.633095136385
20
0.809843940345928
30
0
41
1
10
40.6374944218202
20
0.725825993472057
30
0
41
1
10
40.6461922280106
20
0.556032104369194
30
0
41
1
10
40.6504810229116
20
0.470255495907992
30
0
41
1
10
40.6590254450399
20
0.296950598062495
30
0
41
1
10
40.6632855518338
20
0.209422625317558
30
0
41
1
10
40.6698741204735
20
0.0767883915582672
30
0
41
1
10
40.6721016798536
20
0.0323052280453737
30
0
41
1
10
40.6765571207174
20
-0.056080203167312
30
0
41
1
10
40.678791193952
20
-0.10010847699985
30
0
41
1
10
40.6855033797512
20
-0.23170896306479
30
0
41
1
10
40.6944786128162
20
-0.405887256641023
30
0
41
1
10
40.7034291800412
20
-0.577518821690376
30
0
41
1
10
40.7078928473583
20
-0.662684477086373
30
0
0
SPLINE
5
108
100
AcDbEntity
8
1
62
256
6
ByLayer
370
18
48
1
60
0
100
AcDbSpline
70
4
71
3
72
31
73
27
40
0
40
0
40
0
40
0
40
0.0312499999999996
40
0.0312499999999996
40
0.0624999999999991
40
0.124999999999999
40
0.124999999999999
40
0.249999999999999
40
0.249999999999999
40
0.374999999999998
40
0.374999999999998
40
0.406249999999998
40
0.406249999999998
40
0.437499999999999
40
0.437499999999999
40
0.499999999999999
40
0.499999999999999
40
0.625
40
0.75
40
0.75
40
0.8125
40
0.8125
40
0.84375
40
0.84375
40
0.875
40
1
40
1
40
1
40
1
41
1
10
41.4433988993045
20
0.608116819879115
30
0
41
1
10
41.4444959069695
20
0.586617289672233
30
0
41
1
10
41.4455970013968
20
0.564990857866093
30
0
41
1
10
41.4477945527529
20
0.521762213662839
30
0
41
1
10
41.4510884913851
20
0.456866155139863
30
0
41
1
10
41.4543813840822
20
0.391812991194143
30
0
41
1
10
41.4609816763435
20
0.26150129201838
30
0
41
1
10
41.4654086810723
20
0.174353911126815
30
0
41
1
10
41.4742585077984
20
-0.0004853960103901
30
0
41
1
10
41.478679481093
20
-0.0881773940852781
30
0
41
1
10
41.4841975677172
20
-0.19814134585306
30
0
41
1
10
41.4853009351638
20
-0.220151620538388
30
0
41
1
10
41.4875077222385
20
-0.264207503682712
30
0
41
1
10
41.4886123874475
20
-0.286278032374355
30
0
41
1
10
41.4919094955698
20
-0.352179675903244
30
0
41
1
10
41.4940897592496
20
-0.395796671758262
30
0
41
1
10
41.5005917262578
20
-0.525713772587977
30
0
41
1
10
41.5091548086484
20
-0.696451191627489
30
0
41
1
10
41.517727798491
20
-0.862287249032136
30
0
41
1
10
41.5242742897177
20
-0.984792509438819
30
0
41
1
10
41.5264791376144
20
-1.0253148833423
30
0
41
1
10
41.5298170940848
20
-1.08562019591062
30
0
41
1
10
41.5309360056097
20
-1.10567021058824
30
0
41
1
10
41.533170357837
20
-1.14541134115041
30
0
41
1
10
41.5387517383917
20
-1.24392219997708
30
0
41
1
10
41.5442822865882
20
-1.33829076082517
30
0
41
1
10
41.5486724644418
20
-1.4112003469956
30
0
0
SPLINE
5
109
100
AcDbEntity
8
1
62
256
6
ByLayer
370
13
48
1
60
0
100
AcDbSpline
70
4
71
3
72
9
73
5
40
0
40
0
40
0
40
0
40
0.223536661015034
40
1
40
1
40
1
40
1
41
1.04
10
42.7397581947229
20
-1.7619480525067
30
0
41
1.04
10
42.7322818484505
20
-1.69384777673488
30
0
41
1.04
10
42.6987195402633
20
-1.34793765925191
30
0
41
1.04
10
42.6678771601673
20
-0.887901213193214
30
0
41
1.04
10
42.645065982401
20
-0.521772307439697
30
0
0
SPLINE
5
10A
100
AcDbEntity
8
1
62
256
6
ByLayer
370
18
48
1
60
0
100
AcDbSpline
70
4
71
3
72
8
73
4
40
0
40
0
40
0
40
0
40
1
40
1
40
1
40
1
41
1
10
45.8636774188246
20
2.09616071595775
30
0
41
1
10
45.8273968036045
20
2.02422330243141
30
0
41
1
10
45.7909382922628
20
1.95169869319579
30
0
41
1
10
45.7542403838359
20
1.87861106582045
30
0
0
SPLINE
5
10B
100
AcDbEntity
8
1
62
256
6
ByLayer
370
18
48
1
60
0
100
AcDbSpline
70
4
71
3
72
26
73
22
40
0
40
0
40
0
40
0
40
0.124999999999995
40
0.124999999999995
40
0.24999999999999
40
0.24999999999999
40
0.374999999999985
40
0.374999999999985
40
0.437499999999932
40
0.437499999999932
40
0.499999999999879
40
0.499999999999879
40
0.624999999999774
40
0.624999999999774
40
0.687499999999775
40
0.687499999999775
40
0.749999999999777
40
0.749999999999777
40
0.874999999999888
40
0.874999999999888
40
1
40
1
40
1
40
1
41
1
10
45.7542403838329
20
1.87861106581585
30
0
41
1
10
45.7485929813732
20
1.86736368785282
30
0
41
1
10
45.7420334797595
20
1.85703039704919
30
0
41
1
10
45.7274824166719
20
1.83778866704461
30
0
41
1
10
45.7194135127588
20
1.82883543104836
30
0
41
1
10
45.7024591805576
20
1.81278106597489
30
0
41
1
10
45.6935375365546
20
1.80561387712578
30
0
41
1
10
45.6795146739015
20
1.79612519074561
30
0
41
1
10
45.6747291355808
20
1.79317601266226
30
0
41
1
10
45.6651108557056
20
1.7878115123757
30
0
41
1
10
45.6602576697584
20
1.78538142926107
30
0
41
1
10
45.6455704798919
20
1.7788587508866
30
0
41
1
10
45.6356108568141
20
1.7755186680975
30
0
41
1
10
45.6204059616922
20
1.77228768828385
30
0
41
1
10
45.6152935066673
20
1.77151612084717
30
0
41
1
10
45.6052228650461
20
1.77067603249446
30
0
41
1
10
45.6002351355516
20
1.77059963555359
30
0
41
1
10
45.5854400919339
20
1.77151697859625
30
0
41
1
10
45.5757051792187
20
1.77369844744322
30
0
41
1
10
45.5580689233092
20
1.78182773157417
30
0
41
1
10
45.5499703035522
20
1.78787980163432
30
0
41
1
10
45.5435305227
20
1.79606182215619
30
0
0
SPLINE
5
10C
100
AcDbEntity
8
1
62
256
6
ByLayer
370
18
48
1
60
0
100
AcDbSpline
70
4
71
3
72
8
73
4
40
0
40
0
40
0
40
0
40
1
40
1
40
1
40
1
41
1
10
45.5435305226972
20
1.79606182215974
30
0
41
1
10
45.4862119076419
20
1.86888760544414
30
0
41
1
10
45.4292135284985
20
1.93732403802511
30
0
41
1
10
45.3727095269693
20
2.00113626883279
30
0
0
SPLINE
5
10D
100
AcDbEntity
8
1
62
256
6
ByLayer
370
18
48
1
60
0
100
AcDbSpline
70
4
71
3
72
8
73
4
40
0
40
0
40
0
40
0
40
1
40
1
40
1
40
1
41
1
10
45.3727095269693
20
2.00113626883279
30
0
41
1
10
45.2902843843194
20
1.97780282169145
30
0
41
1
10
45.2085330900497
20
1.95092229522106
30
0
41
1
10
45.1272414658786
20
1.92057821568915
30
0
0
SPLINE
5
10E
100
AcDbEntity
8
1
62
256
6
ByLayer
370
18
48
1
60
0
100
AcDbSpline
70
4
71
3
72
10
73
6
40
0
40
0
40
0
40
0
40
0.81649416305836
40
0.81649416305836
40
1
40
1
40
1
40
1
41
1
10
45.1272414658787
20
1.92057821568903
30
0
41
1
10
45.0919576019726
20
1.84691831809957
30
0
41
1
10
45.0564410567749
20
1.77323981151662
30
0
41
1
10
45.0127309854192
20
1.6833454448639
30
0
41
1
10
45.0047012489409
20
1.66686344728822
30
0
41
1
10
44.996662036694
20
1.65039604775586
30
0
0
SPLINE
5
10F
100
AcDbEntity
8
1
62
256
6
ByLayer
370
18
48
1
60
0
100
AcDbSpline
70
4
71
3
72
16
73
12
40
0
40
0
40
0
40
0
40
0.148244095612825
40
0.148244095612825
40
0.290203413010728
40
0.290203413010728
40
0.432162730408631
40
0.432162730408631
40
0.716081365204315
40
0.716081365204315
40
1
40
1
40
1
40
1
41
1
10
38.9121910402732
20
-2.0436299454436
30
0
41
1
10
38.9069957175128
20
-2.04406027631359
30
0
41
1
10
38.9017538815436
20
-2.04479955020938
30
0
41
1
10
38.8913990269035
20
-2.04690682575418
30
0
41
1
10
38.8862922085485
20
-2.04825507892801
30
0
41
1
10
38.8762315023358
20
-2.05158450931666
30
0
41
1
10
38.8712484647643
20
-2.05357007087477
30
0
41
1
10
38.8564655800875
20
-2.06060466413777
30
0
41
1
10
38.8467368542402
20
-2.06681284508488
30
0
41
1
10
38.8291033317356
20
-2.08228927331658
30
0
41
1
10
38.8210021673204
20
-2.09174443501223
30
0
41
1
10
38.8145581130996
20
-2.10266905606798
30
0
0
SPLINE
5
110
100
AcDbEntity
8
1
62
256
6
ByLayer
370
18
48
1
60
0
100
AcDbSpline
70
4
71
3
72
8
73
4
40
0
40
0
40
0
40
0
40
1
40
1
40
1
40
1
41
1
10
38.8145581130968
20
-2.10266905607264
30
0
41
1
10
38.7486515624816
20
-2.21440059432101
30
0
41
1
10
38.6831567065478
20
-2.32469924663269
30
0
41
1
10
38.6183697483838
20
-2.43255498240418
30
0
0
SPLINE
5
111
100
AcDbEntity
8
1
62
256
6
ByLayer
370
18
48
1
60
0
100
AcDbSpline
70
4
71
3
72
8
73
4
40
0
40
0
40
0
40
0
40
1
40
1
40
1
40
1
41
1
10
38.6183697483839
20
-2.43255498240413
30
0
41
1
10
38.5011137555371
20
-2.36143310158627
30
0
41
1
10
38.3829766695215
20
-2.28030971786922
30
0
41
1
10
38.2624985622698
20
-2.18959139176962
30
0
0
SPLINE
5
112
100
AcDbEntity
8
1
62
256
6
ByLayer
370
18
48
1
60
0
100
AcDbSpline
70
4
71
3
72
8
73
4
40
0
40
0
40
0
40
0
40
1
40
1
40
1
40
1
41
1
10
38.2624985622697
20
-2.18959139176962
30
0
41
1
10
38.2364983830038
20
-2.14251312407748
30
0
41
1
10
38.210392733843
20
-2.09482265059836
30
0
41
1
10
38.1841573409748
20
-2.04652308833497
30
0
0
SPLINE
5
113
100
AcDbEntity
8
1
62
256
6
ByLayer
370
18
48
1
60
0
100
AcDbSpline
70
4
71
3
72
24
73
20
40
0
40
0
40
0
40
0
40
0.124999999999992
40
0.124999999999992
40
0.249999999999984
40
0.249999999999984
40
0.374999999999977
40
0.374999999999977
40
0.499999999999969
40
0.499999999999969
40
0.624999999999961
40
0.624999999999961
40
0.749999999999953
40
0.749999999999953
40
0.874999999999945
40
0.874999999999945
40
0.937499999999973
40
0.937499999999973
40
1
40
1
40
1
40
1
41
1
10
38.1841573409748
20
-2.04652308833497
30
0
41
1
10
38.1792134346405
20
-2.03742131833422
30
0
41
1
10
38.1735669853992
20
-2.02915565131829
30
0
41
1
10
38.1611506979606
20
-2.01394754550492
30
0
41
1
10
38.1543244222636
20
-2.00696858907253
30
0
41
1
10
38.1398767818098
20
-1.99447321896866
30
0
41
1
10
38.1322994744742
20
-1.98897834248339
30
0
41
1
10
38.1164940628032
20
-1.9794001496258
30
0
41
1
10
38.1081989798146
20
-1.97529665136676
30
0
41
1
10
38.091366904357
20
-1.9687450959718
30
0
41
1
10
38.0828193244604
20
-1.9662740680119
30
0
41
1
10
38.0654715857154
20
-1.96303454902332
30
0
41
1
10
38.0566196786545
20
-1.96226319421496
30
0
41
1
10
38.0388710032377
20
-1.96277614796193
30
0
41
1
10
38.0301338764625
20
-1.96404216083994
30
0
41
1
10
38.0172962430137
20
-1.96775232284654
30
0
41
1
10
38.0130363144552
20
-1.96930639730991
30
0
41
1
10
38.0047590422629
20
-1.97306900496716
30
0
41
1
10
38.0007576360845
20
-1.97526529603033
30
0
41
1
10
37.9969086493055
20
-1.97780946275117
30
0
0
SPLINE
5
114
100
AcDbEntity
8
1
62
256
6
ByLayer
370
18
48
1
60
0
100
AcDbSpline
70
4
71
3
72
10
73
6
40
0
40
0
40
0
40
0
40
0.5
40
0.5
40
1
40
1
40
1
40
1
41
1
10
37.9969086493053
20
-1.97780946275495
30
0
41
1
10
37.975078153893
20
-1.95949750696562
30
0
41
1
10
37.9531542908153
20
-1.94090134374264
30
0
41
1
10
37.9092569274883
20
-1.90326541201529
30
0
41
1
10
37.8872890347166
20
-1.88421103836896
30
0
41
1
10
37.8652123821675
20
-1.86492059762116
30
0
0
SPLINE
5
115
100
AcDbEntity
8
1
62
256
6
ByLayer
370
18
48
1
60
0
100
AcDbSpline
70
4
71
3
72
19
73
15
40
0
40
0
40
0
40
0
40
0.212678822772962
40
0.212678822772962
40
0.343899018977468
40
0.343899018977468
40
0.475119215181975
40
0.606339411386481
40
0.606339411386481
40
0.737559607590987
40
0.737559607590987
40
0.868779803795494
40
0.868779803795494
40
1
40
1
40
1
40
1
41
1
10
43.3128151771898
20
2.04377935775099
30
0
41
1
10
43.3208101223348
20
2.0439283947014
30
0
41
1
10
43.3288434903893
20
2.0447948860506
30
0
41
1
10
43.341885147223
20
2.04746520849949
30
0
41
1
10
43.3469012138221
20
2.04879669220341
30
0
41
1
10
43.3567705546709
20
2.05207862519097
30
0
41
1
10
43.3664928823931
20
2.05597455547627
30
0
41
1
10
43.3758883638159
20
2.06120053283965
30
0
41
1
10
43.3850928686023
20
2.06718799720829
30
0
41
1
10
43.3896010606977
20
2.07057292423843
30
0
41
1
10
43.3981222682528
20
2.07801402603676
30
0
41
1
10
43.4021695469111
20
2.0820888589723
30
0
41
1
10
43.4097703859584
20
2.09105845554296
30
0
41
1
10
43.4133321993456
20
2.09597640585966
30
0
41
1
10
43.4165020828203
20
2.10124608995099
30
0
0
SPLINE
5
116
100
AcDbEntity
8
1
62
256
6
ByLayer
370
18
48
1
60
0
100
AcDbSpline
70
4
71
3
72
10
73
6
40
0
40
0
40
0
40
0
40
0.5
40
0.5
40
1
40
1
40
1
40
1
41
1
10
43.416502082824
20
2.10124608995738
30
0
41
1
10
43.4622480852125
20
2.17729525169588
30
0
41
1
10
43.5076610696356
20
2.25218666384185
30
0
41
1
10
43.5977959400631
20
2.39919710321911
30
0
41
1
10
43.6424638994827
20
2.4712293481393
30
0
41
1
10
43.6868017621782
20
2.54170156010684
30
0
0
SPLINE
5
117
100
AcDbEntity
8
1
62
256
6
ByLayer
370
18
48
1
60
0
100
AcDbSpline
70
4
71
3
72
8
73
4
40
0
40
0
40
0
40
0
40
1
40
1
40
1
40
1
41
1
10
43.768911995836
20
2.53263575329797
30
0
41
1
10
43.7415404772142
20
2.53607181459307
30
0
41
1
10
43.7141227552743
20
2.53909952578903
30
0
41
1
10
43.6868017621782
20
2.54170156010687
30
0
0
SPLINE
5
118
100
AcDbEntity
8
1
62
256
6
ByLayer
370
18
48
1
60
0
100
AcDbSpline
70
4
71
3
72
10
73
6
40
0
40
0
40
0
40
0
40
0.5
40
0.5
40
1
40
1
40
1
40
1
41
1
10
43.7689119958361
20
2.53263575329811
30
0
41
1
10
43.8144697821991
20
2.45200882024818
30
0
41
1
10
43.8603622495099
20
2.3696365450412
30
0
41
1
10
43.9530801942353
20
2.20154757962331
30
0
41
1
10
43.9997497048732
20
2.116112303801
30
0
41
1
10
44.0468939697323
20
2.02933390374676
30
0
0
SPLINE
5
119
100
AcDbEntity
8
1
62
256
6
ByLayer
370
18
48
1
60
0
100
AcDbSpline
70
4
71
3
72
27
73
23
40
0
40
0
40
0
40
0
40
0.124999999999959
40
0.124999999999959
40
0.249999999999918
40
0.249999999999918
40
0.374999999999877
40
0.374999999999877
40
0.499999999999837
40
0.499999999999837
40
0.624999999999796
40
0.624999999999796
40
0.68749999999983
40
0.68749999999983
40
0.749999999999864
40
0.812499999999898
40
0.812499999999898
40
0.874999999999932
40
0.874999999999932
40
0.937499999999966
40
0.937499999999966
40
1
40
1
40
1
40
1
41
1
10
44.0468939697353
20
2.0293339037419
30
0
41
1
10
44.0527353098945
20
2.018581754894
30
0
41
1
10
44.0595471611587
20
2.00901303509542
30
0
41
1
10
44.0746445370537
20
1.99165700690972
30
0
41
1
10
44.0830330971593
20
1.98382702079678
30
0
41
1
10
44.1004975758837
20
1.97034824286445
30
0
41
1
10
44.1096169599368
20
1.96462526669473
30
0
41
1
10
44.1285591790864
20
1.95508328118567
30
0
41
1
10
44.1384334864169
20
1.95127166463791
30
0
41
1
10
44.1581361977379
20
1.94589683636986
30
0
41
1
10
44.1680494593725
20
1.94427743813682
30
0
41
1
10
44.1829926194276
20
1.94362856854124
30
0
41
1
10
44.1880133507948
20
1.94371607023993
30
0
41
1
10
44.1978851706276
20
1.94454787323178
30
0
41
1
10
44.2076076531067
20
1.94602846504171
30
0
41
1
10
44.2169991109757
20
1.94890568012249
30
0
41
1
10
44.2261973895315
20
1.9525819154064
30
0
41
1
10
44.2306981374913
20
1.95482763976381
30
0
41
1
10
44.2392026161261
20
1.96009766338034
30
0
41
1
10
44.2432406855365
20
1.96313234199621
30
0
41
1
10
44.2508224222566
20
1.97012558742031
30
0
41
1
10
44.2543728174908
20
1.97410350247824
30
0
41
1
10
44.2575319243582
20
1.97851962308005
30
0
0
SPLINE
5
11A
100
AcDbEntity
8
1
62
256
6
ByLayer
370
18
48
1
60
0
100
AcDbSpline
70
4
71
3
72
8
73
4
40
0
40
0
40
0
40
0
40
1
40
1
40
1
40
1
41
1
10
44.257531924362
20
1.97851962308627
30
0
41
1
10
44.3383822700569
20
2.09154045217932
30
0
41
1
10
44.4182474805929
20
2.19731018550289
30
0
41
1
10
44.4968201953176
20
2.29445184254524
30
0
0
SPLINE
5
11B
100
AcDbEntity
8
1
62
256
6
ByLayer
370
18
48
1
60
0
100
AcDbSpline
70
4
71
3
72
10
73
6
40
0
40
0
40
0
40
0
40
0.5
40
0.5
40
1
40
1
40
1
40
1
41
1
10
44.4968201953176
20
2.29445184254524
30
0
41
1
10
44.524453077859
20
2.27831649554363
30
0
41
1
10
44.5521184334416
20
2.26179900287943
30
0
41
1
10
44.607512591075
20
2.2279909354005
30
0
41
1
10
44.6352363690642
20
2.21069837137452
30
0
41
1
10
44.6630720756946
20
2.19303057635594
30
0
0
SPLINE
5
11C
100
AcDbEntity
8
1
62
256
6
ByLayer
370
18
48
1
60
0
100
AcDbSpline
70
4
71
3
72
10
73
6
40
0
40
0
40
0
40
0
40
0.499999999999999
40
0.499999999999999
40
1
40
1
40
1
40
1
41
1
10
44.6630720756944
20
2.19303057635574
30
0
41
1
10
44.6999947291304
20
2.11960076337746
30
0
41
1
10
44.7372186198493
20
2.045811505622
30
0
41
1
10
44.8121671595525
20
1.89812442251872
30
0
41
1
10
44.8498739206121
20
1.82426508469956
30
0
41
1
10
44.8879147085078
20
1.750440243946
30
0
0
SPLINE
5
11D
100
AcDbEntity
8
1
62
256
6
ByLayer
370
18
48
1
60
0
100
AcDbSpline
70
4
71
3
72
27
73
23
40
0
40
0
40
0
40
0
40
0.124999999999959
40
0.124999999999959
40
0.249999999999918
40
0.249999999999918
40
0.374999999999877
40
0.374999999999877
40
0.499999999999836
40
0.499999999999836
40
0.624999999999795
40
0.624999999999795
40
0.687499999999829
40
0.687499999999829
40
0.749999999999863
40
0.812499999999897
40
0.812499999999897
40
0.874999999999932
40
0.874999999999932
40
0.937499999999966
40
0.937499999999966
40
1
40
1
40
1
40
1
41
1
10
44.8879147085107
20
1.75044024394188
30
0
41
1
10
44.8937609428414
20
1.73909459780066
30
0
41
1
10
44.9005774145352
20
1.72861121248917
30
0
41
1
10
44.915681547852
20
1.70894622042752
30
0
41
1
10
44.9240717076609
20
1.69970111968959
30
0
41
1
10
44.9415361182114
20
1.68306256588292
30
0
41
1
10
44.950654974215
20
1.67558911905698
30
0
41
1
10
44.9695955036831
20
1.66221689336553
30
0
41
1
10
44.9794683595504
20
1.65631224822695
30
0
41
1
10
44.9991697242469
20
1.6465530454486
30
0
41
1
10
45.0090830248908
20
1.64262676843816
30
0
41
1
10
45.024026371682
20
1.63831308226517
30
0
41
1
10
45.0290473474353
20
1.63713712171855
30
0
41
1
10
45.0389220231206
20
1.63541182063497
30
0
41
1
10
45.0486478126297
20
1.63430063408001
30
0
41
1
10
45.0580425941641
20
1.6345104154359
30
0
41
1
10
45.0672444665384
20
1.63547260790577
30
0
41
1
10
45.0717486765251
20
1.63633807959997
30
0
41
1
10
45.0802599630433
20
1.63887868130152
30
0
41
1
10
45.0843013902433
20
1.64055437336839
30
0
41
1
10
45.0918895281526
20
1.64484226865952
30
0
41
1
10
45.0954440274342
20
1.64747043682195
30
0
41
1
10
45.0986072741896
20
1.65058357305739
30
0
0
SPLINE
5
11E
100
AcDbEntity
8
1
62
256
6
ByLayer
370
18
48
1
60
0
100
AcDbSpline
70
4
71
3
72
8
73
4
40
0
40
0
40
0
40
0
40
1
40
1
40
1
40
1
41
1
10
45.0986072741933
20
1.65058357306236
30
0
41
1
10
45.1479538751586
20
1.69914845069451
30
0
41
1
10
45.1969206155424
20
1.74401897657023
30
0
41
1
10
45.2454936907349
20
1.78511295239841
30
0
0
SPLINE
5
11F
100
AcDbEntity
8
1
62
256
6
ByLayer
370
18
48
1
60
0
100
AcDbSpline
70
4
71
3
72
8
73
4
40
0
40
0
40
0
40
0
40
1
40
1
40
1
40
1
41
1
10
45.2454936907348
20
1.78511295239795
30
0
41
1
10
45.3715207226439
20
1.68971928164481
30
0
41
1
10
45.4981254031126
20
1.58995809024145
30
0
41
1
10
45.6255875379506
20
1.48614577741552
30
0
0
SPLINE
5
120
100
AcDbEntity
8
1
62
256
6
ByLayer
370
18
48
1
60
0
100
AcDbSpline
70
4
71
3
72
8
73
4
40
0
40
0
40
0
40
0
40
1
40
1
40
1
40
1
41
1
10
45.6255875379505
20
1.48614577741535
30
0
41
1
10
45.6598060227577
20
1.42109828958041
30
0
41
1
10
45.6942084872838
20
1.35676270911236
30
0
41
1
10
45.7288599112504
20
1.29318633618777
30
0
0
SPLINE
5
121
100
AcDbEntity
8
1
62
256
6
ByLayer
370
18
48
1
60
0
100
AcDbSpline
70
4
71
3
72
27
73
23
40
0
40
0
40
0
40
0
40
0.12499999999996
40
0.12499999999996
40
0.24999999999992
40
0.24999999999992
40
0.37499999999988
40
0.37499999999988
40
0.49999999999984
40
0.49999999999984
40
0.624999999999799
40
0.624999999999799
40
0.687499999999833
40
0.687499999999833
40
0.749999999999866
40
0.8124999999999
40
0.8124999999999
40
0.874999999999933
40
0.874999999999933
40
0.937499999999967
40
0.937499999999967
40
1
40
1
40
1
40
1
41
1
10
45.7288599112533
20
1.29318633618487
30
0
41
1
10
45.7347312769585
20
1.28241390339957
30
0
41
1
10
45.7415795326997
20
1.27209859902578
30
0
41
1
10
45.7567506364792
20
1.25216294761736
30
0
41
1
10
45.7651766080564
20
1.24246410058114
30
0
41
1
10
45.7826991499184
20
1.22440820058998
30
0
41
1
10
45.7918422474624
20
1.21597231371098
30
0
41
1
10
45.8108173605232
20
1.20018518382062
30
0
41
1
10
45.8206963228173
20
1.19281921559062
30
0
41
1
10
45.8403947323109
20
1.1797187207406
30
0
41
1
10
45.8502999379445
20
1.17390395726105
30
0
41
1
10
45.8652215921308
20
1.16638148990515
30
0
41
1
10
45.8702321310446
20
1.16406650071124
30
0
41
1
10
45.8800785678732
20
1.15996520111662
30
0
41
1
10
45.8897758158574
20
1.15637475177772
30
0
41
1
10
45.8991422330911
20
1.15388041965946
30
0
41
1
10
45.9083163897916
20
1.15200980119269
30
0
41
1
10
45.9128073950866
20
1.15139245822866
30
0
41
1
10
45.9212965179631
20
1.15091030581854
30
0
41
1
10
45.9253285516232
20
1.15103630754703
30
0
41
1
10
45.9329014550552
20
1.15213826231627
30
0
41
1
10
45.9364516742609
20
1.1531242450348
30
0
41
1
10
45.9396134640342
20
1.15459205491251
30
0
0
SPLINE
5
122
100
AcDbEntity
8
1
62
256
6
ByLayer
370
18
48
1
60
0
100
AcDbSpline
70
4
71
3
72
8
73
4
40
0
40
0
40
0
40
0
40
1
40
1
40
1
40
1
41
1
10
45.9396134640377
20
1.15459205491672
30
0
41
1
10
45.9576742871963
20
1.16297650060818
30
0
41
1
10
45.9756796631778
20
1.17076435518837
30
0
41
1
10
45.9936370778452
20
1.17796246286718
30
0
0
SPLINE
5
123
100
AcDbEntity
8
1
62
256
6
ByLayer
370
18
48
1
60
0
100
AcDbSpline
70
4
71
3
72
10
73
6
40
0
40
0
40
0
40
0
40
0.5
40
0.5
40
1
40
1
40
1
40
1
41
1
10
44.422083896859
20
-2.09747389367564
30
0
41
1
10
44.3769309922512
20
-2.17477986558839
30
0
41
1
10
44.3319908853459
20
-2.25162714345478
30
0
41
1
10
44.2426595951172
20
-2.40386093854235
30
0
41
1
10
44.1983170338971
20
-2.47916270826909
30
0
41
1
10
44.1542697108068
20
-2.55350434616318
30
0
0
SPLINE
5
124
100
AcDbEntity
8
1
62
256
6
ByLayer
370
18
48
1
60
0
100
AcDbSpline
70
4
71
3
72
8
73
4
40
0
40
0
40
0
40
0
40
1
40
1
40
1
40
1
41
1
10
43.9262041080902
20
-2.30750346001048
30
0
41
1
10
43.8816189663384
20
-2.23072070195551
30
0
41
1
10
43.8368002584373
20
-2.15194421062296
30
0
41
1
10
43.7916232298097
20
-2.07115962859294
30
0
0
SPLINE
5
125
100
AcDbEntity
8
1
62
256
6
ByLayer
370
18
48
1
60
0
100
AcDbSpline
70
4
71
3
72
26
73
22
40
0
40
0
40
0
40
0
40
0.124999999999947
40
0.124999999999947
40
0.249999999999894
40
0.249999999999894
40
0.374999999999841
40
0.374999999999841
40
0.437499999999813
40
0.437499999999813
40
0.499999999999786
40
0.499999999999786
40
0.624999999999839
40
0.624999999999839
40
0.687499999999865
40
0.687499999999865
40
0.749999999999892
40
0.749999999999892
40
0.874999999999946
40
0.874999999999946
40
1
40
1
40
1
40
1
41
1
10
43.7916232298057
20
-2.0711596285858
30
0
41
1
10
43.7859727015816
20
-2.06105547666087
30
0
41
1
10
43.7794107158487
20
-2.05207234787133
30
0
41
1
10
43.7648567863135
20
-2.03584343115097
30
0
41
1
10
43.7567871925053
20
-2.02856981540009
30
0
41
1
10
43.7398331984965
20
-2.01606134447457
30
0
41
1
10
43.7309124061645
20
-2.01076786168358
30
0
41
1
10
43.7168928362885
20
-2.00424273580771
30
0
41
1
10
43.7121091710324
20
-2.00230817263466
30
0
41
1
10
43.7024946568746
20
-1.99899090191906
30
0
41
1
10
43.6976433798663
20
-1.99759777701982
30
0
41
1
10
43.6829616750863
20
-1.99422949022102
30
0
41
1
10
43.6730052813493
20
-1.99304933783802
30
0
41
1
10
43.6578048366788
20
-1.99317283164834
30
0
41
1
10
43.6526941098909
20
-1.99353878137796
30
0
41
1
10
43.6426267011969
20
-1.99496356816496
30
0
41
1
10
43.6376405563593
20
-1.99602095728938
30
0
41
1
10
43.622849777096
20
-2.00034816056387
30
0
41
1
10
43.6131170948087
20
-2.00483827850596
30
0
41
1
10
43.5954832689164
20
-2.01734510974262
30
0
41
1
10
43.5873850770369
20
-2.0255162043845
30
0
41
1
10
43.5809458244765
20
-2.03553433272282
30
0
0
SPLINE
5
126
100
AcDbEntity
8
1
62
256
6
ByLayer
370
18
48
1
60
0
100
AcDbSpline
70
4
71
3
72
10
73
6
40
0
40
0
40
0
40
0
40
0.5
40
0.5
40
1
40
1
40
1
40
1
41
1
10
43.5809458244765
20
-2.03553433272273
30
0
41
1
10
43.5358682852636
20
-2.1056655426375
30
0
41
1
10
43.4909974888517
20
-2.17409252907356
30
0
41
1
10
43.401799882134
20
-2.30709121907816
30
0
41
1
10
43.3575229306529
20
-2.37158678467304
30
0
41
1
10
43.3135459197578
20
-2.43397035034746
30
0
0
SPLINE
5
127
100
AcDbEntity
8
1
62
256
6
ByLayer
370
18
48
1
60
0
100
AcDbSpline
70
4
71
3
72
10
73
6
40
0
40
0
40
0
40
0
40
0.5
40
0.5
40
1
40
1
40
1
40
1
41
1
10
43.2304371923375
20
-2.40805741586169
30
0
41
1
10
43.1843811503581
20
-2.31726246999744
30
0
41
1
10
43.1380570379645
20
-2.22521702657633
30
0
41
1
10
43.0446533501488
20
-2.03876849560805
30
0
41
1
10
42.9977311665323
20
-1.94468071861994
30
0
41
1
10
42.950450604604
20
-1.84977665637283
30
0
0
SPLINE
5
128
100
AcDbEntity
8
1
62
256
6
ByLayer
370
18
48
1
60
0
100
AcDbSpline
70
4
71
3
72
26
73
22
40
0
40
0
40
0
40
0
40
0.124999999999987
40
0.124999999999987
40
0.249999999999974
40
0.249999999999974
40
0.374999999999961
40
0.374999999999961
40
0.437499999999954
40
0.437499999999954
40
0.499999999999947
40
0.499999999999947
40
0.624999999999934
40
0.624999999999934
40
0.687499999999981
40
0.687499999999981
40
0.750000000000028
40
0.750000000000028
40
0.875000000000014
40
0.875000000000014
40
1
40
1
40
1
40
1
41
1
10
42.9504506046
20
-1.8497766563647
30
0
41
1
10
42.9448074573248
20
-1.83844943057935
30
0
41
1
10
42.9382542872818
20
-1.82800659544978
30
0
41
1
10
42.9237195306929
20
-1.80849876853065
30
0
41
1
10
42.9156608981941
20
-1.79938797001395
30
0
41
1
10
42.8987269992951
20
-1.78298243293247
30
0
41
1
10
42.8898152254041
20
-1.77562107162561
30
0
41
1
10
42.8758075195342
20
-1.76581370332951
30
0
41
1
10
42.8710261575359
20
-1.76275294157531
30
0
41
1
10
42.861415483993
20
-1.75715983798921
30
0
41
1
10
42.85656584829
20
-1.75461231248906
30
0
41
1
10
42.841888144704
20
-1.74772792398304
30
0
41
1
10
42.8319331862722
20
-1.74413452171294
30
0
41
1
10
42.8167325989311
20
-1.74050138638131
30
0
41
1
10
42.8116171596137
20
-1.73959115795006
30
0
41
1
10
42.801540069833
20
-1.73847306886719
30
0
41
1
10
42.7965488582755
20
-1.73825634465982
30
0
41
1
10
42.781741889144
20
-1.73874872458384
30
0
41
1
10
42.7719937630311
20
-1.74063860433981
30
0
41
1
10
42.7543264153259
20
-1.74821563743905
30
0
41
1
10
42.7462102770225
20
-1.7540006575685
30
0
41
1
10
42.7397581947229
20
-1.76194805250668
30
0
0
SPLINE
5
129
100
AcDbEntity
8
1
62
256
6
ByLayer
370
18
48
1
60
0
100
AcDbSpline
70
4
71
3
72
10
73
6
40
0
40
0
40
0
40
0
40
0.5
40
0.5
40
1
40
1
40
1
40
1
41
1
10
41.8986831024229
20
-1.30802178553819
30
0
41
1
10
41.8535369455191
20
-1.34360794149811
30
0
41
1
10
41.8086048967533
20
-1.37550089866718
30
0
41
1
10
41.7192892174591
20
-1.43203151555414
30
0
41
1
10
41.6749547111831
20
-1.45664053358143
30
0
41
1
10
41.6309136363053
20
-1.47769341624399
30
0
0
SPLINE
5
12A
100
AcDbEntity
8
1
62
256
6
ByLayer
370
18
48
1
60
0
100
AcDbSpline
70
4
71
3
72
10
73
6
40
0
40
0
40
0
40
0
40
0.5
40
0.5
40
1
40
1
40
1
40
1
41
1
10
41.5486724644343
20
-1.41120034698847
30
0
41
1
10
41.5025739418505
20
-1.3184422144964
30
0
41
1
10
41.4562014275394
20
-1.22722683148101
30
0
41
1
10
41.3626635485483
20
-1.04813395127195
30
0
41
1
10
41.3156541257725
20
-0.960554600069486
30
0
41
1
10
41.2682707355584
20
-0.875064304501478
30
0
0
SPLINE
5
12B
100
AcDbEntity
8
1
62
256
6
ByLayer
370
18
48
1
60
0
100
AcDbSpline
70
4
71
3
72
26
73
22
40
0
40
0
40
0
40
0
40
0.12499999999996
40
0.12499999999996
40
0.249999999999919
40
0.249999999999919
40
0.374999999999878
40
0.374999999999878
40
0.437499999999859
40
0.437499999999859
40
0.499999999999839
40
0.499999999999839
40
0.624999999999906
40
0.624999999999906
40
0.687499999999885
40
0.687499999999885
40
0.749999999999865
40
0.749999999999865
40
0.874999999999932
40
0.874999999999932
40
1
40
1
40
1
40
1
41
1
10
41.2682707355543
20
-0.875064304494202
30
0
41
1
10
41.2626187293189
20
-0.864866813740889
30
0
41
1
10
41.2560553252615
20
-0.854859560685156
30
0
41
1
10
41.2414996301912
20
-0.835155772623466
30
0
41
1
10
41.2334299747477
20
-0.825393322142105
30
0
41
1
10
41.2164753795634
20
-0.806740152449038
30
0
41
1
10
41.2075540680619
20
-0.79778766490162
30
0
41
1
10
41.1935342444082
20
-0.784893596930999
30
0
41
1
10
41.1887503796323
20
-0.780684866070999
30
0
41
1
10
41.1791353262745
20
-0.772593065562035
30
0
41
1
10
41.1742837671538
20
-0.768690677696895
30
0
41
1
10
41.1596011407501
20
-0.757414914820856
30
0
41
1
10
41.1496440217005
20
-0.750465074322108
30
0
41
1
10
41.1344421579947
20
-0.741012808518008
30
0
41
1
10
41.1293289659146
20
-0.738028539603647
30
0
41
1
10
41.1192561495758
20
-0.732563350385135
30
0
41
1
10
41.1142670578395
20
-0.730063062898751
30
0
41
1
10
41.0994664172184
20
-0.723331491735479
30
0
41
1
10
41.0897241992052
20
-0.719845546955639
30
0
41
1
10
41.0720688354659
20
-0.71599432179471
30
0
41
1
10
41.0639593833952
20
-0.715591889717359
30
0
41
1
10
41.0575124364136
20
-0.71726437449891
30
0
0
SPLINE
5
12C
100
AcDbEntity
8
1
62
256
6
ByLayer
370
18
48
1
60
0
100
AcDbSpline
70
4
71
3
72
10
73
6
40
0
40
0
40
0
40
0
40
0.5
40
0.5
40
1
40
1
40
1
40
1
41
1
10
41.057512436412
20
-0.717264374499308
30
0
41
1
10
41.012370640875
20
-0.728975183705899
30
0
41
1
10
40.9674335368201
20
-0.73666419399521
30
0
41
1
10
40.8781002081392
20
-0.744155262856509
30
0
41
1
10
40.8337547104169
20
-0.743951074146821
30
0
41
1
10
40.7897117794381
20
-0.739882514890382
30
0
0
SPLINE
5
12D
100
AcDbEntity
8
1
62
256
6
ByLayer
370
18
48
1
60
0
100
AcDbSpline
70
4
71
3
72
8
73
4
40
0
40
0
40
0
40
0
40
1
40
1
40
1
40
1
41
1
10
40.7078928473496
20
-0.662684477089613
30
0
41
1
10
40.735163889987
20
-0.688526416391539
30
0
41
1
10
40.7624332662231
20
-0.714262676479137
30
0
41
1
10
40.7897117794381
20
-0.739882514890411
30
0
0
SPLINE
5
12E
100
AcDbEntity
8
1
62
256
6
ByLayer
370
18
48
1
60
0
100
AcDbSpline
70
4
71
3
72
10
73
6
40
0
40
0
40
0
40
0
40
0.5
40
0.5
40
1
40
1
40
1
40
1
41
1
10
40.707892847351
20
-0.662684477084895
30
0
41
1
10
40.6617850720604
20
-0.583565953312842
30
0
41
1
10
40.6153742684904
20
-0.50727843674386
30
0
41
1
10
40.5217222024434
20
-0.360569541144684
30
0
41
1
10
40.4746424002128
20
-0.290396884955982
30
0
41
1
10
40.4271814555582
20
-0.223511098982272
30
0
0
SPLINE
5
12F
100
AcDbEntity
8
1
62
256
6
ByLayer
370
18
48
1
60
0
100
AcDbSpline
70
4
71
3
72
26
73
22
40
0
40
0
40
0
40
0
40
0.12499999999991
40
0.12499999999991
40
0.24999999999982
40
0.24999999999982
40
0.37499999999973
40
0.37499999999973
40
0.437499999999736
40
0.437499999999736
40
0.499999999999741
40
0.499999999999741
40
0.62499999999986
40
0.62499999999986
40
0.687499999999919
40
0.687499999999919
40
0.749999999999978
40
0.749999999999978
40
0.874999999999989
40
0.874999999999989
40
1
40
1
40
1
40
1
41
1
10
40.4271814555539
20
-0.223511098976218
30
0
41
1
10
40.4215216413405
20
-0.215534832914528
30
0
41
1
10
40.4149476734108
20
-0.207348365964009
30
0
41
1
10
40.4003677476461
20
-0.190667836704364
30
0
41
1
10
40.3922836254317
20
-0.182106945114413
30
0
41
1
10
40.3753015535072
20
-0.16521769811834
30
0
41
1
10
40.3663672144422
20
-0.156839970507122
30
0
41
1
10
40.3523304984772
20
-0.144351590245037
30
0
41
1
10
40.3475430671527
20
-0.140201717909946
30
0
41
1
10
40.3379223582141
20
-0.132068543070517
30
0
41
1
10
40.3330686151503
20
-0.12806673553311
30
0
41
1
10
40.3183815703384
20
-0.116250777690851
30
0
41
1
10
40.3084243386699
20
-0.108623097933332
30
0
41
1
10
40.2932274915962
20
-0.0975829325319353
30
0
41
1
10
40.2881225093735
20
-0.0939753600648885
30
0
41
1
10
40.2780658914239
20
-0.0870764731961344
30
0
41
1
10
40.2730852368468
20
-0.0837636156391
30
0
41
1
10
40.2583106567174
20
-0.0742726199156891
30
0
41
1
10
40.2485902083208
20
-0.0684910975000719
30
0
41
1
10
40.2309740247413
20
-0.0591869867550088
30
0
41
1
10
40.2228817702618
20
-0.0555614792912706
30
0
41
1
10
40.216443384068
20
-0.0536315941136252
30
0
0
SPLINE
5
130
100
AcDbEntity
8
1
62
256
6
ByLayer
370
18
48
1
60
0
100
AcDbSpline
70
4
71
3
72
10
73
6
40
0
40
0
40
0
40
0
40
0.5
40
0.5
40
1
40
1
40
1
40
1
41
1
10
40.2164433840679
20
-0.0536315941136536
30
0
41
1
10
40.1713510096314
20
-0.0401153025415226
30
0
41
1
10
40.1264698444622
20
-0.0225768765367036
30
0
41
1
10
40.0372439897018
20
0.020093631080158
30
0
41
1
10
39.9929473861057
20
0.0451996259698149
30
0
41
1
10
39.9489404032602
20
0.073900396731915
30
0
0
SPLINE
5
131
100
AcDbEntity
8
1
62
256
6
ByLayer
370
18
48
1
60
0
100
AcDbSpline
70
4
71
3
72
8
73
4
40
0
40
0
40
0
40
0
40
1
40
1
40
1
40
1
41
1
10
39.8661371835476
20
0.155047245692714
30
0
41
1
10
39.8937342488623
20
0.128022170201149
30
0
41
1
10
39.9213330123338
20
0.100970866794313
30
0
41
1
10
39.9489404032602
20
0.0739003967318865
30
0
0
SPLINE
5
132
100
AcDbEntity
8
1
62
256
6
ByLayer
370
18
48
1
60
0
100
AcDbSpline
70
4
71
3
72
10
73
6
40
0
40
0
40
0
40
0
40
0.5
40
0.5
40
1
40
1
40
1
40
1
41
1
10
39.8661371835491
20
0.155047245693396
30
0
41
1
10
39.8200640624436
20
0.212350643309946
30
0
41
1
10
39.7737344999971
20
0.265962936173878
30
0
41
1
10
39.6802844471289
20
0.365430770835672
30
0
41
1
10
39.6333259804775
20
0.411118428242418
30
0
41
1
10
39.5859633153461
20
0.45255769823649
30
0
0
SPLINE
5
133
100
AcDbEntity
8
1
62
256
6
ByLayer
370
18
48
1
60
0
100
AcDbSpline
70
4
71
3
72
26
73
22
40
0
40
0
40
0
40
0
40
0.124999999999989
40
0.124999999999989
40
0.249999999999978
40
0.249999999999978
40
0.374999999999967
40
0.374999999999967
40
0.437499999999912
40
0.437499999999912
40
0.499999999999856
40
0.499999999999856
40
0.624999999999851
40
0.624999999999851
40
0.687499999999876
40
0.687499999999876
40
0.749999999999901
40
0.749999999999901
40
0.874999999999951
40
0.874999999999951
40
1
40
1
40
1
40
1
41
1
10
39.5859633153416
20
0.452557698240383
30
0
41
1
10
39.580321012971
20
0.457494348039802
30
0
41
1
10
39.573768342891
20
0.463014034930467
30
0
41
1
10
39.5592316250739
20
0.474937486860398
30
0
41
1
10
39.551169786706
20
0.481401010845019
30
0
41
1
10
39.534224316374
20
0.494754866707439
30
0
41
1
10
39.5253049859573
20
0.501676372721448
30
0
41
1
10
39.5112837172869
20
0.512440258192527
30
0
41
1
10
39.5064974252623
20
0.51609580417616
30
0
41
1
10
39.4968771214561
20
0.523414424581034
30
0
41
1
10
39.4920226632173
20
0.527093204220961
30
0
41
1
10
39.4773309164393
20
0.538198141080187
30
0
41
1
10
39.4673671640662
20
0.545690736080104
30
0
41
1
10
39.4521568423395
20
0.55713522730008
30
0
41
1
10
39.4470410131416
20
0.560985807475788
30
0
41
1
10
39.4369653684711
20
0.568584989943986
30
0
41
1
10
39.4319758770457
20
0.572355891924616
30
0
41
1
10
39.4171773713653
20
0.58358373542552
30
0
41
1
10
39.4074406461777
20
0.591032560458785
30
0
41
1
10
39.3898054576143
20
0.604752754879456
30
0
41
1
10
39.3817094041498
20
0.611181211076712
30
0
41
1
10
39.3752716779323
20
0.616465803534453
30
0
0
SPLINE
5
134
100
AcDbEntity
8
1
62
256
6
ByLayer
370
18
48
1
60
0
100
AcDbSpline
70
4
71
3
72
10
73
6
40
0
40
0
40
0
40
0
40
0.5
40
0.5
40
1
40
1
40
1
40
1
41
1
10
39.3752716779296
20
0.616465803536698
30
0
41
1
10
39.3300574518522
20
0.653581199569231
30
0
41
1
10
39.2850576395372
20
0.694448023789249
30
0
41
1
10
39.1956123382233
20
0.782948313919576
30
0
41
1
10
39.1512166516434
20
0.830529801649135
30
0
41
1
10
39.107120358779
20
0.88117364323503
30
0
0
SPLINE
5
135
100
AcDbEntity
8
1
62
256
6
ByLayer
370
18
48
1
60
0
100
AcDbSpline
70
4
71
3
72
10
73
6
40
0
40
0
40
0
40
0
40
0.5
40
0.5
40
1
40
1
40
1
40
1
41
1
10
39.0254252860677
20
0.955903034260018
30
0
41
1
10
38.9792884902182
20
0.985360093568374
30
0
41
1
10
38.9328749131292
20
1.01060251820158
30
0
41
1
10
38.8392965393045
20
1.05234875346315
30
0
41
1
10
38.7922988013601
20
1.06877450043206
30
0
41
1
10
38.7449370002093
20
1.08062206819602
30
0
0
SPLINE
5
136
100
AcDbEntity
8
1
62
256
6
ByLayer
370
18
48
1
60
0
100
AcDbSpline
70
4
71
3
72
26
73
22
40
0
40
0
40
0
40
0
40
0.125000000000001
40
0.125000000000001
40
0.250000000000003
40
0.250000000000003
40
0.375000000000004
40
0.375000000000004
40
0.43750000000003
40
0.43750000000003
40
0.500000000000056
40
0.500000000000056
40
0.625000000000108
40
0.625000000000108
40
0.687500000000108
40
0.687500000000108
40
0.750000000000108
40
0.750000000000108
40
0.875000000000054
40
0.875000000000054
40
1
40
1
40
1
40
1
41
1
10
38.7449370002052
20
1.08062206819704
30
0
41
1
10
38.739281720626
20
1.08203673796103
30
0
41
1
10
38.7327143003509
20
1.08435887982557
30
0
41
1
10
38.7181504084837
20
1.09038940271756
30
0
41
1
10
38.7100765138127
20
1.09414481938433
30
0
41
1
10
38.6931141108345
20
1.10270582764835
30
0
41
1
10
38.6841888973365
20
1.10752249657509
30
0
41
1
10
38.6701640667729
20
1.11555646975577
30
0
41
1
10
38.6653792452259
20
1.11837328757178
30
0
41
1
10
38.6557627383396
20
1.12419018630877
30
0
41
1
10
38.6509106593098
20
1.12720169735309
30
0
41
1
10
38.6362272196338
20
1.1365590350668
30
0
41
1
10
38.6262705718023
20
1.14322053985069
30
0
41
1
10
38.6110711572888
20
1.15400538281128
30
0
41
1
10
38.6059604950419
20
1.15773564721667
30
0
41
1
10
38.5958924741364
20
1.16532083894211
30
0
41
1
10
38.5909057589438
20
1.16919602730863
30
0
41
1
10
38.5761118709998
20
1.18110798807541
30
0
41
1
10
38.5663742264212
20
1.18952307885462
30
0
41
1
10
38.5487255233584
20
1.20636748546991
30
0
41
1
10
38.5406178767756
20
1.21499234213724
30
0
41
1
10
38.534170397231
20
1.22312795297549
30
0
0
SPLINE
5
137
100
AcDbEntity
8
1
62
256
6
ByLayer
370
18
48
1
60
0
100
AcDbSpline
70
4
71
3
72
8
73
4
40
0
40
0
40
0
40
0
40
1
40
1
40
1
40
1
41
1
10
38.5341703972285
20
1.2231279529787
30
0
41
1
10
38.4924874613966
20
1.27572465254067
30
0
41
1
10
38.4509700531608
20
1.33075063684484
30
0
41
1
10
38.4097113982124
20
1.3879023332417
30
0
0
SPLINE
5
138
100
AcDbEntity
8
1
62
256
6
ByLayer
370
18
48
1
60
0
100
AcDbSpline
70
4
71
3
72
14
73
10
40
0
40
0
40
0
40
0
40
0.499999999999976
40
0.499999999999976
40
0.749999999999963
40
0.749999999999963
40
0.874999999999982
40
0.874999999999982
40
1
40
1
40
1
40
1
41
1
10
37.6152123821676
20
-0.805870897614227
30
0
41
1
10
37.6579733677932
20
-0.834419321350254
30
0
41
1
10
37.7003902493023
20
-0.864267948884446
30
0
41
1
10
37.7630871944071
20
-0.911575212631078
30
0
41
1
10
37.7838342573753
20
-0.927765281972739
30
0
41
1
10
37.8147014805778
20
-0.952753745165694
30
0
41
1
10
37.8249573504328
20
-0.961208476666144
30
0
41
1
10
37.8452354528103
20
-0.978238937888506
30
0
41
1
10
37.8552749066771
20
-0.9868283177249
30
0
41
1
10
37.8652123821676
20
-0.995491055367438
30
0
0
SPLINE
5
139
100
AcDbEntity
8
1
62
256
6
ByLayer
370
18
48
1
60
0
100
AcDbSpline
70
4
71
3
72
8
73
4
40
0
40
0
40
0
40
0
40
1
40
1
40
1
40
1
41
1
10
37.8652123821675
20
-0.995491055367438
30
0
41
1
10
37.8942607333621
20
-1.02081320540336
30
0
41
1
10
37.9233810633143
20
-1.0460592331188
30
0
41
1
10
37.9523083869223
20
-1.07150931599546
30
0
0
SPLINE
5
13A
100
AcDbEntity
8
1
62
256
6
ByLayer
370
18
48
1
60
0
100
AcDbSpline
70
4
71
3
72
20
73
16
40
0
40
0
40
0
40
0
40
0.249999999999999
40
0.249999999999999
40
0.374999999999999
40
0.374999999999999
40
0.499999999999999
40
0.499999999999999
40
0.624999999999999
40
0.624999999999999
40
0.75
40
0.75
40
0.875
40
0.875
40
1
40
1
40
1
40
1
41
1
10
37.9523083869241
20
-1.07150931599349
30
0
41
1
10
37.9640802087311
20
-1.07823758258019
30
0
41
1
10
37.9761614296971
20
-1.08571912818857
30
0
41
1
10
37.9947172021028
20
-1.09819256669178
30
0
41
1
10
38.000976556371
20
-1.10256555067062
30
0
41
1
10
38.0133374763393
20
-1.11156481383756
30
0
41
1
10
38.0194761369421
20
-1.11621507445747
30
0
41
1
10
38.0316524577406
20
-1.12585650417353
30
0
41
1
10
38.037715996171
20
-1.13086945948251
30
0
41
1
10
38.0496021359594
20
-1.14121172198219
30
0
41
1
10
38.0553392499145
20
-1.14646471274176
30
0
41
1
10
38.0663409296257
20
-1.15716252252673
30
0
41
1
10
38.0716525936064
20
-1.16265915205363
30
0
41
1
10
38.0814447882333
20
-1.17362582227503
30
0
41
1
10
38.0859005769143
20
-1.1790589507209
30
0
41
1
10
38.0898313717529
20
-1.18442769628589
30
0
0
SPLINE
5
13B
100
AcDbEntity
8
1
62
256
6
ByLayer
370
18
48
1
60
0
100
AcDbSpline
70
4
71
3
72
8
73
4
40
0
40
0
40
0
40
0
40
1
40
1
40
1
40
1
41
1
10
38.0898313717529
20
-1.18442769628589
30
0
41
1
10
38.0977141802026
20
-1.19519416837144
30
0
41
1
10
38.1055863899929
20
-1.20603978125405
30
0
41
1
10
38.1134485579345
20
-1.21696411553501
30
0
0
SPLINE
5
13C
100
AcDbEntity
8
1
62
256
6
ByLayer
370
18
48
1
60
0
100
AcDbSpline
70
4
71
3
72
10
73
6
40
0
40
0
40
0
40
0
40
0.5
40
0.5
40
1
40
1
40
1
40
1
41
1
10
38.1134485579345
20
-1.21696411553498
30
0
41
1
10
38.1864406830905
20
-1.2844576596242
30
0
41
1
10
38.258304213843
20
-1.35314437369152
30
0
41
1
10
38.4011188785487
20
-1.49148222470768
30
0
41
1
10
38.4719544976384
20
-1.56125549903061
30
0
41
1
10
38.5423850601743
20
-1.63145689535952
30
0
0
SPLINE
5
13D
100
AcDbEntity
8
1
62
256
6
ByLayer
370
18
48
1
60
0
100
AcDbSpline
70
4
71
3
72
8
73
4
40
0
40
0
40
0
40
0
40
1
40
1
40
1
40
1
41
1
10
38.542385060174
20
-1.6314568953598
30
0
41
1
10
38.6009935444618
20
-1.61674721051486
30
0
41
1
10
38.6602754665738
20
-1.5951377591276
30
0
41
1
10
38.7202535872269
20
-1.56659478858717
30
0
0
SPLINE
5
13E
100
AcDbEntity
8
1
62
256
6
ByLayer
370
18
48
1
60
0
100
AcDbSpline
70
4
71
3
72
27
73
23
40
0
40
0
40
0
40
0
40
0.124999999999979
40
0.124999999999979
40
0.249999999999958
40
0.249999999999958
40
0.374999999999937
40
0.374999999999937
40
0.499999999999916
40
0.499999999999916
40
0.624999999999896
40
0.624999999999896
40
0.687499999999913
40
0.687499999999913
40
0.74999999999993
40
0.812499999999948
40
0.812499999999948
40
0.874999999999965
40
0.874999999999965
40
0.937499999999983
40
0.937499999999983
40
1
40
1
40
1
40
1
41
1
10
38.7202535872269
20
-1.56659478858717
30
0
41
1
10
38.7260801726289
20
-1.56382197654179
30
0
41
1
10
38.7328719133758
20
-1.56236138267334
30
0
41
1
10
38.7479256392803
20
-1.5614042357515
30
0
41
1
10
38.7562893448406
20
-1.56194662878457
30
0
41
1
10
38.7737116892174
20
-1.56476705696514
30
0
41
1
10
38.7828132865041
20
-1.56702827000859
30
0
41
1
10
38.8017281859507
20
-1.57317548145636
30
0
41
1
10
38.8115961300451
20
-1.57709992615091
30
0
41
1
10
38.8312972103392
20
-1.58637466957415
30
0
41
1
10
38.8412141880166
20
-1.59174303929637
30
0
41
1
10
38.8561698462564
20
-1.60105100714438
30
0
41
1
10
38.8611970582985
20
-1.6043862903721
30
0
41
1
10
38.8710912260332
20
-1.61140719955091
30
0
41
1
10
38.8808367371531
20
-1.61878025201838
30
0
41
1
10
38.8902524509899
20
-1.62692170226524
30
0
41
1
10
38.8994754818144
20
-1.63550711218932
30
0
41
1
10
38.9039893317317
20
-1.6400269795673
30
0
41
1
10
38.9125172878922
20
-1.64930062556761
30
0
41
1
10
38.9165660873298
20
-1.6540843017433
30
0
41
1
10
38.9241665005315
20
-1.66399089351316
30
0
41
1
10
38.9277229962015
20
-1.66912971446217
30
0
41
1
10
38.9308848793812
20
-1.67432171030876
30
0
0
SPLINE
5
13F
100
AcDbEntity
8
1
62
256
6
ByLayer
370
18
48
1
60
0
100
AcDbSpline
70
4
71
3
72
10
73
6
40
0
40
0
40
0
40
0
40
0.499999999999999
40
0.499999999999999
40
1
40
1
40
1
40
1
41
1
10
38.9308848793863
20
-1.67432171031584
30
0
41
1
10
38.9764347094849
20
-1.74911717722006
30
0
41
1
10
39.021679186642
20
-1.8254074653849
30
0
41
1
10
39.1115054554888
20
-1.9803886077232
30
0
41
1
10
39.156032369653
20
-2.05898092563891
30
0
41
1
10
39.2002256202922
20
-2.1384917799775
30
0
0
SPLINE
5
140
100
AcDbEntity
8
1
62
256
6
ByLayer
370
18
48
1
60
0
100
AcDbSpline
70
4
71
3
72
10
73
6
40
0
40
0
40
0
40
0
40
0.5
40
0.5
40
1
40
1
40
1
40
1
41
1
10
39.2826975280326
20
-2.1815774475736
30
0
41
1
10
39.3284064270033
20
-2.14712780316691
30
0
41
1
10
39.3744151696729
20
-2.10899388664484
30
0
41
1
10
39.4673077935426
20
-2.02522147642796
30
0
41
1
10
39.5140398280041
20
-1.9797044183203
30
0
41
1
10
39.5613056212543
20
-1.93022671091933
30
0
0
SPLINE
5
141
100
AcDbEntity
8
1
62
256
6
ByLayer
370
18
48
1
60
0
100
AcDbSpline
70
4
71
3
72
27
73
23
40
0
40
0
40
0
40
0
40
0.124999999999959
40
0.124999999999959
40
0.249999999999919
40
0.249999999999919
40
0.374999999999878
40
0.374999999999878
40
0.499999999999837
40
0.499999999999837
40
0.624999999999796
40
0.624999999999796
40
0.68749999999983
40
0.68749999999983
40
0.749999999999864
40
0.812499999999898
40
0.812499999999898
40
0.874999999999932
40
0.874999999999932
40
0.937499999999966
40
0.937499999999966
40
1
40
1
40
1
40
1
41
1
10
39.5613056212543
20
-1.93022671091933
30
0
41
1
10
39.5671386135659
20
-1.92412074999223
30
0
41
1
10
39.5739351442742
20
-1.91944076000564
30
0
41
1
10
39.5889924258459
20
-1.91221148458146
30
0
41
1
10
39.5973530170217
20
-1.90967617006353
30
0
41
1
10
39.6147636570735
20
-1.90670882036196
30
0
41
1
10
39.6238587729791
20
-1.90623674565748
30
0
41
1
10
39.642759504414
20
-1.90721177248588
30
0
41
1
10
39.6526217384592
20
-1.9086896165216
30
0
41
1
10
39.6723168138603
20
-1.91355201904199
30
0
41
1
10
39.6822318625521
20
-1.91692861023142
30
0
41
1
10
39.6971854432816
20
-1.9235985894249
30
0
41
1
10
39.7022124034284
20
-1.92610930340783
30
0
41
1
10
39.7121186601851
20
-1.93164797652363
30
0
41
1
10
39.7218768359001
20
-1.93769579780616
30
0
41
1
10
39.731305984439
20
-1.94484798257429
30
0
41
1
10
39.7405426691861
20
-1.95263558986801
30
0
41
1
10
39.7450687543966
20
-1.95685888993472
30
0
41
1
10
39.7536203760213
20
-1.96577960609045
30
0
41
1
10
39.7576805602769
20
-1.97050280192187
30
0
41
1
10
39.7653023475618
20
-1.98055696170834
30
0
41
1
10
39.7688712293045
20
-1.98590983477746
30
0
41
1
10
39.7720442291367
20
-1.99147186520702
30
0
0
SPLINE
5
142
100
AcDbEntity
8
1
62
256
6
ByLayer
370
18
48
1
60
0
100
AcDbSpline
70
4
71
3
72
10
73
6
40
0
40
0
40
0
40
0
40
0.5
40
0.5
40
1
40
1
40
1
40
1
41
1
10
39.7720442291419
20
-1.99147186521563
30
0
41
1
10
39.8176586564001
20
-2.0714305308002
30
0
41
1
10
39.8629658212956
20
-2.15163194048608
30
0
41
1
10
39.9529322358492
20
-2.31193627454178
30
0
41
1
10
39.9975392687275
20
-2.39194415887894
30
0
41
1
10
40.0418288910712
20
-2.47164996631108
30
0
0
SPLINE
5
143
100
AcDbEntity
8
1
62
256
6
ByLayer
370
18
48
1
60
0
100
AcDbSpline
70
4
71
3
72
10
73
6
40
0
40
0
40
0
40
0
40
0.5
40
0.5
40
1
40
1
40
1
40
1
41
1
10
40.1239148116275
20
-2.49055499609517
30
0
41
1
10
40.1695734272841
20
-2.43048701614444
30
0
41
1
10
40.2155539342467
20
-2.36745968643723
30
0
41
1
10
40.3084064713107
20
-2.23549981575175
30
0
41
1
10
40.3551222844344
20
-2.1667894900915
30
0
41
1
10
40.4022791115756
20
-2.0953312426935
30
0
0
SPLINE
5
144
100
AcDbEntity
8
1
62
256
6
ByLayer
370
18
48
1
60
0
100
AcDbSpline
70
4
71
3
72
27
73
23
40
0
40
0
40
0
40
0
40
0.124999999999959
40
0.124999999999959
40
0.249999999999918
40
0.249999999999918
40
0.374999999999878
40
0.374999999999878
40
0.499999999999837
40
0.499999999999837
40
0.624999999999796
40
0.624999999999796
40
0.68749999999983
40
0.68749999999983
40
0.749999999999864
40
0.812499999999898
40
0.812499999999898
40
0.874999999999932
40
0.874999999999932
40
0.937499999999966
40
0.937499999999966
40
1
40
1
40
1
40
1
41
1
10
40.4022791115756
20
-2.0953312426935
30
0
41
1
10
40.408115925285
20
-2.08648653232282
30
0
41
1
10
40.4149207273445
20
-2.07902824638569
30
0
41
1
10
40.430000486863
20
-2.0661939389843
30
0
41
1
10
40.4383768395334
20
-2.06080416574156
30
0
41
1
10
40.4558174105611
20
-2.05229561677353
30
0
41
1
10
40.4649258708596
20
-2.04911667842902
30
0
41
1
10
40.4838478108645
20
-2.04478618963586
30
0
41
1
10
40.4937154548593
20
-2.04365442452706
30
0
41
1
10
40.5134115233025
20
-2.04358541930935
30
0
41
1
10
40.5233233995039
20
-2.04461557885648
30
0
41
1
10
40.5382667273551
20
-2.04795077031338
30
0
41
1
10
40.5432888848897
20
-2.04937520577965
30
0
41
1
10
40.5531747712304
20
-2.05284101629951
30
0
41
1
10
40.5629118962066
20
-2.05691787721824
30
0
41
1
10
40.5723192807279
20
-2.06231503576828
30
0
41
1
10
40.5815342286637
20
-2.06846989626084
30
0
41
1
10
40.5860468295427
20
-2.0719362413991
30
0
41
1
10
40.594573746916
20
-2.07952860400178
30
0
41
1
10
40.5986226090864
20
-2.08367406564025
30
0
41
1
10
40.6062243945063
20
-2.092773168516
30
0
41
1
10
40.6097839826484
20
-2.09774832180437
30
0
41
1
10
40.612949770916
20
-2.10306323768742
30
0
0
SPLINE
5
145
100
AcDbEntity
8
1
62
256
6
ByLayer
370
18
48
1
60
0
100
AcDbSpline
70
4
71
3
72
10
73
6
40
0
40
0
40
0
40
0
40
0.5
40
0.5
40
1
40
1
40
1
40
1
41
1
10
40.6129497709219
20
-2.10306323769606
30
0
41
1
10
40.6586181441727
20
-2.17973405136848
30
0
41
1
10
40.7038901375695
20
-2.25521359356443
30
0
41
1
10
40.7938783765571
20
-2.40371598655273
30
0
41
1
10
40.8384445001561
20
-2.476504421263
30
0
41
1
10
40.8827161249971
20
-2.5478592077676
30
0
0
SPLINE
5
146
100
AcDbEntity
8
1
62
256
6
ByLayer
370
18
48
1
60
0
100
AcDbSpline
70
4
71
3
72
8
73
4
40
0
40
0
40
0
40
0
40
1
40
1
40
1
40
1
41
1
10
40.9653756894231
20
-2.54100203695927
30
0
41
1
10
40.9377813111893
20
-2.54371948928221
30
0
41
1
10
40.9102311926906
20
-2.54600555805266
30
0
41
1
10
40.8827161249971
20
-2.54785920776766
30
0
0
SPLINE
5
147
100
AcDbEntity
8
1
62
256
6
ByLayer
370
18
48
1
60
0
100
AcDbSpline
70
4
71
3
72
10
73
6
40
0
40
0
40
0
40
0
40
0.5
40
0.5
40
1
40
1
40
1
40
1
41
1
10
40.9653756894231
20
-2.54100203695941
30
0
41
1
10
41.0109524555619
20
-2.46183790430089
30
0
41
1
10
41.0568639118816
20
-2.38073269094585
30
0
41
1
10
41.1496015997392
20
-2.21475668875729
30
0
41
1
10
41.1962694722341
20
-2.13018633049097
30
0
41
1
10
41.2434140681159
20
-2.04409543392319
30
0
0
SPLINE
5
148
100
AcDbEntity
8
1
62
256
6
ByLayer
370
18
48
1
60
0
100
AcDbSpline
70
4
71
3
72
27
73
23
40
0
40
0
40
0
40
0
40
0.125
40
0.125
40
0.250000000000001
40
0.250000000000001
40
0.375000000000001
40
0.375000000000001
40
0.500000000000001
40
0.500000000000001
40
0.625000000000001
40
0.625000000000001
40
0.687500000000001
40
0.687500000000001
40
0.750000000000001
40
0.812500000000001
40
0.812500000000001
40
0.875
40
0.875
40
0.9375
40
0.9375
40
1
40
1
40
1
40
1
41
1
10
41.2434140681159
20
-2.04409543392319
30
0
41
1
10
41.2492423158015
20
-2.03345245227942
30
0
41
1
10
41.256036698854
20
-2.02400658123855
30
0
41
1
10
41.2710953498349
20
-2.00691875909664
30
0
41
1
10
41.2794612762358
20
-1.99923654197008
30
0
41
1
10
41.296885718343
20
-1.9860596765588
30
0
41
1
10
41.3059875959425
20
-1.98049198788223
30
0
41
1
10
41.3249010908851
20
-1.97127352936641
30
0
41
1
10
41.334767337714
20
-1.96762945877751
30
0
41
1
10
41.3544647552542
20
-1.96259730870247
30
0
41
1
10
41.3643795468446
20
-1.96115467133862
30
0
41
1
10
41.3793313454391
20
-1.96078430641438
30
0
41
1
10
41.384357169505
20
-1.96096722981318
30
0
41
1
10
41.3942498509956
20
-1.96199416863448
30
0
41
1
10
41.4039942421894
20
-1.9636730420003
30
0
41
1
10
41.4134088021752
20
-1.96675977192871
30
0
41
1
10
41.4226310058471
20
-1.97065109816185
30
0
41
1
10
41.4271455166017
20
-1.97300838980749
30
0
41
1
10
41.4356750858689
20
-1.97850250520136
30
0
41
1
10
41.4397248253451
20
-1.98165044376361
30
0
41
1
10
41.4473273917603
20
-1.98887308511826
30
0
41
1
10
41.4508858201386
20
-1.99296655402708
30
0
41
1
10
41.4540499302722
20
-1.99749422610381
30
0
0
SPLINE
5
149
100
AcDbEntity
8
1
62
256
6
ByLayer
370
18
48
1
60
0
100
AcDbSpline
70
4
71
3
72
10
73
6
40
0
40
0
40
0
40
0
40
0.5
40
0.5
40
1
40
1
40
1
40
1
41
1
10
41.4540499302771
20
-1.99749422611191
30
0
41
1
10
41.4997128717368
20
-2.06283544885971
30
0
41
1
10
41.5450728732889
20
-2.12600747520361
30
0
41
1
10
41.6351346585552
20
-2.24761470256448
30
0
41
1
10
41.6797808594154
20
-2.30597717888702
30
0
41
1
10
41.7240932408106
20
-2.36181396919028
30
0
0
SPLINE
5
14A
100
AcDbEntity
8
1
62
256
6
ByLayer
370
18
48
1
60
0
100
AcDbSpline
70
4
71
3
72
8
73
4
40
0
40
0
40
0
40
0
40
1
40
1
40
1
40
1
41
1
10
41.8064260073305
20
-2.33003214583994
30
0
41
1
10
41.7789822345264
20
-2.34102973998506
30
0
41
1
10
41.751537794616
20
-2.35162248713195
30
0
41
1
10
41.7240932408105
20
-2.36181396919031
30
0
0
SPLINE
5
14B
100
AcDbEntity
8
1
62
256
6
ByLayer
370
18
48
1
60
0
100
AcDbSpline
70
4
71
3
72
10
73
6
40
0
40
0
40
0
40
0
40
0.5
40
0.5
40
1
40
1
40
1
40
1
41
1
10
41.8064260073305
20
-2.33003214584008
30
0
41
1
10
41.8520755459652
20
-2.23974428362249
30
0
41
1
10
41.89800977325
20
-2.14886997607957
30
0
41
1
10
41.9907203074956
20
-1.96611953398246
30
0
41
1
10
42.0373334796416
20
-1.87453281544137
30
0
41
1
10
42.0844300415484
20
-1.78281900166115
30
0
0
SPLINE
5
14C
100
AcDbEntity
8
1
62
256
6
ByLayer
370
18
48
1
60
0
100
AcDbSpline
70
4
71
3
72
18
73
14
40
0
40
0
40
0
40
0
40
0.188178049005178
40
0.188178049005178
40
0.376356098010356
40
0.376356098010356
40
0.564534147015534
40
0.564534147015534
40
0.752712196020712
40
0.752712196020712
40
0.940890245025889
40
0.940890245025889
40
1
40
1
40
1
40
1
41
1
10
42.0844300415484
20
-1.78281900166115
30
0
41
1
10
42.090272886551
20
-1.7714408972557
30
0
41
1
10
42.0970812265676
20
-1.76095794159255
30
0
41
1
10
42.1121627817574
20
-1.74134188080018
30
0
41
1
10
42.1205363008055
20
-1.73214883527532
30
0
41
1
10
42.1379681439563
20
-1.71564828166331
30
0
41
1
10
42.1470723452458
20
-1.7082599105797
30
0
41
1
10
42.1659874242313
20
-1.69509124880932
30
0
41
1
10
42.1758531797053
20
-1.68930351332651
30
0
41
1
10
42.1955501158459
20
-1.67980625481525
30
0
41
1
10
42.2054641185056
20
-1.67602655337683
30
0
41
1
10
42.2185597133634
20
-1.67246473204324
30
0
41
1
10
42.2217063668746
20
-1.67171859720617
30
0
41
1
10
42.2248402225708
20
-1.67109011284737
30
0
0
SPLINE
5
14D
100
AcDbEntity
8
1
62
256
6
ByLayer
370
18
48
1
60
0
100
AcDbSpline
70
4
71
3
72
8
73
4
40
0
40
0
40
0
40
0
40
1
40
1
40
1
40
1
41
1
10
46.1081433980377
20
-0.45838964212561
30
0
41
1
10
46.0837144748349
20
-0.419744272557523
30
0
41
1
10
46.0592056879029
20
-0.381929897147643
30
0
41
1
10
46.0345879540943
20
-0.344973283801863
30
0
0
SPLINE
5
14E
100
AcDbEntity
8
1
62
256
6
ByLayer
370
18
48
1
60
0
100
AcDbSpline
70
4
71
3
72
26
73
22
40
0
40
0
40
0
40
0
40
0.124999999999923
40
0.124999999999923
40
0.249999999999847
40
0.249999999999847
40
0.37499999999977
40
0.37499999999977
40
0.437499999999782
40
0.437499999999782
40
0.499999999999795
40
0.499999999999795
40
0.624999999999711
40
0.624999999999711
40
0.687499999999724
40
0.687499999999724
40
0.749999999999737
40
0.749999999999737
40
0.874999999999869
40
0.874999999999869
40
1
40
1
40
1
40
1
41
1
10
46.03458795409
20
-0.344973283795355
30
0
41
1
10
46.0289522245842
20
-0.336512818755324
30
0
41
1
10
46.0224079451934
20
-0.327920247246283
30
0
41
1
10
46.007890120024
20
-0.310547612457299
30
0
41
1
10
45.9998398476333
20
-0.30170016826662
30
0
41
1
10
45.9829179914592
20
-0.284360921596885
30
0
41
1
10
45.9740106046015
20
-0.27581799142007
30
0
41
1
10
45.9600035650617
20
-0.263175122318529
30
0
41
1
10
45.955220179138
20
-0.258986001015245
30
0
41
1
10
45.9456041582779
20
-0.250808705608961
30
0
41
1
10
45.9407512473509
20
-0.246801772207476
30
0
41
1
10
45.9260621914997
20
-0.235022221753837
30
0
41
1
10
45.9160976977429
20
-0.227486827804057
30
0
41
1
10
45.9008813598467
20
-0.216704374759672
30
0
41
1
10
45.8957586878364
20
-0.213196395952906
30
0
41
1
10
45.8856688551314
20
-0.206540191815804
30
0
41
1
10
45.8806719204683
20
-0.203370219767066
30
0
41
1
10
45.8658509493943
20
-0.194377080208938
30
0
41
1
10
45.8560971330789
20
-0.189020730392372
30
0
41
1
10
45.8384335803476
20
-0.180749408620215
30
0
41
1
10
45.8303259781888
20
-0.177744977613457
30
0
41
1
10
45.8238833481721
20
-0.176522153760118
30
0
0
SPLINE
5
14F
100
AcDbEntity
8
1
62
256
6
ByLayer
370
18
48
1
60
0
100
AcDbSpline
70
4
71
3
72
8
73
4
40
0
40
0
40
0
40
0
40
1
40
1
40
1
40
1
41
1
10
45.8238833481694
20
-0.176522153759578
30
0
41
1
10
45.781359106611
20
-0.168450969046034
30
0
41
1
10
45.7390171995757
20
-0.156660754302379
30
0
41
1
10
45.6969174490542
20
-0.141383671132559
30
0
0
SPLINE
5
150
100
AcDbEntity
8
1
62
256
6
ByLayer
370
18
48
1
60
0
100
AcDbSpline
70
4
71
3
72
8
73
4
40
0
40
0
40
0
40
0
40
1
40
1
40
1
40
1
41
1
10
45.6969174490542
20
-0.141383671132559
30
0
41
1
10
45.5874216514084
20
-0.0520784249332564
30
0
41
1
10
45.4795876566717
20
0.0395442537007114
30
0
41
1
10
45.3728881226987
20
0.132905047175342
30
0
0
SPLINE
5
151
100
AcDbEntity
8
1
62
256
6
ByLayer
370
18
48
1
60
0
100
AcDbSpline
70
4
71
3
72
10
73
6
40
0
40
0
40
0
40
0
40
0.5
40
0.5
40
1
40
1
40
1
40
1
41
1
10
45.3728881226987
20
0.132905047175342
30
0
41
1
10
45.3432457057436
20
0.169053625869964
30
0
41
1
10
45.3134502021888
20
0.20373046320762
30
0
41
1
10
45.2536630002542
20
0.269851811272133
30
0
41
1
10
45.2236504711187
20
0.301323206057674
30
0
41
1
10
45.193475236265
20
0.331164821761774
30
0
0
SPLINE
5
152
100
AcDbEntity
8
1
62
256
6
ByLayer
370
18
48
1
60
0
100
AcDbSpline
70
4
71
3
72
26
73
22
40
0
40
0
40
0
40
0
40
0.124999999999816
40
0.124999999999816
40
0.249999999999632
40
0.249999999999632
40
0.374999999999449
40
0.374999999999449
40
0.437499999999407
40
0.437499999999407
40
0.499999999999365
40
0.499999999999365
40
0.624999999999389
40
0.624999999999389
40
0.687499999999455
40
0.687499999999455
40
0.749999999999521
40
0.749999999999521
40
0.874999999999761
40
0.874999999999761
40
1
40
1
40
1
40
1
41
1
10
45.193475236261
20
0.331164821765725
30
0
41
1
10
45.1878325623062
20
0.336745109989266
30
0
41
1
10
45.1812803983115
20
0.342843689370966
30
0
41
1
10
45.1667477154933
20
0.355826640270635
30
0
41
1
10
45.1586906927693
20
0.362772987610725
30
0
41
1
10
45.1417601330054
20
0.376975670574637
30
0
41
1
10
45.1328500633429
20
0.384267278961943
30
0
41
1
10
45.1188431631394
20
0.395502552233012
30
0
41
1
10
45.1140618211338
20
0.399300980063174
30
0
41
1
10
45.1044506194156
20
0.406872032508147
30
0
41
1
10
45.0996004363723
20
0.410661078825058
30
0
41
1
10
45.0849203879961
20
0.422047724615709
30
0
41
1
10
45.0749630383053
20
0.429663712149761
30
0
41
1
10
45.0597568496052
20
0.441175309886745
30
0
41
1
10
45.054639244753
20
0.445029624384603
30
0
41
1
10
45.044557423989
20
0.452591511392996
30
0
41
1
10
45.0395635938411
20
0.456321576799837
30
0
41
1
10
45.0247487331511
20
0.467353500862117
30
0
41
1
10
45.0149957501815
20
0.474571046470032
30
0
41
1
10
44.9973233615817
20
0.487598556450251
30
0
41
1
10
44.9892068602266
20
0.4935548794233
30
0
41
1
10
44.9827563429196
20
0.498235193339696
30
0
0
SPLINE
5
153
100
AcDbEntity
8
1
62
256
6
ByLayer
370
18
48
1
60
0
100
AcDbSpline
70
4
71
3
72
10
73
6
40
0
40
0
40
0
40
0
40
0.5
40
0.5
40
1
40
1
40
1
40
1
41
1
10
44.9827563429172
20
0.498235193341429
30
0
41
1
10
44.9394112057832
20
0.529685205624929
30
0
41
1
10
44.896253769196
20
0.564564907622128
30
0
41
1
10
44.8104423538356
20
0.640745481675538
30
0
41
1
10
44.7678208572646
20
0.682016857605845
30
0
41
1
10
44.7254937593286
20
0.726277737432383
30
0
0
SPLINE
5
154
100
AcDbEntity
8
1
62
256
6
ByLayer
370
18
48
1
60
0
100
AcDbSpline
70
4
71
3
72
8
73
4
40
0
40
0
40
0
40
0
40
1
40
1
40
1
40
1
41
1
10
44.7254937593288
20
0.72627773743244
30
0
41
1
10
44.6982252091043
20
0.752134433753326
30
0
41
1
10
44.6709755181862
20
0.778047256868149
30
0
41
1
10
44.6437354721251
20
0.804006343509684
30
0
0
SPLINE
5
155
100
AcDbEntity
8
1
62
256
6
ByLayer
370
18
48
1
60
0
100
AcDbSpline
70
4
71
3
72
10
73
6
40
0
40
0
40
0
40
0
40
0.5
40
0.5
40
1
40
1
40
1
40
1
41
1
10
44.6329256710505
20
0.81406519977989
30
0
41
1
10
44.5868722563496
20
0.849162322607242
30
0
41
1
10
44.540513953876
20
0.879981745724251
30
0
41
1
10
44.4469388889309
20
0.932907683937998
30
0
41
1
10
44.3998836522719
20
0.954927518109713
30
0
41
1
10
44.35242499494
20
0.972425743987628
30
0
0
SPLINE
5
156
100
AcDbEntity
8
1
62
256
6
ByLayer
370
18
48
1
60
0
100
AcDbSpline
70
4
71
3
72
26
73
22
40
0
40
0
40
0
40
0
40
0.124999999999983
40
0.124999999999983
40
0.249999999999966
40
0.249999999999966
40
0.374999999999949
40
0.374999999999949
40
0.43749999999989
40
0.43749999999989
40
0.499999999999831
40
0.499999999999831
40
0.624999999999821
40
0.624999999999821
40
0.687499999999815
40
0.687499999999815
40
0.74999999999981
40
0.74999999999981
40
0.874999999999905
40
0.874999999999905
40
1
40
1
40
1
40
1
41
1
10
44.3524249949359
20
0.972425743989163
30
0
41
1
10
44.3467715514673
20
0.974510194675133
30
0
41
1
10
44.3402051429721
20
0.977446286992063
30
0
41
1
10
44.3256399300001
20
0.984622099201829
30
0
41
1
10
44.3175634084201
20
0.988912437024453
30
0
41
1
10
44.3005958581872
20
0.998439627700918
30
0
41
1
10
44.2916683167327
20
1.00369103078992
30
0
41
1
10
44.2776393055371
20
1.01230490652017
30
0
41
1
10
44.2728530662081
20
1.01530266809974
30
0
41
1
10
44.2632339613709
20
1.02144998863295
30
0
41
1
10
44.2583806252107
20
1.02461193345098
30
0
41
1
10
44.2436936137024
20
1.03437566852224
30
0
41
1
10
44.2337348744445
20
1.04124913905144
30
0
41
1
10
44.2185328668738
20
1.05224785191143
30
0
41
1
10
44.2134238692662
20
1.0560297292381
30
0
41
1
10
44.2033598381109
20
1.06367641211409
30
0
41
1
10
44.1983755156209
20
1.0675619930424
30
0
41
1
10
44.1835904333701
20
1.07943752443555
30
0
41
1
10
44.1738628987086
20
1.08773495474716
30
0
41
1
10
44.15623672139
20
1.10411746502933
30
0
41
1
10
44.1481407786632
20
1.1123913524556
30
0
41
1
10
44.1417010112389
20
1.12004652354395
30
0
0
SPLINE
5
157
100
AcDbEntity
8
1
62
256
6
ByLayer
370
18
48
1
60
0
100
AcDbSpline
70
4
71
3
72
10
73
6
40
0
40
0
40
0
40
0
40
0.5
40
0.5
40
1
40
1
40
1
40
1
41
1
10
44.1417010112362
20
1.12004652354719
30
0
41
1
10
44.0965874328142
20
1.17367457227843
30
0
41
1
10
44.0516855572819
20
1.23031031467306
30
0
41
1
10
43.9624252696324
20
1.34891865605073
30
0
41
1
10
43.9181148045537
20
1.41082409776467
30
0
41
1
10
43.8740997404651
20
1.47509531946744
30
0
0
SPLINE
5
158
100
AcDbEntity
8
1
62
256
6
ByLayer
370
18
48
1
60
0
100
AcDbSpline
70
4
71
3
72
10
73
6
40
0
40
0
40
0
40
0
40
0.5
40
0.5
40
1
40
1
40
1
40
1
41
1
10
43.791433350664
20
1.54053769903479
30
0
41
1
10
43.74537220609
20
1.54510573773945
30
0
41
1
10
43.699047560766
20
1.54531226180399
30
0
41
1
10
43.6055887299
20
1.53671112333876
30
0
41
1
10
43.5586131978412
20
1.52791918948654
30
0
41
1
10
43.5112190641083
20
1.51447119689397
30
0
0
SPLINE
5
159
100
AcDbEntity
8
1
62
256
6
ByLayer
370
18
48
1
60
0
100
AcDbSpline
70
4
71
3
72
26
73
22
40
0
40
0
40
0
40
0
40
0.125000000000041
40
0.125000000000041
40
0.250000000000083
40
0.250000000000083
40
0.375000000000124
40
0.375000000000124
40
0.437500000000145
40
0.437500000000145
40
0.500000000000166
40
0.500000000000166
40
0.625000000000206
40
0.625000000000206
40
0.687500000000172
40
0.687500000000172
40
0.750000000000138
40
0.750000000000138
40
0.875000000000069
40
0.875000000000069
40
1
40
1
40
1
40
1
41
1
10
43.5112190641043
20
1.51447119689283
30
0
41
1
10
43.5055798296884
20
1.51287107517726
30
0
41
1
10
43.4990313808541
20
1.51235577845412
30
0
41
1
10
43.4845040650326
20
1.51299372624103
30
0
41
1
10
43.4764477669069
20
1.51417951861887
30
0
41
1
10
43.4595147315704
20
1.51802190522326
30
0
41
1
10
43.4506020741562
20
1.52067119149552
30
0
41
1
10
43.4365901360327
20
1.52573491212465
30
0
41
1
10
43.431806281757
20
1.52761011799149
30
0
41
1
10
43.4221901853953
20
1.53167229047207
30
0
41
1
10
43.4173375857444
20
1.53386608767062
30
0
41
1
10
43.4026503319097
20
1.54095175603459
30
0
41
1
10
43.3926881328134
20
1.54633722926576
30
0
41
1
10
43.3774758732763
20
1.55562854763025
30
0
41
1
10
43.3723567790603
20
1.5589353871824
30
0
41
1
10
43.3622736908509
20
1.5658504449616
30
0
41
1
10
43.3572799617632
20
1.56947576658811
30
0
41
1
10
43.3424674118772
20
1.58092249883484
30
0
41
1
10
43.3327190244211
20
1.58941410317163
30
0
41
1
10
43.3150625595546
20
1.60739789756383
30
0
41
1
10
43.30695698175
20
1.61710107742098
30
0
41
1
10
43.3005149201093
20
1.62689875176179
30
0
0
SPLINE
5
15A
100
AcDbEntity
8
1
62
256
6
ByLayer
370
18
48
1
60
0
100
AcDbSpline
70
4
71
3
72
10
73
6
40
0
40
0
40
0
40
0
40
0.5
40
0.5
40
1
40
1
40
1
40
1
41
1
10
43.3005149201068
20
1.62689875176554
30
0
41
1
10
43.2552887087981
20
1.69568289492005
30
0
41
1
10
43.2102742532291
20
1.76652054991007
30
0
41
1
10
43.1208033802151
20
1.91155058240128
30
0
41
1
10
43.076395525131
20
1.98564750541118
30
0
41
1
10
43.0322877219648
20
2.06107053835041
30
0
0
SPLINE
5
15B
100
AcDbEntity
8
1
62
256
6
ByLayer
370
18
48
1
60
0
100
AcDbSpline
70
4
71
3
72
8
73
4
40
0
40
0
40
0
40
0
40
1
40
1
40
1
40
1
41
1
10
42.9506175334636
20
2.10732986727703
30
0
41
1
10
42.9778489508668
20
2.09224827768975
30
0
41
1
10
43.0050702710736
20
2.07682710115401
30
0
41
1
10
43.0322877219648
20
2.06107053835035
30
0
0
SPLINE
5
15C
100
AcDbEntity
8
1
62
256
6
ByLayer
370
18
48
1
60
0
100
AcDbSpline
70
4
71
3
72
10
73
6
40
0
40
0
40
0
40
0
40
0.5
40
0.5
40
1
40
1
40
1
40
1
41
1
10
42.9506175334636
20
2.10732986727703
30
0
41
1
10
42.9045089529026
20
2.08077502954603
30
0
41
1
10
42.8581230344244
20
2.05011414721361
30
0
41
1
10
42.764547641289
20
1.98047030491156
30
0
41
1
10
42.7175137719697
20
1.94160439174453
30
0
41
1
10
42.6700864253115
20
1.89861441428724
30
0
0
SPLINE
5
15D
100
AcDbEntity
8
1
62
256
6
ByLayer
370
18
48
1
60
0
100
AcDbSpline
70
4
71
3
72
26
73
22
40
0
40
0
40
0
40
0
40
0.124999999999985
40
0.124999999999985
40
0.24999999999997
40
0.24999999999997
40
0.374999999999955
40
0.374999999999955
40
0.437499999999948
40
0.437499999999948
40
0.49999999999994
40
0.49999999999994
40
0.624999999999926
40
0.624999999999926
40
0.687499999999974
40
0.687499999999974
40
0.750000000000022
40
0.750000000000022
40
0.875000000000011
40
0.875000000000011
40
1
40
1
40
1
40
1
41
1
10
42.6700864253068
20
1.89861441428414
30
0
41
1
10
42.6644364660603
20
1.89349307316704
30
0
41
1
10
42.6578752736779
20
1.88959603936578
30
0
41
1
10
42.6433234248274
20
1.88368854116243
30
0
41
1
10
42.6352552523291
20
1.8816906048373
30
0
41
1
10
42.6183039594261
20
1.87955446844194
30
0
41
1
10
42.6093842758852
20
1.87938816169867
30
0
41
1
10
42.5953663269606
20
1.88047825768911
30
0
41
1
10
42.5905830856051
20
1.8810702343516
30
0
41
1
10
42.5809693153066
20
1.88269471282786
30
0
41
1
10
42.5761183783983
20
1.88372809995567
30
0
41
1
10
42.5614375193655
20
1.88750869756834
30
0
41
1
10
42.5514814358477
20
1.89092238690259
30
0
41
1
10
42.5362809066053
20
1.89765585495681
30
0
41
1
10
42.5311692272825
20
1.90017676424455
30
0
41
1
10
42.5210994452005
20
1.9057066659403
30
0
41
1
10
42.5161118807259
20
1.9087273310993
30
0
41
1
10
42.5013159028591
20
1.91865199708741
30
0
41
1
10
42.4915778053702
20
1.92651442719074
30
0
41
1
10
42.4739299230778
20
1.94434330360699
30
0
41
1
10
42.4658235288605
20
1.95452165842417
30
0
41
1
10
42.4593780559724
20
1.96549468162377
30
0
0
SPLINE
5
15E
100
AcDbEntity
8
1
62
256
6
ByLayer
370
18
48
1
60
0
100
AcDbSpline
70
4
71
3
72
10
73
6
40
0
40
0
40
0
40
0
40
0.5
40
0.5
40
1
40
1
40
1
40
1
41
1
10
42.4593780559723
20
1.9654946816238
30
0
41
1
10
42.4142111778911
20
2.04238852783936
30
0
41
1
10
42.3692528815958
20
2.12002354011534
30
0
41
1
10
42.2798829294642
20
2.2761488744857
30
0
41
1
10
42.2355208174596
20
2.35454994916884
30
0
41
1
10
42.1914614348229
20
2.43309216505855
30
0
0
SPLINE
5
15F
100
AcDbEntity
8
1
62
256
6
ByLayer
370
18
48
1
60
0
100
AcDbSpline
70
4
71
3
72
10
73
6
40
0
40
0
40
0
40
0
40
0.5
40
0.5
40
1
40
1
40
1
40
1
41
1
10
42.109093835069
20
2.4564205221163
30
0
41
1
10
42.0630575778111
20
2.40186262559178
30
0
41
1
10
42.0167395848108
20
2.34381716864328
30
0
41
1
10
41.9232923553373
20
2.22067832903912
30
0
41
1
10
41.8763287795491
20
2.15580953499463
30
0
41
1
10
41.8290008001185
20
2.08763013510548
30
0
0
SPLINE
5
160
100
AcDbEntity
8
1
62
256
6
ByLayer
370
18
48
1
60
0
100
AcDbSpline
70
4
71
3
72
26
73
22
40
0
40
0
40
0
40
0
40
0.125
40
0.125
40
0.250000000000001
40
0.250000000000001
40
0.375000000000001
40
0.375000000000001
40
0.437500000000001
40
0.437500000000001
40
0.500000000000001
40
0.500000000000001
40
0.625000000000001
40
0.625000000000001
40
0.687500000000001
40
0.687500000000001
40
0.75
40
0.75
40
0.875
40
0.875
40
1
40
1
40
1
40
1
41
1
10
41.8290008001143
20
2.0876301350994
30
0
41
1
10
41.8233531464408
20
2.07949427883173
30
0
41
1
10
41.816793541671
20
2.07258230302631
30
0
41
1
10
41.8022437245083
20
2.0606506614069
30
0
41
1
10
41.7941759519658
20
2.05562149410241
30
0
41
1
10
41.7772239490486
20
2.04760952135817
30
0
41
1
10
41.7683035182162
20
2.04458059094455
30
0
41
1
10
41.7542846363705
20
2.04148298577238
30
0
41
1
10
41.7495006408172
20
2.04069650074055
30
0
41
1
10
41.7398855743146
20
2.03964735415846
30
0
41
1
10
41.7350341120974
20
2.03937931192164
30
0
41
1
10
41.7203521858368
20
2.03936127413931
30
0
41
1
10
41.7103960812985
20
2.04038158980472
30
0
41
1
10
41.6951969074682
20
2.04375907432424
30
0
41
1
10
41.6900849176029
20
2.04520184788404
30
0
41
1
10
41.6800151431847
20
2.04871338538186
30
0
41
1
10
41.6750278563793
20
2.0507870279441
30
0
41
1
10
41.660233386182
20
2.05807537171734
30
0
41
1
10
41.6504962932531
20
2.0644414697569
30
0
41
1
10
41.6328507515057
20
2.08017507725728
30
0
41
1
10
41.624745738854
20
2.08973249097093
30
0
41
1
10
41.6183008425783
20
2.10070992863231
30
0
0
SPLINE
5
161
100
AcDbEntity
8
1
62
256
6
ByLayer
370
18
48
1
60
0
100
AcDbSpline
70
4
71
3
72
10
73
6
40
0
40
0
40
0
40
0
40
0.5
40
0.5
40
1
40
1
40
1
40
1
41
1
10
41.6183008425755
20
2.10070992863697
30
0
41
1
10
41.5730879484185
20
2.17771996974787
30
0
41
1
10
41.528085095458
20
2.25414510780766
30
0
41
1
10
41.4386253217766
20
2.40530628632803
30
0
41
1
10
41.3942171581034
20
2.4799584612737
30
0
41
1
10
41.3501080282988
20
2.5535430023786
30
0
0
SPLINE
5
162
100
AcDbEntity
8
1
62
256
6
ByLayer
370
18
48
1
60
0
100
AcDbSpline
70
4
71
3
72
8
73
4
40
0
40
0
40
0
40
0
40
1
40
1
40
1
40
1
41
1
10
41.2687494827021
20
2.55114876841995
30
0
41
1
10
41.2958766387939
20
2.5523625430605
30
0
41
1
10
41.3229940024008
20
2.55316045969877
30
0
41
1
10
41.3501080282988
20
2.55354300237858
30
0
0
SPLINE
5
163
100
AcDbEntity
8
1
62
256
6
ByLayer
370
18
48
1
60
0
100
AcDbSpline
70
4
71
3
72
10
73
6
40
0
40
0
40
0
40
0
40
0.5
40
0.5
40
1
40
1
40
1
40
1
41
1
10
41.2687494827021
20
2.55114876841992
30
0
41
1
10
41.2225688370805
20
2.4739645317581
30
0
41
1
10
41.176117455649
20
2.39440477155492
30
0
41
1
10
41.0824179831662
20
2.23051095204551
30
0
41
1
10
41.0353303059187
20
2.14645700900459
30
0
41
1
10
40.9878515720973
20
2.06026984400262
30
0
0
SPLINE
5
164
100
AcDbEntity
8
1
62
256
6
ByLayer
370
18
48
1
60
0
100
AcDbSpline
70
4
71
3
72
26
73
22
40
0
40
0
40
0
40
0
40
0.125000000000063
40
0.125000000000063
40
0.250000000000126
40
0.250000000000126
40
0.375000000000188
40
0.375000000000188
40
0.43750000000017
40
0.43750000000017
40
0.500000000000151
40
0.500000000000151
40
0.625000000000113
40
0.625000000000113
40
0.687500000000094
40
0.687500000000094
40
0.750000000000075
40
0.750000000000075
40
0.875000000000038
40
0.875000000000038
40
1
40
1
40
1
40
1
41
1
10
40.9878515720933
20
2.06026984399531
30
0
41
1
10
40.9822004232976
20
2.05001143029426
30
0
41
1
10
40.9756378088141
20
2.04085622429997
30
0
41
1
10
40.9610819786397
20
2.02425603782285
30
0
41
1
10
40.9530107835988
20
2.01678100876134
30
0
41
1
10
40.9360504293735
20
2.00385675979766
30
0
41
1
10
40.9271254469071
20
1.99834835781635
30
0
41
1
10
40.9130988691845
20
1.99149067105225
30
0
41
1
10
40.9083123650695
20
1.98944329956191
30
0
41
1
10
40.8986923792654
20
1.98590091263827
30
0
41
1
10
40.8938384498572
20
1.98439496910947
30
0
41
1
10
40.8791491765779
20
1.98068709542881
30
0
41
1
10
40.8691882171865
20
1.97927913456798
30
0
41
1
10
40.8539825714007
20
1.97905635822286
30
0
41
1
10
40.8488700627611
20
1.97930613683999
30
0
41
1
10
40.8387999739966
20
1.98050220966482
30
0
41
1
10
40.8338128834735
20
1.98144636675769
30
0
41
1
10
40.8190204030469
20
1.98543711352923
30
0
41
1
10
40.8092876129301
20
1.98970547592919
30
0
41
1
10
40.7916570348918
20
2.0018045588279
30
0
41
1
10
40.7835623782423
20
2.00978416417922
30
0
41
1
10
40.7771259208978
20
2.01964251980877
30
0
0
SPLINE
5
165
100
AcDbEntity
8
1
62
256
6
ByLayer
370
18
48
1
60
0
100
AcDbSpline
70
4
71
3
72
10
73
6
40
0
40
0
40
0
40
0
40
0.5
40
0.5
40
1
40
1
40
1
40
1
41
1
10
40.7771259208952
20
2.01964251981263
30
0
41
1
10
40.7320364257897
20
2.08870353492787
30
0
41
1
10
40.6871563989414
20
2.15589987899958
30
0
41
1
10
40.5979473524984
20
2.28615597343239
30
0
41
1
10
40.5536660012235
20
2.34915652233718
30
0
41
1
10
40.509677903863
20
2.40997149889191
30
0
0
SPLINE
5
166
100
AcDbEntity
8
1
62
256
6
ByLayer
370
18
48
1
60
0
100
AcDbSpline
70
4
71
3
72
8
73
4
40
0
40
0
40
0
40
0
40
1
40
1
40
1
40
1
41
1
10
40.4272026980992
20
2.38201490392453
30
0
41
1
10
40.4547023704932
20
2.39173639405652
30
0
41
1
10
40.4821920086168
20
2.40105578102407
30
0
41
1
10
40.509677903863
20
2.40997149889179
30
0
0
SPLINE
5
167
100
AcDbEntity
8
1
62
256
6
ByLayer
370
18
48
1
60
0
100
AcDbSpline
70
4
71
3
72
10
73
6
40
0
40
0
40
0
40
0
40
0.5
40
0.5
40
1
40
1
40
1
40
1
41
1
10
40.4272026980992
20
2.38201490392453
30
0
41
1
10
40.3810962204581
20
2.29033397460427
30
0
41
1
10
40.3347157235405
20
2.19756297427918
30
0
41
1
10
40.2411781456286
20
2.00995120856587
30
0
41
1
10
40.1941780989716
20
1.91542537186586
30
0
41
1
10
40.146816753229
20
1.82021823598711
30
0
0
SPLINE
5
168
100
AcDbEntity
8
1
62
256
6
ByLayer
370
18
48
1
60
0
100
AcDbSpline
70
4
71
3
72
26
73
22
40
0
40
0
40
0
40
0
40
0.125000000000028
40
0.125000000000028
40
0.250000000000056
40
0.250000000000056
40
0.375000000000084
40
0.375000000000084
40
0.437500000000098
40
0.437500000000098
40
0.500000000000111
40
0.500000000000111
40
0.625000000000137
40
0.625000000000137
40
0.68750000000015
40
0.68750000000015
40
0.750000000000163
40
0.750000000000163
40
0.875000000000081
40
0.875000000000081
40
1
40
1
40
1
40
1
41
1
10
40.1468167532247
20
1.82021823597856
30
0
41
1
10
40.1411607922347
20
1.80884846094389
30
0
41
1
10
40.1345923475234
20
1.79834580345619
30
0
41
1
10
40.1200264030736
20
1.77868890234404
30
0
41
1
10
40.1119514601384
20
1.76948754803504
30
0
41
1
10
40.0949877339933
20
1.7528783277937
30
0
41
1
10
40.0860624026623
20
1.74540345451902
30
0
41
1
10
40.0720384853659
20
1.7354051092322
30
0
41
1
10
40.0672543207848
20
1.73227837858639
30
0
41
1
10
40.0576391904223
20
1.72654701137603
30
0
41
1
10
40.052787856612
20
1.72392700428293
30
0
41
1
10
40.0381067638347
20
1.71681442313152
30
0
41
1
10
40.0281518182248
20
1.71305475056593
30
0
41
1
10
40.0129550844675
20
1.70914554576214
30
0
41
1
10
40.0078454013184
20
1.70813947418134
30
0
41
1
10
39.9977791028927
20
1.70682288751561
30
0
41
1
10
39.9927931727099
20
1.70650321529354
30
0
41
1
10
39.9780015010919
20
1.7066753614821
30
0
41
1
10
39.9682652449821
20
1.70833415476389
30
0
41
1
10
39.9506179079385
20
1.71543968512705
30
0
41
1
10
39.9425105528996
20
1.72097802069129
30
0
41
1
10
39.9360634812006
20
1.72868929444218
30
0
0
SPLINE
5
169
100
AcDbEntity
8
1
62
256
6
ByLayer
370
18
48
1
60
0
100
AcDbSpline
70
4
71
3
72
8
73
4
40
0
40
0
40
0
40
0
40
1
40
1
40
1
40
1
41
1
10
39.7326734478346
20
1.95368841265406
30
0
41
1
10
39.7111652951415
20
1.97550109086836
30
0
41
1
10
39.6897289379184
20
1.99659426568286
30
0
41
1
10
39.6683621489828
20
2.01696383317187
30
0
0
SPLINE
5
16A
100
AcDbEntity
8
1
62
256
6
ByLayer
370
18
48
1
60
0
100
AcDbSpline
70
4
71
3
72
8
73
4
40
0
40
0
40
0
40
0
40
1
40
1
40
1
40
1
41
1
10
39.5861198373768
20
1.96645974144943
30
0
41
1
10
39.6135415020559
20
1.98363027520497
30
0
41
1
10
39.6409532706763
20
2.00046626640727
30
0
41
1
10
39.6683621489828
20
2.01696383317182
30
0
0
SPLINE
5
16B
100
AcDbEntity
8
1
62
256
6
ByLayer
370
18
48
1
60
0
100
AcDbSpline
70
4
71
3
72
8
73
4
40
0
40
0
40
0
40
0
40
1
40
1
40
1
40
1
41
1
10
39.5861198373768
20
1.9664597414494
30
0
41
1
10
39.5442705716096
20
1.87839452691435
30
0
41
1
10
39.5021828592505
20
1.79059377630588
30
0
41
1
10
39.4597372914115
20
1.703142554408
30
0
0
SPLINE
5
16C
100
AcDbEntity
8
1
62
256
6
ByLayer
370
18
48
1
60
0
100
AcDbSpline
70
4
71
3
72
8
73
4
40
0
40
0
40
0
40
0
40
1
40
1
40
1
40
1
41
1
10
38.3360896281726
20
2.24262053245184
30
0
41
1
10
38.3704853121358
20
2.18155121552544
30
0
41
1
10
38.405089401921
20
2.11954448274568
30
0
41
1
10
38.4399642964532
20
2.05661825555663
30
0
0
SPLINE
5
16D
100
AcDbEntity
8
1
62
256
6
ByLayer
370
18
48
1
60
0
100
AcDbSpline
70
4
71
3
72
27
73
23
40
0
40
0
40
0
40
0
40
0.125
40
0.125
40
0.25
40
0.25
40
0.374999999999999
40
0.374999999999999
40
0.499999999999999
40
0.499999999999999
40
0.624999999999999
40
0.624999999999999
40
0.687499999999999
40
0.687499999999999
40
0.749999999999999
40
0.812499999999999
40
0.812499999999999
40
0.875
40
0.875
40
0.9375
40
0.9375
40
1
40
1
40
1
40
1
41
1
10
38.4399642964532
20
2.05661825555663
30
0
41
1
10
38.4457923107041
20
2.04610252629999
30
0
41
1
10
38.4525838079244
20
2.03680531234298
30
0
41
1
10
38.4676330743395
20
2.02004608003617
30
0
41
1
10
38.4759913565689
20
2.01254685787546
30
0
41
1
10
38.4934007385882
20
1.99974831585206
30
0
41
1
10
38.5024957781656
20
1.99437675681111
30
0
41
1
10
38.5213975818729
20
1.98556627801813
30
0
41
1
10
38.5312607797955
20
1.98213443569102
30
0
41
1
10
38.5509571592484
20
1.97753047971398
30
0
41
1
10
38.5608729460325
20
1.97630571895172
30
0
41
1
10
38.5758284586391
20
1.97627087347652
30
0
41
1
10
38.5808562535167
20
1.97656761415021
30
0
41
1
10
38.5907607276831
20
1.97782336846012
30
0
41
1
10
38.6005172435654
20
1.97973179383584
30
0
41
1
10
38.6099443957056
20
1.98305049085198
30
0
41
1
10
38.6191793144271
20
1.98717564126656
30
0
41
1
10
38.6237023120449
20
1.98965192395025
30
0
41
1
10
38.6322474289635
20
1.99538001976237
30
0
41
1
10
38.6363043413124
20
1.99864364983765
30
0
41
1
10
38.6439195831841
20
2.00609493027855
30
0
41
1
10
38.6474837047778
20
2.0103019008825
30
0
41
1
10
38.6506517720099
20
2.01493784799621
30
0
0
SPLINE
5
16E
100
AcDbEntity
8
1
62
256
6
ByLayer
370
18
48
1
60
0
100
AcDbSpline
70
4
71
3
72
10
73
6
40
0
40
0
40
0
40
0
40
0.5
40
0.5
40
1
40
1
40
1
40
1
41
1
10
38.650651772015
20
2.01493784800456
30
0
41
1
10
38.6961563360295
20
2.08152631876581
30
0
41
1
10
38.741364699385
20
2.14607826892453
30
0
41
1
10
38.8311556250356
20
2.27072197422743
30
0
41
1
10
38.8756862490591
20
2.33074548774621
30
0
41
1
10
38.9199056936776
20
2.388404089174
30
0
0
SPLINE
5
16F
100
AcDbEntity
8
1
62
256
6
ByLayer
370
18
48
1
60
0
100
AcDbSpline
70
4
71
3
72
8
73
4
40
0
40
0
40
0
40
0
40
1
40
1
40
1
40
1
41
1
10
39.0022213915065
20
2.35887095489917
30
0
41
1
10
38.9747855544375
20
2.36910536406211
30
0
41
1
10
38.9473474896801
20
2.37894987438315
30
0
41
1
10
38.9199056936774
20
2.38840408917426
30
0
0
SPLINE
5
170
100
AcDbEntity
8
1
62
256
6
ByLayer
370
18
48
1
60
0
100
AcDbSpline
70
4
71
3
72
10
73
6
40
0
40
0
40
0
40
0
40
0.5
40
0.5
40
1
40
1
40
1
40
1
41
1
10
39.002221391506
20
2.35887095489321
30
0
41
1
10
39.0479224478518
20
2.26898739240917
30
0
41
1
10
39.0939424608601
20
2.17840805765451
30
0
41
1
10
39.1868758279324
20
1.99600248249214
30
0
41
1
10
39.2336343605072
20
1.90447531282257
30
0
41
1
10
39.2808424934175
20
1.8126888133319
30
0
0
SPLINE
5
171
100
AcDbEntity
8
1
62
256
6
ByLayer
370
18
48
1
60
0
100
AcDbSpline
70
4
71
3
72
27
73
23
40
0
40
0
40
0
40
0
40
0.125000000000021
40
0.125000000000021
40
0.250000000000041
40
0.250000000000041
40
0.375000000000062
40
0.375000000000062
40
0.500000000000082
40
0.500000000000082
40
0.625000000000102
40
0.625000000000102
40
0.687500000000085
40
0.687500000000085
40
0.750000000000068
40
0.812500000000051
40
0.812500000000051
40
0.875000000000034
40
0.875000000000034
40
0.937500000000017
40
0.937500000000017
40
1
40
1
40
1
40
1
41
1
10
39.2808424934175
20
1.8126888133319
30
0
41
1
10
39.286684721541
20
1.80132980301693
30
0
41
1
10
39.2934946795984
20
1.79089807482637
30
0
41
1
10
39.3085828633713
20
1.77143512249057
30
0
41
1
10
39.3169613364166
20
1.76234542807947
30
0
41
1
10
39.3344023354361
20
1.74608970091197
30
0
41
1
10
39.3435107224464
20
1.73884297599704
30
0
41
1
10
39.3624313334332
20
1.72599297235752
30
0
41
1
10
39.3722975675148
20
1.72038399761715
30
0
41
1
10
39.391991599694
20
1.7112666402073
30
0
41
1
10
39.4019025605634
20
1.70768920540078
30
0
41
1
10
39.416844323391
20
1.70394818007227
30
0
41
1
10
39.4218659564366
20
1.70297218876036
30
0
41
1
10
39.4317546957311
20
1.70165800147592
30
0
41
1
10
39.441495366406
20
1.70097238766394
30
0
41
1
10
39.4509082742094
20
1.70163917943336
30
0
41
1
10
39.4601300015906
20
1.70308023601089
30
0
41
1
10
39.4646482725847
20
1.70419671532042
30
0
41
1
10
39.4731876657741
20
1.70725264618593
30
0
41
1
10
39.4772432531968
20
1.70919402576416
30
0
41
1
10
39.4848588705148
20
1.71403515171835
30
0
41
1
10
39.4884260181931
20
1.71695171885415
30
0
41
1
10
39.4915984987292
20
1.720357883659
30
0
0
SPLINE
5
172
100
AcDbEntity
8
1
62
256
6
ByLayer
370
18
48
1
60
0
100
AcDbSpline
70
4
71
3
72
10
73
6
40
0
40
0
40
0
40
0
40
0.5
40
0.5
40
1
40
1
40
1
40
1
41
1
10
39.4915984987345
20
1.72035788366617
30
0
41
1
10
39.5371999418565
20
1.76931831979601
30
0
41
1
10
39.5824843721553
20
1.81521354618303
30
0
41
1
10
39.6723975382781
20
1.90082202429736
30
0
41
1
10
39.7169728353566
20
1.94048224149799
30
0
41
1
10
39.761228745284
20
1.97702217258734
30
0
0
SPLINE
5
173
100
AcDbEntity
8
1
62
256
6
ByLayer
370
18
48
1
60
0
100
AcDbSpline
70
4
71
3
72
8
73
4
40
0
40
0
40
0
40
0
40
1
40
1
40
1
40
1
41
1
10
39.8437698136458
20
1.92482179204703
30
0
41
1
10
39.8162313028115
20
1.94254127171212
30
0
41
1
10
39.7887192421774
20
1.95994271643667
30
0
41
1
10
39.7612287452839
20
1.97702217258737
30
0
0
SPLINE
5
174
100
AcDbEntity
8
1
62
256
6
ByLayer
370
18
48
1
60
0
100
AcDbSpline
70
4
71
3
72
10
73
6
40
0
40
0
40
0
40
0
40
0.5
40
0.5
40
1
40
1
40
1
40
1
41
1
10
39.8437698136458
20
1.92482179204711
30
0
41
1
10
39.8893811875073
20
1.832545029811
30
0
41
1
10
39.9353154407189
20
1.74093221293407
30
0
41
1
10
40.0281069369632
20
1.55924554027851
30
0
41
1
10
40.0748054279938
20
1.46948398525117
30
0
41
1
10
40.1219791542039
20
1.3809068715349
30
0
0
SPLINE
5
175
100
AcDbEntity
8
1
62
256
6
ByLayer
370
18
48
1
60
0
100
AcDbSpline
70
4
71
3
72
27
73
23
40
0
40
0
40
0
40
0
40
0.125000000000041
40
0.125000000000041
40
0.250000000000081
40
0.250000000000081
40
0.375000000000122
40
0.375000000000122
40
0.500000000000162
40
0.500000000000162
40
0.625000000000203
40
0.625000000000203
40
0.687500000000169
40
0.687500000000169
40
0.750000000000135
40
0.812500000000101
40
0.812500000000101
40
0.875000000000068
40
0.875000000000068
40
0.937500000000034
40
0.937500000000034
40
1
40
1
40
1
40
1
41
1
10
40.1219791542039
20
1.3809068715349
30
0
41
1
10
40.1278050420439
20
1.36996772444851
30
0
41
1
10
40.1345966179618
20
1.35955652206368
30
0
41
1
10
40.1496502748415
20
1.33954194251925
30
0
41
1
10
40.1580139687201
20
1.32986237627273
30
0
41
1
10
40.1754358373347
20
1.31193682940949
30
0
41
1
10
40.1845371582713
20
1.30361437203916
30
0
41
1
10
40.2034512867243
20
1.28815493878952
30
0
41
1
10
40.2133188228157
20
1.28099918551194
30
0
41
1
10
40.2330194880177
20
1.26842395849769
30
0
41
1
10
40.2429363397188
20
1.26292570536603
30
0
41
1
10
40.2578918882201
20
1.2559738157351
30
0
41
1
10
40.2629191069273
20
1.2538651244852
30
0
41
1
10
40.2728141189665
20
1.25020327564855
30
0
41
1
10
40.2825607651875
20
1.24708525386524
30
0
41
1
10
40.2919774689366
20
1.24513483302678
30
0
41
1
10
40.3012017916068
20
1.24384905163961
30
0
41
1
10
40.3057167665669
20
1.24354539705107
30
0
41
1
10
40.3142470828142
20
1.24371838029972
30
0
41
1
10
40.3182971349126
20
1.24418767078899
30
0
41
1
10
40.3259002114734
20
1.2460116608039
30
0
41
1
10
40.3294583146985
20
1.24737718128532
30
0
41
1
10
40.3326218286455
20
1.24923076371312
30
0
0
SPLINE
5
176
100
AcDbEntity
8
1
62
256
6
ByLayer
370
18
48
1
60
0
100
AcDbSpline
70
4
71
3
72
10
73
6
40
0
40
0
40
0
40
0
40
0.5
40
0.5
40
1
40
1
40
1
40
1
41
1
10
40.3326218286507
20
1.24923076371843
30
0
41
1
10
40.3782605031548
20
1.27597161156842
30
0
41
1
10
40.4235910564992
20
1.29901391700605
30
0
41
1
10
40.5135728452286
20
1.33757246109548
30
0
41
1
10
40.5581661922542
20
1.35306770362044
30
0
41
1
10
40.6024117705096
20
1.36478386968091
30
0
0
SPLINE
5
177
100
AcDbEntity
8
1
62
256
6
ByLayer
370
18
48
1
60
0
100
AcDbSpline
70
4
71
3
72
8
73
4
40
0
40
0
40
0
40
0
40
1
40
1
40
1
40
1
41
1
10
40.6843028443676
20
1.29593505157223
30
0
41
1
10
40.6570317183476
20
1.3191408818756
30
0
41
1
10
40.6297345197018
20
1.34208963380985
30
0
41
1
10
40.6024117705095
20
1.3647838696811
30
0
0
SPLINE
5
178
100
AcDbEntity
8
1
62
256
6
ByLayer
370
18
48
1
60
0
100
AcDbSpline
70
4
71
3
72
10
73
6
40
0
40
0
40
0
40
0
40
0.5
40
0.5
40
1
40
1
40
1
40
1
41
1
10
40.6843028443672
20
1.29593505156771
30
0
41
1
10
40.7299825472554
20
1.21018704697946
30
0
41
1
10
40.7759499367894
20
1.12627727407539
30
0
41
1
10
40.8689159389384
20
0.962794730115235
30
0
41
1
10
40.9157340797462
20
0.883483695209776
30
0
41
1
10
40.9630603607624
20
0.806733879656349
30
0
0
SPLINE
5
179
100
AcDbEntity
8
1
62
256
6
ByLayer
370
18
48
1
60
0
100
AcDbSpline
70
4
71
3
72
27
73
23
40
0
40
0
40
0
40
0
40
0.12499999999996
40
0.12499999999996
40
0.249999999999919
40
0.249999999999919
40
0.374999999999879
40
0.374999999999879
40
0.499999999999838
40
0.499999999999838
40
0.624999999999798
40
0.624999999999798
40
0.687499999999832
40
0.687499999999832
40
0.749999999999867
40
0.8124999999999
40
0.8124999999999
40
0.874999999999933
40
0.874999999999933
40
0.937499999999967
40
0.937499999999967
40
1
40
1
40
1
40
1
41
1
10
40.9630603607625
20
0.806733879656321
30
0
41
1
10
40.9688994690331
20
0.797264500843994
30
0
41
1
10
40.9757050753193
20
0.787874854376128
30
0
41
1
10
40.990783688032
20
0.769232545123089
30
0
41
1
10
40.9991579185383
20
0.759896084799607
30
0
41
1
10
41.0165936020355
20
0.742027936455145
30
0
41
1
10
41.0256996039477
20
0.733427902104296
30
0
41
1
10
41.0446181033286
20
0.716830294542291
30
0
41
1
10
41.0544850053073
20
0.708802807299975
30
0
41
1
10
41.0741823325913
20
0.693931674666516
30
0
41
1
10
41.0840961154714
20
0.687008126897581
30
0
41
1
10
41.0990442945687
20
0.677444657577695
30
0
41
1
10
41.1040685337088
20
0.674379360765727
30
0
41
1
10
41.1139600622406
20
0.668659270409648
30
0
41
1
10
41.1237032066953
20
0.663339852494317
30
0
41
1
10
41.1331161731204
20
0.658875896373473
30
0
41
1
10
41.1423365363642
20
0.654896797217617
30
0
41
1
10
41.1468521229272
20
0.653153247031867
30
0
41
1
10
41.1553839920885
20
0.650327734266824
30
0
41
1
10
41.1594348422978
20
0.64922912987123
30
0
41
1
10
41.1670394753232
20
0.647758082586421
30
0
41
1
10
41.1706004272275
20
0.64739024772328
30
0
41
1
10
41.17376738208
20
0.647466211356743
30
0
0
SPLINE
5
17A
100
AcDbEntity
8
1
62
256
6
ByLayer
370
18
48
1
60
0
100
AcDbSpline
70
4
71
3
72
10
73
6
40
0
40
0
40
0
40
0
40
0.5
40
0.5
40
1
40
1
40
1
40
1
41
1
10
41.1737673820876
20
0.647466211359074
30
0
41
1
10
41.2193578055107
20
0.648559758444321
30
0
41
1
10
41.264641631971
20
0.645759371256617
30
0
41
1
10
41.3545585240028
20
0.632555668905809
30
0
41
1
10
41.3991385549824
20
0.622166433940606
30
0
41
1
10
41.4433988993045
20
0.608116819879058
30
0
0
SPLINE
5
17B
100
AcDbEntity
8
1
62
256
6
ByLayer
370
18
48
1
60
0
100
AcDbSpline
70
4
71
3
72
10
73
6
40
0
40
0
40
0
40
0
40
0.5
40
0.5
40
1
40
1
40
1
40
1
41
1
10
41.5251923923614
20
0.53050859369273
30
0
41
1
10
41.5708967322989
20
0.461223262780663
30
0
41
1
10
41.6169316051868
20
0.394926691461279
30
0
41
1
10
41.7099197585026
20
0.268549860517965
30
0
41
1
10
41.7567195404571
20
0.208674588697221
30
0
41
1
10
41.8039784896503
20
0.152257574570996
30
0
0
SPLINE
5
17C
100
AcDbEntity
8
1
62
256
6
ByLayer
370
18
48
1
60
0
100
AcDbSpline
70
4
71
3
72
10
73
6
40
0
40
0
40
0
40
0
40
0.5
40
0.5
40
1
40
1
40
1
40
1
41
1
10
42.3668420911744
20
-0.291927862473443
30
0
41
1
10
42.4124089434445
20
-0.338168667671567
30
0
41
1
10
42.4583214913243
20
-0.380540786556736
30
0
41
1
10
42.5511223521074
20
-0.457352343836305
30
0
41
1
10
42.5978494683241
20
-0.491663243479451
30
0
41
1
10
42.645065982401
20
-0.521772307439704
30
0
0
SPLINE
5
17D
100
AcDbEntity
8
1
62
256
6
ByLayer
370
18
48
1
60
0
100
AcDbSpline
70
4
71
3
72
27
73
23
40
0
40
0
40
0
40
0
40
0.12499999999996
40
0.12499999999996
40
0.249999999999919
40
0.249999999999919
40
0.374999999999878
40
0.374999999999878
40
0.499999999999838
40
0.499999999999838
40
0.624999999999797
40
0.624999999999797
40
0.68749999999983
40
0.68749999999983
40
0.749999999999864
40
0.812499999999898
40
0.812499999999898
40
0.874999999999932
40
0.874999999999932
40
0.937499999999966
40
0.937499999999966
40
1
40
1
40
1
40
1
41
1
10
42.645065982401
20
-0.521772307439704
30
0
41
1
10
42.6509034561401
20
-0.525494752300659
30
0
41
1
10
42.6577104713602
20
-0.530017565435998
30
0
41
1
10
42.6727981214728
20
-0.540248518494508
30
0
41
1
10
42.6811819117838
20
-0.546032042068504
30
0
41
1
10
42.6986390924288
20
-0.558245610714209
30
0
41
1
10
42.7077555504856
20
-0.564703639892684
30
0
41
1
10
42.726693576665
20
-0.57830928151111
30
0
41
1
10
42.7365666042297
20
-0.585496719844258
30
0
41
1
10
42.7562680052899
20
-0.600090847118281
30
0
41
1
10
42.7661814134419
20
-0.607556887834534
30
0
41
1
10
42.7811252927939
20
-0.619078719125838
30
0
41
1
10
42.7861463477828
20
-0.622995645043602
30
0
41
1
10
42.796018619404
20
-0.630806382433235
30
0
41
1
10
42.8057416072239
20
-0.638608637196143
30
0
41
1
10
42.8151329290859
20
-0.646404261500663
30
0
41
1
10
42.8243310839962
20
-0.654200724214235
30
0
41
1
10
42.8288311083078
20
-0.658099093244829
30
0
41
1
10
42.8373337491861
20
-0.665661689838601
30
0
41
1
10
42.8413707234592
20
-0.669354388807164
30
0
41
1
10
42.8489498556164
20
-0.676534507976527
30
0
41
1
10
42.8524982885397
20
-0.680030475269888
30
0
41
1
10
42.8556551914651
20
-0.683304333770195
30
0
0
SPLINE
5
17E
100
AcDbEntity
8
1
62
256
6
ByLayer
370
18
48
1
60
0
100
AcDbSpline
70
4
71
3
72
10
73
6
40
0
40
0
40
0
40
0
40
0.5
40
0.5
40
1
40
1
40
1
40
1
41
1
10
42.8556551914728
20
-0.683304333776078
30
0
41
1
10
42.9012854763195
20
-0.730625109693818
30
0
41
1
10
42.9465991637702
20
-0.781249574077179
30
0
41
1
10
43.0365476590099
20
-0.888605666965702
30
0
41
1
10
43.0811256788572
20
-0.945261959479694
30
0
41
1
10
43.1253651583419
20
-1.00471337870229
30
0
0
SPLINE
5
17F
100
AcDbEntity
8
1
62
256
6
ByLayer
370
18
48
1
60
0
100
AcDbSpline
70
4
71
3
72
10
73
6
40
0
40
0
40
0
40
0
40
0.5
40
0.5
40
1
40
1
40
1
40
1
41
1
10
43.2081420819784
20
-1.07887342093204
30
0
41
1
10
43.2537443928476
20
-1.09748410614043
30
0
41
1
10
43.2996142065493
20
-1.11218365477035
30
0
41
1
10
43.3923123169785
20
-1.13290975169238
30
0
41
1
10
43.4390002124877
20
-1.13882609741253
30
0
41
1
10
43.4862111779475
20
-1.14016856725579
30
0
0
SPLINE
5
180
100
AcDbEntity
8
1
62
256
6
ByLayer
370
18
48
1
60
0
100
AcDbSpline
70
4
71
3
72
27
73
23
40
0
40
0
40
0
40
0
40
0.124999999999959
40
0.124999999999959
40
0.249999999999919
40
0.249999999999919
40
0.374999999999878
40
0.374999999999878
40
0.499999999999837
40
0.499999999999837
40
0.624999999999796
40
0.624999999999796
40
0.68749999999983
40
0.68749999999983
40
0.749999999999864
40
0.812499999999898
40
0.812499999999898
40
0.874999999999932
40
0.874999999999932
40
0.937499999999966
40
0.937499999999966
40
1
40
1
40
1
40
1
41
1
10
43.4862111779475
20
-1.14016856725579
30
0
41
1
10
43.492055279131
20
-1.14033474749718
30
0
41
1
10
43.4988678750664
20
-1.14164756317328
30
0
41
1
10
43.5139622269051
20
-1.14597466930212
30
0
41
1
10
43.5223457069669
20
-1.14904738495215
30
0
41
1
10
43.5397969594671
20
-1.15649972337732
30
0
41
1
10
43.5489097365771
20
-1.16088379275405
30
0
41
1
10
43.5678392848993
20
-1.17091391942716
30
0
41
1
10
43.5777083604356
20
-1.17660088134974
30
0
41
1
10
43.5974053803701
20
-1.18889743097776
30
0
41
1
10
43.6073175520044
20
-1.19554564773361
30
0
41
1
10
43.6222607093302
20
-1.20639096771538
30
0
41
1
10
43.6272823300872
20
-1.2101757759911
30
0
41
1
10
43.6371627237664
20
-1.21793671224
30
0
41
1
10
43.6468943529612
20
-1.22589564461705
30
0
41
1
10
43.6562958072516
20
-1.23429226180426
30
0
41
1
10
43.6655043376862
20
-1.24294392871766
30
0
41
1
10
43.6700130953698
20
-1.2474027402055
30
0
41
1
10
43.6785327081595
20
-1.25634419515975
30
0
41
1
10
43.6825779842171
20
-1.2608574302761
30
0
41
1
10
43.6901728722427
20
-1.26998207834504
30
0
41
1
10
43.6937302389966
20
-1.27460952971674
30
0
41
1
10
43.696895258238
20
-1.27916468754935
30
0
0
SPLINE
5
181
100
AcDbEntity
8
1
62
256
6
ByLayer
370
18
48
1
60
0
100
AcDbSpline
70
4
71
3
72
10
73
6
40
0
40
0
40
0
40
0
40
0.5
40
0.5
40
1
40
1
40
1
40
1
41
1
10
43.6968952582452
20
-1.27916468755817
30
0
41
1
10
43.7425816309932
20
-1.34491741220981
30
0
41
1
10
43.7879533014286
20
-1.41302744603809
30
0
41
1
10
43.8780327803522
20
-1.55335864834652
30
0
41
1
10
43.9226864680157
20
-1.62549058748064
30
0
41
1
10
43.9670133243409
20
-1.69939143922647
30
0
0
SPLINE
5
182
100
AcDbEntity
8
1
62
256
6
ByLayer
370
18
48
1
60
0
100
AcDbSpline
70
4
71
3
72
10
73
6
40
0
40
0
40
0
40
0
40
0.5
40
0.5
40
1
40
1
40
1
40
1
41
1
10
44.0488034289562
20
-1.7579740611022
30
0
41
1
10
44.0944357369718
20
-1.74635408317658
30
0
41
1
10
44.1403953200844
20
-1.73068780752914
30
0
41
1
10
44.2332344946898
20
-1.69116301205423
30
0
41
1
10
44.2799622820913
20
-1.66737107570646
30
0
41
1
10
44.3271584629444
20
-1.63946348160226
30
0
0
SPLINE
5
183
100
AcDbEntity
8
1
62
256
6
ByLayer
370
18
48
1
60
0
100
AcDbSpline
70
4
71
3
72
27
73
23
40
0
40
0
40
0
40
0
40
0.124999999999959
40
0.124999999999959
40
0.249999999999917
40
0.249999999999917
40
0.374999999999876
40
0.374999999999876
40
0.499999999999835
40
0.499999999999835
40
0.624999999999793
40
0.624999999999793
40
0.687499999999828
40
0.687499999999828
40
0.749999999999862
40
0.812499999999897
40
0.812499999999897
40
0.874999999999931
40
0.874999999999931
40
0.937499999999965
40
0.937499999999965
40
1
40
1
40
1
40
1
41
1
10
44.3271584629444
20
-1.63946348160226
30
0
41
1
10
44.3330149355516
20
-1.63600048825452
30
0
41
1
10
44.3398453422119
20
-1.63391088420406
30
0
41
1
10
44.3549806978981
20
-1.63178075955165
30
0
41
1
10
44.3633886135804
20
-1.63177670906606
30
0
41
1
10
44.3808834914404
20
-1.63361563012469
30
0
41
1
10
44.390015562408
20
-1.63543694650539
30
0
41
1
10
44.4089762521419
20
-1.64079167971255
30
0
41
1
10
44.4188539785155
20
-1.64436084181852
30
0
41
1
10
44.4385556257369
20
-1.65303310496557
30
0
41
1
10
44.4484649409299
20
-1.658151181302
30
0
41
1
10
44.4633964034181
20
-1.66716135666482
30
0
41
1
10
44.4684115316674
20
-1.67040903488368
30
0
41
1
10
44.478269149322
20
-1.67727888306089
30
0
41
1
10
44.4879773477009
20
-1.68453175450185
30
0
41
1
10
44.4973538773036
20
-1.69261999041316
30
0
41
1
10
44.506537478406
20
-1.70118860516467
30
0
41
1
10
44.5110323487735
20
-1.70571970919463
30
0
41
1
10
44.5195273003484
20
-1.71506098700664
30
0
41
1
10
44.5235614758222
20
-1.7199003597778
30
0
41
1
10
44.5311373628086
20
-1.72996859400317
30
0
41
1
10
44.5346875284305
20
-1.73521870702802
30
0
41
1
10
44.5378481939275
20
-1.74055444761171
30
0
0
SPLINE
5
184
100
AcDbEntity
8
1
62
256
6
ByLayer
370
18
48
1
60
0
100
AcDbSpline
70
4
71
3
72
10
73
6
40
0
40
0
40
0
40
0
40
0.5
40
0.5
40
1
40
1
40
1
40
1
41
1
10
44.5378481939345
20
-1.74055444762266
30
0
41
1
10
44.5729914857686
20
-1.79988229762836
30
0
41
1
10
44.6078872788796
20
-1.85993887958091
30
0
41
1
10
44.6773201410899
20
-1.98135988597704
30
0
41
1
10
44.7118453918242
20
-2.04267052246374
30
0
41
1
10
44.7461505972647
20
-2.10438496399181
30
0
0
SPLINE
5
185
100
AcDbEntity
8
1
62
256
6
ByLayer
370
18
48
1
60
0
100
AcDbSpline
70
4
71
3
72
10
73
6
40
0
40
0
40
0
40
0
40
0.5
40
0.5
40
1
40
1
40
1
40
1
41
1
10
44.7461505972655
20
-2.10438496399152
30
0
41
1
10
44.7854456674833
20
-2.11708272622914
30
0
41
1
10
44.8249677980796
20
-2.12883683412525
30
0
41
1
10
44.9045022930687
20
-2.15045595549313
30
0
41
1
10
44.9442838781956
20
-2.16025588686409
30
0
41
1
10
44.9840810940767
20
-2.16906769036208
30
0
0
SPLINE
5
186
100
AcDbEntity
8
1
62
256
6
ByLayer
370
18
48
1
60
0
100
AcDbSpline
70
4
71
3
72
10
73
6
40
0
40
0
40
0
40
0
40
0.5
40
0.5
40
1
40
1
40
1
40
1
41
1
10
44.9840810940765
20
-2.16906769036163
30
0
41
1
10
45.0144278253896
20
-2.13957535132127
30
0
41
1
10
45.0449787695379
20
-2.10846649909888
30
0
41
1
10
45.1063560436278
20
-2.04322918498622
30
0
41
1
10
45.1372028028318
20
-2.00908160926656
30
0
41
1
10
45.1682549572739
20
-1.97339352837375
30
0
0
SPLINE
5
187
100
AcDbEntity
8
1
62
256
6
ByLayer
370
18
48
1
60
0
100
AcDbSpline
70
4
71
3
72
27
73
23
40
0
40
0
40
0
40
0
40
0.124999999999959
40
0.124999999999959
40
0.249999999999918
40
0.249999999999918
40
0.374999999999877
40
0.374999999999877
40
0.499999999999837
40
0.499999999999837
40
0.624999999999796
40
0.624999999999796
40
0.68749999999983
40
0.68749999999983
40
0.749999999999864
40
0.812499999999898
40
0.812499999999898
40
0.874999999999932
40
0.874999999999932
40
0.937499999999966
40
0.937499999999966
40
1
40
1
40
1
40
1
41
1
10
45.1682549572739
20
-1.97339352837375
30
0
41
1
10
45.1741054508381
20
-1.96666958630647
30
0
41
1
10
45.180928337682
20
-1.96139637773021
30
0
41
1
10
45.1960479290133
20
-1.95301692229452
30
0
41
1
10
45.2044483179931
20
-1.94991957726017
30
0
41
1
10
45.2219324483033
20
-1.94590498353818
30
0
41
1
10
45.2310598978579
20
-1.94494273017889
30
0
41
1
10
45.2500142271322
20
-1.94499101196379
30
0
41
1
10
45.2598912805337
20
-1.94603057350292
30
0
41
1
10
45.2795957327667
20
-1.95009054493013
30
0
41
1
10
45.2895083380037
20
-1.95309944123758
30
0
41
1
10
45.3044475354093
20
-1.9592669350869
30
0
41
1
10
45.3094659602448
20
-1.96161718354472
30
0
41
1
10
45.3193305918628
20
-1.96684413791672
30
0
41
1
10
45.3290454697854
20
-1.9726005242419
30
0
41
1
10
45.3384284117225
20
-1.9795032112778
30
0
41
1
10
45.3476176602398
20
-1.98706419614021
30
0
41
1
10
45.3521136994107
20
-1.991180670132
30
0
41
1
10
45.3606091469055
20
-1.99991895138615
30
0
41
1
10
45.3646427825088
20
-2.00456579517658
30
0
41
1
10
45.3722159887031
20
-2.01450063995949
30
0
41
1
10
45.3757630737543
20
-2.01981081198235
30
0
41
1
10
45.3789199987327
20
-2.0253540269008
30
0
0
SPLINE
5
188
100
AcDbEntity
8
1
62
256
6
ByLayer
370
18
48
1
60
0
100
AcDbSpline
70
4
71
3
72
8
73
4
40
0
40
0
40
0
40
0
40
1
40
1
40
1
40
1
41
1
10
45.3789199987374
20
-2.0253540269087
30
0
41
1
10
45.4176952237839
20
-2.09343908038696
30
0
41
1
10
45.4562450205469
20
-2.16152678498517
30
0
41
1
10
45.4945465216259
20
-2.22942224672957
30
0
0
SPLINE
5
189
100
AcDbEntity
8
1
62
256
6
ByLayer
370
18
48
1
60
0
100
AcDbSpline
70
4
71
3
72
12
73
8
40
0
40
0
40
0
40
0
40
0.500000000000025
40
0.500000000000025
40
0.750000000000012
40
0.750000000000012
40
1
40
1
40
1
40
1
41
1
10
45.4945465216259
20
-2.22942224672954
30
0
41
1
10
45.5693903382907
20
-2.23077164545359
30
0
41
1
10
45.6444984477666
20
-2.2289023102249
30
0
41
1
10
45.7576484292919
20
-2.22124902354687
30
0
41
1
10
45.7954443371335
20
-2.21789224503777
30
0
41
1
10
45.8712181468009
20
-2.20955805855974
30
0
41
1
10
45.9091834387201
20
-2.20458416781986
30
0
41
1
10
45.9473436039287
20
-2.19875975108678
30
0
0
SPLINE
5
18A
100
AcDbEntity
8
1
62
256
6
ByLayer
370
18
48
1
60
0
100
AcDbSpline
70
4
71
3
72
8
73
4
40
0
40
0
40
0
40
0
40
1
40
1
40
1
40
1
41
1
10
45.9473436039287
20
-2.19875975108667
30
0
41
1
10
45.9678984473052
20
-2.16694158290102
30
0
41
1
10
45.9885381865025
20
-2.13461837467719
30
0
41
1
10
46.009277768333
20
-2.10179141220621
30
0
0
SPLINE
5
18B
100
AcDbEntity
8
1
62
256
6
ByLayer
370
18
48
1
60
0
100
AcDbSpline
70
4
71
3
72
14
73
10
40
0
40
0
40
0
40
0
40
0.074594943894962
40
0.074594943894962
40
0.537297471947481
40
0.537297471947481
40
0.768648735973741
40
0.768648735973741
40
1
40
1
40
1
40
1
41
1
10
40.1526286880586
20
-2.55380787835702
30
0
41
1
10
40.1519340407337
20
-2.55380615301232
30
0
41
1
10
40.1512386827825
20
-2.55368793855678
30
0
41
1
10
40.1462231102942
20
-2.55199982783373
30
0
41
1
10
40.1418518124799
20
-2.54607705181223
30
0
41
1
10
40.1351824344579
20
-2.53039698747855
30
0
41
1
10
40.1329433996866
20
-2.52403543445988
30
0
41
1
10
40.1284379391728
20
-2.50899910471429
30
0
41
1
10
40.1261691268331
20
-2.50030681674872
30
0
41
1
10
40.1239148116275
20
-2.49055499609511
30
0
0
SPLINE
5
18C
100
AcDbEntity
8
1
62
256
6
ByLayer
370
18
48
1
60
0
100
AcDbSpline
70
4
71
3
72
12
73
8
40
0
40
0
40
0
40
0
40
0.406085115415582
40
0.406085115415582
40
0.812170230831163
40
0.812170230831163
40
1
40
1
40
1
40
1
41
1
10
40.0418288910712
20
-2.47164996631108
30
0
41
1
10
40.0461808780391
20
-2.49367134132285
30
0
41
1
10
40.0505246718302
20
-2.51130197800478
30
0
41
1
10
40.059246401062
20
-2.53775657703002
30
0
41
1
10
40.0636245522643
20
-2.54658144149818
30
0
41
1
10
40.0700825029589
20
-2.55282051585019
30
0
41
1
10
40.0721229037113
20
-2.55380281027394
30
0
41
1
10
40.0741509173614
20
-2.55380718370094
30
0
0
SPLINE
5
18D
100
AcDbEntity
8
1
62
256
6
ByLayer
370
18
48
1
60
0
100
AcDbSpline
70
4
71
3
72
14
73
10
40
0
40
0
40
0
40
0
40
0.253901074959753
40
0.253901074959753
40
0.440425806219815
40
0.440425806219815
40
0.626950537479878
40
0.626950537479878
40
1
40
1
40
1
40
1
41
1
10
42.0741970863838
20
2.55380891972263
30
0
41
1
10
42.0770599501741
20
2.55381711783952
30
0
41
1
10
42.0799053981983
20
2.55173551479561
30
0
41
1
10
42.084894161509
20
2.54445156578095
30
0
41
1
10
42.0870302183374
20
2.54022176053294
30
0
41
1
10
42.0913816873105
20
2.52942195610504
30
0
41
1
10
42.0935769040482
20
2.52288785348961
30
0
41
1
10
42.1001879371896
20
2.50000288019339
30
0
41
1
10
42.1046357453093
20
2.48035927429194
30
0
41
1
10
42.109093835069
20
2.4564205221163
30
0
0
SPLINE
5
18E
100
AcDbEntity
8
1
62
256
6
ByLayer
370
18
48
1
60
0
100
AcDbSpline
70
4
71
3
72
12
73
8
40
0
40
0
40
0
40
0
40
0.334186550104961
40
0.334186550104961
40
0.668373100209922
40
0.668373100209922
40
1
40
1
40
1
40
1
41
1
10
42.1914614348229
20
2.43309216505852
30
0
41
1
10
42.1871138213206
20
2.46003500926236
30
0
41
1
10
42.1828165611882
20
2.48235903667398
30
0
41
1
10
42.1742338625341
20
2.51808455006252
30
0
41
1
10
42.1699483867375
20
2.53148512704479
30
0
41
1
10
42.1613268051758
20
2.54931727649765
30
0
41
1
10
42.1569798940097
20
2.55381740499692
30
0
41
1
10
42.1525821028341
20
2.5538072203841
30
0
0
SPLINE
5
18F
100
AcDbEntity
8
1
62
256
6
ByLayer
370
18
48
1
60
0
100
AcDbSpline
70
4
71
3
72
24
73
20
40
0
40
0
40
0
40
0
40
0.0361060964473826
40
0.0361060964473826
40
0.1164305884101
40
0.1164305884101
40
0.156592834391459
40
0.156592834391459
40
0.196755080372818
40
0.357404064298255
40
0.518053048223692
40
0.518053048223692
40
0.59837754018641
40
0.638539786167769
40
0.638539786167769
40
0.678702032149128
40
0.678702032149128
40
0.839351016074564
40
1
40
1
40
1
40
1
41
1
10
39.3645643933236
20
-2.54193853671694
30
0
41
1
10
39.3635658935078
20
-2.54383903326797
30
0
41
1
10
39.3625685252556
20
-2.54551354146591
30
0
41
1
10
39.3593566699484
20
-2.55018175377734
30
0
41
1
10
39.3571459451849
20
-2.55227733038979
30
0
41
1
10
39.3538261064813
20
-2.5536977190304
30
0
41
1
10
39.3527182574092
20
-2.55388286011663
30
0
41
1
10
39.3505107779102
20
-2.55367572407073
30
0
41
1
10
39.3450038256129
20
-2.55171678992863
30
0
41
1
10
39.3351700986267
20
-2.53541939914405
30
0
41
1
10
39.326445228711
20
-2.50318928720975
30
0
41
1
10
39.3198777490484
20
-2.47230617229277
30
0
41
1
10
39.3165880900352
20
-2.45518371116239
30
0
41
1
10
39.3132837044387
20
-2.43549839862703
30
0
41
1
10
39.3110768014936
20
-2.42179843852057
30
0
41
1
10
39.3099703103562
20
-2.41465260169022
30
0
41
1
10
39.3044574090787
20
-2.37768066305847
30
0
41
1
10
39.2957180933355
20
-2.31033914131419
30
0
41
1
10
39.2870445653256
20
-2.22714044327987
30
0
41
1
10
39.2826975280293
20
-2.18157744757877
30
0
0
SPLINE
5
190
100
AcDbEntity
8
1
62
256
6
ByLayer
370
18
48
1
60
0
100
AcDbSpline
70
4
71
3
72
23
73
19
40
0
40
0
40
0
40
0
40
0.0892280789173548
40
0.0892280789173548
40
0.133842118376032
40
0.133842118376032
40
0.178456157834709
40
0.356912315669419
40
0.535368473504128
40
0.535368473504128
40
0.624596552421483
40
0.669210591880161
40
0.669210591880161
40
0.713824631338839
40
0.713824631338839
40
0.89228078917355
40
0.89228078917355
40
1
40
1
40
1
40
1
41
1
10
39.2002256202923
20
-2.1384917799775
30
0
41
1
10
39.2023537306532
20
-2.16251400688205
30
0
41
1
10
39.2044984857343
20
-2.18565273267768
30
0
41
1
10
39.2077618058525
20
-2.21900757280963
30
0
41
1
10
39.2088580311344
20
-2.22990621137302
30
0
41
1
10
39.2110569181743
20
-2.25112529461967
30
0
41
1
10
39.2165829205084
20
-2.30280377935838
30
0
41
1
10
39.2267256962791
20
-2.38369454420618
30
0
41
1
10
39.2356963919856
20
-2.43875628847411
30
0
41
1
10
39.2423641780771
20
-2.47368502208022
30
0
41
1
10
39.2456841653309
20
-2.48955435790478
30
0
41
1
10
39.2489856615527
20
-2.50299191559373
30
0
41
1
10
39.2511835636367
20
-2.51140336268773
30
0
41
1
10
39.2522821999555
20
-2.51533936887182
30
0
41
1
10
39.2577408072886
20
-2.53354032660238
30
0
41
1
10
39.2620123869828
20
-2.54346129935752
30
0
41
1
10
39.2688278540172
20
-2.55216658158841
30
0
41
1
10
39.2713859554537
20
-2.55380618313779
30
0
41
1
10
39.2739611814136
20
-2.55380923146768
30
0
0
SPLINE
5
191
100
AcDbEntity
8
1
62
256
6
ByLayer
370
18
48
1
60
0
100
AcDbSpline
70
4
71
3
72
24
73
20
40
0
40
0
40
0
40
0
40
0.163812749509881
40
0.163812749509881
40
0.245719124264821
40
0.245719124264821
40
0.327625499019761
40
0.327625499019761
40
0.491438248529642
40
0.491438248529642
40
0.655250998039523
40
0.655250998039523
40
0.819063747549403
40
0.819063747549403
40
0.900970122304344
40
0.900970122304344
40
0.982876497059285
40
0.982876497059285
40
1
40
1
40
1
40
1
41
1
10
43.0322877219649
20
2.06107053835035
30
0
41
1
10
43.0278997055851
20
2.11278576654277
30
0
41
1
10
43.0235518409444
20
2.16083803446907
30
0
41
1
10
43.0171076646942
20
2.22735780685315
30
0
41
1
10
43.0149739713657
20
2.24860283769755
30
0
41
1
10
43.0107197638969
20
2.28920238995383
30
0
41
1
10
43.0085937464984
20
2.3085999851767
30
0
41
1
10
43.0022643516595
20
2.36331830333549
30
0
41
1
10
42.9980965515434
20
2.39534053541098
30
0
41
1
10
42.9895820175909
20
2.45072270717435
30
0
41
1
10
42.9851968232045
20
2.47408160184653
30
0
41
1
10
42.9761013896123
20
2.51211239319443
30
0
41
1
10
42.9714418413929
20
2.52678598161205
30
0
41
1
10
42.9644536822775
20
2.54205253557561
30
0
41
1
10
42.9621380052647
20
2.54598036633405
30
0
41
1
10
42.957565996944
20
2.55152694043878
30
0
41
1
10
42.9553067432952
20
2.55315207088233
30
0
41
1
10
42.9526102507124
20
2.55374890972956
30
0
41
1
10
42.9521453041937
20
2.55380275050587
30
0
41
1
10
42.9516816308479
20
2.55380725843412
30
0
0
SPLINE
5
192
100
AcDbEntity
8
1
62
256
6
ByLayer
370
18
48
1
60
0
100
AcDbSpline
70
4
71
3
72
22
73
18
40
0
40
0
40
0
40
0
40
0.249999999999998
40
0.249999999999998
40
0.312499999999998
40
0.312499999999998
40
0.374999999999998
40
0.374999999999998
40
0.499999999999998
40
0.499999999999998
40
0.749999999999999
40
0.749999999999999
40
0.812499999999999
40
0.812499999999999
40
0.875
40
0.875
40
1
40
1
40
1
40
1
41
1
10
37.9969086493053
20
-1.97780946275495
30
0
41
1
10
37.9924396504917
20
-1.93847065834203
30
0
41
1
10
37.9880986035189
20
-1.88925320781513
30
0
41
1
10
37.9827620138192
20
-1.81513995593548
30
0
41
1
10
37.9817041714835
20
-1.7996857358068
30
0
41
1
10
37.9796132304108
20
-1.76749290427884
30
0
41
1
10
37.9785830844636
20
-1.75079539905201
30
0
41
1
10
37.9755590869838
20
-1.69926431159615
30
0
41
1
10
37.9736264298754
20
-1.66286578343525
30
0
41
1
10
37.9679575689302
20
-1.54763074541702
30
0
41
1
10
37.9642442091589
20
-1.4627588077324
30
0
41
1
10
37.9600463380165
20
-1.34651937335883
30
0
41
1
10
37.959228291183
20
-1.32272042561732
30
0
41
1
10
37.9576527882099
20
-1.27426394136012
30
0
41
1
10
37.9568982131
20
-1.24969885234597
30
0
41
1
10
37.9547417293825
20
-1.17501383871328
30
0
41
1
10
37.9534480583247
20
-1.12390635256096
30
0
41
1
10
37.9523083869128
20
-1.07150931599517
30
0
0
SPLINE
5
193
100
AcDbEntity
8
1
62
256
6
ByLayer
370
18
48
1
60
0
100
AcDbSpline
70
4
71
3
72
28
73
24
40
0
40
0
40
0
40
0
40
0.0624999999999994
40
0.0624999999999994
40
0.124999999999999
40
0.124999999999999
40
0.249999999999998
40
0.374999999999998
40
0.499999999999997
40
0.499999999999997
40
0.562499999999997
40
0.562499999999997
40
0.624999999999997
40
0.624999999999997
40
0.749999999999998
40
0.749999999999998
40
0.874999999999999
40
0.874999999999999
40
0.9375
40
0.9375
40
0.96875
40
0.96875
40
1
40
1
40
1
40
1
41
1
10
38.4097113982124
20
1.38790233324167
30
0
41
1
10
38.4081554966164
20
1.41683588519123
30
0
41
1
10
38.4065918414788
20
1.44530844879779
30
0
41
1
10
38.403450666415
20
1.50131245659193
30
0
41
1
10
38.4018854062434
20
1.52862530231042
30
0
41
1
10
38.39721032685
20
1.60848246341149
30
0
41
1
10
38.3910300738448
20
1.70947012529496
30
0
41
1
10
38.3819096072429
20
1.84482466848837
30
0
41
1
10
38.3758841550041
20
1.92422324510971
30
0
41
1
10
38.3713488782331
20
1.97955048892598
30
0
41
1
10
38.369842531194
20
1.9971836964929
30
0
41
1
10
38.3668438648801
20
2.03071341814749
30
0
41
1
10
38.3653495973658
20
2.04663381213163
30
0
41
1
10
38.3608663260908
20
2.09189037270684
30
0
41
1
10
38.3578776662065
20
2.11872806079043
30
0
41
1
10
38.3517992081856
20
2.16573917431185
30
0
41
1
10
38.3486955968555
20
2.18590523708576
30
0
41
1
10
38.343987487357
20
2.21107326597559
30
0
41
1
10
38.3424099521516
20
2.2186146224424
30
0
41
1
10
38.3400353013897
20
2.2286306522152
30
0
41
1
10
38.3392424372615
20
2.23175194158162
30
0
41
1
10
38.3376629924592
20
2.23752780508295
30
0
41
1
10
38.3368753028914
20
2.24018724392138
30
0
41
1
10
38.3360896281726
20
2.24262053245184
30
0
0
SPLINE
5
194
100
AcDbEntity
8
1
62
256
6
ByLayer
370
18
48
1
60
0
100
AcDbSpline
70
4
71
3
72
25
73
21
40
0
40
0
40
0
40
0
40
0.108476091297334
40
0.108476091297334
40
0.235836649683429
40
0.235836649683429
40
0.299516928876477
40
0.299516928876477
40
0.363197208069524
40
0.363197208069524
40
0.49055776645562
40
0.49055776645562
40
0.617918324841715
40
0.617918324841715
40
0.681598604034763
40
0.681598604034763
40
0.745278883227811
40
0.745278883227811
40
0.872639441613905
40
1
40
1
40
1
40
1
41
1
10
44.1523363869272
20
-2.55380778556898
30
0
41
1
10
44.1486346857056
20
-2.55381927397971
30
0
41
1
10
44.1449331006465
20
-2.55055879112373
30
0
41
1
10
44.1368694167422
20
-2.53633586752608
30
0
41
1
10
44.1325134457055
20
-2.52413232522
30
0
41
1
10
44.1259468322159
20
-2.49879633962826
30
0
41
1
10
44.1237670715064
20
-2.4892354848329
30
0
41
1
10
44.1194194373422
20
-2.46797477880406
30
0
41
1
10
44.1172497491538
20
-2.4562680223822
30
0
41
1
10
44.1107183015556
20
-2.41796573714242
30
0
41
1
10
44.1063101325563
20
-2.38819687679447
30
0
41
1
10
44.0973718836786
20
-2.32023553275181
30
0
41
1
10
44.0928601655795
20
-2.28204324460219
30
0
41
1
10
44.0860741260599
20
-2.21826373383246
30
0
41
1
10
44.0838023350913
20
-2.19585212139779
30
0
41
1
10
44.0792996213979
20
-2.14929318977858
30
0
41
1
10
44.0770656279444
20
-2.12512347445966
30
0
41
1
10
44.0704124334764
20
-2.04999345972794
30
0
41
1
10
44.0616741645723
20
-1.94284467021012
30
0
41
1
10
44.0530971920286
20
-1.8219331003038
30
0
41
1
10
44.0488034289563
20
-1.75797406110218
30
0
0
SPLINE
5
195
100
AcDbEntity
8
1
62
256
6
ByLayer
370
18
48
1
60
0
100
AcDbSpline
70
4
71
3
72
31
73
27
40
0
40
0
40
0
40
0
40
0.124999999999996
40
0.124999999999996
40
0.156249999999996
40
0.156249999999996
40
0.187499999999995
40
0.249999999999995
40
0.249999999999995
40
0.374999999999995
40
0.374999999999995
40
0.499999999999994
40
0.499999999999994
40
0.531249999999994
40
0.531249999999994
40
0.562499999999994
40
0.562499999999994
40
0.624999999999995
40
0.624999999999995
40
0.749999999999997
40
0.749999999999997
40
0.874999999999999
40
0.874999999999999
40
0.937499999999999
40
0.937499999999999
40
1
40
1
40
1
40
1
41
1
10
43.9670133243409
20
-1.6993914392265
30
0
41
1
10
43.9713569374191
20
-1.76478867903194
30
0
41
1
10
43.9756773512408
20
-1.82735286343015
30
0
41
1
10
43.9810989464461
20
-1.90190445881592
30
0
41
1
10
43.9821859665467
20
-1.91665250661296
30
0
41
1
10
43.9843551464487
20
-1.94566222065325
30
0
41
1
10
43.9876001961015
20
-1.98842998345609
30
0
41
1
10
43.9908263932064
20
-2.02898476269056
30
0
41
1
10
43.9972733300472
20
-2.10719310690726
30
0
41
1
10
44.0015657252696
20
-2.15547116550681
30
0
41
1
10
44.010233038453
20
-2.24438015288075
30
0
41
1
10
44.0146022660107
20
-2.28501150144314
30
0
41
1
10
44.0201363272463
20
-2.33091592608557
30
0
41
1
10
44.02124680501
20
-2.33985195285618
30
0
41
1
10
44.0234759322499
20
-2.35722908736176
30
0
41
1
10
44.0245959974785
20
-2.36568041285602
30
0
41
1
10
44.0279593869369
20
-2.39020745896306
30
0
41
1
10
44.0301998520026
20
-2.40541578825318
30
0
41
1
10
44.0369247110659
20
-2.44768464987069
30
0
41
1
10
44.0414200367899
20
-2.47139777113762
30
0
41
1
10
44.0503819991923
20
-2.51005724787351
30
0
41
1
10
44.0548454766826
20
-2.52500347536801
30
0
41
1
10
44.0615090973965
20
-2.54075939323968
30
0
41
1
10
44.0637255328097
20
-2.54489861533878
30
0
41
1
10
44.0681534340003
20
-2.55090931013146
30
0
41
1
10
44.0703682980982
20
-2.55277545823236
30
0
41
1
10
44.0725592815131
20
-2.55348133781203
30
0
0
SPLINE
5
196
100
AcDbEntity
8
1
62
256
6
ByLayer
370
18
48
1
60
0
100
AcDbSpline
70
4
71
3
72
8
73
4
40
0
40
0
40
0
40
0
40
1
40
1
40
1
40
1
41
1
10
26.981694663355
20
1.93165019157857
30
0
41
1
10
27.0643378392902
20
1.93166149395381
30
0
41
1
10
27.1471377719679
20
1.92724239133784
30
0
41
1
10
27.2301693078318
20
1.91822407663182
30
0
0
SPLINE
5
197
100
AcDbEntity
8
1
62
256
6
ByLayer
370
18
48
1
60
0
100
AcDbSpline
70
4
71
3
72
34
73
30
40
0
40
0
40
0
40
0
40
0.0259141841012045
40
0.0259141841012045
40
0.0759416941928615
40
0.0759416941928615
40
0.125969204284518
40
0.125969204284518
40
0.226024224467832
40
0.226024224467832
40
0.326079244651147
40
0.326079244651147
40
0.42613426483446
40
0.42613426483446
40
0.476161774926118
40
0.476161774926118
40
0.526189285017775
40
0.526189285017775
40
0.6262443052011
40
0.6262443052011
40
0.726299325384425
40
0.726299325384425
40
0.826354345567751
40
0.826354345567751
40
0.926409365751077
40
0.926409365751077
40
0.976436875842739
40
0.976436875842739
40
1
40
1
40
1
40
1
41
1
10
27.7907392083753
20
-1.93162455142499
30
0
41
1
10
27.7764437273689
20
-1.93159304679608
30
0
41
1
10
27.7620801325232
20
-1.93153185976868
30
0
41
1
10
27.719782313047
20
-1.93127480227037
30
0
41
1
10
27.6916531745399
20
-1.93100725926931
30
0
41
1
10
27.634822580325
20
-1.9303246111804
30
0
41
1
10
27.6062864305944
20
-1.92991161569054
30
0
41
1
10
27.5203774553615
20
-1.92854017873603
30
0
41
1
10
27.4626703884453
20
-1.92745055003752
30
0
41
1
10
27.3462949703864
20
-1.92532214466155
30
0
41
1
10
27.2876299197381
20
-1.92428274738177
30
0
41
1
10
27.1692143701028
20
-1.92260121676563
30
0
41
1
10
27.109443775272
20
-1.92197288670494
30
0
41
1
10
27.0191237678954
20
-1.92137507292375
30
0
41
1
10
26.9889074445431
20
-1.92123126762456
30
0
41
1
10
26.9282969616386
20
-1.92103918185759
30
0
41
1
10
26.8979278795964
20
-1.92098805801567
30
0
41
1
10
26.8071654962778
20
-1.92102176204773
30
0
41
1
10
26.7469218353402
20
-1.92128135519354
30
0
41
1
10
26.6270357925495
20
-1.92228126020197
30
0
41
1
10
26.567399663979
20
-1.92302946674562
30
0
41
1
10
26.448849195664
20
-1.92490900780817
30
0
41
1
10
26.389927655535
20
-1.92603996027211
30
0
41
1
10
26.2729663509617
20
-1.92837340004843
30
0
41
1
10
26.2158072506517
20
-1.92956479986009
30
0
41
1
10
26.1329450255972
20
-1.93089098228327
30
0
41
1
10
26.1057973039908
20
-1.93125382077193
30
0
41
1
10
26.0667133571012
20
-1.93156174939179
30
0
41
1
10
26.0543659129162
20
-1.93162524738258
30
0
41
1
10
26.0422640317582
20
-1.93164410678239
30
0
0
SPLINE
5
198
100
AcDbEntity
8
1
62
256
6
ByLayer
370
18
48
1
60
0
100
AcDbSpline
70
4
71
3
72
27
73
23
40
0
40
0
40
0
40
0
40
0.125000000000001
40
0.125000000000001
40
0.250000000000003
40
0.250000000000003
40
0.312500000000003
40
0.343750000000004
40
0.343750000000004
40
0.375000000000004
40
0.375000000000004
40
0.500000000000003
40
0.500000000000003
40
0.625000000000002
40
0.750000000000001
40
0.750000000000001
40
0.781250000000001
40
0.781250000000001
40
0.812500000000001
40
0.875000000000001
40
0.875000000000001
40
1
40
1
40
1
40
1
41
1
10
43.6868017621782
20
2.54170156010687
30
0
41
1
10
43.6909721686921
20
2.53312122078702
30
0
41
1
10
43.6950784125919
20
2.52005937966558
30
0
41
1
10
43.7034658020418
20
2.48518492774093
30
0
41
1
10
43.7077940616526
20
2.46337264310677
30
0
41
1
10
43.7145082729222
20
2.42404061222936
30
0
41
1
10
43.7179070176237
20
2.40271778399088
30
0
41
1
10
43.7213393118995
20
2.37886892741688
30
0
41
1
10
43.7236325527881
20
2.36240154613626
30
0
41
1
10
43.7247829480742
20
2.35387342785472
30
0
41
1
10
43.7305104385421
20
2.31004243163849
30
0
41
1
10
43.7350281624418
20
2.27104389328718
30
0
41
1
10
43.7438979923257
20
2.18542792561129
30
0
41
1
10
43.7526204688559
20
2.09219132041204
30
0
41
1
10
43.7612581176941
20
1.98372523665913
30
0
41
1
10
43.7666848499493
20
1.91102310871588
30
0
41
1
10
43.7677730915501
20
1.89621532418423
30
0
41
1
10
43.769942633842
20
1.86625444259855
30
0
41
1
10
43.773188608946
20
1.82076907489181
30
0
41
1
10
43.7764153314872
20
1.7736714727435
30
0
41
1
10
43.782857061877
20
1.67736241185799
30
0
41
1
10
43.7871360343953
20
1.61034336927457
30
0
41
1
10
43.791433350664
20
1.54053769903493
30
0
0
SPLINE
5
199
100
AcDbEntity
8
1
62
256
6
ByLayer
370
18
48
1
60
0
100
AcDbSpline
70
4
71
3
72
31
73
27
40
0
40
0
40
0
40
0
40
0.0312499999999996
40
0.0312499999999996
40
0.0624999999999993
40
0.0624999999999993
40
0.124999999999999
40
0.124999999999999
40
0.25
40
0.25
40
0.375000000000001
40
0.375000000000001
40
0.437500000000001
40
0.437500000000001
40
0.468750000000002
40
0.468750000000002
40
0.500000000000002
40
0.625000000000001
40
0.750000000000001
40
0.750000000000001
40
0.812500000000001
40
0.843750000000001
40
0.843750000000001
40
0.875000000000001
40
0.875000000000001
40
1
40
1
40
1
40
1
41
1
10
43.8740997404652
20
1.47509531946741
30
0
41
1
10
43.8730179230199
20
1.49310503229108
30
0
41
1
10
43.8719339182453
20
1.5109812339428
30
0
41
1
10
43.8697598176886
20
1.54646343894799
30
0
41
1
10
43.8686699851629
20
1.56406438939689
30
0
41
1
10
43.8654079929527
20
1.61615246531167
30
0
41
1
10
43.8632369287218
20
1.65003012292985
30
0
41
1
10
43.8567144386443
20
1.74916827880753
30
0
41
1
10
43.8523531156129
20
1.81194038711917
30
0
41
1
10
43.8435084793294
20
1.93093900703104
30
0
41
1
10
43.8390147755737
20
1.98716531333292
30
0
41
1
10
43.8322315327511
20
2.06651362573095
30
0
41
1
10
43.8299635920338
20
2.09212957165795
30
0
41
1
10
43.8265561796139
20
2.12927723996259
30
0
41
1
10
43.8254188477091
20
2.1414522978537
30
0
41
1
10
43.8231559154454
20
2.16523449436048
30
0
41
1
10
43.8175193079817
20
2.22335741673314
30
0
41
1
10
43.8075709440569
20
2.31616921482507
30
0
41
1
10
43.7989423793192
20
2.38225805026147
30
0
41
1
10
43.7924952700591
20
2.42561689541267
30
0
41
1
10
43.789277366111
20
2.44574135140979
30
0
41
1
10
43.7860540852641
20
2.46349480521755
30
0
41
1
10
43.7839023030284
20
2.47479716382446
30
0
41
1
10
43.7828238184882
20
2.48018654016701
30
0
41
1
10
43.7774497684696
20
2.50564665684826
30
0
41
1
10
43.7731887726878
20
2.52138343945538
30
0
41
1
10
43.7689119958362
20
2.53263575329797
30
0
0
SPLINE
5
19A
100
AcDbEntity
8
1
62
256
6
ByLayer
370
18
48
1
60
0
100
AcDbSpline
70
4
71
3
72
14
73
10
40
0
40
0
40
0
40
0
40
0.5
40
0.5
40
0.625
40
0.625
40
0.75
40
0.75
40
1
40
1
40
1
40
1
41
1
10
46.778748324559
20
0.509367212963838
30
0
41
1
10
46.7738655457576
20
0.420719037645853
30
0
41
1
10
46.7693348930362
20
0.330215147384081
30
0
41
1
10
46.7640558197601
20
0.21473746982457
30
0
41
1
10
46.7630196211798
20
0.191523868349151
30
0
41
1
10
46.7609866171381
20
0.144857061458396
30
0
41
1
10
46.7599890191563
20
0.121382180032498
30
0
41
1
10
46.7570795626188
20
0.0511648951650443
30
0
41
1
10
46.7552427504171
20
0.0044494625784068
30
0
41
1
10
46.75350811516
20
-0.0421720452458487
30
0
0
SPLINE
5
19B
100
AcDbEntity
8
1
62
256
6
ByLayer
370
18
48
1
60
0
100
AcDbSpline
70
4
71
3
72
14
73
10
40
0
40
0
40
0
40
0
40
0.500000000000002
40
0.500000000000002
40
0.562500000000002
40
0.625000000000002
40
0.750000000000001
40
0.750000000000001
40
1
40
1
40
1
40
1
41
1
10
46.7598048812103
20
-0.863048546804919
30
0
41
1
10
46.7604352607968
20
-0.734908464196934
30
0
41
1
10
46.7596952403735
20
-0.601670458787851
30
0
41
1
10
46.7583180509976
20
-0.445410652003432
30
0
41
1
10
46.7579947691406
20
-0.410452466773108
30
0
41
1
10
46.7573027620782
20
-0.340476720336966
30
0
41
1
10
46.7567311772517
20
-0.287929225732398
30
0
41
1
10
46.755503012815
20
-0.182749143104275
30
0
41
1
10
46.7545690726091
20
-0.112515934639845
30
0
41
1
10
46.7535081151585
20
-0.0421720452457635
30
0
0
SPLINE
5
19C
100
AcDbEntity
8
1
62
256
6
ByLayer
370
18
48
1
60
0
100
AcDbSpline
70
4
71
3
72
14
73
10
40
0
40
0
40
0
40
0
40
0.125000000000004
40
0.125000000000004
40
0.250000000000007
40
0.250000000000007
40
0.500000000000007
40
0.500000000000007
40
1
40
1
40
1
40
1
41
1
10
46.6891051240908
20
0.584544320971276
30
0
41
1
10
46.6926766517556
20
0.559117469564569
30
0
41
1
10
46.6960521653652
20
0.533521630059766
30
0
41
1
10
46.7025266405593
20
0.481997068545468
30
0
41
1
10
46.7056255169988
20
0.456054089024604
30
0
41
1
10
46.7145550134305
20
0.378183379535983
30
0
41
1
10
46.7200423209261
20
0.326069577695904
30
0
41
1
10
46.7356147566183
20
0.169175962227371
30
0
41
1
10
46.7448679890137
20
0.0638512817511412
30
0
41
1
10
46.7535081152131
20
-0.0421720452420686
30
0
0
SPLINE
5
19D
100
AcDbEntity
8
1
62
256
6
ByLayer
370
18
48
1
60
0
100
AcDbSpline
70
4
71
3
72
28
73
24
40
0
40
0
40
0
40
0
40
0.0624999999999998
40
0.0624999999999998
40
0.125
40
0.125
40
0.250000000000001
40
0.250000000000001
40
0.375000000000003
40
0.375000000000003
40
0.500000000000004
40
0.500000000000004
40
0.562500000000004
40
0.562500000000004
40
0.625000000000004
40
0.625000000000004
40
0.750000000000003
40
0.750000000000003
40
0.875000000000002
40
0.875000000000002
40
0.937500000000001
40
0.937500000000001
40
1
40
1
40
1
40
1
41
1
10
46.6785033342232
20
-0.830374503387617
30
0
41
1
10
46.6762692810344
20
-0.801321187395132
30
0
41
1
10
46.6740973229808
20
-0.771959790483464
30
0
41
1
10
46.6698618698545
20
-0.712621315687215
30
0
41
1
10
46.6677946615785
20
-0.682587224427579
30
0
41
1
10
46.661763020216
20
-0.592040104160333
30
0
41
1
10
46.6579708587109
20
-0.531132229302358
30
0
41
1
10
46.6506780652357
20
-0.408279073152528
30
0
41
1
10
46.6471593282835
20
-0.346335590407136
30
0
41
1
10
46.6403605845907
20
-0.221422878699514
30
0
41
1
10
46.6370921078606
20
-0.158452404216348
30
0
41
1
10
46.6324327451721
20
-0.063202575052145
30
0
41
1
10
46.630916155158
20
-0.0312316819787384
30
0
41
1
10
46.6279965533568
20
0.0324249360814974
30
0
41
1
10
46.6265926128561
20
0.0641228218448191
30
0
41
1
10
46.6225521772041
20
0.158832522048385
30
0
41
1
10
46.6200770757613
20
0.221461479530092
30
0
41
1
10
46.6157992213319
20
0.345709905903192
30
0
41
1
10
46.6139855474341
20
0.407329603038647
30
0
41
1
10
46.6121411881563
20
0.498984465507959
30
0
41
1
10
46.6116744550403
20
0.52940669202107
30
0
41
1
10
46.61118668199
20
0.589984735685874
30
0
41
1
10
46.6111593894123
20
0.620197736394971
30
0
41
1
10
46.6115162629696
20
0.650072902060941
30
0
0
SPLINE
5
19E
100
AcDbEntity
8
1
62
256
6
ByLayer
370
18
48
1
60
0
100
AcDbSpline
70
4
71
3
72
27
73
23
40
0
40
0
40
0
40
0
40
0.0625000000000008
40
0.0625000000000008
40
0.125000000000002
40
0.125000000000002
40
0.250000000000002
40
0.250000000000002
40
0.375000000000002
40
0.375000000000002
40
0.437500000000002
40
0.437500000000002
40
0.500000000000001
40
0.500000000000001
40
0.625000000000001
40
0.750000000000001
40
0.750000000000001
40
0.812500000000001
40
0.812500000000001
40
0.875
40
0.875
40
1
40
1
40
1
40
1
41
1
10
43.3135459197578
20
-2.43397035034752
30
0
41
1
10
43.3113656223635
20
-2.420570956712
30
0
41
1
10
43.309160361255
20
-2.40599977760567
30
0
41
1
10
43.3047552132264
20
-2.37489298436339
30
0
41
1
10
43.3025491963139
20
-2.35832246440702
30
0
41
1
10
43.2959196634646
20
-2.30561245690458
30
0
41
1
10
43.291485324668
20
-2.26648230495098
30
0
41
1
10
43.2825707270736
20
-2.18032757490647
30
0
41
1
10
43.2780865337746
20
-2.13330333106504
30
0
41
1
10
43.2713230269115
20
-2.05672006977923
30
0
41
1
10
43.2690604243585
20
-2.03015590563103
30
0
41
1
10
43.2645330458395
20
-1.97507273503055
30
0
41
1
10
43.2622837766784
20
-1.94674414306345
30
0
41
1
10
43.2555776229736
20
-1.85944837044212
30
0
41
1
10
43.2467484672819
20
-1.73690617256386
30
0
41
1
10
43.2380959938257
20
-1.60230238003447
30
0
41
1
10
43.2316333780663
20
-1.4967700981214
30
0
41
1
10
43.2294833863871
20
-1.46082795126691
30
0
41
1
10
43.2251819146203
20
-1.38738614215492
30
0
41
1
10
43.2230261338328
20
-1.34980677222742
30
0
41
1
10
43.216610415484
20
-1.23597800973536
30
0
41
1
10
43.2123818242778
20
-1.15829718658023
30
0
41
1
10
43.2081420819785
20
-1.07887342093198
30
0
0
SPLINE
5
19F
100
AcDbEntity
8
1
62
256
6
ByLayer
370
18
48
1
60
0
100
AcDbSpline
70
4
71
3
72
22
73
18
40
0
40
0
40
0
40
0
40
0.125
40
0.250000000000001
40
0.250000000000001
40
0.375000000000001
40
0.375000000000001
40
0.500000000000001
40
0.500000000000001
40
0.625000000000001
40
0.750000000000001
40
0.750000000000001
40
0.812500000000001
40
0.812500000000001
40
0.875000000000001
40
0.875000000000001
40
1
40
1
40
1
40
1
41
1
10
43.1253651583419
20
-1.00471337870229
30
0
41
1
10
43.12972838347
20
-1.08607558561982
30
0
41
1
10
43.1384088625917
20
-1.24398519235098
30
0
41
1
10
43.14719226844
20
-1.39252255485067
30
0
41
1
10
43.1560971330144
20
-1.53635298397501
30
0
41
1
10
43.1606109557593
20
-1.60591523253421
30
0
41
1
10
43.1697862830547
20
-1.74016036987274
30
0
41
1
10
43.1743719366796
20
-1.80370253424255
30
0
41
1
10
43.1834723622707
20
-1.92374168049093
30
0
41
1
10
43.1924277664855
20
-2.03678629766716
30
0
41
1
10
43.2007464219387
20
-2.135912311478
30
0
41
1
10
43.2069594957494
20
-2.20488410995739
30
0
41
1
10
43.209036382182
20
-2.2270292455625
30
0
41
1
10
43.2132239138897
20
-2.26904516664891
30
0
41
1
10
43.2153340438039
20
-2.28895977961324
30
0
41
1
10
43.2217173840398
20
-2.34548466973803
30
0
41
1
10
43.2260445036866
20
-2.37888438921019
30
0
41
1
10
43.2304371923375
20
-2.40805741586155
30
0
0
SPLINE
5
1A0
100
AcDbEntity
8
1
62
256
6
ByLayer
370
18
48
1
60
0
100
AcDbSpline
70
4
71
3
72
30
73
26
40
0
40
0
40
0
40
0
40
0.0624999999999994
40
0.0937499999999993
40
0.0937499999999993
40
0.124999999999999
40
0.124999999999999
40
0.25
40
0.375000000000001
40
0.500000000000002
40
0.500000000000002
40
0.531250000000002
40
0.531250000000002
40
0.562500000000002
40
0.625000000000002
40
0.625000000000002
40
0.750000000000001
40
0.750000000000001
40
0.875000000000001
40
0.875000000000001
40
0.906250000000001
40
0.906250000000001
40
0.9375
40
0.9375
40
1
40
1
40
1
40
1
41
1
10
39.107120358779
20
0.881173643235172
30
0
41
1
10
39.1048948268866
20
0.922277979586994
30
0
41
1
10
39.1015661078236
20
0.983473760287353
30
0
41
1
10
39.0982526616098
20
1.04396735224097
30
0
41
1
10
39.0960464532873
20
1.0841384792283
30
0
41
1
10
39.0949432689799
20
1.10417200606176
30
0
41
1
10
39.089460388508
20
1.20343148145309
30
0
41
1
10
39.0808793097365
20
1.35691407629403
30
0
41
1
10
39.0682520500526
20
1.571639351567
30
0
41
1
10
39.059680812071
20
1.70445566620154
30
0
41
1
10
39.0541576198742
20
1.78413176438485
30
0
41
1
10
39.0530424023403
20
1.79992257580153
30
0
41
1
10
39.0508063288684
20
1.83103302304926
30
0
41
1
10
39.0474449335621
20
1.87698733288485
30
0
41
1
10
39.0440804370853
20
1.92083451611379
30
0
41
1
10
39.0373766079427
20
2.00576762755878
30
0
41
1
10
39.0329469280682
20
2.05871535168021
30
0
41
1
10
39.0241658784691
20
2.15733270625191
30
0
41
1
10
39.0198039329119
20
2.2030021877045
30
0
41
1
10
39.0143124905646
20
2.25543692690152
30
0
41
1
10
39.0132128632328
20
2.26569069970705
30
0
41
1
10
39.0110104390438
20
2.2857269319295
30
0
41
1
10
39.009906233927
20
2.29552146316064
30
0
41
1
10
39.0065984119173
20
2.32409972842768
30
0
41
1
10
39.004405253662
20
2.34203296998035
30
0
41
1
10
39.0022213915024
20
2.35887095489917
30
0
0
SPLINE
5
1A1
100
AcDbEntity
8
1
62
256
6
ByLayer
370
18
48
1
60
0
100
AcDbSpline
70
4
71
3
72
25
73
21
40
0
40
0
40
0
40
0
40
0.124999999999999
40
0.249999999999999
40
0.249999999999999
40
0.312499999999998
40
0.312499999999998
40
0.374999999999998
40
0.374999999999998
40
0.499999999999997
40
0.624999999999997
40
0.624999999999997
40
0.687499999999996
40
0.687499999999996
40
0.718749999999997
40
0.718749999999997
40
0.749999999999997
40
0.874999999999999
40
0.874999999999999
40
1
40
1
40
1
40
1
41
1
10
38.9199056936777
20
2.38840408917426
30
0
41
1
10
38.9243371314267
20
2.35736868620401
30
0
41
1
10
38.9332800686734
20
2.28709684710159
30
0
41
1
10
38.9422379125383
20
2.20050890132416
30
0
41
1
10
38.9489488239828
20
2.1292835305228
30
0
41
1
10
38.951191277869
20
2.10441630553606
30
0
41
1
10
38.9556333497037
20
2.05304973370298
30
0
41
1
10
38.9578354021951
20
2.02653148056436
30
0
41
1
10
38.9643944729229
20
1.94451915801039
30
0
41
1
10
38.9730121855155
20
1.82862847702526
30
0
41
1
10
38.981533073851
20
1.69983996384943
30
0
41
1
10
38.9879684667134
20
1.59832737085745
30
0
41
1
10
38.9901212619884
20
1.56366804742515
30
0
41
1
10
38.9933737868018
20
1.51042052304834
30
0
41
1
10
38.9944614479979
20
1.49246777614121
30
0
41
1
10
38.9966337893958
20
1.45635319921135
30
0
41
1
10
39.0020648814883
20
1.36541412470962
30
0
41
1
10
39.0075233622079
20
1.27126218187928
30
0
41
1
10
39.0164033954822
20
1.1166045638985
30
0
41
1
10
39.0209253433223
20
1.0372688690515
30
0
41
1
10
39.0254252860678
20
0.955903034260103
30
0
0
SPLINE
5
1A2
100
AcDbEntity
8
1
62
256
6
ByLayer
370
13
48
1
60
0
100
AcDbSpline
70
4
71
3
72
10
73
6
40
0
40
0
40
0
40
0
40
0.080482775131661
40
0.780898250503326
40
1
40
1
40
1
40
1
41
1.04
10
41.8986831024223
20
-1.30802178553136
30
0
41
1.04
10
41.8962102697118
20
-1.27608451407676
30
0
41
1.04
10
41.8721650499316
20
-0.958263065108757
30
0
41
1.04
10
41.840662564121
20
-0.455873075590564
30
0
41
1.04
10
41.8110724553157
20
0.0352372249939328
30
0
41
1.04
10
41.8039784896503
20
0.152257574570997
30
0
0
SPLINE
5
1A3
100
AcDbEntity
8
1
62
256
6
ByLayer
370
13
48
1
60
0
100
AcDbSpline
70
4
71
3
72
10
73
6
40
0
40
0
40
0
40
0
40
0.198494591326759
40
0.894879314389153
40
1
40
1
40
1
40
1
41
1
10
42.1093706550175
20
-1.43627581543237
30
0
41
1
10
42.1032732213963
20
-1.36284370456457
30
0
41
1
10
42.0756564304955
20
-1.0080627289507
30
0
41
1
10
42.0439716653719
20
-0.501713657222098
30
0
41
1
10
42.0180970955911
20
-0.074244382585249
30
0
41
1
10
42.014694414581
20
-0.0179937343369261
30
0
0
SPLINE
5
1A4
100
AcDbEntity
8
1
62
256
6
ByLayer
370
18
48
1
60
0
100
AcDbSpline
70
4
71
3
72
25
73
21
40
0
40
0
40
0
40
0
40
0.125
40
0.125
40
0.1875
40
0.1875
40
0.21875
40
0.21875
40
0.250000000000001
40
0.375000000000003
40
0.500000000000005
40
0.500000000000005
40
0.562500000000005
40
0.593750000000005
40
0.593750000000005
40
0.625000000000005
40
0.625000000000005
40
0.750000000000003
40
0.875000000000001
40
1
40
1
40
1
40
1
41
1
10
42.2843058526453
20
-0.211244993848965
30
0
41
1
10
42.288620104989
20
-0.298409423513135
30
0
41
1
10
42.2930278555998
20
-0.385237763194624
30
0
41
1
10
42.2997179839517
20
-0.514969940025907
30
0
41
1
10
42.3019613321583
20
-0.558128765774995
30
0
41
1
10
42.3053412344335
20
-0.622736647915644
30
0
41
1
10
42.3064688118296
20
-0.644220906409913
30
0
41
1
10
42.3087156018639
20
-0.686903453397008
30
0
41
1
10
42.3143193122025
20
-0.793028655670355
30
0
41
1
10
42.3242677959568
20
-0.978902403482095
30
0
41
1
10
42.3329436245093
20
-1.13695341799385
30
0
41
1
10
42.3394500166373
20
-1.25277288352712
30
0
41
1
10
42.3427039374611
20
-1.31000155896427
30
0
41
1
10
42.3459793801239
20
-1.36619016316351
30
0
41
1
10
42.3481707669912
20
-1.40341509704405
30
0
41
1
10
42.3492698838143
20
-1.42190253825166
30
0
41
1
10
42.3547603176922
20
-1.51321407768307
30
0
41
1
10
42.3635724348972
20
-1.65299550227655
30
0
41
1
10
42.3768093407054
20
-1.84428968685444
30
0
41
1
10
42.3856267857865
20
-1.95955200224836
30
0
41
1
10
42.3900406302825
20
-2.01401258876439
30
0
0
SPLINE
5
1A5
100
AcDbEntity
8
1
62
256
6
ByLayer
370
18
48
1
60
0
100
AcDbSpline
70
4
71
3
72
27
73
23
40
0
40
0
40
0
40
0
40
0.124999999999999
40
0.249999999999998
40
0.374999999999997
40
0.374999999999997
40
0.406249999999996
40
0.406249999999996
40
0.437499999999996
40
0.499999999999995
40
0.499999999999995
40
0.624999999999995
40
0.624999999999995
40
0.749999999999995
40
0.749999999999995
40
0.781249999999995
40
0.781249999999995
40
0.812499999999996
40
0.812499999999996
40
0.874999999999997
40
0.874999999999997
40
1
40
1
40
1
40
1
41
1
10
41.6309136363053
20
-1.47769341624397
30
0
41
1
10
41.6264839076218
20
-1.4054914177818
30
0
41
1
10
41.6176181897249
20
-1.25691399264451
30
0
41
1
10
41.6044935451787
20
-1.02189656456022
30
0
41
1
10
41.5958334673896
20
-0.857108764123524
30
0
41
1
10
41.5903991913867
20
-0.751498581941235
30
0
41
1
10
41.5893106331812
20
-0.730236014327375
30
0
41
1
10
41.5871419382131
20
-0.687696856837135
30
0
41
1
10
41.583896783759
20
-0.62377578705599
30
0
41
1
10
41.5806663394905
20
-0.559522071328871
30
0
41
1
10
41.5741987441041
20
-0.430579331875094
30
0
41
1
10
41.5698786042721
20
-0.344038188622562
30
0
41
1
10
41.5610646165107
20
-0.169813749608494
30
0
41
1
10
41.5565719637017
20
-0.0821304746766884
30
0
41
1
10
41.5509113534232
20
0.0282083374236493
30
0
41
1
10
41.5497768304555
20
0.0503129226862313
30
0
41
1
10
41.5475039022681
20
0.0945966218825731
30
0
41
1
10
41.5463644401912
20
0.116796347516271
30
0
41
1
10
41.5429606217791
20
0.183130952094899
30
0
41
1
10
41.5407052430794
20
0.227112562473877
30
0
41
1
10
41.5339836932762
20
0.358347615266553
30
0
41
1
10
41.5295636012336
20
0.444893207571397
30
0
41
1
10
41.5251923923577
20
0.53050859369381
30
0
0
SPLINE
5
1A6
100
AcDbEntity
8
1
62
256
6
ByLayer
370
18
48
1
60
0
100
AcDbSpline
70
4
71
3
72
28
73
24
40
0
40
0
40
0
40
0
40
0.125000000000001
40
0.125000000000001
40
0.187500000000001
40
0.187500000000001
40
0.218750000000001
40
0.218750000000001
40
0.250000000000002
40
0.375000000000003
40
0.375000000000003
40
0.500000000000004
40
0.500000000000004
40
0.562500000000005
40
0.593750000000005
40
0.593750000000005
40
0.625000000000005
40
0.625000000000005
40
0.750000000000003
40
0.750000000000003
40
0.875000000000002
40
0.875000000000002
40
1
40
1
40
1
40
1
41
1
10
42.471251746893
20
-2.06201695196117
30
0
41
1
10
42.4669100532126
20
-2.01044721620858
30
0
41
1
10
42.4627306718766
20
-1.9552613091287
30
0
41
1
10
42.4564691765184
20
-1.86697903886039
30
0
41
1
10
42.4543737055291
20
-1.83663295365662
30
0
41
1
10
42.4511988559299
20
-1.78970886825968
30
0
41
1
10
42.4501342012138
20
-1.77381047394238
30
0
41
1
10
42.4480042797638
20
-1.74170243142211
30
0
41
1
10
42.4426752653064
20
-1.66060744690881
30
0
41
1
10
42.4373044921335
20
-1.57545375865939
30
0
41
1
10
42.4286195899795
20
-1.43414381431614
30
0
41
1
10
42.4242322140892
20
-1.36095655438251
30
0
41
1
10
42.4175841647814
20
-1.24735165344103
30
0
41
1
10
42.4142437198468
20
-1.18959132081494
30
0
41
1
10
42.4108804165049
20
-1.13037173499637
30
0
41
1
10
42.4086333458062
20
-1.09056394557467
30
0
41
1
10
42.4075057160771
20
-1.07046621785355
30
0
41
1
10
42.4018798850213
20
-0.969579909983651
30
0
41
1
10
42.397422353782
20
-0.887658654653848
30
0
41
1
10
42.3885919789237
20
-0.721472256081455
30
0
41
1
10
42.3842200184527
20
-0.63720683777575
30
0
41
1
10
42.3755221556575
20
-0.466337546644354
30
0
41
1
10
42.3711974623562
20
-0.379733776162993
30
0
41
1
10
42.3668420911675
20
-0.291927862476967
30
0
0
SPLINE
5
1A7
100
AcDbEntity
8
1
62
256
6
ByLayer
370
18
48
1
60
0
100
AcDbSpline
70
4
71
3
72
38
73
34
40
0
40
0
40
0
40
0
40
0.0624999999999997
40
0.0624999999999997
40
0.0937499999999996
40
0.0937499999999996
40
0.109375
40
0.109375
40
0.125
40
0.125
40
0.1875
40
0.1875
40
0.21875
40
0.21875
40
0.25
40
0.25
40
0.375
40
0.375
40
0.5
40
0.5
40
0.5625
40
0.5625
40
0.625
40
0.625
40
0.75
40
0.75
40
0.875
40
0.875
40
0.90625
40
0.90625
40
0.9375
40
0.9375
40
1
40
1
40
1
40
1
41
1
10
47.2
20
1.60152818060698
30
0
41
1
10
47.2000000000001
20
1.55703958248617
30
0
41
1
10
47.2
20
1.51296492356599
30
0
41
1
10
47.2000000000001
20
1.44748706099938
30
0
41
1
10
47.2
20
1.42576724206165
30
0
41
1
10
47.2
20
1.39335242973004
30
0
41
1
10
47.2
20
1.3825614353114
30
0
41
1
10
47.2
20
1.36122007311096
30
0
41
1
10
47.2
20
1.35064817798303
30
0
41
1
10
47.2
20
1.29826790335551
30
0
41
1
10
47.2000000000001
20
1.25787305889546
30
0
41
1
10
47.2
20
1.19960744527097
30
0
41
1
10
47.2
20
1.18059778127377
30
0
41
1
10
47.2000000000001
20
1.14320666419792
30
0
41
1
10
47.2
20
1.12467674147885
30
0
41
1
10
47.2
20
1.03274461481229
30
0
41
1
10
47.2
20
0.962493246013054
30
0
41
1
10
47.2000000000001
20
0.828384941038792
30
0
41
1
10
47.2000000000001
20
0.76455083566978
30
0
41
1
10
47.2
20
0.673663927102098
30
0
41
1
10
47.2
20
0.644176151158007
30
0
41
1
10
47.2
20
0.586836445189221
30
0
41
1
10
47.2
20
0.558986009477167
30
0
41
1
10
47.2
20
0.478674751348137
30
0
41
1
10
47.2
20
0.429201082920116
30
0
41
1
10
47.2000000000001
20
0.338227798324397
30
0
41
1
10
47.1999999999999
20
0.296729390531425
30
0
41
1
10
47.2
20
0.249931446536635
30
0
41
1
10
47.2
20
0.240752934883403
30
0
41
1
10
47.2000000000001
20
0.223580965391363
30
0
41
1
10
47.2
20
0.215743290159594
30
0
41
1
10
47.2000000000001
20
0.194544013842148
30
0
41
1
10
47.2
20
0.183292906799693
30
0
41
1
10
47.2
20
0.174993905340273
30
0
0
SPLINE
5
1A8
100
AcDbEntity
8
1
62
256
6
ByLayer
370
18
48
1
60
0
100
AcDbSpline
70
4
71
3
72
16
73
12
40
0
40
0
40
0
40
0
40
0.125
40
0.125
40
0.250000000000001
40
0.250000000000001
40
0.500000000000001
40
0.500000000000001
40
0.75
40
0.75
40
1
40
1
40
1
40
1
41
1
10
46.7344310832928
20
2.06139228541105
30
0
41
1
10
46.7544061125875
20
2.04246792354775
30
0
41
1
10
46.7745309288607
20
2.02326694824609
30
0
41
1
10
46.8145326973206
20
1.98500836513148
30
0
41
1
10
46.8344301595867
20
1.96592031840484
30
0
41
1
10
46.8938337088648
20
1.90870100654132
30
0
41
1
10
46.9330529069766
20
1.87061318114422
30
0
41
1
10
47.0107191349995
20
1.79427870619747
30
0
41
1
10
47.0491685294454
20
1.75603049712291
30
0
41
1
10
47.1252371238856
20
1.67913487960766
30
0
41
1
10
47.1628643886152
20
1.64048183913522
30
0
41
1
10
47.2
20
1.60152818060698
30
0
0
SPLINE
5
1A9
100
AcDbEntity
8
1
62
256
6
ByLayer
370
18
48
1
60
0
100
AcDbSpline
70
4
71
3
72
8
73
4
40
0
40
0
40
0
40
0
40
1
40
1
40
1
40
1
41
1
10
46.7344310832928
20
2.06139228541107
30
0
41
1
10
46.6881499873903
20
2.06955285466589
30
0
41
1
10
46.6421169953463
20
2.07674489974104
30
0
41
1
10
46.5962831397187
20
2.08295839122496
30
0
0
SPLINE
5
1AA
100
AcDbEntity
8
1
62
256
6
ByLayer
370
18
48
1
60
0
100
AcDbSpline
70
4
71
3
72
8
73
4
40
0
40
0
40
0
40
0
40
1
40
1
40
1
40
1
41
1
10
46.5962831397186
20
2.08295839122479
30
0
41
1
10
46.5959798093948
20
2.08242407531444
30
0
41
1
10
46.5956764631079
20
2.08188966400579
30
0
41
1
10
46.5953731008123
20
2.08135515728358
30
0
0
SPLINE
5
1AB
100
AcDbEntity
8
1
62
256
6
ByLayer
370
18
48
1
60
0
100
AcDbSpline
70
4
71
3
72
26
73
22
40
0
40
0
40
0
40
0
40
0.124999999999937
40
0.124999999999937
40
0.249999999999874
40
0.249999999999874
40
0.374999999999811
40
0.374999999999811
40
0.43749999999983
40
0.43749999999983
40
0.499999999999849
40
0.499999999999849
40
0.624999999999886
40
0.624999999999886
40
0.687499999999905
40
0.687499999999905
40
0.749999999999923
40
0.749999999999923
40
0.874999999999962
40
0.874999999999962
40
1
40
1
40
1
40
1
41
1
10
46.5953731008091
20
2.08135515727835
30
0
41
1
10
46.5897246681311
20
2.07140294739884
30
0
41
1
10
46.5831653922377
20
2.0625834776763
30
0
41
1
10
46.5686188965963
20
2.04670167660532
30
0
41
1
10
46.5605549958825
20
2.03961356737381
30
0
41
1
10
46.5436127612265
20
2.0274808487853
30
0
41
1
10
46.5346975572459
20
2.02237834124301
30
0
41
1
10
46.5206836634798
20
2.01614568964078
30
0
41
1
10
46.515900949025
20
2.01430949385121
30
0
41
1
10
46.5062875895705
20
2.01118812415817
30
0
41
1
10
46.5014365811216
20
2.00989295440965
30
0
41
1
10
46.4867549835181
20
2.00681892256361
30
0
41
1
10
46.4767978878265
20
2.00583532658658
30
0
41
1
10
46.4615939050011
20
2.00625650986817
30
0
41
1
10
46.4564788723553
20
2.00672236754772
30
0
41
1
10
46.4464019628444
20
2.00834494936683
30
0
41
1
10
46.4414105095123
20
2.00950071714857
30
0
41
1
10
46.4266022199591
20
2.01412222047847
30
0
41
1
10
46.4168546117687
20
2.01880970975446
30
0
41
1
10
46.3991926845601
20
2.03168517857861
30
0
41
1
10
46.3910812318878
20
2.04003135892032
30
0
41
1
10
46.3846335654019
20
2.05019734993382
30
0
0
SPLINE
5
1AC
100
AcDbEntity
8
1
62
256
6
ByLayer
370
18
48
1
60
0
100
AcDbSpline
70
4
71
3
72
8
73
4
40
0
40
0
40
0
40
0
40
1
40
1
40
1
40
1
41
1
10
46.3846335653992
20
2.0501973499382
30
0
41
1
10
46.3725384404644
20
2.06926764950774
30
0
41
1
10
46.3604599891116
20
2.08822040672183
30
0
41
1
10
46.3483968020215
20
2.10705615370776
30
0
0
SPLINE
5
1AD
100
AcDbEntity
8
1
62
256
6
ByLayer
370
18
48
1
60
0
100
AcDbSpline
70
4
71
3
72
8
73
4
40
0
40
0
40
0
40
0
40
1
40
1
40
1
40
1
41
1
10
46.3483968020214
20
2.10705615370773
30
0
41
1
10
46.1855627126968
20
2.11650409868955
30
0
41
1
10
46.0244222612744
20
2.11306069108954
30
0
41
1
10
45.8636774188246
20
2.09616071595775
30
0
0
SPLINE
5
1AE
100
AcDbEntity
8
1
62
256
6
ByLayer
370
18
48
1
60
0
100
AcDbSpline
70
4
71
3
72
10
73
6
40
0
40
0
40
0
40
0
40
0.5
40
0.5
40
1
40
1
40
1
40
1
41
1
10
37.8652123821676
20
-1.86492059762116
30
0
41
1
10
37.827480667011
20
-1.83195086120295
30
0
41
1
10
37.7873961077659
20
-1.80340503616793
30
0
41
1
10
37.7037175993383
20
-1.75497246177665
30
0
41
1
10
37.6601492876614
20
-1.73506094898096
30
0
41
1
10
37.6152123821682
20
-1.71983335515216
30
0
0
SPLINE
5
1AF
100
AcDbEntity
8
1
62
256
6
ByLayer
370
18
48
1
60
0
100
AcDbSpline
70
4
71
3
72
81
73
77
40
0
40
0
40
0
40
0
40
0.0634065177998729
40
0.0634065177998729
40
0.0951097766998094
40
0.0951097766998094
40
0.126813035599746
40
0.126813035599746
40
0.158516294499682
40
0.158516294499682
40
0.174367923949651
40
0.174367923949651
40
0.190219553399619
40
0.190219553399619
40
0.221922812299555
40
0.221922812299555
40
0.237774441749523
40
0.237774441749523
40
0.253626071199492
40
0.253626071199492
40
0.317032588999364
40
0.317032588999364
40
0.332884218449333
40
0.332884218449333
40
0.348735847899301
40
0.348735847899301
40
0.364587477349269
40
0.364587477349269
40
0.380439106799237
40
0.380439106799237
40
0.443845624599105
40
0.443845624599105
40
0.475548883499039
40
0.475548883499039
40
0.491400512949007
40
0.49932632767399
40
0.49932632767399
40
0.507252142398974
40
0.507252142398974
40
0.523103771848938
40
0.523103771848938
40
0.538955401298903
40
0.538955401298903
40
0.570658660198833
40
0.570658660198833
40
0.634065177998692
40
0.634065177998692
40
0.665768436898621
40
0.665768436898621
40
0.673694251623604
40
0.673694251623604
40
0.681620066348587
40
0.697471695798554
40
0.697471695798554
40
0.760878213598421
40
0.760878213598421
40
0.792581472498355
40
0.792581472498355
40
0.824284731398289
40
0.824284731398289
40
0.840136360848256
40
0.840136360848256
40
0.855987990298223
40
0.855987990298223
40
0.887691249198159
40
0.887691249198159
40
0.919394508098095
40
0.919394508098095
40
0.95109776699803
40
0.95109776699803
40
0.966949396447998
40
0.966949396447998
40
0.982801025897966
40
0.998652655347934
40
0.998652655347934
40
1
40
1
40
1
40
1
41
1
10
37.6152123821676
20
-1.71983335515381
30
0
41
1
10
37.4271203878439
20
-1.6560953549386
30
0
41
1
10
37.2411699292088
20
-1.57942317858809
30
0
41
1
10
36.9622916704525
20
-1.44824774099067
30
0
41
1
10
36.8692666803468
20
-1.40190801907318
30
0
41
1
10
36.683273373997
20
-1.30386358517092
30
0
41
1
10
36.5903352626239
20
-1.25211726510565
30
0
41
1
10
36.404064416777
20
-1.14358813945839
30
0
41
1
10
36.3107419204335
20
-1.08679464209126
30
0
41
1
10
36.1700964743466
20
-0.998129521301337
30
0
41
1
10
36.1230263749207
20
-0.967945403926649
30
0
41
1
10
36.0291932825298
20
-0.906883995447316
30
0
41
1
10
35.9823851111855
20
-0.875980168921103
30
0
41
1
10
35.8421853134319
20
-0.782285939104781
30
0
41
1
10
35.7490067946921
20
-0.718527255161348
30
0
41
1
10
35.6093011839562
20
-0.621457094652129
30
0
41
1
10
35.5627360919818
20
-0.588871143164425
30
0
41
1
10
35.4697166514855
20
-0.523107757952175
30
0
41
1
10
35.4232556919496
20
-0.489938500857193
30
0
41
1
10
35.1910526971652
20
-0.322835684940117
30
0
41
1
10
35.0056454749769
20
-0.185088098531452
30
0
41
1
10
34.7718189036536
20
-0.0110806257385434
30
0
41
1
10
34.7249490028724
20
0.0238100730563247
30
0
41
1
10
34.6309233661369
20
0.0936672890627506
30
0
41
1
10
34.5839061309404
20
0.128527700034027
30
0
41
1
10
34.4901389937211
20
0.197790064291752
30
0
41
1
10
34.4433371729044
20
0.232230821454891
30
0
41
1
10
34.3498371841491
20
0.300659391891657
30
0
41
1
10
34.3031167036543
20
0.334617101156056
30
0
41
1
10
34.0699022962397
20
0.503469154439017
30
0
41
1
10
33.8847288826057
20
0.635751127101997
30
0
41
1
10
33.6062346214554
20
0.826188282366843
30
0
41
1
10
33.5132765804225
20
0.888331471286733
30
0
41
1
10
33.3732488593909
20
0.979022486544551
30
0
41
1
10
33.3030884881846
20
1.02373867057398
30
0
41
1
10
33.2326371656104
20
1.06741955038791
30
0
41
1
10
33.1855968526073
20
1.0962997600399
30
0
41
1
10
33.1620308911712
20
1.1106252480098
30
0
41
1
10
33.091460058081
20
1.15307335452181
30
0
41
1
10
33.044484852028
20
1.18069739196554
30
0
41
1
10
32.950710715506
20
1.23466274638724
30
0
41
1
10
32.9039541347329
20
1.2610490582945
30
0
41
1
10
32.7639441012625
20
1.33828865276729
30
0
41
1
10
32.6709865352537
20
1.38726080250493
30
0
41
1
10
32.3925738493735
20
1.5259682009322
30
0
41
1
10
32.2075488721241
20
1.60744904395554
30
0
41
1
10
31.9278825894005
20
1.71060995929542
30
0
41
1
10
31.8342816183472
20
1.74180979011803
30
0
41
1
10
31.7165694582652
20
1.77662879192826
30
0
41
1
10
31.6929703308412
20
1.78338904021143
30
0
41
1
10
31.645853983596
20
1.79645933987604
30
0
41
1
10
31.5752930952514
20
1.8153986871562
30
0
41
1
10
31.5050430941479
20
1.83233233506601
30
0
41
1
10
31.2714011982655
20
1.88427753638175
30
0
41
1
10
31.0862022104626
20
1.91142871835058
30
0
41
1
10
30.8080254194113
20
1.93003195044665
30
0
41
1
10
30.7152294892599
20
1.93254800504772
30
0
41
1
10
30.5289721245033
20
1.93018559095256
30
0
41
1
10
30.4354322323306
20
1.92532679404548
30
0
41
1
10
30.2946426562496
20
1.91242532232909
30
0
41
1
10
30.2476006677299
20
1.90718188134141
30
0
41
1
10
30.1534338320862
20
1.89480373768811
30
0
41
1
10
30.1065031804105
20
1.88769492528434
30
0
41
1
10
29.9660686047089
20
1.86366234774175
30
0
41
1
10
29.8729181592072
20
1.84403219606446
30
0
41
1
10
29.6870234944741
20
1.79787630642173
30
0
41
1
10
29.5942861755576
20
1.77134862116043
30
0
41
1
10
29.4087559727878
20
1.71171390748194
30
0
41
1
10
29.3159685476317
20
1.67860071978743
30
0
41
1
10
29.1763016556845
20
1.62432192309993
30
0
41
1
10
29.1296721667376
20
1.60545812641232
30
0
41
1
10
29.0363454173548
20
1.5661175879867
30
0
41
1
10
28.9429317326625
20
1.52517666447159
30
0
41
1
10
28.8492540514163
20
1.48105733780096
30
0
41
1
10
28.7983297270772
20
1.45627290464338
30
0
41
1
10
28.794339103662
20
1.45432535327157
30
0
41
1
10
28.7903474261234
20
1.45237196852492
30
0
0
SPLINE
5
1B0
100
AcDbEntity
8
1
62
256
6
ByLayer
370
18
48
1
60
0
100
AcDbSpline
70
4
71
3
72
106
73
102
40
0
40
0
40
0
40
0
40
0.0332739955920349
40
0.0332739955920349
40
0.0665479911840699
40
0.0665479911840699
40
0.0831849889800867
40
0.0831849889800867
40
0.0998219867761035
40
0.0998219867761035
40
0.133095982368136
40
0.133095982368136
40
0.149732980164152
40
0.149732980164152
40
0.166369977960169
40
0.183006975756186
40
0.183006975756186
40
0.199643973552203
40
0.199643973552203
40
0.21628097134822
40
0.21628097134822
40
0.232917969144236
40
0.232917969144236
40
0.26619196473627
40
0.26619196473627
40
0.282828962532286
40
0.282828962532286
40
0.299465960328302
40
0.299465960328302
40
0.316102958124318
40
0.316102958124318
40
0.332739955920334
40
0.332739955920334
40
0.366013951512366
40
0.366013951512366
40
0.399287947104399
40
0.399287947104399
40
0.432561942696431
40
0.432561942696431
40
0.440880441594439
40
0.440880441594439
40
0.449198940492446
40
0.449198940492446
40
0.457517439390454
40
0.457517439390454
40
0.465835938288462
40
0.465835938288462
40
0.499109933880489
40
0.499109933880489
40
0.532383929472515
40
0.532383929472515
40
0.565657925064542
40
0.565657925064542
40
0.582294922860556
40
0.582294922860556
40
0.590613421758563
40
0.590613421758563
40
0.59893192065657
40
0.59893192065657
40
0.615568918452585
40
0.615568918452585
40
0.632205916248601
40
0.632205916248601
40
0.66547991184063
40
0.66547991184063
40
0.69875390743266
40
0.69875390743266
40
0.715390905228674
40
0.715390905228674
40
0.723709404126682
40
0.723709404126682
40
0.73202790302469
40
0.73202790302469
40
0.748664900820706
40
0.748664900820706
40
0.756983399718714
40
0.756983399718714
40
0.765301898616722
40
0.765301898616722
40
0.798575894208756
40
0.798575894208756
40
0.831849889800789
40
0.831849889800789
40
0.848486887596806
40
0.848486887596806
40
0.865123885392823
40
0.865123885392823
40
0.898397880984855
40
0.898397880984855
40
0.906716379882863
40
0.906716379882863
40
0.915034878780871
40
0.931671876576887
40
0.931671876576887
40
0.964945872168919
40
0.964945872168919
40
0.981582869964935
40
0.981582869964935
40
0.99821986776095
40
0.99821986776095
40
1
40
1
40
1
40
1
41
1
10
27.2301687399081
20
1.91822478177022
30
0
41
1
10
27.3392127505706
20
1.9087932706862
30
0
41
1
10
27.4477307324704
20
1.89448082290173
30
0
41
1
10
27.6638534166926
20
1.85627331044054
30
0
41
1
10
27.7714995317121
20
1.83239330536651
30
0
41
1
10
27.9323938307721
20
1.7892803058958
30
0
41
1
10
27.9860470056857
20
1.77374559432656
30
0
41
1
10
28.0936215567024
20
1.7404881149443
30
0
41
1
10
28.1475166482989
20
1.72275285286437
30
0
41
1
10
28.3095787623616
20
1.66627793786654
30
0
41
1
10
28.4181424863694
20
1.62429192295477
30
0
41
1
10
28.5819425390889
20
1.554841430625
30
0
41
1
10
28.6367549331565
20
1.53057927752261
30
0
41
1
10
28.7458508600818
20
1.48030427265743
30
0
41
1
10
28.8546266990651
20
1.42819567996588
30
0
41
1
10
28.9627907049779
20
1.372472112628
30
0
41
1
10
29.0706378992455
20
1.31492568937154
30
0
41
1
10
29.1244028187874
20
1.28523933125271
30
0
41
1
10
29.2317721332482
20
1.22418914599109
30
0
41
1
10
29.2854126823955
20
1.19286195902009
30
0
41
1
10
29.3928951106617
20
1.12893051119821
30
0
41
1
10
29.4467091909856
20
1.09629811041862
30
0
41
1
10
29.6083943274198
20
0.996450413040122
30
0
41
1
10
29.7165075261144
20
0.927287203200279
30
0
41
1
10
29.8794115786306
20
0.819925343802083
30
0
41
1
10
29.9338319076811
20
0.783529996699485
30
0
41
1
10
30.0429433136467
20
0.709543002268987
30
0
41
1
10
30.0977386058927
20
0.671878401449533
30
0
41
1
10
30.2068114104789
20
0.595887556804229
30
0
41
1
10
30.261143551299
20
0.557520940131155
30
0
41
1
10
30.3694013071451
20
0.480048129253788
30
0
41
1
10
30.4233091862887
20
0.440917936528678
30
0
41
1
10
30.5845369670012
20
0.322569043898483
30
0
41
1
10
30.6921196684942
20
0.243419815610935
30
0
41
1
10
30.9075451023466
20
0.0847387788402614
30
0
41
1
10
31.0154241140276
20
0.005255908418377
30
0
41
1
10
31.2318265082508
20
-0.15356229915119
30
0
41
1
10
31.3403476846157
20
-0.232899784243614
30
0
41
1
10
31.4763682002831
20
-0.332040946682923
30
0
41
1
10
31.5035925266648
20
-0.351865287477381
30
0
41
1
10
31.5580954441167
20
-0.391487632272515
30
0
41
1
10
31.5853995609714
20
-0.411303308076214
30
0
41
1
10
31.6398674873951
20
-0.45074376070994
30
0
41
1
10
31.6670447307438
20
-0.47038552279372
30
0
41
1
10
31.7212482930946
20
-0.509562653345199
30
0
41
1
10
31.7482818618612
20
-0.529087586760994
30
0
41
1
10
31.8834014387156
20
-0.626002397495313
30
0
41
1
10
31.9912491943687
20
-0.701397974774011
30
0
41
1
10
32.2069089651421
20
-0.84751844708822
30
0
41
1
10
32.3147430040599
20
-0.918218099862457
30
0
41
1
10
32.5306407314361
20
-1.05469424428367
30
0
41
1
10
32.6387084938094
20
-1.12046677234071
30
0
41
1
10
32.8011186295717
20
-1.2152057055618
30
0
41
1
10
32.855301481937
20
-1.24613672378243
30
0
41
1
10
32.9366460406289
20
-1.29153450636298
30
0
41
1
10
32.9637745385496
20
-1.30649852848808
30
0
41
1
10
33.0180474057625
20
-1.33609552814303
30
0
41
1
10
33.0451912835516
20
-1.35074750501065
30
0
41
1
10
33.1267372039193
20
-1.39398541256418
30
0
41
1
10
33.1810725132678
20
-1.42166762291418
30
0
41
1
10
33.2895738819018
20
-1.47493783229518
30
0
41
1
10
33.3437326982369
20
-1.50052984645174
30
0
41
1
10
33.5060540584599
20
-1.57413806023217
30
0
41
1
10
33.6140820774675
20
-1.61897781708208
30
0
41
1
10
33.8300768799879
20
-1.70015889503287
30
0
41
1
10
33.9380066053214
20
-1.73653111697524
30
0
41
1
10
34.0998710134112
20
-1.78461923875295
30
0
41
1
10
34.1538244631632
20
-1.79956576773071
30
0
41
1
10
34.2347532706204
20
-1.82032312240332
30
0
41
1
10
34.2617291261224
20
-1.82696506094828
30
0
41
1
10
34.3156781623837
20
-1.83968630800507
30
0
41
1
10
34.3426445890943
20
-1.84576753360136
30
0
41
1
10
34.4237563287105
20
-1.86306867480596
30
0
41
1
10
34.4780391808445
20
-1.87338075197593
30
0
41
1
10
34.5597874849579
20
-1.8870063354708
30
0
41
1
10
34.5870633147287
20
-1.89123446508626
30
0
41
1
10
34.641520206754
20
-1.89904342009214
30
0
41
1
10
34.6687245373483
20
-1.90262819816874
30
0
41
1
10
34.8046482503628
20
-1.91897059440328
30
0
41
1
10
34.9130877837139
20
-1.92699897473827
30
0
41
1
10
35.1294411944834
20
-1.93328134802721
30
0
41
1
10
35.2373781883572
20
-1.93153081472519
30
0
41
1
10
35.3990276732444
20
-1.92152732569602
30
0
41
1
10
35.4528654890485
20
-1.91696073537059
30
0
41
1
10
35.5604294860678
20
-1.90531064940191
30
0
41
1
10
35.6140867191904
20
-1.89820386083127
30
0
41
1
10
35.7756503731642
20
-1.87322045947491
30
0
41
1
10
35.8840231241973
20
-1.8516893055932
30
0
41
1
10
36.0204813329716
20
-1.81872380768922
30
0
41
1
10
36.0478413608992
20
-1.81182324466852
30
0
41
1
10
36.1024424589399
20
-1.79747839260068
30
0
41
1
10
36.1842420977834
20
-1.77512721119035
30
0
41
1
10
36.2657641816563
20
-1.75031981365311
30
0
41
1
10
36.4284742805302
20
-1.69750445920465
30
0
41
1
10
36.5364847549511
20
-1.65802669440569
30
0
41
1
10
36.697853770984
20
-1.59245433860883
30
0
41
1
10
36.7515495221235
20
-1.56954512950605
30
0
41
1
10
36.858797686923
20
-1.52163870521221
30
0
41
1
10
36.9122927039937
20
-1.49659048604019
30
0
41
1
10
36.9715754353578
20
-1.46781445072637
30
0
41
1
10
36.9773070460804
20
-1.46502311439647
30
0
41
1
10
36.9830402135848
20
-1.46222183260608
30
0
0
SPLINE
5
1B1
100
AcDbEntity
8
1
62
256
6
ByLayer
370
18
48
1
60
0
100
AcDbSpline
70
4
71
3
72
14
73
10
40
0
40
0
40
0
40
0
40
0.125000000000014
40
0.125000000000014
40
0.250000000000029
40
0.250000000000029
40
0.500000000000019
40
0.500000000000019
40
1
40
1
40
1
40
1
41
1
10
45.9936370778452
20
1.17796246286718
30
0
41
1
10
46.0190425573909
20
1.15628204160032
30
0
41
1
10
46.0445410141536
20
1.13449202741111
30
0
41
1
10
46.0957329578679
20
1.09070159823398
30
0
41
1
10
46.1214069293231
20
1.06871701548317
30
0
41
1
10
46.1983849811192
20
1.00276673122966
30
0
41
1
10
46.249756310523
20
0.958711578778207
30
0
41
1
10
46.4041619630854
20
0.826445610254098
30
0
41
1
10
46.507492607138
20
0.73813863142118
30
0
41
1
10
46.6115162629428
20
0.65007290208419
30
0
0
SPLINE
5
1B2
100
AcDbEntity
8
1
62
256
6
ByLayer
370
18
48
1
60
0
100
AcDbSpline
70
4
71
3
72
12
73
8
40
0
40
0
40
0
40
0
40
0.500000000000001
40
0.500000000000001
40
0.75
40
0.75
40
1
40
1
40
1
40
1
41
1
10
46.6115162629445
20
0.65007290208726
30
0
41
1
10
46.6232908849126
20
0.638055186964209
30
0
41
1
10
46.6357889594828
20
0.626548836051995
30
0
41
1
10
46.6554959620761
20
0.609948326583805
30
0
41
1
10
46.6622127855874
20
0.604543687892487
30
0
41
1
10
46.6756191264046
20
0.594227290824222
30
0
41
1
10
46.6823504803826
20
0.589279544681602
30
0
41
1
10
46.6891051240905
20
0.584544320971105
30
0
0
SPLINE
5
1B3
100
AcDbEntity
8
1
62
256
6
ByLayer
370
18
48
1
60
0
100
AcDbSpline
70
4
71
3
72
8
73
4
40
0
40
0
40
0
40
0
40
1
40
1
40
1
40
1
41
1
10
46.6891051240905
20
0.584544320971332
30
0
41
1
10
46.7189079052937
20
0.559440236469356
30
0
41
1
10
46.7487782015922
20
0.534368805319787
30
0
41
1
10
46.7787483245588
20
0.509367212963809
30
0
0
SPLINE
5
1B4
100
AcDbEntity
8
1
62
256
6
ByLayer
370
18
48
1
60
0
100
AcDbSpline
70
4
71
3
72
18
73
14
40
0
40
0
40
0
40
0
40
0.125000000000005
40
0.125000000000005
40
0.25000000000001
40
0.25000000000001
40
0.500000000000019
40
0.500000000000019
40
0.750000000000029
40
0.750000000000029
40
0.875000000000014
40
0.875000000000014
40
1
40
1
40
1
40
1
41
1
10
47.1999999999998
20
0.174993905340273
30
0
41
1
10
47.1811785031388
20
0.183110150086861
30
0
41
1
10
47.1624593009323
20
0.192165827590742
30
0
41
1
10
47.1251786162299
20
0.212023272149679
30
0
41
1
10
47.1065832922813
20
0.22285132498476
30
0
41
1
10
47.051688433399
20
0.257377678053217
30
0
41
1
10
47.0160407501924
20
0.283219065905058
30
0
41
1
10
46.9461572590304
20
0.339832977026276
30
0
41
1
10
46.9119271953758
20
0.370620159877347
30
0
41
1
10
46.8613701042582
20
0.420190906980139
30
0
41
1
10
46.8446496747581
20
0.437280810655352
30
0
41
1
10
46.8114395601206
20
0.472576268373842
30
0
41
1
10
46.794954242072
20
0.490792291317717
30
0
41
1
10
46.7787483245589
20
0.509367212963809
30
0
0
SPLINE
5
1B5
100
AcDbEntity
8
1
62
256
6
ByLayer
370
18
48
1
60
0
100
AcDbSpline
70
4
71
3
72
8
73
4
40
0
40
0
40
0
40
0
40
1
40
1
40
1
40
1
41
1
10
44.0725592815076
20
-2.55348133781203
30
0
41
1
10
44.0864260845636
20
-2.55369859088853
30
0
41
1
10
44.1002932215686
20
-2.55380724063895
30
0
41
1
10
44.1141615795532
20
-2.55380724060206
30
0
0
SPLINE
5
1B6
100
AcDbEntity
8
1
62
256
6
ByLayer
370
18
48
1
60
0
100
AcDbSpline
70
4
71
3
72
8
73
4
40
0
40
0
40
0
40
0
40
1
40
1
40
1
40
1
41
1
10
43.2304371923376
20
-2.40805741586155
30
0
41
1
10
43.2581393958985
20
-2.41710355285534
30
0
41
1
10
43.2858402222789
20
-2.42574208479473
30
0
41
1
10
43.3135459197578
20
-2.43397035034752
30
0
0
SPLINE
5
1B7
100
AcDbEntity
8
1
62
256
6
ByLayer
370
18
48
1
60
0
100
AcDbSpline
70
4
71
3
72
10
73
6
40
0
40
0
40
0
40
0
40
0.5
40
0.5
40
1
40
1
40
1
40
1
41
1
10
42.7397581947229
20
-1.76194805250668
30
0
41
1
10
42.6944882614305
20
-1.81770959149438
30
0
41
1
10
42.6494284497045
20
-1.8706559410582
30
0
41
1
10
42.5598616528375
20
-1.97076156910691
30
0
41
1
10
42.5154038337546
20
-2.01786709150122
30
0
41
1
10
42.471251746893
20
-2.06201695196117
30
0
0
SPLINE
5
1B8
100
AcDbEntity
8
1
62
256
6
ByLayer
370
18
48
1
60
0
100
AcDbSpline
70
4
71
3
72
8
73
4
40
0
40
0
40
0
40
0
40
1
40
1
40
1
40
1
41
1
10
42.3900406302731
20
-2.01401258876695
30
0
41
1
10
42.4171079875918
20
-2.03034148577325
30
0
41
1
10
42.444176178744
20
-2.0463443876144
30
0
41
1
10
42.471251746893
20
-2.06201695196117
30
0
0
SPLINE
5
1B9
100
AcDbEntity
8
1
62
256
6
ByLayer
370
18
48
1
60
0
100
AcDbSpline
70
4
71
3
72
10
73
6
40
0
40
0
40
0
40
0
40
0.5
40
0.5
40
1
40
1
40
1
40
1
41
1
10
42.3900406302746
20
-2.01401258875506
30
0
41
1
10
42.3439346724044
20
-1.91707314812663
30
0
41
1
10
42.2975482851395
20
-1.82030599245678
30
0
41
1
10
42.2039325254011
20
-1.62732586352007
30
0
41
1
10
42.1568650917085
20
-1.53144505401548
30
0
41
1
10
42.1093706550179
20
-1.43627581543689
30
0
0
SPLINE
5
1BA
100
AcDbEntity
8
1
62
256
6
ByLayer
370
18
48
1
60
0
100
AcDbSpline
70
4
71
3
72
26
73
22
40
0
40
0
40
0
40
0
40
0.125000000000117
40
0.125000000000117
40
0.250000000000233
40
0.250000000000233
40
0.37500000000035
40
0.37500000000035
40
0.437500000000358
40
0.437500000000358
40
0.500000000000367
40
0.500000000000367
40
0.625000000000276
40
0.625000000000276
40
0.68750000000023
40
0.68750000000023
40
0.750000000000184
40
0.750000000000184
40
0.875000000000092
40
0.875000000000092
40
1
40
1
40
1
40
1
41
1
10
42.1093706550137
20
-1.43627581542844
30
0
41
1
10
42.1037240934003
20
-1.4249612487819
30
0
41
1
10
42.0971656503361
20
-1.41421730227492
30
0
41
1
10
42.0826142692683
20
-1.39362806238572
30
0
41
1
10
42.0745428149881
20
-1.38372297103865
30
0
41
1
10
42.0575787170172
20
-1.36533883717121
30
0
41
1
10
42.0486504552221
20
-1.3567930044035
30
0
41
1
10
42.0346174637568
20
-1.34491432334042
30
0
41
1
10
42.0298282156958
20
-1.34111290542711
30
0
41
1
10
42.0202032568781
20
-1.33396214399349
30
0
41
1
10
42.0153470258795
20
-1.33059462244245
30
0
41
1
10
42.000651885349
20
-1.32112102314949
30
0
41
1
10
41.9906884455994
20
-1.31563194864438
30
0
41
1
10
41.9754819572458
20
-1.30883817045191
30
0
41
1
10
41.9703710410026
20
-1.30682156531859
30
0
41
1
10
41.9603051261866
20
-1.3034208280105
30
0
41
1
10
41.9553206512676
20
-1.30202218551435
30
0
41
1
10
41.940537482205
20
-1.29882906236401
30
0
41
1
10
41.9308136235958
20
-1.29804562980766
30
0
41
1
10
41.913200773905
20
-1.30009114955735
30
0
41
1
10
41.9051145894566
20
-1.3029522089378
30
0
41
1
10
41.8986831024229
20
-1.30802178553822
30
0
0
SPLINE
5
1BB
100
AcDbEntity
8
1
62
256
6
ByLayer
370
18
48
1
60
0
100
AcDbSpline
70
4
71
3
72
8
73
4
40
0
40
0
40
0
40
0
40
1
40
1
40
1
40
1
41
1
10
41.5486724644328
20
-1.41120034699679
30
0
41
1
10
41.5760821679552
20
-1.43360102364008
30
0
41
1
10
41.6034936870776
20
-1.45576729932853
30
0
41
1
10
41.6309136363053
20
-1.47769341624397
30
0
0
SPLINE
5
1BC
100
AcDbEntity
8
1
62
256
6
ByLayer
370
18
48
1
60
0
100
AcDbSpline
70
4
71
3
72
8
73
4
40
0
40
0
40
0
40
0
40
1
40
1
40
1
40
1
41
1
10
39.0254252860676
20
0.955903034260103
30
0
41
1
10
39.052660571814
20
0.931140853054131
30
0
41
1
10
39.0798901891964
20
0.906229032453695
30
0
41
1
10
39.107120358779
20
0.881173643235059
30
0
0
SPLINE
5
1BD
100
AcDbEntity
8
1
62
256
6
ByLayer
370
18
48
1
60
0
100
AcDbSpline
70
4
71
3
72
14
73
10
40
0
40
0
40
0
40
0
40
0.499999999999992
40
0.499999999999992
40
0.749999999999987
40
0.749999999999987
40
0.874999999999994
40
0.874999999999994
40
1
40
1
40
1
40
1
41
1
10
38.4097113982124
20
1.38790233324167
30
0
41
1
10
38.3210028962888
20
1.43043080359311
30
0
41
1
10
38.2316258080925
20
1.46575392538074
30
0
41
1
10
38.0957070738726
20
1.50756748765696
30
0
41
1
10
38.0501100385278
20
1.51966618417433
30
0
41
1
10
37.9811878354335
20
1.53500725498199
30
0
41
1
10
37.9581245037573
20
1.53965117668932
30
0
41
1
10
37.911814300202
20
1.5480014076733
30
0
41
1
10
37.8885983107071
20
1.55174344685798
30
0
41
1
10
37.8652123821675
20
1.55492849917658
30
0
0
SPLINE
5
1BE
100
AcDbEntity
8
1
62
256
6
ByLayer
370
18
48
1
60
0
100
AcDbSpline
70
4
71
3
72
10
73
6
40
0
40
0
40
0
40
0
40
0.5
40
0.5
40
1
40
1
40
1
40
1
41
1
10
37.8652123821676
20
1.55492849917656
30
0
41
1
10
37.827480667011
20
1.56006737944986
30
0
41
1
10
37.7873961077659
20
1.56770730987083
30
0
41
1
10
37.7037175993382
20
1.58935912112926
30
0
41
1
10
37.6601492876614
20
1.60337379936527
30
0
41
1
10
37.6152123821682
20
1.62154894760451
30
0
0
SPLINE
5
1BF
100
AcDbEntity
8
1
62
256
6
ByLayer
370
18
48
1
60
0
100
AcDbSpline
70
4
71
3
72
34
73
30
40
0
40
0
40
0
40
0
40
0.166666666666662
40
0.166666666666662
40
0.249999999999993
40
0.249999999999993
40
0.333333333333324
40
0.333333333333324
40
0.416666666666655
40
0.416666666666655
40
0.458333333333322
40
0.458333333333322
40
0.49999999999999
40
0.49999999999999
40
0.583333333333325
40
0.583333333333325
40
0.62499999999999
40
0.62499999999999
40
0.666666666666656
40
0.666666666666656
40
0.83333333333333
40
0.83333333333333
40
0.874999999999997
40
0.874999999999997
40
0.916666666666665
40
0.916666666666665
40
0.958333333333332
40
0.958333333333332
40
1
40
1
40
1
40
1
41
1
10
37.6152123821676
20
1.62154894760636
30
0
41
1
10
37.4271203878742
20
1.69762449934683
30
0
41
1
10
37.2411699292689
20
1.76014346842993
30
0
41
1
10
36.9622916705576
20
1.83270043894103
30
0
41
1
10
36.869266680467
20
1.85333501486502
30
0
41
1
10
36.6832733741472
20
1.88762850511074
30
0
41
1
10
36.5903352627891
20
1.90128172871928
30
0
41
1
10
36.4040644169727
20
1.92131131847373
30
0
41
1
10
36.3107419206448
20
1.92769025006953
30
0
41
1
10
36.1700964745816
20
1.93160469121483
30
0
41
1
10
36.1230263751636
20
1.93196424820209
30
0
41
1
10
36.029193282787
20
1.93078397263588
30
0
41
1
10
35.9823851114499
20
1.92924874512965
30
0
41
1
10
35.8421853137181
20
1.92185963096969
30
0
41
1
10
35.7490067949931
20
1.9132230843683
30
0
41
1
10
35.6093011842796
20
1.89492674123068
30
0
41
1
10
35.5627360923125
20
1.88794146371632
30
0
41
1
10
35.4697166518308
20
1.87217694193049
30
0
41
1
10
35.4232556923022
20
1.86339788620074
30
0
41
1
10
35.1910526975548
20
1.81504499509515
30
0
41
1
10
35.0056454753972
20
1.76206569390692
30
0
41
1
10
34.7718189041149
20
1.6786423952428
30
0
41
1
10
34.7249490033421
20
1.66109958253338
30
0
41
1
10
34.6309233666237
20
1.62433046301837
30
0
41
1
10
34.5839061314331
20
1.60515827093181
30
0
41
1
10
34.4901389942277
20
1.56544239249902
30
0
41
1
10
34.4433371734181
20
1.5448783936975
30
0
41
1
10
34.3498371846772
20
1.50241097692623
30
0
41
1
10
34.3031167041898
20
1.48052789553037
30
0
41
1
10
34.2564738227138
20
1.45796085727488
30
0
0
SPLINE
5
1C0
100
AcDbEntity
8
1
62
256
6
ByLayer
370
18
48
1
60
0
100
AcDbSpline
70
4
71
3
72
61
73
57
40
0
40
0
40
0
40
0
40
0.0063963592305924
40
0.0063963592305924
40
0.0684965867786882
40
0.0684965867786882
40
0.0995467005527359
40
0.0995467005527359
40
0.115071757439759
40
0.115071757439759
40
0.130596814326781
40
0.130596814326781
40
0.161646928100824
40
0.161646928100824
40
0.192697041874867
40
0.192697041874867
40
0.254797269422952
40
0.254797269422952
40
0.316897496971037
40
0.316897496971037
40
0.34794761074508
40
0.34794761074508
40
0.363472667632103
40
0.363472667632103
40
0.378997724519125
40
0.378997724519125
40
0.410047838293171
40
0.410047838293171
40
0.425572895180193
40
0.425572895180193
40
0.441097952067216
40
0.441097952067216
40
0.503198179615304
40
0.503198179615304
40
0.565298407163393
40
0.565298407163393
40
0.596348520937438
40
0.596348520937438
40
0.627398634711483
40
0.627398634711483
40
0.689498862259574
40
0.689498862259574
40
0.705023919146597
40
0.705023919146597
40
0.72054897603362
40
0.751599089807662
40
0.751599089807662
40
0.813699317355745
40
0.813699317355745
40
0.844749431129787
40
0.844749431129787
40
0.875799544903828
40
0.875799544903828
40
0.937899772451914
40
0.937899772451914
40
1
40
1
40
1
40
1
41
1
10
32.3893390158441
20
1.93165022211994
30
0
41
1
10
32.4004554955795
20
1.93165263695545
30
0
41
1
10
32.411573072569
20
1.93160321875021
30
0
41
1
10
32.5306407314361
20
1.93051969276178
30
0
41
1
10
32.6387084938095
20
1.92465998657229
30
0
41
1
10
32.8011186295718
20
1.90841326786446
30
0
41
1
10
32.855301481937
20
1.90175154140525
30
0
41
1
10
32.9366460406289
20
1.88983823754964
30
0
41
1
10
32.9637745385496
20
1.88554738520065
30
0
41
1
10
33.0180474057625
20
1.87631057380142
30
0
41
1
10
33.0451912835516
20
1.87135700154613
30
0
41
1
10
33.1267372039194
20
1.85557042114019
30
0
41
1
10
33.1810725132678
20
1.84388936850544
30
0
41
1
10
33.2895738819018
20
1.81825002767681
30
0
41
1
10
33.343732698237
20
1.80428586078003
30
0
41
1
10
33.5060540584599
20
1.75908531462937
30
0
41
1
10
33.6140820774676
20
1.72456030467868
30
0
41
1
10
33.8300768799879
20
1.64711604511569
30
0
41
1
10
33.9380066053214
20
1.60417684705823
30
0
41
1
10
34.0998710134113
20
1.5333994255769
30
0
41
1
10
34.1538244631633
20
1.508746114416
30
0
41
1
10
34.2347532706204
20
1.4701384572005
30
0
41
1
10
34.2617291261224
20
1.45699760066307
30
0
41
1
10
34.3156781623837
20
1.43016202301558
30
0
41
1
10
34.3426445890944
20
1.41646003322094
30
0
41
1
10
34.4237563287106
20
1.3747199040416
30
0
41
1
10
34.4780391808446
20
1.34598011184184
30
0
41
1
10
34.559787484958
20
1.3015071183367
30
0
41
1
10
34.5870633147288
20
1.2864739200067
30
0
41
1
10
34.6415202067541
20
1.25609095065866
30
0
41
1
10
34.6687245373484
20
1.2407285849595
30
0
41
1
10
34.8046482503629
20
1.16309682681145
30
0
41
1
10
34.913087783714
20
1.0983910357786
30
0
41
1
10
35.1294411944835
20
0.964006600824405
30
0
41
1
10
35.2373781883573
20
0.89435342538863
30
0
41
1
10
35.3990276732445
20
0.78628750202725
30
0
41
1
10
35.4528654890486
20
0.749663547482612
30
0
41
1
10
35.5604294860679
20
0.675163330094307
30
0
41
1
10
35.6140867191905
20
0.637194737253992
30
0
41
1
10
35.7756503731642
20
0.522363277501057
30
0
41
1
10
35.8840231241973
20
0.444429159941848
30
0
41
1
10
36.0204813329717
20
0.345499262417633
30
0
41
1
10
36.0478413608992
20
0.325627567909294
30
0
41
1
10
36.1024424589399
20
0.285909075172981
30
0
41
1
10
36.1842420977836
20
0.226311631969196
30
0
41
1
10
36.2657641816564
20
0.166690404406552
30
0
41
1
10
36.4284742805302
20
0.0474582284717826
30
0
41
1
10
36.5364847549512
20
-0.0320423348493364
30
0
41
1
10
36.6978537709841
20
-0.151247789608959
30
0
41
1
10
36.7515495221235
20
-0.190955845647721
30
0
41
1
10
36.858797686923
20
-0.270253682697586
30
0
41
1
10
36.9122927039938
20
-0.309921172963328
30
0
41
1
10
37.0729507439547
20
-0.428212630876345
30
0
41
1
10
37.1806009172459
20
-0.505705029896575
30
0
41
1
10
37.39695740607
20
-0.658012828301025
30
0
41
1
10
37.5057106584657
20
-0.732764500221208
30
0
41
1
10
37.6152123821676
20
-0.805870897614227
30
0
0
SPLINE
5
1C1
100
AcDbEntity
8
1
62
256
6
ByLayer
370
18
48
1
60
0
100
AcDbSpline
70
4
71
3
72
8
73
4
40
0
40
0
40
0
40
0
40
1
40
1
40
1
40
1
41
1
10
39.2826975280328
20
-2.18157744757823
30
0
41
1
10
39.2552202032141
20
-2.16755765874538
30
0
41
1
10
39.2277300968383
20
-2.15319456313989
30
0
41
1
10
39.2002256202922
20
-2.1384917799775
30
0
0
SPLINE
5
1C2
100
AcDbEntity
8
1
62
256
6
ByLayer
370
18
48
1
60
0
100
AcDbSpline
70
4
71
3
72
8
73
4
40
0
40
0
40
0
40
0
40
1
40
1
40
1
40
1
41
1
10
40.1239148116275
20
-2.49055499609511
30
0
41
1
10
40.0965274391166
20
-2.4846564687515
30
0
41
1
10
40.0691663837735
20
-2.47835423861648
30
0
41
1
10
40.0418288910712
20
-2.47164996631108
30
0
0
SPLINE
5
1C3
100
AcDbEntity
8
1
62
256
6
ByLayer
370
18
48
1
60
0
100
AcDbSpline
70
4
71
3
72
24
73
20
40
0
40
0
40
0
40
0
40
0.173339799611371
40
0.173339799611371
40
0.276672324659949
40
0.276672324659949
40
0.328338587184239
40
0.328338587184239
40
0.380004849708528
40
0.380004849708528
40
0.586669899805685
40
0.586669899805685
40
0.793334949902843
40
0.793334949902843
40
0.845001212427132
40
0.845001212427132
40
0.896667474951421
40
0.896667474951421
40
1
40
1
40
1
40
1
41
1
10
47.2000000000001
20
-0.867739287028257
30
0
41
1
10
47.2000000000001
20
-0.884299618185651
30
0
41
1
10
47.2
20
-0.904050117262329
30
0
41
1
10
47.2000000000001
20
-0.940696659819537
30
0
41
1
10
47.2000000000001
20
-0.955519962619292
30
0
41
1
10
47.2
20
-0.979480818636063
30
0
41
1
10
47.2000000000001
20
-0.987765770122849
30
0
41
1
10
47.2000000000001
20
-1.00486040424093
30
0
41
1
10
47.2
20
-1.0136683962549
30
0
41
1
10
47.2
20
-1.05900620350556
30
0
41
1
10
47.2000000000001
20
-1.09944363120385
30
0
41
1
10
47.2000000000001
20
-1.18848883586318
30
0
41
1
10
47.2
20
-1.23709784961304
30
0
41
1
10
47.2
20
-1.3030592505547
30
0
41
1
10
47.2000000000001
20
-1.31643040363178
30
0
41
1
10
47.2000000000001
20
-1.34401024862612
30
0
41
1
10
47.2
20
-1.35835305980257
30
0
41
1
10
47.2
20
-1.40309103483332
30
0
41
1
10
47.2
20
-1.43504555474516
30
0
41
1
10
47.2
20
-1.46918128703163
30
0
0
SPLINE
5
1C4
100
AcDbEntity
8
1
62
256
6
ByLayer
370
18
48
1
60
0
100
AcDbSpline
70
4
71
3
72
17
73
13
40
0
40
0
40
0
40
0
40
0.0625000000000252
40
0.0625000000000252
40
0.12500000000005
40
0.12500000000005
40
0.25000000000006
40
0.50000000000004
40
0.50000000000004
40
0.75000000000002
40
0.75000000000002
40
1
40
1
40
1
40
1
41
1
10
46.7598048812102
20
-0.86304854680489
30
0
41
1
10
46.7693043659419
20
-0.863327740107593
30
0
41
1
10
46.7788125049502
20
-0.863547642942876
30
0
41
1
10
46.7977756470996
20
-0.864096153622199
30
0
41
1
10
46.8072356035488
20
-0.864408229240496
30
0
41
1
10
46.8355449033979
20
-0.865467013143785
30
0
41
1
10
46.8918944345227
20
-0.868031348553586
30
0
41
1
10
46.9474736443637
20
-0.871600271317135
30
0
41
1
10
47.0208829516198
20
-0.876883190939765
30
0
41
1
10
47.0572414947186
20
-0.879782101171713
30
0
41
1
10
47.1292093117588
20
-0.885825205128668
30
0
41
1
10
47.1648256140325
20
-0.888952957639958
30
0
41
1
10
47.2
20
-0.892138950311022
30
0
0
SPLINE
5
1C5
100
AcDbEntity
8
1
62
256
6
ByLayer
370
18
48
1
60
0
100
AcDbSpline
70
4
71
3
72
14
73
10
40
0
40
0
40
0
40
0
40
0.25
40
0.25
40
0.5
40
0.5
40
0.75
40
0.75
40
1
40
1
40
1
40
1
41
1
10
46.7598048812103
20
-0.863048546804833
30
0
41
1
10
46.7527917562197
20
-0.858407314105193
30
0
41
1
10
46.7457525690857
20
-0.854131044445239
30
0
41
1
10
46.7316299430909
20
-0.846389711142848
30
0
41
1
10
46.7244852840431
20
-0.842897643279457
30
0
41
1
10
46.710451313886
20
-0.837037607545057
30
0
41
1
10
46.7036365768972
20
-0.834690899674484
30
0
41
1
10
46.6905044985245
20
-0.831374777357553
30
0
41
1
10
46.6841720475912
20
-0.830425264019851
30
0
41
1
10
46.6785033342233
20
-0.83037450338756
30
0
0
SPLINE
5
1C6
100
AcDbEntity
8
1
62
256
6
ByLayer
370
18
48
1
60
0
100
AcDbSpline
70
4
71
3
72
10
73
6
40
0
40
0
40
0
40
0
40
0.5
40
0.5
40
1
40
1
40
1
40
1
41
1
10
46.6785033342233
20
-0.830374503387588
30
0
41
1
10
46.5819314187447
20
-0.774873341006156
30
0
41
1
10
46.4863462268726
20
-0.715906815883329
30
0
41
1
10
46.2964411190793
20
-0.591709180184409
30
0
41
1
10
46.202119138886
20
-0.526483071221804
30
0
41
1
10
46.1081433980377
20
-0.45838964212561
30
0
0
SPLINE
5
1C7
100
AcDbEntity
8
1
62
256
6
ByLayer
370
18
48
1
60
0
100
AcDbSpline
70
4
71
3
72
8
73
4
40
0
40
0
40
0
40
0
40
1
40
1
40
1
40
1
41
1
10
44.6329256710504
20
0.814065199779918
30
0
41
1
10
44.6365291687393
20
0.810714465725653
30
0
41
1
10
44.6401324299896
20
0.80736150790807
30
0
41
1
10
44.6437354721251
20
0.804006343509684
30
0
0
SPLINE
5
1C8
100
AcDbEntity
8
1
62
256
6
ByLayer
370
18
48
1
60
0
100
AcDbSpline
70
4
71
3
72
8
73
4
40
0
40
0
40
0
40
0
40
1
40
1
40
1
40
1
41
1
10
43.7914333506638
20
1.54053769903493
30
0
41
1
10
43.818996397242
20
1.51897163602882
30
0
41
1
10
43.846549577086
20
1.49715548598584
30
0
41
1
10
43.8740997404651
20
1.47509531946739
30
0
0
SPLINE
5
1C9
100
AcDbEntity
8
1
62
256
6
ByLayer
370
18
48
1
60
0
100
AcDbSpline
70
4
71
3
72
8
73
4
40
0
40
0
40
0
40
0
40
1
40
1
40
1
40
1
41
1
10
42.109093835069
20
2.4564205221163
30
0
41
1
10
42.1365574553504
20
2.44905067500977
30
0
41
1
10
42.1640112832711
20
2.44127373224526
30
0
41
1
10
42.1914614348229
20
2.43309216505852
30
0
0
SPLINE
5
1CA
100
AcDbEntity
8
1
62
256
6
ByLayer
370
18
48
1
60
0
100
AcDbSpline
70
4
71
3
72
49
73
45
40
0
40
0
40
0
40
0
40
0.0237841496501927
40
0.0385752988979148
40
0.0385752988979148
40
0.0533664481456368
40
0.0533664481456368
40
0.0829487466410839
40
0.0829487466410839
40
0.112531045136531
40
0.112531045136531
40
0.171695642127425
40
0.171695642127425
40
0.29002483610921
40
0.29002483610921
40
0.349189433100105
40
0.349189433100105
40
0.36398058234783
40
0.36398058234783
40
0.378771731595555
40
0.408354030091004
40
0.408354030091004
40
0.526683224072804
40
0.526683224072804
40
0.585847821063702
40
0.585847821063702
40
0.645012418054601
40
0.645012418054601
40
0.67459471655005
40
0.67459471655005
40
0.704177015045499
40
0.704177015045499
40
0.7633416120364
40
0.7633416120364
40
0.822506209027302
40
0.822506209027302
40
0.881670806018203
40
0.881670806018203
40
0.911253104513652
40
0.911253104513652
40
0.940835403009101
40
0.970417701504551
40
0.970417701504551
40
1
40
1
40
1
40
1
41
1
10
33.3924677512645
20
-1.93164982781596
30
0
41
1
10
33.3549085900488
20
-1.93163823260002
30
0
41
1
10
33.2938828195831
20
-1.93063777809397
30
0
41
1
10
33.2326371656104
20
-1.92803516146458
30
0
41
1
10
33.1855968526073
20
-1.92556658614552
30
0
41
1
10
33.1620308911712
20
-1.92409479871236
30
0
41
1
10
33.091460058081
20
-1.91898924455413
30
0
41
1
10
33.044484852028
20
-1.91466569085182
30
0
41
1
10
32.9507107155061
20
-1.90420983616411
30
0
41
1
10
32.9039541347329
20
-1.8980670576428
30
0
41
1
10
32.7639441012625
20
-1.87693845794624
30
0
41
1
10
32.6709865352537
20
-1.8592431468991
30
0
41
1
10
32.3925738493735
20
-1.79559937511519
30
0
41
1
10
32.2075488721241
20
-1.73908411157515
30
0
41
1
10
31.9278825894005
20
-1.63466673144205
30
0
41
1
10
31.8342816183472
20
-1.59661101886684
30
0
41
1
10
31.7165694582652
20
-1.54510412131714
30
0
41
1
10
31.6929703308412
20
-1.53459656321218
30
0
41
1
10
31.645853983596
20
-1.51323435993578
30
0
41
1
10
31.5752930952514
20
-1.48065869677842
30
0
41
1
10
31.5050430941479
20
-1.44651730455075
30
0
41
1
10
31.2714011982655
20
-1.32940539005142
30
0
41
1
10
31.0862022104626
20
-1.22508817695268
30
0
41
1
10
30.8080254194113
20
-1.05587775087181
30
0
41
1
10
30.7152294892599
20
-0.997361847177643
30
0
41
1
10
30.5289721245033
20
-0.876715839740911
30
0
41
1
10
30.4354322323306
20
-0.814690927369043
30
0
41
1
10
30.2946426562496
20
-0.718879648897826
30
0
41
1
10
30.2476006677299
20
-0.686459798356054
30
0
41
1
10
30.1534338320862
20
-0.620820806449984
30
0
41
1
10
30.1065031804105
20
-0.587734518354409
30
0
41
1
10
29.9660686047089
20
-0.487812341194001
30
0
41
1
10
29.8729181592072
20
-0.420318274762281
30
0
41
1
10
29.6870234944741
20
-0.284306270641281
30
0
41
1
10
29.5942861755576
20
-0.215779080133103
30
0
41
1
10
29.4087559727878
20
-0.0783331938206118
30
0
41
1
10
29.3159685476318
20
-0.0094068519298958
30
0
41
1
10
29.1763016556847
20
0.0936666659473815
30
0
41
1
10
29.1296721667376
20
0.127981409840402
30
0
41
1
10
29.0363454173549
20
0.1966353454375
30
0
41
1
10
28.9429313766194
20
0.265287045477464
30
0
41
1
10
28.8492540514163
20
0.333815561698856
30
0
41
1
10
28.7553840897984
20
0.402200280213748
30
0
41
1
10
28.7082719507189
20
0.43637883731796
30
0
41
1
10
28.6613503047699
20
0.470212195784882
30
0
0
SPLINE
5
1CB
100
AcDbEntity
8
1
62
256
6
ByLayer
370
18
48
1
60
0
100
AcDbSpline
70
4
71
3
72
47
73
43
40
0
40
0
40
0
40
0
40
0.0754090988081125
40
0.0754090988081125
40
0.150818197616225
40
0.150818197616225
40
0.188522747020283
40
0.188522747020283
40
0.226227296424341
40
0.226227296424341
40
0.30163639523246
40
0.30163639523246
40
0.339340944636517
40
0.339340944636517
40
0.377045494040575
40
0.414750043444633
40
0.414750043444633
40
0.452454592848691
40
0.452454592848691
40
0.490159142252749
40
0.490159142252749
40
0.527863691656806
40
0.527863691656806
40
0.603272790464922
40
0.603272790464922
40
0.640977339868982
40
0.640977339868982
40
0.678681889273041
40
0.678681889273041
40
0.716386438677101
40
0.716386438677101
40
0.75409098808116
40
0.75409098808116
40
0.829500086889276
40
0.829500086889276
40
0.904909185697392
40
0.904909185697392
40
0.980318284505507
40
0.980318284505507
40
0.999170559207536
40
0.999170559207536
40
1
40
1
40
1
40
1
41
1
10
27.230168739908
20
-1.15599828887429
30
0
41
1
10
27.3392127505706
20
-1.22019970239705
30
0
41
1
10
27.4477307324704
20
-1.28104855259281
30
0
41
1
10
27.6638534166926
20
-1.39601282907299
30
0
41
1
10
27.7714995317123
20
-1.45008816304218
30
0
41
1
10
27.9323938307722
20
-1.52592424122014
30
0
41
1
10
27.9860470056858
20
-1.5502170838752
30
0
41
1
10
28.0936215567024
20
-1.59666098944797
30
0
41
1
10
28.147516648299
20
-1.6188350811091
30
0
41
1
10
28.3095787623617
20
-1.6821876307059
30
0
41
1
10
28.4181424863695
20
-1.72018993432096
30
0
41
1
10
28.581942539089
20
-1.77065442362473
30
0
41
1
10
28.6367549331566
20
-1.7863950277806
30
0
41
1
10
28.7458508600819
20
-1.81541273466502
30
0
41
1
10
28.8546262184985
20
-1.8420368757935
30
0
41
1
10
28.9627907049779
20
-1.86390201114895
30
0
41
1
10
29.0706378992455
20
-1.88338482413903
30
0
41
1
10
29.1244028187875
20
-1.89193251066203
30
0
41
1
10
29.2317721332482
20
-1.90657647315811
30
0
41
1
10
29.2854126823955
20
-1.91266184989928
30
0
41
1
10
29.3928951106618
20
-1.92232768227856
30
0
41
1
10
29.4467091909856
20
-1.92591657192116
30
0
41
1
10
29.6083943274199
20
-1.93298494817967
30
0
41
1
10
29.7165075261145
20
-1.93277188890056
30
0
41
1
10
29.8794115786307
20
-1.92503385503554
30
0
41
1
10
29.9338319076812
20
-1.92121619519017
30
0
41
1
10
30.0429433136467
20
-1.91107222762051
30
0
41
1
10
30.0977386058927
20
-1.90472910340003
30
0
41
1
10
30.206811410479
20
-1.88959566032261
30
0
41
1
10
30.2611435512991
20
-1.8808043080962
30
0
41
1
10
30.3694013071452
20
-1.86077450907706
30
0
41
1
10
30.4233091862888
20
-1.84952840260539
30
0
41
1
10
30.5845369670013
20
-1.81213136559941
30
0
41
1
10
30.6921196684943
20
-1.78266426821531
30
0
41
1
10
30.9075451023466
20
-1.71503905102668
30
0
41
1
10
31.0154241140276
20
-1.67689478109293
30
0
41
1
10
31.2318265082508
20
-1.59220180157845
30
0
41
1
10
31.3403476846157
20
-1.54566217495102
30
0
41
1
10
31.4763682002832
20
-1.48202933723891
30
0
41
1
10
31.5035925266648
20
-1.46903014781316
30
0
41
1
10
31.5320429638631
20
-1.45517663227693
30
0
41
1
10
31.533242044267
20
-1.45459225941943
30
0
41
1
10
31.534441216143
20
-1.45400734404049
30
0
0
SPLINE
5
1CC
100
AcDbEntity
8
1
62
256
6
ByLayer
370
18
48
1
60
0
100
AcDbSpline
70
4
71
3
72
14
73
10
40
0
40
0
40
0
40
0
40
0.125000000000009
40
0.125000000000009
40
0.250000000000017
40
0.250000000000017
40
0.500000000000011
40
0.500000000000011
40
1
40
1
40
1
40
1
41
1
10
37.8652123821675
20
1.99863241751032
30
0
41
1
10
37.8852592298473
20
2.01023628737755
30
0
41
1
10
37.9053340124899
20
2.02172019289276
30
0
41
1
10
37.9454197099003
20
2.04438018743409
30
0
41
1
10
37.9653975337696
20
2.0555357936629
30
0
41
1
10
38.0250672321595
20
2.08841666482465
30
0
41
1
10
38.0645323103422
20
2.10957842445947
30
0
41
1
10
38.1821016600125
20
2.17069116048802
30
0
41
1
10
38.259304932179
20
2.2081907731301
30
0
41
1
10
38.3360896281726
20
2.24262053245184
30
0
0
SPLINE
5
1CD
100
AcDbEntity
8
1
62
256
6
ByLayer
370
18
48
1
60
0
100
AcDbSpline
70
4
71
3
72
8
73
4
40
0
40
0
40
0
40
0
40
1
40
1
40
1
40
1
41
1
10
41.5251923923617
20
0.530508593694606
30
0
41
1
10
41.497920110693
20
0.556475917155154
30
0
41
1
10
41.4706563944661
20
0.582346059660011
30
0
41
1
10
41.4433988993045
20
0.608116819879143
30
0
0
SPLINE
5
1CE
100
AcDbEntity
8
1
62
256
6
ByLayer
370
18
48
1
60
0
100
AcDbSpline
70
4
71
3
72
27
73
23
40
0
40
0
40
0
40
0
40
0.125
40
0.125
40
0.25
40
0.25
40
0.375
40
0.375
40
0.5
40
0.5
40
0.625
40
0.625
40
0.6875
40
0.6875
40
0.75
40
0.8125
40
0.8125
40
0.875
40
0.875
40
0.9375
40
0.9375
40
1
40
1
40
1
40
1
41
1
10
41.8039784896503
20
0.152257574570996
30
0
41
1
10
41.8098325344223
20
0.145269105038608
30
0
41
1
10
41.8166585121747
20
0.137900208225943
30
0
41
1
10
41.8317824826827
20
0.12260679791558
30
0
41
1
10
41.840182528975
20
0.114597948985846
30
0
41
1
10
41.8576622540119
20
0.0986655684413336
30
0
41
1
10
41.8667874078446
20
0.0906898062799826
30
0
41
1
10
41.8857351566103
20
0.0746892554621752
30
0
41
1
10
41.895608578336
20
0.0666293378237128
30
0
41
1
10
41.9153065590428
20
0.0510132064071342
30
0
41
1
10
41.9252156320295
20
0.0433830907235517
30
0
41
1
10
41.9401484578423
20
0.0321957892961109
30
0
41
1
10
41.9451651277835
20
0.028490342694198
30
0
41
1
10
41.9550323637823
20
0.0213065624264175
30
0
41
1
10
41.9647506139509
20
0.014335695166352
30
0
41
1
10
41.9741380529454
20
0.0078138614861416
30
0
41
1
10
41.9833329956467
20
0.0015445488986927
30
0
41
1
10
41.9878355311193
20
-0.0014635149888136
30
0
41
1
10
41.9963448809612
20
-0.0070086872241006
30
0
41
1
10
42.0003859061836
20
-0.0095696131001262
30
0
41
1
10
42.0079742774113
20
-0.0142004034363197
30
0
41
1
10
42.0115299590744
20
-0.0162736209755678
30
0
41
1
10
42.0146944145733
20
-0.0179937343346239
30
0
0
SPLINE
5
1CF
100
AcDbEntity
8
1
62
256
6
ByLayer
370
18
48
1
60
0
100
AcDbSpline
70
4
71
3
72
10
73
6
40
0
40
0
40
0
40
0
40
0.5
40
0.5
40
1
40
1
40
1
40
1
41
1
10
42.014694414581
20
-0.0179937343369261
30
0
41
1
10
42.0603102873945
20
-0.0427893025563719
30
0
41
1
10
42.105552839671
20
-0.0716063603927353
30
0
41
1
10
42.1954482614999
20
-0.136216873262015
30
0
41
1
10
42.2400511351594
20
-0.172067251677333
30
0
41
1
10
42.2843058526453
20
-0.211244993848908
30
0
0
SPLINE
5
1D0
100
AcDbEntity
8
1
62
256
6
ByLayer
370
18
48
1
60
0
100
AcDbSpline
70
4
71
3
72
8
73
4
40
0
40
0
40
0
40
0
40
1
40
1
40
1
40
1
41
1
10
42.3668420911749
20
-0.291927862473699
30
0
41
1
10
42.3393026904073
20
-0.265088834022635
30
0
41
1
10
42.3117927067997
20
-0.238192448716603
30
0
41
1
10
42.2843058526453
20
-0.211244993848851
30
0
0
SPLINE
5
1D1
100
AcDbEntity
8
1
62
256
6
ByLayer
370
18
48
1
60
0
100
AcDbSpline
70
4
71
3
72
8
73
4
40
0
40
0
40
0
40
0
40
1
40
1
40
1
40
1
41
1
10
43.2081420819784
20
-1.07887342093201
30
0
41
1
10
43.1805716418972
20
-1.05429586473295
30
0
41
1
10
43.1529728181366
20
-1.02958153373791
30
0
41
1
10
43.1253651583419
20
-1.00471337870229
30
0
0
SPLINE
5
1D2
100
AcDbEntity
8
1
62
256
6
ByLayer
370
18
48
1
60
0
100
AcDbSpline
70
4
71
3
72
8
73
4
40
0
40
0
40
0
40
0
40
1
40
1
40
1
40
1
41
1
10
44.0488034289562
20
-1.75797406110218
30
0
41
1
10
44.0215305312354
20
-1.73872353846033
30
0
41
1
10
43.9942679384308
20
-1.71919532102677
30
0
41
1
10
43.9670133243409
20
-1.69939143922647
30
0
0
SPLINE
5
1D3
100
AcDbEntity
8
1
62
256
6
ByLayer
370
18
48
1
60
0
100
AcDbSpline
70
4
71
3
72
27
73
23
40
0
40
0
40
0
40
0
40
0.125
40
0.125
40
0.25
40
0.25
40
0.374999999999999
40
0.374999999999999
40
0.499999999999999
40
0.499999999999999
40
0.624999999999999
40
0.624999999999999
40
0.687499999999999
40
0.687499999999999
40
0.749999999999999
40
0.8125
40
0.8125
40
0.875
40
0.875
40
0.9375
40
0.9375
40
1
40
1
40
1
40
1
41
1
10
46.009277768333
20
-2.10179141220621
30
0
41
1
10
46.0151386831567
20
-2.09251465665275
30
0
41
1
10
46.0219724525878
20
-2.08462719362657
30
0
41
1
10
46.0371110835093
20
-2.07092609025312
30
0
41
1
10
46.0455186635147
20
-2.06509499047692
30
0
41
1
10
46.0630105096528
20
-2.05572691139264
30
0
41
1
10
46.0721404887919
20
-2.05212572330945
30
0
41
1
10
46.0910965490357
20
-2.04695655916791
30
0
41
1
10
46.1009722606347
20
-2.04540751379389
30
0
41
1
10
46.1206732335144
20
-2.04453086052652
30
0
41
1
10
46.1305835038833
20
-2.04516717932293
30
0
41
1
10
46.1455173718437
20
-2.04792247341945
30
0
41
1
10
46.1505338968102
20
-2.04915427237458
30
0
41
1
10
46.1603976187933
20
-2.05224071673319
30
0
41
1
10
46.1701118650909
20
-2.0559465625642
30
0
41
1
10
46.1794946073446
20
-2.06098882808587
30
0
41
1
10
46.188683834037
20
-2.06679656563296
30
0
41
1
10
46.1931828265675
20
-2.07009296907199
30
0
41
1
10
46.2016847519649
20
-2.07736497274695
30
0
41
1
10
46.2057218257436
20
-2.08135857871073
30
0
41
1
10
46.2133020774104
20
-2.09017168166753
30
0
41
1
10
46.2168546017977
20
-2.09501537037164
30
0
41
1
10
46.2200174253285
20
-2.10021833174332
30
0
0
SPLINE
5
1D4
100
AcDbEntity
8
1
62
256
6
ByLayer
370
18
48
1
60
0
100
AcDbSpline
70
4
71
3
72
8
73
4
40
0
40
0
40
0
40
0
40
1
40
1
40
1
40
1
41
1
10
46.2200174253332
20
-2.10021833175139
30
0
41
1
10
46.2276459251685
20
-2.11276749536683
30
0
41
1
10
46.2352646937767
20
-2.12528012035591
30
0
41
1
10
46.2428742754626
20
-2.13775616958813
30
0
0
SPLINE
5
1D5
100
AcDbEntity
8
1
62
256
6
ByLayer
370
18
48
1
60
0
100
AcDbSpline
70
4
71
3
72
12
73
8
40
0
40
0
40
0
40
0
40
0.5
40
0.5
40
0.75
40
0.75
40
1
40
1
40
1
40
1
41
1
10
46.2428742754627
20
-2.13775616958807
30
0
41
1
10
46.3314287176907
20
-2.11486342052331
30
0
41
1
10
46.4202254094155
20
-2.087895076103
30
0
41
1
10
46.5540902364205
20
-2.04162846761383
30
0
41
1
10
46.5988235629609
20
-2.02523909056805
30
0
41
1
10
46.6885528167261
20
-1.99057885638928
30
0
41
1
10
46.7335379580251
20
-1.97230638435903
30
0
41
1
10
46.7787483245588
20
-1.95311837736321
30
0
0
SPLINE
5
1D6
100
AcDbEntity
8
1
62
256
6
ByLayer
370
18
48
1
60
0
100
AcDbSpline
70
4
71
3
72
18
73
14
40
0
40
0
40
0
40
0
40
0.125
40
0.125
40
0.25
40
0.25
40
0.5
40
0.5
40
0.75
40
0.75
40
0.875
40
0.875
40
1
40
1
40
1
40
1
41
1
10
47.1999999999997
20
-1.46918128703376
30
0
41
1
10
47.1811785031387
20
-1.48886610233961
30
0
41
1
10
47.1624593009323
20
-1.50881213819287
30
0
41
1
10
47.1251786162299
20
-1.54916068916856
30
0
41
1
10
47.1065832922812
20
-1.56960243567886
30
0
41
1
10
47.051688433399
20
-1.63073472471834
30
0
41
1
10
47.0160407501924
20
-1.67148113965743
30
0
41
1
10
46.9461572590304
20
-1.75271240931355
30
0
41
1
10
46.9119271953758
20
-1.79319804402505
30
0
41
1
10
46.8613701042582
20
-1.85356282610997
30
0
41
1
10
46.8446496747581
20
-1.87362396019128
30
0
41
1
10
46.8114395601205
20
-1.91359775755828
30
0
41
1
10
46.7949542420719
20
-1.93350855451442
30
0
41
1
10
46.7787483245589
20
-1.95311837736321
30
0
0
SPLINE
5
1D7
100
AcDbEntity
8
1
62
256
6
ByLayer
370
18
48
1
60
0
100
AcDbSpline
70
4
71
3
72
90
73
86
40
0
40
0
40
0
40
0
40
0.031249999999997
40
0.031249999999997
40
0.062499999999994
40
0.062499999999994
40
0.124999999999991
40
0.124999999999991
40
0.187499999999988
40
0.187499999999988
40
0.203124999999987
40
0.203124999999987
40
0.218749999999986
40
0.218749999999986
40
0.249999999999985
40
0.249999999999985
40
0.281249999999983
40
0.281249999999983
40
0.312499999999982
40
0.312499999999982
40
0.328124999999983
40
0.328124999999983
40
0.343749999999984
40
0.343749999999984
40
0.37499999999999
40
0.37499999999999
40
0.406249999999995
40
0.406249999999995
40
0.437500000000001
40
0.437500000000001
40
0.468750000000006
40
0.468750000000006
40
0.484375000000008
40
0.484375000000008
40
0.492187500000008
40
0.492187500000008
40
0.500000000000009
40
0.500000000000009
40
0.515625000000007
40
0.515625000000007
40
0.531250000000005
40
0.531250000000005
40
0.539062500000005
40
0.539062500000005
40
0.546875000000005
40
0.546875000000005
40
0.562500000000006
40
0.562500000000006
40
0.578125000000006
40
0.578125000000006
40
0.585937500000006
40
0.585937500000006
40
0.593750000000006
40
0.593750000000006
40
0.609375000000006
40
0.609375000000006
40
0.617187500000006
40
0.617187500000006
40
0.625000000000006
40
0.625000000000006
40
0.640625000000006
40
0.640625000000006
40
0.656250000000005
40
0.656250000000005
40
0.664062500000005
40
0.664062500000005
40
0.671875000000005
40
0.671875000000005
40
0.687500000000005
40
0.687500000000005
40
0.718750000000007
40
0.718750000000007
40
0.750000000000009
40
0.750000000000009
40
0.78125000000001
40
0.78125000000001
40
0.796875000000011
40
0.796875000000011
40
0.812500000000012
40
0.812500000000012
40
0.875000000000008
40
0.875000000000008
40
0.937500000000004
40
0.937500000000004
40
1
40
1
40
1
40
1
41
1
10
28.6615140479672
20
0.469650622187544
30
0
41
1
10
28.6143884748512
20
0.506363704595174
30
0
41
1
10
28.5670189199998
20
0.542231818325661
30
0
41
1
10
28.4710001149068
20
0.611110683590084
30
0
41
1
10
28.4224501369398
20
0.644285332093773
30
0
41
1
10
28.2750410472981
20
0.739990988442997
30
0
41
1
10
28.1743553839501
20
0.798587785411826
30
0
41
1
10
27.9663845967761
20
0.903740329965046
30
0
41
1
10
27.8591033153759
20
0.950305557581288
30
0
41
1
10
27.7197823130471
20
1.00010376378356
30
0
41
1
10
27.6916531745399
20
1.00963745172433
30
0
41
1
10
27.634822580325
20
1.02781006986592
30
0
41
1
10
27.6062864305944
20
1.03639562198796
30
0
41
1
10
27.5203774553615
20
1.06059936807921
30
0
41
1
10
27.4626703884454
20
1.07467861000274
30
0
41
1
10
27.3462949703866
20
1.09853174293684
30
0
41
1
10
27.2876299197382
20
1.1083201665237
30
0
41
1
10
27.1692143701029
20
1.12322568162941
30
0
41
1
10
27.1094437752722
20
1.12825989615888
30
0
41
1
10
27.0191237678955
20
1.13300998421758
30
0
41
1
10
26.9889074445433
20
1.13413001736103
30
0
41
1
10
26.9282969616388
20
1.13562177651741
30
0
41
1
10
26.8979278795965
20
1.13601457254561
30
0
41
1
10
26.807165496278
20
1.13575462159997
30
0
41
1
10
26.7469218353402
20
1.13378989412624
30
0
41
1
10
26.6270357925496
20
1.12575610037254
30
0
41
1
10
26.5673996639791
20
1.11964601268755
30
0
41
1
10
26.4488491956641
20
1.1023874618551
30
0
41
1
10
26.389927655535
20
1.09129123684986
30
0
41
1
10
26.2729663509618
20
1.06271580339907
30
0
41
1
10
26.2158072506518
20
1.04546774882684
30
0
41
1
10
26.1329450255972
20
1.01357755531666
30
0
41
1
10
26.1057973039908
20
1.00192693312573
30
0
41
1
10
26.0659429278042
20
0.982534547119883
30
0
41
1
10
26.0528462391762
20
0.975771689665919
30
0
41
1
10
26.0272172326071
20
0.961692657296453
30
0
41
1
10
26.014660134134
20
0.954364657034859
30
0
41
1
10
25.9778071774668
20
0.931450287429385
30
0
41
1
10
25.9543242742451
20
0.914940472728631
30
0
41
1
10
25.9098827993331
20
0.878970842323724
30
0
41
1
10
25.888920091794
20
0.859516479105963
30
0
41
1
10
25.8597946255449
20
0.827552619700242
30
0
41
1
10
25.8504812891088
20
0.816424760444164
30
0
41
1
10
25.8330877680133
20
0.793615837414904
30
0
41
1
10
25.8249563497878
20
0.781881646265958
30
0
41
1
10
25.8023332418533
20
0.745630039567942
30
0
41
1
10
25.7896244487914
20
0.720058409774481
30
0
41
1
10
25.7691830799869
20
0.665854731190365
30
0
41
1
10
25.7617729570163
20
0.638007534071505
30
0
41
1
10
25.7545615032984
20
0.595337071210594
30
0
41
1
10
25.7528058676484
20
0.58095320277576
30
0
41
1
10
25.7505419831306
20
0.551867723596331
30
0
41
1
10
25.7500256417999
20
0.537114134911889
30
0
41
1
10
25.7500650890322
20
0.492818651167312
30
0
41
1
10
25.7523648585666
20
0.463399803083206
30
0
41
1
10
25.7593416439021
20
0.419468531307046
30
0
41
1
10
25.762250926835
20
0.404857075603786
30
0
41
1
10
25.7692165916827
20
0.375698522138634
30
0
41
1
10
25.7732919622884
20
0.361099162963285
30
0
41
1
10
25.7869697826263
20
0.318011769032012
30
0
41
1
10
25.7980736218651
20
0.290112671322532
30
0
41
1
10
25.822994934045
20
0.235415183981672
30
0
41
1
10
25.8368220364547
20
0.208620929633184
30
0
41
1
10
25.8591108749416
20
0.169042749873313
30
0
41
1
10
25.866801329079
20
0.1559534572026
30
0
41
1
10
25.882645957619
20
0.12995654175279
30
0
41
1
10
25.8908013200391
20
0.117049229636479
30
0
41
1
10
25.9157065690899
20
0.0788437158126385
30
0
41
1
10
25.9329528510578
20
0.0539568827621792
30
0
41
1
10
25.9861919693915
20
-0.0193306950920942
30
0
41
1
10
26.0236661409784
20
-0.0663754134281476
30
0
41
1
10
26.1011639131343
20
-0.158081259089613
30
0
41
1
10
26.1412139888093
20
-0.202719388185699
30
0
41
1
10
26.223166163
20
-0.290225746099793
30
0
41
1
10
26.2650739236094
20
-0.333088966064395
30
0
41
1
10
26.3289829969654
20
-0.396354705590255
30
0
41
1
10
26.3504680242901
20
-0.417274910289905
30
0
41
1
10
26.3935362161971
20
-0.458605383418899
30
0
41
1
10
26.4151461947399
20
-0.479042398590366
30
0
41
1
10
26.5235002727631
20
-0.580194904786111
30
0
41
1
10
26.6111164518476
20
-0.657875141226356
30
0
41
1
10
26.7870776108163
20
-0.808314228752465
30
0
41
1
10
26.8754341410188
20
-0.881052929847669
30
0
41
1
10
27.0524949301231
20
-1.02201095909436
30
0
41
1
10
27.1411991601997
20
-1.09022555812652
30
0
41
1
10
27.2301693078318
20
-1.15600308876631
30
0
0
SPLINE
5
1D8
100
AcDbEntity
8
1
62
256
6
ByLayer
370
18
48
1
60
0
100
AcDbSpline
70
4
71
3
72
32
73
28
40
0
40
0
40
0
40
0
40
0.031393896916031
40
0.031393896916031
40
0.0991615532652622
40
0.0991615532652622
40
0.166929209614494
40
0.166929209614494
40
0.302464522312957
40
0.302464522312957
40
0.370232178662189
40
0.370232178662189
40
0.437999835011422
40
0.437999835011422
40
0.573535147709885
40
0.573535147709885
40
0.709070460408348
40
0.709070460408348
40
0.776838116757579
40
0.776838116757579
40
0.84460577310681
40
0.84460577310681
40
0.91237342945604
40
0.91237342945604
40
0.980141085805271
40
0.980141085805271
40
1
40
1
40
1
40
1
41
1
10
28.6614734083252
20
0.469680821770481
30
0
41
1
10
28.6526942186018
20
0.476202906089554
30
0
41
1
10
28.6433410799063
20
0.48199190465624
30
0
41
1
10
28.6106778056554
20
0.496291835600175
30
0
41
1
10
28.5844824649417
20
0.501375546100121
30
0
41
1
10
28.52615906698
20
0.501148932479992
30
0
41
1
10
28.4939099597977
20
0.4959889067554
30
0
41
1
10
28.3868758639028
20
0.463693930056593
30
0
41
1
10
28.304390305392
20
0.420639498989288
30
0
41
1
10
28.1684872392295
20
0.318919930754475
30
0
41
1
10
28.122436382653
20
0.279523609570873
30
0
41
1
10
28.0296322410949
20
0.195588245381686
30
0
41
1
10
27.9827338033804
20
0.150203899596193
30
0
41
1
10
27.8451072514927
20
0.0077186789819166
30
0
41
1
10
27.754770654818
20
-0.0986783648968128
30
0
41
1
10
27.5909884131241
20
-0.316540940283147
30
0
41
1
10
27.5157245775983
20
-0.430634685938031
30
0
41
1
10
27.4198996618514
20
-0.596331881834288
30
0
41
1
10
27.39037682215
20
-0.651237897964904
30
0
41
1
10
27.336352623772
20
-0.759451109379427
30
0
41
1
10
27.3114656891135
20
-0.812403276957838
30
0
41
1
10
27.2724120282814
20
-0.912484148920527
30
0
41
1
10
27.2575340261259
20
-0.960462847855581
30
0
41
1
10
27.237401039963
20
-1.04810137394125
30
0
41
1
10
27.2319267745963
20
-1.08806309424216
30
0
41
1
10
27.2300139093852
20
-1.13539617662394
30
0
41
1
10
27.2299218774764
20
-1.14585413925167
30
0
41
1
10
27.2301693078315
20
-1.15600308875577
30
0
0
SPLINE
5
1D9
100
AcDbEntity
8
SK1
62
256
6
ByLayer
370
18
48
1
60
0
100
AcDbSpline
70
4
71
3
72
18
73
14
40
0
40
0
40
0
40
0
40
0.250010337892592
40
0.250010337892592
40
0.500020675785184
40
0.500020675785184
40
0.625025844731479
40
0.625025844731479
40
0.687528429204627
40
0.687528429204627
40
0.750031013677775
40
0.750031013677775
40
1
40
1
40
1
40
1
41
1
10
-22
20
2.44999999999996
30
0
41
1
10
-22.0619016558605
20
2.44999999999996
30
0
41
1
10
-22.1194530014235
20
2.44999999999996
30
0
41
1
10
-22.2230629385498
20
2.44999999999996
30
0
41
1
10
-22.2691240341919
20
2.44999999999996
30
0
41
1
10
-22.3268777895502
20
2.44999999999996
30
0
41
1
10
-22.3442324614345
20
2.44999999999996
30
0
41
1
10
-22.367021354728
20
2.44999999999996
30
0
41
1
10
-22.3740767558169
20
2.44999999999996
30
0
41
1
10
-22.3870353899801
20
2.44999999999996
30
0
41
1
10
-22.3929475360501
20
2.44999999999996
30
0
41
1
10
-22.4192510342399
20
2.44999999999996
30
0
41
1
10
-22.4299843448749
20
2.44999999999996
30
0
41
1
10
-22.4299999999999
20
2.44999999999996
30
0
0
SPLINE
5
1DA
100
AcDbEntity
8
SK1
62
256
6
ByLayer
370
18
48
1
60
0
100
AcDbSpline
70
4
71
3
72
18
73
14
40
0
40
0
40
0
40
0
40
0.249968974496275
40
0.249968974496275
40
0.312471559954919
40
0.312471559954919
40
0.374974145413562
40
0.374974145413562
40
0.49997931633085
40
0.49997931633085
40
0.749989658165425
40
0.749989658165425
40
1
40
1
40
1
40
1
41
1
10
-22.4299999999969
20
-2.45000000000002
30
0
41
1
10
-22.4299843435208
20
-2.45000000000002
30
0
41
1
10
-22.4192510329126
20
-2.45000000000002
30
0
41
1
10
-22.3929475360501
20
-2.45000000000002
30
0
41
1
10
-22.3870353899801
20
-2.45000000000002
30
0
41
1
10
-22.3740767558169
20
-2.45000000000002
30
0
41
1
10
-22.367021354728
20
-2.45000000000002
30
0
41
1
10
-22.3442324614345
20
-2.45000000000002
30
0
41
1
10
-22.3268777895502
20
-2.45000000000002
30
0
41
1
10
-22.2691240341919
20
-2.45000000000002
30
0
41
1
10
-22.2230629385497
20
-2.45000000000002
30
0
41
1
10
-22.1194530014235
20
-2.45000000000002
30
0
41
1
10
-22.0619016558605
20
-2.45000000000005
30
0
41
1
10
-22
20
-2.45000000000002
30
0
0
SPLINE
5
1DB
100
AcDbEntity
8
SK1
62
256
6
ByLayer
370
18
48
1
60
0
100
AcDbSpline
70
4
71
3
72
28
73
24
40
0
40
0
40
0
40
0
40
0.125
40
0.125
40
0.25
40
0.25
40
0.3125
40
0.34375
40
0.34375
40
0.375
40
0.375
40
0.499999999999999
40
0.624999999999999
40
0.624999999999999
40
0.656249999999999
40
0.656249999999999
40
0.687499999999999
40
0.687499999999999
40
0.75
40
0.75
40
0.875
40
0.875
40
1
40
1
40
1
40
1
41
1
10
-22
20
-1.51390224255073
30
0
41
1
10
-22.0619431217069
20
-1.39606359649963
30
0
41
1
10
-22.119532991302
20
-1.27662087306044
30
0
41
1
10
-22.2231818426811
20
-1.03356928576781
30
0
41
1
10
-22.2692481386254
20
-0.909951764964148
30
0
41
1
10
-22.3269910848407
20
-0.720400065314834
30
0
41
1
10
-22.3530131297644
20
-0.624589117884
30
0
41
1
10
-22.3741650560419
20
-0.52700902667172
30
0
41
1
10
-22.3871128590611
20
-0.461536613163389
30
0
41
1
10
-22.3930196210638
20
-0.428522534965765
30
0
41
1
10
-22.4193029597357
20
-0.263614203190031
30
0
41
1
10
-22.4407212763269
20
0.0002299958251228
30
0
41
1
10
-22.4192545151676
20
0.264055216473878
30
0
41
1
10
-22.3929475360501
20
0.428940274925367
30
0
41
1
10
-22.3870353899801
20
0.461954837450179
30
0
41
1
10
-22.3740767558169
20
0.527428697331999
30
0
41
1
10
-22.367021354728
20
0.559954497623153
30
0
41
1
10
-22.3442324614345
20
0.656937197076928
30
0
41
1
10
-22.3268777895502
20
0.720799948348599
30
0
41
1
10
-22.2691240341919
20
0.91030296331661
30
0
41
1
10
-22.2230629385498
20
1.03386815006104
30
0
41
1
10
-22.1194530014235
20
1.27678836717467
30
0
41
1
10
-22.0619016558605
20
1.39614247982132
30
0
41
1
10
-22
20
1.51390224255064
30
0
0
SPLINE
5
1DC
100
AcDbEntity
8
1
62
256
6
ByLayer
370
18
48
1
60
0
100
AcDbSpline
70
4
71
1
72
4
73
2
40
0
40
0
40
1
40
1
41
1
10
41.2647980146007
20
2.54670745709643
30
0
41
1
10
41.1764164811114
20
2.39437465287415
30
0
0
SPLINE
5
1DD
100
AcDbEntity
8
1
62
256
6
ByLayer
370
18
48
1
60
0
100
AcDbSpline
70
4
71
2
72
6
73
3
40
0
40
0
40
0
40
1
40
1
40
1
41
1
10
45.9627517122576
20
-2.20081080410407
30
0
41
1
10
45.9952972991125
20
-2.14486569492246
30
0
41
1
10
46.0278533341671
20
-2.08896579319506
30
0
0
SPLINE
5
1DE
100
AcDbEntity
8
1
62
256
6
ByLayer
370
18
48
1
60
0
100
AcDbSpline
70
4
71
1
72
4
73
2
40
0
40
0
40
1
40
1
41
1
10
45.5410921948611
20
-2.31274809852292
30
0
41
1
10
45.9574157777705
20
-2.20890818466776
30
0
0
SPLINE
5
1DF
100
AcDbEntity
8
1
62
256
6
ByLayer
370
18
48
1
60
0
100
AcDbSpline
70
4
71
2
72
6
73
3
40
0
40
0
40
0
40
1
40
1
40
1
41
1
10
45.4027664765022
20
-2.09506385901238
30
0
41
1
10
45.4565538268508
20
-2.18774592861365
30
0
41
1
10
45.5103199894418
20
-2.28048857452578
30
0
0
SPLINE
5
1E0
100
AcDbEntity
8
1
62
256
6
ByLayer
370
18
48
1
60
0
100
AcDbSpline
70
4
71
2
72
6
73
3
40
0
40
0
40
0
40
1
40
1
40
1
41
1
10
43.9260035641494
20
-2.30716583762913
30
0
41
1
10
43.9956494642076
20
-2.42704181223473
30
0
41
1
10
44.0651579991188
20
-2.54699574887641
30
0
0
SPLINE
5
1E1
100
AcDbEntity
8
1
62
256
6
ByLayer
370
18
48
1
60
0
100
AcDbSpline
70
4
71
2
72
6
73
3
40
0
40
0
40
0
40
1
40
1
40
1
41
1
10
46.0304852138464
20
-2.08357649616772
30
0
41
1
10
46.0405089803184
20
-2.0620410700256
30
0
41
1
10
46.0631144572371
20
-2.05444868353499
30
0
0
SPLINE
5
1E2
100
AcDbEntity
8
1
62
256
6
ByLayer
370
18
48
1
60
0
100
AcDbSpline
70
4
71
2
72
6
73
3
40
0
40
0
40
0
40
1
40
1
40
1
41
1
10
46.0816629174597
20
-2.05073042274967
30
0
41
1
10
46.0928638958268
20
-2.0497416631778
30
0
41
1
10
46.1061854681736
20
-2.05110294385429
30
0
0
SPLINE
5
1E3
100
AcDbEntity
8
1
62
256
6
ByLayer
370
18
48
1
60
0
100
AcDbSpline
70
4
71
2
72
6
73
3
40
0
40
0
40
0
40
1
40
1
40
1
41
1
10
40.4266971108228
20
-2.09097387926496
30
0
41
1
10
40.4516755454399
20
-2.04011447344539
30
0
41
1
10
40.5154063221558
20
-2.05139776280129
30
0
0
SPLINE
5
1E4
100
AcDbEntity
8
1
62
256
6
ByLayer
370
18
48
1
60
0
100
AcDbSpline
70
4
71
2
72
6
73
3
40
0
40
0
40
0
40
1
40
1
40
1
41
1
10
40.1602606618409
20
-2.54973373953237
30
0
41
1
10
40.2929292754914
20
-2.3210231302308
30
0
41
1
10
40.4262837363747
20
-2.09169587010555
30
0
0
SPLINE
5
1E5
100
AcDbEntity
8
1
62
256
6
ByLayer
370
18
48
1
60
0
100
AcDbSpline
70
4
71
2
72
6
73
3
40
0
40
0
40
0
40
1
40
1
40
1
41
1
10
39.8002196221448
20
-2.09099604290509
30
0
41
1
10
39.9323401833161
20
-2.31841975208869
30
0
41
1
10
40.0643255578293
20
-2.54620218494372
30
0
0
SPLINE
5
1E6
100
AcDbEntity
8
1
62
256
6
ByLayer
370
18
48
1
60
0
100
AcDbSpline
70
4
71
2
72
6
73
3
40
0
40
0
40
0
40
1
40
1
40
1
41
1
10
42.0651568781837
20
2.54720508096426
30
0
41
1
10
41.9328733250524
20
2.3188433946535
30
0
41
1
10
41.800308792216
20
2.090633223281
30
0
0
SPLINE
5
1E7
100
AcDbEntity
8
1
62
256
6
ByLayer
370
18
48
1
60
0
100
AcDbSpline
70
4
71
3
72
11
73
7
40
0
40
0
40
0
40
0
40
0.244940167864344
40
0.496800097304911
40
0.75011533124409
40
1
40
1
40
1
40
1
41
1
10
45.2265910368438
20
-2.09121616541043
30
0
41
1
10
45.2336222271501
20
-2.07813131794387
30
0
41
1
10
45.2539825734519
20
-2.05805970499779
30
0
41
1
10
45.3131503686339
20
-2.0384725709568
30
0
41
1
10
45.3721479454447
20
-2.05737918829473
30
0
41
1
10
45.3922363404529
20
-2.07633497692424
30
0
41
1
10
45.3990271078523
20
-2.08890789147523
30
0
0
SPLINE
5
1E8
100
AcDbEntity
8
1
62
256
6
ByLayer
370
18
48
1
60
0
100
AcDbSpline
70
4
71
2
72
6
73
3
40
0
40
0
40
0
40
1
40
1
40
1
41
1
10
42.427773337413
20
2.08924816240921
30
0
41
1
10
42.2951658919989
20
2.3171460813941
30
0
41
1
10
42.1627984375294
20
2.54544921911273
30
0
0
SPLINE
5
1E9
100
AcDbEntity
8
1
62
256
6
ByLayer
370
18
48
1
60
0
100
AcDbSpline
70
4
71
3
72
11
73
7
40
0
40
0
40
0
40
0
40
0.24880566909568
40
0.502519127920054
40
0.754882766357918
40
1
40
1
40
1
40
1
41
1
10
39.6265384634861
20
-2.09112963503958
30
0
41
1
10
39.6335299707805
20
-2.07792485720134
30
0
41
1
10
39.6539540783089
20
-2.05785310908283
30
0
41
1
10
39.7131547036665
20
-2.03830540567753
30
0
41
1
10
39.7725817978359
20
-2.05760457957328
30
0
41
1
10
39.7931441735303
20
-2.07785307297209
30
0
41
1
10
39.8002760825644
20
-2.09109381176251
30
0
0
SPLINE
5
1EA
100
AcDbEntity
8
1
62
256
6
ByLayer
370
18
48
1
60
0
100
AcDbSpline
70
4
71
3
72
11
73
7
40
0
40
0
40
0
40
0
40
0.169280750091307
40
0.448275111568745
40
0.727214630172334
40
1
40
1
40
1
40
1
41
1
10
42.5868121333979
20
2.07754690843134
30
0
41
1
10
42.582013138828
20
2.07017001064321
30
0
41
1
10
42.5656212279675
20
2.05442362136398
30
0
41
1
10
42.5122968212333
20
2.0389987979261
30
0
41
1
10
42.4538029088847
20
2.05857920532054
30
0
41
1
10
42.4334469140031
20
2.07853116398994
30
0
41
1
10
42.4265155380477
20
2.09152949383395
30
0
0
SPLINE
5
1EB
100
AcDbEntity
8
1
62
256
6
ByLayer
370
18
48
1
60
0
100
AcDbSpline
70
4
71
2
72
6
73
3
40
0
40
0
40
0
40
1
40
1
40
1
41
1
10
45.0145966221532
20
-2.45611407438827
30
0
41
1
10
45.0186529157434
20
-2.44912351594587
30
0
41
1
10
45.022709290664
20
-2.44213339108572
30
0
0
SPLINE
5
1EC
100
AcDbEntity
8
1
62
256
6
ByLayer
370
18
48
1
60
0
100
AcDbSpline
70
4
71
2
72
6
73
3
40
0
40
0
40
0
40
1
40
1
40
1
41
1
10
45.0254502123101
20
-2.43741017903861
30
0
41
1
10
45.1264660605112
20
-2.26334002401754
30
0
41
1
10
45.2275323457641
20
-2.08953875514609
30
0
0
SPLINE
5
1ED
100
AcDbEntity
8
1
62
256
6
ByLayer
370
18
48
1
60
0
100
AcDbSpline
70
4
71
1
72
4
73
2
40
0
40
0
40
1
40
1
41
1
10
44.8440274901735
20
-2.48671060373539
30
0
41
1
10
45.0508269004031
20
-2.43512807825553
30
0
0
SPLINE
5
1EE
100
AcDbEntity
8
1
62
256
6
ByLayer
370
18
48
1
60
0
100
AcDbSpline
70
4
71
2
72
6
73
3
40
0
40
0
40
0
40
1
40
1
40
1
41
1
10
44.6002308565213
20
-2.09137487375656
30
0
41
1
10
44.7173119455749
20
-2.29304553615839
30
0
41
1
10
44.8341767819651
20
-2.4948333864404
30
0
0
SPLINE
5
1EF
100
AcDbEntity
8
1
62
256
6
ByLayer
370
18
48
1
60
0
100
AcDbSpline
70
4
71
2
72
6
73
3
40
0
40
0
40
0
40
1
40
1
40
1
41
1
10
39.3628228741047
20
-2.54494717934688
30
0
41
1
10
39.4947636751417
20
-2.31754092128668
30
0
41
1
10
39.6268620405963
20
-2.09057085738667
30
0
0
SPLINE
5
1F0
100
AcDbEntity
8
1
62
256
6
ByLayer
370
18
48
1
60
0
100
AcDbSpline
70
4
71
3
72
11
73
7
40
0
40
0
40
0
40
0
40
0.242288222369345
40
0.499616386236058
40
0.757049262918665
40
1
40
1
40
1
40
1
41
1
10
44.4176758660799
20
-2.10132168931176
30
0
41
1
10
44.4260029059431
20
-2.08501557496413
30
0
41
1
10
44.4487679206417
20
-2.05926363359183
30
0
41
1
10
44.5097619245959
20
-2.03728061190088
30
0
41
1
10
44.5707743875895
20
-2.05578133010624
30
0
41
1
10
44.5934772559067
20
-2.07887098715227
30
0
41
1
10
44.6017605030562
20
-2.09385614899799
30
0
0
SPLINE
5
1F1
100
AcDbEntity
8
1
62
256
6
ByLayer
370
18
48
1
60
0
100
AcDbSpline
70
4
71
2
72
6
73
3
40
0
40
0
40
0
40
1
40
1
40
1
41
1
10
39.0004181398609
20
-2.09114134000885
30
0
41
1
10
39.1331945704462
20
-2.31976624021064
30
0
41
1
10
39.2655831397165
20
-2.54832512677805
30
0
0
SPLINE
5
1F2
100
AcDbEntity
8
1
62
256
6
ByLayer
370
18
48
1
60
0
100
AcDbSpline
70
4
71
2
72
6
73
3
40
0
40
0
40
0
40
1
40
1
40
1
41
1
10
38.9119496172642
20
-2.05080821342023
30
0
41
1
10
38.9747843337354
20
-2.04001120151949
30
0
41
1
10
39.0000760146176
20
-2.09053944963824
30
0
0
SPLINE
5
1F3
100
AcDbEntity
8
1
62
256
6
ByLayer
370
18
48
1
60
0
100
AcDbSpline
70
4
71
2
72
6
73
3
40
0
40
0
40
0
40
1
40
1
40
1
41
1
10
42.8654503654072
20
2.5487485221081
30
0
41
1
10
42.733640730537
20
2.32116416352551
30
0
41
1
10
42.6017270237965
20
2.09388308478299
30
0
0
SPLINE
5
1F4
100
AcDbEntity
8
1
62
256
6
ByLayer
370
18
48
1
60
0
100
AcDbSpline
70
4
71
2
72
6
73
3
40
0
40
0
40
0
40
1
40
1
40
1
41
1
10
43.3128327795709
20
2.05056840314702
30
0
41
1
10
43.2512160342149
20
2.04051917063055
30
0
41
1
10
43.2290948183719
20
2.08616315805619
30
0
0
SPLINE
5
1F5
100
AcDbEntity
8
1
62
256
6
ByLayer
370
18
48
1
60
0
100
AcDbSpline
70
4
71
2
72
6
73
3
40
0
40
0
40
0
40
1
40
1
40
1
41
1
10
43.2252558635255
20
2.09282930025924
30
0
41
1
10
43.092066077806
20
2.32167803100074
30
0
41
1
10
42.9591851511323
20
2.55056596548178
30
0
0
LINE
5
7F
100
AcDbEntity
8
80
62
256
6
ByLayer
370
18
48
1
60
0
100
AcDbLine
10
0
20
0
30
0
11
-5
21
0
31
0
39
0
210
0
220
0
230
1
0
LINE
5
80
100
AcDbEntity
8
4
62
256
6
ByLayer
370
18
48
0.05
60
0
100
AcDbLine
10
0
20
0
30
0
11
47.2
21
0
31
0
39
0
210
0
220
0
230
1
0
LINE
5
82
100
AcDbEntity
8
81
62
256
6
ByLayer
370
18
48
1
60
0
100
AcDbLine
10
47.2
20
0
30
0
11
52.2
21
0
31
0
39
0
210
0
220
0
230
1
0
LINE
5
83
100
AcDbEntity
8
SK4
62
256
6
ByLayer
370
18
48
0.05
60
0
100
AcDbLine
10
-23
20
0
30
0
11
47.2
21
0
31
0
39
0
210
0
220
0
230
1
0
LINE
5
85
100
AcDbEntity
8
1
62
256
6
ByLayer
370
18
48
1
60
0
100
AcDbLine
10
0
20
3
30
0
11
0
21
-3
31
0
39
0
210
0
220
0
230
1
0
LINE
5
86
100
AcDbEntity
8
1
62
256
6
ByLayer
370
18
48
1
60
0
100
AcDbLine
10
41.263024
20
2.54365
30
0
11
41.268749
21
2.551149
31
0
39
0
210
0
220
0
230
1
0
LINE
5
87
100
AcDbEntity
8
1
62
256
6
ByLayer
370
18
48
1
60
0
100
AcDbLine
10
46.030045
20
-2.08454
30
0
11
46.027856
21
-2.08896
31
0
39
0
210
0
220
0
230
1
0
LINE
5
88
100
AcDbEntity
8
1
62
256
6
ByLayer
370
18
48
1
60
0
100
AcDbLine
10
41.618301
20
2.10071
30
0
11
41.614352
21
2.102147
31
0
39
0
210
0
220
0
230
1
0
LINE
5
89
100
AcDbEntity
8
1
62
256
6
ByLayer
370
18
48
1
60
0
100
AcDbLine
10
45.402881
20
-2.095223
30
0
11
45.400508
21
-2.09156
31
0
39
0
210
0
220
0
230
1
0
LINE
5
8A
100
AcDbEntity
8
1
62
256
6
ByLayer
370
18
48
1
60
0
100
AcDbLine
10
42.42759
20
2.089594
30
0
11
42.425069
21
2.093897
31
0
39
0
210
0
220
0
230
1
0
LINE
5
8B
100
AcDbEntity
8
1
62
256
6
ByLayer
370
18
48
1
60
0
100
AcDbLine
10
45.024873
20
-2.438404
30
0
11
45.023652
21
-2.440284
31
0
39
0
210
0
220
0
230
1
0
LINE
5
8C
100
AcDbEntity
8
1
62
256
6
ByLayer
370
18
48
1
60
0
100
AcDbLine
10
43.227903
20
2.088433
30
0
11
43.225231
21
2.092866
31
0
39
0
210
0
220
0
230
1
0
LINE
5
8D
100
AcDbEntity
8
1
62
256
6
ByLayer
370
13
48
1
60
0
100
AcDbLine
10
37.865212
20
-0.995491
30
0
11
37.865212
21
-1.864921
31
0
39
0
210
0
220
0
230
1
0
LINE
5
8E
100
AcDbEntity
8
1
62
256
6
ByLayer
370
18
48
1
60
0
100
AcDbLine
10
44.422084
20
-2.097474
30
0
11
44.417323
21
-2.101521
31
0
39
0
210
0
220
0
230
1
0
LINE
5
8F
100
AcDbEntity
8
1
62
256
6
ByLayer
370
18
48
1
60
0
100
AcDbLine
10
47.2
20
1.605
30
0
11
47.2
21
1.601528
31
0
39
0
210
0
220
0
230
1
0
LINE
5
90
100
AcDbEntity
8
1
62
256
6
ByLayer
370
18
48
1
60
0
100
AcDbLine
10
42.063482
20
2.54432
30
0
11
42.068466
21
2.551044
31
0
39
0
210
0
220
0
230
1
0
LINE
5
91
100
AcDbEntity
8
1
62
256
6
ByLayer
370
13
48
1
60
0
100
AcDbLine
10
37.865212
20
1.998637
30
0
11
37.865212
21
1.554928
31
0
39
0
210
0
220
0
230
1
0
LINE
5
92
100
AcDbEntity
8
1
62
256
6
ByLayer
370
13
48
1
60
0
100
AcDbLine
10
37.615212
20
-1.719833
30
0
11
37.615212
21
-0.805871
31
0
39
0
210
0
220
0
230
1
0
LINE
5
93
100
AcDbEntity
8
1
62
256
6
ByLayer
370
13
48
1
60
0
100
AcDbLine
10
37.615212
20
1.621549
30
0
11
37.615212
21
1.93165
31
0
39
0
210
0
220
0
230
1
0
LINE
5
94
100
AcDbEntity
8
1
62
256
6
ByLayer
370
13
48
1
60
0
100
AcDbLine
10
22.043744
20
-1.93165
30
0
11
22.043744
21
1.93165
31
0
39
0
210
0
220
0
230
1
0
LINE
5
95
100
AcDbEntity
8
1
62
256
6
ByLayer
370
18
48
1
60
0
100
AcDbLine
10
47.2
20
0.174994
30
0
11
47.2
21
-0.892139
31
0
39
0
210
0
220
0
230
1
0
LINE
5
96
100
AcDbEntity
8
1
62
256
6
ByLayer
370
13
48
1
60
0
100
AcDbLine
10
21.95692
20
1.939246
30
0
11
21.95692
21
-1.939246
31
0
39
0
210
0
220
0
230
1
0
LINE
5
97
100
AcDbEntity
8
1
62
256
6
ByLayer
370
18
48
1
60
0
100
AcDbLine
10
15.941086
20
3
30
0
11
15.941086
21
-3
31
0
39
0
210
0
220
0
230
1
0
LINE
5
98
100
AcDbEntity
8
SK1
62
256
6
ByLayer
370
18
48
1
60
0
100
AcDbLine
10
-23
20
1.88
30
0
11
-23
21
-1.88
31
0
39
0
210
0
220
0
230
1
0
LINE
5
9A
100
AcDbEntity
8
SK1
62
256
6
ByLayer
370
18
48
1
60
0
100
AcDbLine
10
-15
20
1.513902
30
0
11
-15
21
-1.513902
31
0
39
0
210
0
220
0
230
1
0
LINE
5
9B
100
AcDbEntity
8
SK1
62
256
6
ByLayer
370
18
48
1
60
0
100
AcDbLine
10
-15
20
2.45
30
0
11
-14.57
21
2.88
31
0
39
0
210
0
220
0
230
1
0
LINE
5
9C
100
AcDbEntity
8
SK1
62
256
6
ByLayer
370
18
48
1
60
0
100
AcDbLine
10
-22
20
2.45
30
0
11
-15
21
2.45
31
0
39
0
210
0
220
0
230
1
0
LINE
5
9D
100
AcDbEntity
8
SK1
62
256
6
ByLayer
370
18
48
1
60
0
100
AcDbLine
10
-22
20
1.513902
30
0
11
-22
21
2.45
31
0
39
0
210
0
220
0
230
1
0
LINE
5
9E
100
AcDbEntity
8
SK1
62
256
6
ByLayer
370
18
48
1
60
0
100
AcDbLine
10
-15
20
1.513902
30
0
11
-22
21
1.513902
31
0
39
0
210
0
220
0
230
1
0
LINE
5
9F
100
AcDbEntity
8
SK1
62
256
6
ByLayer
370
18
48
1
60
0
100
AcDbLine
10
-22
20
-1.513902
30
0
11
-15
21
-1.513902
31
0
39
0
210
0
220
0
230
1
0
LINE
5
A0
100
AcDbEntity
8
SK1
62
256
6
ByLayer
370
18
48
1
60
0
100
AcDbLine
10
-22
20
-2.45
30
0
11
-22
21
-1.513902
31
0
39
0
210
0
220
0
230
1
0
LINE
5
A1
100
AcDbEntity
8
SK1
62
256
6
ByLayer
370
18
48
1
60
0
100
AcDbLine
10
-15
20
-2.45
30
0
11
-22
21
-2.45
31
0
39
0
210
0
220
0
230
1
0
LINE
5
A2
100
AcDbEntity
8
SK1
62
256
6
ByLayer
370
18
48
1
60
0
100
AcDbLine
10
-15
20
-2.45
30
0
11
-14.57
21
-2.88
31
0
39
0
210
0
220
0
230
1
0
LINE
5
A3
100
AcDbEntity
8
SK1
62
256
6
ByLayer
370
18
48
1
60
0
100
AcDbLine
10
0
20
3
30
0
11
0
21
-3
31
0
39
0
210
0
220
0
230
1
0
LINE
5
A4
100
AcDbEntity
8
SK1
62
256
6
ByLayer
370
18
48
1
60
0
100
AcDbLine
10
-14.2
20
2.88
30
0
11
-14.2
21
-2.88
31
0
39
0
210
0
220
0
230
1
0
LINE
5
A5
100
AcDbEntity
8
SK1
62
256
6
ByLayer
370
18
48
1
60
0
100
AcDbLine
10
-14.08
20
-3
30
0
11
-14.08
21
3
31
0
39
0
210
0
220
0
230
1
0
LINE
5
A6
100
AcDbEntity
8
1
62
256
6
ByLayer
370
18
48
1
60
0
100
AcDbLine
10
15.941086
20
3
30
0
11
0
21
3
31
0
39
0
210
0
220
0
230
1
0
LINE
5
A7
100
AcDbEntity
8
1
62
256
6
ByLayer
370
18
48
1
60
0
100
AcDbLine
10
0
20
-3
30
0
11
15.941086
21
-3
31
0
39
0
210
0
220
0
230
1
0
LINE
5
A8
100
AcDbEntity
8
1
62
256
6
ByLayer
370
18
48
1
60
0
100
AcDbLine
10
47.2
20
1.605
30
0
11
47.039205
21
1.765795
31
0
39
0
210
0
220
0
230
1
0
LINE
5
A9
100
AcDbEntity
8
1
62
256
6
ByLayer
370
18
48
1
60
0
100
AcDbLine
10
40.074116
20
-2.553807
30
0
11
40.152623
21
-2.553807
31
0
39
0
210
0
220
0
230
1
0
LINE
5
AA
100
AcDbEntity
8
1
62
256
6
ByLayer
370
18
48
1
60
0
100
AcDbLine
10
42.152567
20
2.553807
30
0
11
42.074189
21
2.553807
31
0
39
0
210
0
220
0
230
1
0
LINE
5
AB
100
AcDbEntity
8
1
62
256
6
ByLayer
370
18
48
1
60
0
100
AcDbLine
10
39.273993
20
-2.553807
30
0
11
39.352213
21
-2.553807
31
0
39
0
210
0
220
0
230
1
0
LINE
5
AC
100
AcDbEntity
8
1
62
256
6
ByLayer
370
18
48
1
60
0
100
AcDbLine
10
42.952187
20
2.553807
30
0
11
42.873898
21
2.553807
31
0
39
0
210
0
220
0
230
1
0
LINE
5
AD
100
AcDbEntity
8
1
62
256
6
ByLayer
370
18
48
1
60
0
100
AcDbLine
10
44.114162
20
-2.553807
30
0
11
44.152328
21
-2.553807
31
0
39
0
210
0
220
0
230
1
0
LINE
5
AE
100
AcDbEntity
8
1
62
256
6
ByLayer
370
18
48
1
60
0
100
AcDbLine
10
22.043744
20
-1.93165
30
0
11
26.045317
21
-1.93165
31
0
39
0
210
0
220
0
230
1
0
LINE
5
AF
100
AcDbEntity
8
1
62
256
6
ByLayer
370
18
48
1
60
0
100
AcDbLine
10
27.786532
20
-1.93165
30
0
11
29.656369
21
-1.93165
31
0
39
0
210
0
220
0
230
1
0
LINE
5
B0
100
AcDbEntity
8
1
62
256
6
ByLayer
370
18
48
1
60
0
100
AcDbLine
10
33.392716
20
-1.93165
30
0
11
35.125831
21
-1.93165
31
0
39
0
210
0
220
0
230
1
0
LINE
5
B1
100
AcDbEntity
8
1
62
256
6
ByLayer
370
18
48
1
60
0
100
AcDbLine
10
37.615212
20
1.93165
30
0
11
36.119992
21
1.93165
31
0
39
0
210
0
220
0
230
1
0
LINE
5
B2
100
AcDbEntity
8
1
62
256
6
ByLayer
370
18
48
1
60
0
100
AcDbLine
10
32.389378
20
1.93165
30
0
11
30.666006
21
1.93165
31
0
39
0
210
0
220
0
230
1
0
LINE
5
B3
100
AcDbEntity
8
1
62
256
6
ByLayer
370
18
48
1
60
0
100
AcDbLine
10
26.981646
20
1.93165
30
0
11
22.043744
21
1.93165
31
0
39
0
210
0
220
0
230
1
0
LINE
5
B4
100
AcDbEntity
8
1
62
256
6
ByLayer
370
18
48
1
60
0
100
AcDbLine
10
21.95692
20
1.939246
30
0
11
15.941086
21
3
31
0
39
0
210
0
220
0
230
1
0
LINE
5
B5
100
AcDbEntity
8
1
62
256
6
ByLayer
370
18
48
1
60
0
100
AcDbLine
10
15.941086
20
-3
30
0
11
21.95692
21
-1.939246
31
0
39
0
210
0
220
0
230
1
0
LINE
5
B6
100
AcDbEntity
8
SK1
62
256
6
ByLayer
370
18
48
1
60
0
100
AcDbLine
10
-23
20
-1.88
30
0
11
-22.43
21
-2.45
31
0
39
0
210
0
220
0
230
1
0
LINE
5
B7
100
AcDbEntity
8
SK1
62
256
6
ByLayer
370
18
48
1
60
0
100
AcDbLine
10
-22.43
20
2.45
30
0
11
-23
21
1.88
31
0
39
0
210
0
220
0
230
1
0
LINE
5
B8
100
AcDbEntity
8
SK1
62
256
6
ByLayer
370
18
48
1
60
0
100
AcDbLine
10
-14.2
20
2.88
30
0
11
-14.57
21
2.88
31
0
39
0
210
0
220
0
230
1
0
LINE
5
B9
100
AcDbEntity
8
SK1
62
256
6
ByLayer
370
18
48
1
60
0
100
AcDbLine
10
-14.57
20
-2.88
30
0
11
-14.2
21
-2.88
31
0
39
0
210
0
220
0
230
1
0
LINE
5
BA
100
AcDbEntity
8
SK1
62
256
6
ByLayer
370
18
48
1
60
0
100
AcDbLine
10
0
20
3
30
0
11
-14.08
21
3
31
0
39
0
210
0
220
0
230
1
0
LINE
5
BB
100
AcDbEntity
8
SK1
62
256
6
ByLayer
370
18
48
1
60
0
100
AcDbLine
10
-14.08
20
-3
30
0
11
0
21
-3
31
0
39
0
210
0
220
0
230
1
0
LINE
5
BC
100
AcDbEntity
8
SK1
62
256
6
ByLayer
370
18
48
1
60
0
100
AcDbLine
10
-14.2
20
-2.88
30
0
11
-14.08
21
-3
31
0
39
0
210
0
220
0
230
1
0
LINE
5
BD
100
AcDbEntity
8
SK1
62
256
6
ByLayer
370
18
48
1
60
0
100
AcDbLine
10
-14.08
20
3
30
0
11
-14.2
21
2.88
31
0
39
0
210
0
220
0
230
1
0
LINE
5
BE
100
AcDbEntity
8
SK2
62
256
6
ByLayer
370
18
48
1
60
0
100
AcDbLine
10
8.930543
20
15.841828
30
0
11
8.930543
21
-10.5
31
0
39
0
210
0
220
0
230
1
0
LINE
5
C0
100
AcDbEntity
8
1
62
256
6
ByLayer
370
18
48
1
60
1
100
AcDbLine
10
8.930543
20
3
30
0
11
8.469759
21
6.499998
31
0
39
0
210
0
220
0
230
1
0
LINE
5
C1
100
AcDbEntity
8
1
62
256
6
ByLayer
370
18
48
1
60
1
100
AcDbLine
10
8.469759
20
6.499998
30
0
11
9.391327
21
6.500002
31
0
39
0
210
0
220
0
230
1
0
LINE
5
C2
100
AcDbEntity
8
1
62
256
6
ByLayer
370
18
48
1
60
1
100
AcDbLine
10
9.391327
20
6.500002
30
0
11
8.930543
21
3
31
0
39
0
210
0
220
0
230
1
0
LINE
5
C3
100
AcDbEntity
8
1
62
256
6
ByLayer
370
18
48
1
60
1
100
AcDbLine
10
8.930543
20
-3
30
0
11
9.391327
21
-6.499998
31
0
39
0
210
0
220
0
230
1
0
LINE
5
C4
100
AcDbEntity
8
1
62
256
6
ByLayer
370
18
48
1
60
1
100
AcDbLine
10
9.391327
20
-6.499998
30
0
11
8.469759
21
-6.500002
31
0
39
0
210
0
220
0
230
1
0
LINE
5
C5
100
AcDbEntity
8
1
62
256
6
ByLayer
370
18
48
1
60
1
100
AcDbLine
10
8.469759
20
-6.500002
30
0
11
8.930543
21
-3
31
0
39
0
210
0
220
0
230
1
0
LINE
5
C6
100
AcDbEntity
8
2
62
256
6
ByLayer
370
18
48
1
60
0
100
AcDbLine
10
47
20
-40.053807
30
0
11
-23
21
-40.053807
31
0
39
0
210
0
220
0
230
1
0
LINE
5
C8
100
AcDbEntity
8
2
62
256
6
ByLayer
370
18
48
1
60
0
100
AcDbLine
10
-23
20
-3.4675
30
0
11
-23
21
-42.053807
31
0
39
0
210
0
220
0
230
1
0
LINE
5
C9
100
AcDbEntity
8
2
62
256
6
ByLayer
370
18
48
1
60
0
100
AcDbLine
10
47
20
-4.141307
30
0
11
47
21
-42.053807
31
0
39
0
210
0
220
0
230
1
0
LINE
5
CA
100
AcDbEntity
8
1
62
256
6
ByLayer
370
18
48
1
60
1
100
AcDbLine
10
-23
20
-40.053807
30
0
11
-19.500002
21
-39.593023
31
0
39
0
210
0
220
0
230
1
0
LINE
5
CB
100
AcDbEntity
8
1
62
256
6
ByLayer
370
18
48
1
60
1
100
AcDbLine
10
-19.500002
20
-39.593023
30
0
11
-19.499998
21
-40.514591
31
0
39
0
210
0
220
0
230
1
0
LINE
5
CC
100
AcDbEntity
8
1
62
256
6
ByLayer
370
18
48
1
60
1
100
AcDbLine
10
-19.499998
20
-40.514591
30
0
11
-23
21
-40.053807
31
0
39
0
210
0
220
0
230
1
0
LINE
5
CD
100
AcDbEntity
8
1
62
256
6
ByLayer
370
18
48
1
60
1
100
AcDbLine
10
47
20
-40.053807
30
0
11
43.500002
21
-40.514591
31
0
39
0
210
0
220
0
230
1
0
LINE
5
CE
100
AcDbEntity
8
1
62
256
6
ByLayer
370
18
48
1
60
1
100
AcDbLine
10
43.500002
20
-40.514591
30
0
11
43.499998
21
-39.593023
31
0
39
0
210
0
220
0
230
1
0
LINE
5
CF
100
AcDbEntity
8
1
62
256
6
ByLayer
370
18
48
1
60
1
100
AcDbLine
10
43.499998
20
-39.593023
30
0
11
47
21
-40.053807
31
0
39
0
210
0
220
0
230
1
0
LINE
5
1FA
100
AcDbEntity
8
1
62
256
6
ByLayer
370
18
48
1
60
1
100
AcDbLine
10
8.930543
20
3
30
0
11
8.469759
21
6.499998
31
0
39
0
210
0
220
0
230
1
0
LINE
5
1FB
100
AcDbEntity
8
1
62
256
6
ByLayer
370
18
48
1
60
1
100
AcDbLine
10
8.469759
20
6.499998
30
0
11
9.391327
21
6.500002
31
0
39
0
210
0
220
0
230
1
0
LINE
5
1FC
100
AcDbEntity
8
1
62
256
6
ByLayer
370
18
48
1
60
1
100
AcDbLine
10
9.391327
20
6.500002
30
0
11
8.930543
21
3
31
0
39
0
210
0
220
0
230
1
0
LINE
5
1FE
100
AcDbEntity
8
1
62
256
6
ByLayer
370
18
48
1
60
1
100
AcDbLine
10
8.930543
20
-3
30
0
11
9.391327
21
-6.499998
31
0
39
0
210
0
220
0
230
1
0
LINE
5
1FF
100
AcDbEntity
8
1
62
256
6
ByLayer
370
18
48
1
60
1
100
AcDbLine
10
9.391327
20
-6.499998
30
0
11
8.469759
21
-6.500002
31
0
39
0
210
0
220
0
230
1
0
LINE
5
200
100
AcDbEntity
8
1
62
256
6
ByLayer
370
18
48
1
60
1
100
AcDbLine
10
8.469759
20
-6.500002
30
0
11
8.930543
21
-3
31
0
39
0
210
0
220
0
230
1
0
LINE
5
203
100
AcDbEntity
8
1
62
256
6
ByLayer
370
18
48
1
60
1
100
AcDbLine
10
-23
20
-40.053807
30
0
11
-19.500002
21
-39.593023
31
0
39
0
210
0
220
0
230
1
0
LINE
5
204
100
AcDbEntity
8
1
62
256
6
ByLayer
370
18
48
1
60
1
100
AcDbLine
10
-19.500002
20
-39.593023
30
0
11
-19.499998
21
-40.514591
31
0
39
0
210
0
220
0
230
1
0
LINE
5
205
100
AcDbEntity
8
1
62
256
6
ByLayer
370
18
48
1
60
1
100
AcDbLine
10
-19.499998
20
-40.514591
30
0
11
-23
21
-40.053807
31
0
39
0
210
0
220
0
230
1
0
LINE
5
207
100
AcDbEntity
8
1
62
256
6
ByLayer
370
18
48
1
60
1
100
AcDbLine
10
47
20
-40.053807
30
0
11
43.500002
21
-40.514591
31
0
39
0
210
0
220
0
230
1
0
LINE
5
208
100
AcDbEntity
8
1
62
256
6
ByLayer
370
18
48
1
60
1
100
AcDbLine
10
43.500002
20
-40.514591
30
0
11
43.499998
21
-39.593023
31
0
39
0
210
0
220
0
230
1
0
LINE
5
209
100
AcDbEntity
8
1
62
256
6
ByLayer
370
18
48
1
60
1
100
AcDbLine
10
43.499998
20
-39.593023
30
0
11
47
21
-40.053807
31
0
39
0
210
0
220
0
230
1
0
MTEXT
5
1F6
100
AcDbEntity
8
SK2
62
256
6
ByLayer
370
18
48
1
60
0
100
AcDbMText
10
7.589429
20
8.658437
30
0
210
0
220
0
230
1
1
%%c
40
3
41
0
44
1.084337
50
90
71
7
72
5
7
iso_b_vert
0
MTEXT
5
1F9
100
AcDbEntity
8
SK2
62
256
6
ByLayer
370
18
48
1
60
0
100
AcDbMText
10
7.589429
20
14.635
30
0
210
0
220
0
230
1
1
\W0.5404;6
40
3
41
0
44
1.084337
50
90
71
7
72
5
7
iso_b_vert
0
MTEXT
5
202
100
AcDbEntity
8
2
62
256
6
ByLayer
370
18
48
1
60
0
100
AcDbMText
10
10.367172
20
-39.168693
30
0
210
0
220
0
230
1
1
\W0.6740;70
40
3
41
0
44
1.084337
50
0
71
7
72
5
7
iso_b_vert
0
MTEXT
5
20B
100
AcDbEntity
8
SK6
62
256
6
ByLayer
370
18
48
1
60
0
100
AcDbMText
10
-6.832193
20
-82.114886
30
0
210
0
220
0
230
1
1
\W0.7320;T300-XM104DA-M5     C110
40
3
41
0
44
1.084337
50
0
71
7
72
5
7
iso_b_vert
0
HATCH
5
1FD
100
AcDbEntity
8
SK2
62
256
6
ByLayer
370
13
48
1
60
0
100
AcDbHatch
10
0
20
0
30
0
210
0
220
0
230
1
2
ANSI31
70
0
71
0
91
1
92
5
93
3
72
1
10
8.93054303400572
20
3.00000000000003
11
8.46975929245295
21
6.49999830744684
72
1
10
8.46975929245295
20
6.49999830744684
11
9.3913267755585
21
6.50000169255321
72
1
10
9.3913267755585
20
6.50000169255321
11
8.93054303400572
21
3.00000000000003
97
0
75
0
76
1
52
0
41
0.0062
77
0
78
1
53
45
43
0
44
0
45
-0.0139193969876572
46
0.0139193969876572
79
0
47
0
98
1
10
0
20
0
0
HATCH
5
201
100
AcDbEntity
8
SK2
62
256
6
ByLayer
370
13
48
1
60
0
100
AcDbHatch
10
0
20
0
30
0
210
0
220
0
230
1
2
ANSI31
70
0
71
0
91
1
92
5
93
3
72
1
10
8.93054303400572
20
-2.99999999999997
11
9.3913267755585
21
-6.49999830744679
72
1
10
9.3913267755585
20
-6.49999830744679
11
8.46975929245295
21
-6.50000169255316
72
1
10
8.46975929245295
20
-6.50000169255316
11
8.93054303400572
21
-2.99999999999997
97
0
75
0
76
1
52
0
41
0.0062
77
0
78
1
53
45
43
0
44
0
45
-0.0139193969876572
46
0.0139193969876572
79
0
47
0
98
1
10
0
20
0
0
HATCH
5
206
100
AcDbEntity
8
2
62
256
6
ByLayer
370
13
48
1
60
0
100
AcDbHatch
10
0
20
0
30
0
210
0
220
0
230
1
2
ANSI31
70
0
71
0
91
1
92
5
93
3
72
1
10
-23
20
-40.0538072347363
11
-19.5000016925532
21
-39.5930234931836
72
1
10
-19.5000016925532
20
-39.5930234931836
11
-19.4999983074468
21
-40.5145909762891
72
1
10
-19.4999983074468
20
-40.5145909762891
11
-23
21
-40.0538072347363
97
0
75
0
76
1
52
0
41
0.0062
77
0
78
1
53
45
43
0
44
0
45
-0.0139193969876572
46
0.0139193969876572
79
0
47
0
98
1
10
0
20
0
0
HATCH
5
20A
100
AcDbEntity
8
2
62
256
6
ByLayer
370
13
48
1
60
0
100
AcDbHatch
10
0
20
0
30
0
210
0
220
0
230
1
2
ANSI31
70
0
71
0
91
1
92
5
93
3
72
1
10
47
20
-40.0538072347363
11
43.5000016925532
21
-40.5145909762891
72
1
10
43.5000016925532
20
-40.5145909762891
11
43.4999983074468
21
-39.5930234931836
72
1
10
43.4999983074468
20
-39.5930234931836
11
47
21
-40.0538072347363
97
0
75
0
76
1
52
0
41
0.0062
77
0
78
1
53
45
43
0
44
0
45
-0.0139193969876572
46
0.0139193969876572
79
0
47
0
98
1
10
0
20
0
0
DIMENSION
5
20E
100
AcDbEntity
8
2
62
256
6
ByLayer
370
18
48
1
60
0
100
AcDbDimension
2
_U0
10
65.651193
20
-2.553807
30
0
11
65.651193
21
20.053807
31
0
70
32
71
1
72
1
41
1
210
0
220
0
230
1
3
Standard
100
AcDbAlignedDimension
13
47
23
2.553807
33
0
14
47
24
-2.553807
34
0
50
90
100
AcDbRotatedDimension
1001
ACAD
1000
DSTYLE
1002
{
1070
   371
1070
    13
1070
   372
1070
    13
1070
     3
1000

1070
   170
1070
     0
1070
   144
1040
1.0
1070
   277
1070
     2
1070
   284
1070
     8
1070
   278
1070
    46
1070
   146
1040
1.166667
1070
   345
1005
16
1070
   347
1005
16
1070
   346
1005
16
1070
   344
1005
0
1070
   343
1005
0
1070
   172
1070
     1
1070
    76
1070
     0
1070
    75
1070
     0
1070
   282
1070
     0
1070
   281
1070
     0
1070
    71
1070
     0
1070
    74
1070
     0
1070
   279
1070
     0
1070
   173
1070
     1
1070
   340
1005
1F7
1070
   271
1070
     3
1070
   272
1070
     3
1070
    77
1070
     1
1070
    73
1070
     0
1070
   171
1070
     3
1070
   274
1070
     4
1070
   177
1070
     2
1070
   176
1070
     2
1070
   178
1070
     2
1070
    78
1070
     8
1070
    48
1040
-0.1
1070
    41
1040
3.5
1070
   147
1040
1.5
1070
    42
1040
1.5875
1070
    44
1040
2.0
1070
   140
1040
3.0
1002
}
1001
ACAD_DSTYLE_DIM_LINETYPE
1070
   380
1005
16
1001
ACAD_DSTYLE_DIM_EXT1_LINETYPE
1070
   381
1005
16
1001
ACAD_DSTYLE_DIM_EXT2_LINETYPE
1070
   382
1005
16
0
DIMENSION
5
229
100
AcDbEntity
8
SK2
62
256
6
ByLayer
370
18
48
1
60
0
100
AcDbDimension
2
_U1
10
44.8
20
11.85
30
0
11
45.9
21
11.85
31
0
70
32
71
1
72
1
41
1
210
0
220
0
230
1
3
Standard
100
AcDbAlignedDimension
13
47
23
2.553807
33
0
14
44.8
24
0
34
0
50
0
100
AcDbRotatedDimension
1001
ACAD
1000
DSTYLE
1002
{
1070
   371
1070
    13
1070
   372
1070
    13
1070
   170
1070
     0
1070
   144
1040
1.0
1070
   277
1070
     2
1070
   284
1070
     8
1070
   278
1070
    46
1070
   146
1040
1.166667
1070
   345
1005
16
1070
   347
1005
16
1070
   346
1005
16
1070
   344
1005
0
1070
   343
1005
0
1070
   172
1070
     1
1070
    76
1070
     0
1070
    75
1070
     0
1070
   282
1070
     0
1070
   281
1070
     0
1070
    71
1070
     0
1070
    74
1070
     0
1070
   279
1070
     0
1070
   173
1070
     1
1070
   340
1005
1F7
1070
   271
1070
     3
1070
   272
1070
     3
1070
    77
1070
     1
1070
    73
1070
     1
1070
   171
1070
     3
1070
   274
1070
     4
1070
   177
1070
     2
1070
   176
1070
     2
1070
   178
1070
     2
1070
    78
1070
     8
1070
    48
1040
-0.1
1070
    41
1040
3.5
1070
   147
1040
1.5
1070
    42
1040
1.5875
1070
    44
1040
2.0
1070
   140
1040
3.0
1002
}
1001
ACAD_DSTYLE_DIM_LINETYPE
1070
   380
1005
16
1001
ACAD_DSTYLE_DIM_EXT1_LINETYPE
1070
   381
1005
16
1001
ACAD_DSTYLE_DIM_EXT2_LINETYPE
1070
   382
1005
16
0
DIMENSION
5
243
100
AcDbEntity
8
SK2
62
256
6
ByLayer
370
18
48
1
60
0
100
AcDbDimension
2
_U2
10
39
20
-9.553807
30
0
11
59.5
21
-9.553807
31
0
70
32
71
1
72
1
41
1
210
0
220
0
230
1
3
Standard
100
AcDbAlignedDimension
13
47
23
-2.553807
33
0
14
39
24
-2.553807
34
0
50
0
100
AcDbRotatedDimension
1001
ACAD
1000
DSTYLE
1002
{
1070
   371
1070
    13
1070
   372
1070
    13
1070
   170
1070
     0
1070
   144
1040
1.0
1070
   277
1070
     2
1070
   284
1070
     8
1070
   278
1070
    46
1070
   146
1040
0.833333
1070
   345
1005
16
1070
   347
1005
16
1070
   346
1005
16
1070
   344
1005
0
1070
   343
1005
0
1070
   172
1070
     1
1070
    76
1070
     0
1070
    75
1070
     0
1070
   282
1070
     0
1070
   281
1070
     0
1070
    47
1040
0.5
1070
    72
1070
     0
1070
    71
1070
     1
1070
    74
1070
     0
1070
   279
1070
     0
1070
   173
1070
     1
1070
   340
1005
1F7
1070
   271
1070
     1
1070
   272
1070
     3
1070
    77
1070
     1
1070
    73
1070
     1
1070
   171
1070
     3
1070
   274
1070
     4
1070
   177
1070
     2
1070
   176
1070
     2
1070
   178
1070
     2
1070
    78
1070
     8
1070
    48
1040
0.5
1070
    41
1040
3.5
1070
   147
1040
1.5
1070
    42
1040
1.5875
1070
    44
1040
2.0
1070
   140
1040
3.0
1002
}
1001
ACAD_DSTYLE_DIM_LINETYPE
1070
   380
1005
16
1001
ACAD_DSTYLE_DIM_EXT1_LINETYPE
1070
   381
1005
16
1001
ACAD_DSTYLE_DIM_EXT2_LINETYPE
1070
   382
1005
16
0
DIMENSION
5
25E
100
AcDbEntity
8
SK2
62
256
6
ByLayer
370
18
48
1
60
0
100
AcDbDimension
2
_U3
10
22
20
-32.053807
30
0
11
34.5
21
-32.053807
31
0
70
32
71
1
72
1
41
1
210
0
220
0
230
1
3
Standard
100
AcDbAlignedDimension
13
47
23
-2.553807
33
0
14
22
24
-1.93165
34
0
50
0
100
AcDbRotatedDimension
1001
ACAD
1000
DSTYLE
1002
{
1070
   371
1070
    13
1070
   372
1070
    13
1070
   170
1070
     0
1070
   144
1040
1.0
1070
   277
1070
     2
1070
   284
1070
     8
1070
   278
1070
    46
1070
   146
1040
1.166667
1070
   345
1005
16
1070
   347
1005
16
1070
   346
1005
16
1070
   344
1005
0
1070
   343
1005
0
1070
   172
1070
     1
1070
    76
1070
     0
1070
    75
1070
     0
1070
   282
1070
     0
1070
   281
1070
     0
1070
    71
1070
     0
1070
    74
1070
     0
1070
   279
1070
     0
1070
   173
1070
     1
1070
   340
1005
1F7
1070
   271
1070
     1
1070
   272
1070
     3
1070
    77
1070
     1
1070
    73
1070
     1
1070
   171
1070
     3
1070
   274
1070
     4
1070
   177
1070
     2
1070
   176
1070
     2
1070
   178
1070
     2
1070
    78
1070
     8
1070
    48
1040
-0.1
1070
    41
1040
3.5
1070
   147
1040
1.5
1070
    42
1040
1.5875
1070
    44
1040
2.0
1070
   140
1040
3.0
1002
}
1001
ACAD_DSTYLE_DIM_LINETYPE
1070
   380
1005
16
1001
ACAD_DSTYLE_DIM_EXT1_LINETYPE
1070
   381
1005
16
1001
ACAD_DSTYLE_DIM_EXT2_LINETYPE
1070
   382
1005
16
0
DIMENSION
5
276
100
AcDbEntity
8
2
62
256
6
ByLayer
370
18
48
1
60
0
100
AcDbDimension
2
_U4
10
25.75
20
-21.053807
30
0
11
36.375
21
-21.053807
31
0
70
32
71
1
72
1
41
1
210
0
220
0
230
1
3
Standard
100
AcDbAlignedDimension
13
47
23
-2.553807
33
0
14
25.75
24
0
34
0
50
0
100
AcDbRotatedDimension
1001
ACAD
1000
DSTYLE
1002
{
1070
   371
1070
    13
1070
   372
1070
    13
1070
   170
1070
     0
1070
   144
1040
1.0
1070
   277
1070
     2
1070
   284
1070
     8
1070
   278
1070
    46
1070
   146
1040
1.166667
1070
   345
1005
16
1070
   347
1005
16
1070
   346
1005
16
1070
   344
1005
0
1070
   343
1005
0
1070
   172
1070
     1
1070
    76
1070
     0
1070
    75
1070
     0
1070
   282
1070
     0
1070
   281
1070
     0
1070
    71
1070
     0
1070
    74
1070
     0
1070
   279
1070
     0
1070
   173
1070
     1
1070
   340
1005
1F7
1070
   271
1070
     1
1070
   272
1070
     3
1070
    77
1070
     1
1070
    73
1070
     1
1070
   171
1070
     3
1070
   274
1070
     4
1070
   177
1070
     2
1070
   176
1070
     2
1070
   178
1070
     2
1070
    78
1070
     8
1070
    48
1040
-0.1
1070
    41
1040
3.5
1070
   147
1040
1.5
1070
    42
1040
1.5875
1070
    44
1040
2.0
1070
   140
1040
3.0
1002
}
1001
ACAD_DSTYLE_DIM_LINETYPE
1070
   380
1005
16
1001
ACAD_DSTYLE_DIM_EXT1_LINETYPE
1070
   381
1005
16
1001
ACAD_DSTYLE_DIM_EXT2_LINETYPE
1070
   382
1005
16
0
ENDSEC
0
SECTION
2
OBJECTS
0
DICTIONARY
5
2fe
330
0
100
AcDbDictionary
280
0
281
1
3
ACAD_GROUP
350
2ff
3
ACAD_MLINESTYLE
350
300
0
DICTIONARY
5
2ff
330
0
100
AcDbDictionary
280
0
281
1
0
DICTIONARY
5
300
330
0
100
AcDbDictionary
280
0
281
1
3
Standard
350
18
0
MLINESTYLE
5
18
330
300
100
AcDbMlineStyle
2
Standard
70
0
3

62
256
51
90
52
90
71
2
49
-0.5
62
256
6
ByLayer
49
0.5
62
256
6
ByLayer
0
RASTERVARIABLES
5
2ec
330

100
AcDbRasterVariables
90
0
70
1
71
1
72
1
0
ENDSEC
0
EOF
