0
SECTION
2
HEADER
9
$ACADVER
1
AC1015
9
$DWGCODEPAGE
3
ANSI_1252
9
$HANDSEED
5
2a7
9
$ANGBASE
50
0
9
$ANGDIR
70
0
9
$ATTMODE
70
1
9
$AUNITS
70
0
9
$AUPREC
70
0
9
$CECOLOR
62
256
9
$CELTSCALE
40
1
9
$CELTYPE
6
ByLayer
9
$CELWEIGHT
370
18
9
$CLAYER
8
0
9
$CMLJUST
70
0
9
$CMLSCALE
40
1
9
$CMLSTYLE
2
Standard
9
$DIMSTYLE
2
Standard
9
$TEXTSIZE
40
0.2
9
$TEXTSTYLE
7
Standard
9
$LUNITS
70
2
9
$LUPREC
70
4
9
$EXTNAMES
290
1
9
$INSUNITS
70
4
9
$LTSCALE
40
1
9
$LWDISPLAY
290
1
9
$PDMODE
70
0
9
$PDSIZE
40
0
9
$PLINEGEN
70
0
0
ENDSEC
0
SECTION
2
CLASSES
0
CLASS
1
RASTERVARIABLES
2
AcDbRasterVariables
3
ISM
90
0
280
0
281
0
0
ENDSEC
0
SECTION
2
TABLES
0
TABLE
2
VPORT
5
29d
100
AcDbSymbolTable
0
VPORT
5
1
100
AcDbSymbolTableRecord
100
AcDbViewportTableRecord
2
*Active
70
0
10
0
20
0
11
1
21
1
12
-1
22
1
13
0
23
0
14
0.5
24
0.5
15
10
25
10
16
0
26
0
36
1
17
0
27
0
37
0
0
ENDTAB
0
TABLE
2
LTYPE
5
29e
100
AcDbSymbolTable
0
LTYPE
5
14
100
AcDbSymbolTableRecord
100
AcDbLinetypeTableRecord
70
0
2
ByBlock
3

72
65
73
0
40
0
0
LTYPE
5
15
100
AcDbSymbolTableRecord
100
AcDbLinetypeTableRecord
70
0
2
ByLayer
3

72
65
73
0
40
0
0
LTYPE
5
16
100
AcDbSymbolTableRecord
100
AcDbLinetypeTableRecord
70
0
2
Continuous
3
Solid line
72
65
73
0
40
0
0
LTYPE
5
6E
100
AcDbSymbolTableRecord
100
AcDbLinetypeTableRecord
70
0
2
CENTER
3
____ _ ____ _ ____ _ ____
72
65
73
4
40
47.5
49
22
74
0
49
-8.5
74
0
49
8.5
74
0
49
-8.5
74
0
0
LTYPE
5
6F
100
AcDbSymbolTableRecord
100
AcDbLinetypeTableRecord
70
0
2
DASHED
3
__ __ __ __ __ __ __ __ __
72
65
73
2
40
25.72
49
12.86
74
0
49
-12.86
74
0
0
ENDTAB
0
TABLE
2
LAYER
5
29f
100
AcDbSymbolTable
0
LAYER
5
10
100
AcDbSymbolTableRecord
100
AcDbLayerTableRecord
2
0
70
0
62
7
6
Continuous
290
1
370
-3
390
0
0
LAYER
5
71
100
AcDbSymbolTableRecord
100
AcDbLayerTableRecord
2
81
70
0
62
-3
6
Continuous
290
1
370
-3
390
0
0
LAYER
5
73
100
AcDbSymbolTableRecord
100
AcDbLayerTableRecord
2
80
70
0
62
-6
6
Continuous
290
1
370
-3
390
0
0
LAYER
5
75
100
AcDbSymbolTableRecord
100
AcDbLayerTableRecord
2
1
70
0
62
4
6
Continuous
290
1
370
-3
390
0
0
LAYER
5
81
100
AcDbSymbolTableRecord
100
AcDbLayerTableRecord
2
4
70
0
62
-2
6
CENTER
290
1
370
-3
390
0
0
LAYER
5
BE
100
AcDbSymbolTableRecord
100
AcDbLayerTableRecord
2
2
70
0
62
7
6
Continuous
290
1
370
-3
390
0
0
LAYER
5
1AE
100
AcDbSymbolTableRecord
100
AcDbLayerTableRecord
2
Defpoints
70
0
62
7
6
Continuous
290
0
370
-3
390
0
0
LAYER
5
289
100
AcDbSymbolTableRecord
100
AcDbLayerTableRecord
2
SK4
70
0
62
2
6
CENTER
290
1
370
-3
390
0
0
LAYER
5
28a
100
AcDbSymbolTableRecord
100
AcDbLayerTableRecord
2
SK1
70
0
62
4
6
Continuous
290
1
370
-3
390
0
0
LAYER
5
28b
100
AcDbSymbolTableRecord
100
AcDbLayerTableRecord
2
SK2
70
0
62
7
6
Continuous
290
1
370
-3
390
0
0
LAYER
5
28c
100
AcDbSymbolTableRecord
100
AcDbLayerTableRecord
2
SK6
70
0
62
5
6
Continuous
290
1
370
-3
390
0
0
ENDTAB
0
TABLE
2
STYLE
5
2a0
100
AcDbSymbolTable
0
STYLE
5
11
100
AcDbSymbolTableRecord
100
AcDbTextStyleTableRecord
2
Standard
3
txt
70
0
71
0
40
0
41
1
42
0
50
0
0
STYLE
5
194
100
AcDbSymbolTableRecord
100
AcDbTextStyleTableRecord
2
iso_b_vert
3
simplex.shx
70
0
71
0
40
0
41
1
42
0
50
0
0
STYLE
5
195
100
AcDbSymbolTableRecord
100
AcDbTextStyleTableRecord
2
DWGDirectTextStyle
3
simplex
70
0
71
0
40
0
41
1
42
0
50
0
0
ENDTAB
0
TABLE
2
DIMSTYLE
5
2a1
100
AcDbSymbolTable
100
AcDbDimStyleTable
0
DIMSTYLE
105
27
100
AcDbSymbolTableRecord
100
AcDbDimStyleTableRecord
2
Standard
70
0
3
<>
41
0.18
42
0.0625
44
0.18
140
0.18
147
0.09
73
0
74
0
77
1
271
2
275
0
278
52
280
0
340
11
0
ENDTAB
0
TABLE
2
VIEW
5
2a2
100
AcDbSymbolTable
0
ENDTAB
0
TABLE
2
UCS
5
2a3
100
AcDbSymbolTable
0
ENDTAB
0
TABLE
2
APPID
5
2a4
100
AcDbSymbolTable
0
APPID
5
12
100
AcDbSymbolTableRecord
100
AcDbRegAppTableRecord
2
ACAD
70
0
0
APPID
5
1AA
100
AcDbSymbolTableRecord
100
AcDbRegAppTableRecord
2
ACAD_DSTYLE_DIMBREAK
70
0
0
APPID
5
248
100
AcDbSymbolTableRecord
100
AcDbRegAppTableRecord
2
ACAD_DSTYLE_DIM_LINETYPE
70
0
0
APPID
5
249
100
AcDbSymbolTableRecord
100
AcDbRegAppTableRecord
2
ACAD_DSTYLE_DIM_EXT1_LINETYPE
70
0
0
APPID
5
24A
100
AcDbSymbolTableRecord
100
AcDbRegAppTableRecord
2
ACAD_DSTYLE_DIM_EXT2_LINETYPE
70
0
0
APPID
5
285
100
AcDbSymbolTableRecord
100
AcDbRegAppTableRecord
2
ACAD_MLEADERVER
70
0
0
ENDTAB
0
TABLE
2
BLOCK_RECORD
5
2a5
100
AcDbSymbolTable
0
BLOCK_RECORD
5
1F
100
AcDbSymbolTableRecord
100
AcDbBlockTableRecord
2
*Model_Space
340
0
70
0
0
BLOCK_RECORD
5
1B
100
AcDbSymbolTableRecord
100
AcDbBlockTableRecord
2
*Paper_Space
340
0
70
0
0
BLOCK_RECORD
5
23
100
AcDbSymbolTableRecord
100
AcDbBlockTableRecord
2
*Paper_Space0
340
0
70
0
0
BLOCK_RECORD
5
1AF
100
AcDbSymbolTableRecord
100
AcDbBlockTableRecord
2
*D1
340
0
70
0
0
BLOCK_RECORD
5
1BD
100
AcDbSymbolTableRecord
100
AcDbBlockTableRecord
2
_U0
340
0
70
0
0
BLOCK_RECORD
5
1C9
100
AcDbSymbolTableRecord
100
AcDbBlockTableRecord
2
*D3
340
0
70
0
0
BLOCK_RECORD
5
1D6
100
AcDbSymbolTableRecord
100
AcDbBlockTableRecord
2
_U1
340
0
70
0
0
BLOCK_RECORD
5
1E3
100
AcDbSymbolTableRecord
100
AcDbBlockTableRecord
2
*D5
340
0
70
0
0
BLOCK_RECORD
5
1F0
100
AcDbSymbolTableRecord
100
AcDbBlockTableRecord
2
_U2
340
0
70
0
0
BLOCK_RECORD
5
1FD
100
AcDbSymbolTableRecord
100
AcDbBlockTableRecord
2
*D7
340
0
70
0
0
BLOCK_RECORD
5
209
100
AcDbSymbolTableRecord
100
AcDbBlockTableRecord
2
_U3
340
0
70
0
0
BLOCK_RECORD
5
215
100
AcDbSymbolTableRecord
100
AcDbBlockTableRecord
2
*D9
340
0
70
0
0
BLOCK_RECORD
5
221
100
AcDbSymbolTableRecord
100
AcDbBlockTableRecord
2
_U4
340
0
70
0
0
ENDTAB
0
ENDSEC
0
SECTION
2
BLOCKS
0
BLOCK
5
20
100
AcDbEntity
8
0
100
AcDbBlockBegin
2
*Model_Space
70
0
10
0
20
0
30
0
3
*Model_Space
0
ENDBLK
5
21
100
AcDbEntity
8
0
100
AcDbBlockEnd
0
BLOCK
5
1C
100
AcDbEntity
8
0
100
AcDbBlockBegin
2
*Paper_Space
70
0
10
0
20
0
30
0
3
*Paper_Space
0
ENDBLK
5
1D
100
AcDbEntity
8
0
100
AcDbBlockEnd
0
BLOCK
5
24
100
AcDbEntity
8
0
100
AcDbBlockBegin
2
*Paper_Space0
70
0
10
0
20
0
30
0
3
*Paper_Space0
0
ENDBLK
5
25
100
AcDbEntity
8
0
100
AcDbBlockEnd
0
BLOCK
5
1B0
100
AcDbEntity
8
0
100
AcDbBlockBegin
2
*D1
70
1
10
0
20
0
30
0
3
*D1
0
LINE
5
1B2
100
AcDbEntity
8
0
62
256
6
ByLayer
370
-2
48
1
60
0
100
AcDbLine
10
84.5875
20
6.076498
30
0
11
104.5
21
6.076498
31
0
39
0
210
0
220
0
230
1
0
LINE
5
1B3
100
AcDbEntity
8
0
62
256
6
ByLayer
370
-2
48
1
60
0
100
AcDbLine
10
84.5875
20
-6.076498
30
0
11
104.5
21
-6.076498
31
0
39
0
210
0
220
0
230
1
0
LINE
5
1B4
100
AcDbEntity
8
0
62
256
6
ByLayer
370
-2
48
1
60
0
100
AcDbLine
10
102.5
20
6.076498
30
0
11
102.5
21
36.50507
31
0
39
0
210
0
220
0
230
1
0
LINE
5
1B5
100
AcDbEntity
8
0
62
256
6
ByLayer
370
-2
48
1
60
0
100
AcDbLine
10
102.5
20
9.576498
30
0
11
102.5
21
13.076498
31
0
39
0
210
0
220
0
230
1
0
LINE
5
1B6
100
AcDbEntity
8
0
62
256
6
ByLayer
370
-2
48
1
60
0
100
AcDbLine
10
102.5
20
-9.576498
30
0
11
102.5
21
-13.076498
31
0
39
0
210
0
220
0
230
1
0
SOLID
5
1B7
100
AcDbEntity
8
0
62
256
6
ByLayer
370
-1
48
1
60
0
100
AcDbTrace
10
101.916667
20
9.576498
30
0
11
103.083333
21
9.576498
31
0
12
102.5
22
6.076498
32
0
13
102.5
23
6.076498
33
0
39
0
210
0
220
0
230
1
0
SOLID
5
1B8
100
AcDbEntity
8
0
62
256
6
ByLayer
370
-1
48
1
60
0
100
AcDbTrace
10
103.083333
20
-9.576498
30
0
11
101.916667
21
-9.576498
31
0
12
102.5
22
-6.076498
32
0
13
102.5
23
-6.076498
33
0
39
0
210
0
220
0
230
1
0
MTEXT
5
1B9
100
AcDbEntity
8
0
62
256
6
ByLayer
370
18
48
1
60
0
100
AcDbMText
10
96.5
20
24.790784
30
0
210
0
220
0
230
1
1
\A1;12.153
40
3
41
0
44
1
50
90
71
5
72
5
7
iso_b_vert
0
POINT
5
1BA
100
AcDbEntity
8
Defpoints
62
0
6
ByLayer
370
-1
48
1
60
0
100
AcDbPoint
10
83
20
6.076498
30
0
39
0
210
0
220
0
230
1
50
360
0
POINT
5
1BB
100
AcDbEntity
8
Defpoints
62
0
6
ByLayer
370
-1
48
1
60
0
100
AcDbPoint
10
83
20
-6.076498
30
0
39
0
210
0
220
0
230
1
50
360
0
POINT
5
1BC
100
AcDbEntity
8
Defpoints
62
0
6
ByLayer
370
-1
48
1
60
0
100
AcDbPoint
10
102.5
20
-6.076498
30
0
39
0
210
0
220
0
230
1
50
360
0
ENDBLK
5
1B1
100
AcDbEntity
8
0
100
AcDbBlockEnd
0
BLOCK
5
1C4
100
AcDbEntity
8
0
100
AcDbBlockBegin
2
_U0
70
0
10
0
20
0
30
0
3
_U0
0
MTEXT
5
1BE
100
AcDbEntity
8
2
62
256
6
ByLayer
370
18
48
1
60
0
100
AcDbMText
10
101.908886
20
16.211498
30
0
210
0
220
0
230
1
1
\W0.6563;M12
40
3
41
0
44
1.084337
50
90
71
7
72
5
7
iso_b_vert
0
LINE
5
1BF
100
AcDbEntity
8
2
62
256
6
ByLayer
370
13
48
1
60
0
100
AcDbLine
10
84.5875
20
6.076498
30
0
11
104.5
21
6.076498
31
0
39
0
210
0
220
0
230
1
0
LINE
5
1C0
100
AcDbEntity
8
2
62
256
6
ByLayer
370
13
48
1
60
0
100
AcDbLine
10
84.5875
20
-6.076498
30
0
11
104.5
21
-6.076498
31
0
39
0
210
0
220
0
230
1
0
LINE
5
1C1
100
AcDbEntity
8
2
62
256
6
ByLayer
370
13
48
1
60
0
100
AcDbLine
10
102.5
20
-6.076498
30
0
11
102.5
21
21.82324
31
0
39
0
210
0
220
0
230
1
0
SOLID
5
1C2
100
AcDbEntity
8
2
62
256
6
ByLayer
370
18
48
1
60
0
100
AcDbTrace
10
102.5
20
6.076498
30
0
11
102.960784
21
2.5765
31
0
12
102.039216
22
2.576497
32
0
13
102.039216
23
2.576497
33
0
39
0
210
0
220
0
230
1
0
SOLID
5
1C3
100
AcDbEntity
8
2
62
256
6
ByLayer
370
18
48
1
60
0
100
AcDbTrace
10
102.5
20
-6.076498
30
0
11
102.039216
21
-2.5765
31
0
12
102.960784
22
-2.576497
32
0
13
102.960784
23
-2.576497
33
0
39
0
210
0
220
0
230
1
0
ENDBLK
5
1C5
100
AcDbEntity
8
0
100
AcDbBlockEnd
0
BLOCK
5
1CA
100
AcDbEntity
8
0
100
AcDbBlockBegin
2
*D3
70
1
10
0
20
0
30
0
3
*D3
0
LINE
5
1CC
100
AcDbEntity
8
0
62
256
6
ByLayer
370
-2
48
1
60
0
100
AcDbLine
10
83
20
7.663998
30
0
11
83
21
17.111164
31
0
39
0
210
0
220
0
230
1
0
LINE
5
1CD
100
AcDbEntity
8
0
62
256
6
ByLayer
370
-2
48
1
60
0
100
AcDbLine
10
79.94
20
1.5875
30
0
11
79.94
21
17.111164
31
0
39
0
210
0
220
0
230
1
0
LINE
5
1CE
100
AcDbEntity
8
0
62
256
6
ByLayer
370
-2
48
1
60
0
100
AcDbLine
10
86.5
20
15.111164
30
0
11
90
21
15.111164
31
0
39
0
210
0
220
0
230
1
0
LINE
5
1CF
100
AcDbEntity
8
0
62
256
6
ByLayer
370
-2
48
1
60
0
100
AcDbLine
10
76.44
20
15.111164
30
0
11
72.94
21
15.111164
31
0
39
0
210
0
220
0
230
1
0
SOLID
5
1D0
100
AcDbEntity
8
0
62
256
6
ByLayer
370
-1
48
1
60
0
100
AcDbTrace
10
86.5
20
15.694497
30
0
11
86.5
21
14.527831
31
0
12
83
22
15.111164
32
0
13
83
23
15.111164
33
0
39
0
210
0
220
0
230
1
0
SOLID
5
1D1
100
AcDbEntity
8
0
62
256
6
ByLayer
370
-1
48
1
60
0
100
AcDbTrace
10
76.44
20
14.527831
30
0
11
76.44
21
15.694497
31
0
12
79.94
22
15.111164
32
0
13
79.94
23
15.111164
33
0
39
0
210
0
220
0
230
1
0
MTEXT
5
1D2
100
AcDbEntity
8
0
62
256
6
ByLayer
370
18
48
1
60
0
100
AcDbMText
10
81.47
20
21.111164
30
0
210
0
220
0
230
1
1
\A1;3.06
40
3
41
0
44
1
50
0
71
5
72
5
7
iso_b_vert
0
POINT
5
1D3
100
AcDbEntity
8
Defpoints
62
0
6
ByLayer
370
-1
48
1
60
0
100
AcDbPoint
10
83
20
6.076498
30
0
39
0
210
0
220
0
230
1
50
360
0
POINT
5
1D4
100
AcDbEntity
8
Defpoints
62
0
6
ByLayer
370
-1
48
1
60
0
100
AcDbPoint
10
79.94
20
0
30
0
39
0
210
0
220
0
230
1
50
360
0
POINT
5
1D5
100
AcDbEntity
8
Defpoints
62
0
6
ByLayer
370
-1
48
1
60
0
100
AcDbPoint
10
79.94
20
15.111164
30
0
39
0
210
0
220
0
230
1
50
360
0
ENDBLK
5
1CB
100
AcDbEntity
8
0
100
AcDbBlockEnd
0
BLOCK
5
1DE
100
AcDbEntity
8
0
100
AcDbBlockBegin
2
_U1
70
0
10
0
20
0
30
0
3
_U1
0
MTEXT
5
1D7
100
AcDbEntity
8
SK2
62
256
6
ByLayer
370
18
48
1
60
0
100
AcDbMText
10
78.135044
20
15.893798
30
0
210
0
220
0
230
1
1
\W0.6844;'E'
40
3.5
41
0
44
1.084337
50
0
71
7
72
5
7
iso_b_vert
0
MTEXT
5
1D8
100
AcDbEntity
8
SK2
62
256
6
ByLayer
370
18
48
1
60
0
100
AcDbMText
10
78.108544
20
22.996278
30
0
210
0
220
0
230
1
1
\W0.7346;3.06
40
3
41
0
44
1.084337
50
0
71
7
72
5
7
iso_b_vert
0
LINE
5
1D9
100
AcDbEntity
8
SK2
62
256
6
ByLayer
370
13
48
1
60
0
100
AcDbLine
10
83
20
7.663998
30
0
11
83
21
17.111164
31
0
39
0
210
0
220
0
230
1
0
LINE
5
1DA
100
AcDbEntity
8
SK2
62
256
6
ByLayer
370
13
48
1
60
0
100
AcDbLine
10
79.94
20
1.5875
30
0
11
79.94
21
17.111164
31
0
39
0
210
0
220
0
230
1
0
LINE
5
1DB
100
AcDbEntity
8
SK2
62
256
6
ByLayer
370
13
48
1
60
0
100
AcDbLine
10
90.5
20
15.111164
30
0
11
72.44
21
15.111164
31
0
39
0
210
0
220
0
230
1
0
SOLID
5
1DC
100
AcDbEntity
8
SK2
62
256
6
ByLayer
370
18
48
1
60
0
100
AcDbTrace
10
83
20
15.111164
30
0
11
86.499998
21
15.571948
31
0
12
86.500002
22
14.65038
32
0
13
86.500002
23
14.65038
33
0
39
0
210
0
220
0
230
1
0
SOLID
5
1DD
100
AcDbEntity
8
SK2
62
256
6
ByLayer
370
18
48
1
60
0
100
AcDbTrace
10
79.94
20
15.111164
30
0
11
76.440002
21
14.65038
31
0
12
76.439998
22
15.571948
32
0
13
76.439998
23
15.571948
33
0
39
0
210
0
220
0
230
1
0
ENDBLK
5
1DF
100
AcDbEntity
8
0
100
AcDbBlockEnd
0
BLOCK
5
1E4
100
AcDbEntity
8
0
100
AcDbBlockBegin
2
*D5
70
1
10
0
20
0
30
0
3
*D5
0
LINE
5
1E6
100
AcDbEntity
8
0
62
256
6
ByLayer
370
-2
48
1
60
0
100
AcDbLine
10
83
20
-7.663998
30
0
11
83
21
-15.076498
31
0
39
0
210
0
220
0
230
1
0
LINE
5
1E7
100
AcDbEntity
8
0
62
256
6
ByLayer
370
-2
48
1
60
0
100
AcDbLine
10
67
20
-7.663998
30
0
11
67
21
-15.076498
31
0
39
0
210
0
220
0
230
1
0
LINE
5
1E8
100
AcDbEntity
8
0
62
256
6
ByLayer
370
-2
48
1
60
0
100
AcDbLine
10
83
20
-13.076498
30
0
11
102.00579
21
-13.076498
31
0
39
0
210
0
220
0
230
1
0
LINE
5
1E9
100
AcDbEntity
8
0
62
256
6
ByLayer
370
-2
48
1
60
0
100
AcDbLine
10
79.5
20
-13.076498
30
0
11
70.5
21
-13.076498
31
0
39
0
210
0
220
0
230
1
0
SOLID
5
1EA
100
AcDbEntity
8
0
62
256
6
ByLayer
370
-1
48
1
60
0
100
AcDbTrace
10
79.5
20
-13.659832
30
0
11
79.5
21
-12.493165
31
0
12
83
22
-13.076498
32
0
13
83
23
-13.076498
33
0
39
0
210
0
220
0
230
1
0
SOLID
5
1EB
100
AcDbEntity
8
0
62
256
6
ByLayer
370
-1
48
1
60
0
100
AcDbTrace
10
70.5
20
-12.493165
30
0
11
70.5
21
-13.659832
31
0
12
67
22
-13.076498
32
0
13
67
23
-13.076498
33
0
39
0
210
0
220
0
230
1
0
MTEXT
5
1EC
100
AcDbEntity
8
0
62
256
6
ByLayer
370
18
48
1
60
0
100
AcDbMText
10
95.291504
20
-7.076498
30
0
210
0
220
0
230
1
1
\A1;16
40
3
41
0
44
1
50
0
71
5
72
5
7
iso_b_vert
0
POINT
5
1ED
100
AcDbEntity
8
Defpoints
62
0
6
ByLayer
370
-1
48
1
60
0
100
AcDbPoint
10
83
20
-6.076498
30
0
39
0
210
0
220
0
230
1
50
360
0
POINT
5
1EE
100
AcDbEntity
8
Defpoints
62
0
6
ByLayer
370
-1
48
1
60
0
100
AcDbPoint
10
67
20
-6.076498
30
0
39
0
210
0
220
0
230
1
50
360
0
POINT
5
1EF
100
AcDbEntity
8
Defpoints
62
0
6
ByLayer
370
-1
48
1
60
0
100
AcDbPoint
10
67
20
-13.076498
30
0
39
0
210
0
220
0
230
1
50
360
0
ENDBLK
5
1E5
100
AcDbEntity
8
0
100
AcDbBlockEnd
0
BLOCK
5
1F8
100
AcDbEntity
8
0
100
AcDbBlockBegin
2
_U2
70
0
10
0
20
0
30
0
3
_U2
0
MTEXT
5
1F1
100
AcDbEntity
8
SK2
62
256
6
ByLayer
370
18
48
1
60
0
100
AcDbMText
10
89.159
20
-12.191384
30
0
210
0
220
0
230
1
1
\W0.5321;16
40
3
41
0
44
1.084337
50
0
71
7
72
5
7
iso_b_vert
0
MTEXT
5
1F2
100
AcDbEntity
8
SK2
62
256
6
ByLayer
370
18
48
1
60
0
100
AcDbMText
10
94.466271
20
-11.838903
30
0
210
0
220
0
230
1
1
\W0.8315;\W0.4158;%%p\W0.8315;0.5
40
2.5
41
0
44
1.084337
50
0
71
7
72
5
7
iso_b_vert
0
LINE
5
1F3
100
AcDbEntity
8
SK2
62
256
6
ByLayer
370
13
48
1
60
0
100
AcDbLine
10
83
20
-7.663998
30
0
11
83
21
-15.076498
31
0
39
0
210
0
220
0
230
1
0
LINE
5
1F4
100
AcDbEntity
8
SK2
62
256
6
ByLayer
370
13
48
1
60
0
100
AcDbLine
10
67
20
-7.663998
30
0
11
67
21
-15.076498
31
0
39
0
210
0
220
0
230
1
0
LINE
5
1F5
100
AcDbEntity
8
SK2
62
256
6
ByLayer
370
13
48
1
60
0
100
AcDbLine
10
67
20
-13.076498
30
0
11
101.583008
21
-13.076498
31
0
39
0
210
0
220
0
230
1
0
SOLID
5
1F6
100
AcDbEntity
8
SK2
62
256
6
ByLayer
370
18
48
1
60
0
100
AcDbTrace
10
83
20
-13.076498
30
0
11
79.500002
21
-13.537282
31
0
12
79.499998
22
-12.615715
32
0
13
79.499998
23
-12.615715
33
0
39
0
210
0
220
0
230
1
0
SOLID
5
1F7
100
AcDbEntity
8
SK2
62
256
6
ByLayer
370
18
48
1
60
0
100
AcDbTrace
10
67
20
-13.076498
30
0
11
70.499998
21
-12.615715
31
0
12
70.500002
22
-13.537282
32
0
13
70.500002
23
-13.537282
33
0
39
0
210
0
220
0
230
1
0
ENDBLK
5
1F9
100
AcDbEntity
8
0
100
AcDbBlockEnd
0
BLOCK
5
1FE
100
AcDbEntity
8
0
100
AcDbBlockBegin
2
*D7
70
1
10
0
20
0
30
0
3
*D7
0
LINE
5
200
100
AcDbEntity
8
0
62
256
6
ByLayer
370
-2
48
1
60
0
100
AcDbLine
10
83
20
-7.663998
30
0
11
83
21
-37.576498
31
0
39
0
210
0
220
0
230
1
0
LINE
5
201
100
AcDbEntity
8
0
62
256
6
ByLayer
370
-2
48
1
60
0
100
AcDbLine
10
28
20
-5.9375
30
0
11
28
21
-37.576498
31
0
39
0
210
0
220
0
230
1
0
LINE
5
202
100
AcDbEntity
8
0
62
256
6
ByLayer
370
-2
48
1
60
0
100
AcDbLine
10
79.5
20
-35.576498
30
0
11
31.5
21
-35.576498
31
0
39
0
210
0
220
0
230
1
0
SOLID
5
203
100
AcDbEntity
8
0
62
256
6
ByLayer
370
-1
48
1
60
0
100
AcDbTrace
10
79.5
20
-36.159832
30
0
11
79.5
21
-34.993165
31
0
12
83
22
-35.576498
32
0
13
83
23
-35.576498
33
0
39
0
210
0
220
0
230
1
0
SOLID
5
204
100
AcDbEntity
8
0
62
256
6
ByLayer
370
-1
48
1
60
0
100
AcDbTrace
10
31.5
20
-34.993165
30
0
11
31.5
21
-36.159832
31
0
12
28
22
-35.576498
32
0
13
28
23
-35.576498
33
0
39
0
210
0
220
0
230
1
0
MTEXT
5
205
100
AcDbEntity
8
0
62
256
6
ByLayer
370
18
48
1
60
0
100
AcDbMText
10
55.5
20
-29.576498
30
0
210
0
220
0
230
1
1
\A1;55
40
3
41
0
44
1
50
0
71
5
72
5
7
iso_b_vert
0
POINT
5
206
100
AcDbEntity
8
Defpoints
62
0
6
ByLayer
370
-1
48
1
60
0
100
AcDbPoint
10
83
20
-6.076498
30
0
39
0
210
0
220
0
230
1
50
360
0
POINT
5
207
100
AcDbEntity
8
Defpoints
62
0
6
ByLayer
370
-1
48
1
60
0
100
AcDbPoint
10
28
20
-4.35
30
0
39
0
210
0
220
0
230
1
50
360
0
POINT
5
208
100
AcDbEntity
8
Defpoints
62
0
6
ByLayer
370
-1
48
1
60
0
100
AcDbPoint
10
28
20
-35.576498
30
0
39
0
210
0
220
0
230
1
50
360
0
ENDBLK
5
1FF
100
AcDbEntity
8
0
100
AcDbBlockEnd
0
BLOCK
5
210
100
AcDbEntity
8
0
100
AcDbBlockBegin
2
_U3
70
0
10
0
20
0
30
0
3
_U3
0
MTEXT
5
20A
100
AcDbEntity
8
SK2
62
256
6
ByLayer
370
18
48
1
60
0
100
AcDbMText
10
53.867172
20
-34.691384
30
0
210
0
220
0
230
1
1
\W0.6740;55
40
3
41
0
44
1.084337
50
0
71
7
72
5
7
iso_b_vert
0
LINE
5
20B
100
AcDbEntity
8
SK2
62
256
6
ByLayer
370
13
48
1
60
0
100
AcDbLine
10
83
20
-7.663998
30
0
11
83
21
-37.576498
31
0
39
0
210
0
220
0
230
1
0
LINE
5
20C
100
AcDbEntity
8
SK2
62
256
6
ByLayer
370
13
48
1
60
0
100
AcDbLine
10
28
20
-5.9375
30
0
11
28
21
-37.576498
31
0
39
0
210
0
220
0
230
1
0
LINE
5
20D
100
AcDbEntity
8
SK2
62
256
6
ByLayer
370
13
48
1
60
0
100
AcDbLine
10
83
20
-35.576498
30
0
11
28
21
-35.576498
31
0
39
0
210
0
220
0
230
1
0
SOLID
5
20E
100
AcDbEntity
8
SK2
62
256
6
ByLayer
370
18
48
1
60
0
100
AcDbTrace
10
83
20
-35.576498
30
0
11
79.500002
21
-36.037282
31
0
12
79.499998
22
-35.115715
32
0
13
79.499998
23
-35.115715
33
0
39
0
210
0
220
0
230
1
0
SOLID
5
20F
100
AcDbEntity
8
SK2
62
256
6
ByLayer
370
18
48
1
60
0
100
AcDbTrace
10
28
20
-35.576498
30
0
11
31.499998
21
-35.115715
31
0
12
31.500002
22
-36.037282
32
0
13
31.500002
23
-36.037282
33
0
39
0
210
0
220
0
230
1
0
ENDBLK
5
211
100
AcDbEntity
8
0
100
AcDbBlockEnd
0
BLOCK
5
216
100
AcDbEntity
8
0
100
AcDbBlockBegin
2
*D9
70
1
10
0
20
0
30
0
3
*D9
0
LINE
5
218
100
AcDbEntity
8
0
62
256
6
ByLayer
370
-2
48
1
60
0
100
AcDbLine
10
83
20
-7.663998
30
0
11
83
21
-26.576498
31
0
39
0
210
0
220
0
230
1
0
LINE
5
219
100
AcDbEntity
8
0
62
256
6
ByLayer
370
-2
48
1
60
0
100
AcDbLine
10
36.25
20
-1.5875
30
0
11
36.25
21
-26.576498
31
0
39
0
210
0
220
0
230
1
0
LINE
5
21A
100
AcDbEntity
8
0
62
256
6
ByLayer
370
-2
48
1
60
0
100
AcDbLine
10
79.5
20
-24.576498
30
0
11
39.75
21
-24.576498
31
0
39
0
210
0
220
0
230
1
0
SOLID
5
21B
100
AcDbEntity
8
0
62
256
6
ByLayer
370
-1
48
1
60
0
100
AcDbTrace
10
79.5
20
-25.159832
30
0
11
79.5
21
-23.993165
31
0
12
83
22
-24.576498
32
0
13
83
23
-24.576498
33
0
39
0
210
0
220
0
230
1
0
SOLID
5
21C
100
AcDbEntity
8
0
62
256
6
ByLayer
370
-1
48
1
60
0
100
AcDbTrace
10
39.75
20
-23.993165
30
0
11
39.75
21
-25.159832
31
0
12
36.25
22
-24.576498
32
0
13
36.25
23
-24.576498
33
0
39
0
210
0
220
0
230
1
0
MTEXT
5
21D
100
AcDbEntity
8
0
62
256
6
ByLayer
370
18
48
1
60
0
100
AcDbMText
10
59.625
20
-18.576498
30
0
210
0
220
0
230
1
1
\A1;46.8
40
3
41
0
44
1
50
0
71
5
72
5
7
iso_b_vert
0
POINT
5
21E
100
AcDbEntity
8
Defpoints
62
0
6
ByLayer
370
-1
48
1
60
0
100
AcDbPoint
10
83
20
-6.076498
30
0
39
0
210
0
220
0
230
1
50
360
0
POINT
5
21F
100
AcDbEntity
8
Defpoints
62
0
6
ByLayer
370
-1
48
1
60
0
100
AcDbPoint
10
36.25
20
0
30
0
39
0
210
0
220
0
230
1
50
360
0
POINT
5
220
100
AcDbEntity
8
Defpoints
62
0
6
ByLayer
370
-1
48
1
60
0
100
AcDbPoint
10
36.25
20
-24.576498
30
0
39
0
210
0
220
0
230
1
50
360
0
ENDBLK
5
217
100
AcDbEntity
8
0
100
AcDbBlockEnd
0
BLOCK
5
228
100
AcDbEntity
8
0
100
AcDbBlockBegin
2
_U4
70
0
10
0
20
0
30
0
3
_U4
0
MTEXT
5
222
100
AcDbEntity
8
2
62
256
6
ByLayer
370
18
48
1
60
0
100
AcDbMText
10
56.105601
20
-23.691384
30
0
210
0
220
0
230
1
1
\W0.7640;46.8
40
3
41
0
44
1.084337
50
0
71
7
72
5
7
iso_b_vert
0
LINE
5
223
100
AcDbEntity
8
2
62
256
6
ByLayer
370
13
48
1
60
0
100
AcDbLine
10
83
20
-7.663998
30
0
11
83
21
-26.576498
31
0
39
0
210
0
220
0
230
1
0
LINE
5
224
100
AcDbEntity
8
2
62
256
6
ByLayer
370
13
48
1
60
0
100
AcDbLine
10
36.25
20
-1.5875
30
0
11
36.25
21
-26.576498
31
0
39
0
210
0
220
0
230
1
0
LINE
5
225
100
AcDbEntity
8
2
62
256
6
ByLayer
370
13
48
1
60
0
100
AcDbLine
10
83
20
-24.576498
30
0
11
36.25
21
-24.576498
31
0
39
0
210
0
220
0
230
1
0
SOLID
5
226
100
AcDbEntity
8
2
62
256
6
ByLayer
370
18
48
1
60
0
100
AcDbTrace
10
83
20
-24.576498
30
0
11
79.500002
21
-25.037282
31
0
12
79.499998
22
-24.115715
32
0
13
79.499998
23
-24.115715
33
0
39
0
210
0
220
0
230
1
0
SOLID
5
227
100
AcDbEntity
8
2
62
256
6
ByLayer
370
18
48
1
60
0
100
AcDbTrace
10
36.25
20
-24.576498
30
0
11
39.749998
21
-24.115715
31
0
12
39.750002
22
-25.037282
32
0
13
39.750002
23
-25.037282
33
0
39
0
210
0
220
0
230
1
0
ENDBLK
5
229
100
AcDbEntity
8
0
100
AcDbBlockEnd
0
ENDSEC
0
SECTION
2
ENTITIES
0
ARC
5
C7
100
AcDbEntity
8
SK1
62
256
6
ByLayer
370
18
48
1
60
0
100
AcDbCircle
39
0
10
-20.5
20
0
30
0
40
4.3200000000001
210
0
220
0
230
1
100
AcDbArc
50
324.114028
51
35.885972
0
ARC
5
C8
100
AcDbEntity
8
1
62
256
6
ByLayer
370
18
48
1
60
0
100
AcDbCircle
39
0
10
65.079445
20
-5.75
30
0
40
1.4
210
0
220
0
230
1
100
AcDbArc
50
30
51
90
0
ARC
5
C9
100
AcDbEntity
8
1
62
256
6
ByLayer
370
18
48
1
60
0
100
AcDbCircle
39
0
10
28.653835
20
-5.85
30
0
40
1.5
210
0
220
0
230
1
100
AcDbArc
50
90
51
115.841933
0
ARC
5
CA
100
AcDbEntity
8
1
62
256
6
ByLayer
370
18
48
1
60
0
100
AcDbCircle
39
0
10
28.653835
20
5.85
30
0
40
1.5
210
0
220
0
230
1
100
AcDbArc
50
244.158067
51
270
0
POINT
5
70
100
AcDbEntity
8
81
62
256
6
ByLayer
370
18
48
1
60
0
100
AcDbPoint
10
83
20
0
30
0
39
0
210
0
220
0
230
1
50
360
0
POINT
5
72
100
AcDbEntity
8
80
62
256
6
ByLayer
370
18
48
1
60
0
100
AcDbPoint
10
0
20
0
30
0
39
0
210
0
220
0
230
1
50
360
0
POINT
5
74
100
AcDbEntity
8
1
62
256
6
ByLayer
370
18
48
1
60
1
100
AcDbPoint
10
83
20
6.076498
30
0
39
0
210
0
220
0
230
1
50
360
0
POINT
5
76
100
AcDbEntity
8
1
62
256
6
ByLayer
370
18
48
1
60
1
100
AcDbPoint
10
83
20
-6.076498
30
0
39
0
210
0
220
0
230
1
50
360
0
POINT
5
77
100
AcDbEntity
8
1
62
256
6
ByLayer
370
18
48
1
60
1
100
AcDbPoint
10
83
20
6.076498
30
0
39
0
210
0
220
0
230
1
50
360
0
POINT
5
78
100
AcDbEntity
8
1
62
256
6
ByLayer
370
18
48
1
60
1
100
AcDbPoint
10
79.94
20
0
30
0
39
0
210
0
220
0
230
1
50
360
0
POINT
5
79
100
AcDbEntity
8
1
62
256
6
ByLayer
370
18
48
1
60
1
100
AcDbPoint
10
83
20
-6.076498
30
0
39
0
210
0
220
0
230
1
50
360
0
POINT
5
7A
100
AcDbEntity
8
1
62
256
6
ByLayer
370
18
48
1
60
1
100
AcDbPoint
10
67
20
-6.076498
30
0
39
0
210
0
220
0
230
1
50
360
0
POINT
5
7B
100
AcDbEntity
8
1
62
256
6
ByLayer
370
18
48
1
60
1
100
AcDbPoint
10
83
20
-6.076498
30
0
39
0
210
0
220
0
230
1
50
360
0
POINT
5
7C
100
AcDbEntity
8
1
62
256
6
ByLayer
370
18
48
1
60
1
100
AcDbPoint
10
28
20
-4.35
30
0
39
0
210
0
220
0
230
1
50
360
0
POINT
5
7D
100
AcDbEntity
8
1
62
256
6
ByLayer
370
18
48
1
60
1
100
AcDbPoint
10
83
20
-6.076498
30
0
39
0
210
0
220
0
230
1
50
360
0
POINT
5
7E
100
AcDbEntity
8
1
62
256
6
ByLayer
370
18
48
1
60
1
100
AcDbPoint
10
36.25
20
0
30
0
39
0
210
0
220
0
230
1
50
360
0
SPLINE
5
CB
100
AcDbEntity
8
1
62
256
6
ByLayer
370
18
48
1
60
0
100
AcDbSpline
70
4
71
3
72
10
73
6
40
0
40
0
40
0
40
0
40
0.381863587839846
40
0.381863587839846
40
1
40
1
40
1
40
1
41
1
10
82.0187873691099
20
5.06794926679305
30
0
41
1
10
82.0211493184877
20
5.07382808838244
30
0
41
1
10
82.0235150965688
20
5.07903234438893
30
0
41
1
10
82.029732379609
20
5.09087411345027
30
0
41
1
10
82.0336032014893
20
5.09640612710263
30
0
41
1
10
82.0375004533099
20
5.10010154437114
30
0
0
SPLINE
5
CC
100
AcDbEntity
8
1
62
256
6
ByLayer
370
18
48
1
60
0
100
AcDbSpline
70
4
71
3
72
8
73
4
40
0
40
0
40
0
40
0
40
1
40
1
40
1
40
1
41
1
10
70.081882850929
20
5.60019818688227
30
0
41
1
10
70.0734739821205
20
5.59620436901844
30
0
41
1
10
70.065053406069
20
5.58456969396536
30
0
41
1
10
70.0566127323418
20
5.56523619323943
30
0
0
SPLINE
5
CD
100
AcDbEntity
8
1
62
256
6
ByLayer
370
18
48
1
60
0
100
AcDbSpline
70
4
71
3
72
8
73
4
40
0
40
0
40
0
40
0
40
1
40
1
40
1
40
1
41
1
10
80.3141524688937
20
-5.8279609057887
30
0
41
1
10
80.3040613745326
20
-5.84013933802257
30
0
41
1
10
80.2940452398607
20
-5.84404480925613
30
0
41
1
10
80.2840922464218
20
-5.839661362877
30
0
0
SPLINE
5
CE
100
AcDbEntity
8
1
62
256
6
ByLayer
370
18
48
1
60
0
100
AcDbSpline
70
4
71
3
72
8
73
4
40
0
40
0
40
0
40
0
40
1
40
1
40
1
40
1
41
1
10
79.9181060664975
20
-5.97416568896335
30
0
41
1
10
79.9201250998492
20
-5.97877818691731
30
0
41
1
10
79.9221479565984
20
-5.9828349338608
30
0
41
1
10
79.9241731816188
20
-5.98633288634667
30
0
0
SPLINE
5
CF
100
AcDbEntity
8
1
62
256
6
ByLayer
370
18
48
1
60
0
100
AcDbSpline
70
4
71
3
72
12
73
8
40
0
40
0
40
0
40
0
40
0.0069626412239702
40
0.0069626412239702
40
0.463531028954218
40
0.463531028954218
40
1
40
1
40
1
40
1
41
1
10
79.9307794380424
20
-5.99574994865082
30
0
41
1
10
79.9308449797192
20
-5.99582362291147
30
0
41
1
10
79.9309105222182
20
-5.9958967104487
30
0
41
1
10
79.9352740014451
20
-6.00072337438016
30
0
41
1
10
79.9395534289505
20
-6.00293097624433
30
0
41
1
10
79.9488071717928
20
-6.00228170494267
30
0
41
1
10
79.9537704171538
20
-5.99847567999544
30
0
41
1
10
79.958699525122
20
-5.99124464160963
30
0
0
SPLINE
5
D0
100
AcDbEntity
8
1
62
256
6
ByLayer
370
18
48
1
60
0
100
AcDbSpline
70
4
71
3
72
8
73
4
40
0
40
0
40
0
40
0
40
1
40
1
40
1
40
1
41
1
10
67.4545079313501
20
-5.59858765333308
30
0
41
1
10
67.4489870311833
20
-5.59491817231449
30
0
41
1
10
67.4434514106754
20
-5.58796737544776
30
0
41
1
10
67.437899934666
20
-5.57769729200513
30
0
0
SPLINE
5
D1
100
AcDbEntity
8
1
62
256
6
ByLayer
370
13
48
1
60
0
100
AcDbSpline
70
4
71
3
72
8
73
4
40
0
40
0
40
0
40
0
40
1
40
1
40
1
40
1
41
1
10
67.4378999346701
20
-5.57769729201294
30
0
41
1
10
67.4296557742213
20
-5.56244581374537
30
0
41
1
10
67.4213766469702
20
-5.5398741735892
30
0
41
1
10
67.4130588352445
20
-5.50985801666624
30
0
0
SPLINE
5
D2
100
AcDbEntity
8
1
62
256
6
ByLayer
370
13
48
1
60
0
100
AcDbSpline
70
4
71
3
72
9
73
5
40
0
40
0
40
0
40
0
40
0.996421173259079
40
1
40
1
40
1
40
1
41
1
10
71.9213182475691
20
5.35635163862145
30
0
41
1
10
71.8865878072282
20
5.56072629675771
30
0
41
1
10
71.8516916559861
20
5.64073945464474
30
0
41
1
10
71.816378127547
20
5.58460024960905
30
0
41
1
10
71.8162517412332
20
5.58439759350955
30
0
0
SPLINE
5
D3
100
AcDbEntity
8
1
62
256
6
ByLayer
370
13
48
1
60
0
100
AcDbSpline
70
4
71
3
72
8
73
4
40
0
40
0
40
0
40
0
40
1
40
1
40
1
40
1
41
1
10
79.6858263670936
20
-5.57454870601825
30
0
41
1
10
79.6823154417221
20
-5.56759893590726
30
0
41
1
10
79.6788044128824
20
-5.55931835364851
30
0
41
1
10
79.675292894376
20
-5.54970680418089
30
0
0
SPLINE
5
D4
100
AcDbEntity
8
1
62
256
6
ByLayer
370
18
48
1
60
0
100
AcDbSpline
70
4
71
3
72
11
73
7
40
0
40
0
40
0
40
0
40
0.0882377187215974
40
0.479398805550278
40
0.938295493648205
40
1
40
1
40
1
40
1
41
1
10
82.9999999999999
20
0.253686993872861
30
0
41
1
10
82.9999999999999
20
0.169127881936277
30
0
41
1
10
83
20
-0.291544257740128
30
0
41
1
10
83.0000000000003
20
-1.19833616380697
30
0
41
1
10
82.9999999999999
20
-2.01651355963025
30
0
41
1
10
82.9999999999999
20
-2.43630906026988
30
0
41
1
10
82.9999999999999
20
-2.48536948264356
30
0
0
SPLINE
5
D5
100
AcDbEntity
8
1
62
256
6
ByLayer
370
18
48
1
60
0
100
AcDbSpline
70
4
71
3
72
10
73
6
40
0
40
0
40
0
40
0
40
0.379807877027454
40
0.759266526491404
40
1
40
1
40
1
40
1
41
1
10
82.4000000142462
20
-2.46813015333663
30
0
41
1
10
82.4000000166951
20
-2.09424397679055
30
0
41
1
10
82.3999999933592
20
-1.29019004123521
30
0
41
1
10
82.39999994302
20
-0.15610577560696
30
0
41
1
10
82.3999999363551
20
0.542709792762878
30
0
41
1
10
82.399999935597
20
0.809635363039718
30
0
0
SPLINE
5
D6
100
AcDbEntity
8
1
62
256
6
ByLayer
370
18
48
1
60
0
100
AcDbSpline
70
4
71
3
72
33
73
29
40
0
40
0
40
0
40
0
40
0.0625000000000002
40
0.0625000000000002
40
0.125
40
0.187500000000001
40
0.187500000000001
40
0.250000000000001
40
0.250000000000001
40
0.375000000000002
40
0.375000000000002
40
0.437500000000002
40
0.437500000000002
40
0.500000000000002
40
0.500000000000002
40
0.625000000000001
40
0.625000000000001
40
0.687500000000001
40
0.687500000000001
40
0.750000000000001
40
0.750000000000001
40
0.812500000000001
40
0.812500000000001
40
0.875
40
0.875
40
0.9375
40
0.9375
40
1
40
1
40
1
40
1
41
1
10
82.2437129717655
20
0.964442075773093
30
0
41
1
10
82.2465320744656
20
0.892561251079769
30
0
41
1
10
82.2493523343669
20
0.820291516685643
30
0
41
1
10
82.2549642521755
20
0.675219537534673
30
0
41
1
10
82.2605383444977
20
0.529853267490125
30
0
41
1
10
82.2659744588669
20
0.383899407381136
30
0
41
1
10
82.2712990103112
20
0.237650023654879
30
0
41
1
10
82.2739080946714
20
0.164303780245717
30
0
41
1
10
82.2814631834126
20
-0.0555671312900188
30
0
41
1
10
82.2860797303572
20
-0.20185067912314
30
0
41
1
10
82.2925479457398
20
-0.420829768958555
30
0
41
1
10
82.2946308715246
20
-0.493748209754415
30
0
41
1
10
82.2986809778456
20
-0.639434113915996
30
0
41
1
10
82.3006475048022
20
-0.712179867408594
30
0
41
1
10
82.3063830245159
20
-0.929260638549664
30
0
41
1
10
82.3100052440082
20
-1.07274841143624
30
0
41
1
10
82.3151595320599
20
-1.28611759236972
30
0
41
1
10
82.31682083208
20
-1.35697454652609
30
0
41
1
10
82.3200787528854
20
-1.49755764057886
30
0
41
1
10
82.3216948402499
20
-1.56733559982686
30
0
41
1
10
82.3248595474971
20
-1.70587814313186
30
0
41
1
10
82.32640380347
20
-1.77464344929598
30
0
41
1
10
82.3293008180796
20
-1.91117977526068
30
0
41
1
10
82.3306536702372
20
-1.97885841626649
30
0
41
1
10
82.3329620361672
20
-2.11288028533812
30
0
41
1
10
82.333926236965
20
-2.17925351139297
30
0
41
1
10
82.3350484135385
20
-2.31080681917246
30
0
41
1
10
82.3352564202276
20
-2.37600678489616
30
0
41
1
10
82.3344350790473
20
-2.44064055041917
30
0
0
SPLINE
5
D7
100
AcDbEntity
8
1
62
256
6
ByLayer
370
18
48
1
60
0
100
AcDbSpline
70
4
71
3
72
36
73
32
40
0
40
0
40
0
40
0
40
0.0624999999999982
40
0.0624999999999982
40
0.124999999999996
40
0.124999999999996
40
0.156249999999996
40
0.156249999999996
40
0.187499999999996
40
0.187499999999996
40
0.249999999999996
40
0.249999999999996
40
0.374999999999997
40
0.374999999999997
40
0.499999999999998
40
0.499999999999998
40
0.531249999999998
40
0.531249999999998
40
0.562499999999999
40
0.562499999999999
40
0.624999999999999
40
0.624999999999999
40
0.749999999999999
40
0.749999999999999
40
0.874999999999999
40
0.874999999999999
40
0.9375
40
0.9375
40
0.96875
40
0.96875
40
1
40
1
40
1
40
1
41
1
10
82.259682173098
20
-2.40832316942115
30
0
41
1
10
82.2511082572524
20
-2.34053175612027
30
0
41
1
10
82.2434185521178
20
-2.27162295261672
30
0
41
1
10
82.2286947947745
20
-2.13190797671544
30
0
41
1
10
82.221697311402
20
-2.06109110511892
30
0
41
1
10
82.2114604638356
20
-1.95350790329297
30
0
41
1
10
82.2080939933621
20
-1.91741964273851
30
0
41
1
10
82.2014257330422
20
-1.84479465995577
30
0
41
1
10
82.1981261183156
20
-1.80827968190059
30
0
41
1
10
82.1883284463554
20
-1.69844787149285
30
0
41
1
10
82.1819195210406
20
-1.62472739690151
30
0
41
1
10
82.1628956998673
20
-1.4021139682726
30
0
41
1
10
82.15050864274
20
-1.25176276038871
30
0
41
1
10
82.1264223005831
20
-0.947170214837854
30
0
41
1
10
82.1146676353992
20
-0.792946914035525
30
0
41
1
10
82.1002406623879
20
-0.597732608247412
30
0
41
1
10
82.0973689613194
20
-0.558567550998617
30
0
41
1
10
82.0916518711683
20
-0.479990635627047
30
0
41
1
10
82.0888079042396
20
-0.440597419092825
30
0
41
1
10
82.0803559755379
20
-0.322630087082928
30
0
41
1
10
82.0748139275693
20
-0.244078295872327
30
0
41
1
10
82.0584550993098
20
-0.0086995822066456
30
0
41
1
10
82.047943542146
20
0.147850968065939
30
0
41
1
10
82.0273203007781
20
0.460214094175882
30
0
41
1
10
82.0171876304758
20
0.616026892696965
30
0
41
1
10
82.0020016714246
20
0.849180929492974
30
0
41
1
10
81.9969432211276
20
0.926804612351958
30
0
41
1
10
81.9893378873432
20
1.04309571153021
30
0
41
1
10
81.9867998922927
20
1.08183532997376
30
0
41
1
10
81.9817149742485
20
1.15926578249036
30
0
41
1
10
81.9791663380779
20
1.19798243922151
30
0
41
1
10
81.9766200633501
20
1.23655036515677
30
0
0
SPLINE
5
D8
100
AcDbEntity
8
1
62
256
6
ByLayer
370
18
48
1
60
0
100
AcDbSpline
70
4
71
3
72
14
73
10
40
0
40
0
40
0
40
0
40
0.124999999999998
40
0.124999999999998
40
0.249999999999996
40
0.249999999999996
40
0.499999999999991
40
0.499999999999991
40
1
40
1
40
1
40
1
41
1
10
80.8850434275343
20
2.42213708304425
30
0
41
1
10
80.9295728793911
20
2.37169770993131
30
0
41
1
10
80.9742852630402
20
2.32124482770391
30
0
41
1
10
81.0641335450429
20
2.22035321770653
30
0
41
1
10
81.1092379369005
20
2.16994618688659
30
0
41
1
10
81.2446429862049
20
2.01939572913994
30
0
41
1
10
81.335213395704
20
1.91972446988808
30
0
41
1
10
81.6080145667198
20
1.62293848765214
30
0
41
1
10
81.7913195428333
20
1.42803174215078
30
0
41
1
10
81.9766200633501
20
1.23655036515675
30
0
0
SPLINE
5
D9
100
AcDbEntity
8
1
62
256
6
ByLayer
370
18
48
1
60
0
100
AcDbSpline
70
4
71
3
72
20
73
16
40
0
40
0
40
0
40
0
40
0.125
40
0.125
40
0.25
40
0.25
40
0.375
40
0.375
40
0.5
40
0.5
40
0.625
40
0.625
40
0.75
40
0.75
40
1
40
1
40
1
40
1
41
1
10
81.9766200633501
20
1.23655036515675
30
0
41
1
10
81.9841942178391
20
1.22557432064875
30
0
41
1
10
81.9922568122787
20
1.21444930899219
30
0
41
1
10
82.0098228816023
20
1.19173181834719
30
0
41
1
10
82.0193199025437
20
1.1801421407512
30
0
41
1
10
82.0396539381909
20
1.15653308304644
30
0
41
1
10
82.0505450566882
20
1.14443677786545
30
0
41
1
10
82.072735231488
20
1.12062743301954
30
0
41
1
10
82.0840930857735
20
1.10884340106017
30
0
41
1
10
82.1072786206422
20
1.08548620982779
30
0
41
1
10
82.1191072387725
20
1.07391347569151
30
0
41
1
10
82.1432404927952
20
1.05097242051343
30
0
41
1
10
82.1555653281096
20
1.03958594162947
30
0
41
1
10
82.1932070322875
20
1.00586104477165
30
0
41
1
10
82.218433673835
20
0.98462844185218
30
0
41
1
10
82.2437129717651
20
0.964442075772553
30
0
0
SPLINE
5
DA
100
AcDbEntity
8
1
62
256
6
ByLayer
370
18
48
1
60
0
100
AcDbSpline
70
4
71
3
72
8
73
4
40
0
40
0
40
0
40
0
40
1
40
1
40
1
40
1
41
1
10
82.2437129717655
20
0.964442075773121
30
0
41
1
10
82.2955251054192
20
0.912444832327111
30
0
41
1
10
82.3475591074358
20
0.860779540216157
30
0
41
1
10
82.399999935597
20
0.809635363039718
30
0
0
SPLINE
5
DB
100
AcDbEntity
8
1
62
256
6
ByLayer
370
18
48
1
60
0
100
AcDbSpline
70
4
71
3
72
14
73
10
40
0
40
0
40
0
40
0
40
0.25
40
0.25
40
0.5
40
0.5
40
0.75
40
0.75
40
1
40
1
40
1
40
1
41
1
10
82.399999935597
20
0.809635363039746
30
0
41
1
10
82.44753883408
20
0.755597971321663
30
0
41
1
10
82.4956099443718
20
0.70329707536203
30
0
41
1
10
82.5929982336279
20
0.602332924868023
30
0
41
1
10
82.6423601998077
20
0.553635887391636
30
0
41
1
10
82.742336386789
20
0.460311285770871
30
0
41
1
10
82.7929417701362
20
0.415691741154831
30
0
41
1
10
82.89549779097
20
0.331041315282619
30
0
41
1
10
82.9473736457113
20
0.291069298807145
30
0
41
1
10
83
20
0.253686993872861
30
0
0
SPLINE
5
DC
100
AcDbEntity
8
1
62
256
6
ByLayer
370
18
48
1
60
0
100
AcDbSpline
70
4
71
3
72
51
73
47
40
0
40
0
40
0
40
0
40
0.015625
40
0.015625
40
0.0312499999999999
40
0.0312499999999999
40
0.0624999999999999
40
0.0624999999999999
40
0.125
40
0.125
40
0.140625
40
0.140625
40
0.15625
40
0.15625
40
0.1875
40
0.1875
40
0.25
40
0.25
40
0.375
40
0.375
40
0.5
40
0.5
40
0.53125
40
0.546875
40
0.546875
40
0.5625
40
0.5625
40
0.625
40
0.625
40
0.6875
40
0.6875
40
0.749999999999999
40
0.749999999999999
40
0.781249999999999
40
0.781249999999999
40
0.796874999999999
40
0.796874999999999
40
0.812499999999999
40
0.874999999999999
40
0.874999999999999
40
0.90625
40
0.90625
40
0.921875
40
0.921875
40
0.9375
40
1
40
1
40
1
40
1
41
1
10
83
20
0.253686993872833
30
0
41
1
10
83
20
0.255030686960055
30
0
41
1
10
83
20
0.257002164618939
30
0
41
1
10
83
20
0.262227315031765
30
0
41
1
10
83.0000000000001
20
0.265488159810303
30
0
41
1
10
83.0000000000001
20
0.277206527315769
30
0
41
1
10
82.9999999999999
20
0.287493423484932
30
0
41
1
10
82.9999999999999
20
0.325513834593636
30
0
41
1
10
83
20
0.360304343492629
30
0
41
1
10
83
20
0.415223012037899
30
0
41
1
10
83
20
0.426843239954081
30
0
41
1
10
83
20
0.450861018658742
30
0
41
1
10
83
20
0.463092122634635
30
0
41
1
10
83
20
0.500595992697214
30
0
41
1
10
83
20
0.52664810689393
30
0
41
1
10
83
20
0.607931276395163
30
0
41
1
10
83
20
0.666284722589296
30
0
41
1
10
83
20
0.854111645271274
30
0
41
1
10
83
20
0.993499313212112
30
0
41
1
10
83.0000000000001
20
1.2994518326451
30
0
41
1
10
82.9999999999999
20
1.46600910146998
30
0
41
1
10
83
20
1.69146640531346
30
0
41
1
10
82.9999999999999
20
1.76039974712836
30
0
41
1
10
83
20
1.83130493352164
30
0
41
1
10
83
20
1.87901787007704
30
0
41
1
10
83
20
1.90311233484081
30
0
41
1
10
83
20
2.02431181212191
30
0
41
1
10
83
20
2.12383376593425
30
0
41
1
10
83
20
2.32786061777091
30
0
41
1
10
83.0000000000001
20
2.43236387733657
30
0
41
1
10
83
20
2.64634281942929
30
0
41
1
10
83
20
2.75582086668811
30
0
41
1
10
83
20
2.92385823386905
30
0
41
1
10
83
20
2.98053435155777
30
0
41
1
10
83
20
3.06640272864516
30
0
41
1
10
83
20
3.09511701326397
30
0
41
1
10
83
20
3.1529950622884
30
0
41
1
10
83
20
3.29879979422822
30
0
41
1
10
83
20
3.44983469932041
30
0
41
1
10
83
20
3.63606708960336
30
0
41
1
10
83
20
3.69898435075058
30
0
41
1
10
83
20
3.79466585972833
30
0
41
1
10
83
20
3.82661370441963
30
0
41
1
10
83
20
3.89040032918305
30
0
41
1
10
83
20
4.04976767892737
30
0
41
1
10
83
20
4.20864521241737
30
0
41
1
10
83
20
4.33543698337331
30
0
0
SPLINE
5
DD
100
AcDbEntity
8
1
62
256
6
ByLayer
370
18
48
1
60
0
100
AcDbSpline
70
4
71
3
72
10
73
6
40
0
40
0
40
0
40
0
40
0.5
40
0.5
40
1
40
1
40
1
40
1
41
1
10
82.9999999999999
20
4.33543698337274
30
0
41
1
10
82.9020263726871
20
4.43802718397609
30
0
41
1
10
82.8029723846009
20
4.53993364048191
30
0
41
1
10
82.602911397335
20
4.74294212429865
30
0
41
1
10
82.5019299120822
20
4.8440177459851
30
0
41
1
10
82.4000000142463
20
4.94503019170287
30
0
0
SPLINE
5
DE
100
AcDbEntity
8
1
62
256
6
ByLayer
370
18
48
1
60
0
100
AcDbSpline
70
4
71
3
72
12
73
8
40
0
40
0
40
0
40
0
40
0.25
40
0.25
40
0.5
40
0.5
40
1
40
1
40
1
40
1
41
1
10
82.4000000142462
20
4.94503019170278
30
0
41
1
10
82.3695477891935
20
4.95869169586175
30
0
41
1
10
82.3391194534891
20
4.97219009144507
30
0
41
1
10
82.2784255499201
20
4.99880031562918
30
0
41
1
10
82.2481534088822
20
5.01191502287963
30
0
41
1
10
82.1575421196542
20
5.05068805718901
30
0
41
1
10
82.0974056207335
20
5.07577646033874
30
0
41
1
10
82.0375004533099
20
5.10010154437114
30
0
0
SPLINE
5
DF
100
AcDbEntity
8
1
62
256
6
ByLayer
370
18
48
1
60
0
100
AcDbSpline
70
4
71
3
72
44
73
40
40
0
40
0
40
0
40
0
40
0.0624999999999891
40
0.0624999999999891
40
0.124999999999978
40
0.124999999999978
40
0.156249999999973
40
0.156249999999973
40
0.187499999999967
40
0.187499999999967
40
0.249999999999955
40
0.249999999999955
40
0.312499999999943
40
0.312499999999943
40
0.343749999999937
40
0.343749999999937
40
0.374999999999932
40
0.374999999999932
40
0.43749999999992
40
0.43749999999992
40
0.468749999999899
40
0.468749999999899
40
0.499999999999878
40
0.499999999999878
40
0.562499999999865
40
0.562499999999865
40
0.593749999999873
40
0.593749999999873
40
0.62499999999988
40
0.62499999999988
40
0.656249999999887
40
0.656249999999887
40
0.687499999999894
40
0.687499999999894
40
0.718749999999901
40
0.718749999999901
40
0.749999999999909
40
0.749999999999909
40
1
40
1
40
1
40
1
41
1
10
82.0375004533099
20
5.10010154437111
30
0
41
1
10
82.0278173745423
20
5.08381973589971
30
0
41
1
10
82.0180830072746
20
5.06753739516549
30
0
41
1
10
81.9958039367986
20
5.03858290828003
30
0
41
1
10
81.9833031220223
20
5.0258526370406
30
0
41
1
10
81.9633950525115
20
5.00820279009915
30
0
41
1
10
81.9565173570698
20
5.00257156511111
30
0
41
1
10
81.9424455382045
20
4.99197000356722
30
0
41
1
10
81.935275551567
20
4.9870151104881
30
0
41
1
10
81.9133497655249
20
4.97323849637729
30
0
41
1
10
81.8981706127672
20
4.96552626011697
30
0
41
1
10
81.86686954989
20
4.95260636845487
30
0
41
1
10
81.8507460762097
20
4.94740058203371
30
0
41
1
10
81.8258450996761
20
4.94155436019963
30
0
41
1
10
81.8174096252074
20
4.93993715066591
30
0
41
1
10
81.8005285145842
20
4.93745732808901
30
0
41
1
10
81.7920554386145
20
4.9365867307898
30
0
41
1
10
81.7665394337716
20
4.93517380177755
30
0
41
1
10
81.7493951714323
20
4.93588617647725
30
0
41
1
10
81.7234932814414
20
4.93970082216057
30
0
41
1
10
81.7148033910306
20
4.94142656045892
30
0
41
1
10
81.6974852716579
20
4.9457915669613
30
0
41
1
10
81.6889089242269
20
4.94841434874405
30
0
41
1
10
81.6634456566672
20
4.95765190964502
30
0
41
1
10
81.6468067445002
20
4.96555771924272
30
0
41
1
10
81.6226032967495
20
4.98112832081517
30
0
41
1
10
81.6148247987336
20
4.98686424993156
30
0
41
1
10
81.5999936952651
20
4.9997073745933
30
0
41
1
10
81.5929456574375
20
5.00682333626796
30
0
41
1
10
81.5796062092644
20
5.02248117693162
30
0
41
1
10
81.5733133451672
20
5.03106133766733
30
0
41
1
10
81.5614909439369
20
5.04882507042802
30
0
41
1
10
81.5558827257181
20
5.05801761816846
30
0
41
1
10
81.5447367930184
20
5.07645343766407
30
0
41
1
10
81.5392043946698
20
5.08570235575593
30
0
41
1
10
81.5279332912437
20
5.10395500202051
30
0
41
1
10
81.522259959549
20
5.11302852056591
30
0
41
1
10
81.4713565302717
20
5.19474520164044
30
0
41
1
10
81.4262223289104
20
5.26676763232791
30
0
41
1
10
81.3812718982586
20
5.33801863088453
30
0
0
SPLINE
5
E0
100
AcDbEntity
8
1
62
256
6
ByLayer
370
18
48
1
60
0
100
AcDbSpline
70
4
71
3
72
13
73
9
40
0
40
0
40
0
40
0
40
0.125000000000003
40
0.125000000000003
40
0.250000000000007
40
0.250000000000007
40
0.500000000000013
40
1
40
1
40
1
40
1
41
1
10
81.3812718982586
20
5.33801863088453
30
0
41
1
10
81.3480971651781
20
5.34851473979802
30
0
41
1
10
81.3149718530653
20
5.35874976506571
30
0
41
1
10
81.2488125216259
20
5.37869243868403
30
0
41
1
10
81.2157600986823
20
5.38840528079325
30
0
41
1
10
81.1168823925434
20
5.41670095993624
30
0
41
1
10
80.9202995588743
20
5.46991043327296
30
0
41
1
10
80.7269308776755
20
5.5129585566543
30
0
41
1
10
80.5992754011051
20
5.53704315326036
30
0
0
SPLINE
5
E1
100
AcDbEntity
8
1
62
256
6
ByLayer
370
18
48
1
60
0
100
AcDbSpline
70
4
71
3
72
8
73
4
40
0
40
0
40
0
40
0
40
1
40
1
40
1
40
1
41
1
10
80.5992754011051
20
5.53704315326036
30
0
41
1
10
80.5680356612566
20
5.47664528619052
30
0
41
1
10
80.5367287162741
20
5.41589225940587
30
0
41
1
10
80.5053469431878
20
5.35478506789576
30
0
0
SPLINE
5
E2
100
AcDbEntity
8
1
62
256
6
ByLayer
370
18
48
1
60
0
100
AcDbSpline
70
4
71
3
72
61
73
57
40
0
40
0
40
0
40
0
40
0.125000000000084
40
0.125000000000084
40
0.250000000000169
40
0.250000000000169
40
0.265625000000176
40
0.265625000000176
40
0.281250000000183
40
0.281250000000183
40
0.29687500000019
40
0.29687500000019
40
0.312500000000197
40
0.312500000000197
40
0.328125000000204
40
0.328125000000204
40
0.343750000000212
40
0.343750000000212
40
0.375000000000226
40
0.375000000000226
40
0.40625000000024
40
0.40625000000024
40
0.437500000000254
40
0.437500000000254
40
0.453125000000255
40
0.453125000000255
40
0.468750000000256
40
0.468750000000256
40
0.484375000000257
40
0.484375000000257
40
0.500000000000258
40
0.500000000000258
40
0.515625000000259
40
0.515625000000259
40
0.53125000000026
40
0.53125000000026
40
0.53906250000026
40
0.53906250000026
40
0.546875000000261
40
0.546875000000261
40
0.562500000000253
40
0.562500000000253
40
0.578125000000246
40
0.578125000000246
40
0.593750000000239
40
0.625000000000224
40
0.625000000000224
40
0.75000000000015
40
0.75000000000015
40
0.875000000000075
40
0.875000000000075
40
0.937500000000038
40
0.937500000000038
40
0.968750000000019
40
0.968750000000019
40
1
40
1
40
1
40
1
41
1
10
80.5053469431878
20
5.35478506789576
30
0
41
1
10
80.458723783989
20
5.26399955650572
30
0
41
1
10
80.4119866252246
20
5.17253231641735
30
0
41
1
10
80.3182282744499
20
4.98825436454294
30
0
41
1
10
80.2712036670571
20
4.89545083464773
30
0
41
1
10
80.2181684022067
20
4.79023469235173
30
0
41
1
10
80.2122737076099
20
4.77853269616887
30
0
41
1
10
80.2004805922084
20
4.75510582326496
30
0
41
1
10
80.1946280774817
20
4.74332784574429
30
0
41
1
10
80.1826241749062
20
4.72006635657487
30
0
41
1
10
80.176432408867
20
4.70865055573103
30
0
41
1
10
80.163138208002
20
4.68689957359814
30
0
41
1
10
80.1560031362348
20
4.67660448399425
30
0
41
1
10
80.1410156991187
20
4.65685989436625
30
0
41
1
10
80.133202437448
20
4.64736242440011
30
0
41
1
10
80.1170010697001
20
4.62904039121881
30
0
41
1
10
80.1085950764806
20
4.62020593039318
30
0
41
1
10
80.0825344926539
20
4.59489325534167
30
0
41
1
10
80.064352845232
20
4.58005517991933
30
0
41
1
10
80.0266300076794
20
4.55386852761544
30
0
41
1
10
80.0071045905154
20
4.54247571029902
30
0
41
1
10
79.9667077428706
20
4.52326656020401
30
0
41
1
10
79.9463004743011
20
4.51566609632863
30
0
41
1
10
79.915400339922
20
4.50791300442381
30
0
41
1
10
79.9050491309507
20
4.50595881211268
30
0
41
1
10
79.8842547221805
20
4.50331975946631
30
0
41
1
10
79.8737586306981
20
4.5026340674959
30
0
41
1
10
79.8529735795195
20
4.50260579303242
30
0
41
1
10
79.8426991551706
20
4.50325344840488
30
0
41
1
10
79.8224117290073
20
4.50595637997193
30
0
41
1
10
79.8123977256779
20
4.50800617561092
30
0
41
1
10
79.7926918555467
20
4.51380218842587
30
0
41
1
10
79.7829842046056
20
4.51756450042899
30
0
41
1
10
79.7646997319212
20
4.52715740866978
30
0
41
1
10
79.7560664193375
20
4.53304464482346
30
0
41
1
10
79.7439442604399
20
4.5436455526881
30
0
41
1
10
79.7400258817164
20
4.54748236805219
30
0
41
1
10
79.7324952387172
20
4.55559613226393
30
0
41
1
10
79.7288939824932
20
4.55986337106785
30
0
41
1
10
79.7183792265392
20
4.5730266978606
30
0
41
1
10
79.7117276886025
20
4.58224858337186
30
0
41
1
10
79.6983438329011
20
4.60052506404963
30
0
41
1
10
79.6915541197277
20
4.60950293498334
30
0
41
1
10
79.6779339879076
20
4.62734358002783
30
0
41
1
10
79.6575132910598
20
4.65402615438282
30
0
41
1
10
79.6371205740932
20
4.68047218831322
30
0
41
1
10
79.5692045434837
20
4.76809452638184
30
0
41
1
10
79.5150736687544
20
4.83647955426568
30
0
41
1
10
79.4074164111142
20
4.96952385691725
30
0
41
1
10
79.3538491342402
20
5.03423468303106
30
0
41
1
10
79.2738262861808
20
5.12862518057247
30
0
41
1
10
79.2471997629293
20
5.15963164773362
30
0
41
1
10
79.2073605879786
20
5.20551405718635
30
0
41
1
10
79.1941023319766
20
5.22071077866008
30
0
41
1
10
79.1676600890543
20
5.25095955026907
30
0
41
1
10
79.1544956475465
20
5.26604148246867
30
0
41
1
10
79.1413097369245
20
5.28096278072437
30
0
0
SPLINE
5
E3
100
AcDbEntity
8
1
62
256
6
ByLayer
370
18
48
1
60
0
100
AcDbSpline
70
4
71
3
72
8
73
4
40
0
40
0
40
0
40
0
40
1
40
1
40
1
40
1
41
1
10
78.9592114283322
20
5.18271943932939
30
0
41
1
10
79.0198540027156
20
5.21631506693106
30
0
41
1
10
79.0805477459409
20
5.24906721876539
30
0
41
1
10
79.1413097369222
20
5.28096278073579
30
0
0
SPLINE
5
E4
100
AcDbEntity
8
1
62
256
6
ByLayer
370
18
48
1
60
0
100
AcDbSpline
70
4
71
3
72
10
73
6
40
0
40
0
40
0
40
0
40
0.5
40
0.5
40
1
40
1
40
1
40
1
41
1
10
78.9592114283322
20
5.18271943932939
30
0
41
1
10
78.9106700498841
20
5.07948973938994
30
0
41
1
10
78.8619435958234
20
4.97595312511777
30
0
41
1
10
78.7641701055165
20
4.76853194187566
30
0
41
1
10
78.7151121955798
20
4.66462597044998
30
0
41
1
10
78.6658487551281
20
4.56053519026477
30
0
0
SPLINE
5
E5
100
AcDbEntity
8
1
62
256
6
ByLayer
370
18
48
1
60
0
100
AcDbSpline
70
4
71
3
72
16
73
12
40
0
40
0
40
0
40
0
40
0.435350646921462
40
0.435350646921462
40
0.870701293842923
40
0.870701293842923
40
0.925120124708108
40
0.925120124708108
40
0.979538955573294
40
0.979538955573294
40
1
40
1
40
1
40
1
41
1
10
78.6658487551281
20
4.56053519026474
30
0
41
1
10
78.6192378768048
20
4.46204911935092
30
0
41
1
10
78.5725104888978
20
4.36353556088912
30
0
41
1
10
78.4787723640352
20
4.16647809370301
30
0
41
1
10
78.4317573228676
20
4.06793674400967
30
0
41
1
10
78.3787295549526
20
3.95704473955001
30
0
41
1
10
78.3728356506327
20
3.94472296126091
30
0
41
1
10
78.3610440283616
20
3.92007846801138
30
0
41
1
10
78.3551916548967
20
3.90771924180206
30
0
41
1
10
78.3469365852697
20
3.89085890417562
30
0
41
1
10
78.3446540870441
20
3.88627351547757
30
0
41
1
10
78.3423306244007
20
3.88172176173182
30
0
0
SPLINE
5
E6
100
AcDbEntity
8
1
62
256
6
ByLayer
370
18
48
1
60
0
100
AcDbSpline
70
4
71
3
72
54
73
50
40
0
40
0
40
0
40
0
40
0.125000000000032
40
0.156250000000037
40
0.156250000000037
40
0.187500000000042
40
0.187500000000042
40
0.218750000000047
40
0.218750000000047
40
0.250000000000052
40
0.250000000000052
40
0.281250000000058
40
0.281250000000058
40
0.29687500000006
40
0.29687500000006
40
0.312500000000063
40
0.312500000000063
40
0.343750000000068
40
0.343750000000068
40
0.375000000000073
40
0.375000000000073
40
0.406250000000078
40
0.406250000000078
40
0.437500000000084
40
0.437500000000084
40
0.468750000000089
40
0.468750000000089
40
0.500000000000094
40
0.500000000000094
40
0.5312500000001
40
0.5312500000001
40
0.546875000000094
40
0.546875000000094
40
0.562500000000087
40
0.562500000000087
40
0.593750000000075
40
0.593750000000075
40
0.609375000000076
40
0.609375000000076
40
0.625000000000077
40
0.625000000000077
40
0.640625000000078
40
0.640625000000078
40
0.656250000000079
40
0.656250000000079
40
0.687500000000071
40
0.750000000000055
40
0.750000000000055
40
1
40
1
40
1
40
1
41
1
10
66.4756461653417
20
-5.0650723126133
30
0
41
1
10
66.5065567153176
20
-5.03013432215872
30
0
41
1
10
66.5453003259747
20
-4.98555605379048
30
0
41
1
10
66.5841918039211
20
-4.93985046681402
30
0
41
1
10
66.599760594801
20
-4.92147807054158
30
0
41
1
10
66.6075848564377
20
-4.91229365088651
30
0
41
1
10
66.6230641187046
20
-4.89358200552465
30
0
41
1
10
66.630654974918
20
-4.88396600132342
30
0
41
1
10
66.6462779973714
20
-4.8652400914238
30
0
41
1
10
66.6543523938924
20
-4.85618871947483
30
0
41
1
10
66.6720554474192
20
-4.84013045549082
30
0
41
1
10
66.6816655603901
20
-4.83309751455525
30
0
41
1
10
66.6973101826457
20
-4.8241682247043
30
0
41
1
10
66.7027192503514
20
-4.82146012429004
30
0
41
1
10
66.7136967770288
20
-4.81658106783928
30
0
41
1
10
66.7192887639302
20
-4.81439361700026
30
0
41
1
10
66.7363323470611
20
-4.80848241008005
30
0
41
1
10
66.7480484285989
20
-4.8054013007683
30
0
41
1
10
66.7721013771412
20
-4.80076472225826
30
0
41
1
10
66.7844398805031
20
-4.79921336457309
30
0
41
1
10
66.809750795247
20
-4.79771479559045
30
0
41
1
10
66.822728784311
20
-4.79778107206798
30
0
41
1
10
66.8487635555764
20
-4.7997073304376
30
0
41
1
10
66.861893584457
20
-4.80159105987758
30
0
41
1
10
66.8883485327704
20
-4.80711564451263
30
0
41
1
10
66.9016724115352
20
-4.810745970472
30
0
41
1
10
66.9284964120778
20
-4.81978296710452
30
0
41
1
10
66.942063572355
20
-4.82522615453229
30
0
41
1
10
66.9687481260722
20
-4.83783815259017
30
0
41
1
10
66.9819246169481
20
-4.84501292277517
30
0
41
1
10
67.001375920293
20
-4.85735420060755
30
0
41
1
10
67.0078060524419
20
-4.86173860317678
30
0
41
1
10
67.0205448417677
20
-4.87111091525435
30
0
41
1
10
67.0268751120897
20
-4.87610810723046
30
0
41
1
10
67.0455387525894
20
-4.89187968308207
30
0
41
1
10
67.0574363104261
20
-4.90328922220002
30
0
41
1
10
67.074347290589
20
-4.92193208750135
30
0
41
1
10
67.0798140511366
20
-4.9284254158772
30
0
41
1
10
67.0902499900919
20
-4.94223368689299
30
0
41
1
10
67.0952118782152
20
-4.94958523147201
30
0
41
1
10
67.1045828474418
20
-4.96456813233877
30
0
41
1
10
67.1090315510771
20
-4.97223769297102
30
0
41
1
10
67.1178064015884
20
-4.98766479993208
30
0
41
1
10
67.1221640744215
20
-4.99539822684145
30
0
41
1
10
67.135269581802
20
-5.01856509203904
30
0
41
1
10
67.1614694320266
20
-5.06487318738402
30
0
41
1
10
67.1876330077436
20
-5.11110753197926
30
0
41
1
10
67.2747506270669
20
-5.26507118007623
30
0
41
1
10
67.3441056406992
20
-5.3877919364358
30
0
41
1
10
67.4130588352444
20
-5.50985801666576
30
0
0
SPLINE
5
E7
100
AcDbEntity
8
1
62
256
6
ByLayer
370
18
48
1
60
0
100
AcDbSpline
70
4
71
3
72
8
73
4
40
0
40
0
40
0
40
0
40
1
40
1
40
1
40
1
41
1
10
67.4130588352454
20
-5.5098580166661
30
0
41
1
10
67.5087456306053
20
-5.67924990802658
30
0
41
1
10
67.6036192800206
20
-5.84724196721896
30
0
41
1
10
67.6976724424892
20
-6.01341699362123
30
0
0
SPLINE
5
E8
100
AcDbEntity
8
1
62
256
6
ByLayer
370
18
48
1
60
0
100
AcDbSpline
70
4
71
3
72
62
73
58
40
0
40
0
40
0
40
0
40
0.0312499999999806
40
0.0312499999999806
40
0.0624999999999612
40
0.0624999999999612
40
0.124999999999929
40
0.124999999999929
40
0.249999999999869
40
0.249999999999869
40
0.37499999999981
40
0.37499999999981
40
0.437499999999777
40
0.468749999999763
40
0.468749999999763
40
0.484374999999756
40
0.484374999999756
40
0.499999999999749
40
0.499999999999749
40
0.515624999999742
40
0.515624999999742
40
0.531249999999735
40
0.531249999999735
40
0.546874999999728
40
0.546874999999728
40
0.562499999999721
40
0.562499999999721
40
0.593749999999707
40
0.593749999999707
40
0.609374999999705
40
0.609374999999705
40
0.624999999999703
40
0.624999999999703
40
0.656249999999711
40
0.656249999999711
40
0.671874999999721
40
0.671874999999721
40
0.68749999999973
40
0.68749999999973
40
0.718749999999761
40
0.718749999999761
40
0.734374999999777
40
0.734374999999777
40
0.749999999999792
40
0.749999999999792
40
0.7578124999998
40
0.7578124999998
40
0.765624999999807
40
0.765624999999807
40
0.773437499999814
40
0.773437499999814
40
0.781249999999822
40
0.781249999999822
40
0.81249999999985
40
0.8749999999999
40
0.8749999999999
40
1
40
1
40
1
40
1
41
1
10
67.8791735548915
20
-6.0380174919492
30
0
41
1
10
67.8912197147951
20
-6.02016497277418
30
0
41
1
10
67.9032523767457
20
-6.00218753605571
30
0
41
1
10
67.9274053114643
20
-5.96613994721443
30
0
41
1
10
67.939513542572
20
-5.9480531694376
30
0
41
1
10
67.9758947685034
20
-5.89357603667216
30
0
41
1
10
68.0002158046753
20
-5.85694934148304
30
0
41
1
10
68.0732912176386
20
-5.74601177740507
30
0
41
1
10
68.1221933040916
20
-5.67069044269601
30
0
41
1
10
68.2204399000828
20
-5.51731303638812
30
0
41
1
10
68.2697856259988
20
-5.43925697941665
30
0
41
1
10
68.344082421687
20
-5.32029519723179
30
0
41
1
10
68.3813095323059
20
-5.26033015166911
30
0
41
1
10
68.4186742580714
20
-5.19962551533129
30
0
41
1
10
68.4373807726441
20
-5.16914980404394
30
0
41
1
10
68.4436291095481
20
-5.15898154622568
30
0
41
1
10
68.4560921156036
20
-5.13855330920208
30
0
41
1
10
68.4622311522614
20
-5.12820049506536
30
0
41
1
10
68.4745567299223
20
-5.10750298383985
30
0
41
1
10
68.4807476789586
20
-5.09716375802222
30
0
41
1
10
68.4937253503298
20
-5.07716397858908
30
0
41
1
10
68.5005481835591
20
-5.06754751629913
30
0
41
1
10
68.5152228192769
20
-5.04952101594938
30
0
41
1
10
68.5230864746464
20
-5.04108635235394
30
0
41
1
10
68.5397802065124
20
-5.02550939964266
30
0
41
1
10
68.5484509152155
20
-5.01848391969696
30
0
41
1
10
68.5751910774831
20
-4.99910510657523
30
0
41
1
10
68.5939671824274
20
-4.9883944647188
30
0
41
1
10
68.6233244067248
20
-4.9751489410221
30
0
41
1
10
68.6333374408622
20
-4.97121252982302
30
0
41
1
10
68.6536971291919
20
-4.96441211421492
30
0
41
1
10
68.6639578057005
20
-4.96157486941928
30
0
41
1
10
68.6949806960218
20
-4.95485795824032
30
0
41
1
10
68.7159918416353
20
-4.9528424509906
30
0
41
1
10
68.7479181590415
20
-4.9533217499351
30
0
41
1
10
68.7586635472196
20
-4.95407387846188
30
0
41
1
10
68.7801337786921
20
-4.95681324975905
30
0
41
1
10
68.7907850439002
20
-4.9587864031468
30
0
41
1
10
68.8224550629164
20
-4.96664232979171
30
0
41
1
10
68.8432187618424
20
-4.97445573002773
30
0
41
1
10
68.8734410715071
20
-4.9915376081085
30
0
41
1
10
68.8831823433451
20
-4.99797197623823
30
0
41
1
10
68.9019861184748
20
-5.01233274242978
30
0
41
1
10
68.9110809148313
20
-5.02018497983312
30
0
41
1
10
68.9239374927226
20
-5.03370565644099
30
0
41
1
10
68.9280871366512
20
-5.0385499209535
30
0
41
1
10
68.9359189313995
20
-5.04865834123407
30
0
41
1
10
68.9396382320846
20
-5.05392912685698
30
0
41
1
10
68.9468482797619
20
-5.0647180556974
30
0
41
1
10
68.9503349241129
20
-5.07024084698497
30
0
41
1
10
68.9572568756609
20
-5.08133367939828
30
0
41
1
10
68.9607052071578
20
-5.08688898198949
30
0
41
1
10
68.9779690670315
20
-5.11461352551842
30
0
41
1
10
69.0193744000246
20
-5.18092721036999
30
0
41
1
10
69.0606845439888
20
-5.2465879577822
30
0
41
1
10
69.1431457161426
20
-5.37709285001836
30
0
41
1
10
69.1978749352346
20
-5.46297737103512
30
0
41
1
10
69.2523702865089
20
-5.54768191276133
30
0
0
SPLINE
5
E9
100
AcDbEntity
8
1
62
256
6
ByLayer
370
18
48
1
60
0
100
AcDbSpline
70
4
71
3
72
10
73
6
40
0
40
0
40
0
40
0
40
0.5
40
0.5
40
1
40
1
40
1
40
1
41
1
10
69.2523702865089
20
-5.54768191276133
30
0
41
1
10
69.3001683115734
20
-5.6219765032877
30
0
41
1
10
69.3477761557289
20
-5.69534585536684
30
0
41
1
10
69.4425646459015
20
-5.84009177665308
30
0
41
1
10
69.4897439626716
20
-5.91146690469131
30
0
41
1
10
69.5367342271298
20
-5.98185005127422
30
0
0
SPLINE
5
EA
100
AcDbEntity
8
1
62
256
6
ByLayer
370
18
48
1
60
0
100
AcDbSpline
70
4
71
3
72
8
73
4
40
0
40
0
40
0
40
0
40
1
40
1
40
1
40
1
41
1
10
69.7189440182234
20
-5.94500572736811
30
0
41
1
10
69.658175012092
20
-5.95829711989973
30
0
41
1
10
69.5974401259554
20
-5.97057700451654
30
0
41
1
10
69.5367342271298
20
-5.98185005127425
30
0
0
SPLINE
5
EB
100
AcDbEntity
8
1
62
256
6
ByLayer
370
18
48
1
60
0
100
AcDbSpline
70
4
71
3
72
63
73
59
40
0
40
0
40
0
40
0
40
0.0312499999999991
40
0.0312499999999991
40
0.0624999999999981
40
0.0624999999999981
40
0.124999999999997
40
0.124999999999997
40
0.249999999999995
40
0.249999999999995
40
0.374999999999993
40
0.374999999999993
40
0.437499999999992
40
0.437499999999992
40
0.468749999999992
40
0.468749999999992
40
0.484374999999989
40
0.484374999999989
40
0.499999999999986
40
0.499999999999986
40
0.515624999999983
40
0.515624999999983
40
0.53124999999998
40
0.53124999999998
40
0.562499999999966
40
0.562499999999966
40
0.578124999999964
40
0.578124999999964
40
0.593749999999962
40
0.593749999999962
40
0.624999999999968
40
0.624999999999968
40
0.640624999999966
40
0.640624999999966
40
0.656249999999963
40
0.656249999999963
40
0.687499999999958
40
0.687499999999958
40
0.703124999999956
40
0.703124999999956
40
0.710937499999955
40
0.710937499999955
40
0.718749999999953
40
0.718749999999953
40
0.734374999999951
40
0.734374999999951
40
0.749999999999949
40
0.749999999999949
40
0.765624999999947
40
0.765624999999947
40
0.773437499999946
40
0.773437499999946
40
0.781249999999945
40
0.781249999999945
40
0.812499999999956
40
0.874999999999971
40
0.874999999999971
40
1
40
1
40
1
40
1
41
1
10
69.7189440182231
20
-5.94500572735569
30
0
41
1
10
69.7310644703062
20
-5.92233805878118
30
0
41
1
10
69.7431716857508
20
-5.89958952220979
30
0
41
1
10
69.7674740338945
20
-5.85405281678445
30
0
41
1
10
69.779656753362
20
-5.83125127612834
30
0
41
1
10
69.8162699905799
20
-5.76271378377334
30
0
41
1
10
69.8407470938371
20
-5.71684515934379
30
0
41
1
10
69.9142600427063
20
-5.57868701283368
30
0
41
1
10
69.9634275824447
20
-5.48585184754864
30
0
41
1
10
70.0621531515077
20
-5.29874823506665
30
0
41
1
10
70.1117113089398
20
-5.20448069565816
30
0
41
1
10
70.18640667702
20
-5.06202405251497
30
0
41
1
10
70.2113686073671
20
-5.0143555184703
30
0
41
1
10
70.2488981900421
20
-4.94261356038353
30
0
41
1
10
70.2614206187453
20
-4.91866332135814
30
0
41
1
10
70.2802242665619
20
-4.88268386982273
30
0
41
1
10
70.2865158565573
20
-4.8706994316718
30
0
41
1
10
70.2989907629454
20
-4.84661236659477
30
0
41
1
10
70.3051254542669
20
-4.83446748141341
30
0
41
1
10
70.3175528939932
20
-4.81029142323189
30
0
41
1
10
70.3238384906034
20
-4.79825404637856
30
0
41
1
10
70.3371668927611
20
-4.7748132160774
30
0
41
1
10
70.3442381700114
20
-4.76343289259347
30
0
41
1
10
70.3670913856159
20
-4.73068806994667
30
0
41
1
10
70.3839097439739
20
-4.71166935753706
30
0
41
1
10
70.410692335969
20
-4.68587702586046
30
0
41
1
10
70.41987823625
20
-4.67773409651437
30
0
41
1
10
70.4387169640048
20
-4.66227208538407
30
0
41
1
10
70.4484038931101
20
-4.65493153636908
30
0
41
1
10
70.4779250815544
20
-4.63432851750596
30
0
41
1
10
70.4980546154385
20
-4.62254455360326
30
0
41
1
10
70.5289469045976
20
-4.60814307912116
30
0
41
1
10
70.5393648765194
20
-4.60391020413496
30
0
41
1
10
70.5604261715183
20
-4.59654777217375
30
0
41
1
10
70.5711173122542
20
-4.5934069009173
30
0
41
1
10
70.6029693474781
20
-4.58578094704947
30
0
41
1
10
70.6240175616494
20
-4.58298214143812
30
0
41
1
10
70.6552178402695
20
-4.58257832624352
30
0
41
1
10
70.6655551059206
20
-4.58308604838621
30
0
41
1
10
70.6809393519854
20
-4.58502174764126
30
0
41
1
10
70.6860467530367
20
-4.58586693093514
30
0
41
1
10
70.6962145167084
20
-4.5880012474222
30
0
41
1
10
70.7012777627806
20
-4.5892885606626
30
0
41
1
10
70.7161705252377
20
-4.5937393746014
30
0
41
1
10
70.7257849065038
20
-4.59749478163701
30
0
41
1
10
70.7443537918057
20
-4.60663972882296
30
0
41
1
10
70.7533399346667
20
-4.61194678364666
30
0
41
1
10
70.7702161652736
20
-4.62531131720405
30
0
41
1
10
70.7777139956642
20
-4.63330410603939
30
0
41
1
10
70.7883260042082
20
-4.64608155479786
30
0
41
1
10
70.7917639375731
20
-4.65046937311993
30
0
41
1
10
70.7986273053669
20
-4.65924567619416
30
0
41
1
10
70.8020571689143
20
-4.6636280321845
30
0
41
1
10
70.8192065615716
20
-4.68549848196631
30
0
41
1
10
70.8603368386764
20
-4.73763090267352
30
0
41
1
10
70.9013749473002
20
-4.78872788880562
30
0
41
1
10
70.98328669949
20
-4.88959910547985
30
0
41
1
10
71.0376314587218
20
-4.95504818064646
30
0
41
1
10
71.0917596934127
20
-5.01871137729066
30
0
0
SPLINE
5
EC
100
AcDbEntity
8
1
62
256
6
ByLayer
370
18
48
1
60
0
100
AcDbSpline
70
4
71
3
72
10
73
6
40
0
40
0
40
0
40
0
40
0.5
40
0.5
40
1
40
1
40
1
40
1
41
1
10
71.0917596934127
20
-5.01871137729066
30
0
41
1
10
71.1395857372755
20
-5.07496222035888
30
0
41
1
10
71.1872209797646
20
-5.12979164555156
30
0
41
1
10
71.2820636993766
20
-5.23653179842978
30
0
41
1
10
71.3292706568411
20
-5.28844274811058
30
0
41
1
10
71.3762887791466
20
-5.33891012837512
30
0
0
SPLINE
5
ED
100
AcDbEntity
8
1
62
256
6
ByLayer
370
18
48
1
60
0
100
AcDbSpline
70
4
71
3
72
8
73
4
40
0
40
0
40
0
40
0
40
1
40
1
40
1
40
1
41
1
10
71.5575647016176
20
-5.24485377773075
30
0
41
1
10
71.4970934132664
20
-5.27710405732608
30
0
41
1
10
71.4366694202547
20
-5.30845548702595
30
0
41
1
10
71.3762887791466
20
-5.33891012837506
30
0
0
SPLINE
5
EE
100
AcDbEntity
8
1
62
256
6
ByLayer
370
18
48
1
60
0
100
AcDbSpline
70
4
71
3
72
31
73
27
40
0
40
0
40
0
40
0
40
0.0543227264201963
40
0.0543227264201963
40
0.108645452840393
40
0.108645452840393
40
0.217290905680787
40
0.217290905680787
40
0.434581811361586
40
0.434581811361586
40
0.651872717042385
40
0.651872717042385
40
0.760518169882779
40
0.814840896302969
40
0.814840896302969
40
0.842002259513063
40
0.842002259513063
40
0.869163622723158
40
0.869163622723158
40
0.923486349143338
40
0.923486349143338
40
0.950647712353434
40
0.950647712353434
40
0.977809075563531
40
0.977809075563531
40
1
40
1
40
1
40
1
41
1
10
71.5575647016173
20
-5.244853777716
30
0
41
1
10
71.5695287937246
20
-5.22016895076669
30
0
41
1
10
71.5814787318301
20
-5.19545435628979
30
0
41
1
10
71.6054659671628
20
-5.14604351688544
30
0
41
1
10
71.6174917563118
20
-5.12133922956966
30
0
41
1
10
71.6536267972135
20
-5.04723108588954
30
0
41
1
10
71.6777856820975
20
-4.99781895866622
30
0
41
1
10
71.7503752196015
20
-4.849504313381
30
0
41
1
10
71.7989549618354
20
-4.75054541474887
30
0
41
1
10
71.8965513200739
20
-4.55249019988545
30
0
41
1
10
71.9455756770558
20
-4.45338060143928
30
0
41
1
10
72.0193727362733
20
-4.30489508319349
30
0
41
1
10
72.0563440385743
20
-4.23068161533846
30
0
41
1
10
72.0934354700892
20
-4.15651771268742
30
0
41
1
10
72.1120021539994
20
-4.11944450685507
30
0
41
1
10
72.1181949451316
20
-4.10708844234532
30
0
41
1
10
72.1305860249455
20
-4.08237843405706
30
0
41
1
10
72.1367318466708
20
-4.06999665434429
30
0
41
1
10
72.1550490365246
20
-4.03278632235379
30
0
41
1
10
72.1671795466426
20
-4.00793492983371
30
0
41
1
10
72.1883791042722
20
-3.97224890018174
30
0
41
1
10
72.1959291040058
20
-3.96060963182143
30
0
41
1
10
72.2120953848235
20
-3.93789592256317
30
0
41
1
10
72.2207673371652
20
-3.92675483059108
30
0
41
1
10
72.2369118641372
20
-3.90744369682622
30
0
41
1
10
72.2443298330151
20
-3.89904683812719
30
0
41
1
10
72.2518918543115
20
-3.89091066491085
30
0
0
SPLINE
5
EF
100
AcDbEntity
8
1
62
256
6
ByLayer
370
18
48
1
60
0
100
AcDbSpline
70
4
71
3
72
12
73
8
40
0
40
0
40
0
40
0
40
0.250000000000004
40
0.250000000000004
40
0.500000000000007
40
0.500000000000007
40
1
40
1
40
1
40
1
41
1
10
82.3344350790253
20
-2.44064055042398
30
0
41
1
10
82.3280963397183
20
-2.4371878602696
30
0
41
1
10
82.3217159404499
20
-2.43388430780212
30
0
41
1
10
82.3090469462189
20
-2.42767366633188
30
0
41
1
10
82.3027580240992
20
-2.42476469235407
30
0
41
1
10
82.2840349980117
20
-2.416639119021
30
0
41
1
10
82.2717414537932
20
-2.41200988943763
30
0
41
1
10
82.2596821731518
20
-2.40832316940276
30
0
0
SPLINE
5
F0
100
AcDbEntity
8
1
62
256
6
ByLayer
370
18
48
1
60
0
100
AcDbSpline
70
4
71
3
72
10
73
6
40
0
40
0
40
0
40
0
40
0.5
40
0.5
40
1
40
1
40
1
40
1
41
1
10
72.2148023283667
20
5.67059356987349
30
0
41
1
10
72.1662448372124
20
5.62207066132135
30
0
41
1
10
72.1174970771466
20
5.57159721773306
30
0
41
1
10
72.0196790375417
20
5.46684777068413
30
0
41
1
10
71.9705991229296
20
5.41256280094143
30
0
41
1
10
71.9213182475691
20
5.35635163862156
30
0
0
SPLINE
5
F1
100
AcDbEntity
8
1
62
256
6
ByLayer
370
18
48
1
60
0
100
AcDbSpline
70
4
71
3
72
60
73
56
40
0
40
0
40
0
40
0
40
0.124999999999998
40
0.124999999999998
40
0.249999999999996
40
0.249999999999996
40
0.265624999999998
40
0.265624999999998
40
0.28125
40
0.28125
40
0.296875000000001
40
0.296875000000001
40
0.312500000000003
40
0.312500000000003
40
0.328125000000004
40
0.328125000000004
40
0.343750000000006
40
0.343750000000006
40
0.375000000000009
40
0.375000000000009
40
0.406250000000012
40
0.406250000000012
40
0.421875000000019
40
0.421875000000019
40
0.437500000000026
40
0.437500000000026
40
0.453125000000034
40
0.453125000000034
40
0.468750000000041
40
0.468750000000041
40
0.500000000000069
40
0.500000000000069
40
0.515625000000076
40
0.515625000000076
40
0.531250000000084
40
0.531250000000084
40
0.546875000000091
40
0.546875000000091
40
0.562500000000099
40
0.562500000000099
40
0.570312500000102
40
0.570312500000102
40
0.578125000000106
40
0.578125000000106
40
0.593750000000106
40
0.625000000000098
40
0.750000000000063
40
0.750000000000063
40
0.875000000000027
40
0.875000000000027
40
0.937500000000014
40
0.937500000000014
40
0.968750000000007
40
0.968750000000007
40
1
40
1
40
1
40
1
41
1
10
71.9213182475691
20
5.35635163862142
30
0
41
1
10
71.8751006969025
20
5.30363459121625
30
0
41
1
10
71.8287660628024
20
5.24929147191031
30
0
41
1
10
71.7358061934268
20
5.13736070326996
30
0
41
1
10
71.689175354722
20
5.07978491784033
30
0
41
1
10
71.6365801946338
20
5.01309280049324
30
0
41
1
10
71.6307345258519
20
5.00565595463081
30
0
41
1
10
71.6190385798143
20
4.99072701750069
30
0
41
1
10
71.6132196549318
20
4.98319009250807
30
0
41
1
10
71.6014110881725
20
4.96829729949744
30
0
41
1
10
71.5953591051471
20
4.96103040494214
30
0
41
1
10
71.582378795247
20
4.9476823044902
30
0
41
1
10
71.5753970141774
20
4.94167717780388
30
0
41
1
10
71.5605621844149
20
4.9308449728739
30
0
41
1
10
71.5527732059251
20
4.9259265577216
30
0
41
1
10
71.5365780888953
20
4.91690759823402
30
0
41
1
10
71.5281319201671
20
4.91281511017357
30
0
41
1
10
71.5023086482274
20
4.90210381546717
30
0
41
1
10
71.484263633564
20
4.89708111290352
30
0
41
1
10
71.4467328204835
20
4.89080961619547
30
0
41
1
10
71.4272724904821
20
4.88948758912528
30
0
41
1
10
71.3970372182832
20
4.89035682247035
30
0
41
1
10
71.3868032308357
20
4.89113492423886
30
0
41
1
10
71.366329501253
20
4.89371820900806
30
0
41
1
10
71.3560481420657
20
4.89552307169191
30
0
41
1
10
71.3353959789504
20
4.90029394008079
30
0
41
1
10
71.3250239452401
20
4.90327681525025
30
0
41
1
10
71.304197169402
20
4.91046587959403
30
0
41
1
10
71.2937207453346
20
4.91467652603714
30
0
41
1
10
71.2623197748739
20
4.92917020212332
30
0
41
1
10
71.2418607193151
20
4.94101064186472
30
0
41
1
10
71.2121142088965
20
4.96286788165187
30
0
41
1
10
71.2022896828927
20
4.97092002335131
30
0
41
1
10
71.1837113726807
20
4.9884366059992
30
0
41
1
10
71.174927014493
20
4.99796064020586
30
0
41
1
10
71.1584893106468
20
5.01872143049212
30
0
41
1
10
71.1508186852205
20
5.03004151297412
30
0
41
1
10
71.1365630122538
20
5.05332365096746
30
0
41
1
10
71.129857221906
20
5.06527758538209
30
0
41
1
10
71.1197792533407
20
5.08318447142696
30
0
41
1
10
71.1164232590986
20
5.08915437246139
30
0
41
1
10
71.1096435386117
20
5.10103972693449
30
0
41
1
10
71.1062209229538
20
5.10695601691882
30
0
41
1
10
71.0959638226215
20
5.12470822681985
30
0
41
1
10
71.0754593331967
20
5.16020086462217
30
0
41
1
10
71.0003798547322
20
5.29021114872077
30
0
41
1
10
70.9324379046431
20
5.40797826674739
30
0
41
1
10
70.8243441922448
20
5.59530171811301
30
0
41
1
10
70.7705623918495
20
5.68848114886327
30
0
41
1
10
70.6902231463207
20
5.8275097100082
30
0
41
1
10
70.6634921640972
20
5.87372274599662
30
0
41
1
10
70.6234970532565
20
5.94287770374694
30
0
41
1
10
70.6101869720149
20
5.96590625346738
30
0
41
1
10
70.5836417053102
20
6.0119469182292
30
0
41
1
10
70.5704262488274
20
6.03497717279859
30
0
41
1
10
70.5571894229227
20
6.05794552003835
30
0
0
SPLINE
5
F2
100
AcDbEntity
8
1
62
256
6
ByLayer
370
18
48
1
60
0
100
AcDbSpline
70
4
71
3
72
8
73
4
40
0
40
0
40
0
40
0
40
1
40
1
40
1
40
1
41
1
10
70.3756501704623
20
6.06994059266785
30
0
41
1
10
70.2784780740614
20
5.91920589480145
30
0
41
1
10
70.1805483621766
20
5.76250863240764
30
0
41
1
10
70.081882850929
20
5.60019818688227
30
0
0
SPLINE
5
F3
100
AcDbEntity
8
1
62
256
6
ByLayer
370
18
48
1
60
0
100
AcDbSpline
70
4
71
3
72
57
73
53
40
0
40
0
40
0
40
0
40
0.124999999999981
40
0.124999999999981
40
0.249999999999962
40
0.249999999999962
40
0.265624999999961
40
0.265624999999961
40
0.281249999999959
40
0.281249999999959
40
0.296874999999957
40
0.296874999999957
40
0.312499999999956
40
0.312499999999956
40
0.328124999999954
40
0.328124999999954
40
0.343749999999952
40
0.343749999999952
40
0.374999999999939
40
0.374999999999939
40
0.406249999999925
40
0.406249999999925
40
0.421874999999918
40
0.421874999999918
40
0.437499999999911
40
0.437499999999911
40
0.46874999999991
40
0.46874999999991
40
0.499999999999909
40
0.499999999999909
40
0.515624999999914
40
0.515624999999914
40
0.531249999999919
40
0.531249999999919
40
0.546874999999924
40
0.546874999999924
40
0.562499999999929
40
0.562499999999929
40
0.570312499999932
40
0.578124999999936
40
0.578124999999936
40
0.593749999999942
40
0.624999999999948
40
0.749999999999963
40
0.749999999999963
40
0.874999999999979
40
0.874999999999979
40
0.937499999999986
40
0.937499999999986
40
0.968749999999993
40
0.968749999999993
40
1
40
1
40
1
40
1
41
1
10
70.081882850929
20
5.60019818688227
30
0
41
1
10
70.0356997740613
20
5.52422436697964
30
0
41
1
10
69.9893966239707
20
5.44708930328713
30
0
41
1
10
69.8964964500705
20
5.29051239892794
30
0
41
1
10
69.8498935444109
20
5.21107978186865
30
0
41
1
10
69.7973300054865
20
5.12034809333627
30
0
41
1
10
69.7914877985522
20
5.11024783343996
30
0
41
1
10
69.7797987037966
20
5.09000702879879
30
0
41
1
10
69.773982479359
20
5.07982792231692
30
0
41
1
10
69.7621851746513
20
5.05963244974416
30
0
41
1
10
69.7561412667858
20
5.04969567208568
30
0
41
1
10
69.7431760360027
20
5.03088558043459
30
0
41
1
10
69.7362004533477
20
5.02208083098981
30
0
41
1
10
69.7213643227993
20
5.00554392634939
30
0
41
1
10
69.7135693808121
20
4.99772877263098
30
0
41
1
10
69.697356024589
20
4.98284154889944
30
0
41
1
10
69.688910829966
20
4.97577942982824
30
0
41
1
10
69.6631086981797
20
4.95622698504525
30
0
41
1
10
69.6450783273934
20
4.94533142141125
30
0
41
1
10
69.6075768072091
20
4.92734581337615
30
0
41
1
10
69.5881314934591
20
4.92018162146346
30
0
41
1
10
69.5579211127253
20
4.91229253226626
30
0
41
1
10
69.5476754709775
20
4.91015429224842
30
0
41
1
10
69.5271900819812
20
4.90701408951748
30
0
41
1
10
69.5169054708882
20
4.90599822943759
30
0
41
1
10
69.4859264723324
20
4.90482096412549
30
0
41
1
10
69.4650887500111
20
4.9065896161587
30
0
41
1
10
69.4231998549086
20
4.91552031314251
30
0
41
1
10
69.4027413523981
20
4.92248245807107
30
0
41
1
10
69.3730102967021
20
4.93757272014361
30
0
41
1
10
69.3631860936748
20
4.94345175733108
30
0
41
1
10
69.3445925076715
20
4.95703383904694
30
0
41
1
10
69.33580383045
20
4.96478542390668
30
0
41
1
10
69.3193644452161
20
4.98243517311764
30
0
41
1
10
69.3116918136761
20
4.9924205378237
30
0
41
1
10
69.2974211606711
20
5.01342173074431
30
0
41
1
10
69.2907137726106
20
5.02437843510228
30
0
41
1
10
69.2806382362877
20
5.04076708407271
30
0
41
1
10
69.2739302617888
20
5.05169279438897
30
0
41
1
10
69.2670883127149
20
5.06244858694595
30
0
41
1
10
69.2568342787783
20
5.07857678015057
30
0
41
1
10
69.2363359893067
20
5.11078257491948
30
0
41
1
10
69.1612803194854
20
5.22831037835437
30
0
41
1
10
69.0933583655418
20
5.33343957043149
30
0
41
1
10
68.985296599467
20
5.49899540936434
30
0
41
1
10
68.9315305477549
20
5.58051141206846
30
0
41
1
10
68.8512131982797
20
5.7009053275217
30
0
41
1
10
68.8244894567582
20
5.74071441632498
30
0
41
1
10
68.7845037297179
20
5.79998972070476
30
0
41
1
10
68.7711964991603
20
5.81968119504279
30
0
41
1
10
68.7446563123843
20
5.85897306274296
30
0
41
1
10
68.7314429741398
20
5.8785990732234
30
0
41
1
10
68.7182099677413
20
5.89810628502403
30
0
0
SPLINE
5
F4
100
AcDbEntity
8
1
62
256
6
ByLayer
370
18
48
1
60
0
100
AcDbSpline
70
4
71
3
72
8
73
4
40
0
40
0
40
0
40
0
40
1
40
1
40
1
40
1
41
1
10
68.5355193316421
20
5.84848401442719
30
0
41
1
10
68.5964362937952
20
5.86602559984618
30
0
41
1
10
68.6573275990021
20
5.8825671257753
30
0
41
1
10
68.7182099677412
20
5.89810628502403
30
0
0
SPLINE
5
F5
100
AcDbEntity
8
1
62
256
6
ByLayer
370
18
48
1
60
0
100
AcDbSpline
70
4
71
3
72
10
73
6
40
0
40
0
40
0
40
0
40
0.5
40
0.5
40
1
40
1
40
1
40
1
41
1
10
68.5355193316428
20
5.84848401441843
30
0
41
1
10
68.4870206639808
20
5.75414091728703
30
0
41
1
10
68.4383444337043
20
5.65891503062315
30
0
41
1
10
68.3406732090249
20
5.46690038712063
30
0
41
1
10
68.2916644594873
20
5.37008579764924
30
0
41
1
10
68.2424490514651
20
5.27246457975332
30
0
0
SPLINE
5
F6
100
AcDbEntity
8
1
62
256
6
ByLayer
370
18
48
1
60
0
100
AcDbSpline
70
4
71
3
72
63
73
59
40
0
40
0
40
0
40
0
40
0.124999999999891
40
0.124999999999891
40
0.249999999999781
40
0.249999999999781
40
0.281249999999753
40
0.281249999999753
40
0.296874999999739
40
0.296874999999739
40
0.312499999999725
40
0.312499999999725
40
0.328124999999712
40
0.328124999999712
40
0.343749999999698
40
0.343749999999698
40
0.374999999999679
40
0.374999999999679
40
0.390624999999676
40
0.390624999999676
40
0.406249999999673
40
0.406249999999673
40
0.437499999999665
40
0.437499999999665
40
0.468749999999658
40
0.468749999999658
40
0.484374999999649
40
0.484374999999649
40
0.499999999999639
40
0.499999999999639
40
0.50781249999964
40
0.50781249999964
40
0.515624999999641
40
0.515624999999641
40
0.531249999999655
40
0.531249999999655
40
0.539062499999662
40
0.539062499999662
40
0.546874999999669
40
0.546874999999669
40
0.562499999999683
40
0.562499999999683
40
0.570312499999686
40
0.570312499999686
40
0.57812499999969
40
0.57812499999969
40
0.593749999999704
40
0.593749999999704
40
0.624999999999725
40
0.749999999999817
40
0.749999999999817
40
0.874999999999908
40
0.874999999999908
40
0.937499999999958
40
0.937499999999958
40
0.968749999999979
40
0.968749999999979
40
1
40
1
40
1
40
1
41
1
10
68.2424490514651
20
5.27246457975332
30
0
41
1
10
68.196660195315
20
5.18164009849696
30
0
41
1
10
68.1507525127691
20
5.09023594157046
30
0
41
1
10
68.0586455377155
20
4.90629381731014
30
0
41
1
10
68.0124411418109
20
4.81376479610219
30
0
41
1
10
67.9545298458744
20
4.69734135243627
30
0
41
1
10
67.9429703510972
20
4.67398854522574
30
0
41
1
10
67.9255201442661
20
4.63899291784472
30
0
41
1
10
67.9196147871076
20
4.62739949357328
30
0
41
1
10
67.9070118176701
20
4.60493534700137
30
0
41
1
10
67.9002671617682
20
4.5941089014137
30
0
41
1
10
67.8857885376446
20
4.57336383405917
30
0
41
1
10
67.8781266303066
20
4.56337730528185
30
0
41
1
10
67.8621846765541
20
4.54396269286897
30
0
41
1
10
67.853839463769
20
4.53450787737779
30
0
41
1
10
67.8282195299844
20
4.50754500161253
30
0
41
1
10
67.8102830969587
20
4.49146364944244
30
0
41
1
10
67.7822096957759
20
4.46998089630088
30
0
41
1
10
67.7726637006547
20
4.46324418122509
30
0
41
1
10
67.7532099525091
20
4.45059708925643
30
0
41
1
10
67.7432748816576
20
4.44467208582984
30
0
41
1
10
67.7130944767631
20
4.42829451927881
30
0
41
1
10
67.6927575958573
20
4.41934116022051
30
0
41
1
10
67.6516595682791
20
4.4060043898354
30
0
41
1
10
67.6308872719219
20
4.40174637745898
30
0
41
1
10
67.5994345950458
20
4.39924514430604
30
0
41
1
10
67.5889837877498
20
4.39907166117254
30
0
41
1
10
67.5684260719511
20
4.40010794133292
30
0
41
1
10
67.5582788876615
20
4.40131035094313
30
0
41
1
10
67.5432924742033
20
4.40430221510681
30
0
41
1
10
67.5383363375753
20
4.40549908622381
30
0
41
1
10
67.528514851668
20
4.40835134492033
30
0
41
1
10
67.5236482873792
20
4.41000939431245
30
0
41
1
10
67.5094505559352
20
4.4157095633052
30
0
41
1
10
67.5004606554375
20
4.42052929549479
30
0
41
1
10
67.487821240926
20
4.42957046576021
30
0
41
1
10
67.4837470149489
20
4.43288169509532
30
0
41
1
10
67.4758629188771
20
4.4400676307144
30
0
41
1
10
67.472056221931
20
4.44394521655639
30
0
41
1
10
67.4611066032458
20
4.45608417874794
30
0
41
1
10
67.4543302349252
20
4.46485485957629
30
0
41
1
10
67.444222873451
20
4.47804035728234
30
0
41
1
10
67.44087013213
20
4.48244969881731
30
0
41
1
10
67.4341211030576
20
4.49119286174059
30
0
41
1
10
67.4307140641465
20
4.49551203076263
30
0
41
1
10
67.4204527345765
20
4.50839019996806
30
0
41
1
10
67.4136068406046
20
4.51693609016314
30
0
41
1
10
67.3930904607372
20
4.54250439023326
30
0
41
1
10
67.3247655983319
20
4.62716494023795
30
0
41
1
10
67.2567560566128
20
4.70897478236839
30
0
41
1
10
67.1485577537788
20
4.83593058051218
30
0
41
1
10
67.0947252665847
20
4.89748890677717
30
0
41
1
10
67.014310728892
20
4.9869931034716
30
0
41
1
10
66.9875563303849
20
5.01634708003391
30
0
41
1
10
66.947520057854
20
5.0597031450782
30
0
41
1
10
66.9341950320746
20
5.07404965154896
30
0
41
1
10
66.9076174654086
20
5.10258348894283
30
0
41
1
10
66.8943835808831
20
5.11679986029412
30
0
41
1
10
66.8811401577052
20
5.13086679816413
30
0
0
SPLINE
5
F7
100
AcDbEntity
8
1
62
256
6
ByLayer
370
18
48
1
60
0
100
AcDbSpline
70
4
71
3
72
10
73
6
40
0
40
0
40
0
40
0
40
0.5
40
0.5
40
1
40
1
40
1
40
1
41
1
10
66.8811401577052
20
5.13086679816413
30
0
41
1
10
66.7838520079111
20
4.91310282936306
30
0
41
1
10
66.6862750514024
20
4.69504602894986
30
0
41
1
10
66.4900379180766
20
4.25855492959224
30
0
41
1
10
66.3913928054348
20
4.0401157906324
30
0
41
1
10
66.2918808825297
20
3.82160845996708
30
0
0
SPLINE
5
F8
100
AcDbEntity
8
1
62
256
6
ByLayer
370
18
48
1
60
0
100
AcDbSpline
70
4
71
3
72
8
73
4
40
0
40
0
40
0
40
0
40
1
40
1
40
1
40
1
41
1
10
79.675292894376
20
-5.54970680418089
30
0
41
1
10
79.7568282426566
20
-5.69260967537372
30
0
41
1
10
79.8377735334119
20
-5.83419196025503
30
0
41
1
10
79.9181060664975
20
-5.97416568896335
30
0
0
SPLINE
5
F9
100
AcDbEntity
8
1
62
256
6
ByLayer
370
18
48
1
60
0
100
AcDbSpline
70
4
71
3
72
8
73
4
40
0
40
0
40
0
40
0
40
1
40
1
40
1
40
1
41
1
10
79.9181060664975
20
-5.97416568896332
30
0
41
1
10
80.0393491736822
20
-5.93430898318189
30
0
41
1
10
80.1612969380883
20
-5.88947122448388
30
0
41
1
10
80.2840922464217
20
-5.83966136287705
30
0
0
SPLINE
5
FA
100
AcDbEntity
8
1
62
256
6
ByLayer
370
18
48
1
60
0
100
AcDbSpline
70
4
71
3
72
53
73
49
40
0
40
0
40
0
40
0
40
0.250000000000072
40
0.250000000000072
40
0.375000000000112
40
0.437500000000127
40
0.46875000000014
40
0.46875000000014
40
0.484375000000141
40
0.484375000000141
40
0.500000000000142
40
0.500000000000142
40
0.531250000000146
40
0.531250000000146
40
0.56250000000015
40
0.56250000000015
40
0.578125000000152
40
0.578125000000152
40
0.593750000000154
40
0.593750000000154
40
0.625000000000171
40
0.625000000000171
40
0.640625000000179
40
0.640625000000179
40
0.656250000000188
40
0.656250000000188
40
0.68750000000019
40
0.68750000000019
40
0.718750000000192
40
0.718750000000192
40
0.734375000000185
40
0.734375000000185
40
0.750000000000179
40
0.750000000000179
40
0.781250000000166
40
0.781250000000166
40
0.796875000000152
40
0.796875000000152
40
0.812500000000139
40
0.812500000000139
40
0.828125000000125
40
0.828125000000125
40
0.843750000000112
40
0.843750000000112
40
0.859375000000098
40
0.859375000000098
40
0.875000000000085
40
1
40
1
40
1
40
1
41
1
10
80.2840922464217
20
-5.83966136287705
30
0
41
1
10
80.3581826194394
20
-5.72264847756523
30
0
41
1
10
80.4327291052491
20
-5.60269388248278
30
0
41
1
10
80.5453327952712
20
-5.41849660471689
30
0
41
1
10
80.6017927574344
20
-5.32539608881578
30
0
41
1
10
80.6679741948688
20
-5.21504697097942
30
0
41
1
10
80.6964112160397
20
-5.1673793772141
30
0
41
1
10
80.710642603035
20
-5.14348267227038
30
0
41
1
10
80.7153857975987
20
-5.13550337633944
30
0
41
1
10
80.7247641499127
20
-5.11939196027572
30
0
41
1
10
80.7294199521413
20
-5.11128411838038
30
0
41
1
10
80.7435312626625
20
-5.08709052758059
30
0
41
1
10
80.7531340095191
20
-5.07113892905051
30
0
41
1
10
80.7746830756489
20
-5.04187460103711
30
0
41
1
10
80.7866162899013
20
-5.02854596301003
30
0
41
1
10
80.8063421011348
20
-5.01060792726125
30
0
41
1
10
80.8132022847045
20
-5.00496046603496
30
0
41
1
10
80.8271043802252
20
-4.99444201512569
30
0
41
1
10
80.8341876894599
20
-4.98953458606732
30
0
41
1
10
80.8557857877761
20
-4.97573886937445
30
0
41
1
10
80.8706439941015
20
-4.96776286509569
30
0
41
1
10
80.8935747961109
20
-4.95755039386148
30
0
41
1
10
80.9013271460095
20
-4.95444257221055
30
0
41
1
10
80.9170573882442
20
-4.9488533494241
30
0
41
1
10
80.9250614760311
20
-4.94636660376563
30
0
41
1
10
80.9491138162375
20
-4.94001873036817
30
0
41
1
10
80.9652709399527
20
-4.9372869777319
30
0
41
1
10
80.9977791491714
20
-4.93462321368088
30
0
41
1
10
81.0141289306967
20
-4.93466629510499
30
0
41
1
10
81.038775015127
20
-4.9368793127542
30
0
41
1
10
81.0470397066137
20
-4.9379842827731
30
0
41
1
10
81.0634641991984
20
-4.94096142354306
30
0
41
1
10
81.0716000050115
20
-4.94282601671574
30
0
41
1
10
81.095752201884
20
-4.94964419584892
30
0
41
1
10
81.1115054035476
20
-4.9558637315655
30
0
41
1
10
81.1344741724178
20
-4.96824767011216
30
0
41
1
10
81.1420632969252
20
-4.97288994827281
30
0
41
1
10
81.1567426485313
20
-4.98301278839548
30
0
41
1
10
81.1638533051418
20
-4.98849017157556
30
0
41
1
10
81.1775484611985
20
-5.00039986405798
30
0
41
1
10
81.1841043464566
20
-5.0068863009252
30
0
41
1
10
81.1963932054455
20
-5.02136870453518
30
0
41
1
10
81.2021574344912
20
-5.02936505445408
30
0
41
1
10
81.2132054684004
20
-5.0458701351576
30
0
41
1
10
81.2185228562156
20
-5.05435011119101
30
0
41
1
10
81.2292595235656
20
-5.07116178397698
30
0
41
1
10
81.2775613165724
20
-5.14669920985187
30
0
41
1
10
81.32574119522
20
-5.22122496854888
30
0
41
1
10
81.3684327031565
20
-5.28674104071339
30
0
0
SPLINE
5
FB
100
AcDbEntity
8
1
62
256
6
ByLayer
370
18
48
1
60
0
100
AcDbSpline
70
4
71
3
72
14
73
10
40
0
40
0
40
0
40
0
40
0.50000000000001
40
0.50000000000001
40
0.750000000000005
40
0.750000000000005
40
0.875000000000003
40
0.875000000000003
40
1
40
1
40
1
40
1
41
1
10
81.3684327031565
20
-5.28674104071342
30
0
41
1
10
81.5373115727508
20
-5.18449553025207
30
0
41
1
10
81.7073858115996
20
-5.07481859472455
30
0
41
1
10
81.9649674554925
20
-4.89989546024245
30
0
41
1
10
82.0512330069672
20
-4.83985052720129
30
0
41
1
10
82.1813382400436
20
-4.74723873737534
30
0
41
1
10
82.2248221604704
20
-4.71594399015788
30
0
41
1
10
82.3120758590927
20
-4.65251227932066
30
0
41
1
10
82.3558993875198
20
-4.62037097413625
30
0
41
1
10
82.399999935597
20
-4.58781065687054
30
0
0
SPLINE
5
FC
100
AcDbEntity
8
1
62
256
6
ByLayer
370
18
48
1
60
0
100
AcDbSpline
70
4
71
3
72
14
73
10
40
0
40
0
40
0
40
0
40
0.25
40
0.25
40
0.5
40
0.5
40
0.75
40
0.75
40
1
40
1
40
1
40
1
41
1
10
82.399999935597
20
-4.58781065687054
30
0
41
1
10
82.44753883408
20
-4.52749174408308
30
0
41
1
10
82.4956099443718
20
-4.46672544359228
30
0
41
1
10
82.5929982336279
20
-4.34438980565082
30
0
41
1
10
82.6423601998077
20
-4.28276769861276
30
0
41
1
10
82.7423363867891
20
-4.15907649655964
30
0
41
1
10
82.7929417701362
20
-4.09701825229871
30
0
41
1
10
82.89549779097
20
-3.97280334335252
30
0
41
1
10
82.9473736457113
20
-3.91073634548522
30
0
41
1
10
83
20
-3.84879967114426
30
0
0
SPLINE
5
FD
100
AcDbEntity
8
1
62
256
6
ByLayer
370
18
48
1
60
0
100
AcDbSpline
70
4
71
3
72
21
73
17
40
0
40
0
40
0
40
0
40
0.17665505491877
40
0.17665505491877
40
0.353310109837539
40
0.353310109837539
40
0.397473873567232
40
0.397473873567232
40
0.441637637296924
40
0.485801401026616
40
0.485801401026616
40
0.529965164756309
40
0.529965164756309
40
0.706620219675077
40
0.706620219675077
40
1
40
1
40
1
40
1
41
1
10
83
20
-3.84879967114421
30
0
41
1
10
83
20
-3.73885234590128
30
0
41
1
10
83
20
-3.63621625973016
30
0
41
1
10
83
20
-3.44474978716764
30
0
41
1
10
83
20
-3.3558973774268
30
0
41
1
10
83
20
-3.2535128707114
30
0
41
1
10
83
20
-3.23351229011186
30
0
41
1
10
83
20
-3.19415827267602
30
0
41
1
10
83
20
-3.15516098514013
30
0
41
1
10
83.0000000000001
20
-3.11697356880347
30
0
41
1
10
83.0000000000001
20
-3.07919018574026
30
0
41
1
10
82.9999999999999
20
-3.06048525473739
30
0
41
1
10
82.9999999999999
20
-2.96815978496062
30
0
41
1
10
83
20
-2.89842472070907
30
0
41
1
10
83
20
-2.72351166889842
30
0
41
1
10
82.9999999999999
20
-2.6253735662689
30
0
41
1
10
82.9999999999999
20
-2.5381696711425
30
0
0
SPLINE
5
FE
100
AcDbEntity
8
1
62
256
6
ByLayer
370
18
48
1
60
0
100
AcDbSpline
70
4
71
3
72
10
73
6
40
0
40
0
40
0
40
0
40
0.5
40
0.5
40
1
40
1
40
1
40
1
41
1
10
82.9999999999999
20
-2.48536948266846
30
0
41
1
10
82.9020263726872
20
-2.48159690206768
30
0
41
1
10
82.8029723846008
20
-2.47799511396954
30
0
41
1
10
82.602911397335
20
-2.47192231278254
30
0
41
1
10
82.5019299120823
20
-2.46939514636813
30
0
41
1
10
82.4000000142463
20
-2.46813015333669
30
0
0
SPLINE
5
FF
100
AcDbEntity
8
1
62
256
6
ByLayer
370
18
48
1
60
0
100
AcDbSpline
70
4
71
3
72
8
73
4
40
0
40
0
40
0
40
0
40
1
40
1
40
1
40
1
41
1
10
82.4000000142462
20
-2.46813015333652
30
0
41
1
10
82.3781257376453
20
-2.45906557781763
30
0
41
1
10
82.3562632025212
20
-2.44991375553013
30
0
41
1
10
82.3344350790254
20
-2.44064055042381
30
0
0
SPLINE
5
100
100
AcDbEntity
8
1
62
256
6
ByLayer
370
18
48
1
60
0
100
AcDbSpline
70
4
71
3
72
10
73
6
40
0
40
0
40
0
40
0
40
0.450416418031833
40
0.450416418031833
40
1
40
1
40
1
40
1
41
1
10
70.3627382815352
20
6.07649817356486
30
0
41
1
10
70.364679359464
20
6.0764945804614
30
0
41
1
10
70.366622776412
20
6.07604918725678
30
0
41
1
10
70.3709331324875
20
6.07407488102444
30
0
41
1
10
70.3732948195852
20
6.07233256225589
30
0
41
1
10
70.3756501704722
20
6.06994059268473
30
0
0
SPLINE
5
101
100
AcDbEntity
8
1
62
256
6
ByLayer
370
18
48
1
60
0
100
AcDbSpline
70
4
71
3
72
10
73
6
40
0
40
0
40
0
40
0
40
0.102139023706482
40
0.102139023706482
40
1
40
1
40
1
40
1
41
1
10
67.9104672207434
20
-6.07649829516362
30
0
41
1
10
67.9093929566611
20
-6.07649997986147
30
0
41
1
10
67.9083196439078
20
-6.07636590899529
30
0
41
1
10
67.8978202137401
20
-6.07373086697137
30
0
41
1
10
67.8884753556381
20
-6.06095315016364
30
0
41
1
10
67.8791735548834
20
-6.03801749196333
30
0
0
SPLINE
5
102
100
AcDbEntity
8
1
62
256
6
ByLayer
370
18
48
1
60
0
100
AcDbSpline
70
4
71
3
72
12
73
8
40
0
40
0
40
0
40
0
40
0.703291566156681
40
0.703291566156681
40
0.879114457695851
40
0.879114457695851
40
1
40
1
40
1
40
1
41
1
10
67.6976724424891
20
-6.01341699362121
30
0
41
1
10
67.7070930337124
20
-6.04275068609579
30
0
41
1
10
67.7164782595279
20
-6.06199266143224
30
0
41
1
10
67.7282099403969
20
-6.07307962334468
30
0
41
1
10
67.7305564865239
20
-6.07464713297117
30
0
41
1
10
67.734518430847
20
-6.07618264469653
30
0
41
1
10
67.7361303418473
20
-6.07649574887492
30
0
41
1
10
67.7377384232712
20
-6.07649813566226
30
0
0
SPLINE
5
103
100
AcDbEntity
8
1
62
256
6
ByLayer
370
18
48
1
60
0
100
AcDbSpline
70
4
71
3
72
11
73
7
40
0
40
0
40
0
40
0
40
0.325838605464837
40
0.325838605464837
40
0.651677210929674
40
1
40
1
40
1
40
1
41
1
10
70.5571894229227
20
6.05794552003832
30
0
41
1
10
70.5548393876972
20
6.06197080682841
30
0
41
1
10
70.5524830337586
20
6.06535259785403
30
0
41
1
10
70.5477721956951
20
6.07079442782035
30
0
41
1
10
70.5429096233823
20
6.07504922303769
30
0
41
1
10
70.5380638452482
20
6.07649474731241
30
0
41
1
10
70.5355630281484
20
6.07649858842987
30
0
0
SPLINE
5
104
100
AcDbEntity
8
1
62
256
6
ByLayer
370
18
48
1
60
0
100
AcDbSpline
70
4
71
3
72
17
73
13
40
0
40
0
40
0
40
0
40
0.162102034308318
40
0.162102034308318
40
0.301751695256932
40
0.301751695256932
40
0.371576525731238
40
0.371576525731238
40
0.441401356205545
40
0.441401356205545
40
0.720700678102772
40
1
40
1
40
1
40
1
41
1
10
66.5223789087806
20
-5.44923736798978
30
0
41
1
10
66.5198513843499
20
-5.44484726305143
30
0
41
1
10
66.5173226510547
20
-5.4377884946062
30
0
41
1
10
66.5126078251197
20
-5.41961246620608
30
0
41
1
10
66.5104225499207
20
-5.40918909432108
30
0
41
1
10
66.5071349181534
20
-5.39046629778869
30
0
41
1
10
66.5060388430258
20
-5.38371733921562
30
0
41
1
10
66.5038539646406
20
-5.36926146684092
30
0
41
1
10
66.5027639028837
20
-5.36154755019913
30
0
41
1
10
66.4973229759301
20
-5.32056825998623
30
0
41
1
10
66.4886779808496
20
-5.23961280861764
30
0
41
1
10
66.4800164535508
20
-5.12835966427556
30
0
41
1
10
66.4756461653347
20
-5.06507231262469
30
0
0
SPLINE
5
105
100
AcDbEntity
8
1
62
256
6
ByLayer
370
18
48
1
60
0
100
AcDbSpline
70
4
71
3
72
18
73
14
40
0
40
0
40
0
40
0
40
0.173357723384803
40
0.173357723384803
40
0.311131436154001
40
0.311131436154001
40
0.380018292538601
40
0.380018292538601
40
0.4489051489232
40
0.4489051489232
40
0.7244525744616
40
0.7244525744616
40
1
40
1
40
1
40
1
41
1
10
72.1124214726906
20
6.07650256692347
30
0
41
1
10
72.1183495041905
20
6.07651875293078
30
0
41
1
10
72.1242837701373
20
6.07245084278384
30
0
41
1
10
72.134950999937
20
6.05777610767825
30
0
41
1
10
72.1396807747788
20
6.04867799371763
30
0
41
1
10
72.1467900707226
20
6.0310665315082
30
0
41
1
10
72.1491623000198
20
6.02453499851543
30
0
41
1
10
72.1539129173288
20
6.01013497303589
30
0
41
1
10
72.1562927992995
20
6.00225916399665
30
0
41
1
10
72.1681434659538
20
5.95975619059524
30
0
41
1
10
72.1775182605481
20
5.91564137494188
30
0
41
1
10
72.196182061425
20
5.80781436539755
30
0
41
1
10
72.205470902442
20
5.74410050873738
30
0
41
1
10
72.214802328377
20
5.67059356989085
30
0
0
SPLINE
5
106
100
AcDbEntity
8
1
62
256
6
ByLayer
370
18
48
1
60
0
100
AcDbSpline
70
4
71
3
72
14
73
10
40
0
40
0
40
0
40
0
40
0.216942761291185
40
0.216942761291185
40
0.47796184086079
40
0.47796184086079
40
0.738980920430395
40
0.738980920430395
40
1
40
1
40
1
40
1
41
1
10
78.4102567547735
20
-6.07649982676585
30
0
41
1
10
78.4025580230983
20
-6.07649166990197
30
0
41
1
10
78.3948903964086
20
-6.06934790785309
30
0
41
1
10
78.377944219357
20
-6.0378242030969
30
0
41
1
10
78.3686552802141
20
-6.01023940869905
30
0
41
1
10
78.3497403413134
20
-5.93357421208881
30
0
41
1
10
78.3402371566547
20
-5.88514292621298
30
0
41
1
10
78.3211443508081
20
-5.76884678304779
30
0
41
1
10
78.3115891786959
20
-5.70097245059077
30
0
41
1
10
78.3020816823731
20
-5.62342112338641
30
0
0
SPLINE
5
107
100
AcDbEntity
8
1
62
256
6
ByLayer
370
18
48
1
60
0
100
AcDbSpline
70
4
71
3
72
20
73
16
40
0
40
0
40
0
40
0
40
0.241253500128887
40
0.241253500128887
40
0.361880250193331
40
0.361880250193331
40
0.422193625225553
40
0.422193625225553
40
0.482507000257775
40
0.482507000257775
40
0.723760500386664
40
0.723760500386664
40
0.965014000515552
40
0.965014000515552
40
1
40
1
40
1
40
1
41
1
10
78.1204173789711
20
-5.54772532469281
30
0
41
1
10
78.1297883546718
20
-5.6311986902424
30
0
41
1
10
78.1391484243139
20
-5.70515835155564
30
0
41
1
10
78.1532609880415
20
-5.80171457523039
30
0
41
1
10
78.1579770559181
20
-5.83149826991354
30
0
41
1
10
78.165076959524
20
-5.87251492584204
30
0
41
1
10
78.167447865398
20
-5.88557702709474
30
0
41
1
10
78.172199141013
20
-5.91046782177304
30
0
41
1
10
78.1745829522359
20
-5.92231195642768
30
0
41
1
10
78.186472816684
20
-5.97816150204068
30
0
41
1
10
78.1958941438159
20
-6.01215913481093
30
0
41
1
10
78.2146311859194
20
-6.05948885596393
30
0
41
1
10
78.223949225675
20
-6.07281896633438
30
0
41
1
10
78.2346443888723
20
-6.07627539939861
30
0
41
1
10
78.2359994544067
20
-6.0764963386741
30
0
41
1
10
78.2373552706615
20
-6.07649954685562
30
0
0
SPLINE
5
108
100
AcDbEntity
8
1
62
256
6
ByLayer
370
18
48
1
60
0
100
AcDbSpline
70
4
71
3
72
17
73
13
40
0
40
0
40
0
40
0
40
0.253709674260284
40
0.253709674260284
40
0.507419348520568
40
0.507419348520568
40
0.570846767085639
40
0.570846767085639
40
0.63427418565071
40
0.761129022780851
40
0.761129022780851
40
1
40
1
40
1
40
1
41
1
10
72.396615705812
20
5.59843662693999
30
0
41
1
10
72.3871195193014
20
5.67793756773483
30
0
41
1
10
72.3776656096709
20
5.74779363656577
30
0
41
1
10
72.358842222186
20
5.86815366835998
30
0
41
1
10
72.3494753555516
20
5.91865943858454
30
0
41
1
10
72.3377294205631
20
5.9692768457202
30
0
41
1
10
72.335379807667
20
5.97876257135511
30
0
41
1
10
72.3306982094872
20
5.99637397153643
30
0
41
1
10
72.3236937989382
20
6.02079273228688
30
0
41
1
10
72.3167114327494
20
6.03928342614347
30
0
41
1
10
72.3032725948145
20
6.06734086482345
30
0
41
1
10
72.294480619141
20
6.07648172056543
30
0
41
1
10
72.2856561440881
20
6.07649849827277
30
0
0
SPLINE
5
109
100
AcDbEntity
8
1
62
256
6
ByLayer
370
13
48
1
60
0
100
AcDbSpline
70
4
71
3
72
10
73
6
40
0
40
0
40
0
40
0
40
0.0873625839978577
40
0.713420824399343
40
1
40
1
40
1
40
1
41
1
10
73.7607789730993
20
4.56479673044822
30
0
41
1
10
73.7547078275078
20
4.63567568926345
30
0
41
1
10
73.7053788932966
20
5.18494715548547
30
0
41
1
10
73.6393101771054
20
5.60360811604448
30
0
41
1
10
73.5823107767104
20
5.61214526207115
30
0
41
1
10
73.5646946448227
20
5.58181185940165
30
0
0
SPLINE
5
10A
100
AcDbEntity
8
1
62
256
6
ByLayer
370
13
48
1
60
0
100
AcDbSpline
70
4
71
3
72
9
73
5
40
0
40
0
40
0
40
0
40
0.321610450805798
40
1
40
1
40
1
40
1
41
1
10
77.9396241621781
20
-5.58146398397597
30
0
41
1
10
77.9280436245554
20
-5.56146627527414
30
0
41
1
10
77.8925438264552
20
-5.45523885803803
30
0
41
1
10
77.8584753114643
20
-5.22523978920648
30
0
41
1
10
77.8358737790367
20
-5.02394107579391
30
0
0
SPLINE
5
10B
100
AcDbEntity
8
1
62
256
6
ByLayer
370
18
48
1
60
0
100
AcDbSpline
70
4
71
3
72
24
73
20
40
0
40
0
40
0
40
0
40
0.118082989486914
40
0.118082989486914
40
0.265069157905762
40
0.265069157905762
40
0.41205532632461
40
0.41205532632461
40
0.559041494743457
40
0.559041494743457
40
0.706027663162305
40
0.706027663162305
40
0.853013831581153
40
0.853013831581153
40
0.889760373685865
40
0.889760373685865
40
0.926506915790577
40
0.926506915790577
40
1
40
1
40
1
40
1
41
1
10
73.8622998800567
20
6.07650033221299
30
0
41
1
10
73.8698807860386
20
6.07651810783983
30
0
41
1
10
73.8774439995376
20
6.06981011140465
30
0
41
1
10
73.8944460714704
20
6.03996385300408
30
0
41
1
10
73.9038982272191
20
6.0132049340877
30
0
41
1
10
73.9227699023294
20
5.93916705153663
30
0
41
1
10
73.932185520214
20
5.89189012557802
30
0
41
1
10
73.9510524347907
20
5.77606791987967
30
0
41
1
10
73.9603456368027
20
5.70850949956463
30
0
41
1
10
73.978855513214
20
5.55483026791893
30
0
41
1
10
73.9880750746422
20
5.46870000113708
30
0
41
1
10
74.0067015210094
20
5.27796093725874
30
0
41
1
10
74.0161328518457
20
5.17335372998517
30
0
41
1
10
74.0281294888748
20
5.03075310306681
30
0
41
1
10
74.0305365461053
20
5.00163936956588
30
0
41
1
10
74.0353624035167
20
4.94221111753066
30
0
41
1
10
74.0377816712809
20
4.91188868309513
30
0
41
1
10
74.0450110796306
20
4.81964323383906
30
0
41
1
10
74.0498063101705
20
4.75627370181485
30
0
41
1
10
74.0545724317554
20
4.69106742839841
30
0
0
SPLINE
5
10C
100
AcDbEntity
8
1
62
256
6
ByLayer
370
18
48
1
60
0
100
AcDbSpline
70
4
71
3
72
27
73
23
40
0
40
0
40
0
40
0
40
0.0003767028527523
40
0.0003767028527523
40
0.143180031016645
40
0.143180031016645
40
0.285983359180537
40
0.285983359180537
40
0.42878668734443
40
0.42878668734443
40
0.464487519385403
40
0.464487519385403
40
0.500188351426376
40
0.571590015508322
40
0.571590015508322
40
0.714393343672215
40
0.714393343672215
40
0.857196671836107
40
0.857196671836107
40
0.928598335918053
40
0.928598335918053
40
1
40
1
40
1
40
1
41
1
10
76.6605179534428
20
-6.07649827007313
30
0
41
1
10
76.6604928880695
20
-6.07649831302146
30
0
41
1
10
76.6604678236486
20
-6.0764982824511
30
0
41
1
10
76.6509415191863
20
-6.07645871938715
30
0
41
1
10
76.6415269866305
20
-6.06591845252208
30
0
41
1
10
76.6228037399545
20
-6.02446730933414
30
0
41
1
10
76.6134975538388
20
-5.99355475425733
30
0
41
1
10
76.5948283736073
20
-5.91135074950591
30
0
41
1
10
76.5854589586703
20
-5.86006105867128
30
0
41
1
10
76.5736369259642
20
-5.78281295302853
30
0
41
1
10
76.5712637273739
20
-5.76668012366855
30
0
41
1
10
76.5665272740777
20
-5.73323896734044
30
0
41
1
10
76.5594354675489
20
-5.68130650372152
30
0
41
1
10
76.5523772510133
20
-5.62412553839113
30
0
41
1
10
76.5382935073669
20
-5.50288110686841
30
0
41
1
10
76.5289493024661
20
-5.41289197712572
30
0
41
1
10
76.5102734935431
20
-5.21477691617596
30
0
41
1
10
76.5009440530114
20
-5.1066513904257
30
0
41
1
10
76.4868525279111
20
-4.930579442773
30
0
41
1
10
76.4821365919013
20
-4.86955361303342
30
0
41
1
10
76.4726478501809
20
-4.7428307218824
30
0
41
1
10
76.4679144959935
20
-4.67765142032277
30
0
41
1
10
76.4631861457578
20
-4.61069384395608
30
0
0
SPLINE
5
10D
100
AcDbEntity
8
1
62
256
6
ByLayer
370
18
48
1
60
0
100
AcDbSpline
70
4
71
3
72
32
73
28
40
0
40
0
40
0
40
0
40
0.034191029447804
40
0.034191029447804
40
0.068382058895608
40
0.068382058895608
40
0.136764117791216
40
0.136764117791216
40
0.273528235582432
40
0.273528235582432
40
0.410292353373648
40
0.410292353373648
40
0.478674412269256
40
0.478674412269256
40
0.51286544171706
40
0.51286544171706
40
0.547056471164864
40
0.547056471164864
40
0.683820588956079
40
0.683820588956079
40
0.820584706747295
40
0.820584706747295
40
0.957348824538512
40
0.957348824538512
40
0.991539853986316
40
0.991539853986316
40
1
40
1
40
1
40
1
41
1
10
76.2815875380993
20
-4.48285524323529
30
0
41
1
10
76.2839746542473
20
-4.51758939998334
30
0
41
1
10
76.2863618164724
20
-4.55189724610932
30
0
41
1
10
76.2911365414095
20
-4.6196511975223
30
0
41
1
10
76.2935275274567
20
-4.6531443010316
30
0
41
1
10
76.300672904174
20
-4.75191406514745
30
0
41
1
10
76.3053969896012
20
-4.81545352025134
30
0
41
1
10
76.3194670076457
20
-4.99929243940628
30
0
41
1
10
76.3287069490299
20
-5.11282954724507
30
0
41
1
10
76.3470694601823
20
-5.32217752387274
30
0
41
1
10
76.3561902156571
20
-5.41798808932609
30
0
41
1
10
76.3700091262394
20
-5.54823681616534
30
0
41
1
10
76.3746406146086
20
-5.58940430309107
30
0
41
1
10
76.3816634025818
20
-5.64772108091373
30
0
41
1
10
76.3840160699288
20
-5.66658732775437
30
0
41
1
10
76.3887446383889
20
-5.70316074349464
30
0
41
1
10
76.3911116378237
20
-5.72079869660146
30
0
41
1
10
76.4029483535932
20
-5.8057049779564
30
0
41
1
10
76.4124334217779
20
-5.86323212173286
30
0
41
1
10
76.4313971254506
20
-5.95807650124854
30
0
41
1
10
76.4408744411576
20
-5.99539235212998
30
0
41
1
10
76.4598191528948
20
-6.04976526663958
30
0
41
1
10
76.4692851048192
20
-6.06682414355188
30
0
41
1
10
76.4811575222239
20
-6.07506054384149
30
0
41
1
10
76.4835349817938
20
-6.07604962500884
30
0
41
1
10
76.4864878657216
20
-6.07645744770474
30
0
41
1
10
76.4870731606137
20
-6.07649798111268
30
0
41
1
10
76.4876580516176
20
-6.07649826776873
30
0
0
SPLINE
5
10E
100
AcDbEntity
8
1
62
256
6
ByLayer
370
18
48
1
60
0
100
AcDbSpline
70
4
71
3
72
10
73
6
40
0
40
0
40
0
40
0
40
0.0594876407667401
40
0.0594876407667401
40
1
40
1
40
1
40
1
41
1
10
38.3812525592039
20
4.35000054899456
30
0
41
1
10
38.3921601391293
20
4.34999747224913
30
0
41
1
10
38.4030727074937
20
4.34995354835269
30
0
41
1
10
38.5865961569601
20
4.3485306797725
30
0
41
1
10
38.7604143069794
20
4.33698908511181
30
0
41
1
10
38.9353831526296
20
4.3151411946258
30
0
0
SPLINE
5
10F
100
AcDbEntity
8
1
62
256
6
ByLayer
370
18
48
1
60
0
100
AcDbSpline
70
4
71
3
72
18
73
14
40
0
40
0
40
0
40
0
40
0.0129789726740545
40
0.0129789726740545
40
0.260197807969132
40
0.260197807969132
40
0.383807225616658
40
0.383807225616658
40
0.507416643264183
40
0.507416643264183
40
0.754635478559205
40
0.754635478559205
40
1
40
1
40
1
40
1
41
1
10
39.3333210714295
20
-4.34996780523215
30
0
41
1
10
39.326961636203
20
-4.3499643979321
30
0
41
1
10
39.320599985361
20
-4.34996076050277
30
0
41
1
10
39.1930192262874
20
-4.3498836214639
30
0
41
1
10
39.0709952224243
20
-4.34973707773364
30
0
41
1
10
38.8866106144381
20
-4.34956597272057
30
0
41
1
10
38.8248614119547
20
-4.34951636424731
30
0
41
1
10
38.7017113555844
20
-4.3494483857414
30
0
41
1
10
38.6402204511067
20
-4.3494299451676
30
0
41
1
10
38.4560074192534
20
-4.34943033617449
30
0
41
1
10
38.3335480642045
20
-4.34951202855976
30
0
41
1
10
38.0903233392477
20
-4.34975906023578
30
0
41
1
10
37.9695559980695
20
-4.34992921460889
30
0
41
1
10
37.8492515409645
20
-4.3499842441218
30
0
0
SPLINE
5
110
100
AcDbEntity
8
1
62
256
6
ByLayer
370
18
48
1
60
0
100
AcDbSpline
70
4
71
3
72
30
73
26
40
0
40
0
40
0
40
0
40
0.0702813437705146
40
0.0702813437705146
40
0.105422015655772
40
0.105422015655772
40
0.140562687541029
40
0.140562687541029
40
0.281125375082057
40
0.281125375082057
40
0.421688062623085
40
0.421688062623085
40
0.491969406393599
40
0.491969406393599
40
0.527110078278856
40
0.527110078278856
40
0.562250750164114
40
0.562250750164114
40
0.702813437705144
40
0.702813437705144
40
0.843376125246173
40
0.843376125246173
40
0.983938812787203
40
0.983938812787203
40
1
40
1
40
1
40
1
41
1
10
74.2359897150333
20
4.56642514198458
30
0
41
1
10
74.2311103677817
20
4.63416453628844
30
0
41
1
10
74.2262310974179
20
4.70013942370827
30
0
41
1
10
74.2189746461554
20
4.79640103924589
30
0
41
1
10
74.2165662517741
20
4.82802850936577
30
0
41
1
10
74.2117995693958
20
4.89001919790104
30
0
41
1
10
74.2094377741402
20
4.92042913042164
30
0
41
1
10
74.1977299874897
20
5.06958223231248
30
0
41
1
10
74.1887329743656
20
5.17965901536317
30
0
41
1
10
74.1705511923682
20
5.38171368008756
30
0
41
1
10
74.1613549122905
20
5.47369115634328
30
0
41
1
10
74.1473173394449
20
5.59797691678534
30
0
41
1
10
74.1425994036077
20
5.6371211984185
30
0
41
1
10
74.1354686390811
20
5.69235812728337
30
0
41
1
10
74.133082838058
20
5.71019023470566
30
0
41
1
10
74.128295304972
20
5.74468161957239
30
0
41
1
10
74.1258900970067
20
5.76136341538438
30
0
41
1
10
74.1138846220241
20
5.84144901875257
30
0
41
1
10
74.1043496354131
20
5.89498739113199
30
0
41
1
10
74.0853700305206
20
5.9816932907533
30
0
41
1
10
74.0759264515127
20
6.0148589563361
30
0
41
1
10
74.0571024846498
20
6.06086411127359
30
0
41
1
10
74.0477247319297
20
6.07370493817859
30
0
41
1
10
74.0372715529315
20
6.07636416479602
30
0
41
1
10
74.0361994841568
20
6.07650001276713
30
0
41
1
10
74.0351272282226
20
6.0764982741633
30
0
0
SPLINE
5
111
100
AcDbEntity
8
1
62
256
6
ByLayer
370
13
48
1
60
0
100
AcDbSpline
70
4
71
3
72
11
73
7
40
0
40
0
40
0
40
0
40
0.252730694144813
40
0.528650152861193
40
0.819828502971213
40
1
40
1
40
1
40
1
41
1
10
75.6002168546223
20
3.30677882937479
30
0
41
1
10
75.5818802850189
20
3.60415850616062
30
0
41
1
10
75.5429437264177
20
4.19001133598948
30
0
41
1
10
75.4805051632306
20
4.93324747838682
30
0
41
1
10
75.427421615854
20
5.34717668216391
30
0
41
1
10
75.3954561721829
20
5.49027421751097
30
0
41
1
10
75.3834367001237
20
5.52897637108094
30
0
0
SPLINE
5
112
100
AcDbEntity
8
1
62
256
6
ByLayer
370
18
48
1
60
0
100
AcDbSpline
70
4
71
3
72
8
73
4
40
0
40
0
40
0
40
0
40
1
40
1
40
1
40
1
41
1
10
76.1846784007772
20
-5.57197265737091
30
0
41
1
10
76.1797577022672
20
-5.5618035070226
30
0
41
1
10
76.174823927599
20
-5.54901684081531
30
0
41
1
10
76.1698764570294
20
-5.53358178044903
30
0
0
SPLINE
5
113
100
AcDbEntity
8
1
62
256
6
ByLayer
370
13
48
1
60
0
100
AcDbSpline
70
4
71
3
72
9
73
5
40
0
40
0
40
0
40
0
40
0.391923581594299
40
1
40
1
40
1
40
1
41
1
10
76.1698764570294
20
-5.533581780449
30
0
41
1
10
76.1480471067703
20
-5.46547883081706
30
0
41
1
10
76.0916688245647
20
-5.16016125950338
30
0
41
1
10
76.0332081664494
20
-4.50191997040923
30
0
41
1
10
75.9966001116285
20
-3.98578548084038
30
0
0
SPLINE
5
114
100
AcDbEntity
8
1
62
256
6
ByLayer
370
18
48
1
60
0
100
AcDbSpline
70
4
71
3
72
26
73
22
40
0
40
0
40
0
40
0
40
0.124999999999999
40
0.124999999999999
40
0.249999999999997
40
0.249999999999997
40
0.281249999999997
40
0.281249999999997
40
0.312499999999997
40
0.374999999999998
40
0.374999999999998
40
0.499999999999998
40
0.624999999999999
40
0.624999999999999
40
0.6875
40
0.6875
40
0.75
40
0.75
40
0.875
40
0.875
40
1
40
1
40
1
40
1
41
1
10
75.6679107685411
20
5.95618615741466
30
0
41
1
10
75.6771857104712
20
5.9156635789042
30
0
41
1
10
75.6864410879054
20
5.86513315439072
30
0
41
1
10
75.7050269579181
20
5.74405065285904
30
0
41
1
10
75.7143740506504
20
5.67350030499932
30
0
41
1
10
75.7263057385379
20
5.57240776524884
30
0
41
1
10
75.7287073727088
20
5.55151123867503
30
0
41
1
10
75.7335136945076
20
5.50861656408705
30
0
41
1
10
75.7407305198496
20
5.44260133149467
30
0
41
1
10
75.7479752666902
20
5.37162672968395
30
0
41
1
10
75.7624941372307
20
5.22317381737815
30
0
41
1
10
75.7819118014569
20
5.00792671160656
30
0
41
1
10
75.8001124220372
20
4.75835621570516
30
0
41
1
10
75.8137343012519
20
4.5580436627871
30
0
41
1
10
75.8182916118027
20
4.4890423727208
30
0
41
1
10
75.8275547551252
20
4.34671488036491
30
0
41
1
10
75.8322122136367
20
4.27393241808494
30
0
41
1
10
75.8462552186856
20
4.05083386749928
30
0
41
1
10
75.8557120492904
20
3.89577869315477
30
0
41
1
10
75.8747418937115
20
3.57327165890814
30
0
41
1
10
75.8843131527674
20
3.405819437231
30
0
41
1
10
75.8939036425702
20
3.2321003907131
30
0
0
SPLINE
5
115
100
AcDbEntity
8
1
62
256
6
ByLayer
370
18
48
1
60
0
100
AcDbSpline
70
4
71
3
72
30
73
26
40
0
40
0
40
0
40
0
40
0.124999999999999
40
0.124999999999999
40
0.249999999999997
40
0.249999999999997
40
0.281249999999997
40
0.281249999999997
40
0.312499999999997
40
0.312499999999997
40
0.374999999999997
40
0.374999999999997
40
0.499999999999997
40
0.499999999999997
40
0.624999999999998
40
0.624999999999998
40
0.687499999999998
40
0.687499999999998
40
0.718749999999998
40
0.718749999999998
40
0.749999999999998
40
0.749999999999998
40
0.874999999999999
40
0.874999999999999
40
1
40
1
40
1
40
1
41
1
10
74.8497277010602
20
-5.93061615563857
30
0
41
1
10
74.8404407359917
20
-5.8860095427581
30
0
41
1
10
74.8311632606072
20
-5.83146971134758
30
0
41
1
10
74.8124237956607
20
-5.70261489517267
30
0
41
1
10
74.8029438549998
20
-5.62830138653516
30
0
41
1
10
74.7909172124871
20
-5.52272411732818
30
0
41
1
10
74.7885047603694
20
-5.50097278889353
30
0
41
1
10
74.7836677771183
20
-5.45618359214782
30
0
41
1
10
74.7812454688556
20
-5.43316441353426
30
0
41
1
10
74.7740040565533
20
-5.36257182504542
30
0
41
1
10
74.7691977816285
20
-5.31334561662001
30
0
41
1
10
74.7548502068221
20
-5.15929531398635
30
0
41
1
10
74.7453833538512
20
-5.04811543576469
30
0
41
1
10
74.7265908119728
20
-4.80904161203276
30
0
41
1
10
74.7172639487635
20
-4.68114771003394
30
0
41
1
10
74.7032691513422
20
-4.47657063260053
30
0
41
1
10
74.6986028778826
20
-4.40625158821746
30
0
41
1
10
74.6915834653347
20
-4.29751985030103
30
0
41
1
10
74.6892372089642
20
-4.26068352663663
30
0
41
1
10
74.6845585918224
20
-4.1862947826269
30
0
41
1
10
74.6822244830381
20
-4.14871667529101
30
0
41
1
10
74.6705717850852
20
-3.95892899659665
30
0
41
1
10
74.6613052164647
20
-3.80104294943922
30
0
41
1
10
74.642694734476
20
-3.47346318479913
30
0
41
1
10
74.6333497308509
20
-3.30376895461498
30
0
41
1
10
74.6238992092997
20
-3.12813850173615
30
0
0
SPLINE
5
116
100
AcDbEntity
8
1
62
256
6
ByLayer
370
18
48
1
60
0
100
AcDbSpline
70
4
71
3
72
30
73
26
40
0
40
0
40
0
40
0
40
0.125000000000001
40
0.125000000000001
40
0.250000000000002
40
0.250000000000002
40
0.281250000000001
40
0.281250000000001
40
0.312500000000001
40
0.312500000000001
40
0.375000000000001
40
0.375000000000001
40
0.500000000000001
40
0.500000000000001
40
0.625000000000001
40
0.625000000000001
40
0.6875
40
0.6875
40
0.71875
40
0.71875
40
0.75
40
0.75
40
0.875
40
0.875
40
1
40
1
40
1
40
1
41
1
10
74.4418637664213
20
-2.95998715803009
30
0
41
1
10
74.4514481385955
20
-3.13884230052594
30
0
41
1
10
74.4609453296001
20
-3.31211282370896
30
0
41
1
10
74.4797592068557
20
-3.6475216644867
30
0
41
1
10
74.4890733133971
20
-3.80966069442388
30
0
41
1
10
74.5007141066413
20
-4.00517943937763
30
0
41
1
10
74.5030427531813
20
-4.0439245273927
30
0
41
1
10
74.5077064404516
20
-4.12068865570168
30
0
41
1
10
74.5100353312233
20
-4.15860562645199
30
0
41
1
10
74.5170056024444
20
-4.27069222483274
30
0
41
1
10
74.5216391864664
20
-4.34331894099884
30
0
41
1
10
74.5355380899283
20
-4.55502001778498
30
0
41
1
10
74.5448037351375
20
-4.68793072008225
30
0
41
1
10
74.5634593649958
20
-4.93752403946689
30
0
41
1
10
74.57284797703
20
-5.05420687713396
30
0
41
1
10
74.5870698506382
20
-5.21684998484398
30
0
41
1
10
74.5918332841228
20
-5.268996938436
30
0
41
1
10
74.5990166453931
20
-5.34405262049913
30
0
41
1
10
74.6014191871219
20
-5.36855893950934
30
0
41
1
10
74.6062102993095
20
-5.41623698884919
30
0
41
1
10
74.6086020582846
20
-5.43944300175525
30
0
41
1
10
74.6205431380716
20
-5.55234221630781
30
0
41
1
10
74.6300388820033
20
-5.63266751203906
30
0
41
1
10
74.6489513386058
20
-5.77379845729075
30
0
41
1
10
74.6583671331704
20
-5.83460325798174
30
0
41
1
10
74.6677736558476
20
-5.88557837455079
30
0
0
SPLINE
5
117
100
AcDbEntity
8
1
62
256
6
ByLayer
370
18
48
1
60
0
100
AcDbSpline
70
4
71
3
72
24
73
20
40
0
40
0
40
0
40
0
40
0.0312499999999999
40
0.0312499999999999
40
0.0624999999999999
40
0.125
40
0.125
40
0.25
40
0.25
40
0.500000000000001
40
0.500000000000001
40
0.531250000000001
40
0.531250000000001
40
0.562500000000001
40
0.625
40
0.625
40
0.75
40
0.75
40
1
40
1
40
1
40
1
41
1
10
66.282886584807
20
0.957094999531535
30
0
41
1
10
66.2821504732204
20
0.992821897191561
30
0
41
1
10
66.2814235020469
20
1.02847286759211
30
0
41
1
10
66.2799923579344
20
1.09942373534889
30
0
41
1
10
66.277878239418
20
1.20540242453154
30
0
41
1
10
66.2758615790194
20
1.31004983048885
30
0
41
1
10
66.2719518044396
20
1.5175877505113
30
0
41
1
10
66.2695123357767
20
1.65360820004275
30
0
41
1
10
66.2625753290585
20
2.05464739659035
30
0
41
1
10
66.2583377820058
20
2.3126213388573
30
0
41
1
10
66.2540402975502
20
2.59184499022271
30
0
41
1
10
66.2535695464884
20
2.6227525532523
30
0
41
1
10
66.2526470828419
20
2.68400733648412
30
0
41
1
10
66.2512912753905
20
2.77508924245637
30
0
41
1
10
66.2500205891882
20
2.86379626382973
30
0
41
1
10
66.2475958894857
20
3.03809437848926
30
0
41
1
10
66.2461349653182
20
3.15014410734332
30
0
41
1
10
66.2422400807284
20
3.47403387879137
30
0
41
1
10
66.2402591038983
20
3.6736697352996
30
0
41
1
10
66.2390936068361
20
3.85658465296478
30
0
0
SPLINE
5
118
100
AcDbEntity
8
1
62
256
6
ByLayer
370
18
48
1
60
0
100
AcDbSpline
70
4
71
3
72
28
73
24
40
0
40
0
40
0
40
0
40
0.124999999999999
40
0.249999999999997
40
0.249999999999997
40
0.281249999999997
40
0.281249999999997
40
0.312499999999997
40
0.312499999999997
40
0.374999999999997
40
0.374999999999997
40
0.499999999999997
40
0.624999999999997
40
0.624999999999997
40
0.687499999999998
40
0.687499999999998
40
0.718749999999998
40
0.718749999999998
40
0.749999999999998
40
0.749999999999998
40
0.874999999999999
40
0.874999999999999
40
1
40
1
40
1
40
1
41
1
10
76.0761672261418
20
3.06676686725348
30
0
41
1
10
76.0667039614104
20
3.24378924754939
30
0
41
1
10
76.0477453268159
20
3.58599273648991
30
0
41
1
10
76.0287135579206
20
3.90470968320614
30
0
41
1
10
76.0167777209082
20
4.09640055384853
30
0
41
1
10
76.0143884196554
20
4.1343624417201
30
0
41
1
10
76.0096047113654
20
4.20952563138769
30
0
41
1
10
76.0072069625096
20
4.2467779939368
30
0
41
1
10
76.0000313323348
20
4.35696956322661
30
0
41
1
10
75.995277030027
20
4.42825948936172
30
0
41
1
10
75.9810864893885
20
4.63575036483113
30
0
41
1
10
75.9623607431494
20
4.89542691451774
30
0
41
1
10
75.943808120829
20
5.12175574634114
30
0
41
1
10
75.9298516794317
20
5.27883877516191
30
0
41
1
10
75.9251922631319
20
5.32908521205343
30
0
41
1
10
75.9181763984958
20
5.4012256160988
30
0
41
1
10
75.9158333030503
20
5.42473393701192
30
0
41
1
10
75.911135320371
20
5.47066064050424
30
0
41
1
10
75.908788587194
20
5.49299872664213
30
0
41
1
10
75.8970743982142
20
5.60145183451769
30
0
41
1
10
75.887748715565
20
5.67803564424705
30
0
41
1
10
75.869017828325
20
5.81141878176672
30
0
41
1
10
75.85959785472
20
5.86821662777356
30
0
41
1
10
75.8501029731733
20
5.91509956714194
30
0
0
SPLINE
5
119
100
AcDbEntity
8
1
62
256
6
ByLayer
370
13
48
1
60
0
100
AcDbSpline
70
4
71
3
72
9
73
5
40
0
40
0
40
0
40
0
40
0.142025729113988
40
1
40
1
40
1
40
1
41
1
10
77.4396293470058
20
1.71020016129003
30
0
41
1
10
77.4291503581786
20
1.91118094018196
30
0
41
1
10
77.3557171045781
20
3.29409012522879
30
0
41
1
10
77.2846701613114
20
4.3856406609892
30
0
41
1
10
77.2228565496821
20
4.96323355613762
30
0
0
SPLINE
5
11A
100
AcDbEntity
8
1
62
256
6
ByLayer
370
13
48
1
60
0
100
AcDbSpline
70
4
71
3
72
9
73
5
40
0
40
0
40
0
40
0
40
0.633423839713546
40
1
40
1
40
1
40
1
41
1
10
74.3740605367411
20
-5.31441579795381
30
0
41
1
10
74.3304029693149
20
-5.03696889542678
30
0
41
1
10
74.2601755749739
20
-4.28402744624677
30
0
41
1
10
74.1852327414508
20
-3.04488943782229
30
0
41
1
10
74.157126825048
20
-2.54087864967605
30
0
0
SPLINE
5
11B
100
AcDbEntity
8
1
62
256
6
ByLayer
370
18
48
1
60
0
100
AcDbSpline
70
4
71
3
72
33
73
29
40
0
40
0
40
0
40
0
40
0.0312499999999997
40
0.0312499999999997
40
0.0624999999999994
40
0.0624999999999994
40
0.124999999999999
40
0.124999999999999
40
0.249999999999999
40
0.374999999999998
40
0.374999999999998
40
0.437499999999998
40
0.437499999999998
40
0.468749999999998
40
0.468749999999998
40
0.499999999999998
40
0.499999999999998
40
0.624999999999998
40
0.624999999999998
40
0.749999999999997
40
0.749999999999997
40
0.812499999999997
40
0.812499999999997
40
0.843749999999998
40
0.843749999999998
40
0.874999999999998
40
0.874999999999998
40
1
40
1
40
1
40
1
41
1
10
77.5075499757469
20
5.27223628856442
30
0
41
1
10
77.5099425067815
20
5.2466123907727
30
0
41
1
10
77.5123380649461
20
5.22037442807397
30
0
41
1
10
77.5171358874442
20
5.16665603460319
30
0
41
1
10
77.5195348302459
20
5.1392111715987
30
0
41
1
10
77.5267029314714
20
5.05547428016826
30
0
41
1
10
77.5314550264203
20
4.99765051960895
30
0
41
1
10
77.5456441620641
20
4.81829365752907
30
0
41
1
10
77.5643818263642
20
4.56348560996634
30
0
41
1
10
77.5829425955722
20
4.27779445396354
30
0
41
1
10
77.5968958871115
20
4.05175731199432
30
0
41
1
10
77.60155275888
20
3.97444645472433
30
0
41
1
10
77.6085621589376
20
3.8554738253236
30
0
41
1
10
77.6109055502967
20
3.81526415204286
30
0
41
1
10
77.6155786375557
20
3.7342588334015
30
0
41
1
10
77.6179104561291
20
3.69342825339831
30
0
41
1
10
77.6295530554602
20
3.48765407424116
30
0
41
1
10
77.6388146269301
20
3.31785935318084
30
0
41
1
10
77.6574119950996
20
2.96817795754737
30
0
41
1
10
77.6667482035229
20
2.78829082096075
30
0
41
1
10
77.6809332949282
20
2.51085021094877
30
0
41
1
10
77.6856948140515
20
2.41709944628806
30
0
41
1
10
77.6928777275117
20
2.27453916540864
30
0
41
1
10
77.6952783719917
20
2.22669653775355
30
0
41
1
10
77.7000899921988
20
2.13035946728334
30
0
41
1
10
77.7025031100182
20
2.08182169762742
30
0
41
1
10
77.7145664134363
20
1.83796660214767
30
0
41
1
10
77.7241123139635
20
1.64101027400025
30
0
41
1
10
77.7335514963549
20
1.44224590686807
30
0
0
SPLINE
5
11C
100
AcDbEntity
8
1
62
256
6
ByLayer
370
18
48
1
60
0
100
AcDbSpline
70
4
71
3
72
33
73
29
40
0
40
0
40
0
40
0
40
0.0312500000000001
40
0.0312500000000001
40
0.0625000000000003
40
0.0625000000000003
40
0.125000000000001
40
0.125000000000001
40
0.250000000000002
40
0.250000000000002
40
0.375000000000003
40
0.375000000000003
40
0.437500000000004
40
0.437500000000004
40
0.468750000000004
40
0.468750000000004
40
0.500000000000004
40
0.500000000000004
40
0.625000000000003
40
0.625000000000003
40
0.750000000000002
40
0.750000000000002
40
0.875000000000001
40
0.875000000000001
40
0.906250000000001
40
0.906250000000001
40
0.9375
40
1
40
1
40
1
40
1
41
1
10
73.0103625259623
20
-5.20969054121559
30
0
41
1
10
73.0080062227231
20
-5.18324396532361
30
0
41
1
10
73.0056432303492
20
-5.15619766793074
30
0
41
1
10
73.0009017433402
20
-5.10089322321815
30
0
41
1
10
72.9985205441067
20
-5.07260224311506
30
0
41
1
10
72.991369878929
20
-4.98612170671433
30
0
41
1
10
72.9866091039398
20
-4.92652339104458
30
0
41
1
10
72.9723289274367
20
-4.74201807716517
30
0
41
1
10
72.9628087670433
20
-4.61141516256427
30
0
41
1
10
72.9437427359525
20
-4.33529932096528
30
0
41
1
10
72.9341937766911
20
-4.18978627123144
30
0
41
1
10
72.9199215079805
20
-3.9602023062815
30
0
41
1
10
72.9151734340716
20
-3.88178500306651
30
0
41
1
10
72.9080660386067
20
-3.7612753642388
30
0
41
1
10
72.9056992517066
20
-3.7206246326864
30
0
41
1
10
72.900969245436
20
-3.63835019748876
30
0
41
1
10
72.89861013745
20
-3.59679681261977
30
0
41
1
10
72.8868826584439
20
-3.38773318929469
30
0
41
1
10
72.8776809151445
20
-3.21561405340088
30
0
41
1
10
72.8594146605284
20
-2.86193012389273
30
0
41
1
10
72.850348557588
20
-2.68036467412208
30
0
41
1
10
72.8320391490772
20
-2.30778856440259
30
0
41
1
10
72.8227911121759
20
-2.1167788942067
30
0
41
1
10
72.8109046291827
20
-1.87193296099764
30
0
41
1
10
72.8085099088118
20
-1.822599820694
30
0
41
1
10
72.8037210298768
20
-1.72384339287757
30
0
41
1
10
72.7965314600619
20
-1.57543130051704
30
0
41
1
10
72.7893407653044
20
-1.42619587210749
30
0
41
1
10
72.7845562377604
20
-1.32634509746697
30
0
0
SPLINE
5
11D
100
AcDbEntity
8
1
62
256
6
ByLayer
370
18
48
1
60
0
100
AcDbSpline
70
4
71
3
72
33
73
29
40
0
40
0
40
0
40
0
40
0.0625000000000002
40
0.0625000000000002
40
0.0937500000000002
40
0.0937500000000002
40
0.125
40
0.125
40
0.25
40
0.25
40
0.375
40
0.375
40
0.5
40
0.5
40
0.53125
40
0.53125
40
0.5625
40
0.625
40
0.625
40
0.75
40
0.75
40
0.875
40
0.875
40
0.90625
40
0.90625
40
0.9375
40
0.9375
40
1
40
1
40
1
40
1
41
1
10
72.6025514743195
20
-1.13672176592834
30
0
41
1
10
72.6072717354972
20
-1.23729173230694
30
0
41
1
10
72.6119859735773
20
-1.33760474510356
30
0
41
1
10
72.6190443705964
20
-1.48768221123657
30
0
41
1
10
72.6213952764607
20
-1.53764264599994
30
0
41
1
10
72.6260959698164
20
-1.63743107442275
30
0
41
1
10
72.6284409346484
20
-1.68715644190311
30
0
41
1
10
72.6401130364024
20
-1.93413163983746
30
0
41
1
10
72.6493302998563
20
-2.12723951750411
30
0
41
1
10
72.6679744377262
20
-2.5047507323869
30
0
41
1
10
72.6773579293184
20
-2.68915544264556
30
0
41
1
10
72.6962306187234
20
-3.04925284247244
30
0
41
1
10
72.7057183720561
20
-3.22494633716053
30
0
41
1
10
72.7176426814403
20
-3.43894158718854
30
0
41
1
10
72.7200334813487
20
-3.4815040579588
30
0
41
1
10
72.7247963931003
20
-3.5656040504073
30
0
41
1
10
72.7319205540033
20
-3.69035760869389
30
0
41
1
10
72.7389873308114
20
-3.81097073279548
30
0
41
1
10
72.7530589222859
20
-4.04676390137956
30
0
41
1
10
72.7623542972035
20
-4.19672885532333
30
0
41
1
10
72.7809144159971
20
-4.48232149403594
30
0
41
1
10
72.7901812401888
20
-4.61794962099444
30
0
41
1
10
72.8017854146289
20
-4.77832753485663
30
0
41
1
10
72.8041078422384
20
-4.80994412261046
30
0
41
1
10
72.8087593107578
20
-4.87224971559445
30
0
41
1
10
72.8110906584467
20
-4.9029685313327
30
0
41
1
10
72.8180857428622
20
-4.9935122171581
30
0
41
1
10
72.8227305642518
20
-5.05147826415759
30
0
41
1
10
72.8273817550712
20
-5.10709808403649
30
0
0
SPLINE
5
11E
100
AcDbEntity
8
1
62
256
6
ByLayer
370
13
48
1
60
0
100
AcDbSpline
70
4
71
3
72
10
73
6
40
0
40
0
40
0
40
0
40
0.218990448538298
40
0.50887025183978
40
1
40
1
40
1
40
1
41
1
10
67.0161595138838
20
0.198919318645665
30
0
41
1
10
67.0011088232254
20
0.501245580128568
30
0
41
1
10
66.9657654410809
20
1.20877009640469
30
0
41
1
10
66.8941414823074
20
2.59097785747855
30
0
41
1
10
66.8368423390868
20
3.55391690536121
30
0
41
1
10
66.799971360064
20
4.06393365950311
30
0
0
SPLINE
5
11F
100
AcDbEntity
8
1
62
256
6
ByLayer
370
18
48
1
60
0
100
AcDbSpline
70
4
71
3
72
28
73
24
40
0
40
0
40
0
40
0
40
0.125
40
0.125
40
0.250000000000001
40
0.250000000000001
40
0.375000000000001
40
0.375000000000001
40
0.437500000000001
40
0.437500000000001
40
0.500000000000001
40
0.500000000000001
40
0.625
40
0.625
40
0.75
40
0.75
40
0.78125
40
0.78125
40
0.8125
40
0.8125
40
0.875
40
0.875
40
1
40
1
40
1
40
1
41
1
10
67.0841362704434
20
4.24978707735031
30
0
41
1
10
67.093582447913
20
4.10264806820283
30
0
41
1
10
67.1029838666035
20
3.94922623612661
30
0
41
1
10
67.1217284590905
20
3.63013753907541
30
0
41
1
10
67.1310704508379
20
3.46446994691036
30
0
41
1
10
67.1497852289639
20
3.12083171371901
30
0
41
1
10
67.1591565785875
20
2.94286226934281
30
0
41
1
10
67.1733770991962
20
2.66635214996532
30
0
41
1
10
67.1781075103021
20
2.57332919967263
30
0
41
1
10
67.1875730365663
20
2.38578338584216
30
0
41
1
10
67.192306928301
20
2.29123236787794
30
0
41
1
10
67.2064744830102
20
2.00527637314838
30
0
41
1
10
67.2158650522368
20
1.81157380665718
30
0
41
1
10
67.2345416701404
20
1.41807110129449
30
0
41
1
10
67.2438352482324
20
1.21827154935383
30
0
41
1
10
67.2555560955247
20
0.964621788740004
30
0
41
1
10
67.2579049104213
20
0.913696317237964
30
0
41
1
10
67.2626139607584
20
0.81145001630324
30
0
41
1
10
67.2649752061527
20
0.760106999940035
30
0
41
1
10
67.2720382779525
20
0.606366332140652
30
0
41
1
10
67.2767328307044
20
0.503968356020181
30
0
41
1
10
67.290793655851
20
0.197057140922766
30
0
41
1
10
67.3001372655877
20
-0.0071740866018786
30
0
41
1
10
67.3094936501962
20
-0.211032981918322
30
0
0
SPLINE
5
120
100
AcDbEntity
8
1
62
256
6
ByLayer
370
18
48
1
60
0
100
AcDbSpline
70
4
71
3
72
33
73
29
40
0
40
0
40
0
40
0
40
0.0624999999999998
40
0.0624999999999998
40
0.0937499999999998
40
0.0937499999999998
40
0.125
40
0.125
40
0.249999999999999
40
0.249999999999999
40
0.374999999999999
40
0.374999999999999
40
0.499999999999999
40
0.499999999999999
40
0.531249999999999
40
0.531249999999999
40
0.562499999999999
40
0.562499999999999
40
0.624999999999999
40
0.624999999999999
40
0.75
40
0.875
40
0.875
40
0.9375
40
0.9375
40
0.96875
40
0.96875
40
1
40
1
40
1
40
1
41
1
10
77.9149161743075
20
1.25466072058029
30
0
41
1
10
77.9102698675706
20
1.35482186852701
30
0
41
1
10
77.9056191566328
20
1.45463320860728
30
0
41
1
10
77.8986178288525
20
1.60381678906847
30
0
41
1
10
77.8962798244196
20
1.65345569974161
30
0
41
1
10
77.8915920841065
20
1.7525536163939
30
0
41
1
10
77.8892393794957
20
1.80207467006662
30
0
41
1
10
77.8774748084822
20
2.04845830046182
30
0
41
1
10
77.8681039953426
20
2.24069894851036
30
0
41
1
10
77.8492697139009
20
2.61577024800178
30
0
41
1
10
77.8397751316784
20
2.79859879117799
30
0
41
1
10
77.82084779353
20
3.15488363296487
30
0
41
1
10
77.8114423285002
20
3.32834149619714
30
0
41
1
10
77.7996977944992
20
3.53914332613019
30
0
41
1
10
77.7973483094104
20
3.58100187412683
30
0
41
1
10
77.7926418894201
20
3.66410794308527
30
0
41
1
10
77.7902905640821
20
3.70525543363874
30
0
41
1
10
77.7832501024618
20
3.82714393094963
30
0
41
1
10
77.778562230751
20
3.90647828807747
30
0
41
1
10
77.76451083047
20
4.13881329839381
30
0
41
1
10
77.7458172165513
20
4.43350709353447
30
0
41
1
10
77.7271215468738
20
4.69843706262841
30
0
41
1
10
77.7130262244906
20
4.88578089550546
30
0
41
1
10
77.7083151175842
20
4.94633298815691
30
0
41
1
10
77.7012169810977
20
5.03425910542762
30
0
41
1
10
77.6988435314223
20
5.06310791999988
30
0
41
1
10
77.6941102779701
20
5.11951457488817
30
0
41
1
10
77.6917475420106
20
5.14710974596014
30
0
41
1
10
77.6893875524826
20
5.17410334472351
30
0
0
SPLINE
5
121
100
AcDbEntity
8
1
62
256
6
ByLayer
370
18
48
1
60
0
100
AcDbSpline
70
4
71
3
72
29
73
25
40
0
40
0
40
0
40
0
40
0.125
40
0.125
40
0.1875
40
0.1875
40
0.21875
40
0.21875
40
0.25
40
0.25
40
0.375
40
0.375
40
0.5
40
0.5
40
0.625
40
0.625
40
0.65625
40
0.65625
40
0.6875
40
0.6875
40
0.75
40
0.75
40
0.875
40
1
40
1
40
1
40
1
41
1
10
71.1701679749703
20
-3.95535385457032
30
0
41
1
10
71.1608418424273
20
-3.80033307870662
30
0
41
1
10
71.1515646926127
20
-3.63884157340277
30
0
41
1
10
71.1376154848909
20
-3.38683433983417
30
0
41
1
10
71.1329596944876
20
-3.30120056829188
30
0
41
1
10
71.1259499885266
20
-3.1702665094233
30
0
41
1
10
71.1236090620849
20
-3.12620771952777
30
0
41
1
10
71.118915447342
20
-3.03725333393447
30
0
41
1
10
71.1165596198356
20
-2.9922973404874
30
0
41
1
10
71.1047832488911
20
-2.76617054223533
30
0
41
1
10
71.0954052708592
20
-2.58167127628903
30
0
41
1
10
71.0765568199406
20
-2.20572694143931
30
0
41
1
10
71.0670503157196
20
-2.0142828379953
30
0
41
1
10
71.0481186950001
20
-1.62446322843289
30
0
41
1
10
71.0387224352066
20
-1.42608678990604
30
0
41
1
10
71.0269971989027
20
-1.17366512720267
30
0
41
1
10
71.0246518078326
20
-1.12295774812827
30
0
41
1
10
71.0199531429862
20
-1.02109192212856
30
0
41
1
10
71.0176061863325
20
-0.97007054505832
30
0
41
1
10
71.0105753249597
20
-0.817110319555667
30
0
41
1
10
71.0058906388191
20
-0.715121183342887
30
0
41
1
10
70.9918385696113
20
-0.409107930151265
30
0
41
1
10
70.9731119983506
20
-0.0009680414829916
30
0
41
1
10
70.9543561817888
20
0.407410774228595
30
0
41
1
10
70.9449422661802
20
0.611659624887665
30
0
0
SPLINE
5
122
100
AcDbEntity
8
1
62
256
6
ByLayer
370
13
48
1
60
0
100
AcDbSpline
70
4
71
3
72
10
73
6
40
0
40
0
40
0
40
0
40
0.164046217313363
40
0.740467243644157
40
1
40
1
40
1
40
1
41
1
10
72.5343837688899
20
-4.48363147507445
30
0
41
1
10
72.5230208563121
20
-4.34613566795261
30
0
41
1
10
72.4713762013774
20
-3.67029611802761
30
0
41
1
10
72.3997257594709
20
-2.44834154010195
30
0
41
1
10
72.3371906128895
20
-1.22307798848948
30
0
41
1
10
72.3178489670196
20
-0.838192541617843
30
0
0
SPLINE
5
123
100
AcDbEntity
8
1
62
256
6
ByLayer
370
18
48
1
60
0
100
AcDbSpline
70
4
71
3
72
29
73
25
40
0
40
0
40
0
40
0
40
0.125
40
0.125
40
0.187500000000001
40
0.187500000000001
40
0.218750000000001
40
0.218750000000001
40
0.250000000000001
40
0.250000000000001
40
0.375000000000001
40
0.375000000000001
40
0.500000000000001
40
0.500000000000001
40
0.625000000000002
40
0.625000000000002
40
0.656250000000002
40
0.656250000000002
40
0.687500000000002
40
0.750000000000002
40
0.750000000000002
40
0.875000000000001
40
0.875000000000001
40
1
40
1
40
1
40
1
41
1
10
79.3467657990803
20
4.04978519764813
30
0
41
1
10
79.3561613934247
20
3.89737606752522
30
0
41
1
10
79.3656176000524
20
3.73820396327773
30
0
41
1
10
79.3798168874776
20
3.48918003255736
30
0
41
1
10
79.384546210939
20
3.40445762001872
30
0
41
1
10
79.3916303862761
20
3.27475673881139
30
0
41
1
10
79.393990380553
20
3.23108668949237
30
0
41
1
10
79.3987099043007
20
3.14286350005051
30
0
41
1
10
79.4010643013644
20
3.09840543700278
30
0
41
1
10
79.4127840715069
20
2.87509198964733
30
0
41
1
10
79.4220389099272
20
2.69249797465793
30
0
41
1
10
79.4407221335045
20
2.31966841121951
30
0
41
1
10
79.4501138812585
20
2.12943089356446
30
0
41
1
10
79.4689982198083
20
1.74129927197609
30
0
41
1
10
79.4784887681421
20
1.54340575380957
30
0
41
1
10
79.4904140478619
20
1.29109635674615
30
0
41
1
10
79.4928044592756
20
1.2403402867557
30
0
41
1
10
79.4975655761839
20
1.1388957639484
30
0
41
1
10
79.5046866415396
20
0.986643978838629
30
0
41
1
10
79.5117493014924
20
0.834140279635591
30
0
41
1
10
79.5258136544979
20
0.528803018074001
30
0
41
1
10
79.5351039123958
20
0.324805627135277
30
0
41
1
10
79.5536936996601
20
-0.0840518718497947
30
0
41
1
10
79.5630040535521
20
-0.288911452497786
30
0
41
1
10
79.5724093690674
20
-0.494207839624835
30
0
0
SPLINE
5
124
100
AcDbEntity
8
1
62
256
6
ByLayer
370
13
48
1
60
0
100
AcDbSpline
70
4
71
3
72
11
73
7
40
0
40
0
40
0
40
0
40
0.0335773271914601
40
0.619601980996619
40
0.895986854412564
40
1
40
1
40
1
40
1
41
1
10
79.2789467063685
20
-0.060684012968153
30
0
41
1
10
79.2766737984394
20
-0.0149828828394618
30
0
41
1
10
79.2346572905117
20
0.830248424533806
30
0
41
1
10
79.1718451732321
20
2.09966766571674
30
0
41
1
10
79.0988708564929
20
3.34251681578786
30
0
41
1
10
79.0700543763887
20
3.77681198713091
30
0
41
1
10
79.0621626258527
20
3.8910650262824
30
0
0
SPLINE
5
125
100
AcDbEntity
8
1
62
256
6
ByLayer
370
18
48
1
60
0
100
AcDbSpline
70
4
71
3
72
28
73
24
40
0
40
0
40
0
40
0
40
0.125
40
0.125
40
0.1875
40
0.1875
40
0.21875
40
0.21875
40
0.25
40
0.25
40
0.375
40
0.375
40
0.5
40
0.5
40
0.625
40
0.625
40
0.6875
40
0.6875
40
0.75
40
0.75
40
0.875
40
0.875
40
1
40
1
40
1
40
1
41
1
10
80.8850434275343
20
2.42213708304422
30
0
41
1
10
80.8930780839952
20
2.26137475234944
30
0
41
1
10
80.901134786357
20
2.09695470819375
30
0
41
1
10
80.9132479931412
20
1.84481016364495
30
0
41
1
10
80.9172930638192
20
1.75984296480937
30
0
41
1
10
80.9233796961599
20
1.63099786716546
30
0
41
1
10
80.9254117471566
20
1.58781698188508
30
0
41
1
10
80.929483589935
20
1.50098584554758
30
0
41
1
10
80.931516400041
20
1.45748442346144
30
0
41
1
10
80.9416585038262
20
1.23976515503162
30
0
41
1
10
80.9497123127432
20
1.06469091408331
30
0
41
1
10
80.9657915457587
20
0.712795912199084
30
0
41
1
10
80.973822495785
20
0.53597499875255
30
0
41
1
10
80.9899290267678
20
0.180571934400518
30
0
41
1
10
80.9979780746115
20
0.0019874595806471
30
0
41
1
10
81.0100785608828
20
-0.267260919999273
30
0
41
1
10
81.0141316148087
20
-0.35743299297809
30
0
41
1
10
81.0222199471582
20
-0.536477303864729
30
0
41
1
10
81.0262653391743
20
-0.625513226827564
30
0
41
1
10
81.038432486347
20
-0.891186830024793
30
0
41
1
10
81.0465793380267
20
-1.0663959696351
30
0
41
1
10
81.062898312065
20
-1.41304085271003
30
0
41
1
10
81.071052306665
20
-1.58447080106674
30
0
41
1
10
81.079225487118
20
-1.75398356845059
30
0
0
SPLINE
5
126
100
AcDbEntity
8
1
62
256
6
ByLayer
370
18
48
1
60
0
100
AcDbSpline
70
4
71
3
72
29
73
25
40
0
40
0
40
0
40
0
40
0.125
40
0.125
40
0.249999999999999
40
0.249999999999999
40
0.312499999999999
40
0.312499999999999
40
0.343749999999999
40
0.343749999999999
40
0.374999999999999
40
0.374999999999999
40
0.5
40
0.5
40
0.625
40
0.625
40
0.750000000000001
40
0.750000000000001
40
0.781250000000001
40
0.781250000000001
40
0.812500000000001
40
0.875000000000001
40
0.875000000000001
40
1
40
1
40
1
40
1
41
1
10
79.754973748718
20
-0.686972658009125
30
0
41
1
10
79.7455335637492
20
-0.482445950477853
30
0
41
1
10
79.7360693215446
20
-0.277938451422159
30
0
41
1
10
79.7171764484938
20
0.13104270699958
30
0
41
1
10
79.7077461574578
20
0.335516288487384
30
0
41
1
10
79.693529773832
20
0.642196463072963
30
0
41
1
10
79.6887796380495
20
0.744418168935255
30
0
41
1
10
79.6816421220531
20
0.897743299540821
30
0
41
1
10
79.6792608197333
20
0.948850434179178
30
0
41
1
10
79.6744937938276
20
1.051062184811
30
0
41
1
10
79.6721112317679
20
1.10209884603796
30
0
41
1
10
79.6602518413428
20
1.35585660804062
30
0
41
1
10
79.6508927796766
20
1.55532528211592
30
0
41
1
10
79.6322910941188
20
1.94738919912305
30
0
41
1
10
79.6230478932643
20
2.13998387587847
30
0
41
1
10
79.6044238381087
20
2.51828064130075
30
0
41
1
10
79.5950286329551
20
2.7039827050362
30
0
41
1
10
79.5830167460049
20
2.93165629942402
30
0
41
1
10
79.5806016571923
20
2.97702054513991
30
0
41
1
10
79.575784521783
20
3.06681973388589
30
0
41
1
10
79.5685707779321
20
3.20026055230338
30
0
41
1
10
79.5614179781262
20
3.32997289784913
30
0
41
1
10
79.547209847734
20
3.58450661966063
30
0
41
1
10
79.5378764416521
20
3.74768694846335
30
0
41
1
10
79.5285430600283
20
3.90441155993304
30
0
0
SPLINE
5
127
100
AcDbEntity
8
1
62
256
6
ByLayer
370
18
48
1
60
0
100
AcDbSpline
70
4
71
3
72
112
73
108
40
0
40
0
40
0
40
0
40
0.06249999999998
40
0.06249999999998
40
0.12499999999996
40
0.12499999999996
40
0.156249999999949
40
0.156249999999949
40
0.164062499999946
40
0.164062499999946
40
0.171874999999943
40
0.171874999999943
40
0.18749999999994
40
0.203124999999938
40
0.203124999999938
40
0.218749999999935
40
0.218749999999935
40
0.249999999999934
40
0.249999999999934
40
0.265624999999931
40
0.265624999999931
40
0.281249999999928
40
0.281249999999928
40
0.312499999999923
40
0.312499999999923
40
0.328124999999923
40
0.328124999999923
40
0.343749999999922
40
0.343749999999922
40
0.374999999999924
40
0.374999999999924
40
0.406249999999926
40
0.406249999999926
40
0.421874999999927
40
0.421874999999927
40
0.429687499999927
40
0.429687499999927
40
0.437499999999928
40
0.437499999999928
40
0.453124999999925
40
0.453124999999925
40
0.468749999999923
40
0.468749999999923
40
0.476562499999922
40
0.476562499999922
40
0.484374999999921
40
0.484374999999921
40
0.499999999999921
40
0.499999999999921
40
0.515624999999922
40
0.515624999999922
40
0.523437499999921
40
0.523437499999921
40
0.527343749999921
40
0.527343749999921
40
0.531249999999922
40
0.531249999999922
40
0.54687499999992
40
0.54687499999992
40
0.55468749999992
40
0.55468749999992
40
0.56249999999992
40
0.56249999999992
40
0.578124999999922
40
0.578124999999922
40
0.585937499999923
40
0.589843749999923
40
0.589843749999923
40
0.593749999999923
40
0.593749999999923
40
0.609374999999924
40
0.609374999999924
40
0.624999999999925
40
0.624999999999925
40
0.632812499999925
40
0.632812499999925
40
0.640624999999925
40
0.640624999999925
40
0.656249999999926
40
0.656249999999926
40
0.664062499999927
40
0.664062499999927
40
0.671874999999929
40
0.671874999999929
40
0.687499999999932
40
0.687499999999932
40
0.695312499999933
40
0.695312499999933
40
0.703124999999934
40
0.703124999999934
40
0.718749999999937
40
0.718749999999937
40
0.749999999999943
40
0.749999999999943
40
0.781249999999949
40
0.781249999999949
40
0.796874999999953
40
0.796874999999953
40
0.812499999999958
40
0.812499999999958
40
0.843749999999964
40
0.843749999999964
40
0.87499999999997
40
0.87499999999997
40
0.937499999999985
40
0.937499999999985
40
1
40
1
40
1
40
1
41
1
10
42.3000183583194
20
0.952917753874573
30
0
41
1
10
42.1027042657403
20
1.09749576487704
30
0
41
1
10
41.9015932698809
20
1.23314302192898
30
0
41
1
10
41.4888132275449
20
1.48324560331844
30
0
41
1
10
41.2771282761057
20
1.59767612788354
30
0
41
1
10
40.9492813129264
20
1.75085846182608
30
0
41
1
10
40.8382921526251
20
1.79886448057218
30
0
41
1
10
40.6971020488447
20
1.8546883796503
30
0
41
1
10
40.6687393713631
20
1.86564093503327
30
0
41
1
10
40.6117613585259
20
1.88711989248483
30
0
41
1
10
40.5831216183271
20
1.89765610674493
30
0
41
1
10
40.4970182555073
20
1.92853484227362
30
0
41
1
10
40.3817783564731
20
1.96774403584985
30
0
41
1
10
40.265619606982
20
2.00292034913466
30
0
41
1
10
40.1489795161045
20
2.03603306608315
30
0
41
1
10
40.0904191023592
20
2.05155864752223
30
0
41
1
10
39.9139015085927
20
2.09463922111337
30
0
41
1
10
39.7951591785138
20
2.11891035672585
30
0
41
1
10
39.6157145352988
20
2.14988714786853
30
0
41
1
10
39.5556801504527
20
2.15931610887503
30
0
41
1
10
39.4352509496425
20
2.17671256212722
30
0
41
1
10
39.3748445474366
20
2.18463385452438
30
0
41
1
10
39.1930192262873
20
2.20596962986534
30
0
41
1
10
39.0709952224241
20
2.21696154677534
30
0
41
1
10
38.8866106144378
20
2.22813055478204
30
0
41
1
10
38.8248614119544
20
2.23096484369739
30
0
41
1
10
38.7017113555842
20
2.2347466534614
30
0
41
1
10
38.6402204511065
20
2.23570156215823
30
0
41
1
10
38.4560074192532
20
2.2356808409526
30
0
41
1
10
38.3335480642043
20
2.23178868260618
30
0
41
1
10
38.0894077277658
20
2.2153140287497
30
0
41
1
10
37.9677306498943
20
2.20269051934832
30
0
41
1
10
37.7859207642288
20
2.17574827441331
30
0
41
1
10
37.725435845658
20
2.16542340233423
30
0
41
1
10
37.6349077680696
20
2.14764539071277
30
0
41
1
10
37.6047525749084
20
2.14133291822404
30
0
41
1
10
37.5448298371663
20
2.12796264082229
30
0
41
1
10
37.5150245472431
20
2.12089742827868
30
0
41
1
10
37.4261011484021
20
2.09849363418607
30
0
41
1
10
37.3674742282998
20
2.0819507397747
30
0
41
1
10
37.2516868178127
20
2.04520904408108
30
0
41
1
10
37.1945212437153
20
2.02502293731453
30
0
41
1
10
37.1100476441214
20
1.99150918031597
30
0
41
1
10
37.0821015188633
20
1.9798002801663
30
0
41
1
10
37.0266635649625
20
1.95521713095948
30
0
41
1
10
36.9991126100794
20
1.94231281995755
30
0
41
1
10
36.9177388651848
20
1.90193822944968
30
0
41
1
10
36.8651915798229
20
1.87282364257516
30
0
41
1
10
36.7640384736302
20
1.80940184025476
30
0
41
1
10
36.7154081602212
20
1.77512546610066
30
0
41
1
10
36.645886117435
20
1.7190994985491
30
0
41
1
10
36.6232843034341
20
1.69965309598751
30
0
41
1
10
36.5903216693347
20
1.66920247848321
30
0
41
1
10
36.5794785863427
20
1.6588249569617
30
0
41
1
10
36.5582779896105
20
1.63777871632661
30
0
41
1
10
36.5479017693762
20
1.62709443224796
30
0
41
1
10
36.4971758984984
20
1.57283792845857
30
0
41
1
10
36.4602614748349
20
1.52678188497239
30
0
41
1
10
36.4108164063961
20
1.45329890397028
30
0
41
1
10
36.3953258492911
20
1.42806891878851
30
0
41
1
10
36.3664445196905
20
1.37603196168843
30
0
41
1
10
36.3530298040383
20
1.34912387305118
30
0
41
1
10
36.3167457452422
20
1.26749029718965
30
0
41
1
10
36.297564413392
20
1.21144131309262
30
0
41
1
10
36.2759508856284
20
1.12495567814187
30
0
41
1
10
36.2669348480721
20
1.08110951521744
30
0
41
1
10
36.2605484183772
20
1.03636071612732
30
0
41
1
10
36.2568695459414
20
1.00632766144469
30
0
41
1
10
36.255318663055
20
0.991187936385444
30
0
41
1
10
36.2490413592753
20
0.915650539877305
30
0
41
1
10
36.248653848588
20
0.855276077077065
30
0
41
1
10
36.2555867100779
20
0.73455331264816
30
0
41
1
10
36.2629125786651
20
0.674205316237249
30
0
41
1
10
36.2788422347555
20
0.583656396373755
30
0
41
1
10
36.2850099007531
20
0.55338280086508
30
0
41
1
10
36.2987794147879
20
0.493318022685997
30
0
41
1
10
36.3063724089192
20
0.463537379101439
30
0
41
1
10
36.3310397544979
20
0.374863808197773
30
0
41
1
10
36.3499923006279
20
0.316635498876195
30
0
41
1
10
36.3814795195932
20
0.230365889962115
30
0
41
1
10
36.3924878498063
20
0.201789214703041
30
0
41
1
10
36.4154405087372
20
0.144962844113309
30
0
41
1
10
36.4273720754882
20
0.116708276289756
30
0
41
1
10
36.4649119973462
20
0.0325664717757093
30
0
41
1
10
36.4921005648141
20
-0.0227614750005216
30
0
41
1
10
36.5356112560504
20
-0.104793414638038
30
0
41
1
10
36.5505686333947
20
-0.131968426845418
30
0
41
1
10
36.5811051971652
20
-0.185654643339916
30
0
41
1
10
36.5967105921808
20
-0.212216097325268
30
0
41
1
10
36.6444341968052
20
-0.291137481487141
30
0
41
1
10
36.6774559467738
20
-0.342737512099461
30
0
41
1
10
36.7794809334665
20
-0.495013574698419
30
0
41
1
10
36.8513740635928
20
-0.593218796962077
30
0
41
1
10
37.0004311660537
20
-0.784940260772288
30
0
41
1
10
37.0776370139456
20
-0.878424752861918
30
0
41
1
10
37.1964282561412
20
-1.01589161477563
30
0
41
1
10
37.2365627709979
20
-1.06128820425622
30
0
41
1
10
37.3175586284163
20
-1.1510728372759
30
0
41
1
10
37.3583345024628
20
-1.19536793436802
30
0
41
1
10
37.4813593853322
20
-1.32664059647519
30
0
41
1
10
37.5642949402893
20
-1.41201834349323
30
0
41
1
10
37.7314853402878
20
-1.57917156141198
30
0
41
1
10
37.8157424501357
20
-1.66094382754426
30
0
41
1
10
38.0699799286144
20
-1.9014988251144
30
0
41
1
10
38.2413840120955
20
-2.0555754419963
30
0
41
1
10
38.58659615696
20
-2.35278723400711
30
0
41
1
10
38.7604143069794
20
-2.49590289525364
30
0
41
1
10
38.9353831526296
20
-2.63353525233779
30
0
0
SPLINE
5
128
100
AcDbEntity
8
1
62
256
6
ByLayer
370
18
48
1
60
0
100
AcDbSpline
70
4
71
3
72
60
73
56
40
0
40
0
40
0
40
0
40
0.0312499999999934
40
0.0312499999999934
40
0.0624999999999868
40
0.0624999999999868
40
0.124999999999973
40
0.124999999999973
40
0.249999999999946
40
0.249999999999946
40
0.374999999999919
40
0.374999999999919
40
0.437499999999902
40
0.46874999999989
40
0.484374999999888
40
0.484374999999888
40
0.499999999999886
40
0.499999999999886
40
0.515624999999884
40
0.531249999999882
40
0.531249999999882
40
0.54687499999988
40
0.562499999999878
40
0.562499999999878
40
0.578124999999876
40
0.578124999999876
40
0.593749999999874
40
0.593749999999874
40
0.624999999999859
40
0.624999999999859
40
0.640624999999857
40
0.640624999999857
40
0.656249999999855
40
0.656249999999855
40
0.687499999999864
40
0.687499999999864
40
0.703124999999868
40
0.703124999999868
40
0.718749999999872
40
0.718749999999872
40
0.734374999999876
40
0.734374999999876
40
0.74999999999988
40
0.74999999999988
40
0.765624999999885
40
0.765624999999885
40
0.781249999999889
40
0.781249999999889
40
0.789062499999891
40
0.789062499999891
40
0.796874999999893
40
0.812499999999896
40
0.874999999999933
40
0.874999999999933
40
1
40
1
40
1
40
1
41
1
10
79.5285430600283
20
3.90441155993307
30
0
41
1
10
79.5403182184338
20
3.88049452364044
30
0
41
1
10
79.5520802344201
20
3.85660683447645
30
0
41
1
10
79.5756893090403
20
3.80890766294326
30
0
41
1
10
79.5875255503321
20
3.78509408500867
30
0
41
1
10
79.6230917022412
20
3.71377880589287
30
0
41
1
10
79.6468716991467
20
3.66639549911491
30
0
41
1
10
79.7183242088788
20
3.52472177391547
30
0
41
1
10
79.7661457262747
20
3.43091047912927
30
0
41
1
10
79.8622318589475
20
3.2446041730156
30
0
41
1
10
79.9105082409037
20
3.15208875986622
30
0
41
1
10
79.9832003951067
20
3.01455541457008
30
0
41
1
10
80.0196222461888
20
2.94608623852415
30
0
41
1
10
80.0622594389749
20
2.8667342175352
30
0
41
1
10
80.0805649488811
20
2.83284043676247
30
0
41
1
10
80.092775978785
20
2.81027007349738
30
0
41
1
10
80.0989075107188
20
2.79899916266979
30
0
41
1
10
80.1110113131096
20
2.7764715676654
30
0
41
1
10
80.1229661327209
20
2.75395876321241
30
0
41
1
10
80.1353207168075
20
2.73152253767748
30
0
41
1
10
80.1484495742253
20
2.70916457477668
30
0
41
1
10
80.1623796684036
20
2.68688668255061
30
0
41
1
10
80.178355384491
20
2.66480181810124
30
0
41
1
10
80.1953109548776
20
2.64281048310761
30
0
41
1
10
80.2042825259474
20
2.63184633813486
30
0
41
1
10
80.2225011423861
20
2.61059388616431
30
0
41
1
10
80.231817099757
20
2.60021801097054
30
0
41
1
10
80.2603092172674
20
2.56975108063327
30
0
41
1
10
80.2800186996955
20
2.55030693722748
30
0
41
1
10
80.3106712730669
20
2.52247726558417
30
0
41
1
10
80.3210996449165
20
2.51340989391522
30
0
41
1
10
80.3419507191856
20
2.49611762345921
30
0
41
1
10
80.3524180607567
20
2.48785335843593
30
0
41
1
10
80.3839218267803
20
2.46410704369049
30
0
41
1
10
80.4050578489264
20
2.44964518677997
30
0
41
1
10
80.4369124149169
20
2.43006012970997
30
0
41
1
10
80.4475930346057
20
2.42387235893952
30
0
41
1
10
80.4685749398992
20
2.41254028640162
30
0
41
1
10
80.4789213131288
20
2.40736419431801
30
0
41
1
10
80.4992650784426
20
2.39816231585115
30
0
41
1
10
80.5092557070538
20
2.3941605875182
30
0
41
1
10
80.5288602469112
20
2.38735775316627
30
0
41
1
10
80.5384945632851
20
2.38455089197129
30
0
41
1
10
80.5568009575942
20
2.38037210264213
30
0
41
1
10
80.5655675161351
20
2.37892931825755
30
0
41
1
10
80.5817524381506
20
2.3783561311156
30
0
41
1
10
80.5891465915196
20
2.37930547396059
30
0
41
1
10
80.5997358524205
20
2.38140987877634
30
0
41
1
10
80.6031862522159
20
2.38221100035463
30
0
41
1
10
80.6101047952942
20
2.38376315452018
30
0
41
1
10
80.6204805488289
20
2.38605677793194
30
0
41
1
10
80.6585017547259
20
2.39408854400943
30
0
41
1
10
80.6929937284286
20
2.40026683560947
30
0
41
1
10
80.7756085149329
20
2.41305322445962
30
0
41
1
10
80.830455198231
20
2.41887890190438
30
0
41
1
10
80.8850434275343
20
2.42213708304419
30
0
0
SPLINE
5
129
100
AcDbEntity
8
1
62
256
6
ByLayer
370
18
48
1
60
0
100
AcDbSpline
70
4
71
3
72
105
73
101
40
0
40
0
40
0
40
0
40
0.0079520684338483
40
0.0079520684338483
40
0.024016841641036
40
0.024016841641036
40
0.0400816148482238
40
0.0400816148482238
40
0.0722111612625982
40
0.0722111612625982
40
0.104340707676972
40
0.104340707676972
40
0.112373094280567
40
0.112373094280567
40
0.120405480884162
40
0.120405480884162
40
0.13647025409135
40
0.13647025409135
40
0.168599800505727
40
0.168599800505727
40
0.184664573712916
40
0.184664573712916
40
0.200729346920104
40
0.200729346920104
40
0.216794120127292
40
0.216794120127292
40
0.232858893334481
40
0.232858893334481
40
0.264988439748858
40
0.264988439748858
40
0.297117986163234
40
0.297117986163234
40
0.313182759370423
40
0.313182759370423
40
0.329247532577612
40
0.329247532577612
40
0.361377078991992
40
0.361377078991992
40
0.393506625406371
40
0.393506625406371
40
0.409571398613561
40
0.409571398613561
40
0.425636171820751
40
0.425636171820751
40
0.457765718235131
40
0.457765718235131
40
0.489895264649512
40
0.489895264649512
40
0.505960037856702
40
0.505960037856702
40
0.522024811063892
40
0.522024811063892
40
0.554154357478272
40
0.554154357478272
40
0.570219130685462
40
0.570219130685462
40
0.586283903892653
40
0.586283903892653
40
0.602348677099843
40
0.602348677099843
40
0.618413450307033
40
0.618413450307033
40
0.650542996721413
40
0.650542996721413
40
0.666607769928603
40
0.666607769928603
40
0.682672543135793
40
0.682672543135793
40
0.698737316342983
40
0.698737316342983
40
0.706769702946578
40
0.706769702946578
40
0.714802089550173
40
0.746931635964557
40
0.746931635964557
40
0.762996409171749
40
0.762996409171749
40
0.779061182378941
40
0.779061182378941
40
0.811190728793326
40
0.811190728793326
40
0.84332027520771
40
0.84332027520771
40
0.851352661811307
40
0.851352661811307
40
0.859385048414903
40
0.859385048414903
40
0.875449821622096
40
0.875449821622096
40
0.939708914450863
40
0.939708914450863
40
0.955773687658056
40
0.955773687658056
40
0.971838460865248
40
0.971838460865248
40
0.98790323407244
40
0.98790323407244
40
0.995935620676036
40
0.995935620676036
40
1
40
1
40
1
40
1
41
1
10
64.541434166906
20
-4.34999772840791
30
0
41
1
10
64.4826487233031
20
-4.34999563006676
30
0
41
1
10
64.4239099591714
20
-4.34930337146534
30
0
41
1
10
64.2465919290911
20
-4.34514358461308
30
0
41
1
10
64.1280317351116
20
-4.33957831922842
30
0
41
1
10
63.8911532385104
20
-4.32295523913174
30
0
41
1
10
63.772885682893
20
-4.31188789185617
30
0
41
1
10
63.418479356515
20
-4.27041994824032
30
0
41
1
10
63.1826572676368
20
-4.23175489653997
30
0
41
1
10
62.7100291252598
20
-4.13268704689199
30
0
41
1
10
62.4732398488496
20
-4.07227304455623
30
0
41
1
10
62.1753573220171
20
-3.98354653698337
30
0
41
1
10
62.1156856613412
20
-3.96514182724269
30
0
41
1
10
61.9961265656908
20
-3.92702225908315
30
0
41
1
10
61.936224840728
20
-3.90730024496884
30
0
41
1
10
61.7564203396497
20
-3.8461189811978
30
0
41
1
10
61.6369898782261
20
-3.80288138861332
30
0
41
1
10
61.2797672766725
20
-3.6660537652518
30
0
41
1
10
61.0430140071192
20
-3.56536164688467
30
0
41
1
10
60.6885536416755
20
-3.40139058749469
30
0
41
1
10
60.5705126093848
20
-3.34457864145921
30
0
41
1
10
60.3344266023884
20
-3.22686412796349
30
0
41
1
10
60.2163925818116
20
-3.16595046387852
30
0
41
1
10
59.9799648320235
20
-3.04038202901381
30
0
41
1
10
59.8616181952973
20
-2.97568894284913
30
0
41
1
10
59.6248446850524
20
-2.84229003921422
30
0
41
1
10
59.5063905877491
20
-2.7736080674245
30
0
41
1
10
59.1506126934517
20
-2.56174614528052
30
0
41
1
10
58.9127908901838
20
-2.4127799308948
30
0
41
1
10
58.4342025731911
20
-2.10099499727363
30
0
41
1
10
58.1964290295508
20
-1.94016159212805
30
0
41
1
10
57.8403758340189
20
-1.69370288148127
30
0
41
1
10
57.7218268290369
20
-1.61064202513097
30
0
41
1
10
57.4851490467401
20
-1.44252991452743
30
0
41
1
10
57.3669991314355
20
-1.35750383733071
30
0
41
1
10
57.0128017208626
20
-1.09991188678498
30
0
41
1
10
56.7770136371574
20
-0.92482170767957
30
0
41
1
10
56.3043208983675
20
-0.570216956746236
30
0
41
1
10
56.0674105760655
20
-0.390709256000861
30
0
41
1
10
55.7097743506863
20
-0.11999825955661
30
0
41
1
10
55.5902371009301
20
-0.0294485983704078
30
0
41
1
10
55.3505550341435
20
0.152363979798167
30
0
41
1
10
55.2311261342404
20
0.243018495916232
30
0
41
1
10
54.8738675249963
20
0.513800973372469
30
0
41
1
10
54.6370884747703
20
0.692852560751106
30
0
41
1
10
54.1644746199129
20
1.04566561322014
30
0
41
1
10
53.9285896682958
20
1.21935946650316
30
0
41
1
10
53.5738614518546
20
1.47393317408392
30
0
41
1
10
53.4555484332558
20
1.55789969230238
30
0
41
1
10
53.2189024350034
20
1.72418837219007
30
0
41
1
10
53.1005227551488
20
1.80645127884554
30
0
41
1
10
52.7448737881944
20
2.05014703017639
30
0
41
1
10
52.5071124448095
20
2.20850830257078
30
0
41
1
10
52.1481551145249
20
2.4381575566232
30
0
41
1
10
52.0288094063755
20
2.51292462604425
30
0
41
1
10
51.7906107018583
20
2.65852084150859
30
0
41
1
10
51.67169672607
20
2.7293388747934
30
0
41
1
10
51.434150513016
20
2.86700922052512
30
0
41
1
10
51.3155855936763
20
2.93393227157452
30
0
41
1
10
51.0789088788384
20
3.06400767293278
30
0
41
1
10
50.9607635504134
20
3.12712472604255
30
0
41
1
10
50.6065698905998
20
3.31039533016761
30
0
41
1
10
50.3707867701645
20
3.42448686151366
30
0
41
1
10
50.0163371721091
20
3.58230754540637
30
0
41
1
10
49.8980521776487
20
3.63269013376774
30
0
41
1
10
49.6609157248414
20
3.72876642064895
30
0
41
1
10
49.5420167979961
20
3.77442933304644
30
0
41
1
10
49.3035741510791
20
3.86099305674256
30
0
41
1
10
49.1841073173097
20
3.90194251490658
30
0
41
1
10
49.0044212875517
20
3.95972466869469
30
0
41
1
10
48.9445867587602
20
3.97833117831053
30
0
41
1
10
48.8251622189615
20
4.0141881521495
30
0
41
1
10
48.5270953112343
20
4.10047825595186
30
0
41
1
10
48.2311427287751
20
4.16990177583347
30
0
41
1
10
47.8765694542259
20
4.23675833902774
30
0
41
1
10
47.7584739859347
20
4.25630373392707
30
0
41
1
10
47.5222223324307
20
4.28989113994845
30
0
41
1
10
47.4039708198582
20
4.30391726192187
30
0
41
1
10
47.0493393900993
20
4.33783222371079
30
0
41
1
10
46.8130653642175
20
4.3495215708023
30
0
41
1
10
46.3390631961378
20
4.35044964900484
30
0
41
1
10
46.1013543164691
20
4.3396849715223
30
0
41
1
10
45.8021267479267
20
4.31189026210046
30
0
41
1
10
45.7422970343519
20
4.30562528165143
30
0
41
1
10
45.6228451420624
20
4.29172356953819
30
0
41
1
10
45.5631918681021
20
4.28408343663685
30
0
41
1
10
45.3843804248496
20
4.25913431254625
30
0
41
1
10
45.2653219366627
20
4.23981684149385
30
0
41
1
10
44.6716717127993
20
4.12973108447528
30
0
41
1
10
44.2014172409627
20
3.99843499222124
30
0
41
1
10
43.610318277871
20
3.78484092807324
30
0
41
1
10
43.4919512975406
20
3.73964292202339
30
0
41
1
10
43.2546027083353
20
3.64449347700557
30
0
41
1
10
43.1356046812787
20
3.59456209737735
30
0
41
1
10
42.8972742278176
20
3.48968623964385
30
0
41
1
10
42.7778908540685
20
3.43477497643369
30
0
41
1
10
42.5983075888284
20
3.34876206086048
30
0
41
1
10
42.5384671028769
20
3.31953261752062
30
0
41
1
10
42.4485467800143
20
3.27478534031283
30
0
41
1
10
42.4183585022364
20
3.25962227718483
30
0
41
1
10
42.3881925255213
20
3.24433262100197
30
0
0
SPLINE
5
12A
100
AcDbEntity
8
1
62
256
6
ByLayer
370
18
48
1
60
0
100
AcDbSpline
70
4
71
3
72
133
73
129
40
0
40
0
40
0
40
0
40
0.0095107662921813
40
0.0095107662921813
40
0.0190215325843625
40
0.0190215325843625
40
0.0380430651687238
40
0.0380430651687238
40
0.0475538314609051
40
0.0475538314609051
40
0.0570645977530863
40
0.0570645977530863
40
0.0760861303374476
40
0.0760861303374476
40
0.095107662921809
40
0.095107662921809
40
0.11412919550617
40
0.11412919550617
40
0.152172260674893
40
0.152172260674893
40
0.190215325843616
40
0.190215325843616
40
0.199726092135796
40
0.199726092135796
40
0.209236858427976
40
0.209236858427976
40
0.228258391012338
40
0.228258391012338
40
0.266301456181061
40
0.266301456181061
40
0.285322988765422
40
0.285322988765422
40
0.294833755057602
40
0.294833755057602
40
0.304344521349782
40
0.304344521349782
40
0.323366053934142
40
0.323366053934142
40
0.342387586518502
40
0.342387586518502
40
0.351898352810682
40
0.351898352810682
40
0.361409119102862
40
0.361409119102862
40
0.380430651687221
40
0.380430651687221
40
0.389941417979401
40
0.389941417979401
40
0.399452184271581
40
0.399452184271581
40
0.418473716855942
40
0.418473716855942
40
0.437495249440303
40
0.437495249440303
40
0.456516782024665
40
0.456516782024665
40
0.475538314609026
40
0.475538314609026
40
0.494559847193388
40
0.494559847193388
40
0.504070613485568
40
0.504070613485568
40
0.508825996631659
40
0.508825996631659
40
0.513581379777749
40
0.53260291236211
40
0.53260291236211
40
0.570645977530833
40
0.570645977530833
40
0.580156743823014
40
0.580156743823014
40
0.589667510115194
40
0.589667510115194
40
0.599178276407375
40
0.599178276407375
40
0.608689042699556
40
0.608689042699556
40
0.627710575283916
40
0.627710575283916
40
0.646732107868276
40
0.646732107868276
40
0.656242874160456
40
0.656242874160456
40
0.665753640452635
40
0.665753640452635
40
0.684775173036993
40
0.684775173036993
40
0.694285939329172
40
0.694285939329172
40
0.703796705621351
40
0.703796705621351
40
0.722818238205709
40
0.722818238205709
40
0.741839770790066
40
0.741839770790066
40
0.760861303374424
40
0.760861303374424
40
0.779882835958782
40
0.779882835958782
40
0.789393602250961
40
0.789393602250961
40
0.79890436854314
40
0.79890436854314
40
0.808415134835319
40
0.808415134835319
40
0.817925901127498
40
0.817925901127498
40
0.836947433711856
40
0.836947433711856
40
0.874990498880571
40
0.874990498880571
40
0.89401203146493
40
0.89401203146493
40
0.913033564049288
40
0.913033564049288
40
0.951076629218006
40
0.951076629218006
40
0.955832012364096
40
0.955832012364096
40
0.960587395510186
40
0.960587395510186
40
0.970098161802366
40
0.970098161802366
40
0.979608928094547
40
0.979608928094547
40
0.989119694386728
40
0.989119694386728
40
1
40
1
40
1
40
1
41
1
10
38.9354105174584
20
4.315139012857
30
0
41
1
10
39.0037657355228
20
4.30855996448787
30
0
41
1
10
39.0719981109575
20
4.30104047242574
30
0
41
1
10
39.2083659589976
20
4.28413563083859
30
0
41
1
10
39.2765654979556
20
4.27476363071875
30
0
41
1
10
39.4815098643245
20
4.24399262836008
30
0
41
1
10
39.618479517528
20
4.21992061732382
30
0
41
1
10
39.8242540779936
20
4.1784905917732
30
0
41
1
10
39.8929059023899
20
4.16379419157269
30
0
41
1
10
40.0303310091191
20
4.13262836327027
30
0
41
1
10
40.0991453060413
20
4.11614853537148
30
0
41
1
10
40.305479869138
20
4.06410375368816
30
0
41
1
10
40.4425264529064
20
4.02603515096104
30
0
41
1
10
40.7156815485344
20
3.94327575027631
30
0
41
1
10
40.8517831466505
20
3.8985813981655
30
0
41
1
10
41.1230797023345
20
3.80258708755298
30
0
41
1
10
41.2582053654379
20
3.75122515967365
30
0
41
1
10
41.6642010070454
20
3.58857954249697
30
0
41
1
10
41.9352930112487
20
3.46857045895419
30
0
41
1
10
42.4785433384347
20
3.20591182098877
30
0
41
1
10
42.7506682784645
20
3.06322473883597
30
0
41
1
10
43.0918904421395
20
2.87050849845082
30
0
41
1
10
43.1601778435584
20
2.83123402062802
30
0
41
1
10
43.2968634773486
20
2.75121954572111
30
0
41
1
10
43.3653616739444
20
2.71044723216656
30
0
41
1
10
43.5706592904102
20
2.58690807120513
30
0
41
1
10
43.7073546055758
20
2.5028740301818
30
0
41
1
10
44.1166068790729
20
2.2455295761786
30
0
41
1
10
44.3885741532462
20
2.06726184756749
30
0
41
1
10
44.795666600834
20
1.79053152310277
30
0
41
1
10
44.9312080093285
20
1.69671436213909
30
0
41
1
10
45.1342349626547
20
1.55354532031797
30
0
41
1
10
45.2018641466095
20
1.50541593962626
30
0
41
1
10
45.3370439860684
20
1.40835524838494
30
0
41
1
10
45.4045696444404
20
1.35939150518698
30
0
41
1
10
45.6073970867855
20
1.21175768845245
30
0
41
1
10
45.7430848595849
20
1.11252476714989
30
0
41
1
10
46.0152132376805
20
0.912215429215678
30
0
41
1
10
46.1516916921774
20
0.811187310703076
30
0
41
1
10
46.3570944196325
20
0.658404144238148
30
0
41
1
10
46.4256754437409
20
0.607268389691512
30
0
41
1
10
46.5630663926297
20
0.504577141653272
30
0
41
1
10
46.6319143644292
20
0.452991375247933
30
0
41
1
10
46.8378215965124
20
0.298326571294837
30
0
41
1
10
46.9745628752941
20
0.195124419730206
30
0
41
1
10
47.1789609567557
20
0.04028606094613
30
0
41
1
10
47.2469750922073
20
-0.0113319537977929
30
0
41
1
10
47.3827521440367
20
-0.114597334997796
30
0
41
1
10
47.4504850164994
20
-0.166285062622904
30
0
41
1
10
47.6535295548053
20
-0.321090387416405
30
0
41
1
10
47.7890262108051
20
-0.423496303917091
30
0
41
1
10
48.0600644009719
20
-0.627039211575607
30
0
41
1
10
48.1956417638748
20
-0.728127742637241
30
0
41
1
10
48.4669885215665
20
-0.928849428248185
30
0
41
1
10
48.6027576266698
20
-1.02848324781544
30
0
41
1
10
48.8744552000551
20
-1.22633194404136
30
0
41
1
10
49.0103530102001
20
-1.32458631134057
30
0
41
1
10
49.2823453659963
20
-1.51960085798913
30
0
41
1
10
49.4184855052376
20
-1.6163020996417
30
0
41
1
10
49.6231366122799
20
-1.75983348966022
30
0
41
1
10
49.6914875438568
20
-1.80734728645794
30
0
41
1
10
49.7943191895655
20
-1.87799107205274
30
0
41
1
10
49.8286554415081
20
-1.90144896449198
30
0
41
1
10
49.8972591482692
20
-1.94805887478768
30
0
41
1
10
50.0686851916467
20
-2.06388082469439
30
0
41
1
10
50.2396965761114
20
-2.17623602074354
30
0
41
1
10
50.6491499776223
20
-2.43962373462793
30
0
41
1
10
50.9209076380197
20
-2.606780528016
30
0
41
1
10
51.2594099273003
20
-2.8048903988703
30
0
41
1
10
51.3270478776623
20
-2.84397128363364
30
0
41
1
10
51.4621931473326
20
-2.92104741309345
30
0
41
1
10
51.5296829976011
20
-2.95905910079725
30
0
41
1
10
51.6646972421177
20
-3.03382423607022
30
0
41
1
10
51.7322336754989
20
-3.07056629784512
30
0
41
1
10
51.8675057665287
20
-3.14264106144319
30
0
41
1
10
51.9352355516128
20
-3.17798000496563
30
0
41
1
10
52.138711961872
20
-3.28190699267643
30
0
41
1
10
52.2747500082261
20
-3.34840437688965
30
0
41
1
10
52.5475292945711
20
-3.47588639857966
30
0
41
1
10
52.6842408274212
20
-3.53689469979028
30
0
41
1
10
52.8898514594337
20
-3.62419295447484
30
0
41
1
10
52.9584818868243
20
-3.65258717652606
30
0
41
1
10
53.0959473618288
20
-3.70793543844974
30
0
41
1
10
53.1645838754121
20
-3.73480835431872
30
0
41
1
10
53.3699875284009
20
-3.81294300165487
30
0
41
1
10
53.5063365432941
20
-3.86176980733035
30
0
41
1
10
53.7099955684266
20
-3.93010587180836
30
0
41
1
10
53.7777809535843
20
-3.95203873693578
30
0
41
1
10
53.9133993397614
20
-3.99408961390773
30
0
41
1
10
53.9812054775203
20
-4.01422426879327
30
0
41
1
10
54.1846287431203
20
-4.07198316572817
30
0
41
1
10
54.3202583310425
20
-4.1069616165027
30
0
41
1
10
54.5915789345943
20
-4.16996387353319
30
0
41
1
10
54.7272696995169
20
-4.19798968275251
30
0
41
1
10
54.9986101151835
20
-4.24712930272065
30
0
41
1
10
55.1342356850148
20
-4.26824584352545
30
0
41
1
10
55.4056345478496
20
-4.30340882877758
30
0
41
1
10
55.541429234159
20
-4.31745339418566
30
0
41
1
10
55.7453048892462
20
-4.33308969741452
30
0
41
1
10
55.8132849324176
20
-4.33739565272595
30
0
41
1
10
55.9494908838898
20
-4.34415437031214
30
0
41
1
10
56.0177362227972
20
-4.34660663350422
30
0
41
1
10
56.1545575738581
20
-4.34965229477496
30
0
41
1
10
56.2231703460722
20
-4.35024616031615
30
0
41
1
10
56.3605043109896
20
-4.3495694631662
30
0
41
1
10
56.4290786927843
20
-4.34830084091499
30
0
41
1
10
56.6345525114883
20
-4.34174462355404
30
0
41
1
10
56.7712062814522
20
-4.33371007547177
30
0
41
1
10
57.1802821028515
20
-4.29883707712386
30
0
41
1
10
57.4517826471488
20
-4.26127099734811
30
0
41
1
10
57.8574113486362
20
-4.18343331618161
30
0
41
1
10
57.9923675965888
20
-4.15388225336324
30
0
41
1
10
58.2629873181224
20
-4.08805240875839
30
0
41
1
10
58.3986110918374
20
-4.05177519817931
30
0
41
1
10
58.8064034829829
20
-3.93292857116214
30
0
41
1
10
59.0793651540145
20
-3.84031891381676
30
0
41
1
10
59.3879563985737
20
-3.72075113834612
30
0
41
1
10
59.422265181327
20
-3.70725117191728
30
0
41
1
10
59.4909228109329
20
-3.67981704655094
30
0
41
1
10
59.5252800774621
20
-3.66587915123242
30
0
41
1
10
59.6281614705201
20
-3.62350887866489
30
0
41
1
10
59.6965693019183
20
-3.59448481221307
30
0
41
1
10
59.8330818001661
20
-3.53492748231
30
0
41
1
10
59.9011874851711
20
-3.50439497110872
30
0
41
1
10
60.0371637884988
20
-3.44187859328036
30
0
41
1
10
60.1050199072454
20
-3.40988141142319
30
0
41
1
10
60.2505692960475
20
-3.34000315560843
30
0
41
1
10
60.3282479667076
20
-3.3019218815605
30
0
41
1
10
60.4059152108582
20
-3.26303232919128
30
0
0
SPLINE
5
12B
100
AcDbEntity
8
1
62
256
6
ByLayer
370
18
48
1
60
0
100
AcDbSpline
70
4
71
3
72
31
73
27
40
0
40
0
40
0
40
0
40
0.0424899663674024
40
0.0424899663674024
40
0.122282469170096
40
0.122282469170096
40
0.202074971972789
40
0.202074971972789
40
0.281867474775482
40
0.281867474775482
40
0.301815600476162
40
0.301815600476162
40
0.321763726176843
40
0.321763726176843
40
0.361659977578229
40
0.361659977578229
40
0.381608103278911
40
0.381608103278911
40
0.401556228979592
40
0.401556228979592
40
0.441452480380957
40
0.441452480380957
40
0.521244983183689
40
0.680829988789132
40
0.680829988789132
40
1
40
1
40
1
40
1
41
1
10
74.7628887914888
20
4.96489599241852
30
0
41
1
10
74.7736304445483
20
4.96063327211508
30
0
41
1
10
74.7845837595399
20
4.95696705299761
30
0
41
1
10
74.8167021125601
20
4.94826818445824
30
0
41
1
10
74.8378669384101
20
4.94515382758948
30
0
41
1
10
74.8805012124856
20
4.94371211721437
30
0
41
1
10
74.9019915597428
20
4.94531137705423
30
0
41
1
10
74.9451208795936
20
4.95378847440276
30
0
41
1
10
74.966159530746
20
4.96052916998741
30
0
41
1
10
74.9915149238475
20
4.97321433936543
30
0
41
1
10
74.9965398074623
20
4.97595945186569
30
0
41
1
10
75.0064951993488
20
4.98186858666344
30
0
41
1
10
75.0114432196239
20
4.98504505469137
30
0
41
1
10
75.02597836083
20
4.99511807296994
30
0
41
1
10
75.0352842399488
20
5.00251023432634
30
0
41
1
10
75.0484929657322
20
5.01492345651724
30
0
41
1
10
75.0527555013268
20
5.01931016823787
30
0
41
1
10
75.0609343026333
20
5.02870021695927
30
0
41
1
10
75.064846037314
20
5.03371184537565
30
0
41
1
10
75.0761948055957
20
5.04942665291853
30
0
41
1
10
75.0831899744018
20
5.06072335837217
30
0
41
1
10
75.1042688333782
20
5.09419345752315
30
0
41
1
10
75.1463969066326
20
5.16088577165016
30
0
41
1
10
75.1884251167162
20
5.22686192460614
30
0
41
1
10
75.2723151822708
20
5.35791846048301
30
0
41
1
10
75.328003974194
20
5.44409674136813
30
0
41
1
10
75.3834367001237
20
5.52897637108092
30
0
0
SPLINE
5
12C
100
AcDbEntity
8
1
62
256
6
ByLayer
370
18
48
1
60
0
100
AcDbSpline
70
4
71
3
72
10
73
6
40
0
40
0
40
0
40
0
40
0.5
40
0.5
40
1
40
1
40
1
40
1
41
1
10
75.3834367001237
20
5.52897637108094
30
0
41
1
10
75.4312568261513
20
5.60219944503163
30
0
41
1
10
75.478885013414
20
5.67445205687943
30
0
41
1
10
75.5737085530114
20
5.8168755126907
30
0
41
1
10
75.620904638847
20
5.88704793430071
30
0
41
1
10
75.6679107685411
20
5.95618615741466
30
0
0
SPLINE
5
12D
100
AcDbEntity
8
1
62
256
6
ByLayer
370
18
48
1
60
0
100
AcDbSpline
70
4
71
3
72
8
73
4
40
0
40
0
40
0
40
0
40
1
40
1
40
1
40
1
41
1
10
75.8501029731734
20
5.91509956714194
30
0
41
1
10
75.7894261433845
20
5.92977553397139
30
0
41
1
10
75.7286975053172
20
5.94347305097762
30
0
41
1
10
75.6679107685411
20
5.95618615741466
30
0
0
SPLINE
5
12E
100
AcDbEntity
8
1
62
256
6
ByLayer
370
18
48
1
60
0
100
AcDbSpline
70
4
71
3
72
61
73
57
40
0
40
0
40
0
40
0
40
0.0312500000000187
40
0.0312500000000187
40
0.0625000000000374
40
0.0625000000000374
40
0.125000000000069
40
0.125000000000069
40
0.250000000000131
40
0.250000000000131
40
0.375000000000193
40
0.375000000000193
40
0.437500000000223
40
0.468750000000238
40
0.468750000000238
40
0.484375000000246
40
0.484375000000246
40
0.500000000000253
40
0.500000000000253
40
0.515625000000261
40
0.515625000000261
40
0.531250000000268
40
0.531250000000268
40
0.562500000000275
40
0.562500000000275
40
0.578125000000278
40
0.578125000000278
40
0.593750000000281
40
0.593750000000281
40
0.625000000000275
40
0.625000000000275
40
0.640625000000272
40
0.640625000000272
40
0.656250000000269
40
0.656250000000269
40
0.687500000000252
40
0.687500000000252
40
0.695312500000247
40
0.695312500000247
40
0.703125000000242
40
0.703125000000242
40
0.718750000000222
40
0.718750000000222
40
0.734375000000201
40
0.734375000000201
40
0.750000000000181
40
0.750000000000181
40
0.76562500000016
40
0.76562500000016
40
0.773437500000154
40
0.773437500000154
40
0.781250000000148
40
0.812500000000124
40
0.875000000000083
40
0.875000000000083
40
1
40
1
40
1
40
1
41
1
10
75.8501029731734
20
5.91509956714188
30
0
41
1
10
75.86227391809
20
5.89212113152198
30
0
41
1
10
75.8744316651107
20
5.86906549997141
30
0
41
1
10
75.898834835694
20
5.82292378556747
30
0
41
1
10
75.9110679723965
20
5.79982388018854
30
0
41
1
10
75.9478315878378
20
5.73040437340694
30
0
41
1
10
75.9724142743505
20
5.68395269426762
30
0
41
1
10
76.0462994162129
20
5.54398512427704
30
0
41
1
10
76.095742606159
20
5.44994838741044
30
0
41
1
10
76.1950171966567
20
5.2605568823181
30
0
41
1
10
76.2448772572672
20
5.1651485771738
30
0
41
1
10
76.3199476284815
20
5.02121571248244
30
0
41
1
10
76.3575537026347
20
4.94904302777977
30
0
41
1
10
76.3952797760933
20
4.87656467358582
30
0
41
1
10
76.4141638289288
20
4.84027496033934
30
0
41
1
10
76.4204859726708
20
4.82819020036308
30
0
41
1
10
76.4329559743033
20
4.80385078806708
30
0
41
1
10
76.4391128617304
20
4.7916038347737
30
0
41
1
10
76.4516616367754
20
4.76728591384548
30
0
41
1
10
76.4580572854149
20
4.75521812640662
30
0
41
1
10
76.4717336577495
20
4.73180649719569
30
0
41
1
10
76.4790664786807
20
4.72041024810383
30
0
41
1
10
76.5022375175055
20
4.68827623143457
30
0
41
1
10
76.5192917931294
20
4.66945420333514
30
0
41
1
10
76.5464341045509
20
4.64373351949962
30
0
41
1
10
76.5557465672452
20
4.63558680089031
30
0
41
1
10
76.5748636998495
20
4.62008975648135
30
0
41
1
10
76.5846014013341
20
4.6127976181873
30
0
41
1
10
76.6141460441619
20
4.59239054903537
30
0
41
1
10
76.6343536905905
20
4.58064819881869
30
0
41
1
10
76.6655095905714
20
4.56630806564055
30
0
41
1
10
76.676085101001
20
4.56206822150406
30
0
41
1
10
76.6971679434654
20
4.55478131136437
30
0
41
1
10
76.7076958004219
20
4.55171888839294
30
0
41
1
10
76.7392254835279
20
4.54421399604271
30
0
41
1
10
76.7601758895476
20
4.54139764050919
30
0
41
1
10
76.7862097279931
20
4.54110793009792
30
0
41
1
10
76.7914085878967
20
4.54121614594777
30
0
41
1
10
76.8017876747428
20
4.54180147795679
30
0
41
1
10
76.8069825409154
20
4.54228119332393
30
0
41
1
10
76.8223462345626
20
4.54432458904074
30
0
41
1
10
76.8323288928737
20
4.54651177008736
30
0
41
1
10
76.8517837431841
20
4.55246898382623
30
0
41
1
10
76.8612596303325
20
4.55622711744383
30
0
41
1
10
76.8796435485562
20
4.56548148149824
30
0
41
1
10
76.8884526082881
20
4.57090573193116
30
0
41
1
10
76.9044204309988
20
4.58420410551912
30
0
41
1
10
76.9116136103191
20
4.59211267529247
30
0
41
1
10
76.9219826122315
20
4.60460827667791
30
0
41
1
10
76.9253759696485
20
4.60886725212131
30
0
41
1
10
76.9321806977341
20
4.61733658458715
30
0
41
1
10
76.9491892996053
20
4.63847119430318
30
0
41
1
10
76.9933711755275
20
4.69292785999934
30
0
41
1
10
77.0340542246529
20
4.74213351091785
30
0
41
1
10
77.1152570893283
20
4.83920064101613
30
0
41
1
10
77.1691775493705
20
4.9021385773141
30
0
41
1
10
77.2228565496828
20
4.96323355613154
30
0
0
SPLINE
5
12F
100
AcDbEntity
8
1
62
256
6
ByLayer
370
18
48
1
60
0
100
AcDbSpline
70
4
71
3
72
10
73
6
40
0
40
0
40
0
40
0
40
0.5
40
0.5
40
1
40
1
40
1
40
1
41
1
10
77.2228565496828
20
4.96323355613157
30
0
41
1
10
77.2707111706348
20
5.01769949320888
30
0
41
1
10
77.3183744533671
20
5.07070072393665
30
0
41
1
10
77.4132704006596
20
5.17370483630361
30
0
41
1
10
77.4605042037486
20
5.22370982722796
30
0
41
1
10
77.5075499757469
20
5.27223628856442
30
0
0
SPLINE
5
130
100
AcDbEntity
8
1
62
256
6
ByLayer
370
18
48
1
60
0
100
AcDbSpline
70
4
71
3
72
8
73
4
40
0
40
0
40
0
40
0
40
1
40
1
40
1
40
1
41
1
10
77.6893875524934
20
5.17410334472228
30
0
41
1
10
77.6286818390159
20
5.20772550272446
30
0
41
1
10
77.5680441001713
20
5.24044901041029
30
0
41
1
10
77.5075499757469
20
5.27223628856439
30
0
0
SPLINE
5
131
100
AcDbEntity
8
1
62
256
6
ByLayer
370
18
48
1
60
0
100
AcDbSpline
70
4
71
3
72
58
73
54
40
0
40
0
40
0
40
0
40
0.0312499999999865
40
0.0312499999999865
40
0.0624999999999731
40
0.0624999999999731
40
0.124999999999947
40
0.124999999999947
40
0.249999999999896
40
0.249999999999896
40
0.374999999999845
40
0.374999999999845
40
0.437499999999819
40
0.468749999999806
40
0.468749999999806
40
0.499999999999793
40
0.499999999999793
40
0.531249999999779
40
0.531249999999779
40
0.546874999999777
40
0.546874999999777
40
0.562499999999775
40
0.562499999999775
40
0.578124999999773
40
0.578124999999773
40
0.593749999999771
40
0.593749999999771
40
0.624999999999777
40
0.624999999999777
40
0.640624999999786
40
0.640624999999786
40
0.656249999999794
40
0.656249999999794
40
0.687499999999823
40
0.687499999999823
40
0.703124999999831
40
0.703124999999831
40
0.71874999999984
40
0.71874999999984
40
0.734374999999848
40
0.734374999999848
40
0.749999999999857
40
0.749999999999857
40
0.757812499999856
40
0.757812499999856
40
0.765624999999855
40
0.765624999999855
40
0.781249999999862
40
0.781249999999862
40
0.812499999999882
40
0.874999999999921
40
0.874999999999921
40
1
40
1
40
1
40
1
41
1
10
77.6893875524908
20
5.17410334471063
30
0
41
1
10
77.7013034908896
20
5.14948491484955
30
0
41
1
10
77.7132065395111
20
5.12484223320845
30
0
41
1
10
77.7370991865523
20
5.07557990672785
30
0
41
1
10
77.7490773126144
20
5.05095253050467
30
0
41
1
10
77.7850684114607
20
4.97708493890298
30
0
41
1
10
77.8091301487784
20
4.92784670056105
30
0
41
1
10
77.8814269594675
20
4.78009977717099
30
0
41
1
10
77.9298092614706
20
4.68157911186961
30
0
41
1
10
78.0270089772279
20
4.4845233398689
30
0
41
1
10
78.0758366443556
20
4.38596986783529
30
0
41
1
10
78.1493520461569
20
4.23838883260245
30
0
41
1
10
78.1861849017038
20
4.16464715838774
30
0
41
1
10
78.2231420849528
20
4.09098491729372
30
0
41
1
10
78.2478091767084
20
4.041895123719
30
0
41
1
10
78.2602190355385
20
4.01739097566963
30
0
41
1
10
78.284563165172
20
3.96814350092024
30
0
41
1
10
78.2965860342561
20
3.94344536465033
30
0
41
1
10
78.3174826697636
20
3.90786205784059
30
0
41
1
10
78.3249161921667
20
3.89624030815713
30
0
41
1
10
78.3408386912401
20
3.87353654584879
30
0
41
1
10
78.3493247299718
20
3.86245303440603
30
0
41
1
10
78.3672078617454
20
3.84075200478753
30
0
41
1
10
78.3764432643194
20
3.83031277274335
30
0
41
1
10
78.3952504086478
20
3.81026491872433
30
0
41
1
10
78.4048491437293
20
3.80062859256535
30
0
41
1
10
78.4341823583389
20
3.77279601677361
30
0
41
1
10
78.4544420584123
20
3.75564995971334
30
0
41
1
10
78.4859725401444
20
3.73230021657759
30
0
41
1
10
78.4965669160942
20
3.72501422745052
30
0
41
1
10
78.5177853459888
20
3.71153076702683
30
0
41
1
10
78.5284289038576
20
3.70530315035683
30
0
41
1
10
78.5604420378186
20
3.68807693412623
30
0
41
1
10
78.5818921554362
20
3.6784908874086
30
0
41
1
10
78.6141861684628
20
3.66730859115478
30
0
41
1
10
78.6248632821127
20
3.66416508191091
30
0
41
1
10
78.6458264949217
20
3.65924625332124
30
0
41
1
10
78.6561364634507
20
3.65747657673222
30
0
41
1
10
78.6763532957256
20
3.65552802702322
30
0
41
1
10
78.686303194149
20
3.65531512294913
30
0
41
1
10
78.7056375424313
20
3.65647395907303
30
0
41
1
10
78.7149123004936
20
3.6577869248957
30
0
41
1
10
78.7280350775791
20
3.66124386692854
30
0
41
1
10
78.7322618673352
20
3.66267555755374
30
0
41
1
10
78.7403620714396
20
3.66621131052554
30
0
41
1
10
78.7442332656301
20
3.66831977820399
30
0
41
1
10
78.7554734403263
20
3.6753423604149
30
0
41
1
10
78.7624450981131
20
3.68093498211692
30
0
41
1
10
78.7834887252307
20
3.69718344118547
30
0
41
1
10
78.825545516605
20
3.72919177472073
30
0
41
1
10
78.867500208893
20
3.75977767335016
30
0
41
1
10
78.9512407114609
20
3.81913837325899
30
0
41
1
10
79.0068303960597
20
3.85630825008539
30
0
41
1
10
79.0621626258527
20
3.89106502628238
30
0
0
SPLINE
5
132
100
AcDbEntity
8
1
62
256
6
ByLayer
370
18
48
1
60
0
100
AcDbSpline
70
4
71
3
72
10
73
6
40
0
40
0
40
0
40
0
40
0.5
40
0.5
40
1
40
1
40
1
40
1
41
1
10
79.0621626258528
20
3.8910650262824
30
0
41
1
10
79.1100032268418
20
3.92111595804357
30
0
41
1
10
79.1576511837018
20
3.94936227777964
30
0
41
1
10
79.2525162228451
20
4.00225573036616
30
0
41
1
10
79.2997345383091
20
4.02690469286935
30
0
41
1
10
79.3467657990803
20
4.04978519764811
30
0
0
SPLINE
5
133
100
AcDbEntity
8
1
62
256
6
ByLayer
370
18
48
1
60
0
100
AcDbSpline
70
4
71
3
72
8
73
4
40
0
40
0
40
0
40
0
40
1
40
1
40
1
40
1
41
1
10
79.5285430600283
20
3.90441155993307
30
0
41
1
10
79.4678895318698
20
3.9535470626198
30
0
41
1
10
79.4072987785853
20
4.00200572743694
30
0
41
1
10
79.3467657990803
20
4.04978519764813
30
0
0
SPLINE
5
134
100
AcDbEntity
8
1
62
256
6
ByLayer
370
18
48
1
60
0
100
AcDbSpline
70
4
71
3
72
56
73
52
40
0
40
0
40
0
40
0
40
0.0170580084489199
40
0.0170580084489199
40
0.0375359666062424
40
0.0375359666062424
40
0.0580139247635648
40
0.0580139247635648
40
0.0784918829208872
40
0.0784918829208872
40
0.0989698410782096
40
0.0989698410782096
40
0.119447799235532
40
0.119447799235532
40
0.139925757392854
40
0.139925757392854
40
0.1808816737075
40
0.1808816737075
40
0.221837590022145
40
0.221837590022145
40
0.24231554817946
40
0.24231554817946
40
0.262793506336775
40
0.262793506336775
40
0.303749422651405
40
0.303749422651405
40
0.344705338966035
40
0.344705338966035
40
0.365183297123349
40
0.365183297123349
40
0.385661255280664
40
0.385661255280664
40
0.406139213437979
40
0.406139213437979
40
0.426617171595294
40
0.426617171595294
40
0.436856150673955
40
0.436856150673955
40
0.447095129752617
40
0.447095129752617
40
0.467573087909932
40
0.508529004224549
40
0.672352669483033
40
0.672352669483033
40
0.836176334741517
40
0.836176334741517
40
0.918088167370758
40
0.918088167370758
40
0.959044083685379
40
0.959044083685379
40
1
40
1
40
1
40
1
41
1
10
75.9493436720329
20
-5.16519745337567
30
0
41
1
10
75.9444834519973
20
-5.15696441454958
30
0
41
1
10
75.9396218638696
20
-5.14871778782447
30
0
41
1
10
75.9289210510312
20
-5.13054107169876
30
0
41
1
10
75.9230813307786
20
-5.12060505654929
30
0
41
1
10
75.9113971280353
20
-5.10069140057797
30
0
41
1
10
75.9055817641041
20
-5.09067644917971
30
0
41
1
10
75.8937957454612
20
-5.07079860813275
30
0
41
1
10
75.8877621648445
20
-5.06101673340007
30
0
41
1
10
75.8748274712473
20
-5.04252008112528
30
0
41
1
10
75.8678722781639
20
-5.03387475131981
30
0
41
1
10
75.8530723509672
20
-5.01767911228487
30
0
41
1
10
75.8452940329558
20
-5.01004349604383
30
0
41
1
10
75.8291189394862
20
-4.99552115959665
30
0
41
1
10
75.8206857682835
20
-4.98863804447112
30
0
41
1
10
75.794911539853
20
-4.96961572728091
30
0
41
1
10
75.7769007803668
20
-4.95907532424491
30
0
41
1
10
75.7394330093742
20
-4.94181736037041
30
0
41
1
10
75.7200029226326
20
-4.93502256982308
30
0
41
1
10
75.6898134904385
20
-4.92769203657119
30
0
41
1
10
75.6795735120102
20
-4.92574044919024
30
0
41
1
10
75.6590959708471
20
-4.92296768132485
30
0
41
1
10
75.6488138521048
20
-4.92213349073492
30
0
41
1
10
75.6178375952668
20
-4.92149419098473
30
0
41
1
10
75.5969960047823
20
-4.92361669155235
30
0
41
1
10
75.5550811228419
20
-4.93325809127052
30
0
41
1
10
75.5346049890275
20
-4.94056553215975
30
0
41
1
10
75.5048388938962
20
-4.95614165006708
30
0
41
1
10
75.4950010687834
20
-4.96217814230036
30
0
41
1
10
75.4763701241971
20
-4.97604856413466
30
0
41
1
10
75.4675595185586
20
-4.98393092087917
30
0
41
1
10
75.4510753540875
20
-5.0018262029771
30
0
41
1
10
75.4433784124498
20
-5.01192755131098
30
0
41
1
10
75.4290786044358
20
-5.03315686084235
30
0
41
1
10
75.4223656377264
20
-5.04422821264725
30
0
41
1
10
75.4122875242909
20
-5.06079728113738
30
0
41
1
10
75.4089334141642
20
-5.06632125957074
30
0
41
1
10
75.4021610463758
20
-5.07728960980688
30
0
41
1
10
75.3987402381491
20
-5.08273118535928
30
0
41
1
10
75.3884839670322
20
-5.09904810753986
30
0
41
1
10
75.3679810922089
20
-5.13163454030615
30
0
41
1
10
75.2929072659076
20
-5.25059358908334
30
0
41
1
10
75.2249683067889
20
-5.35711844652698
30
0
41
1
10
75.1168794187527
20
-5.52501571036294
30
0
41
1
10
75.0630998360815
20
-5.607757413987
30
0
41
1
10
74.9827627004906
20
-5.730069033549
30
0
41
1
10
74.9560324914545
20
-5.77053074469279
30
0
41
1
10
74.9160370858812
20
-5.83080354461566
30
0
41
1
10
74.9027266356175
20
-5.85083049441789
30
0
41
1
10
74.8761800807687
20
-5.89079843930776
30
0
41
1
10
74.862963612312
20
-5.9107645677465
30
0
41
1
10
74.8497277010602
20
-5.9306161556386
30
0
0
SPLINE
5
135
100
AcDbEntity
8
1
62
256
6
ByLayer
370
18
48
1
60
0
100
AcDbSpline
70
4
71
3
72
8
73
4
40
0
40
0
40
0
40
0
40
1
40
1
40
1
40
1
41
1
10
74.6677736558422
20
-5.88557837455119
30
0
41
1
10
74.7284193025721
20
-5.90158152396688
30
0
41
1
10
74.7890643007916
20
-5.91659588261905
30
0
41
1
10
74.8497277010602
20
-5.93061615563857
30
0
0
SPLINE
5
136
100
AcDbEntity
8
1
62
256
6
ByLayer
370
18
48
1
60
0
100
AcDbSpline
70
4
71
3
72
10
73
6
40
0
40
0
40
0
40
0
40
0.5
40
0.5
40
1
40
1
40
1
40
1
41
1
10
74.6677736558431
20
-5.88557837454346
30
0
41
1
10
74.6191889058115
20
-5.79214703752569
30
0
41
1
10
74.5704140037788
20
-5.69778170417604
30
0
41
1
10
74.4725244055285
20
-5.50738396162757
30
0
41
1
10
74.4233971568765
20
-5.41132724657922
30
0
41
1
10
74.3740605367411
20
-5.3144157979539
30
0
0
SPLINE
5
137
100
AcDbEntity
8
1
62
256
6
ByLayer
370
18
48
1
60
0
100
AcDbSpline
70
4
71
3
72
60
73
56
40
0
40
0
40
0
40
0
40
0.124999999999956
40
0.124999999999956
40
0.249999999999913
40
0.249999999999913
40
0.265624999999911
40
0.265624999999911
40
0.281249999999909
40
0.281249999999909
40
0.296874999999908
40
0.296874999999908
40
0.312499999999906
40
0.312499999999906
40
0.328124999999904
40
0.328124999999904
40
0.343749999999903
40
0.343749999999903
40
0.374999999999909
40
0.374999999999909
40
0.390624999999912
40
0.390624999999912
40
0.406249999999915
40
0.406249999999915
40
0.437499999999922
40
0.437499999999922
40
0.468749999999928
40
0.468749999999928
40
0.484374999999931
40
0.484374999999931
40
0.499999999999934
40
0.499999999999934
40
0.515624999999937
40
0.515624999999937
40
0.53124999999994
40
0.53124999999994
40
0.546874999999943
40
0.546874999999943
40
0.562499999999946
40
0.562499999999946
40
0.570312499999948
40
0.570312499999948
40
0.57812499999995
40
0.57812499999995
40
0.593749999999953
40
0.62499999999996
40
0.749999999999974
40
0.749999999999974
40
0.874999999999987
40
0.874999999999987
40
0.937499999999994
40
0.937499999999994
40
0.968749999999997
40
0.968749999999997
40
1
40
1
40
1
40
1
41
1
10
74.3740605367411
20
-5.3144157979539
30
0
41
1
10
74.328155916671
20
-5.2242457940628
30
0
41
1
10
74.2821290920264
20
-5.13345198225707
30
0
41
1
10
74.1897788978733
20
-4.95063790210207
30
0
41
1
10
74.1434513077543
20
-4.85862719593882
30
0
41
1
10
74.0911904786878
20
-4.75437147167824
30
0
41
1
10
74.0853816371512
20
-4.74277696979229
30
0
41
1
10
74.0737598493774
20
-4.71956664005634
30
0
41
1
10
74.067965488685
20
-4.70793285579754
30
0
41
1
10
74.0562839254132
20
-4.68472949054456
30
0
41
1
10
74.0503362349566
20
-4.67321838017543
30
0
41
1
10
74.0376161233713
20
-4.65096646720494
30
0
41
1
10
74.0307919303691
20
-4.64027557983835
30
0
41
1
10
74.0161751483554
20
-4.61980226250677
30
0
41
1
10
74.0084553432245
20
-4.60994954209966
30
0
41
1
10
73.9923896400512
20
-4.59082298670245
30
0
41
1
10
73.9839900870619
20
-4.58153371116188
30
0
41
1
10
73.9582659861271
20
-4.55515263972614
30
0
41
1
10
73.9402513683365
20
-4.53949020912316
30
0
41
1
10
73.9120605069219
20
-4.51864813881795
30
0
41
1
10
73.9024744499011
20
-4.51212907504919
30
0
41
1
10
73.8829368034294
20
-4.49992995069726
30
0
41
1
10
73.8729451409578
20
-4.49422983974108
30
0
41
1
10
73.8427058085235
20
-4.47860873743963
30
0
41
1
10
73.8223272460228
20
-4.47017526005209
30
0
41
1
10
73.7811359300834
20
-4.45796633628953
30
0
41
1
10
73.7603127203474
20
-4.45430802806618
30
0
41
1
10
73.7287791092223
20
-4.4527578160608
30
0
41
1
10
73.718350446346
20
-4.45290947260949
30
0
41
1
10
73.6977998310455
20
-4.45460568318717
30
0
41
1
10
73.6876574335064
20
-4.45614502658373
30
0
41
1
10
73.6676915775076
20
-4.46084252864577
30
0
41
1
10
73.657789840222
20
-4.46402764777346
30
0
41
1
10
73.638978223273
20
-4.47240218248459
30
0
41
1
10
73.6300603881129
20
-4.47763430234937
30
0
41
1
10
73.6133548501324
20
-4.49051528502713
30
0
41
1
10
73.6055384092196
20
-4.49824621130963
30
0
41
1
10
73.5910851778911
20
-4.51508456505582
30
0
41
1
10
73.5843345940928
20
-4.52411177568322
30
0
41
1
10
73.5742268647392
20
-4.53763012104369
30
0
41
1
10
73.5708676210567
20
-4.54214182933822
30
0
41
1
10
73.5640934130987
20
-4.5510743921723
30
0
41
1
10
73.5606702765988
20
-4.55548421683955
30
0
41
1
10
73.5503899918421
20
-4.56867515269681
30
0
41
1
10
73.5298373425013
20
-4.5949724019577
30
0
41
1
10
73.4545826198516
20
-4.69048959163666
30
0
41
1
10
73.3864874747825
20
-4.7745366872152
30
0
41
1
10
73.2781484678726
20
-4.90514802808084
30
0
41
1
10
73.2242439029418
20
-4.96857319669678
30
0
41
1
10
73.1437174787207
20
-5.06093415549682
30
0
41
1
10
73.1169239460936
20
-5.09124793078189
30
0
41
1
10
73.0768326151283
20
-5.1360640614445
30
0
41
1
10
73.0634900517393
20
-5.15090090924764
30
0
41
1
10
73.036879205481
20
-5.18042245916962
30
0
41
1
10
73.023630688546
20
-5.19513766328689
30
0
41
1
10
73.0103625259623
20
-5.20969054121559
30
0
0
SPLINE
5
138
100
AcDbEntity
8
1
62
256
6
ByLayer
370
18
48
1
60
0
100
AcDbSpline
70
4
71
3
72
8
73
4
40
0
40
0
40
0
40
0
40
1
40
1
40
1
40
1
41
1
10
72.8273817550608
20
-5.10709808403664
30
0
41
1
10
72.8883671206592
20
-5.14216683864402
30
0
41
1
10
72.949354966846
20
-5.17636745906225
30
0
41
1
10
73.0103625259623
20
-5.20969054121557
30
0
0
SPLINE
5
139
100
AcDbEntity
8
1
62
256
6
ByLayer
370
18
48
1
60
0
100
AcDbSpline
70
4
71
3
72
10
73
6
40
0
40
0
40
0
40
0
40
0.5
40
0.5
40
1
40
1
40
1
40
1
41
1
10
72.8273817550625
20
-5.10709808402316
30
0
41
1
10
72.7788972912765
20
-5.00354114062796
30
0
41
1
10
72.7302324749256
20
-4.89973207199623
30
0
41
1
10
72.6325827202119
20
-4.69188131304273
30
0
41
1
10
72.583587871813
20
-4.58781832689388
30
0
41
1
10
72.5343837688899
20
-4.48363147507447
30
0
0
SPLINE
5
13A
100
AcDbEntity
8
1
62
256
6
ByLayer
370
18
48
1
60
0
100
AcDbSpline
70
4
71
3
72
58
73
54
40
0
40
0
40
0
40
0
40
0.125000000000096
40
0.125000000000096
40
0.250000000000192
40
0.250000000000192
40
0.265625000000201
40
0.265625000000201
40
0.281250000000209
40
0.281250000000209
40
0.296875000000217
40
0.296875000000217
40
0.312500000000226
40
0.312500000000226
40
0.328125000000234
40
0.328125000000234
40
0.343750000000243
40
0.343750000000243
40
0.37500000000025
40
0.37500000000025
40
0.406250000000257
40
0.406250000000257
40
0.42187500000026
40
0.42187500000026
40
0.437500000000263
40
0.437500000000263
40
0.468750000000258
40
0.468750000000258
40
0.500000000000252
40
0.500000000000252
40
0.515625000000243
40
0.515625000000243
40
0.531250000000235
40
0.531250000000235
40
0.546875000000226
40
0.546875000000226
40
0.562500000000217
40
0.562500000000217
40
0.570312500000213
40
0.570312500000213
40
0.578125000000209
40
0.578125000000209
40
0.5937500000002
40
0.625000000000183
40
0.750000000000125
40
0.750000000000125
40
0.875000000000066
40
0.875000000000066
40
0.937500000000033
40
0.937500000000033
40
0.968750000000016
40
0.968750000000016
40
1
40
1
40
1
40
1
41
1
10
72.5343837688899
20
-4.48363147507445
30
0
41
1
10
72.488223090027
20
-4.38588889827983
30
0
41
1
10
72.4419388729952
20
-4.28816651864838
30
0
41
1
10
72.3490639389569
20
-4.09279030773035
30
0
41
1
10
72.3024678179997
20
-3.99513930081147
30
0
41
1
10
72.2499036869303
20
-3.88530489815128
30
0
41
1
10
72.2440613372136
20
-3.87310167463485
30
0
41
1
10
72.2323717787166
20
-3.84869397498292
30
0
41
1
10
72.2265547191764
20
-3.83646994940469
30
0
41
1
10
72.214758501422
20
-3.81212343398656
30
0
41
1
10
72.2087164635247
20
-3.80004196753458
30
0
41
1
10
72.1957580916886
20
-3.77644504987848
30
0
41
1
10
72.1887876026488
20
-3.76496491492418
30
0
41
1
10
72.1739614671252
20
-3.74257772086935
30
0
41
1
10
72.1661715483057
20
-3.73162778687083
30
0
41
1
10
72.149970313082
20
-3.71012909774393
30
0
41
1
10
72.1415240597966
20
-3.69956599058781
30
0
41
1
10
72.1157085263283
20
-3.66916218443737
30
0
41
1
10
72.0976657268004
20
-3.65047956371379
30
0
41
1
10
72.0601311095939
20
-3.61591887562051
30
0
41
1
10
72.0406655014331
20
-3.59998715853416
30
0
41
1
10
72.0104182264639
20
-3.5781711504668
30
0
41
1
10
72.0001682886467
20
-3.57126502976087
30
0
41
1
10
71.9796690893556
20
-3.55846955485009
30
0
41
1
10
71.9693758984093
20
-3.5525468348456
30
0
41
1
10
71.9383654727854
20
-3.53637234177683
30
0
41
1
10
71.9174784511125
20
-3.52775143999736
30
0
41
1
10
71.8755603060203
20
-3.51510390198089
30
0
41
1
10
71.8550829800693
20
-3.51117476582579
30
0
41
1
10
71.8253199867767
20
-3.50971470863743
30
0
41
1
10
71.8154890224994
20
-3.50999616613638
30
0
41
1
10
71.7968985184709
20
-3.51262966280427
30
0
41
1
10
71.7881115688098
20
-3.51501513696215
30
0
41
1
10
71.7716740342965
20
-3.52216832203183
30
0
41
1
10
71.7640050605707
20
-3.52700048430006
30
0
41
1
10
71.7497459337297
20
-3.5380120041564
30
0
41
1
10
71.743038073138
20
-3.54409185825557
30
0
41
1
10
71.7329561774495
20
-3.55312202835751
30
0
41
1
10
71.7295987336747
20
-3.55612663689476
30
0
41
1
10
71.7228157740319
20
-3.56201603233899
30
0
41
1
10
71.7193916929861
20
-3.56490288946
30
0
41
1
10
71.7091305576751
20
-3.57354904138612
30
0
41
1
10
71.6886180737588
20
-3.59073331688668
30
0
41
1
10
71.6135100859012
20
-3.65254570957123
30
0
41
1
10
71.5455440421312
20
-3.70510471937647
30
0
41
1
10
71.4374144289376
20
-3.78443404880056
30
0
41
1
10
71.3836155929464
20
-3.82174986807871
30
0
41
1
10
71.303249503818
20
-3.87427752180739
30
0
41
1
10
71.2765092495995
20
-3.89120052121268
30
0
41
1
10
71.236500093956
20
-3.915772138503
30
0
41
1
10
71.2231853242094
20
-3.92383495194917
30
0
41
1
10
71.1966306643594
20
-3.93976042136089
30
0
41
1
10
71.1834105585432
20
-3.9476557016753
30
0
41
1
10
71.1701679749703
20
-3.95535385457032
30
0
0
SPLINE
5
13B
100
AcDbEntity
8
1
62
256
6
ByLayer
370
18
48
1
60
0
100
AcDbSpline
70
4
71
3
72
8
73
4
40
0
40
0
40
0
40
0
40
1
40
1
40
1
40
1
41
1
10
70.9886401384424
20
-3.80716884150283
30
0
41
1
10
71.0491414978893
20
-3.85720414766581
30
0
41
1
10
71.1096453186404
20
-3.90660332158794
30
0
41
1
10
71.1701679749703
20
-3.95535385457032
30
0
0
SPLINE
5
13C
100
AcDbEntity
8
1
62
256
6
ByLayer
370
18
48
1
60
0
100
AcDbSpline
70
4
71
3
72
8
73
4
40
0
40
0
40
0
40
0
40
1
40
1
40
1
40
1
41
1
10
69.1487268709353
20
-2.11707158714617
30
0
41
1
10
69.2095736246955
20
-2.1775860482216
30
0
41
1
10
69.2704235941335
20
-2.23774288700164
30
0
41
1
10
69.3312935694936
20
-2.29752699779985
30
0
0
SPLINE
5
13D
100
AcDbEntity
8
1
62
256
6
ByLayer
370
18
48
1
60
0
100
AcDbSpline
70
4
71
3
72
8
73
4
40
0
40
0
40
0
40
0
40
1
40
1
40
1
40
1
41
1
10
67.3094936501962
20
-0.211032981918294
30
0
41
1
10
67.3700383236713
20
-0.275221403915737
30
0
41
1
10
67.4305668079703
20
-0.339356208561071
30
0
41
1
10
67.4910950933973
20
-0.403422372739072
30
0
0
SPLINE
5
13E
100
AcDbEntity
8
1
62
256
6
ByLayer
370
18
48
1
60
0
100
AcDbSpline
70
4
71
3
72
10
73
6
40
0
40
0
40
0
40
0
40
0.5
40
0.5
40
1
40
1
40
1
40
1
41
1
10
67.3094936501962
20
-0.211032981918322
30
0
41
1
10
67.2609530380142
20
-0.139233286370597
30
0
41
1
10
67.2122557413157
20
-0.069146099147531
30
0
41
1
10
67.1144890048292
20
0.067540400773936
30
0
41
1
10
67.0654085629687
20
0.134153520448251
30
0
41
1
10
67.0161595138838
20
0.19891931864538
30
0
0
SPLINE
5
13F
100
AcDbEntity
8
1
62
256
6
ByLayer
370
18
48
1
60
0
100
AcDbSpline
70
4
71
3
72
38
73
34
40
0
40
0
40
0
40
0
40
0.249999999999974
40
0.249999999999974
40
0.499999999999948
40
0.499999999999948
40
0.531249999999952
40
0.531249999999952
40
0.562499999999956
40
0.562499999999956
40
0.59374999999996
40
0.59374999999996
40
0.624999999999963
40
0.624999999999963
40
0.656249999999967
40
0.656249999999967
40
0.687499999999971
40
0.687499999999971
40
0.749999999999999
40
0.749999999999999
40
0.781250000000002
40
0.781250000000002
40
0.812500000000005
40
0.812500000000005
40
0.874999999999987
40
0.874999999999987
40
0.90624999999999
40
0.90624999999999
40
0.937499999999994
40
0.937499999999994
40
0.968749999999997
40
0.968749999999997
40
1
40
1
40
1
40
1
41
1
10
67.0161595138838
20
0.19891931864538
30
0
41
1
10
66.9682288113134
20
0.261951402874502
30
0
41
1
10
66.9201756731487
20
0.323185689968113
30
0
41
1
10
66.8237593064317
20
0.442020207871536
30
0
41
1
10
66.7753914070633
20
0.499628227943248
30
0
41
1
10
66.7208370523364
20
0.562299051440988
30
0
41
1
10
66.7147734563125
20
0.569232687091215
30
0
41
1
10
66.7026402263525
20
0.583041605095758
30
0
41
1
10
66.6965583353722
20
0.589925224228153
30
0
41
1
10
66.6836438228725
20
0.604134518388548
30
0
41
1
10
66.6767768633004
20
0.611483115908101
30
0
41
1
10
66.6619412069348
20
0.626856932815883
30
0
41
1
10
66.6540488284331
20
0.634830820791592
30
0
41
1
10
66.6376262774398
20
0.651144169062889
30
0
41
1
10
66.6290258634137
20
0.659543918302063
30
0
41
1
10
66.6113634726633
20
0.676523073204748
30
0
41
1
10
66.6023207478683
20
0.685084895175663
30
0
41
1
10
66.5745291551469
20
0.711016070496129
30
0
41
1
10
66.5551527309479
20
0.728614277541624
30
0
41
1
10
66.5250073092602
20
0.755447819315947
30
0
41
1
10
66.5147746775434
20
0.764466954505906
30
0
41
1
10
66.4939300399485
20
0.782672064269178
30
0
41
1
10
66.4833246302024
20
0.791851336541214
30
0
41
1
10
66.4515003269523
20
0.819164484802343
30
0
41
1
10
66.4300836663308
20
0.837233770485284
30
0
41
1
10
66.3976735565872
20
0.864176963397938
30
0
41
1
10
66.3867823902604
20
0.873167418027521
30
0
41
1
10
66.3651124094756
20
0.89094815188443
30
0
41
1
10
66.3544087720854
20
0.899677442769956
30
0
41
1
10
66.3332911314697
20
0.916806544726114
30
0
41
1
10
66.3228758910992
20
0.925207750434765
30
0
41
1
10
66.3024046698215
20
0.9416196287481
30
0
41
1
10
66.2923306261634
20
0.949644337359985
30
0
41
1
10
66.282886584807
20
0.957094999531563
30
0
0
SPLINE
5
140
100
AcDbEntity
8
1
62
256
6
ByLayer
370
18
48
1
60
0
100
AcDbSpline
70
4
71
3
72
27
73
23
40
0
40
0
40
0
40
0
40
0.0625000000000059
40
0.0625000000000059
40
0.125000000000012
40
0.125000000000012
40
0.187500000000018
40
0.187500000000018
40
0.250000000000023
40
0.375000000000022
40
0.375000000000022
40
0.437500000000014
40
0.437500000000014
40
0.500000000000006
40
0.500000000000006
40
0.749999999999977
40
0.749999999999977
40
0.812499999999983
40
0.812499999999983
40
0.874999999999989
40
0.874999999999989
40
1
40
1
40
1
40
1
41
1
10
66.282886584807
20
0.957094999531563
30
0
41
1
10
66.2668657042568
20
0.973030614469081
30
0
41
1
10
66.2501395129724
20
0.989244745551275
30
0
41
1
10
66.2153823574498
20
1.02218120265633
30
0
41
1
10
66.1973705412316
20
1.03895031066622
30
0
41
1
10
66.1600394499476
20
1.07275186949539
30
0
41
1
10
66.1406577033396
20
1.08963594805795
30
0
41
1
10
66.1004265758861
20
1.1232686119121
30
0
41
1
10
66.0379129242172
20
1.17360146024859
30
0
41
1
10
65.9690818241284
20
1.22400389914529
30
0
41
1
10
65.8962564829772
20
1.27503834694954
30
0
41
1
10
65.8714259587306
20
1.29207809648378
30
0
41
1
10
65.8208933479029
20
1.32620409213288
30
0
41
1
10
65.7951657320652
20
1.34330801263766
30
0
41
1
10
65.6644045410889
20
1.42927412627387
30
0
41
1
10
65.553035778737
20
1.49949975111653
30
0
41
1
10
65.4079592366701
20
1.59270658727465
30
0
41
1
10
65.3786484557056
20
1.61161777608899
30
0
41
1
10
65.3194904702025
20
1.65006469516922
30
0
41
1
10
65.2896930950195
20
1.66956860526128
30
0
41
1
10
65.2000701105324
20
1.72880544667197
30
0
41
1
10
65.1398831917138
20
1.76935201969698
30
0
41
1
10
65.0794453172315
20
1.81120277251912
30
0
0
SPLINE
5
141
100
AcDbEntity
8
1
62
256
6
ByLayer
370
18
48
1
60
0
100
AcDbSpline
70
4
71
3
72
50
73
46
40
0
40
0
40
0
40
0
40
0.0666777800431387
40
0.0666777800431387
40
0.100016670064708
40
0.100016670064708
40
0.133355560086277
40
0.133355560086277
40
0.200033340129416
40
0.200033340129416
40
0.266711120172555
40
0.266711120172555
40
0.28338056518334
40
0.28338056518334
40
0.300050010194125
40
0.300050010194125
40
0.333388900215696
40
0.333388900215696
40
0.400066680258839
40
0.400066680258839
40
0.433405570280411
40
0.433405570280411
40
0.466744460301983
40
0.466744460301983
40
0.500083350323554
40
0.500083350323554
40
0.533422240345126
40
0.533422240345126
40
0.600100020388272
40
0.600100020388272
40
0.666777800431418
40
0.666777800431418
40
0.700116690452991
40
0.700116690452991
40
0.733455580474564
40
0.733455580474564
40
0.800133360517709
40
0.800133360517709
40
0.866811140560855
40
0.866811140560855
40
0.900150030582429
40
0.900150030582429
40
0.933488920604003
40
0.933488920604003
40
1
40
1
40
1
40
1
41
1
10
65.0794453172335
20
1.81120277251782
30
0
41
1
10
64.8400871435575
20
1.97694850478044
30
0
41
1
10
64.6024139786394
20
2.13704628026238
30
0
41
1
10
64.2465919290927
20
2.36689465882455
30
0
41
1
10
64.1280317351131
20
2.44172385794121
30
0
41
1
10
63.8911532385119
20
2.58803004546394
30
0
41
1
10
63.7728856828944
20
2.65956030804867
30
0
41
1
10
63.4184793565164
20
2.8691441917766
30
0
41
1
10
63.1826572676382
20
3.00209833467426
30
0
41
1
10
62.7100291252611
20
3.25246026185323
30
0
41
1
10
62.473239848851
20
3.36988032745759
30
0
41
1
10
62.1753573220185
20
3.5056845357507
30
0
41
1
10
62.1156856613425
20
3.5322971023412
30
0
41
1
10
61.9961265656922
20
3.58440152531651
30
0
41
1
10
61.9362248407294
20
3.60990372390901
30
0
41
1
10
61.7564203396511
20
3.68476070499006
30
0
41
1
10
61.6369898782273
20
3.73217506680606
30
0
41
1
10
61.2797672766738
20
3.86686224491711
30
0
41
1
10
61.0430140071205
20
3.94654876591011
30
0
41
1
10
60.6885536416769
20
4.05034571674383
30
0
41
1
10
60.570512609386
20
4.08232458834476
30
0
41
1
10
60.3344266023896
20
4.14096754989973
30
0
41
1
10
60.2163925818129
20
4.16763443084207
30
0
41
1
10
59.9799648320246
20
4.21554864708742
30
0
41
1
10
59.8616181952985
20
4.23682016648391
30
0
41
1
10
59.6248446850537
20
4.27402976757904
30
0
41
1
10
59.5063905877502
20
4.28995606945534
30
0
41
1
10
59.1506126934528
20
4.3295350120755
30
0
41
1
10
58.9127908901848
20
4.34497005669365
30
0
41
1
10
58.4342025731922
20
4.35294814193762
30
0
41
1
10
58.1964290295519
20
4.34543283294559
30
0
41
1
10
57.84037583402
20
4.31765495986079
30
0
41
1
10
57.721826829038
20
4.30564850516092
30
0
41
1
10
57.4851490467411
20
4.27615580502942
30
0
41
1
10
57.3669991314366
20
4.25866932768309
30
0
41
1
10
57.0128017208638
20
4.19806572897093
30
0
41
1
10
56.7770136371584
20
4.14679657306263
30
0
41
1
10
56.3043208983686
20
4.02306366643242
30
0
41
1
10
56.0674105760664
20
3.95060029882939
30
0
41
1
10
55.7097743506872
20
3.82658865458194
30
0
41
1
10
55.5902371009309
20
3.78267119205526
30
0
41
1
10
55.3505550341444
20
3.68954013416871
30
0
41
1
10
55.2311261342414
20
3.64063480158711
30
0
41
1
10
54.8744629781483
20
3.48747950941902
30
0
41
1
10
54.638272422744
20
3.37651522447933
30
0
41
1
10
54.4025539240527
20
3.2574938550552
30
0
0
SPLINE
5
142
100
AcDbEntity
8
1
62
256
6
ByLayer
370
18
48
1
60
0
100
AcDbSpline
70
4
71
3
72
94
73
90
40
0
40
0
40
0
40
0
40
0.0091925137023696
40
0.0091925137023696
40
0.0642373740522417
40
0.0642373740522417
40
0.0779985891397097
40
0.0779985891397097
40
0.0917598042271776
40
0.0917598042271776
40
0.105521019314646
40
0.105521019314646
40
0.119282234402114
40
0.119282234402114
40
0.146804664577048
40
0.146804664577048
40
0.174327094751982
40
0.174327094751982
40
0.188088309839448
40
0.188088309839448
40
0.201849524926914
40
0.201849524926914
40
0.229371955101848
40
0.229371955101848
40
0.243133170189316
40
0.243133170189316
40
0.256894385276784
40
0.256894385276784
40
0.28441681545172
40
0.28441681545172
40
0.311939245626656
40
0.311939245626656
40
0.339461675801592
40
0.339461675801592
40
0.366984105976528
40
0.366984105976528
40
0.380745321063997
40
0.380745321063997
40
0.394506536151466
40
0.394506536151466
40
0.408267751238935
40
0.408267751238935
40
0.422028966326404
40
0.422028966326404
40
0.449551396501341
40
0.449551396501341
40
0.504596256851218
40
0.504596256851218
40
0.532118687026156
40
0.532118687026156
40
0.559641117201094
40
0.559641117201094
40
0.614685977550971
40
0.614685977550971
40
0.621566585094704
40
0.621566585094704
40
0.628447192638438
40
0.628447192638438
40
0.642208407725903
40
0.642208407725903
40
0.655969622813368
40
0.655969622813368
40
0.669730837900832
40
0.669730837900832
40
0.697253268075764
40
0.697253268075764
40
0.724775698250696
40
0.724775698250696
40
0.779820558600557
40
0.779820558600557
40
0.793581773688023
40
0.793581773688023
40
0.807342988775488
40
0.807342988775488
40
0.83486541895042
40
0.83486541895042
40
0.848626634037886
40
0.848626634037886
40
0.862387849125351
40
0.862387849125351
40
0.889910279300281
40
0.889910279300281
40
0.917432709475211
40
0.917432709475211
40
0.931193924562676
40
0.931193924562676
40
0.944955139650141
40
0.944955139650141
40
1
40
1
40
1
40
1
41
1
10
50.239316840228
20
4.35000102177642
30
0
41
1
10
50.2849729850191
20
4.34999742990246
30
0
41
1
10
50.3305951220295
20
4.34958537117004
30
0
41
1
10
50.6491499776223
20
4.34387456322017
30
0
41
1
10
50.9209076380196
20
4.32448457928322
30
0
41
1
10
51.2594099273003
20
4.28225305551067
30
0
41
1
10
51.3270478776623
20
4.27290328243831
30
0
41
1
10
51.4621931473326
20
4.25238194042097
30
0
41
1
10
51.5296829976011
20
4.24120411168946
30
0
41
1
10
51.6646972421177
20
4.21706069403305
30
0
41
1
10
51.7322336754989
20
4.20409934019287
30
0
41
1
10
51.8675057665287
20
4.17645359336575
30
0
41
1
10
51.9352355516129
20
4.16176814471234
30
0
41
1
10
52.1387119618721
20
4.11514226864028
30
0
41
1
10
52.2747500082262
20
4.08063871129732
30
0
41
1
10
52.5475292945711
20
4.00475945783955
30
0
41
1
10
52.6842408274212
20
3.96336680355802
30
0
41
1
10
52.8898514594336
20
3.89603450308692
30
0
41
1
10
52.9584818868242
20
3.87271757293175
30
0
41
1
10
53.0959473618289
20
3.82432479976524
30
0
41
1
10
53.1645838754121
20
3.7993189123066
30
0
41
1
10
53.3699875284009
20
3.72196943681672
30
0
41
1
10
53.5063365432941
20
3.66725571860678
30
0
41
1
10
53.7099955684266
20
3.58047560890023
30
0
41
1
10
53.7777809535843
20
3.55079463262595
30
0
41
1
10
53.9133993397614
20
3.49013250810896
30
0
41
1
10
53.9812054775203
20
3.45913145472434
30
0
41
1
10
54.1846287431203
20
3.36415561281174
30
0
41
1
10
54.3202583310425
20
3.29821676412115
30
0
41
1
10
54.5915789345943
20
3.16121093631821
30
0
41
1
10
54.7272696995169
20
3.0901451534815
30
0
41
1
10
54.9986101151836
20
2.94279385496418
30
0
41
1
10
55.1342356850148
20
2.86648137822479
30
0
41
1
10
55.4056345478496
20
2.70874587032367
30
0
41
1
10
55.5414292341591
20
2.62734719982424
30
0
41
1
10
55.7453048892462
20
2.50140827470477
30
0
41
1
10
55.8132849324176
20
2.45877671516817
30
0
41
1
10
55.9494908838899
20
2.37242351808592
30
0
41
1
10
56.0177362227973
20
2.32872490953429
30
0
41
1
10
56.1545575738581
20
2.240335514956
30
0
41
1
10
56.2231703460722
20
2.19560411779372
30
0
41
1
10
56.3605043109896
20
2.10525180247356
30
0
41
1
10
56.4290786927843
20
2.05973305136919
30
0
41
1
10
56.6345525114882
20
1.92219347354603
30
0
41
1
10
56.7712062814522
20
1.82919458868659
30
0
41
1
10
57.1802821028515
20
1.54645733880977
30
0
41
1
10
57.4517826471488
20
1.35294518398007
30
0
41
1
10
57.8574113486362
20
1.05538814147772
30
0
41
1
10
57.9923675965889
20
0.955002362287445
30
0
41
1
10
58.2629873181224
20
0.753417607790567
30
0
41
1
10
58.3986110918374
20
0.652171032239778
30
0
41
1
10
58.8064034829829
20
0.347061545525605
30
0
41
1
10
59.0793651540145
20
0.141667866565399
30
0
41
1
10
59.3879563985737
20
-0.091389340260406
30
0
41
1
10
59.422265181327
20
-0.117312584780876
30
0
41
1
10
59.4909228109328
20
-0.169218299395112
30
0
41
1
10
59.5252800774621
20
-0.195207166772121
30
0
41
1
10
59.62816147052
20
-0.273081104216089
30
0
41
1
10
59.6965693019184
20
-0.324940198241961
30
0
41
1
10
59.8330818001661
20
-0.428467855281781
30
0
41
1
10
59.9011874851711
20
-0.480134999951815
30
0
41
1
10
60.0371637884988
20
-0.583187484340897
30
0
41
1
10
60.1050199072454
20
-0.634591781755177
30
0
41
1
10
60.308680542736
20
-0.787791993003594
30
0
41
1
10
60.4445036920827
20
-0.888679850616199
30
0
41
1
10
60.7159539632032
20
-1.08841380083629
30
0
41
1
10
60.8516270369203
20
-1.18719783266258
30
0
41
1
10
61.2586024583077
20
-1.48018858928322
30
0
41
1
10
61.5298236095108
20
-1.67109873367812
30
0
41
1
10
61.8688431568773
20
-1.90394437817986
30
0
41
1
10
61.9366508705847
20
-1.95021756253973
30
0
41
1
10
62.072287070754
20
-2.04214812365905
30
0
41
1
10
62.1401522213049
20
-2.08776081967233
30
0
41
1
10
62.3442530676214
20
-2.22310451695986
30
0
41
1
10
62.480878513507
20
-2.31148162584606
30
0
41
1
10
62.6867142029984
20
-2.44119270966129
30
0
41
1
10
62.7555375547811
20
-2.48399273532502
30
0
41
1
10
62.8929653847561
20
-2.56832557236325
30
0
41
1
10
62.961610368468
20
-2.60988763720516
30
0
41
1
10
63.167352657085
20
-2.73276160302797
30
0
41
1
10
63.3042629597964
20
-2.81225780505008
30
0
41
1
10
63.5775978486577
20
-2.96642440463555
30
0
41
1
10
63.7140219792818
20
-3.04109642492446
30
0
41
1
10
63.9182251902759
20
-3.14950985871042
30
0
41
1
10
63.9862087324076
20
-3.18505810684792
30
0
41
1
10
64.122140648886
20
-3.25484230745639
30
0
41
1
10
64.1900838061046
20
-3.28908218117735
30
0
41
1
10
64.530343122732
20
-3.45644964216834
30
0
41
1
10
64.8042719635878
20
-3.57819434784278
30
0
41
1
10
65.0794453172335
20
-3.68817163937348
30
0
0
SPLINE
5
143
100
AcDbEntity
8
1
62
256
6
ByLayer
370
18
48
1
60
0
100
AcDbSpline
70
4
71
3
72
33
73
29
40
0
40
0
40
0
40
0
40
0.124999999999975
40
0.124999999999975
40
0.24999999999995
40
0.24999999999995
40
0.374999999999924
40
0.374999999999924
40
0.499999999999899
40
0.499999999999899
40
0.531249999999901
40
0.531249999999901
40
0.562499999999903
40
0.624999999999925
40
0.624999999999925
40
0.74999999999997
40
0.74999999999997
40
0.812499999999992
40
0.812499999999992
40
0.843749999999995
40
0.843749999999995
40
0.874999999999998
40
0.874999999999998
40
0.906250000000002
40
0.906250000000002
40
0.937500000000005
40
0.937500000000005
40
1
40
1
40
1
40
1
41
1
10
65.0794453172318
20
-3.68817163937283
30
0
41
1
10
65.1374379164868
20
-3.71134927961444
30
0
41
1
10
65.1949327359586
20
-3.73692835374629
30
0
41
1
10
65.3087094394803
20
-3.79287036912498
30
0
41
1
10
65.3649922361534
20
-3.82323131635212
30
0
41
1
10
65.4761961581138
20
-3.88883881721981
30
0
41
1
10
65.5311180596563
20
-3.92408229038551
30
0
41
1
10
65.6394927124892
20
-3.99975360533816
30
0
41
1
10
65.6929461269492
20
-4.04017581731659
30
0
41
1
10
65.7587898530711
20
-4.09433079211775
30
0
41
1
10
65.7719208840948
20
-4.10535406300303
30
0
41
1
10
65.7979562069372
20
-4.12766830857942
30
0
41
1
10
65.8367107223859
20
-4.16157480681952
30
0
41
1
10
65.8745636894235
20
-4.19680917717369
30
0
41
1
10
65.9490403731741
20
-4.26913871588494
30
0
41
1
10
65.997059035874
20
-4.31982165324877
30
0
41
1
10
66.0664455239133
20
-4.40015801274359
30
0
41
1
10
66.0891330412384
20
-4.42765933162221
30
0
41
1
10
66.1224578696383
20
-4.47012100680624
30
0
41
1
10
66.133463267337
20
-4.48449807994189
30
0
41
1
10
66.1550854760665
20
-4.51348791275498
30
0
41
1
10
66.1657158674711
20
-4.5281175536042
30
0
41
1
10
66.1866096332259
20
-4.55765307047596
30
0
41
1
10
66.1968743609488
20
-4.57255842124636
30
0
41
1
10
66.2170248584074
20
-4.60265562339512
30
0
41
1
10
66.2269088833047
20
-4.61784827598691
30
0
41
1
10
66.2558964789966
20
-4.66390005939476
30
0
41
1
10
66.2743547123326
20
-4.695225115185
30
0
41
1
10
66.2918808825317
20
-4.72722005667555
30
0
0
SPLINE
5
144
100
AcDbEntity
8
1
62
256
6
ByLayer
370
18
48
1
60
0
100
AcDbSpline
70
4
71
3
72
8
73
4
40
0
40
0
40
0
40
0
40
1
40
1
40
1
40
1
41
1
10
66.2918808825297
20
-4.72722005667197
30
0
41
1
10
66.35348538657
20
-4.83968230483765
30
0
41
1
10
66.4147086812591
20
-4.95231614600354
30
0
41
1
10
66.4756461653328
20
-5.06507231261818
30
0
0
SPLINE
5
145
100
AcDbEntity
8
1
62
256
6
ByLayer
370
18
48
1
60
0
100
AcDbSpline
70
4
71
3
72
8
73
4
40
0
40
0
40
0
40
0
40
1
40
1
40
1
40
1
41
1
10
67.8791735548921
20
-6.03801749196316
30
0
41
1
10
67.8186725484694
20
-6.03081568357524
30
0
41
1
10
67.7581732847605
20
-6.02261379446671
30
0
41
1
10
67.6976724424892
20
-6.01341699362121
30
0
0
SPLINE
5
146
100
AcDbEntity
8
1
62
256
6
ByLayer
370
18
48
1
60
0
100
AcDbSpline
70
4
71
3
72
8
73
4
40
0
40
0
40
0
40
0
40
1
40
1
40
1
40
1
41
1
10
70.9886401384441
20
-3.80716884149243
30
0
41
1
10
70.8914846771177
20
-3.60065956246041
30
0
41
1
10
70.7936142079101
20
-3.39605684027316
30
0
41
1
10
70.6950143480593
20
-3.19406488475116
30
0
0
SPLINE
5
147
100
AcDbEntity
8
1
62
256
6
ByLayer
370
18
48
1
60
0
100
AcDbSpline
70
4
71
3
72
30
73
26
40
0
40
0
40
0
40
0
40
0.124999999999999
40
0.124999999999999
40
0.249999999999999
40
0.249999999999999
40
0.312499999999998
40
0.312499999999998
40
0.343749999999998
40
0.343749999999998
40
0.374999999999997
40
0.374999999999997
40
0.499999999999996
40
0.499999999999996
40
0.624999999999995
40
0.624999999999995
40
0.687499999999995
40
0.687499999999995
40
0.718749999999995
40
0.718749999999995
40
0.749999999999995
40
0.749999999999995
40
0.874999999999998
40
0.874999999999998
40
1
40
1
40
1
40
1
41
1
10
70.7627616372378
20
0.803579119005008
30
0
41
1
10
70.7720847693601
20
0.600223853792357
30
0
41
1
10
70.781411859139
20
0.396511658408144
30
0
41
1
10
70.8003181756669
20
-0.0116049635701643
30
0
41
1
10
70.809858618504
20
-0.216011170364538
30
0
41
1
10
70.8241892509211
20
-0.523156005292577
30
0
41
1
10
70.8289704810672
20
-0.62562699318255
30
0
41
1
10
70.8361449632165
20
-0.779470404032423
30
0
41
1
10
70.8385401056391
20
-0.830841646020673
30
0
41
1
10
70.8433073877073
20
-0.933108833397711
30
0
41
1
10
70.8456813316161
20
-0.984043428119975
30
0
41
1
10
70.8575053393238
20
-1.23773229710886
30
0
41
1
10
70.8668124753225
20
-1.43754225531612
30
0
41
1
10
70.8852862171821
20
-1.83102637260109
30
0
41
1
10
70.894452315385
20
-2.02470022025065
30
0
41
1
10
70.9083341329984
20
-2.31057135610232
30
0
41
1
10
70.9129889952858
20
-2.40508679194812
30
0
41
1
10
70.920026812711
20
-2.54568010012977
30
0
41
1
10
70.9223813381583
20
-2.59234782690879
30
0
41
1
10
70.9271075289919
20
-2.68528585089462
30
0
41
1
10
70.9294808904655
20
-2.73158896283695
30
0
41
1
10
70.9413723198793
20
-2.96174311603159
30
0
41
1
10
70.9508564548467
20
-3.13946904117921
30
0
41
1
10
70.9697754873244
20
-3.4825705537545
30
0
41
1
10
70.9792101004032
20
-3.64794486049763
30
0
41
1
10
70.9886401384526
20
-3.8071688415009
30
0
0
SPLINE
5
148
100
AcDbEntity
8
1
62
256
6
ByLayer
370
18
48
1
60
0
100
AcDbSpline
70
4
71
3
72
16
73
12
40
0
40
0
40
0
40
0
40
0.249999999999995
40
0.249999999999995
40
0.499999999999991
40
0.499999999999991
40
0.749999999999986
40
0.749999999999986
40
0.874999999999993
40
0.874999999999993
40
1
40
1
40
1
40
1
41
1
10
82.2596821731518
20
-2.40832316940268
30
0
41
1
10
82.1588943654059
20
-2.36398994810574
30
0
41
1
10
82.0588815230454
20
-2.3169661628105
30
0
41
1
10
81.8600724103096
20
-2.21784596750905
30
0
41
1
10
81.7612902912942
20
-2.16572874459783
30
0
41
1
10
81.5647685572928
20
-2.05649135439612
30
0
41
1
10
81.4670284240995
20
-1.99937212861553
30
0
41
1
10
81.3210500377214
20
-1.91001859409118
30
0
41
1
10
81.2724960036851
20
-1.87962138182587
30
0
41
1
10
81.1755751188684
20
-1.81761142999954
30
0
41
1
10
81.1272911246815
20
-1.78605124292088
30
0
41
1
10
81.079225487118
20
-1.75398356845059
30
0
0
SPLINE
5
149
100
AcDbEntity
8
1
62
256
6
ByLayer
370
18
48
1
60
0
100
AcDbSpline
70
4
71
3
72
53
73
49
40
0
40
0
40
0
40
0
40
0.249999999999967
40
0.249999999999967
40
0.265624999999965
40
0.265624999999965
40
0.281249999999962
40
0.281249999999962
40
0.29687499999996
40
0.29687499999996
40
0.312499999999958
40
0.312499999999958
40
0.343749999999953
40
0.343749999999953
40
0.374999999999948
40
0.374999999999948
40
0.406249999999944
40
0.406249999999944
40
0.437499999999939
40
0.437499999999939
40
0.453124999999937
40
0.453124999999937
40
0.468749999999934
40
0.468749999999934
40
0.484374999999932
40
0.484374999999932
40
0.499999999999929
40
0.499999999999929
40
0.515624999999927
40
0.515624999999927
40
0.531249999999924
40
0.531249999999924
40
0.546874999999922
40
0.546874999999922
40
0.554687499999921
40
0.554687499999921
40
0.56249999999992
40
0.624999999999931
40
0.624999999999931
40
0.749999999999954
40
0.749999999999954
40
0.874999999999977
40
0.874999999999977
40
0.937499999999989
40
0.937499999999989
40
0.968749999999995
40
0.968749999999995
40
1
40
1
40
1
40
1
41
1
10
81.079225487118
20
-1.75398356845059
30
0
41
1
10
80.9901390563866
20
-1.59253535413981
30
0
41
1
10
80.9005395721304
20
-1.43538186193894
30
0
41
1
10
80.8047215196916
20
-1.27326589942393
30
0
41
1
10
80.7990616113802
20
-1.26374354110294
30
0
41
1
10
80.7871079414533
20
-1.2446240180397
30
0
41
1
10
80.7807951698477
20
-1.23502369677533
30
0
41
1
10
80.7671853079528
20
-1.21568689649052
30
0
41
1
10
80.7599352988393
20
-1.20595862145191
30
0
41
1
10
80.7448586065072
20
-1.18643616763154
30
0
41
1
10
80.736985394767
20
-1.1766040111813
30
0
41
1
10
80.7126473860573
20
-1.14723726780812
30
0
41
1
10
80.6956713258325
20
-1.12810982776563
30
0
41
1
10
80.6602627297679
20
-1.0907120801462
30
0
41
1
10
80.6418773080318
20
-1.07241536726113
30
0
41
1
10
80.6038422485348
20
-1.03655070786016
30
0
41
1
10
80.5840459021673
20
-1.01887015104779
30
0
41
1
10
80.5443847921414
20
-0.985505392450563
30
0
41
1
10
80.5243921898638
20
-0.969739525626096
30
0
41
1
10
80.4941870941793
20
-0.947587593654902
30
0
41
1
10
80.4840378550433
20
-0.940414214044409
30
0
41
1
10
80.4639122083488
20
-0.926732180696177
30
0
41
1
10
80.4539681409155
20
-0.920241996761604
30
0
41
1
10
80.4343417888381
20
-0.908000024634333
30
0
41
1
10
80.424658571092
20
-0.902245558970634
30
0
41
1
10
80.4056121893959
20
-0.891616474116461
30
0
41
1
10
80.3962048452609
20
-0.886722029811267
30
0
41
1
10
80.3784648733346
20
-0.878469933995916
30
0
41
1
10
80.3700829096403
20
-0.875098775169278
30
0
41
1
10
80.3543755798619
20
-0.869986024738239
30
0
41
1
10
80.3470376842137
20
-0.868266096565378
30
0
41
1
10
80.3333373090607
20
-0.865911098795863
30
0
41
1
10
80.3268663300763
20
-0.865175979133568
30
0
41
1
10
80.3171464565238
20
-0.863993312266501
30
0
41
1
10
80.3139100328102
20
-0.863593086758272
30
0
41
1
10
80.3073772427766
20
-0.862694569066065
30
0
41
1
10
80.2776908745482
20
-0.858185218266129
30
0
41
1
10
80.2480652839056
20
-0.852890597229646
30
0
41
1
10
80.1691956421367
20
-0.8368894323863
30
0
41
1
10
80.1168221647344
20
-0.823726978906308
30
0
41
1
10
80.012629709957
20
-0.792629158511943
30
0
41
1
10
79.9607758486375
20
-0.774687541924635
30
0
41
1
10
79.8832984373381
20
-0.74427863626579
30
0
41
1
10
79.857515553013
20
-0.733548356051585
30
0
41
1
10
79.8189391038132
20
-0.716627355280338
30
0
41
1
10
79.8061009566742
20
-0.710855476298065
30
0
41
1
10
79.7804944087475
20
-0.699091502782494
30
0
41
1
10
79.7677437978885
20
-0.693124358140096
30
0
41
1
10
79.754973748718
20
-0.686972658009068
30
0
0
SPLINE
5
14A
100
AcDbEntity
8
1
62
256
6
ByLayer
370
18
48
1
60
0
100
AcDbSpline
70
4
71
3
72
8
73
4
40
0
40
0
40
0
40
0
40
1
40
1
40
1
40
1
41
1
10
79.5724093690617
20
-0.494207839627336
30
0
41
1
10
79.6332828510549
20
-0.558579932247767
30
0
41
1
10
79.6941322384434
20
-0.622839870713705
30
0
41
1
10
79.754973748718
20
-0.686972658009097
30
0
0
SPLINE
5
14B
100
AcDbEntity
8
1
62
256
6
ByLayer
370
18
48
1
60
0
100
AcDbSpline
70
4
71
3
72
10
73
6
40
0
40
0
40
0
40
0
40
0.5
40
0.5
40
1
40
1
40
1
40
1
41
1
10
79.5724093690625
20
-0.49420783962546
30
0
41
1
10
79.5238400891226
20
-0.418599676437736
30
0
41
1
10
79.4750937365948
20
-0.344605447177457
30
0
41
1
10
79.3772895549494
20
-0.200067341742084
30
0
41
1
10
79.3282189654966
20
-0.129503285293993
30
0
41
1
10
79.2789467063685
20
-0.060684012968153
30
0
0
SPLINE
5
14C
100
AcDbEntity
8
1
62
256
6
ByLayer
370
18
48
1
60
0
100
AcDbSpline
70
4
71
3
72
62
73
58
40
0
40
0
40
0
40
0
40
0.125000000000006
40
0.125000000000006
40
0.250000000000011
40
0.250000000000011
40
0.281250000000011
40
0.281250000000011
40
0.296875000000008
40
0.296875000000008
40
0.312500000000004
40
0.312500000000004
40
0.328125000000001
40
0.328125000000001
40
0.343749999999997
40
0.343749999999997
40
0.359374999999994
40
0.359374999999994
40
0.37499999999999
40
0.37499999999999
40
0.406249999999972
40
0.406249999999972
40
0.421874999999963
40
0.421874999999963
40
0.437499999999954
40
0.437499999999954
40
0.468749999999936
40
0.468749999999936
40
0.484374999999927
40
0.484374999999927
40
0.499999999999917
40
0.499999999999917
40
0.515624999999908
40
0.515624999999908
40
0.531249999999899
40
0.531249999999899
40
0.54687499999989
40
0.54687499999989
40
0.562499999999881
40
0.562499999999881
40
0.57031249999988
40
0.57031249999988
40
0.578124999999879
40
0.578124999999879
40
0.593749999999885
40
0.593749999999885
40
0.624999999999898
40
0.624999999999898
40
0.749999999999932
40
0.749999999999932
40
0.874999999999966
40
0.874999999999966
40
0.937499999999983
40
0.937499999999983
40
0.968749999999992
40
0.968749999999992
40
1
40
1
40
1
40
1
41
1
10
79.2789467063685
20
-0.060684012968153
30
0
41
1
10
79.2332822576268
20
0.0030961787497574
30
0
41
1
10
79.18750283158
20
0.0652970279441263
30
0
41
1
10
79.0956520007044
20
0.18649674228277
30
0
41
1
10
79.0495810371577
20
0.245499355778264
30
0
41
1
10
78.9918126652713
20
0.317168360450211
30
0
41
1
10
78.9802674670288
20
0.33138753515081
30
0
41
1
10
78.9628746856971
20
0.352594243252383
30
0
41
1
10
78.9570081013086
20
0.359677051600528
30
0
41
1
10
78.9445404688913
20
0.374229374873721
30
0
41
1
10
78.93790045808
20
0.381722161036606
30
0
41
1
10
78.9236594764347
20
0.397230809396518
30
0
41
1
10
78.9161244794314
20
0.40520702901739
30
0
41
1
10
78.9004785224194
20
0.421452569342591
30
0
41
1
10
78.8923473893814
20
0.429734053516086
30
0
41
1
10
78.8754503094275
20
0.446628374486437
30
0
41
1
10
78.8666528023175
20
0.455271412714666
30
0
41
1
10
78.8484572732811
20
0.472823387008731
30
0
41
1
10
78.8391702030998
20
0.48162760904529
30
0
41
1
10
78.8108140191773
20
0.5081187678623
30
0
41
1
10
78.7912593438843
20
0.525881097102143
30
0
41
1
10
78.7610046841319
20
0.552716652358555
30
0
41
1
10
78.750726443171
20
0.561726586744157
30
0
41
1
10
78.7300078266317
20
0.579679060796764
30
0
41
1
10
78.7196220784747
20
0.588575003533521
30
0
41
1
10
78.6883945933284
20
0.615018220027423
30
0
41
1
10
78.6674794259562
20
0.63230892000982
30
0
41
1
10
78.636030367033
20
0.657806783239323
30
0
41
1
10
78.6254821866831
20
0.666274828529424
30
0
41
1
10
78.6046294829014
20
0.682856236687797
30
0
41
1
10
78.5943738324553
20
0.690932193094454
30
0
41
1
10
78.5742589076566
20
0.706604881757414
30
0
41
1
10
78.5643963404883
20
0.714205913544703
30
0
41
1
10
78.5452109628631
20
0.728758818634844
30
0
41
1
10
78.5361359175138
20
0.735513165730026
30
0
41
1
10
78.5193585938938
20
0.747693090640723
30
0
41
1
10
78.5116290706862
20
0.753137085980171
30
0
41
1
10
78.4971345709055
20
0.763105041823366
30
0
41
1
10
78.4903226894917
20
0.767679602088322
30
0
41
1
10
78.4801834390891
20
0.774537431096775
30
0
41
1
10
78.4768177039317
20
0.776820077426493
30
0
41
1
10
78.4700371520718
20
0.781455253210709
30
0
41
1
10
78.4666119104232
20
0.783818147700487
30
0
41
1
10
78.4563086629588
20
0.790966240249105
30
0
41
1
10
78.449438921131
20
0.795775278253643
30
0
41
1
10
78.4288455314275
20
0.810315012594486
30
0
41
1
10
78.4151296358095
20
0.820166375351448
30
0
41
1
10
78.3466125993225
20
0.870218447647261
30
0
41
1
10
78.2919818077117
20
0.912817237195725
30
0
41
1
10
78.1833490757493
20
1.00266314966896
30
0
41
1
10
78.1293057830724
20
1.04993736742318
30
0
41
1
10
78.0485811046542
20
1.12426200819985
30
0
41
1
10
78.0217229175973
20
1.14961340351371
30
0
41
1
10
77.9815376906712
20
1.1884573417469
30
0
41
1
10
77.9681643958076
20
1.2015364873954
30
0
41
1
10
77.9414933869386
20
1.22792014446125
30
0
41
1
10
77.928215674527
20
1.24120354347832
30
0
41
1
10
77.9149161743075
20
1.25466072058026
30
0
0
SPLINE
5
14D
100
AcDbEntity
8
1
62
256
6
ByLayer
370
18
48
1
60
0
100
AcDbSpline
70
4
71
3
72
8
73
4
40
0
40
0
40
0
40
0
40
1
40
1
40
1
40
1
41
1
10
77.7335514963435
20
1.4422459068665
30
0
41
1
10
77.7940246938875
20
1.37992625119088
30
0
41
1
10
77.8544744203366
20
1.31739298114576
30
0
41
1
10
77.9149161743075
20
1.25466072058029
30
0
0
SPLINE
5
14E
100
AcDbEntity
8
1
62
256
6
ByLayer
370
18
48
1
60
0
100
AcDbSpline
70
4
71
3
72
10
73
6
40
0
40
0
40
0
40
0
40
0.5
40
0.5
40
1
40
1
40
1
40
1
41
1
10
77.7335514963451
20
1.44224590686468
30
0
41
1
10
77.684918674779
20
1.49102935471149
30
0
41
1
10
77.6361006623552
20
1.5377992503694
30
0
41
1
10
77.5381413664946
20
1.62714600187272
30
0
41
1
10
77.4889874242523
20
1.66973596304865
30
0
41
1
10
77.4396293470059
20
1.71020016128739
30
0
0
SPLINE
5
14F
100
AcDbEntity
8
1
62
256
6
ByLayer
370
18
48
1
60
0
100
AcDbSpline
70
4
71
3
72
62
73
58
40
0
40
0
40
0
40
0
40
0.124999999999958
40
0.124999999999958
40
0.249999999999917
40
0.249999999999917
40
0.265624999999906
40
0.265624999999906
40
0.281249999999895
40
0.281249999999895
40
0.296874999999883
40
0.296874999999883
40
0.312499999999872
40
0.312499999999872
40
0.328124999999861
40
0.328124999999861
40
0.34374999999985
40
0.34374999999985
40
0.374999999999828
40
0.374999999999828
40
0.390624999999823
40
0.390624999999823
40
0.406249999999817
40
0.406249999999817
40
0.437499999999807
40
0.437499999999807
40
0.468749999999796
40
0.468749999999796
40
0.484374999999797
40
0.484374999999797
40
0.499999999999798
40
0.499999999999798
40
0.515624999999799
40
0.515624999999799
40
0.5312499999998
40
0.5312499999998
40
0.546874999999801
40
0.546874999999801
40
0.562499999999802
40
0.562499999999802
40
0.570312499999806
40
0.570312499999806
40
0.578124999999811
40
0.578124999999811
40
0.593749999999821
40
0.593749999999821
40
0.624999999999832
40
0.624999999999832
40
0.749999999999888
40
0.749999999999888
40
0.874999999999943
40
0.874999999999943
40
0.937499999999975
40
0.937499999999975
40
0.968749999999988
40
0.968749999999988
40
1
40
1
40
1
40
1
41
1
10
77.4396293470049
20
1.71020016128995
30
0
41
1
10
77.393765994555
20
1.7477993525259
30
0
41
1
10
77.3477844924122
20
1.78351599103564
30
0
41
1
10
77.2555306272009
20
1.85114308414714
30
0
41
1
10
77.2092545094119
20
1.88306573243025
30
0
41
1
10
77.1570511422588
20
1.91672596623908
30
0
41
1
10
77.1512486784385
20
1.92043457349797
30
0
41
1
10
77.1396396243904
20
1.92778829507233
30
0
41
1
10
77.1338493577084
20
1.93141732472043
30
0
41
1
10
77.1221879973794
20
1.93868685908956
30
0
41
1
10
77.116258249954
20
1.94238525554803
30
0
41
1
10
77.1035883805808
20
1.95050954350873
30
0
41
1
10
77.0967983878224
20
1.95498425621932
30
0
41
1
10
77.0822413390232
20
1.96482329575051
30
0
41
1
10
77.0745469787248
20
1.9701163707345
30
0
41
1
10
77.0585365485441
20
1.98124549705895
30
0
41
1
10
77.0501589863252
20
1.98713052321071
30
0
41
1
10
77.0244696737397
20
2.00536651653795
30
0
41
1
10
77.0064819835807
20
2.01839997763662
30
0
41
1
10
76.9783294532259
20
2.03919288683872
30
0
41
1
10
76.9687562119238
20
2.04632372120653
30
0
41
1
10
76.9492447132843
20
2.06098259370089
30
0
41
1
10
76.9392722214037
20
2.06853679036624
30
0
41
1
10
76.909030578951
20
2.09165521138795
30
0
41
1
10
76.8886486798815
20
2.10750371270206
30
0
41
1
10
76.847448369792
20
2.140326159952
30
0
41
1
10
76.8266191382455
20
2.15733020652172
30
0
41
1
10
76.7950746128406
20
2.18387814173397
30
0
41
1
10
76.7846176324409
20
2.19281178581701
30
0
41
1
10
76.7640325967663
20
2.21069954904988
30
0
41
1
10
76.7538733257385
20
2.21967902029113
30
0
41
1
10
76.7338740948639
20
2.23773051488431
30
0
41
1
10
76.7239533254166
20
2.24687764786953
30
0
41
1
10
76.7050838936391
20
2.26480062931836
30
0
41
1
10
76.6961370963742
20
2.2735822555982
30
0
41
1
10
76.679379103147
20
2.29072808456337
30
0
41
1
10
76.6715359268815
20
2.2991378430913
30
0
41
1
10
76.6570408861853
20
2.31529140386803
30
0
41
1
10
76.6502815509513
20
2.32311025480718
30
0
41
1
10
76.6401686136308
20
2.33487304699085
30
0
41
1
10
76.6368090080721
20
2.33879556924367
30
0
41
1
10
76.630036396442
20
2.34668962304815
30
0
41
1
10
76.6266142142294
20
2.35066669046819
30
0
41
1
10
76.6163310439042
20
2.36263352716648
30
0
41
1
10
76.6094769984588
20
2.37064471269761
30
0
41
1
10
76.5889270508768
20
2.39477389511811
30
0
41
1
10
76.5752398016349
20
2.41098975908327
30
0
41
1
10
76.5068647218941
20
2.49272397634189
30
0
41
1
10
76.452370777158
20
2.56020066806303
30
0
41
1
10
76.3440050947952
20
2.69877177274799
30
0
41
1
10
76.2900898041161
20
2.76991139332171
30
0
41
1
10
76.2095479923413
20
2.87929666535564
30
0
41
1
10
76.1827495328924
20
2.9162087400756
30
0
41
1
10
76.1426504727474
20
2.97222188689773
30
0
41
1
10
76.1293052750453
20
2.99099765345554
30
0
41
1
10
76.1026890489769
20
3.02873701162909
30
0
41
1
10
76.0894377885086
20
3.04768871750883
30
0
41
1
10
76.0761672261418
20
3.06676686725351
30
0
0
SPLINE
5
150
100
AcDbEntity
8
1
62
256
6
ByLayer
370
18
48
1
60
0
100
AcDbSpline
70
4
71
3
72
8
73
4
40
0
40
0
40
0
40
0
40
1
40
1
40
1
40
1
41
1
10
75.893903642556
20
3.23210039070858
30
0
41
1
10
75.9546774309892
20
3.17750679663237
30
0
41
1
10
76.0154267125664
20
3.12239109037202
30
0
41
1
10
76.0761672261418
20
3.06676686725348
30
0
0
SPLINE
5
151
100
AcDbEntity
8
1
62
256
6
ByLayer
370
18
48
1
60
0
100
AcDbSpline
70
4
71
3
72
10
73
6
40
0
40
0
40
0
40
0
40
0.5
40
0.5
40
1
40
1
40
1
40
1
41
1
10
75.8939036425578
20
3.23210039069949
30
0
41
1
10
75.845303561064
20
3.24902935656178
30
0
41
1
10
75.7965167223871
20
3.26374809933017
30
0
41
1
10
75.6986301754481
20
3.28866610689775
30
0
41
1
10
75.6495207064275
20
3.29886963820187
30
0
41
1
10
75.6002168546223
20
3.30677882937474
30
0
0
SPLINE
5
152
100
AcDbEntity
8
1
62
256
6
ByLayer
370
18
48
1
60
0
100
AcDbSpline
70
4
71
3
72
60
73
56
40
0
40
0
40
0
40
0
40
0.125000000000078
40
0.125000000000078
40
0.250000000000155
40
0.250000000000155
40
0.265625000000166
40
0.265625000000166
40
0.281250000000177
40
0.281250000000177
40
0.296875000000187
40
0.296875000000187
40
0.312500000000198
40
0.312500000000198
40
0.328125000000208
40
0.328125000000208
40
0.343750000000219
40
0.343750000000219
40
0.37500000000024
40
0.37500000000024
40
0.406250000000262
40
0.406250000000262
40
0.421875000000267
40
0.421875000000267
40
0.437500000000272
40
0.437500000000272
40
0.453125000000277
40
0.453125000000277
40
0.468750000000282
40
0.468750000000282
40
0.500000000000291
40
0.500000000000291
40
0.51562500000029
40
0.51562500000029
40
0.531250000000289
40
0.531250000000289
40
0.546875000000288
40
0.546875000000288
40
0.562500000000287
40
0.562500000000287
40
0.570312500000283
40
0.578125000000278
40
0.578125000000278
40
0.593750000000269
40
0.625000000000249
40
0.625000000000249
40
0.750000000000163
40
0.750000000000163
40
0.875000000000077
40
0.875000000000077
40
0.937500000000039
40
0.937500000000039
40
0.968750000000019
40
0.968750000000019
40
1
40
1
40
1
40
1
41
1
10
75.6002168546223
20
3.30677882937479
30
0
41
1
10
75.5539643614515
20
3.31419852981028
30
0
41
1
10
75.5076011968363
20
3.31958973431628
30
0
41
1
10
75.4145995941173
20
3.32628657499572
30
0
41
1
10
75.3679560291173
20
3.32760627332786
30
0
41
1
10
75.3153544071526
20
3.32667137429186
30
0
41
1
10
75.3095080998725
20
3.32653370665827
30
0
41
1
10
75.2978113763373
20
3.32619007009308
30
0
41
1
10
75.2919921011993
20
3.3259439066023
30
0
41
1
10
75.2801826020781
20
3.32559552642229
30
0
41
1
10
75.2741303606602
20
3.32557272110552
30
0
41
1
10
75.2611549446409
20
3.326564470167
30
0
41
1
10
75.2541789486603
20
3.32764641725168
30
0
41
1
10
75.2393640672643
20
3.33083686203395
30
0
41
1
10
75.2315884870215
20
3.33286445084616
30
0
41
1
10
75.2154275124263
20
3.33762628068715
30
0
41
1
10
75.2069932519117
20
3.34038944765169
30
0
41
1
10
75.1811788167116
20
3.34967808514014
30
0
41
1
10
75.1631418714728
20
3.35730891401542
30
0
41
1
10
75.1256287674155
20
3.37515352840725
30
0
41
1
10
75.1061782297363
20
3.38531524285338
30
0
41
1
10
75.0759589005505
20
3.40253288412069
30
0
41
1
10
75.0657349940597
20
3.40859489846247
30
0
41
1
10
75.0452746261487
20
3.42124161518774
30
0
41
1
10
75.0349981672231
20
3.42784833764489
30
0
41
1
10
75.0143518292311
20
3.44171197295466
30
0
41
1
10
75.0039806581429
20
3.44897849419399
30
0
41
1
10
74.9831513525691
20
3.46420707285119
30
0
41
1
10
74.9726686291514
20
3.47218562633313
30
0
41
1
10
74.9412629713212
20
3.49710225824052
30
0
41
1
10
74.920793890423
20
3.51463956092078
30
0
41
1
10
74.8910229292761
20
3.54273731975599
30
0
41
1
10
74.8811909152751
20
3.55248136618033
30
0
41
1
10
74.8625976773762
20
3.57218417678087
30
0
41
1
10
74.8538034763299
20
3.58219420480995
30
0
41
1
10
74.8373440689666
20
3.60257231017815
30
0
41
1
10
74.8296633381854
20
3.61299393542507
30
0
41
1
10
74.8154024116664
20
3.63362033368176
30
0
41
1
10
74.8086967591286
20
3.64389341745181
30
0
41
1
10
74.7986203614682
20
3.65933837817741
30
0
41
1
10
74.7919094343241
20
3.66964498086921
30
0
41
1
10
74.7850653565069
20
3.6799934239119
30
0
41
1
10
74.7748093754574
20
3.69553122259433
30
0
41
1
10
74.7543068533689
20
3.7266718406461
30
0
41
1
10
74.7338321661933
20
3.75800857791214
30
0
41
1
10
74.6656421928786
20
3.86290053694791
30
0
41
1
10
74.6112859955821
20
3.94819469284764
30
0
41
1
10
74.5031837540161
20
4.12096552535826
30
0
41
1
10
74.4493962747995
20
4.20850925633303
30
0
41
1
10
74.3690468582638
20
4.34149968327739
30
0
41
1
10
74.3423120609764
20
4.38610896306829
30
0
41
1
10
74.3023102644831
20
4.45342949575249
30
0
41
1
10
74.2889978056096
20
4.47593707317964
30
0
41
1
10
74.2624475166115
20
4.52108279552635
30
0
41
1
10
74.2492294635793
20
4.54371927585936
30
0
41
1
10
74.2359897150333
20
4.56642514198461
30
0
0
SPLINE
5
153
100
AcDbEntity
8
1
62
256
6
ByLayer
370
18
48
1
60
0
100
AcDbSpline
70
4
71
3
72
8
73
4
40
0
40
0
40
0
40
0
40
1
40
1
40
1
40
1
41
1
10
74.0545724317479
20
4.69106742839804
30
0
41
1
10
74.115064953447
20
4.65028397271203
30
0
41
1
10
74.175532302088
20
4.60873301938864
30
0
41
1
10
74.2359897150333
20
4.56642514198461
30
0
0
SPLINE
5
154
100
AcDbEntity
8
1
62
256
6
ByLayer
370
18
48
1
60
0
100
AcDbSpline
70
4
71
3
72
10
73
6
40
0
40
0
40
0
40
0
40
0.5
40
0.5
40
1
40
1
40
1
40
1
41
1
10
74.0545724317489
20
4.69106742839031
30
0
41
1
10
74.0059630351266
20
4.674409771516
30
0
41
1
10
73.9571618796997
20
4.65556282686899
30
0
41
1
10
73.8592389021541
20
4.61348632091912
30
0
41
1
10
73.810107215126
20
4.59025420690742
30
0
41
1
10
73.7607789730994
20
4.56479673044825
30
0
0
SPLINE
5
155
100
AcDbEntity
8
1
62
256
6
ByLayer
370
18
48
1
60
0
100
AcDbSpline
70
4
71
3
72
59
73
55
40
0
40
0
40
0
40
0
40
0.124999999999977
40
0.124999999999977
40
0.249999999999955
40
0.249999999999955
40
0.26562499999995
40
0.26562499999995
40
0.281249999999946
40
0.281249999999946
40
0.296874999999942
40
0.296874999999942
40
0.312499999999937
40
0.312499999999937
40
0.343749999999929
40
0.343749999999929
40
0.37499999999992
40
0.37499999999992
40
0.406249999999911
40
0.406249999999911
40
0.437499999999903
40
0.437499999999903
40
0.453124999999898
40
0.453124999999898
40
0.468749999999893
40
0.468749999999893
40
0.484374999999888
40
0.484374999999888
40
0.499999999999884
40
0.499999999999884
40
0.515624999999879
40
0.515624999999879
40
0.531249999999874
40
0.531249999999874
40
0.539062499999872
40
0.539062499999872
40
0.54687499999987
40
0.54687499999987
40
0.562499999999873
40
0.562499999999873
40
0.578124999999877
40
0.578124999999877
40
0.59374999999988
40
0.624999999999886
40
0.624999999999886
40
0.749999999999926
40
0.749999999999926
40
0.874999999999967
40
0.874999999999967
40
0.937499999999983
40
0.937499999999983
40
0.968749999999991
40
0.968749999999991
40
1
40
1
40
1
40
1
41
1
10
73.7607789730994
20
4.56479673044825
30
0
41
1
10
73.7140574647687
20
4.54068454542806
30
0
41
1
10
73.66722370404
20
4.5146092187498
30
0
41
1
10
73.5732816040952
20
4.45851642939454
30
0
41
1
10
73.526168527314
20
4.428512315283
30
0
41
1
10
73.4730451991601
20
4.39241695358643
30
0
41
1
10
73.4671408739652
20
4.38837369078308
30
0
41
1
10
73.455328809103
20
4.38022117701883
30
0
41
1
10
73.4494712271681
20
4.37603992424309
30
0
41
1
10
73.4374146864162
20
4.36807873449112
30
0
41
1
10
73.4311877097287
20
4.36436870803337
30
0
41
1
10
73.4178104404122
20
4.35830861621608
30
0
41
1
10
73.4106358787315
20
4.35599638086561
30
0
41
1
10
73.3880769001399
20
4.3505581553047
30
0
41
1
10
73.3718254975196
20
4.34864834605256
30
0
41
1
10
73.3369948672457
20
4.34827123170948
30
0
41
1
10
73.3187794451264
20
4.34998384645888
30
0
41
1
10
73.281015447024
20
4.35666411564679
30
0
41
1
10
73.2614801368452
20
4.36159440047069
30
0
41
1
10
73.2210848731002
20
4.37486079624884
30
0
41
1
10
73.2006850511693
20
4.38304160624128
30
0
41
1
10
73.1698100728759
20
4.39817987881858
30
0
41
1
10
73.1594698121866
20
4.40372040602497
30
0
41
1
10
73.1387024024546
20
4.41580552158939
30
0
41
1
10
73.1282227701833
20
4.4223854502211
30
0
41
1
10
73.1074710270044
20
4.43642531124431
30
0
41
1
10
73.0972146585475
20
4.44386730029441
30
0
41
1
10
73.0769665224683
20
4.45966009072276
30
0
41
1
10
73.0669737184955
20
4.46800728195831
30
0
41
1
10
73.0473147592517
20
4.48580699651851
30
0
41
1
10
73.0376361042539
20
4.49528073157722
30
0
41
1
10
73.0194200033805
20
4.51507586519574
30
0
41
1
10
73.0108250954748
20
4.52547842636966
30
0
41
1
10
72.9987595807724
20
4.54189538170817
30
0
41
1
10
72.9948600436776
20
4.54751992545263
30
0
41
1
10
72.9873649009313
20
4.55890406232868
30
0
41
1
10
72.9837784695662
20
4.56465009682947
30
0
41
1
10
72.9732971780404
20
4.58198381081081
30
0
41
1
10
72.9666546870674
20
4.59365881142946
30
0
41
1
10
72.9532779332217
20
4.61699551142172
30
0
41
1
10
72.9464858898623
20
4.62863872038048
30
0
41
1
10
72.9328752854426
20
4.65193310472341
30
0
41
1
10
72.9124688588683
20
4.68690235758743
30
0
41
1
10
72.8920904329063
20
4.72195492496112
30
0
41
1
10
72.8242215643023
20
4.83898032487286
30
0
41
1
10
72.7701267207224
20
4.9331688283616
30
0
41
1
10
72.6625408224241
20
5.12209724655517
30
0
41
1
10
72.6090087863043
20
5.21690504688979
30
0
41
1
10
72.5290398831829
20
5.35959225358889
30
0
41
1
10
72.5024315244956
20
5.40723092772245
30
0
41
1
10
72.4626200585052
20
5.47881490402693
30
0
41
1
10
72.4493710996299
20
5.50269928571254
30
0
41
1
10
72.42294743895
20
5.55052763157141
30
0
41
1
10
72.4097922253008
20
5.57448017065005
30
0
41
1
10
72.396615705812
20
5.59843662693999
30
0
0
SPLINE
5
156
100
AcDbEntity
8
1
62
256
6
ByLayer
370
18
48
1
60
0
100
AcDbSpline
70
4
71
3
72
8
73
4
40
0
40
0
40
0
40
0
40
1
40
1
40
1
40
1
41
1
10
72.2148023283651
20
5.67059356988952
30
0
41
1
10
72.2754297727639
20
5.64748293580635
30
0
41
1
10
72.33602995744
20
5.62342867741413
30
0
41
1
10
72.396615705812
20
5.59843662693996
30
0
0
SPLINE
5
157
100
AcDbEntity
8
1
62
256
6
ByLayer
370
18
48
1
60
0
100
AcDbSpline
70
4
71
3
72
8
73
4
40
0
40
0
40
0
40
0
40
1
40
1
40
1
40
1
41
1
10
70.3756501704608
20
6.06994059268473
30
0
41
1
10
70.4361848914729
20
6.06695740549495
30
0
41
1
10
70.4966919008148
20
6.06295815776707
30
0
41
1
10
70.5571894229227
20
6.05794552003832
30
0
0
SPLINE
5
158
100
AcDbEntity
8
1
62
256
6
ByLayer
370
18
48
1
60
0
100
AcDbSpline
70
4
71
3
72
55
73
51
40
0
40
0
40
0
40
0
40
0.0278452739950139
40
0.0278452739950139
40
0.0625650856380496
40
0.0625650856380496
40
0.0972848972810852
40
0.0972848972810852
40
0.132004708924121
40
0.132004708924121
40
0.166724520567157
40
0.166724520567157
40
0.236164143853227
40
0.236164143853227
40
0.270883955496264
40
0.270883955496264
40
0.305603767139301
40
0.305603767139301
40
0.340323578782338
40
0.340323578782338
40
0.357683484603855
40
0.357683484603855
40
0.375043390425372
40
0.444483013711438
40
0.444483013711438
40
0.479202825354471
40
0.479202825354471
40
0.513922636997504
40
0.513922636997504
40
0.583362260283573
40
0.583362260283573
40
0.652801883569641
40
0.652801883569641
40
0.670161789391159
40
0.670161789391159
40
0.687521695212678
40
0.687521695212678
40
0.722241506855714
40
0.722241506855714
40
0.861120753427859
40
0.861120753427859
40
0.895840565070894
40
0.895840565070894
40
0.930560376713929
40
0.930560376713929
40
0.965280188356965
40
0.965280188356965
40
0.982640094178482
40
0.982640094178482
40
1
40
1
40
1
40
1
41
1
10
52.5550034139736
20
-4.34999964410474
30
0
41
1
10
52.4594817711532
20
-4.35000039898702
30
0
41
1
10
52.3637687660871
20
-4.34817588717212
30
0
41
1
10
52.1481551145255
20
-4.33991959205366
30
0
41
1
10
52.0288094063761
20
-4.3324871464776
30
0
41
1
10
51.790610701859
20
-4.31208150315564
30
0
41
1
10
51.6716967260707
20
-4.29911471224256
30
0
41
1
10
51.4341505130167
20
-4.26778241743446
30
0
41
1
10
51.315585593677
20
-4.24940251705198
30
0
41
1
10
51.0789088788391
20
-4.20722604809333
30
0
41
1
10
50.960763550414
20
-4.18343657522325
30
0
41
1
10
50.6065698906004
20
-4.1040806300754
30
0
41
1
10
50.3707867701651
20
-4.04051483140114
30
0
41
1
10
50.0163371721097
20
-3.92967097884994
30
0
41
1
10
49.8980521776492
20
-3.89014354441699
30
0
41
1
10
49.6609157248419
20
-3.80608196826287
30
0
41
1
10
49.5420167979966
20
-3.76158189646895
30
0
41
1
10
49.3035741510795
20
-3.66760319382249
30
0
41
1
10
49.1841073173102
20
-3.618067852515
30
0
41
1
10
49.0044212875522
20
-3.53994600549186
30
0
41
1
10
48.9445867587606
20
-3.51333121511973
30
0
41
1
10
48.825162218962
20
-3.45903766587668
30
0
41
1
10
48.5270953112347
20
-3.32059689808113
30
0
41
1
10
48.2311427287756
20
-3.16897296802145
30
0
41
1
10
47.8765694542263
20
-2.97590844237678
30
0
41
1
10
47.7584739859351
20
-2.90970135789675
30
0
41
1
10
47.5222223324312
20
-2.7738622726487
30
0
41
1
10
47.4039708198586
20
-2.70433150954
30
0
41
1
10
47.0493393900997
20
-2.49040993693808
30
0
41
1
10
46.8130653642179
20
-2.34068702713225
30
0
41
1
10
46.3390631961381
20
-2.02867849238868
30
0
41
1
10
46.1013543164693
20
-1.86636820599227
30
0
41
1
10
45.802126747927
20
-1.65681468162057
30
0
41
1
10
45.7422970343522
20
-1.61465572982493
30
0
41
1
10
45.6228451420625
20
-1.53002799034269
30
0
41
1
10
45.5631918681023
20
-1.48753447634129
30
0
41
1
10
45.3843804248499
20
-1.35960756241897
30
0
41
1
10
45.265321936663
20
-1.27379160864243
30
0
41
1
10
44.6716717127995
20
-0.840918392223898
30
0
41
1
10
44.2014172409629
20
-0.483217621694251
30
0
41
1
10
43.6103182778712
20
-0.0338803413920061
30
0
41
1
10
43.4919512975407
20
0.0561195766013896
30
0
41
1
10
43.2546027083353
20
0.235955448015773
30
0
41
1
10
43.1356046812787
20
0.325768190569505
30
0
41
1
10
42.8972742278176
20
0.505615286341481
30
0
41
1
10
42.7778908540686
20
0.595581331891452
30
0
41
1
10
42.5983075888283
20
0.730358409512831
30
0
41
1
10
42.5384671028769
20
0.775177077879619
30
0
41
1
10
42.4190509215475
20
0.864379676271625
30
0
41
1
10
42.3594363900611
20
0.908792765341445
30
0
41
1
10
42.2999026557809
20
0.953002674448641
30
0
0
SPLINE
5
159
100
AcDbEntity
8
1
62
256
6
ByLayer
370
18
48
1
60
0
100
AcDbSpline
70
4
71
3
72
42
73
38
40
0
40
0
40
0
40
0
40
0.0041300980052775
40
0.0041300980052775
40
0.0575104214012661
40
0.0575104214012661
40
0.110890744797255
40
0.110890744797255
40
0.164271068193243
40
0.164271068193243
40
0.217651391589232
40
0.217651391589232
40
0.27103171498522
40
0.27103171498522
40
0.377792361777197
40
0.377792361777197
40
0.431172685173186
40
0.431172685173186
40
0.484553008569174
40
0.484553008569174
40
0.537933331965163
40
0.537933331965163
40
0.591313655361151
40
0.591313655361151
40
0.64469397875714
40
0.64469397875714
40
0.698074302153128
40
0.698074302153128
40
0.804834948945105
40
0.804834948945105
40
0.858215272341094
40
0.858215272341094
40
0.911595595737082
40
0.911595595737082
40
0.964975919133071
40
0.964975919133071
40
1
40
1
40
1
40
1
41
1
10
42.3000044635884
20
0.952924284873063
30
0
41
1
10
42.2966184107394
20
0.954515781677458
30
0
41
1
10
42.2932042424625
20
0.956073866485838
30
0
41
1
10
42.2452691933879
20
0.977301829229191
30
0
41
1
10
42.1958888509133
20
0.991313712135707
30
0
41
1
10
42.0899695013554
20
1.00659304492191
30
0
41
1
10
42.0331101939385
20
1.00799708987682
30
0
41
1
10
41.9110944430001
20
0.997537827549593
30
0
41
1
10
41.8453235544888
20
0.985489534623269
30
0
41
1
10
41.7078270361357
20
0.947127160395468
30
0
41
1
10
41.6362373253258
20
0.921032670558958
30
0
41
1
10
41.4868539808527
20
0.853749435455427
30
0
41
1
10
41.4086143484613
20
0.81151262975024
30
0
41
1
10
41.1661681541892
20
0.66577814135502
30
0
41
1
10
41.0022853014915
20
0.550586187496435
30
0
41
1
10
40.7528856936613
20
0.349165182719787
30
0
41
1
10
40.6684605695679
20
0.276585155905451
30
0
41
1
10
40.502187758863
20
0.124344069536875
30
0
41
1
10
40.4204840495852
20
0.0449028250654635
30
0
41
1
10
40.2599787098705
20
-0.120706098822694
30
0
41
1
10
40.1811740575423
20
-0.206866774103474
30
0
41
1
10
40.0265953483871
20
-0.386212435375086
30
0
41
1
10
39.9506787895654
20
-0.47970073983717
30
0
41
1
10
39.8072638745065
20
-0.667278529243333
30
0
41
1
10
39.7390562912442
20
-0.762150571440912
30
0
41
1
10
39.6093489337768
20
-0.953970600861197
30
0
41
1
10
39.5474774951066
20
-1.05155691835958
30
0
41
1
10
39.3747217846777
20
-1.34249226647358
30
0
41
1
10
39.2773302079662
20
-1.5323574807158
30
0
41
1
10
39.1529248703018
20
-1.81216534033288
30
0
41
1
10
39.1155700453664
20
-1.90366040397353
30
0
41
1
10
39.0482040257791
20
-2.0821391104661
30
0
41
1
10
39.0203503870066
20
-2.16815598078421
30
0
41
1
10
38.9766738507305
20
-2.33353911396873
30
0
41
1
10
38.9605039962969
20
-2.41338297437122
30
0
41
1
10
38.942643523399
20
-2.53966861723831
30
0
41
1
10
38.9379428336084
20
-2.58756456955771
30
0
41
1
10
38.9353831524241
20
-2.63353525602716
30
0
0
SPLINE
5
15A
100
AcDbEntity
8
1
62
256
6
ByLayer
370
18
48
1
60
0
100
AcDbSpline
70
4
71
3
72
60
73
56
40
0
40
0
40
0
40
0
40
0.0215926752756042
40
0.0215926752756042
40
0.0431853505512084
40
0.0431853505512084
40
0.0863707011024139
40
0.0863707011024139
40
0.107963376378018
40
0.107963376378018
40
0.129556051653622
40
0.129556051653622
40
0.172741402204828
40
0.172741402204828
40
0.215926752756034
40
0.215926752756034
40
0.259112103307239
40
0.259112103307239
40
0.345482804409654
40
0.345482804409654
40
0.431853505512068
40
0.431853505512068
40
0.453446180787671
40
0.453446180787671
40
0.475038856063275
40
0.475038856063275
40
0.518224206614482
40
0.518224206614482
40
0.604594907716899
40
0.604594907716899
40
0.647780258268108
40
0.647780258268108
40
0.66937293354371
40
0.66937293354371
40
0.690965608819313
40
0.690965608819313
40
0.734150959370519
40
0.734150959370519
40
0.777336309921725
40
0.777336309921725
40
0.798928985197328
40
0.798928985197328
40
0.82052166047293
40
0.82052166047293
40
0.863707011024134
40
0.863707011024134
40
0.885299686299735
40
0.885299686299735
40
0.906892361575337
40
0.906892361575337
40
0.950077712126542
40
0.950077712126542
40
0.993263062677748
40
0.993263062677748
40
1
40
1
40
1
40
1
41
1
10
38.9354105174584
20
-2.63354899631204
30
0
41
1
10
39.0037657355228
20
-2.67499276771363
30
0
41
1
10
39.0719981109575
20
-2.71594622847309
30
0
41
1
10
39.2083659589976
20
-2.79670881187539
30
0
41
1
10
39.2765654979555
20
-2.83645207267068
30
0
41
1
10
39.4815098643244
20
-2.95348841997213
30
0
41
1
10
39.6184795175279
20
-3.02871722994502
30
0
41
1
10
39.8242540779936
20
-3.13759947222454
30
0
41
1
10
39.8929059023899
20
-3.17322567233734
30
0
41
1
10
40.0303310091191
20
-3.24314115389919
30
0
41
1
10
40.0991453060412
20
-3.2774505153165
30
0
41
1
10
40.305479869138
20
-3.37823928516062
30
0
41
1
10
40.4425264529064
20
-3.44240069890645
30
0
41
1
10
40.7156815485343
20
-3.56468139591129
30
0
41
1
10
40.8517831466505
20
-3.62280653930392
30
0
41
1
10
41.1230797023345
20
-3.73298853400936
30
0
41
1
10
41.2582053654379
20
-3.78507478051901
30
0
41
1
10
41.6642010070454
20
-3.93092306440425
30
0
41
1
10
41.9352930112488
20
-4.01465351617657
30
0
41
1
10
42.4785433384346
20
-4.15538854262499
30
0
41
1
10
42.7506682784645
20
-4.21239873344572
30
0
41
1
10
43.0918904421395
20
-4.26615981772147
30
0
41
1
10
43.1601778435583
20
-4.27603674448909
30
0
41
1
10
43.2968634773486
20
-4.29400126026607
30
0
41
1
10
43.3653616739444
20
-4.30209005104405
30
0
41
1
10
43.5706592904102
20
-4.32346471387132
30
0
41
1
10
43.7073546055759
20
-4.33389951552371
30
0
41
1
10
44.1166068790729
20
-4.35417441719156
30
0
41
1
10
44.3885741532462
20
-4.35298436274397
30
0
41
1
10
44.795666600834
20
-4.32968352541133
30
0
41
1
10
44.9312080093285
20
-4.31832096671775
30
0
41
1
10
45.1342349626548
20
-4.29582417324028
30
0
41
1
10
45.2018641466096
20
-4.28741541165508
30
0
41
1
10
45.3370439860684
20
-4.26876261877928
30
0
41
1
10
45.4045696444404
20
-4.25851030080412
30
0
41
1
10
45.6073970867854
20
-4.22507731259165
30
0
41
1
10
45.7430848595849
20
-4.19927562973203
30
0
41
1
10
46.0152132376805
20
-4.14063296053072
30
0
41
1
10
46.1516916921775
20
-4.10780242925969
30
0
41
1
10
46.3570944196325
20
-4.05327932004019
30
0
41
1
10
46.4256754437409
20
-4.03422448820908
30
0
41
1
10
46.5630663926298
20
-3.99433834880477
30
0
41
1
10
46.6319143644292
20
-3.97349244057014
30
0
41
1
10
46.8378215965124
20
-3.90857389997925
30
0
41
1
10
46.9745628752941
20
-3.86204292479999
30
0
41
1
10
47.1789609567558
20
-3.78745726966841
30
0
41
1
10
47.2469750922074
20
-3.7617971695928
30
0
41
1
10
47.3827521440367
20
-3.70886987070597
30
0
41
1
10
47.4504850164995
20
-3.6815804384253
30
0
41
1
10
47.6535295548053
20
-3.59745414689084
30
0
41
1
10
47.7890262108051
20
-3.53861798657997
30
0
41
1
10
48.0600644009719
20
-3.41540441905232
30
0
41
1
10
48.1956417638748
20
-3.35105201545912
30
0
41
1
10
48.3524802609359
20
-3.27355065778735
30
0
41
1
10
48.373647708761
20
-3.26302652173075
30
0
41
1
10
48.394817425283
20
-3.25243682557559
30
0
0
SPLINE
5
15B
100
AcDbEntity
8
1
62
256
6
ByLayer
370
18
48
1
60
0
100
AcDbSpline
70
4
71
3
72
22
73
18
40
0
40
0
40
0
40
0
40
0.123063517660175
40
0.123063517660175
40
0.196141557855156
40
0.196141557855156
40
0.269219598050137
40
0.269219598050137
40
0.415375678440108
40
0.415375678440108
40
0.561531758830078
40
0.561531758830078
40
0.634609799025064
40
0.634609799025064
40
0.707687839220049
40
0.707687839220049
40
1
40
1
40
1
40
1
41
1
10
62.272723394328
20
4.35000014523891
30
0
41
1
10
62.3874414623654
20
4.34998899681142
30
0
41
1
10
62.5025597808157
20
4.34735860371063
30
0
41
1
10
62.6867142029984
20
4.3389809935874
30
0
41
1
10
62.7555375547811
20
4.33492736033949
30
0
41
1
10
62.8929653847561
20
4.32499571041163
30
0
41
1
10
62.9616103684679
20
4.31911721936771
30
0
41
1
10
63.167352657085
20
4.29876739127158
30
0
41
1
10
63.3042629597964
20
4.28158611744823
30
0
41
1
10
63.5775978486577
20
4.24003906577684
30
0
41
1
10
63.7140219792818
20
4.21567471679714
30
0
41
1
10
63.9182251902759
20
4.17366313393333
30
0
41
1
10
63.9862087324076
20
4.15874190876019
30
0
41
1
10
64.1221406488861
20
4.12710032155857
30
0
41
1
10
64.1900838061047
20
4.11037684721029
30
0
41
1
10
64.530343122732
20
4.02253663423485
30
0
41
1
10
64.8042719635878
20
3.93887268803274
30
0
41
1
10
65.0794453172334
20
3.841563596507
30
0
0
SPLINE
5
15C
100
AcDbEntity
8
1
62
256
6
ByLayer
370
18
48
1
60
0
100
AcDbSpline
70
4
71
3
72
26
73
22
40
0
40
0
40
0
40
0
40
0.125000000000009
40
0.125000000000009
40
0.250000000000018
40
0.250000000000018
40
0.375000000000027
40
0.375000000000027
40
0.500000000000036
40
0.500000000000036
40
0.56250000000004
40
0.56250000000004
40
0.625000000000044
40
0.625000000000044
40
0.750000000000035
40
0.750000000000035
40
0.875000000000025
40
0.875000000000025
40
0.937500000000013
40
0.937500000000013
40
1
40
1
40
1
40
1
41
1
10
65.0794453172315
20
3.84156359650768
30
0
41
1
10
65.1339713730561
20
3.82228163883812
30
0
41
1
10
65.1880577157293
20
3.80536127778834
30
0
41
1
10
65.2951683479078
20
3.77593284102025
30
0
41
1
10
65.3481933145823
20
3.76342376541496
30
0
41
1
10
65.4530533960866
20
3.74272404956534
30
0
41
1
10
65.5048890923422
20
3.73453126494476
30
0
41
1
10
65.6072772730351
20
3.72263286330062
30
0
41
1
10
65.657830258138
20
3.71892278551553
30
0
41
1
10
65.7326410084738
20
3.71711652604449
30
0
41
1
10
65.7574628625777
20
3.71714623698017
30
0
41
1
10
65.806477769085
20
3.71856965088614
30
0
41
1
10
65.8306339168915
20
3.71995891337346
30
0
41
1
10
65.9020311957405
20
3.72629491790849
30
0
41
1
10
65.94820450749
20
3.73338454068932
30
0
41
1
10
66.0375359561534
20
3.75450756363421
30
0
41
1
10
66.0806994590543
20
3.7685262800548
30
0
41
1
10
66.1429278555624
20
3.79637736716049
30
0
41
1
10
66.1631162764091
20
3.8067480003044
30
0
41
1
10
66.2021203485585
20
3.82985896561584
30
0
41
1
10
66.2209949815341
20
3.84272276887174
30
0
41
1
10
66.2390936068363
20
3.85658465296444
30
0
0
SPLINE
5
15D
100
AcDbEntity
8
1
62
256
6
ByLayer
370
18
48
1
60
0
100
AcDbSpline
70
4
71
3
72
31
73
27
40
0
40
0
40
0
40
0
40
0.0625000000000002
40
0.0625000000000002
40
0.125
40
0.125
40
0.187500000000001
40
0.187500000000001
40
0.218750000000001
40
0.218750000000001
40
0.250000000000001
40
0.250000000000001
40
0.281250000000001
40
0.281250000000001
40
0.312500000000001
40
0.312500000000001
40
0.343750000000001
40
0.343750000000001
40
0.375000000000002
40
0.375000000000002
40
0.406250000000002
40
0.406250000000002
40
0.437500000000002
40
0.500000000000001
40
0.500000000000001
40
1
40
1
40
1
40
1
41
1
10
66.239093606836
20
3.85658465296481
30
0
41
1
10
66.2546526991355
20
3.84674921032664
30
0
41
1
10
66.2706104171435
20
3.83790577372619
30
0
41
1
10
66.3021907670464
20
3.82267712454467
30
0
41
1
10
66.317919559716
20
3.81621247887301
30
0
41
1
10
66.3492184847213
20
3.80568230273846
30
0
41
1
10
66.3647898555984
20
3.80160306951129
30
0
41
1
10
66.3879733601731
20
3.79777574402371
30
0
41
1
10
66.3957056577023
20
3.79689872515846
30
0
41
1
10
66.4107932291231
20
3.79607352789506
30
0
41
1
10
66.4181790866743
20
3.79610239331677
30
0
41
1
10
66.4326373773094
20
3.79702115505339
30
0
41
1
10
66.4397105790876
20
3.79790888340096
30
0
41
1
10
66.4535149671161
20
3.80061502970955
30
0
41
1
10
66.460315382197
20
3.80242441622602
30
0
41
1
10
66.4730125032876
20
3.80733412263652
30
0
41
1
10
66.4788732246425
20
3.81050014540563
30
0
41
1
10
66.4898440035082
20
3.81791593138837
30
0
41
1
10
66.4949853728838
20
3.82211872017578
30
0
41
1
10
66.5050940191102
20
3.83074193340147
30
0
41
1
10
66.5101091993681
20
3.83509020088266
30
0
41
1
10
66.5201684717554
20
3.84369913767662
30
0
41
1
10
66.5352535092154
20
3.85655235640115
30
0
41
1
10
66.5503264415464
20
3.8692271136151
30
0
41
1
10
66.6407109430394
20
3.944573462308
30
0
41
1
10
66.7205963384233
20
4.00663293384901
30
0
41
1
10
66.7999713600638
20
4.06393365950439
30
0
0
SPLINE
5
15E
100
AcDbEntity
8
1
62
256
6
ByLayer
370
18
48
1
60
0
100
AcDbSpline
70
4
71
3
72
8
73
4
40
0
40
0
40
0
40
0
40
1
40
1
40
1
40
1
41
1
10
66.7999713600651
20
4.06393365950194
30
0
41
1
10
66.8954912315415
20
4.132889331412
30
0
41
1
10
66.990209755634
20
4.19479926289657
30
0
41
1
10
67.0841362704434
20
4.24978707735028
30
0
0
SPLINE
5
15F
100
AcDbEntity
8
1
62
256
6
ByLayer
370
18
48
1
60
0
100
AcDbSpline
70
4
71
3
72
8
73
4
40
0
40
0
40
0
40
0
40
1
40
1
40
1
40
1
41
1
10
67.2658148702648
20
4.11043523714329
30
0
41
1
10
67.2052462179944
20
4.15757349423214
30
0
41
1
10
67.1446894662486
20
4.20402623208417
30
0
41
1
10
67.0841362704434
20
4.24978707735031
30
0
0
SPLINE
5
160
100
AcDbEntity
8
1
62
256
6
ByLayer
370
18
48
1
60
0
100
AcDbSpline
70
4
71
3
72
8
73
4
40
0
40
0
40
0
40
0
40
1
40
1
40
1
40
1
41
1
10
69.1053812737698
20
2.48803718834904
30
0
41
1
10
69.0447554375401
20
2.54650916899013
30
0
41
1
10
68.9841756338248
20
2.60455961093862
30
0
41
1
10
68.9236357748069
20
2.66218304260545
30
0
0
SPLINE
5
161
100
AcDbEntity
8
1
62
256
6
ByLayer
370
18
48
1
60
0
100
AcDbSpline
70
4
71
3
72
8
73
4
40
0
40
0
40
0
40
0
40
1
40
1
40
1
40
1
41
1
10
70.4785819953176
20
0.949602925043394
30
0
41
1
10
70.5741049803465
20
0.908401488792009
30
0
41
1
10
70.668824976105
20
0.859574342761704
30
0
41
1
10
70.7627616372378
20
0.803579119004951
30
0
0
SPLINE
5
162
100
AcDbEntity
8
1
62
256
6
ByLayer
370
18
48
1
60
0
100
AcDbSpline
70
4
71
3
72
8
73
4
40
0
40
0
40
0
40
0
40
1
40
1
40
1
40
1
41
1
10
70.9449422661802
20
0.611659624887665
30
0
41
1
10
70.8841584880215
20
0.675733448738242
30
0
41
1
10
70.8234335107091
20
0.739708476776343
30
0
41
1
10
70.7627616372377
20
0.803579119005008
30
0
0
SPLINE
5
163
100
AcDbEntity
8
1
62
256
6
ByLayer
370
18
48
1
60
0
100
AcDbSpline
70
4
71
3
72
63
73
59
40
0
40
0
40
0
40
0
40
0.031249999999994
40
0.031249999999994
40
0.062499999999988
40
0.062499999999988
40
0.124999999999975
40
0.124999999999975
40
0.24999999999995
40
0.24999999999995
40
0.374999999999925
40
0.374999999999925
40
0.437499999999908
40
0.4687499999999
40
0.484374999999899
40
0.484374999999899
40
0.499999999999898
40
0.499999999999898
40
0.515624999999897
40
0.515624999999897
40
0.531249999999897
40
0.531249999999897
40
0.546874999999896
40
0.546874999999896
40
0.562499999999895
40
0.562499999999895
40
0.570312499999895
40
0.570312499999895
40
0.578124999999894
40
0.578124999999894
40
0.593749999999904
40
0.593749999999904
40
0.624999999999922
40
0.624999999999922
40
0.640624999999931
40
0.640624999999931
40
0.65624999999994
40
0.65624999999994
40
0.687499999999947
40
0.687499999999947
40
0.703124999999951
40
0.703124999999951
40
0.718749999999954
40
0.718749999999954
40
0.734374999999957
40
0.734374999999957
40
0.749999999999961
40
0.749999999999961
40
0.757812499999963
40
0.757812499999963
40
0.765624999999965
40
0.765624999999965
40
0.781249999999969
40
0.781249999999969
40
0.812499999999977
40
0.874999999999987
40
0.874999999999987
40
1
40
1
40
1
40
1
41
1
10
70.9449422661802
20
0.611659624887665
30
0
41
1
10
70.9568278806273
20
0.594410015027393
30
0
41
1
10
70.9687010622003
20
0.57727995681941
30
0
41
1
10
70.9925348638814
20
0.543177407724556
30
0
41
1
10
71.0044842922978
20
0.526213082414387
30
0
41
1
10
71.0403911701799
20
0.475619474912747
30
0
41
1
10
71.0643995841649
20
0.442293163397466
30
0
41
1
10
71.1365441244417
20
0.343607777289179
30
0
41
1
10
71.184835612134
20
0.279514563123968
30
0
41
1
10
71.2818766566086
20
0.154766003111348
30
0
41
1
10
71.3306372061382
20
0.0940992951005342
30
0
41
1
10
71.4040596266294
20
0.0058567528539584
30
0
41
1
10
71.4408481645625
20
-0.0375842117120726
30
0
41
1
10
71.4839158233864
20
-0.0870687867048616
30
0
41
1
10
71.502406403864
20
-0.108019260578942
30
0
41
1
10
71.5147409559068
20
-0.121928960873845
30
0
41
1
10
71.5208970632891
20
-0.128844325619042
30
0
41
1
10
71.5330625867219
20
-0.142506913770376
30
0
41
1
10
71.5391126842293
20
-0.149283631239257
30
0
41
1
10
71.551560147513
20
-0.163024582348726
30
0
41
1
10
71.5579785678794
20
-0.170003925030585
30
0
41
1
10
71.5717498435081
20
-0.184569667012966
30
0
41
1
10
71.5790919101719
20
-0.192148224770108
30
0
41
1
10
71.5948327575302
20
-0.207998585146015
30
0
41
1
10
71.6032293750377
20
-0.216268625176667
30
0
41
1
10
71.6165226695801
20
-0.229126690529171
30
0
41
1
10
71.6210600201892
20
-0.233478760163621
30
0
41
1
10
71.630212454106
20
-0.242193060089704
30
0
41
1
10
71.6348439116666
20
-0.2465711368759
30
0
41
1
10
71.6488894319309
20
-0.259762841792963
30
0
41
1
10
71.6584534588439
20
-0.268633319064378
30
0
41
1
10
71.6876934592293
20
-0.295462475162509
30
0
41
1
10
71.7079053466034
20
-0.313631207789342
30
0
41
1
10
71.7393808165296
20
-0.341431408177073
30
0
41
1
10
71.7499898826178
20
-0.35072004570435
30
0
41
1
10
71.7712238137168
20
-0.369167069856786
30
0
41
1
10
71.7818798739831
20
-0.378355028040403
30
0
41
1
10
71.8139441665092
20
-0.405835392340293
30
0
41
1
10
71.8354462833547
20
-0.424046026466357
30
0
41
1
10
71.8678479724349
20
-0.451251993097543
30
0
41
1
10
71.8785926266761
20
-0.460233410169195
30
0
41
1
10
71.8996765418762
20
-0.477783919164977
30
0
41
1
10
71.9100521107818
20
-0.486382646691709
30
0
41
1
10
71.9304028275872
20
-0.503172590507063
30
0
41
1
10
71.9404106153212
20
-0.511393555091502
30
0
41
1
10
71.9599108233192
20
-0.527356354836485
30
0
41
1
10
71.9692629826191
20
-0.53498630793402
30
0
41
1
10
71.9825317226632
20
-0.545755433386802
30
0
41
1
10
71.9868125065459
20
-0.549217396145764
30
0
41
1
10
71.9950214235413
20
-0.555820875975257
30
0
41
1
10
71.9989443230441
20
-0.558957305067054
30
0
41
1
10
72.0103129057162
20
-0.568012305084892
30
0
41
1
10
72.0173282151175
20
-0.573552893935926
30
0
41
1
10
72.0384310347311
20
-0.590375498890239
30
0
41
1
10
72.080605910492
20
-0.62452130761514
30
0
41
1
10
72.1226772847722
20
-0.660134093941792
30
0
41
1
10
72.2066480241579
20
-0.733256099492905
30
0
41
1
10
72.2623828337239
20
-0.784525237893661
30
0
41
1
10
72.3178489670196
20
-0.838192541617843
30
0
0
SPLINE
5
164
100
AcDbEntity
8
1
62
256
6
ByLayer
370
18
48
1
60
0
100
AcDbSpline
70
4
71
3
72
10
73
6
40
0
40
0
40
0
40
0
40
0.5
40
0.5
40
1
40
1
40
1
40
1
41
1
10
72.3178489670195
20
-0.838192541617559
30
0
41
1
10
72.3657245464946
20
-0.884515461785242
30
0
41
1
10
72.4133970616112
20
-0.932619900635473
30
0
41
1
10
72.5082951542636
20
-1.03220666081
30
0
41
1
10
72.555516813068
20
-1.08368076136625
30
0
41
1
10
72.6025514743195
20
-1.13672176592846
30
0
0
SPLINE
5
165
100
AcDbEntity
8
1
62
256
6
ByLayer
370
18
48
1
60
0
100
AcDbSpline
70
4
71
3
72
8
73
4
40
0
40
0
40
0
40
0
40
1
40
1
40
1
40
1
41
1
10
72.7845562377604
20
-1.32634509746703
30
0
41
1
10
72.7238217582834
20
-1.26337268313725
30
0
41
1
10
72.663156971497
20
-1.20016184473323
30
0
41
1
10
72.6025514743194
20
-1.13672176592837
30
0
0
SPLINE
5
166
100
AcDbEntity
8
1
62
256
6
ByLayer
370
18
48
1
60
0
100
AcDbSpline
70
4
71
3
72
62
73
58
40
0
40
0
40
0
40
0
40
0.0312500000000093
40
0.0312500000000093
40
0.0625000000000185
40
0.0625000000000185
40
0.125000000000037
40
0.125000000000037
40
0.250000000000067
40
0.250000000000067
40
0.375000000000098
40
0.375000000000098
40
0.43750000000011
40
0.468750000000113
40
0.468750000000113
40
0.484375000000114
40
0.484375000000114
40
0.500000000000116
40
0.515625000000117
40
0.515625000000117
40
0.531250000000119
40
0.531250000000119
40
0.562500000000121
40
0.562500000000121
40
0.578125000000117
40
0.578125000000117
40
0.593750000000114
40
0.593750000000114
40
0.625000000000096
40
0.625000000000096
40
0.640625000000087
40
0.640625000000087
40
0.656250000000078
40
0.656250000000078
40
0.68750000000006
40
0.68750000000006
40
0.695312500000059
40
0.695312500000059
40
0.703125000000057
40
0.703125000000057
40
0.718750000000054
40
0.718750000000054
40
0.734375000000052
40
0.734375000000052
40
0.742187500000056
40
0.742187500000056
40
0.750000000000059
40
0.750000000000059
40
0.765625000000059
40
0.765625000000059
40
0.773437500000059
40
0.773437500000059
40
0.781250000000058
40
0.81250000000005
40
0.875000000000033
40
0.875000000000033
40
1
40
1
40
1
40
1
41
1
10
72.7845562377605
20
-1.32634509746686
30
0
41
1
10
72.7966946005319
20
-1.33732058232005
30
0
41
1
10
72.8088208005328
20
-1.34813673209467
30
0
41
1
10
72.8331625256888
20
-1.3695784870817
30
0
41
1
10
72.845365988025
20
-1.38019019936502
30
0
41
1
10
72.8820441871718
20
-1.41166055357542
30
0
41
1
10
72.9065749233127
20
-1.43214105402413
30
0
41
1
10
72.9803188723781
20
-1.49196422570864
30
0
41
1
10
73.0296865788694
20
-1.52970152741727
30
0
41
1
10
73.1288378937849
20
-1.60080158173613
30
0
41
1
10
73.1786525499574
20
-1.63418515771036
30
0
41
1
10
73.2536644271302
20
-1.68090249305996
30
0
41
1
10
73.2912431421209
20
-1.70342257783102
30
0
41
1
10
73.3289418534477
20
-1.72468188752791
30
0
41
1
10
73.3478123521254
20
-1.73510124580363
30
0
41
1
10
73.3541310506388
20
-1.73856563683916
30
0
41
1
10
73.3666094717113
20
-1.74524916924685
30
0
41
1
10
73.3789145364524
20
-1.75167277610387
30
0
41
1
10
73.3916409729769
20
-1.75838650073197
30
0
41
1
10
73.4052198780276
20
-1.76591713415942
30
0
41
1
10
73.4124965976172
20
-1.77013417778895
30
0
41
1
10
73.4355466082337
20
-1.78414342500179
30
0
41
1
10
73.4525409083135
20
-1.79528686060601
30
0
41
1
10
73.4796335016665
20
-1.81374020212579
30
0
41
1
10
73.4889342639244
20
-1.82018488427758
30
0
41
1
10
73.5080347898143
20
-1.83362322594542
30
0
41
1
10
73.5177881894412
20
-1.84058521632542
30
0
41
1
10
73.5473622648709
20
-1.86199977662011
30
0
41
1
10
73.5675978511221
20
-1.87704134470553
30
0
41
1
10
73.598799444758
20
-1.90102503114855
30
0
41
1
10
73.6093948482358
20
-1.90930297489569
30
0
41
1
10
73.6305448523487
20
-1.92609517232549
30
0
41
1
10
73.641105045922
20
-1.93461209217526
30
0
41
1
10
73.6727282325762
20
-1.96052894970271
30
0
41
1
10
73.69373625222
20
-1.97828222277607
30
0
41
1
10
73.7198376125969
20
-2.00123126840325
30
0
41
1
10
73.7250497561616
20
-2.00585999488041
30
0
41
1
10
73.73545502818
20
-2.01520491029694
30
0
41
1
10
73.7406647209322
20
-2.01993646380313
30
0
41
1
10
73.7560837239376
20
-2.03411972971375
30
0
41
1
10
73.7661006359351
20
-2.04358085778765
30
0
41
1
10
73.7856182014667
20
-2.06252571386719
30
0
41
1
10
73.7951229346086
20
-2.07200944810265
30
0
41
1
10
73.8089525810804
20
-2.08625881966452
30
0
41
1
10
73.8134889135053
20
-2.0910091050626
30
0
41
1
10
73.8222193927918
20
-2.1003491188732
30
0
41
1
10
73.8264222503307
20
-2.10495270053119
30
0
41
1
10
73.83845223125
20
-2.11852353257075
30
0
41
1
10
73.8456714568039
20
-2.12723759478544
30
0
41
1
10
73.8560617752267
20
-2.14015575599353
30
0
41
1
10
73.8594584517691
20
-2.14443916546682
30
0
41
1
10
73.8662681477309
20
-2.15302885295617
30
0
41
1
10
73.8832891321607
20
-2.17454130790674
30
0
41
1
10
73.9275029344599
20
-2.23096629411052
30
0
41
1
10
73.9682145231252
20
-2.28412227856819
30
0
41
1
10
74.0494720370069
20
-2.39182432139989
30
0
41
1
10
74.1034252311892
20
-2.46548789024698
30
0
41
1
10
74.1571268250481
20
-2.54087864967701
30
0
0
SPLINE
5
167
100
AcDbEntity
8
1
62
256
6
ByLayer
370
18
48
1
60
0
100
AcDbSpline
70
4
71
3
72
10
73
6
40
0
40
0
40
0
40
0
40
0.5
40
0.5
40
1
40
1
40
1
40
1
41
1
10
74.157126825048
20
-2.54087864967605
30
0
41
1
10
74.2050118473201
20
-2.60810362262376
30
0
41
1
10
74.2526961884352
20
-2.67670067063358
30
0
41
1
10
74.3476122720058
20
-2.81644753191082
30
0
41
1
10
74.3948406266946
20
-2.88759127645491
30
0
41
1
10
74.4418637664213
20
-2.95998715803017
30
0
0
SPLINE
5
168
100
AcDbEntity
8
1
62
256
6
ByLayer
370
18
48
1
60
0
100
AcDbSpline
70
4
71
3
72
8
73
4
40
0
40
0
40
0
40
0
40
1
40
1
40
1
40
1
41
1
10
74.6238992093089
20
-3.12813850173373
30
0
41
1
10
74.5632073566002
20
-3.07258774647593
30
0
41
1
10
74.5025751287943
20
-3.01649889088455
30
0
41
1
10
74.4418637664213
20
-2.9599871580302
30
0
0
SPLINE
5
169
100
AcDbEntity
8
1
62
256
6
ByLayer
370
18
48
1
60
0
100
AcDbSpline
70
4
71
3
72
58
73
54
40
0
40
0
40
0
40
0
40
0.0312500000000018
40
0.0312500000000018
40
0.0625000000000036
40
0.0625000000000036
40
0.125000000000007
40
0.125000000000007
40
0.250000000000014
40
0.250000000000014
40
0.37500000000002
40
0.37500000000002
40
0.437500000000026
40
0.468750000000029
40
0.468750000000029
40
0.484375000000031
40
0.484375000000031
40
0.500000000000033
40
0.500000000000033
40
0.531250000000037
40
0.531250000000037
40
0.546875000000039
40
0.546875000000039
40
0.562500000000041
40
0.562500000000041
40
0.593750000000035
40
0.593750000000035
40
0.609375000000037
40
0.609375000000037
40
0.62500000000004
40
0.62500000000004
40
0.656250000000033
40
0.656250000000033
40
0.67187500000003
40
0.67187500000003
40
0.687500000000027
40
0.687500000000027
40
0.71875000000002
40
0.71875000000002
40
0.734375000000011
40
0.734375000000011
40
0.750000000000002
40
0.750000000000002
40
0.757812499999997
40
0.757812499999997
40
0.765624999999993
40
0.765624999999993
40
0.781249999999991
40
0.781249999999991
40
0.812499999999988
40
0.874999999999989
40
0.874999999999989
40
1
40
1
40
1
40
1
41
1
10
74.6238992093083
20
-3.12813850172714
30
0
41
1
10
74.6358275516241
20
-3.13132594047994
30
0
41
1
10
74.6477444681971
20
-3.13434257035959
30
0
41
1
10
74.6716671330751
20
-3.14018659007448
30
0
41
1
10
74.6836611554905
20
-3.14299748408297
30
0
41
1
10
74.7197025059341
20
-3.15105106071419
30
0
41
1
10
74.7438014252162
20
-3.15590006763065
30
0
41
1
10
74.8162236749329
20
-3.1687433417722
30
0
41
1
10
74.8647080047192
20
-3.17508320746032
30
0
41
1
10
74.9621513425604
20
-3.18330701203655
30
0
41
1
10
75.0111175447813
20
-3.18519146137962
30
0
41
1
10
75.0848496685678
20
-3.1846566066497
30
0
41
1
10
75.1217947104281
20
-3.18354957106982
30
0
41
1
10
75.1588701191836
20
-3.18118021658444
30
0
41
1
10
75.1774305709044
20
-3.17978480126135
30
0
41
1
10
75.1836214510214
20
-3.1792848928026
30
0
41
1
10
75.1960098536923
20
-3.17821333173859
30
0
41
1
10
75.2021568777273
20
-3.17757625995176
30
0
41
1
10
75.22047126178
20
-3.17538178399502
30
0
41
1
10
75.2325918460552
20
-3.17364710298512
30
0
41
1
10
75.2537748102274
20
-3.17466829531523
30
0
41
1
10
75.2613199652665
20
-3.17559124369637
30
0
41
1
10
75.2774819569883
20
-3.17873276758809
30
0
41
1
10
75.2861558616115
20
-3.18096814819319
30
0
41
1
10
75.3128313043505
20
-3.18907549681947
30
0
41
1
10
75.3315753365947
20
-3.19625197854216
30
0
41
1
10
75.3608089663261
20
-3.20911557098026
30
0
41
1
10
75.3707470838599
20
-3.21376843875549
30
0
41
1
10
75.3910181012099
20
-3.22384238350296
30
0
41
1
10
75.401393413767
20
-3.22928873326222
30
0
41
1
10
75.4326199165978
20
-3.24662462217506
30
0
41
1
10
75.4536951204609
20
-3.25961695449325
30
0
41
1
10
75.4856115291793
20
-3.28118289246936
30
0
41
1
10
75.4963007896613
20
-3.28871605681528
30
0
41
1
10
75.5177739084133
20
-3.30450890040993
30
0
41
1
10
75.5285995161225
20
-3.31280379307995
30
0
41
1
10
75.560609896838
20
-3.33843022802429
30
0
41
1
10
75.5814943288468
20
-3.35658115109837
30
0
41
1
10
75.6118166185253
20
-3.38608238938221
30
0
41
1
10
75.6218100910671
20
-3.39633829228242
30
0
41
1
10
75.6409425326542
20
-3.41708391226876
30
0
41
1
10
75.6501613460551
20
-3.42761379755098
30
0
41
1
10
75.6632550655417
20
-3.44373826222355
30
0
41
1
10
75.6674826195523
20
-3.44917427911474
30
0
41
1
10
75.6756074581468
20
-3.46019326437565
30
0
41
1
10
75.6795157582833
20
-3.4657949134137
30
0
41
1
10
75.6907597736598
20
-3.48254665757281
30
0
41
1
10
75.6976690385403
20
-3.49369711680723
30
0
41
1
10
75.718656833912
20
-3.5272271888816
30
0
41
1
10
75.760602979672
20
-3.59453212704116
30
0
41
1
10
75.8024497692221
20
-3.66255851806679
30
0
41
1
10
75.8859774244454
20
-3.79955541136624
30
0
41
1
10
75.9414163434014
20
-3.89211940148749
30
0
41
1
10
75.9966001116283
20
-3.98578548083779
30
0
0
SPLINE
5
16A
100
AcDbEntity
8
1
62
256
6
ByLayer
370
18
48
1
60
0
100
AcDbSpline
70
4
71
3
72
9
73
5
40
0
40
0
40
0
40
0
40
0.5
40
1
40
1
40
1
40
1
41
1
10
75.9966001116299
20
-3.98578548084026
30
0
41
1
10
76.0445196615859
20
-4.06712165110977
30
0
41
1
10
76.1399641970385
20
-4.23143835536897
30
0
41
1
10
76.2345121003056
20
-4.39859044440098
30
0
41
1
10
76.2815875380992
20
-4.48285524323532
30
0
0
SPLINE
5
16B
100
AcDbEntity
8
1
62
256
6
ByLayer
370
18
48
1
60
0
100
AcDbSpline
70
4
71
3
72
8
73
4
40
0
40
0
40
0
40
0
40
1
40
1
40
1
40
1
41
1
10
76.4631861457577
20
-4.61069384395608
30
0
41
1
10
76.4026813738111
20
-4.56880386666609
30
0
41
1
10
76.3421448419437
20
-4.52619193561435
30
0
41
1
10
76.2815875380992
20
-4.48285524323529
30
0
0
SPLINE
5
16C
100
AcDbEntity
8
1
62
256
6
ByLayer
370
18
48
1
60
0
100
AcDbSpline
70
4
71
3
72
61
73
57
40
0
40
0
40
0
40
0
40
0.0312499999999966
40
0.0312499999999966
40
0.0624999999999931
40
0.0624999999999931
40
0.124999999999993
40
0.124999999999993
40
0.25
40
0.25
40
0.375000000000007
40
0.375000000000007
40
0.437500000000014
40
0.468750000000014
40
0.468750000000014
40
0.500000000000014
40
0.500000000000014
40
0.515625000000017
40
0.515625000000017
40
0.531250000000021
40
0.531250000000021
40
0.546875000000025
40
0.546875000000025
40
0.562500000000028
40
0.562500000000028
40
0.570312500000026
40
0.570312500000026
40
0.578125000000023
40
0.593750000000028
40
0.593750000000028
40
0.625000000000026
40
0.625000000000026
40
0.640625000000025
40
0.640625000000025
40
0.656250000000024
40
0.656250000000024
40
0.687500000000022
40
0.687500000000022
40
0.703125000000021
40
0.703125000000021
40
0.71875000000002
40
0.71875000000002
40
0.734375000000019
40
0.734375000000019
40
0.750000000000018
40
0.750000000000018
40
0.757812500000018
40
0.757812500000018
40
0.765625000000018
40
0.765625000000018
40
0.781250000000018
40
0.781250000000018
40
0.812500000000018
40
0.875000000000012
40
0.875000000000012
40
1
40
1
40
1
40
1
41
1
10
76.4631861457578
20
-4.61069384395608
30
0
41
1
10
76.475077404059
20
-4.6058825786339
30
0
41
1
10
76.486955075497
20
-4.60090864969749
30
0
41
1
10
76.5107938986773
20
-4.5908080021276
30
0
41
1
10
76.52274374112
20
-4.58566316656584
30
0
41
1
10
76.5586459416696
20
-4.56990448977518
30
0
41
1
10
76.5826431473912
20
-4.55894835848846
30
0
41
1
10
76.6547446801067
20
-4.5245170580703
30
0
41
1
10
76.7029990305435
20
-4.49951565728625
30
0
41
1
10
76.7999929178637
20
-4.44524671277586
30
0
41
1
10
76.8487394901004
20
-4.41598866816449
30
0
41
1
10
76.9221583758051
20
-4.36899131811342
30
0
41
1
10
76.9589496638957
20
-4.34471132492357
30
0
41
1
10
76.9958756006662
20
-4.31925847358721
30
0
41
1
10
77.0205241487344
20
-4.30202908793791
30
0
41
1
10
77.0329395506611
20
-4.29338971431452
30
0
41
1
10
77.0511962923453
20
-4.27968703142255
30
0
41
1
10
77.0572508895777
20
-4.27503815288014
30
0
41
1
10
77.0697138974605
20
-4.26616089931653
30
0
41
1
10
77.0761441597466
20
-4.26196314030005
30
0
41
1
10
77.0899428826698
20
-4.25480416970325
30
0
41
1
10
77.09730021447
20
-4.25182727286355
30
0
41
1
10
77.1130703261336
20
-4.24727150120103
30
0
41
1
10
77.1214808118355
20
-4.24568916676415
30
0
41
1
10
77.1347914894836
20
-4.24422917596058
30
0
41
1
10
77.1393445925098
20
-4.2438928121166
30
0
41
1
10
77.148525582647
20
-4.24349856827024
30
0
41
1
10
77.1624612216015
20
-4.24332034876167
30
0
41
1
10
77.1768421652497
20
-4.2442624196508
30
0
41
1
10
77.2061449806276
20
-4.24752757342543
30
0
41
1
10
77.2263897051425
20
-4.25150944630062
30
0
41
1
10
77.257898056366
20
-4.26058199682811
30
0
41
1
10
77.2685370939836
20
-4.2641294579395
30
0
41
1
10
77.2898066457971
20
-4.27222377072769
30
0
41
1
10
77.300476544584
20
-4.27676664969448
30
0
41
1
10
77.3325710800807
20
-4.29181478466245
30
0
41
1
10
77.3540787320703
20
-4.30369643259024
30
0
41
1
10
77.3864632290255
20
-4.32469709569003
30
0
41
1
10
77.3972204656373
20
-4.33220481882998
30
0
41
1
10
77.4183029852084
20
-4.34814189660554
30
0
41
1
10
77.4286718275748
20
-4.3566087947504
30
0
41
1
10
77.4489980411532
20
-4.37471382125682
30
0
41
1
10
77.4589802046949
20
-4.38434362922254
30
0
41
1
10
77.4784549470574
20
-4.40471010986394
30
0
41
1
10
77.4877905977969
20
-4.41524195250105
30
0
41
1
10
77.5010143161466
20
-4.4317167745277
30
0
41
1
10
77.5052762626065
20
-4.43733521462951
30
0
41
1
10
77.5134435571996
20
-4.44888217978948
30
0
41
1
10
77.5173446781406
20
-4.45481440085018
30
0
41
1
10
77.5286556603099
20
-4.47295149338868
30
0
41
1
10
77.5356525842443
20
-4.48546175322926
30
0
41
1
10
77.5567307981711
20
-4.5227674338239
30
0
41
1
10
77.5988570149129
20
-4.5974572449191
30
0
41
1
10
77.6408817685605
20
-4.67238320858925
30
0
41
1
10
77.7247624415999
20
-4.82255910770652
30
0
41
1
10
77.780453319623
20
-4.9231224058143
30
0
41
1
10
77.8358737790367
20
-5.02394107579391
30
0
0
SPLINE
5
16D
100
AcDbEntity
8
1
62
256
6
ByLayer
370
18
48
1
60
0
100
AcDbSpline
70
4
71
3
72
10
73
6
40
0
40
0
40
0
40
0
40
0.5
40
0.5
40
1
40
1
40
1
40
1
41
1
10
77.8358737790367
20
-5.02394107579391
30
0
41
1
10
77.8837147996316
20
-5.11097153562548
30
0
41
1
10
77.9313599420622
20
-5.19820121356426
30
0
41
1
10
78.0262065167717
20
-5.3728366958604
30
0
41
1
10
78.0734089968244
20
-5.46024348050312
30
0
41
1
10
78.1204173789711
20
-5.54772532469283
30
0
0
SPLINE
5
16E
100
AcDbEntity
8
1
62
256
6
ByLayer
370
18
48
1
60
0
100
AcDbSpline
70
4
71
3
72
8
73
4
40
0
40
0
40
0
40
0
40
1
40
1
40
1
40
1
41
1
10
78.3020816823818
20
-5.62342112338561
30
0
41
1
10
78.2415352084434
20
-5.59910650430047
30
0
41
1
10
78.1809832859949
20
-5.57387227110567
30
0
41
1
10
78.1204173789711
20
-5.54772532469281
30
0
0
SPLINE
5
16F
100
AcDbEntity
8
1
62
256
6
ByLayer
370
18
48
1
60
0
100
AcDbSpline
70
4
71
3
72
57
73
53
40
0
40
0
40
0
40
0
40
0.0312500000000028
40
0.0312500000000028
40
0.0625000000000056
40
0.0625000000000056
40
0.125000000000011
40
0.125000000000011
40
0.25000000000003
40
0.25000000000003
40
0.375000000000049
40
0.375000000000049
40
0.437500000000058
40
0.468750000000066
40
0.468750000000066
40
0.484375000000067
40
0.484375000000067
40
0.500000000000068
40
0.500000000000068
40
0.515625000000068
40
0.515625000000068
40
0.531250000000069
40
0.531250000000069
40
0.56250000000007
40
0.56250000000007
40
0.593750000000072
40
0.593750000000072
40
0.625000000000073
40
0.625000000000073
40
0.640625000000073
40
0.640625000000073
40
0.656250000000074
40
0.656250000000074
40
0.687500000000075
40
0.687500000000075
40
0.703125000000076
40
0.703125000000076
40
0.718750000000076
40
0.718750000000076
40
0.734375000000077
40
0.734375000000077
40
0.750000000000078
40
0.750000000000078
40
0.765625000000078
40
0.765625000000078
40
0.773437500000078
40
0.773437500000078
40
0.781250000000078
40
0.81250000000007
40
0.875000000000047
40
0.875000000000047
40
1
40
1
40
1
40
1
41
1
10
78.3020816823813
20
-5.62342112337279
30
0
41
1
10
78.3142574209383
20
-5.61087953997497
30
0
41
1
10
78.3264186623409
20
-5.59818370698449
30
0
41
1
10
78.3508286696691
20
-5.57266507883341
30
0
41
1
10
78.3630653360731
20
-5.55982280230776
30
0
41
1
10
78.3998400010382
20
-5.5209979453299
30
0
41
1
10
78.4244308394234
20
-5.49469920741075
30
0
41
1
10
78.4983405297839
20
-5.41440431942686
30
0
41
1
10
78.5478029590548
20
-5.35909348546994
30
0
41
1
10
78.6471079205208
20
-5.244976961969
30
0
41
1
10
78.6969736782743
20
-5.1861564191708
30
0
41
1
10
78.7720848818559
20
-5.09524849694037
30
0
41
1
10
78.8097194941591
20
-5.04912446072188
30
0
41
1
10
78.847485016477
20
-5.00199381805365
30
0
41
1
10
78.8663906304987
20
-4.9782605919707
30
0
41
1
10
78.8727209006046
20
-4.97035379129071
30
0
41
1
10
78.8852113530867
20
-4.95425072445349
30
0
41
1
10
78.8913759765568
20
-4.94606053786023
30
0
41
1
10
78.9039351414518
20
-4.92991657053037
30
0
41
1
10
78.9103323060266
20
-4.92196627601143
30
0
41
1
10
78.9240076342753
20
-4.90715304063448
30
0
41
1
10
78.9313368984584
20
-4.90027238485843
30
0
41
1
10
78.9544941156023
20
-4.88210599602968
30
0
41
1
10
78.9715543212569
20
-4.87317907207438
30
0
41
1
10
79.0077937192569
20
-4.85942514022233
30
0
41
1
10
79.0270999284801
20
-4.85458387763467
30
0
41
1
10
79.0665561381814
20
-4.84895312393917
30
0
41
1
10
79.086807232281
20
-4.848117834737
30
0
41
1
10
79.1180434471859
20
-4.85040185079194
30
0
41
1
10
79.1286404569688
20
-4.85177275354556
30
0
41
1
10
79.14973776199
20
-4.85561345795765
30
0
41
1
10
79.1602742126575
20
-4.8580817890541
30
0
41
1
10
79.1918336350288
20
-4.86708498910684
30
0
41
1
10
79.2128089916092
20
-4.87516361149707
30
0
41
1
10
79.2440965746188
20
-4.89101620709528
30
0
41
1
10
79.2545641567961
20
-4.89697959210076
30
0
41
1
10
79.2750191251688
20
-4.91025851217967
30
0
41
1
10
79.2849908354437
20
-4.91758021779853
30
0
41
1
10
79.3044311219011
20
-4.93354138866138
30
0
41
1
10
79.3139032625034
20
-4.9421712340675
30
0
41
1
10
79.3322855588659
20
-4.96088876327502
30
0
41
1
10
79.3410448059024
20
-4.97079897416776
30
0
41
1
10
79.3569720441151
20
-4.99226053365527
30
0
41
1
10
79.3641545217585
20
-5.00383811201829
30
0
41
1
10
79.3745150989533
20
-5.02163847887493
30
0
41
1
10
79.3779071747787
20
-5.0276360083586
30
0
41
1
10
79.3847097761591
20
-5.03960417051439
30
0
41
1
10
79.4017131973017
20
-5.06951481882567
30
0
41
1
10
79.4458816849073
20
-5.14715807488307
30
0
41
1
10
79.4865527244138
20
-5.21856656077216
30
0
41
1
10
79.5677317135535
20
-5.36106693441675
30
0
41
1
10
79.6216345026533
20
-5.45566246142067
30
0
41
1
10
79.675292894376
20
-5.54970680418089
30
0
0
SPLINE
5
170
100
AcDbEntity
8
1
62
256
6
ByLayer
370
18
48
1
60
0
100
AcDbSpline
70
4
71
3
72
61
73
57
40
0
40
0
40
0
40
0
40
0.0312499999999865
40
0.0312499999999865
40
0.0624999999999731
40
0.0624999999999731
40
0.124999999999945
40
0.124999999999945
40
0.249999999999889
40
0.249999999999889
40
0.374999999999834
40
0.374999999999834
40
0.437499999999802
40
0.468749999999783
40
0.484374999999777
40
0.484374999999777
40
0.499999999999771
40
0.499999999999771
40
0.515624999999765
40
0.515624999999765
40
0.531249999999759
40
0.531249999999759
40
0.546874999999753
40
0.546874999999753
40
0.562499999999747
40
0.562499999999747
40
0.578124999999741
40
0.578124999999741
40
0.593749999999735
40
0.593749999999735
40
0.624999999999722
40
0.624999999999722
40
0.640624999999722
40
0.640624999999722
40
0.656249999999721
40
0.656249999999721
40
0.68749999999972
40
0.68749999999972
40
0.703124999999719
40
0.703124999999719
40
0.718749999999718
40
0.718749999999718
40
0.734374999999717
40
0.734374999999717
40
0.749999999999715
40
0.749999999999715
40
0.75781249999972
40
0.75781249999972
40
0.765624999999724
40
0.765624999999724
40
0.781249999999741
40
0.781249999999741
40
0.812499999999774
40
0.874999999999846
40
0.874999999999846
40
1
40
1
40
1
40
1
41
1
10
67.2658148702648
20
4.11043523714329
30
0
41
1
10
67.2777192118229
20
4.08588227160328
30
0
41
1
10
67.2896097563353
20
4.06135017388132
30
0
41
1
10
67.3134773347882
20
4.01235497081899
30
0
41
1
10
67.3254431965528
20
3.98788872144317
30
0
41
1
10
67.3613982131617
20
3.91459993525797
30
0
41
1
10
67.3854370358676
20
3.86587915733315
30
0
41
1
10
67.4576663910849
20
3.7201202238447
30
0
41
1
10
67.5060061437113
20
3.62349164482262
30
0
41
1
10
67.6031270817461
20
3.43136283610221
30
0
41
1
10
67.6519187773423
20
3.33584404781814
30
0
41
1
10
67.7253785033375
20
3.19367815156957
30
0
41
1
10
67.7621833021824
20
3.12285967038875
30
0
41
1
10
67.8052663587709
20
3.04070905332017
30
0
41
1
10
67.8237628475131
20
3.00560350565917
30
0
41
1
10
67.8361011840704
20
2.98222254992439
30
0
41
1
10
67.8422594784463
20
2.97054143376704
30
0
41
1
10
67.8544287872474
20
2.94718018447296
30
0
41
1
10
67.8604804871481
20
2.93550570191607
30
0
41
1
10
67.8729294725698
20
2.91222699657084
30
0
41
1
10
67.8793476248659
20
2.90062572481739
30
0
41
1
10
67.8931163494521
20
2.87757696436174
30
0
41
1
10
67.9004562194624
20
2.86612800578501
30
0
41
1
10
67.9161911506733
20
2.84340159614715
30
0
41
1
10
67.9245840621058
20
2.83212390694786
30
0
41
1
10
67.942300154659
20
2.80972196120874
30
0
41
1
10
67.9514631113003
20
2.79878135997066
30
0
41
1
10
67.9701375614686
20
2.77749114500546
30
0
41
1
10
67.979676502846
20
2.7671112782611
30
0
41
1
10
68.0088453697863
20
2.73670062078344
30
0
41
1
10
68.0290151898308
20
2.71738185385368
30
0
41
1
10
68.0604377150126
20
2.68997222512363
30
0
41
1
10
68.0710070297399
20
2.68120033363681
30
0
41
1
10
68.0921890716261
20
2.66452269974337
30
0
41
1
10
68.1028225945452
20
2.65658556661049
30
0
41
1
10
68.1348289314327
20
2.63390404984364
30
0
41
1
10
68.1563050026697
20
2.62025633472126
30
0
41
1
10
68.1886885628307
20
2.60222377069638
30
0
41
1
10
68.1994123528698
20
2.59668570123546
30
0
41
1
10
68.2204809885871
20
2.58677462354535
30
0
41
1
10
68.2308549825626
20
2.58239082100417
30
0
41
1
10
68.2512139577359
20
2.57497767850808
30
0
41
1
10
68.2612351851716
20
2.57191283720883
30
0
41
1
10
68.2807550070748
20
2.56715828910447
30
0
41
1
10
68.2901213637783
20
2.56547197609632
30
0
41
1
10
68.3034340667148
20
2.56424144103573
30
0
41
1
10
68.3077339841584
20
2.56407554157377
30
0
41
1
10
68.3159862824652
20
2.56436585655365
30
0
41
1
10
68.3199325352519
20
2.5648335097826
30
0
41
1
10
68.3313621191326
20
2.56695793233811
30
0
41
1
10
68.3383990186945
20
2.56932118489695
30
0
41
1
10
68.3595255537253
20
2.57605409960755
30
0
41
1
10
68.4017485517188
20
2.58897449891356
30
0
41
1
10
68.4438734162212
20
2.60033127228522
30
0
41
1
10
68.5279590273259
20
2.62105675034957
30
0
41
1
10
68.5837803503946
20
2.63223449317678
30
0
41
1
10
68.6393482772225
20
2.64080718196723
30
0
0
SPLINE
5
171
100
AcDbEntity
8
1
62
256
6
ByLayer
370
18
48
1
60
0
100
AcDbSpline
70
4
71
3
72
30
73
26
40
0
40
0
40
0
40
0
40
0.125
40
0.125
40
0.187499999999999
40
0.187499999999999
40
0.218749999999999
40
0.218749999999999
40
0.249999999999999
40
0.249999999999999
40
0.374999999999999
40
0.374999999999999
40
0.499999999999999
40
0.499999999999999
40
0.562499999999999
40
0.562499999999999
40
0.59375
40
0.59375
40
0.625
40
0.625
40
0.75
40
0.75
40
0.875
40
0.875
40
1
40
1
40
1
40
1
41
1
10
67.4910950933973
20
-0.403422372739072
30
0
41
1
10
67.4818475539293
20
-0.199871213324315
30
0
41
1
10
67.4726653729174
20
0.0044658407644533
30
0
41
1
10
67.4587452435828
20
0.31216073986468
30
0
41
1
10
67.4540835101954
20
0.414924426855635
30
0
41
1
10
67.4470441491695
20
0.56937369640039
30
0
41
1
10
67.4446911915483
20
0.620879582307367
30
0
41
1
10
67.4399950166233
20
0.723403407575745
30
0
41
1
10
67.4376484999798
20
0.774493867316465
30
0
41
1
10
67.4259203137363
20
1.02909775157747
30
0
41
1
10
67.4165500426593
20
1.23007247665629
30
0
41
1
10
67.3977827268476
20
1.62672408647049
30
0
41
1
10
67.3883877111271
20
1.82240086555936
30
0
41
1
10
67.3742480361211
20
2.11190936306207
30
0
41
1
10
67.3695268564592
20
2.20774316142072
30
0
41
1
10
67.3624264493799
20
2.35047430626537
30
0
41
1
10
67.3600565091227
20
2.39788134356721
30
0
41
1
10
67.3553087541746
20
2.49235165775542
30
0
41
1
10
67.3529275468207
20
2.53948142687858
30
0
41
1
10
67.3410523496197
20
2.77316938503546
30
0
41
1
10
67.3316354655538
20
2.95412315119663
30
0
41
1
10
67.312841339626
20
3.30442331945605
30
0
41
1
10
67.303465546883
20
3.47376873737187
30
0
41
1
10
67.2846802216942
20
3.8008739751817
30
0
41
1
10
67.2752719743437
20
3.95863462537247
30
0
41
1
10
67.2658148702648
20
4.11043523714326
30
0
0
SPLINE
5
172
100
AcDbEntity
8
1
62
256
6
ByLayer
370
18
48
1
60
0
100
AcDbSpline
70
4
71
3
72
63
73
59
40
0
40
0
40
0
40
0
40
0.124999999999959
40
0.124999999999959
40
0.249999999999918
40
0.249999999999918
40
0.265624999999915
40
0.265624999999915
40
0.281249999999911
40
0.281249999999911
40
0.296874999999907
40
0.296874999999907
40
0.312499999999904
40
0.312499999999904
40
0.3281249999999
40
0.3281249999999
40
0.343749999999896
40
0.343749999999896
40
0.374999999999899
40
0.374999999999899
40
0.406249999999902
40
0.406249999999902
40
0.437499999999904
40
0.437499999999904
40
0.453124999999906
40
0.453124999999906
40
0.468749999999907
40
0.468749999999907
40
0.484374999999908
40
0.484374999999908
40
0.499999999999909
40
0.499999999999909
40
0.50781249999991
40
0.50781249999991
40
0.515624999999911
40
0.515624999999911
40
0.531249999999912
40
0.531249999999912
40
0.539062499999913
40
0.539062499999913
40
0.546874999999913
40
0.546874999999913
40
0.562499999999915
40
0.562499999999915
40
0.578124999999916
40
0.578124999999916
40
0.593749999999917
40
0.62499999999992
40
0.62499999999992
40
0.749999999999947
40
0.749999999999947
40
0.874999999999974
40
0.874999999999974
40
0.937499999999991
40
0.937499999999991
40
0.968749999999996
40
0.968749999999996
40
1
40
1
40
1
40
1
41
1
10
68.855543104191
20
-1.57815194772749
30
0
41
1
10
68.8088901630639
20
-1.49538230856606
30
0
41
1
10
68.7621222215336
20
-1.41387116942477
30
0
41
1
10
68.6682879048635
20
-1.25341064761778
30
0
41
1
10
68.6212158537116
20
-1.17445667837745
30
0
41
1
10
68.5681159782935
20
-1.08713544594099
30
0
41
1
10
68.5622139609966
20
-1.07745407015102
30
0
41
1
10
68.5504059049417
20
-1.05813369600432
30
0
41
1
10
68.5445474399643
20
-1.04850375870021
30
0
41
1
10
68.5325124027734
20
-1.0292141660066
30
0
41
1
10
68.5262995832804
20
-1.01955866402685
30
0
41
1
10
68.5129516103773
20
-1.0001435259193
30
0
41
1
10
68.5057878318537
20
-0.990379418754969
30
0
41
1
10
68.4907526402856
20
-0.970779972370053
30
0
41
1
10
68.4829169074649
20
-0.960950238122791
30
0
41
1
10
68.4666668726416
20
-0.94123807295037
30
0
41
1
10
68.4582320273078
20
-0.931335193124426
30
0
41
1
10
68.4321001158033
20
-0.901660169047915
30
0
41
1
10
68.4138666252721
20
-0.882312618852751
30
0
41
1
10
68.3760396359659
20
-0.844332047540519
30
0
41
1
10
68.3564453519651
20
-0.825679130198381
30
0
41
1
10
68.3159649845904
20
-0.789108225172669
30
0
41
1
10
68.295527571509
20
-0.771591995377293
30
0
41
1
10
68.2645799754104
20
-0.746647295631931
30
0
41
1
10
68.2542141706583
20
-0.738561063505813
30
0
41
1
10
68.2333934641779
20
-0.722836423991623
30
0
41
1
10
68.2228845387147
20
-0.71516006939018
30
0
41
1
10
68.202107576735
20
-0.700498498222288
30
0
41
1
10
68.1918389738617
20
-0.69350868402006
30
0
41
1
10
68.1715673408047
20
-0.6802472940158
30
0
41
1
10
68.1615632365595
20
-0.673972809638144
30
0
41
1
10
68.146802915823
20
-0.665209883791334
30
0
41
1
10
68.141904902192
20
-0.662387735128306
30
0
41
1
10
68.1323327487555
20
-0.657072506197892
30
0
41
1
10
68.1276552857607
20
-0.654577140731391
30
0
41
1
10
68.1140001652015
20
-0.647655895611166
30
0
41
1
10
68.1054116117122
20
-0.643813387454543
30
0
41
1
10
68.0933550500861
20
-0.639280397537647
30
0
41
1
10
68.0894576636734
20
-0.637966173041519
30
0
41
1
10
68.0819740952661
20
-0.635708958828502
30
0
41
1
10
68.0783920531836
20
-0.634767015163476
30
0
41
1
10
68.0679183701891
20
-0.632245296067339
30
0
41
1
10
68.0612741084967
20
-0.630938711979042
30
0
41
1
10
68.0478870531512
20
-0.628112184905234
30
0
41
1
10
68.0410864968011
20
-0.626519856954673
30
0
41
1
10
68.0274678626291
20
-0.62322117257591
30
0
41
1
10
68.0070498069718
20
-0.618147635210846
30
0
41
1
10
67.9866609189151
20
-0.612695651979124
30
0
41
1
10
67.9187592511804
20
-0.593687758758847
30
0
41
1
10
67.8646451476572
20
-0.575811683929658
30
0
41
1
10
67.7570339508479
20
-0.535005873833995
30
0
41
1
10
67.70349528392
20
-0.512065127775145
30
0
41
1
10
67.6235209568039
20
-0.47395677040052
30
0
41
1
10
67.5969113299213
20
-0.460627665110422
30
0
41
1
10
67.5570992848181
20
-0.43975586952476
30
0
41
1
10
67.5438503692981
20
-0.432658559387335
30
0
41
1
10
67.5174271966754
20
-0.418229516927113
30
0
41
1
10
67.5042724384359
20
-0.410924253461587
30
0
41
1
10
67.4910950933973
20
-0.403422372739072
30
0
0
SPLINE
5
173
100
AcDbEntity
8
1
62
256
6
ByLayer
370
18
48
1
60
0
100
AcDbSpline
70
4
71
3
72
8
73
4
40
0
40
0
40
0
40
0
40
1
40
1
40
1
40
1
41
1
10
68.6393482772224
20
2.64080718196743
30
0
41
1
10
68.734909917224
20
2.65554986262518
30
0
41
1
10
68.8296694468557
20
2.66257921999807
30
0
41
1
10
68.9236357748069
20
2.66218304260539
30
0
0
SPLINE
5
174
100
AcDbEntity
8
1
62
256
6
ByLayer
370
13
48
1
60
0
100
AcDbSpline
70
4
71
3
72
10
73
6
40
0
40
0
40
0
40
0
40
0.365166880672547
40
0.956745219514353
40
1
40
1
40
1
40
1
41
1
10
68.855543104191
20
-1.57815194772749
30
0
41
1
10
68.8269084022789
20
-1.02598338008877
30
0
41
1
10
68.7541264286637
20
0.444881029532951
30
0
41
1
10
68.6847704184818
20
1.82908999751044
30
0
41
1
10
68.6422394575476
20
2.58955090304929
30
0
41
1
10
68.6393482772225
20
2.64080718196703
30
0
0
SPLINE
5
175
100
AcDbEntity
8
1
62
256
6
ByLayer
370
18
48
1
60
0
100
AcDbSpline
70
4
71
3
72
8
73
4
40
0
40
0
40
0
40
0
40
1
40
1
40
1
40
1
41
1
10
69.1487268709372
20
-2.11707158713867
30
0
41
1
10
69.0516894608396
20
-1.93265086114781
30
0
41
1
10
68.9539713553001
20
-1.75277911229119
30
0
41
1
10
68.855543104191
20
-1.57815194772755
30
0
0
SPLINE
5
176
100
AcDbEntity
8
1
62
256
6
ByLayer
370
18
48
1
60
0
100
AcDbSpline
70
4
71
3
72
31
73
27
40
0
40
0
40
0
40
0
40
0.125
40
0.125
40
0.156249999999999
40
0.156249999999999
40
0.187499999999999
40
0.249999999999999
40
0.249999999999999
40
0.374999999999999
40
0.374999999999999
40
0.499999999999998
40
0.499999999999998
40
0.562499999999998
40
0.562499999999998
40
0.624999999999998
40
0.624999999999998
40
0.749999999999999
40
0.749999999999999
40
0.874999999999999
40
0.874999999999999
40
0.9375
40
0.9375
40
0.96875
40
0.96875
40
1
40
1
40
1
40
1
41
1
10
68.9236357748069
20
2.66218304260545
30
0
41
1
10
68.932957256545
20
2.47868101957346
30
0
41
1
10
68.9422718302003
20
2.29020333507822
30
0
41
1
10
68.9540020897847
20
2.04819309307427
30
0
41
1
10
68.9563559474401
20
1.9994004408567
30
0
41
1
10
68.9610530014249
20
1.9016342974754
30
0
41
1
10
68.9680857207496
20
1.75465064850448
30
0
41
1
10
68.9750928443994
20
1.60667620883467
30
0
41
1
10
68.9891047521319
20
1.30942933905808
30
0
41
1
10
68.9984450770087
20
1.1095374299212
30
0
41
1
10
69.0172537358772
20
0.706338793753957
30
0
41
1
10
69.0267233592652
20
0.503032231202297
30
0
41
1
10
69.0410595684441
20
0.195459592168561
30
0
41
1
10
69.0458613614824
20
0.0924718615607389
30
0
41
1
10
69.0554935379715
20
-0.11428603461917
30
0
41
1
10
69.0602825484519
20
-0.217214194726239
30
0
41
1
10
69.0745518395292
20
-0.524676361299186
30
0
41
1
10
69.0839290345566
20
-0.727891627160261
30
0
41
1
10
69.1024925063344
20
-1.13086976347833
30
0
41
1
10
69.1116811846481
20
-1.33063241941386
30
0
41
1
10
69.1254947613402
20
-1.62765212937728
30
0
41
1
10
69.1301052994218
20
-1.72622046468217
30
0
41
1
10
69.1370580630015
20
-1.87340331455437
30
0
41
1
10
69.1393818481087
20
-1.92235259876816
30
0
41
1
10
69.144046862462
20
-2.02002507684151
30
0
41
1
10
69.1463880076683
20
-2.06874514148942
30
0
41
1
10
69.1487268709471
20
-2.11707158714646
30
0
0
SPLINE
5
177
100
AcDbEntity
8
1
62
256
6
ByLayer
370
18
48
1
60
0
100
AcDbSpline
70
4
71
3
72
56
73
52
40
0
40
0
40
0
40
0
40
0.0312499999999912
40
0.0312499999999912
40
0.0624999999999825
40
0.0624999999999825
40
0.124999999999958
40
0.124999999999958
40
0.249999999999909
40
0.249999999999909
40
0.37499999999986
40
0.37499999999986
40
0.437499999999835
40
0.468749999999826
40
0.468749999999826
40
0.499999999999817
40
0.499999999999817
40
0.515624999999813
40
0.515624999999813
40
0.531249999999808
40
0.531249999999808
40
0.546874999999804
40
0.546874999999804
40
0.562499999999799
40
0.562499999999799
40
0.578124999999795
40
0.578124999999795
40
0.59374999999979
40
0.59374999999979
40
0.624999999999781
40
0.624999999999781
40
0.656249999999773
40
0.656249999999773
40
0.687499999999764
40
0.687499999999764
40
0.718749999999755
40
0.718749999999755
40
0.734374999999751
40
0.734374999999751
40
0.749999999999747
40
0.749999999999747
40
0.75781249999975
40
0.75781249999975
40
0.765624999999753
40
0.765624999999753
40
0.781249999999766
40
0.781249999999766
40
0.8124999999998
40
0.874999999999867
40
0.874999999999867
40
1
40
1
40
1
40
1
41
1
10
69.1053812737698
20
2.48803718834904
30
0
41
1
10
69.1172793388382
20
2.46600965803239
30
0
41
1
10
69.1291642704544
20
2.44405624599099
30
0
41
1
10
69.1530214098424
20
2.40026861382748
30
0
41
1
10
69.1649823986752
20
2.37843709059311
30
0
41
1
10
69.2009238150978
20
2.31315792378834
30
0
41
1
10
69.2249549956785
20
2.26992319691041
30
0
41
1
10
69.2971660684908
20
2.1411112850902
30
0
41
1
10
69.3454997761705
20
2.05641495671583
30
0
41
1
10
69.4426194553212
20
1.88941829842952
30
0
41
1
10
69.4914159166721
20
1.80710295910478
30
0
41
1
10
69.5648902827263
20
1.68566529337397
30
0
41
1
10
69.6017043466002
20
1.62544327563055
30
0
41
1
10
69.6386447972903
20
1.56597361984092
30
0
41
1
10
69.663301113461
20
1.52649526869607
30
0
41
1
10
69.6757192475708
20
1.50681726877926
30
0
41
1
10
69.6939779025008
20
1.47754622202888
30
0
41
1
10
69.7000331308729
20
1.46782068934033
30
0
41
1
10
69.7124983642518
20
1.44830556342643
30
0
41
1
10
69.7189302655766
20
1.43850932073474
30
0
41
1
10
69.7327344730891
20
1.4186760644715
30
0
41
1
10
69.7400956630903
20
1.40864249476036
30
0
41
1
10
69.7558769921829
20
1.38829949794169
30
0
41
1
10
69.7642948798336
20
1.37799089955382
30
0
41
1
10
69.78206088791
20
1.35713611077628
30
0
41
1
10
69.7912342525659
20
1.34678317146108
30
0
41
1
10
69.8099415930087
20
1.32631949524111
30
0
41
1
10
69.8194968414146
20
1.31618656805665
30
0
41
1
10
69.8487153353101
20
1.28605524104827
30
0
41
1
10
69.8689190967922
20
1.2663194469109
30
0
41
1
10
69.9108903799523
20
1.22756126308866
30
0
41
1
10
69.9321309300716
20
1.20909218967847
30
0
41
1
10
69.9748352752706
20
1.173922942692
30
0
41
1
10
69.9963245288365
20
1.15716690416031
30
0
41
1
10
70.0395273534943
20
1.12544066639936
30
0
41
1
10
70.0606702025734
20
1.11088714826354
30
0
41
1
10
70.091169489877
20
1.09183375379189
30
0
41
1
10
70.1011871382531
20
1.08590242658991
30
0
41
1
10
70.1206510173628
20
1.07504714350134
30
0
41
1
10
70.1299912394644
20
1.07016298470552
30
0
41
1
10
70.1432519438499
20
1.06388369803827
30
0
41
1
10
70.1475319228876
20
1.06198804278947
30
0
41
1
10
70.1557429746924
20
1.05869243567349
30
0
41
1
10
70.1596687749899
20
1.05730037829829
30
0
41
1
10
70.1710488250204
20
1.05367748131582
30
0
41
1
10
70.1780639522395
20
1.05200995361847
30
0
41
1
10
70.1991688872125
20
1.04668330313331
30
0
41
1
10
70.2413470237667
20
1.03547243282429
30
0
41
1
10
70.2834186580295
20
1.02262923729552
30
0
41
1
10
70.3673862143693
20
0.994841580310151
30
0
41
1
10
70.4231134291856
20
0.97352789546531
30
0
41
1
10
70.4785819953176
20
0.949602925043223
30
0
0
SPLINE
5
178
100
AcDbEntity
8
1
62
256
6
ByLayer
370
18
48
1
60
0
100
AcDbSpline
70
4
71
3
72
32
73
28
40
0
40
0
40
0
40
0
40
0.03125
40
0.03125
40
0.0624999999999999
40
0.125
40
0.125
40
0.249999999999999
40
0.374999999999999
40
0.374999999999999
40
0.406249999999999
40
0.406249999999999
40
0.437499999999999
40
0.437499999999999
40
0.499999999999999
40
0.499999999999999
40
0.625
40
0.625
40
0.75
40
0.75
40
0.8125
40
0.8125
40
0.84375
40
0.84375
40
0.875
40
0.875
40
1
40
1
40
1
40
1
41
1
10
69.3312935694936
20
-2.29752699779982
30
0
41
1
10
69.3288955976769
20
-2.24971840840723
30
0
41
1
10
69.3264882884958
20
-2.2015564355741
30
0
41
1
10
69.3216863468811
20
-2.10509316673196
30
0
41
1
10
69.3144918798326
20
-1.95998227028704
30
0
41
1
10
69.3073341417167
20
-1.81363710038437
30
0
41
1
10
69.2930828269151
20
-1.51932561978825
30
0
41
1
10
69.2742616640773
20
-1.12259476840487
30
0
41
1
10
69.2557228810263
20
-0.717303140296423
30
0
41
1
10
69.2441056563151
20
-0.461264382256331
30
0
41
1
10
69.2417803173837
20
-0.409919740249507
30
0
41
1
10
69.2371213808455
20
-0.306953964631361
30
0
41
1
10
69.2347844321787
20
-0.255258706193672
30
0
41
1
10
69.2277818776161
20
-0.100379815878028
30
0
41
1
10
69.2231275494889
20
0.0025337541496242
30
0
41
1
10
69.2091393991768
20
0.310275262064181
30
0
41
1
10
69.1997475094807
20
0.514104991175998
30
0
41
1
10
69.1808842836939
20
0.919152416893127
30
0
41
1
10
69.1714226792348
20
1.12037051843487
30
0
41
1
10
69.1572074095635
20
1.42021592359941
30
0
41
1
10
69.1524644969899
20
1.51983344913702
30
0
41
1
10
69.1453399890046
20
1.6687542527645
30
0
41
1
10
69.1429634199353
20
1.71831022881847
30
0
41
1
10
69.1382057218969
20
1.81725152964268
30
0
41
1
10
69.1358328081508
20
1.86646583478748
30
0
41
1
10
69.1240097135071
20
2.1109476538027
30
0
41
1
10
69.1146697841986
20
2.30179574462136
30
0
41
1
10
69.1053812737698
20
2.4880371883491
30
0
0
SPLINE
5
179
100
AcDbEntity
8
1
62
256
6
ByLayer
370
18
48
1
60
0
100
AcDbSpline
70
4
71
3
72
60
73
56
40
0
40
0
40
0
40
0
40
0.125000000000066
40
0.125000000000066
40
0.250000000000133
40
0.250000000000133
40
0.265625000000135
40
0.265625000000135
40
0.281250000000137
40
0.281250000000137
40
0.296875000000139
40
0.296875000000139
40
0.312500000000141
40
0.312500000000141
40
0.328125000000143
40
0.328125000000143
40
0.343750000000145
40
0.343750000000145
40
0.37500000000014
40
0.37500000000014
40
0.406250000000134
40
0.406250000000134
40
0.421875000000131
40
0.421875000000131
40
0.437500000000128
40
0.437500000000128
40
0.453125000000126
40
0.453125000000126
40
0.468750000000123
40
0.468750000000123
40
0.500000000000117
40
0.500000000000117
40
0.515625000000109
40
0.515625000000109
40
0.5312500000001
40
0.5312500000001
40
0.546875000000091
40
0.546875000000091
40
0.562500000000083
40
0.562500000000083
40
0.570312500000082
40
0.570312500000082
40
0.578125000000081
40
0.578125000000081
40
0.593750000000079
40
0.625000000000077
40
0.750000000000051
40
0.750000000000051
40
0.875000000000025
40
0.875000000000025
40
0.937500000000013
40
0.937500000000013
40
0.968750000000006
40
0.968750000000006
40
1
40
1
40
1
40
1
41
1
10
70.6950143480593
20
-3.19406488475116
30
0
41
1
10
70.6488265581205
20
-3.09944444588717
30
0
41
1
10
70.6025201216441
20
-3.00548306426458
30
0
41
1
10
70.5096054425682
20
-2.81892207949366
30
0
41
1
10
70.4629906182197
20
-2.72632270708223
30
0
41
1
10
70.4104034689958
20
-2.6229390579835
30
0
41
1
10
70.4045585596719
20
-2.61146329250548
30
0
41
1
10
70.3928638899644
20
-2.58853229651791
30
0
41
1
10
70.3870448856962
20
-2.5770702380743
30
0
41
1
10
70.3752403357031
20
-2.55420266212494
30
0
41
1
10
70.3691921136357
20
-2.54281104087997
30
0
41
1
10
70.356219388257
20
-2.52024251153273
30
0
41
1
10
70.34924098778
20
-2.50907762689619
30
0
41
1
10
70.3344051213033
20
-2.486963349881
30
0
41
1
10
70.3266126435953
20
-2.47599950196812
30
0
41
1
10
70.3104073989081
20
-2.45422912473401
30
0
41
1
10
70.3019569792394
20
-2.44339703049241
30
0
41
1
10
70.276124016189
20
-2.41179917164988
30
0
41
1
10
70.2580691982848
20
-2.39178002580661
30
0
41
1
10
70.2205138231261
20
-2.35357092853781
30
0
41
1
10
70.2010389516386
20
-2.33534758574521
30
0
41
1
10
70.1707796735095
20
-2.30935263430672
30
0
41
1
10
70.1605369771519
20
-2.30093696462802
30
0
41
1
10
70.1400479808069
20
-2.28489588023609
30
0
41
1
10
70.1297596738675
20
-2.27723327739071
30
0
41
1
10
70.1090953129351
20
-2.26270426957114
30
0
41
1
10
70.0987180481467
20
-2.25584933233759
30
0
41
1
10
70.0778828105338
20
-2.2429637120556
30
0
41
1
10
70.0674025801538
20
-2.23691708578079
30
0
41
1
10
70.0359973932483
20
-2.22013195306872
30
0
41
1
10
70.0155404297353
20
-2.21090420487317
30
0
41
1
10
69.9858046484447
20
-2.20068081322353
30
0
41
1
10
69.9759846908823
20
-2.19787810722161
30
0
41
1
10
69.9574188313898
20
-2.19415637920687
30
0
41
1
10
69.948642535074
20
-2.1932535492362
30
0
41
1
10
69.9322225174333
20
-2.19358248962445
30
0
41
1
10
69.9245610633734
20
-2.19485725856998
30
0
41
1
10
69.910316931807
20
-2.19873539246242
30
0
41
1
10
69.9036155624825
20
-2.20122734886235
30
0
41
1
10
69.8935440101604
20
-2.20486975051719
30
0
41
1
10
69.8901900970617
20
-2.20607718976848
30
0
41
1
10
69.8834145906579
20
-2.20837262870253
30
0
41
1
10
69.8799941691557
20
-2.20946227048176
30
0
41
1
10
69.8697436669203
20
-2.21271210598525
30
0
41
1
10
69.8492524458041
20
-2.21908826474297
30
0
41
1
10
69.7742223672318
20
-2.24109970483571
30
0
41
1
10
69.7063248909493
20
-2.25697717914105
30
0
41
1
10
69.5983024596499
20
-2.27718334498769
30
0
41
1
10
69.5445555991118
20
-2.28470010101057
30
0
41
1
10
69.4642632905207
20
-2.29219173736681
30
0
41
1
10
69.4375472395155
20
-2.29404738638741
30
0
41
1
10
69.3975720600256
20
-2.29593248460188
30
0
41
1
10
69.3842681827521
20
-2.29641849835622
30
0
41
1
10
69.3577343379928
20
-2.29715929133252
30
0
41
1
10
69.3445239950957
20
-2.29744517164815
30
0
41
1
10
69.3312935694936
20
-2.29752699779985
30
0
0
SPLINE
5
17A
100
AcDbEntity
8
1
62
256
6
ByLayer
370
18
48
1
60
0
100
AcDbSpline
70
4
71
3
72
10
73
6
40
0
40
0
40
0
40
0
40
0.274322433170978
40
0.847365169700396
40
1
40
1
40
1
40
1
41
1
10
70.6950143480593
20
-3.19406488475116
30
0
41
1
10
70.6754368225244
20
-2.87066965729156
30
0
41
1
10
70.6149355964342
20
-1.79829502976591
30
0
41
1
10
70.5424667568843
20
-0.328168501155517
30
0
41
1
10
70.4896992720909
20
0.729100623054904
30
0
41
1
10
70.4785819953176
20
0.949602925043394
30
0
0
SPLINE
5
17B
100
AcDbEntity
8
SK1
62
256
6
ByLayer
370
18
48
1
60
0
100
AcDbSpline
70
4
71
3
72
25
73
21
40
0
40
0
40
0
40
0
40
0.0625056666802781
40
0.0625056666802781
40
0.125011333360556
40
0.125011333360556
40
0.250022666721112
40
0.250022666721112
40
0.500045333442225
40
0.500045333442225
40
0.62505666680278
40
0.62505666680278
40
0.687562333483059
40
0.718815166823198
40
0.718815166823198
40
0.750068000163337
40
0.750068000163337
40
0.875079333523892
40
0.875079333523892
40
1
40
1
40
1
40
1
41
1
10
-25.6
20
3.49999999999997
30
0
41
1
10
-25.6283912504772
20
3.49999999999997
30
0
41
1
10
-25.6564118314841
20
3.49999999999997
30
0
41
1
10
-25.7116377394306
20
3.49999999999997
30
0
41
1
10
-25.7388670583177
20
3.49999999999997
30
0
41
1
10
-25.8189906594333
20
3.49999999999997
30
0
41
1
10
-25.8703259431386
20
3.49999999999997
30
0
41
1
10
-26.0169645194637
20
3.49999999999997
30
0
41
1
10
-26.1049811976251
20
3.49999999999997
30
0
41
1
10
-26.2165657316219
20
3.49999999999997
30
0
41
1
10
-26.2503339875396
20
3.49999999999997
30
0
41
1
10
-26.2949367233175
20
3.49999999999997
30
0
41
1
10
-26.3157237676438
20
3.49999999999997
30
0
41
1
10
-26.3340524870825
20
3.49999999999997
30
0
41
1
10
-26.3457035645301
20
3.49999999999997
30
0
41
1
10
-26.3512513335316
20
3.49999999999997
30
0
41
1
10
-26.3774102497551
20
3.49999999999997
30
0
41
1
10
-26.3933144104498
20
3.49999999999997
30
0
41
1
10
-26.4145946398708
20
3.49999999999997
30
0
41
1
10
-26.4199769767021
20
3.49999999999997
30
0
41
1
10
-26.4199999999917
20
3.49999999999997
30
0
0
SPLINE
5
17C
100
AcDbEntity
8
SK1
62
256
6
ByLayer
370
18
48
1
60
0
100
AcDbSpline
70
4
71
3
72
26
73
22
40
0
40
0
40
0
40
0
40
0.0004472063505348
40
0.125391305556718
40
0.125391305556718
40
0.250335404762901
40
0.250335404762901
40
0.281571429564447
40
0.281571429564447
40
0.312807454365993
40
0.375279503969084
40
0.375279503969084
40
0.500223603175268
40
0.500223603175268
40
0.750111801587634
40
0.750111801587634
40
0.875055900793817
40
0.875055900793817
40
0.937527950396908
40
0.937527950396908
40
1
40
1
40
1
40
1
41
1
10
-26.4199993914626
20
-3.50000000000003
30
0
41
1
10
-26.4200003915626
20
-3.50000000000003
30
0
41
1
10
-26.420003902287
20
-3.50000000000003
30
0
41
1
10
-26.414602359619
20
-3.50000000000003
30
0
41
1
10
-26.3933144104498
20
-3.50000000000003
30
0
41
1
10
-26.3774102497551
20
-3.50000000000003
30
0
41
1
10
-26.3512513335316
20
-3.50000000000003
30
0
41
1
10
-26.34570356453
20
-3.50000000000003
30
0
41
1
10
-26.3340524870825
20
-3.50000000000003
30
0
41
1
10
-26.3157237676438
20
-3.50000000000003
30
0
41
1
10
-26.2949367233174
20
-3.50000000000003
30
0
41
1
10
-26.2503339875396
20
-3.50000000000003
30
0
41
1
10
-26.2165657316218
20
-3.50000000000003
30
0
41
1
10
-26.104981197625
20
-3.50000000000003
30
0
41
1
10
-26.0169645194636
20
-3.50000000000003
30
0
41
1
10
-25.8703259431386
20
-3.50000000000003
30
0
41
1
10
-25.8189906594332
20
-3.50000000000003
30
0
41
1
10
-25.7388670583176
20
-3.50000000000003
30
0
41
1
10
-25.7116377394306
20
-3.50000000000003
30
0
41
1
10
-25.6564118314841
20
-3.50000000000003
30
0
41
1
10
-25.6283912504771
20
-3.50000000000003
30
0
41
1
10
-25.6
20
-3.50000000000003
30
0
0
SPLINE
5
17D
100
AcDbEntity
8
SK1
62
256
6
ByLayer
370
18
48
1
60
0
100
AcDbSpline
70
4
71
3
72
42
73
38
40
0
40
0
40
0
40
0
40
0.0625000000000006
40
0.0625000000000006
40
0.0937500000000008
40
0.0937500000000008
40
0.125000000000001
40
0.125000000000001
40
0.250000000000001
40
0.250000000000001
40
0.375000000000001
40
0.375000000000001
40
0.390625000000001
40
0.390625000000001
40
0.406250000000002
40
0.406250000000002
40
0.437500000000001
40
0.437500000000001
40
0.500000000000001
40
0.562500000000001
40
0.562500000000001
40
0.625000000000001
40
0.625000000000001
40
0.640625000000001
40
0.640625000000001
40
0.656250000000001
40
0.687500000000001
40
0.687500000000001
40
0.750000000000001
40
0.750000000000001
40
0.875000000000001
40
0.875000000000001
40
0.9375
40
0.9375
40
0.96875
40
0.96875
40
1
40
1
40
1
40
1
41
1
10
-25.6
20
-2.5322717073806
30
0
41
1
10
-25.6565583720233
20
-2.43578436503554
30
0
41
1
10
-25.7116439195181
20
-2.33820475716084
30
0
41
1
10
-25.7915967853719
20
-2.18985119337413
30
0
41
1
10
-25.8178006931364
20
-2.14006846927998
30
0
41
1
10
-25.8692210011127
20
-2.03977067284563
30
0
41
1
10
-25.8944274264223
20
-1.98927084414487
30
0
41
1
10
-26.0171592864999
20
-1.73596911681412
30
0
41
1
10
-26.1053306622981
20
-1.52990483419958
30
0
41
1
10
-26.2540117985661
20
-1.10832131566491
30
0
41
1
10
-26.314506645306
20
-0.892796982116948
30
0
41
1
10
-26.3615059681628
20
-0.643134532197422
30
0
41
1
10
-26.3664345906926
20
-0.615293931063519
30
0
41
1
10
-26.3756842001613
20
-0.559405034267655
30
0
41
1
10
-26.3800074791542
20
-0.531334955523477
30
0
41
1
10
-26.3919767973441
20
-0.447243633545042
30
0
41
1
10
-26.3986454591635
20
-0.391210696628974
30
0
41
1
10
-26.4146633786763
20
-0.223196900384068
30
0
41
1
10
-26.4253672141579
20
0.0005943938749624
30
0
41
1
10
-26.414602359619
20
0.223928035215891
30
0
41
1
10
-26.3933144104498
20
0.447037353369865
30
0
41
1
10
-26.3774102497551
20
0.558479879870475
30
0
41
1
10
-26.3512513335316
20
0.697649193201755
30
0
41
1
10
-26.34570356453
20
0.725484569075576
30
0
41
1
10
-26.3340524870825
20
0.780866452572042
30
0
41
1
10
-26.3157237676438
20
0.863610658520486
30
0
41
1
10
-26.2949367233174
20
0.945406795114621
30
0
41
1
10
-26.2503339875396
20
1.10783105038192
30
0
41
1
10
-26.2165657316218
20
1.21455849585831
30
0
41
1
10
-26.104981197625
20
1.53077637201864
30
0
41
1
10
-26.0169645194637
20
1.7363329505221
30
0
41
1
10
-25.8703259431386
20
2.03903200195637
30
0
41
1
10
-25.8189906594332
20
2.13898460624912
30
0
41
1
10
-25.7388670583176
20
2.28771000338983
30
0
41
1
10
-25.7116377394306
20
2.33708225013299
30
0
41
1
10
-25.6564118314841
20
2.43512311771099
30
0
41
1
10
-25.6283912504771
20
2.48383685668747
30
0
41
1
10
-25.6
20
2.53227170738057
30
0
0
SPLINE
5
17E
100
AcDbEntity
8
1
62
256
6
ByLayer
370
18
48
1
60
0
100
AcDbSpline
70
4
71
1
72
4
73
2
40
0
40
0
40
1
40
1
41
1
10
82.9370433851488
20
0.296965752638812
30
0
41
1
10
82.9528169508036
20
0.284869623703315
30
0
0
SPLINE
5
17F
100
AcDbEntity
8
1
62
256
6
ByLayer
370
18
48
1
60
0
100
AcDbSpline
70
4
71
2
72
6
73
3
40
0
40
0
40
0
40
1
40
1
40
1
41
1
10
69.8975099736123
20
5.2931022729135
30
0
41
1
10
69.8690317661783
20
5.24478177983099
30
0
41
1
10
69.8401231215366
20
5.19319870512246
30
0
0
SPLINE
5
180
100
AcDbEntity
8
1
62
256
6
ByLayer
370
18
48
1
60
0
100
AcDbSpline
70
4
71
3
72
10
73
6
40
0
40
0
40
0
40
0
40
0.545629359256963
40
0.929566195443277
40
1
40
1
40
1
40
1
41
1
10
80.3274871035048
20
-5.79898926013283
30
0
41
1
10
80.4041550551554
20
-5.66802176064874
30
0
41
1
10
80.5326654131187
20
-5.44349352320046
30
0
41
1
10
80.6763284438346
20
-5.21134405693013
30
0
41
1
10
80.7357604654909
20
-5.09885655202922
30
0
41
1
10
80.7454737556239
20
-5.08197846150586
30
0
0
SPLINE
5
181
100
AcDbEntity
8
1
62
256
6
ByLayer
370
18
48
1
60
0
100
AcDbSpline
70
4
71
2
72
6
73
3
40
0
40
0
40
0
40
1
40
1
40
1
41
1
10
70.3334623010976
20
6.04201509671751
30
0
41
1
10
70.1950572550262
20
5.80351450910428
30
0
41
1
10
70.0566012746439
20
5.56520994449519
30
0
0
SPLINE
5
182
100
AcDbEntity
8
1
62
256
6
ByLayer
370
18
48
1
60
0
100
AcDbSpline
70
4
71
1
72
4
73
2
40
0
40
0
40
1
40
1
41
1
10
83
20
4.33893561544613
30
0
41
1
10
82.4000000144241
20
4.93821770349538
30
0
0
SPLINE
5
183
100
AcDbEntity
8
1
62
256
6
ByLayer
370
18
48
1
60
0
100
AcDbSpline
70
4
71
1
72
4
73
2
40
0
40
0
40
1
40
1
41
1
10
79.9656267848825
20
-5.98809325717525
30
0
41
1
10
80.3173214685887
20
-5.82652473088112
30
0
0
SPLINE
5
184
100
AcDbEntity
8
1
62
256
6
ByLayer
370
18
48
1
60
0
100
AcDbSpline
70
4
71
3
72
11
73
7
40
0
40
0
40
0
40
0
40
0.385533966607852
40
0.694111410564851
40
0.925865706890856
40
1
40
1
40
1
40
1
41
1
10
67.9338212240829
20
-6.05251481662134
30
0
41
1
10
68.0109120373614
20
-5.91986038715055
30
0
41
1
10
68.1493205537995
20
-5.68173997963927
30
0
41
1
10
68.3339259722087
20
-5.36469044642607
30
0
41
1
10
68.4549086536143
20
-5.15646534133751
30
0
41
1
10
68.5146202678271
20
-5.05270815841024
30
0
41
1
10
68.5332361628749
20
-5.03140431681535
30
0
0
SPLINE
5
185
100
AcDbEntity
8
1
62
256
6
ByLayer
370
18
48
1
60
0
100
AcDbSpline
70
4
71
2
72
6
73
3
40
0
40
0
40
0
40
1
40
1
40
1
41
1
10
79.6893603766135
20
-5.58109475490224
30
0
41
1
10
79.807787323913
20
-5.78538436692443
30
0
41
1
10
79.9261376456326
20
-5.98972464624717
30
0
0
SPLINE
5
186
100
AcDbEntity
8
1
62
256
6
ByLayer
370
18
48
1
60
0
100
AcDbSpline
70
4
71
2
72
6
73
3
40
0
40
0
40
0
40
1
40
1
40
1
41
1
10
67.4545245487717
20
-5.59859868826709
30
0
41
1
10
67.5928964185076
20
-5.83768807243882
30
0
41
1
10
67.7312194491846
20
-6.07680981669145
30
0
0
SPLINE
5
187
100
AcDbEntity
8
1
62
256
6
ByLayer
370
18
48
1
60
0
100
AcDbSpline
70
4
71
3
72
16
73
12
40
0
40
0
40
0
40
0
40
0.385762794249031
40
0.501795406201215
40
0.591235387947714
40
0.681025355937675
40
0.74704089723125
40
0.790999767675334
40
0.842349502464848
40
0.904875573872525
40
1
40
1
40
1
40
1
41
1
10
71.8152874437041
20
5.58281771729287
30
0
41
1
10
71.7434452084165
20
5.45864591526799
30
0
41
1
10
71.6468122713666
20
5.29854929935945
30
0
41
1
10
71.5447051881539
20
5.09416346331096
30
0
41
1
10
71.478012986904
20
5.00840214964802
30
0
41
1
10
71.390261265631
20
4.96745728809
30
0
41
1
10
71.3149407139449
20
4.96207949637616
30
0
41
1
10
71.2645549065423
20
4.97046560459535
30
0
41
1
10
71.206480438489
20
4.99289443829534
30
0
41
1
10
71.1367974038148
20
5.044560515999
30
0
41
1
10
71.1038183596578
20
5.10346223286103
30
0
41
1
10
71.0845862114901
20
5.13995918015809
30
0
0
SPLINE
5
188
100
AcDbEntity
8
1
62
256
6
ByLayer
370
18
48
1
60
0
100
AcDbSpline
70
4
71
3
72
18
73
14
40
0
40
0
40
0
40
0
40
0.132187216181539
40
0.271624877612176
40
0.31843667345594
40
0.355986600958823
40
0.401074026188535
40
0.533420487225486
40
0.582272792119534
40
0.618563662750977
40
0.663103104520668
40
0.80323828444535
40
1
40
1
40
1
40
1
41
1
10
66.5353195647657
20
-5.4477502823701
30
0
41
1
10
66.5709043593408
20
-5.38624306984374
30
0
41
1
10
66.6458128089641
20
-5.26331957230093
30
0
41
1
10
66.7199341637765
20
-5.10586483262452
30
0
41
1
10
66.7910008947357
20
-5.01959075571483
30
0
41
1
10
66.8488398479864
20
-4.98503886722622
30
0
41
1
10
66.9212594036315
20
-4.95927828044225
30
0
41
1
10
66.9947219629253
20
-4.96353133611015
30
0
41
1
10
67.0589878057909
20
-4.98800462281292
30
0
41
1
10
67.1138881571311
20
-5.02665916266687
30
0
41
1
10
67.1803140319675
20
-5.12005949738466
30
0
41
1
10
67.2820148579912
20
-5.31560646854348
30
0
41
1
10
67.3804354971807
20
-5.47897982029801
30
0
41
1
10
67.4378944965942
20
-5.57768723066414
30
0
0
SPLINE
5
189
100
AcDbEntity
8
1
62
256
6
ByLayer
370
18
48
1
60
0
100
AcDbSpline
70
4
71
2
72
6
73
3
40
0
40
0
40
0
40
1
40
1
40
1
41
1
10
72.0922765675766
20
6.06087682765923
30
0
41
1
10
71.9542831888609
20
5.82259728679105
30
0
41
1
10
71.8162576578065
20
5.5844070792634
30
0
0
SPLINE
5
18A
100
AcDbEntity
8
1
62
256
6
ByLayer
370
18
48
1
60
0
100
AcDbSpline
70
4
71
3
72
18
73
14
40
0
40
0
40
0
40
0
40
0.210734726692683
40
0.371294567309589
40
0.480857567080576
40
0.516267653065496
40
0.543951219625981
40
0.601497563420751
40
0.645168210928603
40
0.696006274778863
40
0.762465391031698
40
0.844525527102426
40
1
40
1
40
1
40
1
41
1
10
78.4252875074449
20
-6.06934286651452
30
0
41
1
10
78.5118927466565
20
-5.91974304781385
30
0
41
1
10
78.6602424704402
20
-5.65519496450477
30
0
41
1
10
78.8651660233162
20
-5.32540974373723
30
0
41
1
10
78.9668756622245
20
-5.09877542784983
30
0
41
1
10
79.0585424154845
20
-5.00626745633352
30
0
41
1
10
79.1297903957742
20
-4.97085022858877
30
0
41
1
10
79.1992050836309
20
-4.95749593369695
30
0
41
1
10
79.3033598881542
20
-4.98011873169241
30
0
41
1
10
79.3923856146892
20
-5.04526478155509
30
0
41
1
10
79.4503447270475
20
-5.16693245630856
30
0
41
1
10
79.5548349513297
20
-5.34624293500514
30
0
41
1
10
79.6331133801411
20
-5.4846684076258
30
0
41
1
10
79.6854914547546
20
-5.57388172127702
30
0
0
SPLINE
5
18B
100
AcDbEntity
8
1
62
256
6
ByLayer
370
18
48
1
60
0
100
AcDbSpline
70
4
71
2
72
6
73
3
40
0
40
0
40
0
40
1
40
1
40
1
41
1
10
77.9395878343878
20
-5.58140120438546
30
0
41
1
10
78.0784810040372
20
-5.82098149556984
30
0
41
1
10
78.2172559924286
20
-6.06062756485173
30
0
0
SPLINE
5
18C
100
AcDbEntity
8
1
62
256
6
ByLayer
370
18
48
1
60
0
100
AcDbSpline
70
4
71
3
72
18
73
14
40
0
40
0
40
0
40
0
40
0.142626552299355
40
0.251166521725622
40
0.289841833250805
40
0.322959056569876
40
0.374532009606577
40
0.410449561195949
40
0.458417998607117
40
0.485036820788222
40
0.584098438694495
40
0.765727157465456
40
1
40
1
40
1
40
1
41
1
10
73.5607301894402
20
5.5744201576783
30
0
41
1
10
73.5076417679539
20
5.48376253106406
30
0
41
1
10
73.4160352105879
20
5.32719268614665
30
0
41
1
10
73.312770137075
20
5.14153337440126
30
0
41
1
10
73.2510794925634
20
5.03778538931775
30
0
41
1
10
73.1846282594755
20
4.98776601495666
30
0
41
1
10
73.1262666868402
20
4.96593133004538
30
0
41
1
10
73.0288964133883
20
4.96187804968864
30
0
41
1
10
72.9502640536873
20
4.99270517128619
30
0
41
1
10
72.8506515995078
20
5.07577053825275
30
0
41
1
10
72.755332470241
20
5.29803241849535
30
0
41
1
10
72.5465263776434
20
5.63271592719806
30
0
41
1
10
72.3908568911093
20
5.91374315503018
30
0
41
1
10
72.3003698107538
20
6.0700528546995
30
0
0
SPLINE
5
18D
100
AcDbEntity
8
1
62
256
6
ByLayer
370
18
48
1
60
0
100
AcDbSpline
70
4
71
2
72
6
73
3
40
0
40
0
40
0
40
1
40
1
40
1
41
1
10
73.8423409857085
20
6.06103747003098
30
0
41
1
10
73.7035499370607
20
5.82134296525308
30
0
41
1
10
73.5646491733342
20
5.58173348716605
30
0
0
SPLINE
5
18E
100
AcDbEntity
8
1
62
256
6
ByLayer
370
18
48
1
60
0
100
AcDbSpline
70
4
71
3
72
19
73
15
40
0
40
0
40
0
40
0
40
0.192171758118062
40
0.34627228992607
40
0.462586326395163
40
0.503913267342694
40
0.538331416414375
40
0.566514624466521
40
0.590537718924099
40
0.626738327184177
40
0.676023180866477
40
0.741085548289786
40
0.827870289062131
40
1
40
1
40
1
40
1
41
1
10
76.6730898573292
20
-6.073703640221
30
0
41
1
10
76.7502186367658
20
-5.9401701610465
30
0
41
1
10
76.8885099382956
20
-5.70045076067603
30
0
41
1
10
77.0727537483575
20
-5.38131083798484
30
0
41
1
10
77.1946859428023
20
-5.16861012233935
30
0
41
1
10
77.2680274363852
20
-5.03901333018521
30
0
41
1
10
77.3317436547337
20
-4.99300528385439
30
0
41
1
10
77.3896784851245
20
-4.97044366002268
30
0
41
1
10
77.4404469924457
20
-4.96204193729562
30
0
41
1
10
77.5156220039139
20
-4.96759635756689
30
0
41
1
10
77.6140595443832
20
-5.01288973347187
30
0
41
1
10
77.687258161364
20
-5.13000110762172
30
0
41
1
10
77.7936651114653
20
-5.32948628035254
30
0
41
1
10
77.8824943251063
20
-5.48256760907225
30
0
41
1
10
77.9410655807856
20
-5.58387845420202
30
0
0
SPLINE
5
18F
100
AcDbEntity
8
1
62
256
6
ByLayer
370
18
48
1
60
0
100
AcDbSpline
70
4
71
2
72
6
73
3
40
0
40
0
40
0
40
1
40
1
40
1
41
1
10
76.1846813665166
20
-5.57197878607528
30
0
41
1
10
76.3232326841576
20
-5.81067804895943
30
0
41
1
10
76.4617286218118
20
-6.04955330914134
30
0
0
SPLINE
5
190
100
AcDbEntity
8
1
62
256
6
ByLayer
370
18
48
1
60
0
100
AcDbSpline
70
4
71
3
72
13
73
9
40
0
40
0
40
0
40
0
40
0.0342572695666043
40
0.0942686067290913
40
0.212990206210238
40
0.375852260503571
40
0.65334224208598
40
1
40
1
40
1
40
1
41
1
10
74.7628963990029
20
4.96636273928578
30
0
41
1
10
74.7492471911192
20
4.97008699149387
30
0
41
1
10
74.7134139063054
20
4.98371773747988
30
0
41
1
10
74.6386178449782
20
5.03911628041436
30
0
41
1
10
74.5731181924621
20
5.17485191508027
30
0
41
1
10
74.4458852753703
20
5.38272147633859
30
0
41
1
10
74.273681733682
20
5.68433228281663
30
0
41
1
10
74.1344996504872
20
5.92218306961635
30
0
41
1
10
74.0573750077786
20
6.05496005594253
30
0
0
SPLINE
5
191
100
AcDbEntity
8
1
62
256
6
ByLayer
370
18
48
1
60
0
100
AcDbSpline
70
4
71
2
72
6
73
3
40
0
40
0
40
0
40
1
40
1
40
1
41
1
10
75.9473637760229
20
-5.16519508460016
30
0
41
1
10
76.068937797989
20
-5.3601669977601
30
0
41
1
10
76.1693388777356
20
-5.53189439304904
30
0
0
SPLINE
5
192
100
AcDbEntity
8
1
62
256
6
ByLayer
370
18
48
1
60
0
100
AcDbSpline
70
4
71
3
72
8
73
4
40
0
40
0
40
0
40
0
40
1
40
1
40
1
40
1
41
1
10
82.8886921035989
20
0.334683907604159
30
0
41
1
10
82.9048042858454
20
0.322165301060664
30
0
41
1
10
82.9209213167628
20
0.309592164773164
30
0
41
1
10
82.9370433851488
20
0.296965752638812
30
0
0
LINE
5
7F
100
AcDbEntity
8
80
62
256
6
ByLayer
370
18
48
1
60
0
100
AcDbLine
10
0
20
0
30
0
11
-5
21
0
31
0
39
0
210
0
220
0
230
1
0
LINE
5
80
100
AcDbEntity
8
4
62
256
6
ByLayer
370
18
48
0.05
60
0
100
AcDbLine
10
0
20
0
30
0
11
83
21
0
31
0
39
0
210
0
220
0
230
1
0
LINE
5
82
100
AcDbEntity
8
81
62
256
6
ByLayer
370
18
48
1
60
0
100
AcDbLine
10
83
20
0
30
0
11
88
21
0
31
0
39
0
210
0
220
0
230
1
0
LINE
5
83
100
AcDbEntity
8
SK4
62
256
6
ByLayer
370
18
48
0.05
60
0
100
AcDbLine
10
-27
20
0
30
0
11
83
21
0
31
0
39
0
210
0
220
0
230
1
0
LINE
5
85
100
AcDbEntity
8
1
62
256
6
ByLayer
370
18
48
1
60
0
100
AcDbLine
10
0
20
4.5
30
0
11
0
21
-4.5
31
0
39
0
210
0
220
0
230
1
0
LINE
5
86
100
AcDbEntity
8
1
62
256
6
ByLayer
370
18
48
1
60
0
100
AcDbLine
10
82.4
20
4.94503
30
0
11
82.4
21
4.938229
31
0
39
0
210
0
220
0
230
1
0
LINE
5
87
100
AcDbEntity
8
1
62
256
6
ByLayer
370
18
48
1
60
0
100
AcDbLine
10
79.689357
20
-5.581089
30
0
11
79.685826
21
-5.574548
31
0
39
0
210
0
220
0
230
1
0
LINE
5
88
100
AcDbEntity
8
1
62
256
6
ByLayer
370
13
48
1
60
0
100
AcDbLine
10
66.291881
20
-5.05
30
0
11
66.291881
21
-4.72722
31
0
39
0
210
0
220
0
230
1
0
LINE
5
89
100
AcDbEntity
8
1
62
256
6
ByLayer
370
18
48
1
60
0
100
AcDbLine
10
73.564695
20
5.581812
30
0
11
73.560965
21
5.574889
31
0
39
0
210
0
220
0
230
1
0
LINE
5
8A
100
AcDbEntity
8
1
62
256
6
ByLayer
370
18
48
1
60
0
100
AcDbLine
10
77.941428
20
-5.584462
30
0
11
77.939624
21
-5.581464
31
0
39
0
210
0
220
0
230
1
0
LINE
5
8B
100
AcDbEntity
8
1
62
256
6
ByLayer
370
13
48
1
60
0
100
AcDbLine
10
65.079445
20
-4.35
30
0
11
65.079445
21
-3.688172
31
0
39
0
210
0
220
0
230
1
0
LINE
5
8C
100
AcDbEntity
8
1
62
256
6
ByLayer
370
13
48
1
60
0
100
AcDbLine
10
28.653835
20
-4.35
30
0
11
28.653835
21
4.35
31
0
39
0
210
0
220
0
230
1
0
LINE
5
8D
100
AcDbEntity
8
1
62
256
6
ByLayer
370
18
48
1
60
0
100
AcDbLine
10
28
20
4.5
30
0
11
28
21
-4.5
31
0
39
0
210
0
220
0
230
1
0
LINE
5
8E
100
AcDbEntity
8
1
62
256
6
ByLayer
370
13
48
1
60
0
100
AcDbLine
10
65.079445
20
1.811203
30
0
11
65.079445
21
3.841564
31
0
39
0
210
0
220
0
230
1
0
LINE
5
8F
100
AcDbEntity
8
SK1
62
256
6
ByLayer
370
18
48
1
60
0
100
AcDbLine
10
-27
20
2.92
30
0
11
-27
21
-2.92
31
0
39
0
210
0
220
0
230
1
0
LINE
5
91
100
AcDbEntity
8
SK1
62
256
6
ByLayer
370
18
48
1
60
0
100
AcDbLine
10
-17
20
3.5
30
0
11
-16.18
21
4.32
31
0
39
0
210
0
220
0
230
1
0
LINE
5
92
100
AcDbEntity
8
SK1
62
256
6
ByLayer
370
18
48
1
60
0
100
AcDbLine
10
-25.6
20
3.5
30
0
11
-17
21
3.5
31
0
39
0
210
0
220
0
230
1
0
LINE
5
93
100
AcDbEntity
8
SK1
62
256
6
ByLayer
370
18
48
1
60
0
100
AcDbLine
10
-25.6
20
2.532272
30
0
11
-25.6
21
3.5
31
0
39
0
210
0
220
0
230
1
0
LINE
5
94
100
AcDbEntity
8
SK1
62
256
6
ByLayer
370
18
48
1
60
0
100
AcDbLine
10
-17
20
2.532272
30
0
11
-25.6
21
2.532272
31
0
39
0
210
0
220
0
230
1
0
LINE
5
95
100
AcDbEntity
8
SK1
62
256
6
ByLayer
370
18
48
1
60
0
100
AcDbLine
10
-25.6
20
-2.532272
30
0
11
-17
21
-2.532272
31
0
39
0
210
0
220
0
230
1
0
LINE
5
96
100
AcDbEntity
8
SK1
62
256
6
ByLayer
370
18
48
1
60
0
100
AcDbLine
10
-25.6
20
-3.5
30
0
11
-25.6
21
-2.532272
31
0
39
0
210
0
220
0
230
1
0
LINE
5
97
100
AcDbEntity
8
SK1
62
256
6
ByLayer
370
18
48
1
60
0
100
AcDbLine
10
-17
20
-3.5
30
0
11
-25.6
21
-3.5
31
0
39
0
210
0
220
0
230
1
0
LINE
5
98
100
AcDbEntity
8
SK1
62
256
6
ByLayer
370
18
48
1
60
0
100
AcDbLine
10
-17
20
-3.5
30
0
11
-16.18
21
-4.32
31
0
39
0
210
0
220
0
230
1
0
LINE
5
99
100
AcDbEntity
8
SK1
62
256
6
ByLayer
370
18
48
1
60
0
100
AcDbLine
10
-17
20
2.532272
30
0
11
-17
21
-2.532272
31
0
39
0
210
0
220
0
230
1
0
LINE
5
9A
100
AcDbEntity
8
SK1
62
256
6
ByLayer
370
18
48
1
60
0
100
AcDbLine
10
-15
20
4.32
30
0
11
-15
21
-4.32
31
0
39
0
210
0
220
0
230
1
0
LINE
5
9B
100
AcDbEntity
8
SK1
62
256
6
ByLayer
370
18
48
1
60
0
100
AcDbLine
10
0
20
4.5
30
0
11
0
21
-4.5
31
0
39
0
210
0
220
0
230
1
0
LINE
5
9C
100
AcDbEntity
8
SK1
62
256
6
ByLayer
370
18
48
1
60
0
100
AcDbLine
10
-14.82
20
-4.5
30
0
11
-14.82
21
4.5
31
0
39
0
210
0
220
0
230
1
0
LINE
5
9D
100
AcDbEntity
8
1
62
256
6
ByLayer
370
18
48
1
60
0
100
AcDbLine
10
28
20
4.5
30
0
11
0
21
4.5
31
0
39
0
210
0
220
0
230
1
0
LINE
5
9E
100
AcDbEntity
8
1
62
256
6
ByLayer
370
18
48
1
60
0
100
AcDbLine
10
0
20
-4.5
30
0
11
28
21
-4.5
31
0
39
0
210
0
220
0
230
1
0
LINE
5
9F
100
AcDbEntity
8
1
62
256
6
ByLayer
370
18
48
1
60
0
100
AcDbLine
10
70.535519
20
6.076498
30
0
11
70.362702
21
6.076498
31
0
39
0
210
0
220
0
230
1
0
LINE
5
A0
100
AcDbEntity
8
1
62
256
6
ByLayer
370
18
48
1
60
0
100
AcDbLine
10
67.737728
20
-6.076498
30
0
11
67.910466
21
-6.076498
31
0
39
0
210
0
220
0
230
1
0
LINE
5
A1
100
AcDbEntity
8
1
62
256
6
ByLayer
370
18
48
1
60
0
100
AcDbLine
10
66.291881
20
-5.05
30
0
11
66.51385
21
-5.434461
31
0
39
0
210
0
220
0
230
1
0
LINE
5
A2
100
AcDbEntity
8
1
62
256
6
ByLayer
370
18
48
1
60
0
100
AcDbLine
10
72.285625
20
6.076498
30
0
11
72.112437
21
6.076498
31
0
39
0
210
0
220
0
230
1
0
LINE
5
A3
100
AcDbEntity
8
1
62
256
6
ByLayer
370
18
48
1
60
0
100
AcDbLine
10
78.237396
20
-6.076498
30
0
11
78.410301
21
-6.076498
31
0
39
0
210
0
220
0
230
1
0
LINE
5
A4
100
AcDbEntity
8
1
62
256
6
ByLayer
370
18
48
1
60
0
100
AcDbLine
10
74.035178
20
6.076498
30
0
11
73.862365
21
6.076498
31
0
39
0
210
0
220
0
230
1
0
LINE
5
A5
100
AcDbEntity
8
1
62
256
6
ByLayer
370
18
48
1
60
0
100
AcDbLine
10
76.487651
20
-6.076498
30
0
11
76.660519
21
-6.076498
31
0
39
0
210
0
220
0
230
1
0
LINE
5
A6
100
AcDbEntity
8
1
62
256
6
ByLayer
370
18
48
1
60
0
100
AcDbLine
10
28.653835
20
-4.35
30
0
11
37.851338
21
-4.35
31
0
39
0
210
0
220
0
230
1
0
LINE
5
A7
100
AcDbEntity
8
1
62
256
6
ByLayer
370
18
48
1
60
0
100
AcDbLine
10
39.331121
20
-4.35
30
0
11
44.221345
21
-4.35
31
0
39
0
210
0
220
0
230
1
0
LINE
5
A8
100
AcDbEntity
8
1
62
256
6
ByLayer
370
18
48
1
60
0
100
AcDbLine
10
52.555041
20
-4.35
30
0
11
56.254513
21
-4.35
31
0
39
0
210
0
220
0
230
1
0
LINE
5
A9
100
AcDbEntity
8
1
62
256
6
ByLayer
370
18
48
1
60
0
100
AcDbLine
10
64.541377
20
-4.35
30
0
11
65.079445
21
-4.35
31
0
39
0
210
0
220
0
230
1
0
LINE
5
AA
100
AcDbEntity
8
1
62
256
6
ByLayer
370
18
48
1
60
0
100
AcDbLine
10
62.273302
20
4.35
30
0
11
58.548476
21
4.35
31
0
39
0
210
0
220
0
230
1
0
LINE
5
AB
100
AcDbEntity
8
1
62
256
6
ByLayer
370
18
48
1
60
0
100
AcDbLine
10
50.239364
20
4.35
30
0
11
46.561504
21
4.35
31
0
39
0
210
0
220
0
230
1
0
LINE
5
AC
100
AcDbEntity
8
1
62
256
6
ByLayer
370
18
48
1
60
0
100
AcDbLine
10
38.383014
20
4.35
30
0
11
28.653835
21
4.35
31
0
39
0
210
0
220
0
230
1
0
LINE
5
AD
100
AcDbEntity
8
SK1
62
256
6
ByLayer
370
18
48
1
60
0
100
AcDbLine
10
-27
20
-2.92
30
0
11
-26.42
21
-3.5
31
0
39
0
210
0
220
0
230
1
0
LINE
5
AE
100
AcDbEntity
8
SK1
62
256
6
ByLayer
370
18
48
1
60
0
100
AcDbLine
10
-26.42
20
3.5
30
0
11
-27
21
2.92
31
0
39
0
210
0
220
0
230
1
0
LINE
5
AF
100
AcDbEntity
8
SK1
62
256
6
ByLayer
370
18
48
1
60
0
100
AcDbLine
10
-15
20
4.32
30
0
11
-16.18
21
4.32
31
0
39
0
210
0
220
0
230
1
0
LINE
5
B0
100
AcDbEntity
8
SK1
62
256
6
ByLayer
370
18
48
1
60
0
100
AcDbLine
10
-16.18
20
-4.32
30
0
11
-15
21
-4.32
31
0
39
0
210
0
220
0
230
1
0
LINE
5
B1
100
AcDbEntity
8
SK1
62
256
6
ByLayer
370
18
48
1
60
0
100
AcDbLine
10
-15
20
-4.32
30
0
11
-14.82
21
-4.5
31
0
39
0
210
0
220
0
230
1
0
LINE
5
B2
100
AcDbEntity
8
SK1
62
256
6
ByLayer
370
18
48
1
60
0
100
AcDbLine
10
-14.82
20
4.5
30
0
11
-15
21
4.32
31
0
39
0
210
0
220
0
230
1
0
LINE
5
B3
100
AcDbEntity
8
SK1
62
256
6
ByLayer
370
18
48
1
60
0
100
AcDbLine
10
0
20
4.5
30
0
11
-14.82
21
4.5
31
0
39
0
210
0
220
0
230
1
0
LINE
5
B4
100
AcDbEntity
8
SK1
62
256
6
ByLayer
370
18
48
1
60
0
100
AcDbLine
10
-14.82
20
-4.5
30
0
11
0
21
-4.5
31
0
39
0
210
0
220
0
230
1
0
LINE
5
B5
100
AcDbEntity
8
SK2
62
256
6
ByLayer
370
18
48
1
60
0
100
AcDbLine
10
14.59
20
-4.5
30
0
11
14.59
21
17.341828
31
0
39
0
210
0
220
0
230
1
0
LINE
5
B7
100
AcDbEntity
8
1
62
256
6
ByLayer
370
18
48
1
60
1
100
AcDbLine
10
14.59
20
4.5
30
0
11
15.050784
21
1.000002
31
0
39
0
210
0
220
0
230
1
0
LINE
5
B8
100
AcDbEntity
8
1
62
256
6
ByLayer
370
18
48
1
60
1
100
AcDbLine
10
15.050784
20
1.000002
30
0
11
14.129216
21
0.999998
31
0
39
0
210
0
220
0
230
1
0
LINE
5
B9
100
AcDbEntity
8
1
62
256
6
ByLayer
370
18
48
1
60
1
100
AcDbLine
10
14.129216
20
0.999998
30
0
11
14.59
21
4.5
31
0
39
0
210
0
220
0
230
1
0
LINE
5
BA
100
AcDbEntity
8
1
62
256
6
ByLayer
370
18
48
1
60
1
100
AcDbLine
10
14.59
20
-4.5
30
0
11
14.129216
21
-1.000002
31
0
39
0
210
0
220
0
230
1
0
LINE
5
BB
100
AcDbEntity
8
1
62
256
6
ByLayer
370
18
48
1
60
1
100
AcDbLine
10
14.129216
20
-1.000002
30
0
11
15.050784
21
-0.999998
31
0
39
0
210
0
220
0
230
1
0
LINE
5
BC
100
AcDbEntity
8
1
62
256
6
ByLayer
370
18
48
1
60
1
100
AcDbLine
10
15.050784
20
-0.999998
30
0
11
14.59
21
-4.5
31
0
39
0
210
0
220
0
230
1
0
LINE
5
BD
100
AcDbEntity
8
2
62
256
6
ByLayer
370
18
48
1
60
0
100
AcDbLine
10
83
20
-43.576498
30
0
11
-27
21
-43.576498
31
0
39
0
210
0
220
0
230
1
0
LINE
5
BF
100
AcDbEntity
8
2
62
256
6
ByLayer
370
18
48
1
60
0
100
AcDbLine
10
-27
20
-4.5075
30
0
11
-27
21
-45.576498
31
0
39
0
210
0
220
0
230
1
0
LINE
5
C0
100
AcDbEntity
8
2
62
256
6
ByLayer
370
18
48
1
60
0
100
AcDbLine
10
83
20
-7.663998
30
0
11
83
21
-45.576498
31
0
39
0
210
0
220
0
230
1
0
LINE
5
C1
100
AcDbEntity
8
1
62
256
6
ByLayer
370
18
48
1
60
1
100
AcDbLine
10
-27
20
-43.576498
30
0
11
-23.500002
21
-43.115715
31
0
39
0
210
0
220
0
230
1
0
LINE
5
C2
100
AcDbEntity
8
1
62
256
6
ByLayer
370
18
48
1
60
1
100
AcDbLine
10
-23.500002
20
-43.115715
30
0
11
-23.499998
21
-44.037282
31
0
39
0
210
0
220
0
230
1
0
LINE
5
C3
100
AcDbEntity
8
1
62
256
6
ByLayer
370
18
48
1
60
1
100
AcDbLine
10
-23.499998
20
-44.037282
30
0
11
-27
21
-43.576498
31
0
39
0
210
0
220
0
230
1
0
LINE
5
C4
100
AcDbEntity
8
1
62
256
6
ByLayer
370
18
48
1
60
1
100
AcDbLine
10
83
20
-43.576498
30
0
11
79.500002
21
-44.037282
31
0
39
0
210
0
220
0
230
1
0
LINE
5
C5
100
AcDbEntity
8
1
62
256
6
ByLayer
370
18
48
1
60
1
100
AcDbLine
10
79.500002
20
-44.037282
30
0
11
79.499998
21
-43.115715
31
0
39
0
210
0
220
0
230
1
0
LINE
5
C6
100
AcDbEntity
8
1
62
256
6
ByLayer
370
18
48
1
60
1
100
AcDbLine
10
79.499998
20
-43.115715
30
0
11
83
21
-43.576498
31
0
39
0
210
0
220
0
230
1
0
LINE
5
197
100
AcDbEntity
8
1
62
256
6
ByLayer
370
18
48
1
60
1
100
AcDbLine
10
14.59
20
4.5
30
0
11
15.050784
21
1.000002
31
0
39
0
210
0
220
0
230
1
0
LINE
5
198
100
AcDbEntity
8
1
62
256
6
ByLayer
370
18
48
1
60
1
100
AcDbLine
10
15.050784
20
1.000002
30
0
11
14.129216
21
0.999998
31
0
39
0
210
0
220
0
230
1
0
LINE
5
199
100
AcDbEntity
8
1
62
256
6
ByLayer
370
18
48
1
60
1
100
AcDbLine
10
14.129216
20
0.999998
30
0
11
14.59
21
4.5
31
0
39
0
210
0
220
0
230
1
0
LINE
5
19B
100
AcDbEntity
8
1
62
256
6
ByLayer
370
18
48
1
60
1
100
AcDbLine
10
14.59
20
-4.5
30
0
11
14.129216
21
-1.000002
31
0
39
0
210
0
220
0
230
1
0
LINE
5
19C
100
AcDbEntity
8
1
62
256
6
ByLayer
370
18
48
1
60
1
100
AcDbLine
10
14.129216
20
-1.000002
30
0
11
15.050784
21
-0.999998
31
0
39
0
210
0
220
0
230
1
0
LINE
5
19D
100
AcDbEntity
8
1
62
256
6
ByLayer
370
18
48
1
60
1
100
AcDbLine
10
15.050784
20
-0.999998
30
0
11
14.59
21
-4.5
31
0
39
0
210
0
220
0
230
1
0
LINE
5
1A0
100
AcDbEntity
8
1
62
256
6
ByLayer
370
18
48
1
60
1
100
AcDbLine
10
-27
20
-43.576498
30
0
11
-23.500002
21
-43.115715
31
0
39
0
210
0
220
0
230
1
0
LINE
5
1A1
100
AcDbEntity
8
1
62
256
6
ByLayer
370
18
48
1
60
1
100
AcDbLine
10
-23.500002
20
-43.115715
30
0
11
-23.499998
21
-44.037282
31
0
39
0
210
0
220
0
230
1
0
LINE
5
1A2
100
AcDbEntity
8
1
62
256
6
ByLayer
370
18
48
1
60
1
100
AcDbLine
10
-23.499998
20
-44.037282
30
0
11
-27
21
-43.576498
31
0
39
0
210
0
220
0
230
1
0
LINE
5
1A4
100
AcDbEntity
8
1
62
256
6
ByLayer
370
18
48
1
60
1
100
AcDbLine
10
83
20
-43.576498
30
0
11
79.500002
21
-44.037282
31
0
39
0
210
0
220
0
230
1
0
LINE
5
1A5
100
AcDbEntity
8
1
62
256
6
ByLayer
370
18
48
1
60
1
100
AcDbLine
10
79.500002
20
-44.037282
30
0
11
79.499998
21
-43.115715
31
0
39
0
210
0
220
0
230
1
0
LINE
5
1A6
100
AcDbEntity
8
1
62
256
6
ByLayer
370
18
48
1
60
1
100
AcDbLine
10
79.499998
20
-43.115715
30
0
11
83
21
-43.576498
31
0
39
0
210
0
220
0
230
1
0
MTEXT
5
193
100
AcDbEntity
8
SK2
62
256
6
ByLayer
370
18
48
1
60
0
100
AcDbMText
10
13.248886
20
10.158438
30
0
210
0
220
0
230
1
1
%%c
40
3
41
0
44
1.084337
50
90
71
7
72
5
7
iso_b_vert
0
MTEXT
5
196
100
AcDbEntity
8
SK2
62
256
6
ByLayer
370
18
48
1
60
0
100
AcDbMText
10
13.248886
20
16.135
30
0
210
0
220
0
230
1
1
\W0.5742;9
40
3
41
0
44
1.084337
50
90
71
7
72
5
7
iso_b_vert
0
MTEXT
5
19F
100
AcDbEntity
8
2
62
256
6
ByLayer
370
18
48
1
60
0
100
AcDbMText
10
25.996143
20
-42.691384
30
0
210
0
220
0
230
1
1
\W0.5296;110
40
3
41
0
44
1.084337
50
0
71
7
72
5
7
iso_b_vert
0
MTEXT
5
1A8
100
AcDbEntity
8
SK6
62
256
6
ByLayer
370
18
48
1
60
0
100
AcDbMText
10
11.232228
20
-82.114886
30
0
210
0
220
0
230
1
1
\W0.7249;T300-XM103DA-M12    C110
40
3
41
0
44
1.084337
50
0
71
7
72
5
7
iso_b_vert
0
HATCH
5
19A
100
AcDbEntity
8
SK2
62
256
6
ByLayer
370
13
48
1
60
0
100
AcDbHatch
10
0
20
0
30
0
210
0
220
0
230
1
2
ANSI31
70
0
71
0
91
1
92
5
93
3
72
1
10
14.59
20
4.50000000000006
11
15.0507837415528
21
1.00000169255324
72
1
10
15.0507837415528
20
1.00000169255324
11
14.1292162584472
21
0.999998307446873
72
1
10
14.1292162584472
20
0.999998307446873
11
14.59
21
4.50000000000006
97
0
75
0
76
1
52
0
41
0.0062
77
0
78
1
53
45
43
0
44
0
45
-0.0139193969876572
46
0.0139193969876572
79
0
47
0
98
1
10
0
20
0
0
HATCH
5
19E
100
AcDbEntity
8
SK2
62
256
6
ByLayer
370
13
48
1
60
0
100
AcDbHatch
10
0
20
0
30
0
210
0
220
0
230
1
2
ANSI31
70
0
71
0
91
1
92
5
93
3
72
1
10
14.59
20
-4.49999999999997
11
14.1292162584472
21
-1.00000169255315
72
1
10
14.1292162584472
20
-1.00000169255315
11
15.0507837415528
21
-0.999998307446788
72
1
10
15.0507837415528
20
-0.999998307446788
11
14.59
21
-4.49999999999997
97
0
75
0
76
1
52
0
41
0.0062
77
0
78
1
53
45
43
0
44
0
45
-0.0139193969876572
46
0.0139193969876572
79
0
47
0
98
1
10
0
20
0
0
HATCH
5
1A3
100
AcDbEntity
8
2
62
256
6
ByLayer
370
13
48
1
60
0
100
AcDbHatch
10
0
20
0
30
0
210
0
220
0
230
1
2
ANSI31
70
0
71
0
91
1
92
5
93
3
72
1
10
-27
20
-43.5764982892659
11
-23.5000016925532
21
-43.1157145477132
72
1
10
-23.5000016925532
20
-43.1157145477132
11
-23.4999983074468
21
-44.0372820308187
72
1
10
-23.4999983074468
20
-44.0372820308187
11
-27
21
-43.5764982892659
97
0
75
0
76
1
52
0
41
0.0062
77
0
78
1
53
45
43
0
44
0
45
-0.0139193969876572
46
0.0139193969876572
79
0
47
0
98
1
10
0
20
0
0
HATCH
5
1A7
100
AcDbEntity
8
2
62
256
6
ByLayer
370
13
48
1
60
0
100
AcDbHatch
10
0
20
0
30
0
210
0
220
0
230
1
2
ANSI31
70
0
71
0
91
1
92
5
93
3
72
1
10
83
20
-43.5764982892659
11
79.5000016925532
21
-44.0372820308187
72
1
10
79.5000016925532
20
-44.0372820308187
11
79.4999983074468
21
-43.1157145477132
72
1
10
79.4999983074468
20
-43.1157145477132
11
83
21
-43.5764982892659
97
0
75
0
76
1
52
0
41
0.0062
77
0
78
1
53
45
43
0
44
0
45
-0.0139193969876572
46
0.0139193969876572
79
0
47
0
98
1
10
0
20
0
0
DIMENSION
5
1AB
100
AcDbEntity
8
2
62
256
6
ByLayer
370
18
48
1
60
0
100
AcDbDimension
2
_U0
10
102.5
20
-6.076498
30
0
11
102.5
21
24.790784
31
0
70
32
71
1
72
1
41
1
210
0
220
0
230
1
3
Standard
100
AcDbAlignedDimension
13
83
23
6.076498
33
0
14
83
24
-6.076498
34
0
50
90
100
AcDbRotatedDimension
1001
ACAD
1000
DSTYLE
1002
{
1070
   371
1070
    13
1070
   372
1070
    13
1070
     3
1000

1070
   170
1070
     0
1070
   144
1040
1.0
1070
   277
1070
     2
1070
   284
1070
     8
1070
   278
1070
    46
1070
   146
1040
1.166667
1070
   345
1005
16
1070
   347
1005
16
1070
   346
1005
16
1070
   344
1005
0
1070
   343
1005
0
1070
   172
1070
     1
1070
    76
1070
     0
1070
    75
1070
     0
1070
   282
1070
     0
1070
   281
1070
     0
1070
    71
1070
     0
1070
    74
1070
     0
1070
   279
1070
     0
1070
   173
1070
     1
1070
   340
1005
194
1070
   271
1070
     3
1070
   272
1070
     3
1070
    77
1070
     1
1070
    73
1070
     0
1070
   171
1070
     3
1070
   274
1070
     4
1070
   177
1070
     2
1070
   176
1070
     2
1070
   178
1070
     2
1070
    78
1070
     8
1070
    48
1040
-0.1
1070
    41
1040
3.5
1070
   147
1040
1.5
1070
    42
1040
1.5875
1070
    44
1040
2.0
1070
   140
1040
3.0
1002
}
1001
ACAD_DSTYLE_DIM_LINETYPE
1070
   380
1005
16
1001
ACAD_DSTYLE_DIM_EXT1_LINETYPE
1070
   381
1005
16
1001
ACAD_DSTYLE_DIM_EXT2_LINETYPE
1070
   382
1005
16
0
DIMENSION
5
1C6
100
AcDbEntity
8
SK2
62
256
6
ByLayer
370
18
48
1
60
0
100
AcDbDimension
2
_U1
10
79.94
20
15.111164
30
0
11
81.47
21
15.111164
31
0
70
32
71
1
72
1
41
1
210
0
220
0
230
1
3
Standard
100
AcDbAlignedDimension
13
83
23
6.076498
33
0
14
79.94
24
0
34
0
50
0
100
AcDbRotatedDimension
1001
ACAD
1000
DSTYLE
1002
{
1070
   371
1070
    13
1070
   372
1070
    13
1070
   170
1070
     0
1070
   144
1040
1.0
1070
   277
1070
     2
1070
   284
1070
     8
1070
   278
1070
    46
1070
   146
1040
1.166667
1070
   345
1005
16
1070
   347
1005
16
1070
   346
1005
16
1070
   344
1005
0
1070
   343
1005
0
1070
   172
1070
     1
1070
    76
1070
     0
1070
    75
1070
     0
1070
   282
1070
     0
1070
   281
1070
     0
1070
    71
1070
     0
1070
    74
1070
     0
1070
   279
1070
     0
1070
   173
1070
     1
1070
   340
1005
194
1070
   271
1070
     3
1070
   272
1070
     3
1070
    77
1070
     1
1070
    73
1070
     1
1070
   171
1070
     3
1070
   274
1070
     4
1070
   177
1070
     2
1070
   176
1070
     2
1070
   178
1070
     2
1070
    78
1070
     8
1070
    48
1040
-0.1
1070
    41
1040
3.5
1070
   147
1040
1.5
1070
    42
1040
1.5875
1070
    44
1040
2.0
1070
   140
1040
3.0
1002
}
1001
ACAD_DSTYLE_DIM_LINETYPE
1070
   380
1005
16
1001
ACAD_DSTYLE_DIM_EXT1_LINETYPE
1070
   381
1005
16
1001
ACAD_DSTYLE_DIM_EXT2_LINETYPE
1070
   382
1005
16
0
DIMENSION
5
1E0
100
AcDbEntity
8
SK2
62
256
6
ByLayer
370
18
48
1
60
0
100
AcDbDimension
2
_U2
10
67
20
-13.076498
30
0
11
95.291504
21
-13.076498
31
0
70
32
71
1
72
1
41
1
210
0
220
0
230
1
3
Standard
100
AcDbAlignedDimension
13
83
23
-6.076498
33
0
14
67
24
-6.076498
34
0
50
0
100
AcDbRotatedDimension
1001
ACAD
1000
DSTYLE
1002
{
1070
   371
1070
    13
1070
   372
1070
    13
1070
   170
1070
     0
1070
   144
1040
1.0
1070
   277
1070
     2
1070
   284
1070
     8
1070
   278
1070
    46
1070
   146
1040
0.833333
1070
   345
1005
16
1070
   347
1005
16
1070
   346
1005
16
1070
   344
1005
0
1070
   343
1005
0
1070
   172
1070
     1
1070
    76
1070
     0
1070
    75
1070
     0
1070
   282
1070
     0
1070
   281
1070
     0
1070
    47
1040
0.5
1070
    72
1070
     0
1070
    71
1070
     1
1070
    74
1070
     0
1070
   279
1070
     0
1070
   173
1070
     1
1070
   340
1005
194
1070
   271
1070
     1
1070
   272
1070
     3
1070
    77
1070
     1
1070
    73
1070
     1
1070
   171
1070
     3
1070
   274
1070
     4
1070
   177
1070
     2
1070
   176
1070
     2
1070
   178
1070
     2
1070
    78
1070
     8
1070
    48
1040
0.5
1070
    41
1040
3.5
1070
   147
1040
1.5
1070
    42
1040
1.5875
1070
    44
1040
2.0
1070
   140
1040
3.0
1002
}
1001
ACAD_DSTYLE_DIM_LINETYPE
1070
   380
1005
16
1001
ACAD_DSTYLE_DIM_EXT1_LINETYPE
1070
   381
1005
16
1001
ACAD_DSTYLE_DIM_EXT2_LINETYPE
1070
   382
1005
16
0
DIMENSION
5
1FA
100
AcDbEntity
8
SK2
62
256
6
ByLayer
370
18
48
1
60
0
100
AcDbDimension
2
_U3
10
28
20
-35.576498
30
0
11
55.5
21
-35.576498
31
0
70
32
71
1
72
1
41
1
210
0
220
0
230
1
3
Standard
100
AcDbAlignedDimension
13
83
23
-6.076498
33
0
14
28
24
-4.35
34
0
50
0
100
AcDbRotatedDimension
1001
ACAD
1000
DSTYLE
1002
{
1070
   371
1070
    13
1070
   372
1070
    13
1070
   170
1070
     0
1070
   144
1040
1.0
1070
   277
1070
     2
1070
   284
1070
     8
1070
   278
1070
    46
1070
   146
1040
1.166667
1070
   345
1005
16
1070
   347
1005
16
1070
   346
1005
16
1070
   344
1005
0
1070
   343
1005
0
1070
   172
1070
     1
1070
    76
1070
     0
1070
    75
1070
     0
1070
   282
1070
     0
1070
   281
1070
     0
1070
    71
1070
     0
1070
    74
1070
     0
1070
   279
1070
     0
1070
   173
1070
     1
1070
   340
1005
194
1070
   271
1070
     1
1070
   272
1070
     3
1070
    77
1070
     1
1070
    73
1070
     1
1070
   171
1070
     3
1070
   274
1070
     4
1070
   177
1070
     2
1070
   176
1070
     2
1070
   178
1070
     2
1070
    78
1070
     8
1070
    48
1040
-0.1
1070
    41
1040
3.5
1070
   147
1040
1.5
1070
    42
1040
1.5875
1070
    44
1040
2.0
1070
   140
1040
3.0
1002
}
1001
ACAD_DSTYLE_DIM_LINETYPE
1070
   380
1005
16
1001
ACAD_DSTYLE_DIM_EXT1_LINETYPE
1070
   381
1005
16
1001
ACAD_DSTYLE_DIM_EXT2_LINETYPE
1070
   382
1005
16
0
DIMENSION
5
212
100
AcDbEntity
8
2
62
256
6
ByLayer
370
18
48
1
60
0
100
AcDbDimension
2
_U4
10
36.25
20
-24.576498
30
0
11
59.625
21
-24.576498
31
0
70
32
71
1
72
1
41
1
210
0
220
0
230
1
3
Standard
100
AcDbAlignedDimension
13
83
23
-6.076498
33
0
14
36.25
24
0
34
0
50
0
100
AcDbRotatedDimension
1001
ACAD
1000
DSTYLE
1002
{
1070
   371
1070
    13
1070
   372
1070
    13
1070
   170
1070
     0
1070
   144
1040
1.0
1070
   277
1070
     2
1070
   284
1070
     8
1070
   278
1070
    46
1070
   146
1040
1.166667
1070
   345
1005
16
1070
   347
1005
16
1070
   346
1005
16
1070
   344
1005
0
1070
   343
1005
0
1070
   172
1070
     1
1070
    76
1070
     0
1070
    75
1070
     0
1070
   282
1070
     0
1070
   281
1070
     0
1070
    71
1070
     0
1070
    74
1070
     0
1070
   279
1070
     0
1070
   173
1070
     1
1070
   340
1005
194
1070
   271
1070
     1
1070
   272
1070
     3
1070
    77
1070
     1
1070
    73
1070
     1
1070
   171
1070
     3
1070
   274
1070
     4
1070
   177
1070
     2
1070
   176
1070
     2
1070
   178
1070
     2
1070
    78
1070
     8
1070
    48
1040
-0.1
1070
    41
1040
3.5
1070
   147
1040
1.5
1070
    42
1040
1.5875
1070
    44
1040
2.0
1070
   140
1040
3.0
1002
}
1001
ACAD_DSTYLE_DIM_LINETYPE
1070
   380
1005
16
1001
ACAD_DSTYLE_DIM_EXT1_LINETYPE
1070
   381
1005
16
1001
ACAD_DSTYLE_DIM_EXT2_LINETYPE
1070
   382
1005
16
0
ENDSEC
0
SECTION
2
OBJECTS
0
DICTIONARY
5
29a
330
0
100
AcDbDictionary
280
0
281
1
3
ACAD_GROUP
350
29b
3
ACAD_MLINESTYLE
350
29c
0
DICTIONARY
5
29b
330
0
100
AcDbDictionary
280
0
281
1
0
DICTIONARY
5
29c
330
0
100
AcDbDictionary
280
0
281
1
3
Standard
350
18
0
MLINESTYLE
5
18
330
29c
100
AcDbMlineStyle
2
Standard
70
0
3

62
256
51
90
52
90
71
2
49
-0.5
62
256
6
ByLayer
49
0.5
62
256
6
ByLayer
0
RASTERVARIABLES
5
288
330

100
AcDbRasterVariables
90
0
70
1
71
1
72
1
0
ENDSEC
0
EOF
