0
SECTION
2
HEADER
9
$ACADVER
1
AC1015
9
$DWGCODEPAGE
3
ANSI_1252
9
$HANDSEED
5
2cb
9
$ANGBASE
50
0
9
$ANGDIR
70
0
9
$ATTMODE
70
1
9
$AUNITS
70
0
9
$AUPREC
70
0
9
$CECOLOR
62
256
9
$CELTSCALE
40
1
9
$CELTYPE
6
ByLayer
9
$CELWEIGHT
370
18
9
$CLAYER
8
0
9
$CMLJUST
70
0
9
$CMLSCALE
40
1
9
$CMLSTYLE
2
Standard
9
$DIMSTYLE
2
Standard
9
$TEXTSIZE
40
0.2
9
$TEXTSTYLE
7
Standard
9
$LUNITS
70
2
9
$LUPREC
70
4
9
$EXTNAMES
290
1
9
$INSUNITS
70
4
9
$LTSCALE
40
1
9
$LWDISPLAY
290
1
9
$PDMODE
70
0
9
$PDSIZE
40
0
9
$PLINEGEN
70
0
0
ENDSEC
0
SECTION
2
CLASSES
0
CLASS
1
RASTERVARIABLES
2
AcDbRasterVariables
3
ISM
90
0
280
0
281
0
0
ENDSEC
0
SECTION
2
TABLES
0
TABLE
2
VPORT
5
2c1
100
AcDbSymbolTable
0
VPORT
5
1
100
AcDbSymbolTableRecord
100
AcDbViewportTableRecord
2
*Active
70
0
10
0
20
0
11
1
21
1
12
-1
22
1
13
0
23
0
14
0.5
24
0.5
15
10
25
10
16
0
26
0
36
1
17
0
27
0
37
0
0
ENDTAB
0
TABLE
2
LTYPE
5
2c2
100
AcDbSymbolTable
0
LTYPE
5
14
100
AcDbSymbolTableRecord
100
AcDbLinetypeTableRecord
70
0
2
ByBlock
3

72
65
73
0
40
0
0
LTYPE
5
15
100
AcDbSymbolTableRecord
100
AcDbLinetypeTableRecord
70
0
2
ByLayer
3

72
65
73
0
40
0
0
LTYPE
5
16
100
AcDbSymbolTableRecord
100
AcDbLinetypeTableRecord
70
0
2
Continuous
3
Solid line
72
65
73
0
40
0
0
LTYPE
5
6E
100
AcDbSymbolTableRecord
100
AcDbLinetypeTableRecord
70
0
2
CENTER
3
____ _ ____ _ ____ _ ____
72
65
73
4
40
47.5
49
22
74
0
49
-8.5
74
0
49
8.5
74
0
49
-8.5
74
0
0
LTYPE
5
6F
100
AcDbSymbolTableRecord
100
AcDbLinetypeTableRecord
70
0
2
DASHED
3
__ __ __ __ __ __ __ __ __
72
65
73
2
40
25.72
49
12.86
74
0
49
-12.86
74
0
0
ENDTAB
0
TABLE
2
LAYER
5
2c3
100
AcDbSymbolTable
0
LAYER
5
10
100
AcDbSymbolTableRecord
100
AcDbLayerTableRecord
2
0
70
0
62
7
6
Continuous
290
1
370
-3
390
0
0
LAYER
5
71
100
AcDbSymbolTableRecord
100
AcDbLayerTableRecord
2
81
70
0
62
-3
6
Continuous
290
1
370
-3
390
0
0
LAYER
5
73
100
AcDbSymbolTableRecord
100
AcDbLayerTableRecord
2
80
70
0
62
-6
6
Continuous
290
1
370
-3
390
0
0
LAYER
5
75
100
AcDbSymbolTableRecord
100
AcDbLayerTableRecord
2
1
70
0
62
4
6
Continuous
290
1
370
-3
390
0
0
LAYER
5
81
100
AcDbSymbolTableRecord
100
AcDbLayerTableRecord
2
4
70
0
62
-2
6
CENTER
290
1
370
-3
390
0
0
LAYER
5
C4
100
AcDbSymbolTableRecord
100
AcDbLayerTableRecord
2
2
70
0
62
7
6
Continuous
290
1
370
-3
390
0
0
LAYER
5
1D1
100
AcDbSymbolTableRecord
100
AcDbLayerTableRecord
2
Defpoints
70
0
62
7
6
Continuous
290
0
370
-3
390
0
0
LAYER
5
2ad
100
AcDbSymbolTableRecord
100
AcDbLayerTableRecord
2
SK4
70
0
62
2
6
CENTER
290
1
370
-3
390
0
0
LAYER
5
2ae
100
AcDbSymbolTableRecord
100
AcDbLayerTableRecord
2
SK1
70
0
62
4
6
Continuous
290
1
370
-3
390
0
0
LAYER
5
2af
100
AcDbSymbolTableRecord
100
AcDbLayerTableRecord
2
SK2
70
0
62
7
6
Continuous
290
1
370
-3
390
0
0
LAYER
5
2b0
100
AcDbSymbolTableRecord
100
AcDbLayerTableRecord
2
SK6
70
0
62
5
6
Continuous
290
1
370
-3
390
0
0
ENDTAB
0
TABLE
2
STYLE
5
2c4
100
AcDbSymbolTable
0
STYLE
5
11
100
AcDbSymbolTableRecord
100
AcDbTextStyleTableRecord
2
Standard
3
txt
70
0
71
0
40
0
41
1
42
0
50
0
0
STYLE
5
1B7
100
AcDbSymbolTableRecord
100
AcDbTextStyleTableRecord
2
iso_b_vert
3
simplex.shx
70
0
71
0
40
0
41
1
42
0
50
0
0
STYLE
5
1B8
100
AcDbSymbolTableRecord
100
AcDbTextStyleTableRecord
2
DWGDirectTextStyle
3
simplex
70
0
71
0
40
0
41
1
42
0
50
0
0
ENDTAB
0
TABLE
2
DIMSTYLE
5
2c5
100
AcDbSymbolTable
100
AcDbDimStyleTable
0
DIMSTYLE
105
27
100
AcDbSymbolTableRecord
100
AcDbDimStyleTableRecord
2
Standard
70
0
3
<>
41
0.18
42
0.0625
44
0.18
140
0.18
147
0.09
73
0
74
0
77
1
271
2
275
0
278
52
280
0
340
11
0
ENDTAB
0
TABLE
2
VIEW
5
2c6
100
AcDbSymbolTable
0
ENDTAB
0
TABLE
2
UCS
5
2c7
100
AcDbSymbolTable
0
ENDTAB
0
TABLE
2
APPID
5
2c8
100
AcDbSymbolTable
0
APPID
5
12
100
AcDbSymbolTableRecord
100
AcDbRegAppTableRecord
2
ACAD
70
0
0
APPID
5
1CD
100
AcDbSymbolTableRecord
100
AcDbRegAppTableRecord
2
ACAD_DSTYLE_DIMBREAK
70
0
0
APPID
5
26C
100
AcDbSymbolTableRecord
100
AcDbRegAppTableRecord
2
ACAD_DSTYLE_DIM_LINETYPE
70
0
0
APPID
5
26D
100
AcDbSymbolTableRecord
100
AcDbRegAppTableRecord
2
ACAD_DSTYLE_DIM_EXT1_LINETYPE
70
0
0
APPID
5
26E
100
AcDbSymbolTableRecord
100
AcDbRegAppTableRecord
2
ACAD_DSTYLE_DIM_EXT2_LINETYPE
70
0
0
APPID
5
2A9
100
AcDbSymbolTableRecord
100
AcDbRegAppTableRecord
2
ACAD_MLEADERVER
70
0
0
ENDTAB
0
TABLE
2
BLOCK_RECORD
5
2c9
100
AcDbSymbolTable
0
BLOCK_RECORD
5
1F
100
AcDbSymbolTableRecord
100
AcDbBlockTableRecord
2
*Model_Space
340
0
70
0
0
BLOCK_RECORD
5
1B
100
AcDbSymbolTableRecord
100
AcDbBlockTableRecord
2
*Paper_Space
340
0
70
0
0
BLOCK_RECORD
5
23
100
AcDbSymbolTableRecord
100
AcDbBlockTableRecord
2
*Paper_Space0
340
0
70
0
0
BLOCK_RECORD
5
1D2
100
AcDbSymbolTableRecord
100
AcDbBlockTableRecord
2
*D1
340
0
70
0
0
BLOCK_RECORD
5
1E0
100
AcDbSymbolTableRecord
100
AcDbBlockTableRecord
2
_U0
340
0
70
0
0
BLOCK_RECORD
5
1EC
100
AcDbSymbolTableRecord
100
AcDbBlockTableRecord
2
*D3
340
0
70
0
0
BLOCK_RECORD
5
1F9
100
AcDbSymbolTableRecord
100
AcDbBlockTableRecord
2
_U1
340
0
70
0
0
BLOCK_RECORD
5
206
100
AcDbSymbolTableRecord
100
AcDbBlockTableRecord
2
*D5
340
0
70
0
0
BLOCK_RECORD
5
214
100
AcDbSymbolTableRecord
100
AcDbBlockTableRecord
2
_U2
340
0
70
0
0
BLOCK_RECORD
5
221
100
AcDbSymbolTableRecord
100
AcDbBlockTableRecord
2
*D7
340
0
70
0
0
BLOCK_RECORD
5
22D
100
AcDbSymbolTableRecord
100
AcDbBlockTableRecord
2
_U3
340
0
70
0
0
BLOCK_RECORD
5
239
100
AcDbSymbolTableRecord
100
AcDbBlockTableRecord
2
*D9
340
0
70
0
0
BLOCK_RECORD
5
245
100
AcDbSymbolTableRecord
100
AcDbBlockTableRecord
2
_U4
340
0
70
0
0
ENDTAB
0
ENDSEC
0
SECTION
2
BLOCKS
0
BLOCK
5
20
100
AcDbEntity
8
0
100
AcDbBlockBegin
2
*Model_Space
70
0
10
0
20
0
30
0
3
*Model_Space
0
ENDBLK
5
21
100
AcDbEntity
8
0
100
AcDbBlockEnd
0
BLOCK
5
1C
100
AcDbEntity
8
0
100
AcDbBlockBegin
2
*Paper_Space
70
0
10
0
20
0
30
0
3
*Paper_Space
0
ENDBLK
5
1D
100
AcDbEntity
8
0
100
AcDbBlockEnd
0
BLOCK
5
24
100
AcDbEntity
8
0
100
AcDbBlockBegin
2
*Paper_Space0
70
0
10
0
20
0
30
0
3
*Paper_Space0
0
ENDBLK
5
25
100
AcDbEntity
8
0
100
AcDbBlockEnd
0
BLOCK
5
1D3
100
AcDbEntity
8
0
100
AcDbBlockBegin
2
*D1
70
1
10
0
20
0
30
0
3
*D1
0
LINE
5
1D5
100
AcDbEntity
8
0
62
256
6
ByLayer
370
-2
48
1
60
0
100
AcDbLine
10
67.5875
20
4.064208
30
0
11
87.5
21
4.064208
31
0
39
0
210
0
220
0
230
1
0
LINE
5
1D6
100
AcDbEntity
8
0
62
256
6
ByLayer
370
-2
48
1
60
0
100
AcDbLine
10
67.5875
20
-4.064208
30
0
11
87.5
21
-4.064208
31
0
39
0
210
0
220
0
230
1
0
LINE
5
1D7
100
AcDbEntity
8
0
62
256
6
ByLayer
370
-2
48
1
60
0
100
AcDbLine
10
85.5
20
4.064208
30
0
11
85.5
21
32.064208
31
0
39
0
210
0
220
0
230
1
0
LINE
5
1D8
100
AcDbEntity
8
0
62
256
6
ByLayer
370
-2
48
1
60
0
100
AcDbLine
10
85.5
20
7.564208
30
0
11
85.5
21
11.064208
31
0
39
0
210
0
220
0
230
1
0
LINE
5
1D9
100
AcDbEntity
8
0
62
256
6
ByLayer
370
-2
48
1
60
0
100
AcDbLine
10
85.5
20
-7.564208
30
0
11
85.5
21
-11.064208
31
0
39
0
210
0
220
0
230
1
0
SOLID
5
1DA
100
AcDbEntity
8
0
62
256
6
ByLayer
370
-1
48
1
60
0
100
AcDbTrace
10
84.916667
20
7.564208
30
0
11
86.083333
21
7.564208
31
0
12
85.5
22
4.064208
32
0
13
85.5
23
4.064208
33
0
39
0
210
0
220
0
230
1
0
SOLID
5
1DB
100
AcDbEntity
8
0
62
256
6
ByLayer
370
-1
48
1
60
0
100
AcDbTrace
10
86.083333
20
-7.564208
30
0
11
84.916667
21
-7.564208
31
0
12
85.5
22
-4.064208
32
0
13
85.5
23
-4.064208
33
0
39
0
210
0
220
0
230
1
0
MTEXT
5
1DC
100
AcDbEntity
8
0
62
256
6
ByLayer
370
18
48
1
60
0
100
AcDbMText
10
79.5
20
21.564208
30
0
210
0
220
0
230
1
1
\A1;8.128
40
3
41
0
44
1
50
90
71
5
72
5
7
iso_b_vert
0
POINT
5
1DD
100
AcDbEntity
8
Defpoints
62
0
6
ByLayer
370
-1
48
1
60
0
100
AcDbPoint
10
66
20
4.064208
30
0
39
0
210
0
220
0
230
1
50
360
0
POINT
5
1DE
100
AcDbEntity
8
Defpoints
62
0
6
ByLayer
370
-1
48
1
60
0
100
AcDbPoint
10
66
20
-4.064208
30
0
39
0
210
0
220
0
230
1
50
360
0
POINT
5
1DF
100
AcDbEntity
8
Defpoints
62
0
6
ByLayer
370
-1
48
1
60
0
100
AcDbPoint
10
85.5
20
-4.064208
30
0
39
0
210
0
220
0
230
1
50
360
0
ENDBLK
5
1D4
100
AcDbEntity
8
0
100
AcDbBlockEnd
0
BLOCK
5
1E7
100
AcDbEntity
8
0
100
AcDbBlockBegin
2
_U0
70
0
10
0
20
0
30
0
3
_U0
0
MTEXT
5
1E1
100
AcDbEntity
8
2
62
256
6
ByLayer
370
18
48
1
60
0
100
AcDbMText
10
84.908886
20
14.199208
30
0
210
0
220
0
230
1
1
\W0.7203;M8
40
3
41
0
44
1.084337
50
90
71
7
72
5
7
iso_b_vert
0
LINE
5
1E2
100
AcDbEntity
8
2
62
256
6
ByLayer
370
13
48
1
60
0
100
AcDbLine
10
67.5875
20
4.064208
30
0
11
87.5
21
4.064208
31
0
39
0
210
0
220
0
230
1
0
LINE
5
1E3
100
AcDbEntity
8
2
62
256
6
ByLayer
370
13
48
1
60
0
100
AcDbLine
10
67.5875
20
-4.064208
30
0
11
87.5
21
-4.064208
31
0
39
0
210
0
220
0
230
1
0
LINE
5
1E4
100
AcDbEntity
8
2
62
256
6
ByLayer
370
13
48
1
60
0
100
AcDbLine
10
85.5
20
-4.064208
30
0
11
85.5
21
18.319008
31
0
39
0
210
0
220
0
230
1
0
SOLID
5
1E5
100
AcDbEntity
8
2
62
256
6
ByLayer
370
18
48
1
60
0
100
AcDbTrace
10
85.5
20
4.064208
30
0
11
85.960784
21
0.56421
31
0
12
85.039216
22
0.564207
32
0
13
85.039216
23
0.564207
33
0
39
0
210
0
220
0
230
1
0
SOLID
5
1E6
100
AcDbEntity
8
2
62
256
6
ByLayer
370
18
48
1
60
0
100
AcDbTrace
10
85.5
20
-4.064208
30
0
11
85.039216
21
-0.56421
31
0
12
85.960784
22
-0.564207
32
0
13
85.960784
23
-0.564207
33
0
39
0
210
0
220
0
230
1
0
ENDBLK
5
1E8
100
AcDbEntity
8
0
100
AcDbBlockEnd
0
BLOCK
5
1ED
100
AcDbEntity
8
0
100
AcDbBlockBegin
2
*D3
70
1
10
0
20
0
30
0
3
*D3
0
LINE
5
1EF
100
AcDbEntity
8
0
62
256
6
ByLayer
370
-2
48
1
60
0
100
AcDbLine
10
66
20
5.651708
30
0
11
66
21
15.890393
31
0
39
0
210
0
220
0
230
1
0
LINE
5
1F0
100
AcDbEntity
8
0
62
256
6
ByLayer
370
-2
48
1
60
0
100
AcDbLine
10
63.81
20
1.5875
30
0
11
63.81
21
15.890393
31
0
39
0
210
0
220
0
230
1
0
LINE
5
1F1
100
AcDbEntity
8
0
62
256
6
ByLayer
370
-2
48
1
60
0
100
AcDbLine
10
69.5
20
13.890393
30
0
11
73
21
13.890393
31
0
39
0
210
0
220
0
230
1
0
LINE
5
1F2
100
AcDbEntity
8
0
62
256
6
ByLayer
370
-2
48
1
60
0
100
AcDbLine
10
60.31
20
13.890393
30
0
11
56.81
21
13.890393
31
0
39
0
210
0
220
0
230
1
0
SOLID
5
1F3
100
AcDbEntity
8
0
62
256
6
ByLayer
370
-1
48
1
60
0
100
AcDbTrace
10
69.5
20
14.473726
30
0
11
69.5
21
13.307059
31
0
12
66
22
13.890393
32
0
13
66
23
13.890393
33
0
39
0
210
0
220
0
230
1
0
SOLID
5
1F4
100
AcDbEntity
8
0
62
256
6
ByLayer
370
-1
48
1
60
0
100
AcDbTrace
10
60.31
20
13.307059
30
0
11
60.31
21
14.473726
31
0
12
63.81
22
13.890393
32
0
13
63.81
23
13.890393
33
0
39
0
210
0
220
0
230
1
0
MTEXT
5
1F5
100
AcDbEntity
8
0
62
256
6
ByLayer
370
18
48
1
60
0
100
AcDbMText
10
64.905
20
19.890393
30
0
210
0
220
0
230
1
1
\A1;2.19
40
3
41
0
44
1
50
0
71
5
72
5
7
iso_b_vert
0
POINT
5
1F6
100
AcDbEntity
8
Defpoints
62
0
6
ByLayer
370
-1
48
1
60
0
100
AcDbPoint
10
66
20
4.064208
30
0
39
0
210
0
220
0
230
1
50
360
0
POINT
5
1F7
100
AcDbEntity
8
Defpoints
62
0
6
ByLayer
370
-1
48
1
60
0
100
AcDbPoint
10
63.81
20
0
30
0
39
0
210
0
220
0
230
1
50
360
0
POINT
5
1F8
100
AcDbEntity
8
Defpoints
62
0
6
ByLayer
370
-1
48
1
60
0
100
AcDbPoint
10
63.81
20
13.890393
30
0
39
0
210
0
220
0
230
1
50
360
0
ENDBLK
5
1EE
100
AcDbEntity
8
0
100
AcDbBlockEnd
0
BLOCK
5
201
100
AcDbEntity
8
0
100
AcDbBlockBegin
2
_U1
70
0
10
0
20
0
30
0
3
_U1
0
MTEXT
5
1FA
100
AcDbEntity
8
SK2
62
256
6
ByLayer
370
18
48
1
60
0
100
AcDbMText
10
61.944986
20
14.673026
30
0
210
0
220
0
230
1
1
\W0.6844;'E'
40
3.5
41
0
44
1.084337
50
0
71
7
72
5
7
iso_b_vert
0
MTEXT
5
1FB
100
AcDbEntity
8
SK2
62
256
6
ByLayer
370
18
48
1
60
0
100
AcDbMText
10
61.918486
20
21.775507
30
0
210
0
220
0
230
1
1
\W0.6662;2.19
40
3
41
0
44
1.084337
50
0
71
7
72
5
7
iso_b_vert
0
LINE
5
1FC
100
AcDbEntity
8
SK2
62
256
6
ByLayer
370
13
48
1
60
0
100
AcDbLine
10
66
20
5.651708
30
0
11
66
21
15.890393
31
0
39
0
210
0
220
0
230
1
0
LINE
5
1FD
100
AcDbEntity
8
SK2
62
256
6
ByLayer
370
13
48
1
60
0
100
AcDbLine
10
63.81
20
1.5875
30
0
11
63.81
21
15.890393
31
0
39
0
210
0
220
0
230
1
0
LINE
5
1FE
100
AcDbEntity
8
SK2
62
256
6
ByLayer
370
13
48
1
60
0
100
AcDbLine
10
73.5
20
13.890393
30
0
11
56.31
21
13.890393
31
0
39
0
210
0
220
0
230
1
0
SOLID
5
1FF
100
AcDbEntity
8
SK2
62
256
6
ByLayer
370
18
48
1
60
0
100
AcDbTrace
10
66
20
13.890393
30
0
11
69.499998
21
14.351177
31
0
12
69.500002
22
13.429609
32
0
13
69.500002
23
13.429609
33
0
39
0
210
0
220
0
230
1
0
SOLID
5
200
100
AcDbEntity
8
SK2
62
256
6
ByLayer
370
18
48
1
60
0
100
AcDbTrace
10
63.81
20
13.890393
30
0
11
60.310002
21
13.429609
31
0
12
60.309998
22
14.351177
32
0
13
60.309998
23
14.351177
33
0
39
0
210
0
220
0
230
1
0
ENDBLK
5
202
100
AcDbEntity
8
0
100
AcDbBlockEnd
0
BLOCK
5
207
100
AcDbEntity
8
0
100
AcDbBlockBegin
2
*D5
70
1
10
0
20
0
30
0
3
*D5
0
LINE
5
209
100
AcDbEntity
8
0
62
256
6
ByLayer
370
-2
48
1
60
0
100
AcDbLine
10
66
20
-5.651708
30
0
11
66
21
-13.064208
31
0
39
0
210
0
220
0
230
1
0
LINE
5
20A
100
AcDbEntity
8
0
62
256
6
ByLayer
370
-2
48
1
60
0
100
AcDbLine
10
54
20
-5.651708
30
0
11
54
21
-13.064208
31
0
39
0
210
0
220
0
230
1
0
LINE
5
20B
100
AcDbEntity
8
0
62
256
6
ByLayer
370
-2
48
1
60
0
100
AcDbLine
10
66
20
-11.064208
30
0
11
86.428571
21
-11.064208
31
0
39
0
210
0
220
0
230
1
0
LINE
5
20C
100
AcDbEntity
8
0
62
256
6
ByLayer
370
-2
48
1
60
0
100
AcDbLine
10
69.5
20
-11.064208
30
0
11
73
21
-11.064208
31
0
39
0
210
0
220
0
230
1
0
LINE
5
20D
100
AcDbEntity
8
0
62
256
6
ByLayer
370
-2
48
1
60
0
100
AcDbLine
10
50.5
20
-11.064208
30
0
11
47
21
-11.064208
31
0
39
0
210
0
220
0
230
1
0
SOLID
5
20E
100
AcDbEntity
8
0
62
256
6
ByLayer
370
-1
48
1
60
0
100
AcDbTrace
10
69.5
20
-10.480875
30
0
11
69.5
21
-11.647542
31
0
12
66
22
-11.064208
32
0
13
66
23
-11.064208
33
0
39
0
210
0
220
0
230
1
0
SOLID
5
20F
100
AcDbEntity
8
0
62
256
6
ByLayer
370
-1
48
1
60
0
100
AcDbTrace
10
50.5
20
-11.647542
30
0
11
50.5
21
-10.480875
31
0
12
54
22
-11.064208
32
0
13
54
23
-11.064208
33
0
39
0
210
0
220
0
230
1
0
MTEXT
5
210
100
AcDbEntity
8
0
62
256
6
ByLayer
370
18
48
1
60
0
100
AcDbMText
10
79.714286
20
-5.064208
30
0
210
0
220
0
230
1
1
\A1;12
40
3
41
0
44
1
50
0
71
5
72
5
7
iso_b_vert
0
POINT
5
211
100
AcDbEntity
8
Defpoints
62
0
6
ByLayer
370
-1
48
1
60
0
100
AcDbPoint
10
66
20
-4.064208
30
0
39
0
210
0
220
0
230
1
50
360
0
POINT
5
212
100
AcDbEntity
8
Defpoints
62
0
6
ByLayer
370
-1
48
1
60
0
100
AcDbPoint
10
54
20
-4.064208
30
0
39
0
210
0
220
0
230
1
50
360
0
POINT
5
213
100
AcDbEntity
8
Defpoints
62
0
6
ByLayer
370
-1
48
1
60
0
100
AcDbPoint
10
54
20
-11.064208
30
0
39
0
210
0
220
0
230
1
50
360
0
ENDBLK
5
208
100
AcDbEntity
8
0
100
AcDbBlockEnd
0
BLOCK
5
21C
100
AcDbEntity
8
0
100
AcDbBlockBegin
2
_U2
70
0
10
0
20
0
30
0
3
_U2
0
MTEXT
5
215
100
AcDbEntity
8
SK2
62
256
6
ByLayer
370
18
48
1
60
0
100
AcDbMText
10
72.159
20
-10.179094
30
0
210
0
220
0
230
1
1
\W0.5321;12
40
3
41
0
44
1.084337
50
0
71
7
72
5
7
iso_b_vert
0
MTEXT
5
216
100
AcDbEntity
8
SK2
62
256
6
ByLayer
370
18
48
1
60
0
100
AcDbMText
10
77.466271
20
-9.826613
30
0
210
0
220
0
230
1
1
\W0.8315;\W0.4158;%%p\W0.8315;0.5
40
2.5
41
0
44
1.084337
50
0
71
7
72
5
7
iso_b_vert
0
LINE
5
217
100
AcDbEntity
8
SK2
62
256
6
ByLayer
370
13
48
1
60
0
100
AcDbLine
10
66
20
-5.651708
30
0
11
66
21
-13.064208
31
0
39
0
210
0
220
0
230
1
0
LINE
5
218
100
AcDbEntity
8
SK2
62
256
6
ByLayer
370
13
48
1
60
0
100
AcDbLine
10
54
20
-5.651708
30
0
11
54
21
-13.064208
31
0
39
0
210
0
220
0
230
1
0
LINE
5
219
100
AcDbEntity
8
SK2
62
256
6
ByLayer
370
13
48
1
60
0
100
AcDbLine
10
54
20
-11.064208
30
0
11
84.583008
21
-11.064208
31
0
39
0
210
0
220
0
230
1
0
SOLID
5
21A
100
AcDbEntity
8
SK2
62
256
6
ByLayer
370
18
48
1
60
0
100
AcDbTrace
10
66
20
-11.064208
30
0
11
62.500002
21
-11.524992
31
0
12
62.499998
22
-10.603425
32
0
13
62.499998
23
-10.603425
33
0
39
0
210
0
220
0
230
1
0
SOLID
5
21B
100
AcDbEntity
8
SK2
62
256
6
ByLayer
370
18
48
1
60
0
100
AcDbTrace
10
54
20
-11.064208
30
0
11
57.499998
21
-10.603425
31
0
12
57.500002
22
-11.524992
32
0
13
57.500002
23
-11.524992
33
0
39
0
210
0
220
0
230
1
0
ENDBLK
5
21D
100
AcDbEntity
8
0
100
AcDbBlockEnd
0
BLOCK
5
222
100
AcDbEntity
8
0
100
AcDbBlockBegin
2
*D7
70
1
10
0
20
0
30
0
3
*D7
0
LINE
5
224
100
AcDbEntity
8
0
62
256
6
ByLayer
370
-2
48
1
60
0
100
AcDbLine
10
66
20
-5.651708
30
0
11
66
21
-35.564208
31
0
39
0
210
0
220
0
230
1
0
LINE
5
225
100
AcDbEntity
8
0
62
256
6
ByLayer
370
-2
48
1
60
0
100
AcDbLine
10
31
20
-4.70135
30
0
11
31
21
-35.564208
31
0
39
0
210
0
220
0
230
1
0
LINE
5
226
100
AcDbEntity
8
0
62
256
6
ByLayer
370
-2
48
1
60
0
100
AcDbLine
10
62.5
20
-33.564208
30
0
11
34.5
21
-33.564208
31
0
39
0
210
0
220
0
230
1
0
SOLID
5
227
100
AcDbEntity
8
0
62
256
6
ByLayer
370
-1
48
1
60
0
100
AcDbTrace
10
62.5
20
-34.147542
30
0
11
62.5
21
-32.980875
31
0
12
66
22
-33.564208
32
0
13
66
23
-33.564208
33
0
39
0
210
0
220
0
230
1
0
SOLID
5
228
100
AcDbEntity
8
0
62
256
6
ByLayer
370
-1
48
1
60
0
100
AcDbTrace
10
34.5
20
-32.980875
30
0
11
34.5
21
-34.147542
31
0
12
31
22
-33.564208
32
0
13
31
23
-33.564208
33
0
39
0
210
0
220
0
230
1
0
MTEXT
5
229
100
AcDbEntity
8
0
62
256
6
ByLayer
370
18
48
1
60
0
100
AcDbMText
10
48.5
20
-27.564208
30
0
210
0
220
0
230
1
1
\A1;35
40
3
41
0
44
1
50
0
71
5
72
5
7
iso_b_vert
0
POINT
5
22A
100
AcDbEntity
8
Defpoints
62
0
6
ByLayer
370
-1
48
1
60
0
100
AcDbPoint
10
66
20
-4.064208
30
0
39
0
210
0
220
0
230
1
50
360
0
POINT
5
22B
100
AcDbEntity
8
Defpoints
62
0
6
ByLayer
370
-1
48
1
60
0
100
AcDbPoint
10
31
20
-3.11385
30
0
39
0
210
0
220
0
230
1
50
360
0
POINT
5
22C
100
AcDbEntity
8
Defpoints
62
0
6
ByLayer
370
-1
48
1
60
0
100
AcDbPoint
10
31
20
-33.564208
30
0
39
0
210
0
220
0
230
1
50
360
0
ENDBLK
5
223
100
AcDbEntity
8
0
100
AcDbBlockEnd
0
BLOCK
5
234
100
AcDbEntity
8
0
100
AcDbBlockBegin
2
_U3
70
0
10
0
20
0
30
0
3
_U3
0
MTEXT
5
22E
100
AcDbEntity
8
SK2
62
256
6
ByLayer
370
18
48
1
60
0
100
AcDbMText
10
46.867172
20
-32.679094
30
0
210
0
220
0
230
1
1
\W0.6740;35
40
3
41
0
44
1.084337
50
0
71
7
72
5
7
iso_b_vert
0
LINE
5
22F
100
AcDbEntity
8
SK2
62
256
6
ByLayer
370
13
48
1
60
0
100
AcDbLine
10
66
20
-5.651708
30
0
11
66
21
-35.564208
31
0
39
0
210
0
220
0
230
1
0
LINE
5
230
100
AcDbEntity
8
SK2
62
256
6
ByLayer
370
13
48
1
60
0
100
AcDbLine
10
31
20
-4.70135
30
0
11
31
21
-35.564208
31
0
39
0
210
0
220
0
230
1
0
LINE
5
231
100
AcDbEntity
8
SK2
62
256
6
ByLayer
370
13
48
1
60
0
100
AcDbLine
10
66
20
-33.564208
30
0
11
31
21
-33.564208
31
0
39
0
210
0
220
0
230
1
0
SOLID
5
232
100
AcDbEntity
8
SK2
62
256
6
ByLayer
370
18
48
1
60
0
100
AcDbTrace
10
66
20
-33.564208
30
0
11
62.500002
21
-34.024992
31
0
12
62.499998
22
-33.103425
32
0
13
62.499998
23
-33.103425
33
0
39
0
210
0
220
0
230
1
0
SOLID
5
233
100
AcDbEntity
8
SK2
62
256
6
ByLayer
370
18
48
1
60
0
100
AcDbTrace
10
31
20
-33.564208
30
0
11
34.499998
21
-33.103425
31
0
12
34.500002
22
-34.024992
32
0
13
34.500002
23
-34.024992
33
0
39
0
210
0
220
0
230
1
0
ENDBLK
5
235
100
AcDbEntity
8
0
100
AcDbBlockEnd
0
BLOCK
5
23A
100
AcDbEntity
8
0
100
AcDbBlockBegin
2
*D9
70
1
10
0
20
0
30
0
3
*D9
0
LINE
5
23C
100
AcDbEntity
8
0
62
256
6
ByLayer
370
-2
48
1
60
0
100
AcDbLine
10
66
20
-5.651708
30
0
11
66
21
-24.564208
31
0
39
0
210
0
220
0
230
1
0
LINE
5
23D
100
AcDbEntity
8
0
62
256
6
ByLayer
370
-2
48
1
60
0
100
AcDbLine
10
36.25
20
-1.5875
30
0
11
36.25
21
-24.564208
31
0
39
0
210
0
220
0
230
1
0
LINE
5
23E
100
AcDbEntity
8
0
62
256
6
ByLayer
370
-2
48
1
60
0
100
AcDbLine
10
62.5
20
-22.564208
30
0
11
39.75
21
-22.564208
31
0
39
0
210
0
220
0
230
1
0
SOLID
5
23F
100
AcDbEntity
8
0
62
256
6
ByLayer
370
-1
48
1
60
0
100
AcDbTrace
10
62.5
20
-23.147542
30
0
11
62.5
21
-21.980875
31
0
12
66
22
-22.564208
32
0
13
66
23
-22.564208
33
0
39
0
210
0
220
0
230
1
0
SOLID
5
240
100
AcDbEntity
8
0
62
256
6
ByLayer
370
-1
48
1
60
0
100
AcDbTrace
10
39.75
20
-21.980875
30
0
11
39.75
21
-23.147542
31
0
12
36.25
22
-22.564208
32
0
13
36.25
23
-22.564208
33
0
39
0
210
0
220
0
230
1
0
MTEXT
5
241
100
AcDbEntity
8
0
62
256
6
ByLayer
370
18
48
1
60
0
100
AcDbMText
10
51.125
20
-16.564208
30
0
210
0
220
0
230
1
1
\A1;29.8
40
3
41
0
44
1
50
0
71
5
72
5
7
iso_b_vert
0
POINT
5
242
100
AcDbEntity
8
Defpoints
62
0
6
ByLayer
370
-1
48
1
60
0
100
AcDbPoint
10
66
20
-4.064208
30
0
39
0
210
0
220
0
230
1
50
360
0
POINT
5
243
100
AcDbEntity
8
Defpoints
62
0
6
ByLayer
370
-1
48
1
60
0
100
AcDbPoint
10
36.25
20
0
30
0
39
0
210
0
220
0
230
1
50
360
0
POINT
5
244
100
AcDbEntity
8
Defpoints
62
0
6
ByLayer
370
-1
48
1
60
0
100
AcDbPoint
10
36.25
20
-22.564208
30
0
39
0
210
0
220
0
230
1
50
360
0
ENDBLK
5
23B
100
AcDbEntity
8
0
100
AcDbBlockEnd
0
BLOCK
5
24C
100
AcDbEntity
8
0
100
AcDbBlockBegin
2
_U4
70
0
10
0
20
0
30
0
3
_U4
0
MTEXT
5
246
100
AcDbEntity
8
2
62
256
6
ByLayer
370
18
48
1
60
0
100
AcDbMText
10
47.763544
20
-21.679094
30
0
210
0
220
0
230
1
1
\W0.7346;29.8
40
3
41
0
44
1.084337
50
0
71
7
72
5
7
iso_b_vert
0
LINE
5
247
100
AcDbEntity
8
2
62
256
6
ByLayer
370
13
48
1
60
0
100
AcDbLine
10
66
20
-5.651708
30
0
11
66
21
-24.564208
31
0
39
0
210
0
220
0
230
1
0
LINE
5
248
100
AcDbEntity
8
2
62
256
6
ByLayer
370
13
48
1
60
0
100
AcDbLine
10
36.25
20
-1.5875
30
0
11
36.25
21
-24.564208
31
0
39
0
210
0
220
0
230
1
0
LINE
5
249
100
AcDbEntity
8
2
62
256
6
ByLayer
370
13
48
1
60
0
100
AcDbLine
10
66
20
-22.564208
30
0
11
36.25
21
-22.564208
31
0
39
0
210
0
220
0
230
1
0
SOLID
5
24A
100
AcDbEntity
8
2
62
256
6
ByLayer
370
18
48
1
60
0
100
AcDbTrace
10
66
20
-22.564208
30
0
11
62.500002
21
-23.024992
31
0
12
62.499998
22
-22.103425
32
0
13
62.499998
23
-22.103425
33
0
39
0
210
0
220
0
230
1
0
SOLID
5
24B
100
AcDbEntity
8
2
62
256
6
ByLayer
370
18
48
1
60
0
100
AcDbTrace
10
36.25
20
-22.564208
30
0
11
39.749998
21
-22.103425
31
0
12
39.750002
22
-23.024992
32
0
13
39.750002
23
-23.024992
33
0
39
0
210
0
220
0
230
1
0
ENDBLK
5
24D
100
AcDbEntity
8
0
100
AcDbBlockEnd
0
ENDSEC
0
SECTION
2
ENTITIES
0
ARC
5
CD
100
AcDbEntity
8
SK1
62
256
6
ByLayer
370
18
48
1
60
0
100
AcDbCircle
39
0
10
-18.1
20
0
30
0
40
3.83999999999988
210
0
220
0
230
1
100
AcDbArc
50
323.832158
51
36.167842
0
ARC
5
CE
100
AcDbEntity
8
1
62
256
6
ByLayer
370
18
48
1
60
0
100
AcDbCircle
39
0
10
31.096238
20
-4.21385
30
0
40
1.1
210
0
220
0
230
1
100
AcDbArc
50
90
51
100
0
ARC
5
CF
100
AcDbEntity
8
1
62
256
6
ByLayer
370
18
48
1
60
0
100
AcDbCircle
39
0
10
31.096238
20
4.21385
30
0
40
1.1
210
0
220
0
230
1
100
AcDbArc
50
260
51
270
0
POINT
5
70
100
AcDbEntity
8
81
62
256
6
ByLayer
370
18
48
1
60
0
100
AcDbPoint
10
67.55
20
0
30
0
39
0
210
0
220
0
230
1
50
360
0
POINT
5
72
100
AcDbEntity
8
80
62
256
6
ByLayer
370
18
48
1
60
0
100
AcDbPoint
10
0
20
0
30
0
39
0
210
0
220
0
230
1
50
360
0
POINT
5
74
100
AcDbEntity
8
1
62
256
6
ByLayer
370
18
48
1
60
1
100
AcDbPoint
10
66
20
4.064208
30
0
39
0
210
0
220
0
230
1
50
360
0
POINT
5
76
100
AcDbEntity
8
1
62
256
6
ByLayer
370
18
48
1
60
1
100
AcDbPoint
10
66
20
-4.064208
30
0
39
0
210
0
220
0
230
1
50
360
0
POINT
5
77
100
AcDbEntity
8
1
62
256
6
ByLayer
370
18
48
1
60
1
100
AcDbPoint
10
66
20
4.064208
30
0
39
0
210
0
220
0
230
1
50
360
0
POINT
5
78
100
AcDbEntity
8
1
62
256
6
ByLayer
370
18
48
1
60
1
100
AcDbPoint
10
63.81
20
0
30
0
39
0
210
0
220
0
230
1
50
360
0
POINT
5
79
100
AcDbEntity
8
1
62
256
6
ByLayer
370
18
48
1
60
1
100
AcDbPoint
10
66
20
-4.064208
30
0
39
0
210
0
220
0
230
1
50
360
0
POINT
5
7A
100
AcDbEntity
8
1
62
256
6
ByLayer
370
18
48
1
60
1
100
AcDbPoint
10
54
20
-4.064208
30
0
39
0
210
0
220
0
230
1
50
360
0
POINT
5
7B
100
AcDbEntity
8
1
62
256
6
ByLayer
370
18
48
1
60
1
100
AcDbPoint
10
66
20
-4.064208
30
0
39
0
210
0
220
0
230
1
50
360
0
POINT
5
7C
100
AcDbEntity
8
1
62
256
6
ByLayer
370
18
48
1
60
1
100
AcDbPoint
10
31
20
-3.11385
30
0
39
0
210
0
220
0
230
1
50
360
0
POINT
5
7D
100
AcDbEntity
8
1
62
256
6
ByLayer
370
18
48
1
60
1
100
AcDbPoint
10
66
20
-4.064208
30
0
39
0
210
0
220
0
230
1
50
360
0
POINT
5
7E
100
AcDbEntity
8
1
62
256
6
ByLayer
370
18
48
1
60
1
100
AcDbPoint
10
36.25
20
0
30
0
39
0
210
0
220
0
230
1
50
360
0
SPLINE
5
D0
100
AcDbEntity
8
1
62
256
6
ByLayer
370
18
48
1
60
0
100
AcDbSpline
70
4
71
3
72
8
73
4
40
0
40
0
40
0
40
0
40
1
40
1
40
1
40
1
41
1
10
65.3158846230629
20
3.36287653497141
30
0
41
1
10
65.3200164798656
20
3.3737629684411
30
0
41
1
10
65.3241431934838
20
3.38199760852527
30
0
41
1
10
65.3282905311646
20
3.38755376364045
30
0
0
SPLINE
5
D1
100
AcDbEntity
8
1
62
256
6
ByLayer
370
18
48
1
60
0
100
AcDbSpline
70
4
71
3
72
8
73
4
40
0
40
0
40
0
40
0
40
1
40
1
40
1
40
1
41
1
10
56.9622495502681
20
4.04987985501523
30
0
41
1
10
56.967666227939
20
4.05910312756143
30
0
41
1
10
56.9730487697773
20
4.06389051305749
30
0
41
1
10
56.9784105630201
20
4.06419306798887
30
0
0
SPLINE
5
D2
100
AcDbEntity
8
1
62
256
6
ByLayer
370
18
48
1
60
0
100
AcDbSpline
70
4
71
3
72
8
73
4
40
0
40
0
40
0
40
0
40
1
40
1
40
1
40
1
41
1
10
64.0933077619013
20
-3.86725388552898
30
0
41
1
10
64.089310255969
20
-3.87610760216296
30
0
41
1
10
64.0853159217103
20
-3.88323291405985
30
0
41
1
10
64.0813319401566
20
-3.88862034610321
30
0
0
SPLINE
5
D3
100
AcDbEntity
8
1
62
256
6
ByLayer
370
18
48
1
60
0
100
AcDbSpline
70
4
71
3
72
9
73
5
40
0
40
0
40
0
40
0
40
0.145211963274932
40
1
40
1
40
1
40
1
41
1
10
64.0739679169749
20
-3.89660808021517
30
0
41
1
10
64.0726437193638
20
-3.89768865266419
30
0
41
1
10
64.0635359892005
20
-3.90379298123034
30
0
41
1
10
64.0545189818628
20
-3.90067326558506
30
0
41
1
10
64.0468440729164
20
-3.89110103998223
30
0
0
SPLINE
5
D4
100
AcDbEntity
8
1
62
256
6
ByLayer
370
18
48
1
60
0
100
AcDbSpline
70
4
71
3
72
14
73
10
40
0
40
0
40
0
40
0
40
0.4403368381349
40
0.4403368381349
40
0.66050525720235
40
0.66050525720235
40
0.8806736762698
40
0.8806736762698
40
1
40
1
40
1
40
1
41
1
10
63.7928746618521
20
-3.96658518871339
30
0
41
1
10
63.7960359349174
20
-3.97644147458132
30
0
41
1
10
63.7991858368115
20
-3.98454942661388
30
0
41
1
10
63.8038833623097
20
-3.99407887729649
30
0
41
1
10
63.8054448480015
20
-3.996816406074
30
0
41
1
10
63.8085597697052
20
-4.00140936241138
30
0
41
1
10
63.8101145792824
20
-4.00326550827472
30
0
41
1
10
63.8124990053122
20
-4.00543681851445
30
0
41
1
10
63.8133347793475
20
-4.00606927446617
30
0
41
1
10
63.8141686571526
20
-4.00657150507391
30
0
0
SPLINE
5
D5
100
AcDbEntity
8
1
62
256
6
ByLayer
370
13
48
1
60
0
100
AcDbSpline
70
4
71
3
72
8
73
4
40
0
40
0
40
0
40
0
40
1
40
1
40
1
40
1
41
1
10
58.0753954538159
20
3.60122054847949
30
0
41
1
10
58.0538460189307
20
3.69936189048622
30
0
41
1
10
58.0324879962648
20
3.73373128892777
30
0
41
1
10
58.0111444791044
20
3.70352268841435
30
0
0
SPLINE
5
D6
100
AcDbEntity
8
1
62
256
6
ByLayer
370
13
48
1
60
0
100
AcDbSpline
70
4
71
3
72
8
73
4
40
0
40
0
40
0
40
0
40
1
40
1
40
1
40
1
41
1
10
63.6298680453475
20
-3.69279373253224
30
0
41
1
10
63.6247970343028
20
-3.68260559077834
30
0
41
1
10
63.6197266905053
20
-3.66885337634304
30
0
41
1
10
63.6146678830892
20
-3.65157453021124
30
0
0
SPLINE
5
D7
100
AcDbEntity
8
1
62
256
6
ByLayer
370
18
48
1
60
0
100
AcDbSpline
70
4
71
3
72
9
73
5
40
0
40
0
40
0
40
0
40
0.626907458075103
40
1
40
1
40
1
40
1
41
1
10
54.8832981845854
20
-3.69954296251393
30
0
41
1
10
54.876590882966
20
-3.6882919148913
30
0
41
1
10
54.8658686666165
20
-3.66012242265288
30
0
41
1
10
54.8550963466158
20
-3.61536210450424
30
0
41
1
10
54.8510721185944
20
-3.59642245113713
30
0
0
SPLINE
5
D8
100
AcDbEntity
8
1
62
256
6
ByLayer
370
18
48
1
60
0
100
AcDbSpline
70
4
71
3
72
9
73
5
40
0
40
0
40
0
40
0
40
0.659496539333907
40
1
40
1
40
1
40
1
41
1
10
59.390010280199
20
3.12328918953341
30
0
41
1
10
59.3618995192025
20
3.4067909759564
30
0
41
1
10
59.3202778180114
20
3.68636945728858
30
0
41
1
10
59.2791687731952
20
3.72278146669979
30
0
41
1
10
59.2651929261351
20
3.70792414149361
30
0
0
SPLINE
5
D9
100
AcDbEntity
8
1
62
256
6
ByLayer
370
13
48
1
60
0
100
AcDbSpline
70
4
71
3
72
10
73
6
40
0
40
0
40
0
40
0
40
0.543750154001297
40
0.991281188544609
40
1
40
1
40
1
40
1
41
1
10
62.4033442553561
20
-3.71363748365229
30
0
41
1
10
62.3851050589843
20
-3.7170750745974
30
0
41
1
10
62.3514467719183
20
-3.63861770634119
30
0
41
1
10
62.3165446456965
20
-3.39276389571629
30
0
41
1
10
62.300473952141
20
-3.24713914152693
30
0
41
1
10
62.3001667910844
20
-3.24434409133323
30
0
0
SPLINE
5
DA
100
AcDbEntity
8
1
62
256
6
ByLayer
370
18
48
1
60
0
100
AcDbSpline
70
4
71
3
72
11
73
7
40
0
40
0
40
0
40
0
40
0.13700047877919
40
0.525229180226388
40
0.980712795629996
40
1
40
1
40
1
40
1
41
1
10
66.0000000000001
20
0.26824816794803
30
0
41
1
10
66.0000000000001
20
0.179134794782129
30
0
41
1
10
66.0000000000001
20
-0.164520483545743
30
0
41
1
10
65.9999999999999
20
-0.810579643915929
30
0
41
1
10
66
20
-1.33868453389772
30
0
41
1
10
66
20
-1.60228344610459
30
0
41
1
10
66
20
-1.61294685155161
30
0
0
SPLINE
5
DB
100
AcDbEntity
8
1
62
256
6
ByLayer
370
13
48
1
60
0
100
AcDbSpline
70
4
71
3
72
10
73
6
40
0
40
0
40
0
40
0
40
0.262969038908016
40
0.856361668426181
40
1
40
1
40
1
40
1
41
1
10
60.7046444532668
20
2.31844619935268
30
0
41
1
10
60.6911849852958
20
2.51474545311456
30
0
41
1
10
60.6467317574462
20
3.11278405459876
30
0
41
1
10
60.5941537803519
20
3.55921067433292
30
0
41
1
10
60.5550130872195
20
3.67826894156198
30
0
41
1
10
60.5473836230724
20
3.69334395245997
30
0
0
SPLINE
5
DC
100
AcDbEntity
8
1
62
256
6
ByLayer
370
18
48
1
60
0
100
AcDbSpline
70
4
71
3
72
10
73
6
40
0
40
0
40
0
40
0
40
0.377998104477466
40
0.754852792255191
40
1
40
1
40
1
40
1
41
1
10
65.6999999964928
20
-1.61866457995723
30
0
41
1
10
65.6999999958632
20
-1.37306806430942
30
0
41
1
10
65.7000000022307
20
-0.845597841492378
30
0
41
1
10
65.7000000174863
20
-0.0975202664856454
30
0
41
1
10
65.7000000193938
20
0.364348018494553
30
0
41
1
10
65.7000000195723
20
0.543308327588534
30
0
0
SPLINE
5
DD
100
AcDbEntity
8
1
62
256
6
ByLayer
370
18
48
1
60
0
100
AcDbSpline
70
4
71
3
72
25
73
21
40
0
40
0
40
0
40
0
40
0.124999999999999
40
0.124999999999999
40
0.249999999999999
40
0.249999999999999
40
0.312499999999998
40
0.312499999999998
40
0.374999999999998
40
0.374999999999998
40
0.499999999999998
40
0.624999999999999
40
0.624999999999999
40
0.749999999999999
40
0.749999999999999
40
0.812499999999999
40
0.812499999999999
40
0.875
40
0.875
40
1
40
1
40
1
40
1
41
1
10
65.5120909551717
20
0.718068134899625
30
0
41
1
10
65.5167785757997
20
0.621321564751042
30
0
41
1
10
65.5214463670742
20
0.523892278727914
30
0
41
1
10
65.5309700025859
20
0.327660782211524
30
0
41
1
10
65.5358493608389
20
0.228858253682148
30
0
41
1
10
65.5431863025792
20
0.0795909043669099
30
0
41
1
10
65.5456333701924
20
0.0296574610849234
30
0
41
1
10
65.5504963865561
20
-0.0705744585156083
30
0
41
1
10
65.5529025191371
20
-0.120609390951728
30
0
41
1
10
65.5600457667573
20
-0.269886752096966
30
0
41
1
10
65.5693993668926
20
-0.467227382497839
30
0
41
1
10
65.578603367656
20
-0.66126984506792
30
0
41
1
10
65.5877474520864
20
-0.853659358181631
30
0
41
1
10
65.5922685562458
20
-0.9490274221248
30
0
41
1
10
65.5990815853802
20
-1.09080116817719
30
0
41
1
10
65.60136500329
20
-1.13794846966377
30
0
41
1
10
65.6059358970952
20
-1.23110772898281
30
0
41
1
10
65.6082243678503
20
-1.27715324129318
30
0
41
1
10
65.615090237541
20
-1.4137082046939
30
0
41
1
10
65.6196703567478
20
-1.5026401293625
30
0
41
1
10
65.6242050013848
20
-1.58947261252453
30
0
0
SPLINE
5
DE
100
AcDbEntity
8
1
62
256
6
ByLayer
370
18
48
1
60
0
100
AcDbSpline
70
4
71
3
72
8
73
4
40
0
40
0
40
0
40
0
40
1
40
1
40
1
40
1
41
1
10
61.125837523955
20
-3.68390990954208
30
0
41
1
10
61.1221043718633
20
-3.67492441786638
30
0
41
1
10
61.1183730546529
20
-3.66399571275633
30
0
41
1
10
61.1146423672695
20
-3.65114809511638
30
0
0
SPLINE
5
DF
100
AcDbEntity
8
1
62
256
6
ByLayer
370
13
48
1
60
0
100
AcDbSpline
70
4
71
3
72
10
73
6
40
0
40
0
40
0
40
0
40
0.233198555734435
40
0.957472293154763
40
1
40
1
40
1
40
1
41
1
10
61.1146420884095
20
-3.65114713478459
30
0
41
1
10
61.104719809672
20
-3.61697686531318
30
0
41
1
10
61.0639989680406
20
-3.42094826812126
30
0
41
1
10
61.0211487184474
20
-2.98527493742958
30
0
41
1
10
60.9874975657561
20
-2.52559178299799
30
0
41
1
10
60.9856286673161
20
-2.49972023344614
30
0
0
SPLINE
5
E0
100
AcDbEntity
8
1
62
256
6
ByLayer
370
18
48
1
60
0
100
AcDbSpline
70
4
71
3
72
30
73
26
40
0
40
0
40
0
40
0
40
0.0624999999999996
40
0.0624999999999996
40
0.124999999999999
40
0.124999999999999
40
0.249999999999999
40
0.249999999999999
40
0.374999999999998
40
0.374999999999998
40
0.437499999999998
40
0.437499999999998
40
0.499999999999997
40
0.499999999999997
40
0.624999999999996
40
0.624999999999996
40
0.749999999999996
40
0.749999999999996
40
0.812499999999996
40
0.812499999999996
40
0.843749999999996
40
0.843749999999996
40
0.874999999999997
40
0.874999999999997
40
1
40
1
40
1
40
1
41
1
10
65.4042026870754
20
-1.49701905082179
30
0
41
1
10
65.4005891976993
20
-1.44920948053823
30
0
41
1
10
65.3969860222316
20
-1.40092784793288
30
0
41
1
10
65.3897948661615
20
-1.30362495350616
30
0
41
1
10
65.3862045600819
20
-1.25457413064626
30
0
41
1
10
65.3754265756469
20
-1.10624193534844
30
0
41
1
10
65.3682340103099
20
-1.00578403088989
30
0
41
1
10
65.3538642111048
20
-0.801707262502788
30
0
41
1
10
65.3466940597536
20
-0.698084305072314
30
0
41
1
10
65.3358866503536
20
-0.54024139480498
30
0
41
1
10
65.3322689425864
20
-0.487124197127656
30
0
41
1
10
65.3250784637672
20
-0.381101507873524
30
0
41
1
10
65.3214985191756
20
-0.328092118077052
30
0
41
1
10
65.3107987251929
20
-0.169070097892558
30
0
41
1
10
65.3037197110218
20
-0.0630635448984265
30
0
41
1
10
65.2896708116702
20
0.148933263928598
30
0
41
1
10
65.2826835929615
20
0.25492242403223
30
0
41
1
10
65.2720503221707
20
0.413878620739268
30
0
41
1
10
65.2684778998396
20
0.466859252110481
30
0
41
1
10
65.2630815747049
20
0.546323286743529
30
0
41
1
10
65.2612767792527
20
0.572810163080334
30
0
41
1
10
65.2576564084173
20
0.625781715941827
30
0
41
1
10
65.2558408514629
20
0.652265903487688
30
0
41
1
10
65.2467793619317
20
0.784089310676848
30
0
41
1
10
65.2395525343808
20
0.888116365756872
30
0
41
1
10
65.2323588675324
20
0.990732039272615
30
0
0
SPLINE
5
E1
100
AcDbEntity
8
1
62
256
6
ByLayer
370
18
48
1
60
0
100
AcDbSpline
70
4
71
3
72
8
73
4
40
0
40
0
40
0
40
0
40
1
40
1
40
1
40
1
41
1
10
64.4923423821278
20
1.75229533513755
30
0
41
1
10
64.4960009170534
20
1.68523618663156
30
0
41
1
10
64.4996421838571
20
1.61712693788869
30
0
41
1
10
64.5032821849767
20
1.54797060717573
30
0
0
SPLINE
5
E2
100
AcDbEntity
8
1
62
256
6
ByLayer
370
13
48
1
60
0
100
AcDbSpline
70
4
71
3
72
9
73
5
40
0
40
0
40
0
40
0
40
0.285435375609646
40
1
40
1
40
1
40
1
41
1
10
62.0191835185931
20
1.2709517303918
30
0
41
1
10
62.0042834663091
20
1.53246468350184
30
0
41
1
10
61.9505050629965
20
2.44587587442743
30
0
41
1
10
61.8982293477048
20
3.09089203641784
30
0
41
1
10
61.8619417034217
20
3.3753551953028
30
0
0
SPLINE
5
E3
100
AcDbEntity
8
1
62
256
6
ByLayer
370
13
48
1
60
0
100
AcDbSpline
70
4
71
3
72
10
73
6
40
0
40
0
40
0
40
0
40
0.644398733172467
40
0.936002051482634
40
1
40
1
40
1
40
1
41
1
10
59.8282824311373
20
-3.4662257559539
30
0
41
1
10
59.7955587521361
20
-3.24584020067422
30
0
41
1
10
59.7472104477836
20
-2.7178488782946
30
0
41
1
10
59.6937405336627
20
-1.87557083423215
30
0
41
1
10
59.6745856704955
20
-1.55183573992315
30
0
41
1
10
59.6711360369191
20
-1.49289330972923
30
0
0
SPLINE
5
E4
100
AcDbEntity
8
1
62
256
6
ByLayer
370
18
48
1
60
0
100
AcDbSpline
70
4
71
3
72
33
73
29
40
0
40
0
40
0
40
0
40
0.124999999999997
40
0.124999999999997
40
0.156249999999997
40
0.156249999999997
40
0.187499999999997
40
0.187499999999997
40
0.249999999999997
40
0.249999999999997
40
0.374999999999996
40
0.499999999999996
40
0.499999999999996
40
0.562499999999996
40
0.562499999999996
40
0.593749999999997
40
0.593749999999997
40
0.624999999999997
40
0.624999999999997
40
0.749999999999998
40
0.749999999999998
40
0.874999999999999
40
0.874999999999999
40
0.9375
40
0.9375
40
0.96875
40
0.96875
40
1
40
1
40
1
40
1
41
1
10
62.0721565294668
20
3.62409776116291
30
0
41
1
10
62.0791703881968
20
3.56100504002103
30
0
41
1
10
62.0861367550128
20
3.49143475222817
30
0
41
1
10
62.0947857204978
20
3.39616478552864
30
0
41
1
10
62.096512875759
20
3.37669437700154
30
0
41
1
10
62.0999631457977
20
3.33691109178741
30
0
41
1
10
62.1016864776565
20
3.31659395677869
30
0
41
1
10
62.1068226301497
20
3.254736977715
30
0
41
1
10
62.110211685683
20
3.21217628578515
30
0
41
1
10
62.1203033588521
20
3.08060386818463
30
0
41
1
10
62.1335534757293
20
2.89481968790955
30
0
41
1
10
62.1468125595856
20
2.68864739462688
30
0
41
1
10
62.1569547640425
20
2.52625060813432
30
0
41
1
10
62.1603688243194
20
2.47082124565006
30
0
41
1
10
62.1655667332891
20
2.38569227580484
30
0
41
1
10
62.1673134327432
20
2.35696416089826
30
0
41
1
10
62.1708165530653
20
2.29917693358613
30
0
41
1
10
62.1725753413106
20
2.27007925176091
30
0
41
1
10
62.1814151343411
20
2.12358220246256
30
0
41
1
10
62.1886185886851
20
2.00316477969963
30
0
41
1
10
62.2026619984276
20
1.75601414452947
30
0
41
1
10
62.2095026583341
20
1.62928042832746
30
0
41
1
10
62.21957813518
20
1.43440529479304
30
0
41
1
10
62.2229144920774
20
1.36865000654171
30
0
41
1
10
62.2279385002449
20
1.26880463469149
30
0
41
1
10
62.2296155497573
20
1.23532062783087
30
0
41
1
10
62.2329784663772
20
1.16794382105832
30
0
41
1
10
62.2346661801033
20
1.13401361690461
30
0
41
1
10
62.2363507186178
20
1.10006630521707
30
0
0
SPLINE
5
E5
100
AcDbEntity
8
1
62
256
6
ByLayer
370
18
48
1
60
0
100
AcDbSpline
70
4
71
3
72
29
73
25
40
0
40
0
40
0
40
0
40
0.124999999999999
40
0.124999999999999
40
0.249999999999997
40
0.249999999999997
40
0.374999999999996
40
0.374999999999996
40
0.406249999999996
40
0.406249999999996
40
0.437499999999996
40
0.499999999999996
40
0.499999999999996
40
0.624999999999997
40
0.624999999999997
40
0.749999999999997
40
0.749999999999997
40
0.781249999999997
40
0.781249999999997
40
0.812499999999997
40
0.812499999999997
40
0.874999999999998
40
0.874999999999998
40
1
40
1
40
1
40
1
41
1
10
62.3602244420439
20
0.979769569726272
30
0
41
1
10
62.3532448316828
20
1.11653900429616
30
0
41
1
10
62.3463016491212
20
1.2505019442776
30
0
41
1
10
62.3324422570692
20
1.51297562627721
30
0
41
1
10
62.3255256969285
20
1.64148597003069
30
0
41
1
10
62.3117084655624
20
1.89303873834979
30
0
41
1
10
62.3048005907161
20
2.01608143273853
30
0
41
1
10
62.2962287652396
20
2.16634877848051
30
0
41
1
10
62.29451999643
20
2.1961828675685
30
0
41
1
10
62.2911273861088
20
2.25515973407982
30
0
41
1
10
62.2860689853387
20
2.34270130591557
30
0
41
1
10
62.2810922163684
20
2.42750246674208
30
0
41
1
10
62.2711847726966
20
2.59350268099826
30
0
41
1
10
62.2646342448167
20
2.69937557245393
30
0
41
1
10
62.2511307290681
20
2.90157224320254
30
0
41
1
10
62.2442253358172
20
2.99789854810942
30
0
41
1
10
62.2354623179818
20
3.11218702218142
30
0
41
1
10
62.2337030946882
20
3.13473795311302
30
0
41
1
10
62.230172649146
20
3.17921914039309
30
0
41
1
10
62.2284025139025
20
3.20113439257742
30
0
41
1
10
62.2231069402568
20
3.26556727948804
30
0
41
1
10
62.2195863702283
20
3.30690085385808
30
0
41
1
10
62.2090643468115
20
3.42612999963413
30
0
41
1
10
62.2021046505551
20
3.49926651322974
30
0
41
1
10
62.1952043740237
20
3.56614351414868
30
0
0
SPLINE
5
E6
100
AcDbEntity
8
1
62
256
6
ByLayer
370
18
48
1
60
0
100
AcDbSpline
70
4
71
3
72
8
73
4
40
0
40
0
40
0
40
0
40
1
40
1
40
1
40
1
41
1
10
64.4910675998397
20
1.75204655670001
30
0
41
1
10
64.4914925690567
20
1.75212967846912
30
0
41
1
10
64.4919174963403
20
1.75221260479023
30
0
41
1
10
64.4923423821278
20
1.75229533513757
30
0
0
SPLINE
5
E7
100
AcDbEntity
8
1
62
256
6
ByLayer
370
18
48
1
60
0
100
AcDbSpline
70
4
71
3
72
14
73
10
40
0
40
0
40
0
40
0
40
0.125
40
0.125
40
0.25
40
0.25
40
0.5
40
0.5
40
1
40
1
40
1
40
1
41
1
10
64.4923423821279
20
1.75229533513755
30
0
41
1
10
64.5227115082482
20
1.720152482157
30
0
41
1
10
64.5531883381721
20
1.68798447065839
30
0
41
1
10
64.6143661785549
20
1.62360592587649
30
0
41
1
10
64.6450756072188
20
1.59138645215401
30
0
41
1
10
64.7371908582625
20
1.49505453913363
30
0
41
1
10
64.7987031700027
20
1.43114527268082
30
0
41
1
10
64.9836751550246
20
1.24046954061112
30
0
41
1
10
65.1075822172816
20
1.11476696932414
30
0
41
1
10
65.2323588675324
20
0.990732039272586
30
0
0
SPLINE
5
E8
100
AcDbEntity
8
1
62
256
6
ByLayer
370
18
48
1
60
0
100
AcDbSpline
70
4
71
3
72
30
73
26
40
0
40
0
40
0
40
0
40
0.0625000000000131
40
0.0625000000000131
40
0.125000000000026
40
0.125000000000026
40
0.187500000000038
40
0.187500000000038
40
0.250000000000051
40
0.250000000000051
40
0.375000000000074
40
0.375000000000074
40
0.437500000000054
40
0.437500000000054
40
0.500000000000033
40
0.500000000000033
40
0.625000000000063
40
0.625000000000063
40
0.687500000000078
40
0.687500000000078
40
0.750000000000093
40
0.750000000000093
40
0.875000000000047
40
0.875000000000047
40
1
40
1
40
1
40
1
41
1
10
65.2323588675324
20
0.990732039272558
30
0
41
1
10
65.2363690341422
20
0.98461029601205
30
0
41
1
10
65.2403793748289
20
0.978502062036256
30
0
41
1
10
65.2484002023003
20
0.966312714122381
30
0
41
1
10
65.2523875776912
20
0.960238970123896
30
0
41
1
10
65.260505146672
20
0.94807312151309
30
0
41
1
10
65.2646591067959
20
0.941973414152841
30
0
41
1
10
65.2734802231088
20
0.92963863883935
30
0
41
1
10
65.2781713150252
20
0.923388919980198
30
0
41
1
10
65.2929229641506
20
0.904765056341091
30
0
41
1
10
65.3036746654773
20
0.892405432754231
30
0
41
1
10
65.3208999722787
20
0.873935263814531
30
0
41
1
10
65.3268235438995
20
0.867790002683847
30
0
41
1
10
65.3389938707664
20
0.855519529142441
30
0
41
1
10
65.3452504762892
20
0.849386657334435
30
0
41
1
10
65.364187930277
20
0.831294540813445
30
0
41
1
10
65.3771271724571
20
0.819540130147686
30
0
41
1
10
65.3969945659304
20
0.802352658802562
30
0
41
1
10
65.4036945210745
20
0.796698548381443
30
0
41
1
10
65.4172602853965
20
0.785550046347083
30
0
41
1
10
65.4241305243673
20
0.780057301675953
30
0
41
1
10
65.4446078034935
20
0.76412664183556
30
0
41
1
10
65.4582093200835
20
0.754109811126455
30
0
41
1
10
65.4852731129478
20
0.735195417220439
30
0
41
1
10
65.4987624681652
20
0.726274995503871
30
0
41
1
10
65.5120909551652
20
0.718068134899397
30
0
0
SPLINE
5
E9
100
AcDbEntity
8
1
62
256
6
ByLayer
370
18
48
1
60
0
100
AcDbSpline
70
4
71
3
72
8
73
4
40
0
40
0
40
0
40
0
40
1
40
1
40
1
40
1
41
1
10
65.5120909551652
20
0.718068134899426
30
0
41
1
10
65.5741801492589
20
0.659056457358076
30
0
41
1
10
65.6366510539908
20
0.600626712455608
30
0
41
1
10
65.7000000195723
20
0.543308327588534
30
0
0
SPLINE
5
EA
100
AcDbEntity
8
1
62
256
6
ByLayer
370
18
48
1
60
0
100
AcDbSpline
70
4
71
3
72
10
73
6
40
0
40
0
40
0
40
0
40
0.5
40
0.5
40
1
40
1
40
1
40
1
41
1
10
65.7000000195723
20
0.543308327588534
30
0
41
1
10
65.7481505531655
20
0.491595618820412
30
0
41
1
10
65.7971597929653
20
0.44256662992305
30
0
41
1
10
65.8971635662448
20
0.350525464121461
30
0
41
1
10
65.9480967380382
20
0.307605108309332
30
0
41
1
10
66.0000000000003
20
0.26824816794786
30
0
0
SPLINE
5
EB
100
AcDbEntity
8
1
62
256
6
ByLayer
370
18
48
1
60
0
100
AcDbSpline
70
4
71
3
72
26
73
22
40
0
40
0
40
0
40
0
40
0.0851540162050628
40
0.0851540162050628
40
0.117827087054882
40
0.117827087054882
40
0.150500157904702
40
0.150500157904702
40
0.215846299604341
40
0.215846299604341
40
0.346538583003619
40
0.346538583003619
40
0.379211653853438
40
0.379211653853438
40
0.411884724703257
40
0.411884724703257
40
0.477230866402896
40
0.477230866402896
40
0.738615433201448
40
0.738615433201448
40
1
40
1
40
1
40
1
41
1
10
66
20
0.266240542764905
30
0
41
1
10
66
20
0.266397821475437
30
0
41
1
10
66.0000000000001
20
0.269197100754951
30
0
41
1
10
66.0000000000001
20
0.276787357187061
30
0
41
1
10
66.0000000000001
20
0.27928666939772
30
0
41
1
10
66.0000000000001
20
0.285082219523531
30
0
41
1
10
66
20
0.288386565078781
30
0
41
1
10
66
20
0.299453019633774
30
0
41
1
10
66
20
0.308344988841242
30
0
41
1
10
66
20
0.339510794089591
30
0
41
1
10
66
20
0.366237568919928
30
0
41
1
10
66
20
0.406964346927367
30
0
41
1
10
66.0000000000001
20
0.415498000973742
30
0
41
1
10
66.0000000000001
20
0.433216774132376
30
0
41
1
10
66.0000000000001
20
0.442266160034762
30
0
41
1
10
66.0000000000001
20
0.469761506179168
30
0
41
1
10
66
20
0.488722165785731
30
0
41
1
10
66
20
0.585935784328171
30
0
41
1
10
66
20
0.671922712969405
30
0
41
1
10
66
20
0.859802707736236
30
0
41
1
10
65.9999999999999
20
0.961733624297864
30
0
41
1
10
66
20
1.07176054276445
30
0
0
SPLINE
5
EC
100
AcDbEntity
8
1
62
256
6
ByLayer
370
18
48
1
60
0
100
AcDbSpline
70
4
71
3
72
8
73
4
40
0
40
0
40
0
40
0
40
1
40
1
40
1
40
1
41
1
10
66
20
1.20335375489637
30
0
41
1
10
66.0053318228746
20
1.15854815460645
30
0
41
1
10
66.0056878835531
20
1.11442140548851
30
0
41
1
10
66.0000000000001
20
1.07176054276445
30
0
0
SPLINE
5
ED
100
AcDbEntity
8
1
62
256
6
ByLayer
370
18
48
1
60
0
100
AcDbSpline
70
4
71
3
72
31
73
27
40
0
40
0
40
0
40
0
40
0.125000000000001
40
0.125000000000001
40
0.250000000000001
40
0.375000000000002
40
0.375000000000002
40
0.437500000000002
40
0.437500000000002
40
0.468750000000003
40
0.468750000000003
40
0.500000000000003
40
0.500000000000003
40
0.625000000000002
40
0.625000000000002
40
0.687500000000002
40
0.687500000000002
40
0.750000000000001
40
0.750000000000001
40
0.875
40
0.875
40
0.9375
40
0.9375
40
0.96875
40
0.96875
40
1
40
1
40
1
40
1
41
1
10
65.9999999999999
20
1.2033537549091
30
0
41
1
10
65.9999999999999
20
1.26138928175251
30
0
41
1
10
65.9999999999999
20
1.32113308377762
30
0
41
1
10
65.9999999999999
20
1.44374252750191
30
0
41
1
10
66.0000000000001
20
1.56954429368605
30
0
41
1
10
65.9999999999999
20
1.70168095354254
30
0
41
1
10
66.0000000000001
20
1.80319362723975
30
0
41
1
10
66
20
1.83748499531581
30
0
41
1
10
66
20
1.88937131516664
30
0
41
1
10
66
20
1.90675505746756
30
0
41
1
10
66
20
1.94196079692827
30
0
41
1
10
66
20
1.95975201676615
30
0
41
1
10
66.0000000000001
20
2.04963305311597
30
0
41
1
10
66
20
2.12447399884545
30
0
41
1
10
66
20
2.24108823406928
30
0
41
1
10
66.0000000000001
20
2.28069195872078
30
0
41
1
10
66.0000000000001
20
2.36143369384595
30
0
41
1
10
66
20
2.40202477668993
30
0
41
1
10
65.9999999999999
20
2.52420996986078
30
0
41
1
10
66
20
2.60631164101011
30
0
41
1
10
66
20
2.73044085827172
30
0
41
1
10
66
20
2.7719793101202
30
0
41
1
10
65.9999999999999
20
2.83453562687288
30
0
41
1
10
65.9999999999999
20
2.85546022999566
30
0
41
1
10
66
20
2.89701469118538
30
0
41
1
10
65.9999999999999
20
2.91768656273851
30
0
41
1
10
65.9999999999999
20
2.93825356210752
30
0
0
SPLINE
5
EE
100
AcDbEntity
8
1
62
256
6
ByLayer
370
18
48
1
60
0
100
AcDbSpline
70
4
71
3
72
10
73
6
40
0
40
0
40
0
40
0
40
0.5
40
0.5
40
1
40
1
40
1
40
1
41
1
10
66.0000000000001
20
2.93825356210749
30
0
41
1
10
65.9507255629513
20
2.98870637171754
30
0
41
1
10
65.9010773054197
20
3.03902283686915
30
0
41
1
10
65.801069101608
20
3.13956023257748
30
0
41
1
10
65.7507251974205
20
3.1897639343203
30
0
41
1
10
65.6999999964929
20
3.2400512306003
30
0
0
SPLINE
5
EF
100
AcDbEntity
8
1
62
256
6
ByLayer
370
18
48
1
60
0
100
AcDbSpline
70
4
71
3
72
12
73
8
40
0
40
0
40
0
40
0
40
0.249999999999983
40
0.249999999999983
40
0.499999999999966
40
0.499999999999966
40
1
40
1
40
1
40
1
41
1
10
65.6999999964928
20
3.2400512306003
30
0
41
1
10
65.6687592429842
20
3.25332381931662
30
0
41
1
10
65.6375122116879
20
3.26639105513519
30
0
41
1
10
65.5752284905089
20
3.29200452714846
30
0
41
1
10
65.5441754636476
20
3.30455758577023
30
0
41
1
10
65.4512586044532
20
3.3414503198718
30
0
41
1
10
65.3896282326978
20
3.36502868556892
30
0
41
1
10
65.3282905311643
20
3.38755376364006
30
0
0
SPLINE
5
F0
100
AcDbEntity
8
1
62
256
6
ByLayer
370
18
48
1
60
0
100
AcDbSpline
70
4
71
3
72
46
73
42
40
0
40
0
40
0
40
0
40
0.0625000000000928
40
0.0625000000000928
40
0.0937500000001398
40
0.0937500000001398
40
0.125000000000187
40
0.125000000000187
40
0.156250000000234
40
0.156250000000234
40
0.187500000000281
40
0.187500000000281
40
0.250000000000343
40
0.250000000000343
40
0.281250000000357
40
0.281250000000357
40
0.312500000000371
40
0.312500000000371
40
0.3750000000004
40
0.3750000000004
40
0.406250000000395
40
0.406250000000395
40
0.43750000000039
40
0.43750000000039
40
0.500000000000379
40
0.500000000000379
40
0.531250000000356
40
0.531250000000356
40
0.562500000000332
40
0.562500000000332
40
0.593750000000309
40
0.593750000000309
40
0.625000000000285
40
0.625000000000285
40
0.656250000000261
40
0.656250000000261
40
0.687500000000238
40
0.687500000000238
40
0.75000000000019
40
0.75000000000019
40
1
40
1
40
1
40
1
41
1
10
65.3282905311643
20
3.38755376364003
30
0
41
1
10
65.320537498894
20
3.3745293014691
30
0
41
1
10
65.3127519885073
20
3.36148895486528
30
0
41
1
10
65.3009951919594
20
3.34193532051486
30
0
41
1
10
65.297055773242
20
3.33542645653267
30
0
41
1
10
65.288659113442
20
3.32292712117285
30
0
41
1
10
65.2841681125567
20
3.31697200633602
30
0
41
1
10
65.2745638949571
20
3.30568834891065
30
0
41
1
10
65.269510950417
20
3.30037183152268
30
0
41
1
10
65.259101024589
20
3.29038935411944
30
0
41
1
10
65.2537237488953
20
3.28570564765104
30
0
41
1
10
65.2370996885668
20
3.27253647854957
30
0
41
1
10
65.2253369361896
20
3.26497800845948
30
0
41
1
10
65.206792586885
20
3.25527466338679
30
0
41
1
10
65.2004434078142
20
3.25230587641445
30
0
41
1
10
65.1876321094179
20
3.24698626587716
30
0
41
1
10
65.1811520709338
20
3.24462440963191
30
0
41
1
10
65.1614931413556
20
3.23844067263252
30
0
41
1
10
65.1480998021331
20
3.23549812058596
30
0
41
1
10
65.1275220108808
20
3.23324465242655
30
0
41
1
10
65.1205499386357
20
3.23286966657119
30
0
41
1
10
65.1065681462672
20
3.23291421142596
30
0
41
1
10
65.099594639176
20
3.23332564023474
30
0
41
1
10
65.0787343444321
20
3.23570915506735
30
0
41
1
10
65.0649058302747
20
3.23879291024323
30
0
41
1
10
65.0443385343476
20
3.24609176932455
30
0
41
1
10
65.0375371951532
20
3.24897540026529
30
0
41
1
10
65.0243300853044
20
3.25569425662133
30
0
41
1
10
65.0178921166584
20
3.25954626647817
30
0
41
1
10
65.0054289518268
20
3.26847236979333
30
0
41
1
10
64.9993618462567
20
3.27359761951911
30
0
41
1
10
64.9881565569308
20
3.28488386729316
30
0
41
1
10
64.9829992753601
20
3.29110524218416
30
0
41
1
10
64.9733694605958
20
3.30443022876133
30
0
41
1
10
64.9688747876396
20
3.31151234277957
30
0
41
1
10
64.9600397600911
20
3.32581467279451
30
0
41
1
10
64.9556531923026
20
3.33298630456019
30
0
41
1
10
64.9424482493029
20
3.35442253224068
30
0
41
1
10
64.9336402259415
20
3.36866490682058
30
0
41
1
10
64.8895837786939
20
3.43964384151428
30
0
41
1
10
64.8542645765612
20
3.49572432375632
30
0
41
1
10
64.8190205539519
20
3.55104698218261
30
0
0
SPLINE
5
F1
100
AcDbEntity
8
1
62
256
6
ByLayer
370
18
48
1
60
0
100
AcDbSpline
70
4
71
3
72
8
73
4
40
0
40
0
40
0
40
0
40
1
40
1
40
1
40
1
41
1
10
64.8190205539518
20
3.55104698218261
30
0
41
1
10
64.6391945033658
20
3.59990204618865
30
0
41
1
10
64.4627273718469
20
3.63784915523581
30
0
41
1
10
64.2884212105334
20
3.66447003702339
30
0
0
SPLINE
5
F2
100
AcDbEntity
8
1
62
256
6
ByLayer
370
18
48
1
60
0
100
AcDbSpline
70
4
71
3
72
8
73
4
40
0
40
0
40
0
40
0
40
1
40
1
40
1
40
1
41
1
10
64.2884212105334
20
3.66447003702336
30
0
41
1
10
64.2624767288522
20
3.61394372517913
30
0
41
1
10
64.2364890768289
20
3.56309548465075
30
0
41
1
10
64.210369617292
20
3.51199613691651
30
0
0
SPLINE
5
F3
100
AcDbEntity
8
1
62
256
6
ByLayer
370
18
48
1
60
0
100
AcDbSpline
70
4
71
3
72
54
73
50
40
0
40
0
40
0
40
0
40
0.124999999999966
40
0.124999999999966
40
0.249999999999931
40
0.249999999999931
40
0.265624999999927
40
0.265624999999927
40
0.281249999999922
40
0.281249999999922
40
0.296874999999917
40
0.296874999999917
40
0.312499999999912
40
0.312499999999912
40
0.343749999999902
40
0.343749999999902
40
0.359374999999889
40
0.359374999999889
40
0.374999999999876
40
0.374999999999876
40
0.40624999999985
40
0.40624999999985
40
0.421874999999837
40
0.421874999999837
40
0.437499999999824
40
0.437499999999824
40
0.468749999999798
40
0.468749999999798
40
0.484374999999785
40
0.484374999999785
40
0.499999999999772
40
0.499999999999772
40
0.507812499999774
40
0.507812499999774
40
0.515624999999776
40
0.515624999999776
40
0.531249999999779
40
0.531249999999779
40
0.546874999999782
40
0.546874999999782
40
0.562499999999785
40
0.562499999999785
40
0.62499999999982
40
0.62499999999982
40
0.74999999999988
40
0.74999999999988
40
0.87499999999994
40
0.87499999999994
40
1
40
1
40
1
40
1
41
1
10
64.210369617292
20
3.51199613691671
30
0
41
1
10
64.1773359446929
20
3.44737002469975
30
0
41
1
10
64.1441205368243
20
3.38239670018711
30
0
41
1
10
64.0776714833232
20
3.25144020022216
30
0
41
1
10
64.0445190072867
20
3.18537974673956
30
0
41
1
10
64.0065039303504
20
3.11113436741684
30
0
41
1
10
64.002269365921
20
3.10288616652789
30
0
41
1
10
63.9937746269099
20
3.08639566164422
30
0
41
1
10
63.9895455659992
20
3.07812836585086
30
0
41
1
10
63.9808797697597
20
3.06174577791023
30
0
41
1
10
63.9763851162541
20
3.05367702333402
30
0
41
1
10
63.9665755950845
20
3.03818244203245
30
0
41
1
10
63.9612676864439
20
3.03070000829061
30
0
41
1
10
63.9447601032399
20
3.00935723202477
30
0
41
1
10
63.9329218842344
20
2.99643578687841
30
0
41
1
10
63.9140079846076
20
2.97887994179115
30
0
41
1
10
63.9075096878797
20
2.97333399477756
30
0
41
1
10
63.8941572829308
20
2.96280610490675
30
0
41
1
10
63.8872777219336
20
2.95780973794297
30
0
41
1
10
63.8664220920321
20
2.94386848346897
30
0
41
1
10
63.8521680625021
20
2.93588388441302
30
0
41
1
10
63.8302491743913
20
2.92604831617015
30
0
41
1
10
63.8228520205361
20
2.9231321913833
30
0
41
1
10
63.8078550709431
20
2.91814090268642
30
0
41
1
10
63.8002205626087
20
2.91606906930667
30
0
41
1
10
63.7774614866565
20
2.91125992409639
30
0
41
1
10
63.7623688182069
20
2.90983467230058
30
0
41
1
10
63.7399105369138
20
2.91060108295986
30
0
41
1
10
63.7324092302717
20
2.91135787111611
30
0
41
1
10
63.7177551252151
20
2.91401433138779
30
0
41
1
10
63.7106048828405
20
2.9159031095156
30
0
41
1
10
63.7002170952505
20
2.91979852457266
30
0
41
1
10
63.6968109125295
20
2.92127450284315
30
0
41
1
10
63.690124949362
20
2.92462305772548
30
0
41
1
10
63.6868305494477
20
2.92650685857777
30
0
41
1
10
63.6773444952649
20
2.93269823518693
30
0
41
1
10
63.6715267557276
20
2.9375912879168
30
0
41
1
10
63.6608038990163
20
2.94875060966015
30
0
41
1
10
63.6558667144925
20
2.95497404292197
30
0
41
1
10
63.6462323865167
20
2.96771365309488
30
0
41
1
10
63.6414772014896
20
2.9741389643321
30
0
41
1
10
63.6175644175959
20
3.00598504505624
30
0
41
1
10
63.5984120272062
20
3.03108415300545
30
0
41
1
10
63.5409284920598
20
3.10531674084314
30
0
41
1
10
63.5025571498402
20
3.15340538833092
30
0
41
1
10
63.4261264209065
20
3.24669498083401
30
0
41
1
10
63.3880377718589
20
3.29194163421639
30
0
41
1
10
63.3121163180928
20
3.37978601237316
30
0
41
1
10
63.2742535036157
20
3.42233902679789
30
0
41
1
10
63.2367526380785
20
3.46397059675709
30
0
0
SPLINE
5
F4
100
AcDbEntity
8
1
62
256
6
ByLayer
370
18
48
1
60
0
100
AcDbSpline
70
4
71
3
72
8
73
4
40
0
40
0
40
0
40
0
40
1
40
1
40
1
40
1
41
1
10
63.1129764084244
20
3.39734348061927
30
0
41
1
10
63.1541744425259
20
3.42005336206463
30
0
41
1
10
63.1954299008594
20
3.44226557585219
30
0
41
1
10
63.236752638075
20
3.46397059677074
30
0
0
SPLINE
5
F5
100
AcDbEntity
8
1
62
256
6
ByLayer
370
18
48
1
60
0
100
AcDbSpline
70
4
71
3
72
10
73
6
40
0
40
0
40
0
40
0
40
0.5
40
0.5
40
1
40
1
40
1
40
1
41
1
10
63.1129764084244
20
3.39734348061921
30
0
41
1
10
63.0766966738596
20
3.32186483570692
30
0
41
1
10
63.0405750004316
20
3.2460445550351
30
0
41
1
10
62.9683115846867
20
3.09423176014761
30
0
41
1
10
62.9321560869357
20
3.01821209220623
30
0
41
1
10
62.8957381262705
20
2.94220855358933
30
0
0
SPLINE
5
F6
100
AcDbEntity
8
1
62
256
6
ByLayer
370
18
48
1
60
0
100
AcDbSpline
70
4
71
3
72
10
73
6
40
0
40
0
40
0
40
0
40
0.563975449006633
40
0.563975449006633
40
1
40
1
40
1
40
1
41
1
10
62.8957381262705
20
2.94220855358933
30
0
41
1
10
62.863633484387
20
2.875206822998
30
0
41
1
10
62.8313596691481
20
2.80828892324894
30
0
41
1
10
62.7741092030349
20
2.68964003548862
30
0
41
1
10
62.7491914282185
20
2.6378801652472
30
0
41
1
10
62.7240207785174
20
2.58624937222618
30
0
0
SPLINE
5
F7
100
AcDbEntity
8
1
62
256
6
ByLayer
370
18
48
1
60
0
100
AcDbSpline
70
4
71
3
72
8
73
4
40
0
40
0
40
0
40
0
40
1
40
1
40
1
40
1
41
1
10
53.0354561745971
20
-3.53172991588448
30
0
41
1
10
53.0136043964329
20
-3.56900565714889
30
0
41
1
10
52.9917492946122
20
-3.6061477369168
30
0
41
1
10
52.9699400425384
20
-3.64310495526237
30
0
0
SPLINE
5
F8
100
AcDbEntity
8
1
62
256
6
ByLayer
370
18
48
1
60
0
100
AcDbSpline
70
4
71
3
72
26
73
22
40
0
40
0
40
0
40
0
40
0.0060202820345244
40
0.0060202820345244
40
0.101131999832874
40
0.101131999832874
40
0.196243717631223
40
0.196243717631223
40
0.291355435429572
40
0.291355435429572
40
0.481578871026271
40
0.481578871026271
40
0.576690588824621
40
0.576690588824621
40
0.671802306622972
40
0.671802306622972
40
0.766914024421322
40
0.766914024421322
40
0.862025742219674
40
0.862025742219674
40
1
40
1
40
1
40
1
41
1
10
40.8320498760496
20
3.0885896131156
30
0
41
1
10
40.8305082564922
20
3.08416398140554
30
0
41
1
10
40.8289538009614
20
3.07973316356356
30
0
41
1
10
40.8026093534029
20
3.00520818011554
30
0
41
1
10
40.7742121687735
20
2.93365659667992
30
0
41
1
10
40.7097271499978
20
2.78744616857713
30
0
41
1
10
40.6736282637122
20
2.71278285850244
30
0
41
1
10
40.5926389268673
20
2.55990417337171
30
0
41
1
10
40.5486786682324
20
2.48356325440798
30
0
41
1
10
40.407557663661
20
2.2578463850115
30
0
41
1
10
40.2984178513408
20
2.10809335939848
30
0
41
1
10
40.1247691272401
20
1.90787929608277
30
0
41
1
10
40.0643475368122
20
1.8450467185398
30
0
41
1
10
39.940959732508
20
1.72571290770151
30
0
41
1
10
39.8793492664421
20
1.66984165707774
30
0
41
1
10
39.756296764704
20
1.56576135164909
30
0
41
1
10
39.6948548640674
20
1.51755843985728
30
0
41
1
10
39.5721509680163
20
1.42933682228065
30
0
41
1
10
39.5106491352568
20
1.38925152236933
30
0
41
1
10
39.3653318264124
20
1.30488762494525
30
0
41
1
10
39.2825044940243
20
1.26581714382345
30
0
41
1
10
39.2037154032416
20
1.23813478826318
30
0
0
SPLINE
5
F9
100
AcDbEntity
8
1
62
256
6
ByLayer
370
18
48
1
60
0
100
AcDbSpline
70
4
71
3
72
25
73
21
40
0
40
0
40
0
40
0
40
0.0405376646977056
40
0.0405376646977056
40
0.136483898227946
40
0.136483898227946
40
0.184457014993066
40
0.184457014993066
40
0.232430131758187
40
0.232430131758187
40
0.256416690140747
40
0.256416690140747
40
0.280403248523308
40
0.280403248523308
40
0.328376365288429
40
0.328376365288429
40
0.424322598818668
40
0.616215065879112
40
0.616215065879112
40
1
40
1
40
1
40
1
41
1
10
60.2122006730768
20
3.26747143246951
30
0
41
1
10
60.2185976009658
20
3.26869480926024
30
0
41
1
10
60.2249791313805
20
3.27023223640177
30
0
41
1
10
60.2464044370957
20
3.27649731399219
30
0
41
1
10
60.2615119359285
20
3.2827931715515
30
0
41
1
10
60.2827222573993
20
3.29562354245491
30
0
41
1
10
60.2895903068945
20
3.30046170285468
30
0
41
1
10
60.302874385293
20
3.31138235750893
30
0
41
1
10
60.3092613807627
20
3.31743692549412
30
0
41
1
10
60.3180310726812
20
3.32738930153167
30
0
41
1
10
60.3208251644327
20
3.33087111780964
30
0
41
1
10
60.3261707951871
20
3.33814279533098
30
0
41
1
10
60.328723917908
20
3.34193061018303
30
0
41
1
10
60.3362347186751
20
3.35347526449289
30
0
41
1
10
60.341108873615
20
3.36132908649586
30
0
41
1
10
60.3557991478071
20
3.38474267757857
30
0
41
1
10
60.3849483787696
20
3.43164267004636
30
0
41
1
10
60.4136689575173
20
3.47849355514262
30
0
41
1
10
60.4710633638582
20
3.57160177670946
30
0
41
1
10
60.5093729979578
20
3.63278694323947
30
0
41
1
10
60.5473836230724
20
3.69334395245997
30
0
0
SPLINE
5
FA
100
AcDbEntity
8
1
62
256
6
ByLayer
370
18
48
1
60
0
100
AcDbSpline
70
4
71
3
72
8
73
4
40
0
40
0
40
0
40
0
40
1
40
1
40
1
40
1
41
1
10
60.5473836230724
20
3.69334395245997
30
0
41
1
10
60.6179041121795
20
3.80569437806355
30
0
41
1
10
60.6872501818265
20
3.91569967388651
30
0
41
1
10
60.7573728351686
20
4.02134353158041
30
0
0
SPLINE
5
FB
100
AcDbEntity
8
1
62
256
6
ByLayer
370
18
48
1
60
0
100
AcDbSpline
70
4
71
3
72
49
73
45
40
0
40
0
40
0
40
0
40
0.12499999999998
40
0.12499999999998
40
0.249999999999959
40
0.249999999999959
40
0.374999999999939
40
0.374999999999939
40
0.499999999999919
40
0.499999999999919
40
0.515624999999911
40
0.515624999999911
40
0.531249999999904
40
0.531249999999904
40
0.562499999999901
40
0.578124999999899
40
0.578124999999899
40
0.593749999999897
40
0.593749999999897
40
0.624999999999894
40
0.624999999999894
40
0.640624999999901
40
0.640624999999901
40
0.656249999999908
40
0.656249999999908
40
0.687499999999921
40
0.687499999999921
40
0.703124999999928
40
0.703124999999928
40
0.718749999999935
40
0.718749999999935
40
0.734374999999942
40
0.734374999999942
40
0.749999999999949
40
0.749999999999949
40
0.757812499999953
40
0.765624999999956
40
0.765624999999956
40
0.781249999999964
40
0.781249999999964
40
0.812499999999969
40
0.87499999999998
40
0.87499999999998
40
1
40
1
40
1
40
1
41
1
10
60.8811739125814
20
4.00136615473571
30
0
41
1
10
60.9159476394311
20
3.93812800847945
30
0
41
1
10
60.951072307335
20
3.87440245436815
30
0
41
1
10
61.0215046942998
20
3.74586951823747
30
0
41
1
10
61.0568335437783
20
3.68104356224097
30
0
41
1
10
61.127726713456
20
3.55025929840627
30
0
41
1
10
61.1632924965616
20
3.4843018373185
30
0
41
1
10
61.2346131904179
20
3.35118092429045
30
0
41
1
10
61.2703845532531
20
3.28398802053968
30
0
41
1
10
61.3105933720484
20
3.20781670005181
30
0
41
1
10
61.3150529604976
20
3.1993383298076
30
0
41
1
10
61.3244401046213
20
3.18275382997317
30
0
41
1
10
61.3294052052059
20
3.17460824413436
30
0
41
1
10
61.3453147870409
20
3.15156309929844
30
0
41
1
10
61.3630285703524
20
3.13126102056083
30
0
41
1
10
61.3828582749252
20
3.11416698568502
30
0
41
1
10
61.3964889472168
20
3.10339531770992
30
0
41
1
10
61.4034962804477
20
3.09833848527669
30
0
41
1
10
61.4247382168673
20
3.08430220819008
30
0
41
1
10
61.4393034170443
20
3.07633712733039
30
0
41
1
10
61.4617585898034
20
3.06661262277291
30
0
41
1
10
61.4693853604942
20
3.06373673302795
30
0
41
1
10
61.4846641448701
20
3.05891143595034
30
0
41
1
10
61.4922929788594
20
3.0569623065027
30
0
41
1
10
61.5151391410174
20
3.05240402665999
30
0
41
1
10
61.5303174145884
20
3.05104915532218
30
0
41
1
10
61.5529571300635
20
3.05171726108159
30
0
41
1
10
61.5605134469085
20
3.05240231137483
30
0
41
1
10
61.5754270737805
20
3.0548415439834
30
0
41
1
10
61.5827139692499
20
3.05658301327969
30
0
41
1
10
61.596880460031
20
3.06130302739609
30
0
41
1
10
61.6037660967319
20
3.0642621009207
30
0
41
1
10
61.6170944870223
20
3.0715074364183
30
0
41
1
10
61.6234835816098
20
3.07575834415891
30
0
41
1
10
61.6322771566257
20
3.08318474555645
30
0
41
1
10
61.6378842303617
20
3.08852007809139
30
0
41
1
10
61.6430056034192
20
3.09458478268476
30
0
41
1
10
61.650533092846
20
3.1039029044606
30
0
41
1
10
61.6554100819492
20
3.11030963306268
30
0
41
1
10
61.6701159590589
20
3.12932690166042
30
0
41
1
10
61.699296352749
20
3.16738554040151
30
0
41
1
10
61.7280496624105
20
3.20519088226985
30
0
41
1
10
61.7855136222199
20
3.27981619910059
30
0
41
1
10
61.8238754241458
20
3.32812495799959
30
0
41
1
10
61.8619417034217
20
3.37535519530275
30
0
0
SPLINE
5
FC
100
AcDbEntity
8
1
62
256
6
ByLayer
370
18
48
1
60
0
100
AcDbSpline
70
4
71
3
72
8
73
4
40
0
40
0
40
0
40
0
40
1
40
1
40
1
40
1
41
1
10
61.8619417034216
20
3.37535519530283
30
0
41
1
10
61.932532869116
20
3.46294025931954
30
0
41
1
10
62.0019731911878
20
3.5467349155233
30
0
41
1
10
62.0721565294668
20
3.62409776116289
30
0
0
SPLINE
5
FD
100
AcDbEntity
8
1
62
256
6
ByLayer
370
18
48
1
60
0
100
AcDbSpline
70
4
71
3
72
8
73
4
40
0
40
0
40
0
40
0
40
1
40
1
40
1
40
1
41
1
10
62.1952043740237
20
3.56614351414865
30
0
41
1
10
62.1542504127448
20
3.58601334017464
30
0
41
1
10
62.113184950425
20
3.60537833027254
30
0
41
1
10
62.0721565294668
20
3.62409776116291
30
0
0
SPLINE
5
FE
100
AcDbEntity
8
1
62
256
6
ByLayer
370
18
48
1
60
0
100
AcDbSpline
70
4
71
3
72
51
73
47
40
0
40
0
40
0
40
0
40
0.125000000000016
40
0.125000000000016
40
0.250000000000032
40
0.250000000000032
40
0.375000000000047
40
0.375000000000047
40
0.500000000000063
40
0.500000000000063
40
0.51562500000007
40
0.51562500000007
40
0.531250000000077
40
0.531250000000077
40
0.562500000000079
40
0.562500000000079
40
0.578125000000079
40
0.578125000000079
40
0.59375000000008
40
0.59375000000008
40
0.625000000000081
40
0.625000000000081
40
0.64062500000009
40
0.64062500000009
40
0.656250000000099
40
0.656250000000099
40
0.687500000000118
40
0.687500000000118
40
0.703125000000127
40
0.703125000000127
40
0.718750000000136
40
0.718750000000136
40
0.734375000000146
40
0.734375000000146
40
0.750000000000155
40
0.750000000000155
40
0.757812500000153
40
0.757812500000153
40
0.765625000000151
40
0.765625000000151
40
0.781250000000135
40
0.781250000000135
40
0.812500000000116
40
0.875000000000078
40
0.875000000000078
40
1
40
1
40
1
40
1
41
1
10
62.1952043740237
20
3.56614351414871
30
0
41
1
10
62.2299763211251
20
3.49586384376798
30
0
41
1
10
62.2650937397658
20
3.42554319003904
30
0
41
1
10
62.3356236738222
20
3.2847230894175
30
0
41
1
10
62.3710228396956
20
3.21426067988185
30
0
41
1
10
62.4421085729287
20
3.07323638069585
30
0
41
1
10
62.4778116106821
20
3.00264584491151
30
0
41
1
10
62.5493235603061
20
2.86161114264775
30
0
41
1
10
62.5851468214391
20
2.79114198458427
30
0
41
1
10
62.6254639349769
20
2.7118885490602
30
0
41
1
10
62.6299414472447
20
2.70308174924821
30
0
41
1
10
62.6393773711245
20
2.685710099332
30
0
41
1
10
62.6443742286831
20
2.67710105575119
30
0
41
1
10
62.6603496900371
20
2.65234920166026
30
0
41
1
10
62.6722015375192
20
2.63720838129274
30
0
41
1
10
62.6913900904561
20
2.616091908778
30
0
41
1
10
62.6980206982358
20
2.60931814961825
30
0
41
1
10
62.7116937072416
20
2.59623661649289
30
0
41
1
10
62.7187134596192
20
2.5899555614107
30
0
41
1
10
62.7399934706603
20
2.57208241547926
30
0
41
1
10
62.754579801188
20
2.56133175967955
30
0
41
1
10
62.7770612729225
20
2.54705387191521
30
0
41
1
10
62.784696806565
20
2.54258787980521
30
0
41
1
10
62.7999825875036
20
2.53448038456304
30
0
41
1
10
62.8076130661053
20
2.53084069232327
30
0
41
1
10
62.8304589591943
20
2.5210696069993
30
0
41
1
10
62.8456302748201
20
2.51605501513831
30
0
41
1
10
62.8682482911483
20
2.5109262910174
30
0
41
1
10
62.8757992828064
20
2.50961829371741
30
0
41
1
10
62.8906756434334
20
2.50798748180779
30
0
41
1
10
62.8979416737538
20
2.50767073827384
30
0
41
1
10
62.9120631332589
20
2.50821156930272
30
0
41
1
10
62.9189251188931
20
2.50904913555007
30
0
41
1
10
62.9322020495955
20
2.51198392665341
30
0
41
1
10
62.9385563328642
20
2.51406118812821
30
0
41
1
10
62.9472951094421
20
2.51829453727674
30
0
41
1
10
62.9500798033606
20
2.51990482478377
30
0
41
1
10
62.9554096923532
20
2.52349597616748
30
0
41
1
10
62.9579571877915
20
2.52547316331206
30
0
41
1
10
62.9654559380663
20
2.53161295742032
30
0
41
1
10
62.9703277321385
20
2.53588060179854
30
0
41
1
10
62.9850061075995
20
2.54847946105653
30
0
41
1
10
63.0141336034639
20
2.5736462013779
30
0
41
1
10
63.0428377755084
20
2.59837476966675
30
0
41
1
10
63.1002050608859
20
2.64655837908896
30
0
41
1
10
63.1385028941987
20
2.67684426666153
30
0
41
1
10
63.1765095293153
20
2.70573090632226
30
0
0
SPLINE
5
FF
100
AcDbEntity
8
1
62
256
6
ByLayer
370
18
48
1
60
0
100
AcDbSpline
70
4
71
3
72
8
73
4
40
0
40
0
40
0
40
0
40
1
40
1
40
1
40
1
41
1
10
63.1765095293153
20
2.70573090632223
30
0
41
1
10
63.2467955954632
20
2.75915126989176
30
0
41
1
10
63.315952069147
20
2.80775436600777
30
0
41
1
10
63.3858810585291
20
2.84890700871779
30
0
0
SPLINE
5
100
100
AcDbEntity
8
1
62
256
6
ByLayer
370
13
48
1
60
0
100
AcDbSpline
70
4
71
3
72
10
73
6
40
0
40
0
40
0
40
0
40
0.625816106359298
40
0.916235804450107
40
1
40
1
40
1
40
1
41
1
10
63.3339886564788
20
0.0902022423998687
30
0
41
1
10
63.302073142113
20
0.686135019048436
30
0
41
1
10
63.2550773740448
20
1.55781356148478
30
0
41
1
10
63.201015189658
20
2.38324711758824
30
0
41
1
10
63.1809842580914
20
2.64856961403234
30
0
41
1
10
63.1765095293153
20
2.70573090632226
30
0
0
SPLINE
5
101
100
AcDbEntity
8
1
62
256
6
ByLayer
370
18
48
1
60
0
100
AcDbSpline
70
4
71
3
72
8
73
4
40
0
40
0
40
0
40
0
40
1
40
1
40
1
40
1
41
1
10
61.5181126744558
20
-3.99663644937459
30
0
41
1
10
61.5065477491957
20
-4.01645223291737
30
0
41
1
10
61.4950116946561
20
-4.03624552458857
30
0
41
1
10
61.483511939803
20
-4.05602395584592
30
0
0
SPLINE
5
102
100
AcDbEntity
8
1
62
256
6
ByLayer
370
18
48
1
60
0
100
AcDbSpline
70
4
71
3
72
52
73
48
40
0
40
0
40
0
40
0
40
0.0586761657686334
40
0.0586761657686334
40
0.0782870789818106
40
0.0782870789818106
40
0.0978979921949878
40
0.0978979921949878
40
0.117508905408165
40
0.117508905408165
40
0.137119818621342
40
0.137119818621342
40
0.176341645047696
40
0.176341645047696
40
0.21556347147405
40
0.21556347147405
40
0.235174384687216
40
0.235174384687216
40
0.254785297900383
40
0.254785297900383
40
0.294007124326716
40
0.294007124326716
40
0.313618037539883
40
0.313618037539883
40
0.33322895075305
40
0.33322895075305
40
0.352839863966217
40
0.352839863966217
40
0.372450777179384
40
0.372450777179384
40
0.39206169039255
40
0.39206169039255
40
0.401867146999125
40
0.401867146999125
40
0.411672603605699
40
0.411672603605699
40
0.431283516818847
40
0.431283516818847
40
0.450894430031995
40
0.450894430031995
40
0.529338082884561
40
0.529338082884561
40
0.686225388589708
40
0.686225388589708
40
0.843112694294854
40
0.843112694294854
40
1
40
1
40
1
40
1
41
1
10
60.9820222057903
20
-3.43761426490352
30
0
41
1
10
60.9696145577803
20
-3.4161594611825
30
0
41
1
10
60.9571554968458
20
-3.39463136623013
30
0
41
1
10
60.9404136930034
20
-3.36586181340328
30
0
41
1
10
60.9362095339026
20
-3.3586520465941
30
0
41
1
10
60.9277765530822
20
-3.34423088962038
30
0
41
1
10
60.9235674270607
20
-3.33699696881288
30
0
41
1
10
60.9150204912409
20
-3.32264628028827
30
0
41
1
10
60.9106376489115
20
-3.31558107629667
30
0
41
1
10
60.9011244581794
20
-3.30227412287806
30
0
41
1
10
60.8960122124766
20
-3.29601156645859
30
0
41
1
10
60.8798080876206
20
-3.27816737997435
30
0
41
1
10
60.8677704333592
20
-3.26740211611255
30
0
41
1
10
60.8425494748729
20
-3.24907290221762
30
0
41
1
10
60.829282351201
20
-3.24139007323697
30
0
41
1
10
60.8085500553546
20
-3.23177396973577
30
0
41
1
10
60.8014973755554
20
-3.22889468610859
30
0
41
1
10
60.7870998677218
20
-3.22382011165166
30
0
41
1
10
60.7797944237507
20
-3.22164185042561
30
0
41
1
10
60.757803486031
20
-3.2163186463745
30
0
41
1
10
60.742942770308
20
-3.2143788801676
30
0
41
1
10
60.7203533170351
20
-3.21427154635853
30
0
41
1
10
60.7127756585544
20
-3.21468659866818
30
0
41
1
10
60.6975279836503
20
-3.21646582368408
30
0
41
1
10
60.6898598064007
20
-3.21783608553295
30
0
41
1
10
60.6747845765073
20
-3.22153948600786
30
0
41
1
10
60.667334311268
20
-3.22387394839626
30
0
41
1
10
60.6526408958827
20
-3.2296515871972
30
0
41
1
10
60.6453583168143
20
-3.23311179865371
30
0
41
1
10
60.6312445957723
20
-3.2413976603986
30
0
41
1
10
60.6245039191395
20
-3.24616909090042
30
0
41
1
10
60.6149420836161
20
-3.25441436519827
30
0
41
1
10
60.6118464913784
20
-3.25734447978144
30
0
41
1
10
60.6058534712156
20
-3.26359728387789
30
0
41
1
10
60.6029468534596
20
-3.26694426659631
30
0
41
1
10
60.5946375608255
20
-3.27739650616127
30
0
41
1
10
60.5896213831301
20
-3.28490028156972
30
0
41
1
10
60.5799014225453
20
-3.30020849712534
30
0
41
1
10
60.5751355494194
20
-3.3079475413432
30
0
41
1
10
60.5511171444667
20
-3.34637359310636
30
0
41
1
10
60.5318794278271
20
-3.37686550441941
30
0
41
1
10
60.4741383162607
20
-3.46764891797679
30
0
41
1
10
60.4356428646883
20
-3.5271959567624
30
0
41
1
10
60.3589501598068
20
-3.64428074913931
30
0
41
1
10
60.3207273852095
20
-3.70186504458152
30
0
41
1
10
60.244532502185
20
-3.81522095640008
30
0
41
1
10
60.2065299020347
20
-3.870954463071
30
0
41
1
10
60.168890315744
20
-3.92611867474426
30
0
0
SPLINE
5
103
100
AcDbEntity
8
1
62
256
6
ByLayer
370
18
48
1
60
0
100
AcDbSpline
70
4
71
3
72
8
73
4
40
0
40
0
40
0
40
0
40
1
40
1
40
1
40
1
41
1
10
60.0452657655113
20
-3.89220390951329
30
0
41
1
10
59.9728024730301
20
-3.75315953601174
30
0
41
1
10
59.9010223625515
20
-3.61049903691713
30
0
41
1
10
59.8282824311373
20
-3.4662257559539
30
0
0
SPLINE
5
104
100
AcDbEntity
8
1
62
256
6
ByLayer
370
18
48
1
60
0
100
AcDbSpline
70
4
71
3
72
8
73
4
40
0
40
0
40
0
40
0
40
1
40
1
40
1
40
1
41
1
10
54.8510721185944
20
-3.59642245113741
30
0
41
1
10
54.9213498587438
20
-3.72213308466945
30
0
41
1
10
54.9905182701036
20
-3.84755482286874
30
0
41
1
10
55.0604867333989
20
-3.97124619095783
30
0
0
SPLINE
5
105
100
AcDbEntity
8
1
62
256
6
ByLayer
370
18
48
1
60
0
100
AcDbSpline
70
4
71
3
72
52
73
48
40
0
40
0
40
0
40
0
40
0.125000000000014
40
0.125000000000014
40
0.250000000000027
40
0.250000000000027
40
0.375000000000041
40
0.375000000000041
40
0.500000000000055
40
0.500000000000055
40
0.515625000000058
40
0.515625000000058
40
0.531250000000061
40
0.531250000000061
40
0.562500000000067
40
0.562500000000067
40
0.578125000000077
40
0.578125000000077
40
0.593750000000087
40
0.593750000000087
40
0.625000000000107
40
0.625000000000107
40
0.640625000000117
40
0.640625000000117
40
0.656250000000127
40
0.656250000000127
40
0.68750000000013
40
0.68750000000013
40
0.703125000000131
40
0.703125000000131
40
0.718750000000133
40
0.718750000000133
40
0.734375000000134
40
0.734375000000134
40
0.750000000000136
40
0.750000000000136
40
0.75781250000013
40
0.75781250000013
40
0.765625000000125
40
0.765625000000125
40
0.773437500000119
40
0.773437500000119
40
0.781250000000113
40
0.812500000000102
40
0.875000000000068
40
0.875000000000068
40
1
40
1
40
1
40
1
41
1
10
55.1844736009836
20
-3.99576041853263
30
0
41
1
10
55.2192664733657
20
-3.94784632798522
30
0
41
1
10
55.2543941076486
20
-3.899056441543
30
0
41
1
10
55.324895940754
20
-3.79927703137821
30
0
41
1
10
55.3602617771145
20
-3.74831836000382
30
0
41
1
10
55.431238897611
20
-3.64421807677311
30
0
41
1
10
55.4668659222796
20
-3.59105381145326
30
0
41
1
10
55.5381995023346
20
-3.482637470595
30
0
41
1
10
55.5739193779158
20
-3.4273716505088
30
0
41
1
10
55.6141093608533
20
-3.36392881189474
30
0
41
1
10
55.6185644827629
20
-3.35685018925244
30
0
41
1
10
55.6279307462842
20
-3.34317329065775
30
0
41
1
10
55.6328763674975
20
-3.33654930936905
30
0
41
1
10
55.6487452303785
20
-3.31827934557734
30
0
41
1
10
55.6605194686638
20
-3.30822526593658
30
0
41
1
10
55.6795771590948
20
-3.29562185911453
30
0
41
1
10
55.6861626127222
20
-3.29183433151581
30
0
41
1
10
55.6997394833436
20
-3.2849820055836
30
0
41
1
10
55.7067394771016
20
-3.28191988529432
30
0
41
1
10
55.7279494551343
20
-3.27391449126253
30
0
41
1
10
55.742484048703
20
-3.27005858681329
30
0
41
1
10
55.7648730789832
20
-3.26663846388905
30
0
41
1
10
55.7724522301732
20
-3.26589868090159
30
0
41
1
10
55.7877588189254
20
-3.26534242269639
30
0
41
1
10
55.7953974275833
20
-3.26552818329489
30
0
41
1
10
55.8182613377587
20
-3.26737388869313
30
0
41
1
10
55.8334362183041
20
-3.2702881205189
30
0
41
1
10
55.85604745404
20
-3.27734893886341
30
0
41
1
10
55.863559118288
20
-3.28015752733424
30
0
41
1
10
55.8785160942456
20
-3.28685854559851
30
0
41
1
10
55.8858382598976
20
-3.29069979739143
30
0
41
1
10
55.9000453074664
20
-3.29951770125481
30
0
41
1
10
55.9069450506066
20
-3.3044822068066
30
0
41
1
10
55.9202927133138
20
-3.31563180580596
30
0
41
1
10
55.9267413905356
20
-3.32181703309939
30
0
41
1
10
55.9356015999868
20
-3.33192471798381
30
0
41
1
10
55.9384260531119
20
-3.33545324893765
30
0
41
1
10
55.9438256762879
20
-3.34281797223122
30
0
41
1
10
55.9463997441865
20
-3.34665557025633
30
0
41
1
10
55.9514356934384
20
-3.35446491273157
30
0
41
1
10
55.9538989350029
20
-3.35843493797324
30
0
41
1
10
55.9588280050465
20
-3.36636381429722
30
0
41
1
10
55.9711238404404
20
-3.386198532452
30
0
41
1
10
56.0027763976056
20
-3.43787852609088
30
0
41
1
10
56.0315626648697
20
-3.48556701752256
30
0
41
1
10
56.0890917567983
20
-3.5804105760736
30
0
41
1
10
56.1274997915671
20
-3.64283224020684
30
0
41
1
10
56.1656247499805
20
-3.70471708399495
30
0
0
SPLINE
5
106
100
AcDbEntity
8
1
62
256
6
ByLayer
370
18
48
1
60
0
100
AcDbSpline
70
4
71
3
72
8
73
4
40
0
40
0
40
0
40
0
40
1
40
1
40
1
40
1
41
1
10
56.1656247499805
20
-3.70471708399495
30
0
41
1
10
56.2359929651649
20
-3.81893953001369
30
0
41
1
10
56.3052642891308
20
-3.93118797005445
30
0
41
1
10
56.3753451327552
20
-4.03938554088106
30
0
0
SPLINE
5
107
100
AcDbEntity
8
1
62
256
6
ByLayer
370
18
48
1
60
0
100
AcDbSpline
70
4
71
3
72
8
73
4
40
0
40
0
40
0
40
0
40
1
40
1
40
1
40
1
41
1
10
56.4992626027422
20
-4.02380458123872
30
0
41
1
10
56.4579108839163
20
-4.02962659121718
30
0
41
1
10
56.4166041056555
20
-4.0348198359716
30
0
41
1
10
56.3753451327552
20
-4.03938554088103
30
0
0
SPLINE
5
108
100
AcDbEntity
8
1
62
256
6
ByLayer
370
18
48
1
60
0
100
AcDbSpline
70
4
71
3
72
51
73
47
40
0
40
0
40
0
40
0
40
0.12500000000008
40
0.12500000000008
40
0.25000000000016
40
0.25000000000016
40
0.37500000000024
40
0.37500000000024
40
0.50000000000032
40
0.50000000000032
40
0.515625000000322
40
0.515625000000322
40
0.531250000000324
40
0.531250000000324
40
0.562500000000316
40
0.562500000000316
40
0.578125000000311
40
0.578125000000311
40
0.593750000000307
40
0.593750000000307
40
0.625000000000315
40
0.625000000000315
40
0.640625000000319
40
0.640625000000319
40
0.656250000000323
40
0.656250000000323
40
0.687500000000313
40
0.687500000000313
40
0.703125000000309
40
0.703125000000309
40
0.718750000000304
40
0.718750000000304
40
0.734375000000299
40
0.734375000000299
40
0.750000000000295
40
0.750000000000295
40
0.757812500000286
40
0.765625000000277
40
0.765625000000277
40
0.773437500000268
40
0.773437500000268
40
0.781250000000259
40
0.812500000000222
40
0.875000000000148
40
0.875000000000148
40
1
40
1
40
1
40
1
41
1
10
56.4992626027422
20
-4.02380458123869
30
0
41
1
10
56.5340075826477
20
-3.96165022375044
30
0
41
1
10
56.5690912907803
20
-3.89898387198474
30
0
41
1
10
56.639519658743
20
-3.77233055099703
30
0
41
1
10
56.6748551295076
20
-3.70837946871882
30
0
41
1
10
56.7457884997776
20
-3.57920951405498
30
0
41
1
10
56.7814029075761
20
-3.51396375902411
30
0
41
1
10
56.8527227836149
20
-3.38237250186961
30
0
41
1
10
56.8884412428525
20
-3.31600808080475
30
0
41
1
10
56.9286321672063
20
-3.24064928824916
30
0
41
1
10
56.9330874778715
20
-3.23225719741958
30
0
41
1
10
56.942455181445
20
-3.21585718603254
30
0
41
1
10
56.9474002263203
20
-3.20781634295261
30
0
41
1
10
56.9632925462087
20
-3.1850452195591
30
0
41
1
10
56.9750814656569
20
-3.17175544051329
30
0
41
1
10
56.99415714099
20
-3.15402046442807
30
0
41
1
10
57.0007478960091
20
-3.14847590409118
30
0
41
1
10
57.0143340497676
20
-3.13802762105971
30
0
41
1
10
57.0213425207626
20
-3.13312121889663
30
0
41
1
10
57.0425786357093
20
-3.11955962211152
30
0
41
1
10
57.0571282283951
20
-3.11193933450804
30
0
41
1
10
57.0795357393778
20
-3.10275960065684
30
0
41
1
10
57.0871155291077
20
-3.10007784957523
30
0
41
1
10
57.1024434357262
20
-3.09560194231503
30
0
41
1
10
57.1100913076506
20
-3.09383590317523
30
0
41
1
10
57.132979234079
20
-3.08984320124932
30
0
41
1
10
57.148165203002
20
-3.08888733998526
30
0
41
1
10
57.1707854492058
20
-3.0901603405452
30
0
41
1
10
57.178298824963
20
-3.09104266913298
30
0
41
1
10
57.1932561281727
20
-3.09389631284827
30
0
41
1
10
57.2005800089432
20
-3.09584946836935
30
0
41
1
10
57.2147820977976
20
-3.10098469859432
30
0
41
1
10
57.2216773153768
20
-3.10415041323489
30
0
41
1
10
57.2350111391148
20
-3.1117944286747
30
0
41
1
10
57.241452253899
20
-3.11627329190279
30
0
41
1
10
57.2502944600655
20
-3.12401494249104
30
0
41
1
10
57.2559295335972
20
-3.12955488020543
30
0
41
1
10
57.2610668345594
20
-3.13581958335814
30
0
41
1
10
57.2660951335457
20
-3.14223606990501
30
0
41
1
10
57.2685563310303
20
-3.14551786172211
30
0
41
1
10
57.2734825112147
20
-3.15206325564398
30
0
41
1
10
57.2857711886211
20
-3.16843421914109
30
0
41
1
10
57.3174058265877
20
-3.21103554315124
30
0
41
1
10
57.3461758567629
20
-3.2501203074859
30
0
41
1
10
57.4036702264715
20
-3.32733174845757
30
0
41
1
10
57.4420516789307
20
-3.37740510151187
30
0
41
1
10
57.4801381691956
20
-3.42643944201123
30
0
0
SPLINE
5
109
100
AcDbEntity
8
1
62
256
6
ByLayer
370
18
48
1
60
0
100
AcDbSpline
70
4
71
3
72
8
73
4
40
0
40
0
40
0
40
0
40
1
40
1
40
1
40
1
41
1
10
57.4801381691956
20
-3.4264394420112
30
0
41
1
10
57.5506640216478
20
-3.51723774448237
30
0
41
1
10
57.6200276376007
20
-3.60430209898826
30
0
41
1
10
57.6902017457889
20
-3.68544089706688
30
0
0
SPLINE
5
10A
100
AcDbEntity
8
1
62
256
6
ByLayer
370
18
48
1
60
0
100
AcDbSpline
70
4
71
3
72
8
73
4
40
0
40
0
40
0
40
0
40
1
40
1
40
1
40
1
41
1
10
57.8139815005825
20
-3.6311747866194
30
0
41
1
10
57.7726545256705
20
-3.6498320455961
30
0
41
1
10
57.7313941206558
20
-3.66792086111195
30
0
41
1
10
57.6902017457889
20
-3.68544089706685
30
0
0
SPLINE
5
10B
100
AcDbEntity
8
1
62
256
6
ByLayer
370
18
48
1
60
0
100
AcDbSpline
70
4
71
3
72
26
73
22
40
0
40
0
40
0
40
0
40
0.194893772546412
40
0.194893772546412
40
0.389787545092823
40
0.389787545092823
40
0.584681317639235
40
0.584681317639235
40
0.779575090185647
40
0.779575090185647
40
0.828298533322257
40
0.828298533322257
40
0.852660254890553
40
0.852660254890553
40
0.877021976458849
40
0.877021976458849
40
0.925745419595419
40
0.925745419595419
40
0.97446886273199
40
0.97446886273199
40
1
40
1
40
1
40
1
41
1
10
57.8139815005825
20
-3.6311747866194
30
0
41
1
10
57.8484496445013
20
-3.56184937230142
30
0
41
1
10
57.8832490261995
20
-3.49244456748613
30
0
41
1
10
57.9530627470909
20
-3.35342821896506
30
0
41
1
10
57.988094903576
20
-3.28379577931165
30
0
41
1
10
58.0584280833872
20
-3.14428610825908
30
0
41
1
10
58.0937505583651
20
-3.07437247785151
30
0
41
1
10
58.1645269750329
20
-2.93447590294517
30
0
41
1
10
58.1999750340336
20
-2.8645074548833
30
0
41
1
10
58.2443069882541
20
-2.77697402076987
30
0
41
1
10
58.2530104659863
20
-2.75936276074827
30
0
41
1
10
58.2682387905733
20
-2.73427198107055
30
0
41
1
10
58.2736882759891
20
-2.72613625791439
30
0
41
1
10
58.2853340617362
20
-2.71032048377248
30
0
41
1
10
58.291516359269
20
-2.70266104616965
30
0
41
1
10
58.3105496660992
20
-2.68090816253402
30
0
41
1
10
58.3240384879267
20
-2.6677696676949
30
0
41
1
10
58.3522182737394
20
-2.64355503327732
30
0
41
1
10
58.3670429072018
20
-2.63243203515222
30
0
41
1
10
58.38986237111
20
-2.61769882973485
30
0
41
1
10
58.3977718046177
20
-2.61302384400267
30
0
41
1
10
58.4057435550344
20
-2.60875968403184
30
0
0
SPLINE
5
10C
100
AcDbEntity
8
1
62
256
6
ByLayer
370
18
48
1
60
0
100
AcDbSpline
70
4
71
3
72
24
73
20
40
0
40
0
40
0
40
0
40
0.12499999999999
40
0.12499999999999
40
0.24999999999998
40
0.24999999999998
40
0.37499999999997
40
0.37499999999997
40
0.49999999999996
40
0.49999999999996
40
0.624999999999949
40
0.624999999999949
40
0.749999999999939
40
0.749999999999939
40
0.874999999999929
40
0.874999999999929
40
0.937499999999965
40
0.937499999999965
40
1
40
1
40
1
40
1
41
1
10
65.6242050013831
20
-1.5894726125247
30
0
41
1
10
65.614927260207
20
-1.58110369721163
30
0
41
1
10
65.6053620087275
20
-1.57298174466706
30
0
41
1
10
65.5861507317696
20
-1.55770140601814
30
0
41
1
10
65.5764616279797
20
-1.55049926716032
30
0
41
1
10
65.5569096447842
20
-1.53708654578605
30
0
41
1
10
65.5470462371768
20
-1.53087937712542
30
0
41
1
10
65.5271592239752
20
-1.5194584634404
30
0
41
1
10
65.5170597486168
20
-1.51421007188276
30
0
41
1
10
65.4971656584337
20
-1.50502929381471
30
0
41
1
10
65.4873648013708
20
-1.50107861816397
30
0
41
1
10
65.4681269382372
20
-1.49468797450208
30
0
41
1
10
65.4585938122495
20
-1.49224039187709
30
0
41
1
10
65.4407791673058
20
-1.48963278118654
30
0
41
1
10
65.4324510426823
20
-1.48943533241462
30
0
41
1
10
65.4210220243024
20
-1.49116267994953
30
0
41
1
10
65.4174345266842
20
-1.49207484866329
30
0
41
1
10
65.4106249218834
20
-1.49430949095356
30
0
41
1
10
65.4073854076593
20
-1.49563319356662
30
0
41
1
10
65.4042026870753
20
-1.49701905082171
30
0
0
SPLINE
5
10D
100
AcDbEntity
8
1
62
256
6
ByLayer
370
18
48
1
60
0
100
AcDbSpline
70
4
71
3
72
13
73
9
40
0
40
0
40
0
40
0
40
0.25
40
0.25
40
0.5
40
0.75
40
0.75
40
1
40
1
40
1
40
1
41
1
10
65.4042026870753
20
-1.49701905082185
30
0
41
1
10
65.3388226217933
20
-1.46777298322584
30
0
41
1
10
65.2737781184789
20
-1.43709678456835
30
0
41
1
10
65.1443861300763
20
-1.3727214370839
30
0
41
1
10
65.0156644982996
20
-1.30536535667565
30
0
41
1
10
64.8880464789675
20
-1.23219183357517
30
0
41
1
10
64.7608727943219
20
-1.15616120799322
30
0
41
1
10
64.6976995942057
20
-1.11683168422627
30
0
41
1
10
64.6348981008788
20
-1.07623765564003
30
0
0
SPLINE
5
10E
100
AcDbEntity
8
1
62
256
6
ByLayer
370
18
48
1
60
0
100
AcDbSpline
70
4
71
3
72
8
73
4
40
0
40
0
40
0
40
0
40
1
40
1
40
1
40
1
41
1
10
63.5506641762776
20
-0.206171984860873
30
0
41
1
10
63.4783009720432
20
-0.101560856572036
30
0
41
1
10
63.4066130158747
20
-0.0029851892790589
30
0
41
1
10
63.3339886564789
20
0.0902022423992435
30
0
0
SPLINE
5
10F
100
AcDbEntity
8
1
62
256
6
ByLayer
370
18
48
1
60
0
100
AcDbSpline
70
4
71
3
72
54
73
50
40
0
40
0
40
0
40
0
40
0.12500000000011
40
0.12500000000011
40
0.250000000000221
40
0.250000000000221
40
0.265625000000226
40
0.265625000000226
40
0.281250000000231
40
0.281250000000231
40
0.296875000000236
40
0.296875000000236
40
0.312500000000242
40
0.312500000000242
40
0.343750000000239
40
0.343750000000239
40
0.35937500000023
40
0.35937500000023
40
0.37500000000022
40
0.37500000000022
40
0.406250000000186
40
0.406250000000186
40
0.421875000000177
40
0.421875000000177
40
0.437500000000169
40
0.437500000000169
40
0.468750000000152
40
0.468750000000152
40
0.484375000000152
40
0.484375000000152
40
0.500000000000152
40
0.500000000000152
40
0.507812500000152
40
0.507812500000152
40
0.515625000000153
40
0.515625000000153
40
0.531250000000153
40
0.531250000000153
40
0.546875000000153
40
0.546875000000153
40
0.562500000000153
40
0.562500000000153
40
0.625000000000132
40
0.625000000000132
40
0.750000000000088
40
0.750000000000088
40
0.875000000000044
40
0.875000000000044
40
1
40
1
40
1
40
1
41
1
10
63.3339886564789
20
0.090202242398675
30
0
41
1
10
63.3009378804339
20
0.132611111271757
30
0
41
1
10
63.2677108116574
20
0.173876761053634
30
0
41
1
10
63.2012502211456
20
0.253837684572915
30
0
41
1
10
63.1680975882225
20
0.29248649670609
30
0
41
1
10
63.1300865693258
20
0.334923887416153
30
0
41
1
10
63.125852518512
20
0.339625098159075
30
0
41
1
10
63.1173589402042
20
0.349001884736879
30
0
41
1
10
63.1131309072563
20
0.3536574782147
30
0
41
1
10
63.1044640864719
20
0.363060299568559
30
0
41
1
10
63.0999670632585
20
0.367844512298319
30
0
41
1
10
63.0901532668411
20
0.377888161359408
30
0
41
1
10
63.0848435255319
20
0.383151120125206
30
0
41
1
10
63.0683312963317
20
0.39913686402312
30
0
41
1
10
63.0564927742593
20
0.410123763101552
30
0
41
1
10
63.0375841133359
20
0.427077706086521
30
0
41
1
10
63.0310886441129
20
0.432808492344975
30
0
41
1
10
63.0177443290824
20
0.444418614610356
30
0
41
1
10
63.0108693322817
20
0.45031967158846
30
0
41
1
10
62.9900263420388
20
0.467993692978439
30
0
41
1
10
62.975785375153
20
0.479790800837236
30
0
41
1
10
62.9538940261313
20
0.497556347335518
30
0
41
1
10
62.9465073208857
20
0.503490146370609
30
0
41
1
10
62.9315337834129
20
0.515395717477247
30
0
41
1
10
62.9239104214019
20
0.521394767288058
30
0
41
1
10
62.9011760956366
20
0.53912577808012
30
0
41
1
10
62.8861007025345
20
0.550677829085373
30
0
41
1
10
62.8636661102167
20
0.567624919282309
30
0
41
1
10
62.8561728119432
20
0.573242849423309
30
0
41
1
10
62.8415213809331
20
0.584139551720511
30
0
41
1
10
62.8343716251875
20
0.589412920210322
30
0
41
1
10
62.8239829329291
20
0.596994377799206
30
0
41
1
10
62.8205761922109
20
0.599466607604768
30
0
41
1
10
62.8138885512799
20
0.604288774141395
30
0
41
1
10
62.8105918597122
20
0.606649839964973
30
0
41
1
10
62.8010913411064
20
0.613401924464995
30
0
41
1
10
62.7952629029622
20
0.617468960745953
30
0
41
1
10
62.784522652095
20
0.62482264819505
30
0
41
1
10
62.7795791689508
20
0.628137610702765
30
0
41
1
10
62.7699367505489
20
0.634604804778007
30
0
41
1
10
62.765180451018
20
0.637809924876251
30
0
41
1
10
62.7412568883555
20
0.654108660135137
30
0
41
1
10
62.7220955463605
20
0.667636337306135
30
0
41
1
10
62.6645844938587
20
0.709627497458342
30
0
41
1
10
62.6261939454094
20
0.739512458507846
30
0
41
1
10
62.5497185033381
20
0.80260191877025
30
0
41
1
10
62.5116054502714
20
0.835824638831838
30
0
41
1
10
62.4356350647543
20
0.905491111186961
30
0
41
1
10
62.3977477091385
20
0.941964343601825
30
0
41
1
10
62.3602244420439
20
0.979769569726244
30
0
0
SPLINE
5
110
100
AcDbEntity
8
1
62
256
6
ByLayer
370
18
48
1
60
0
100
AcDbSpline
70
4
71
3
72
10
73
6
40
0
40
0
40
0
40
0
40
0.5
40
0.5
40
1
40
1
40
1
40
1
41
1
10
62.2363507186178
20
1.10006630521707
30
0
41
1
10
62.2000964416735
20
1.13218379704713
30
0
41
1
10
62.1639930201371
20
1.16238004417761
30
0
41
1
10
62.091745740891
20
1.21921663713508
30
0
41
1
10
62.0555964505232
20
1.24586684347642
30
0
41
1
10
62.019183518593
20
1.27095173039189
30
0
0
SPLINE
5
111
100
AcDbEntity
8
1
62
256
6
ByLayer
370
18
48
1
60
0
100
AcDbSpline
70
4
71
3
72
52
73
48
40
0
40
0
40
0
40
0
40
0.124999999999905
40
0.124999999999905
40
0.249999999999809
40
0.249999999999809
40
0.265624999999802
40
0.265624999999802
40
0.281249999999795
40
0.281249999999795
40
0.296874999999788
40
0.296874999999788
40
0.312499999999781
40
0.312499999999781
40
0.343749999999767
40
0.343749999999767
40
0.374999999999753
40
0.374999999999753
40
0.40624999999974
40
0.40624999999974
40
0.437499999999726
40
0.437499999999726
40
0.453124999999728
40
0.453124999999728
40
0.46874999999973
40
0.46874999999973
40
0.484374999999732
40
0.484374999999732
40
0.499999999999734
40
0.499999999999734
40
0.515624999999736
40
0.515624999999736
40
0.523437499999737
40
0.523437499999737
40
0.531249999999738
40
0.531249999999738
40
0.546874999999741
40
0.546874999999741
40
0.562499999999743
40
0.562499999999743
40
0.624999999999775
40
0.624999999999775
40
0.74999999999985
40
0.74999999999985
40
0.874999999999925
40
0.874999999999925
40
1
40
1
40
1
40
1
41
1
10
62.019183518593
20
1.2709517303918
30
0
41
1
10
61.9863718730741
20
1.29355568930762
30
0
41
1
10
61.953382738118
20
1.31485948830604
30
0
41
1
10
61.8873779901147
20
1.35448378643355
30
0
41
1
10
61.8544472601809
20
1.37272776032469
30
0
41
1
10
61.8166743370414
20
1.39220742939628
30
0
41
1
10
61.8124668600132
20
1.39435771141322
30
0
41
1
10
61.8040269445225
20
1.39863356893406
30
0
41
1
10
61.7998150700518
20
1.40073956408529
30
0
41
1
10
61.7912570595093
20
1.40503062791876
30
0
41
1
10
61.7868647461701
20
1.40725973108769
30
0
41
1
10
61.7773278941638
20
1.41238313373424
30
0
41
1
10
61.7722028807121
20
1.41525869963687
30
0
41
1
10
61.7559611448831
20
1.42463272924536
30
0
41
1
10
61.7439010875455
20
1.43191348222305
30
0
41
1
10
61.7186535633995
20
1.44772048334013
30
0
41
1
10
61.7053763060724
20
1.45629544896158
30
0
41
1
10
61.6777187712519
20
1.47462287060506
30
0
41
1
10
61.663204101032
20
1.48447165865522
30
0
41
1
10
61.6339107283076
20
1.50492531982832
30
0
41
1
10
61.6190674247444
20
1.51557995256948
30
0
41
1
10
61.5965093067695
20
1.53236205475301
30
0
41
1
10
61.5889428994473
20
1.53808501727525
30
0
41
1
10
61.5737189433805
20
1.549811932278
30
0
41
1
10
61.5660759586263
20
1.55580600591116
30
0
41
1
10
61.5510458044612
20
1.56783419956406
30
0
41
1
10
61.5436171045574
20
1.57389951067702
30
0
41
1
10
61.5289642931535
20
1.58615545237774
30
0
41
1
10
61.5216980828561
20
1.59238190993668
30
0
41
1
10
61.5076288165396
20
1.60483793261915
30
0
41
1
10
61.5009068610749
20
1.61099521419038
30
0
41
1
10
61.4913676143831
20
1.62011072756889
30
0
41
1
10
61.4882786380657
20
1.62312911021803
30
0
41
1
10
61.4822970086504
20
1.62912243801995
30
0
41
1
10
61.4793951362022
20
1.6321101223302
30
0
41
1
10
61.4710987882708
20
1.64088026061663
30
0
41
1
10
61.4660886487812
20
1.64648548843448
30
0
41
1
10
61.4563830412589
20
1.65758201465724
30
0
41
1
10
61.4516260955787
20
1.66310493440085
30
0
41
1
10
61.4276504047532
20
1.69093614157151
30
0
41
1
10
61.4084475938658
20
1.71359222575944
30
0
41
1
10
61.3508129310493
20
1.78269431283408
30
0
41
1
10
61.3123876666107
20
1.83023772935849
30
0
41
1
10
61.2358303034931
20
1.92787600952744
30
0
41
1
10
61.1976732018858
20
1.97800211785702
30
0
41
1
10
61.121604998832
20
2.08076448165426
30
0
41
1
10
61.0836627580437
20
2.1334175160012
30
0
41
1
10
61.0460765185049
20
2.18716217898052
30
0
0
SPLINE
5
112
100
AcDbEntity
8
1
62
256
6
ByLayer
370
18
48
1
60
0
100
AcDbSpline
70
4
71
3
72
8
73
4
40
0
40
0
40
0
40
0
40
1
40
1
40
1
40
1
41
1
10
60.9218012757024
20
2.29134236793968
30
0
41
1
10
60.8492886357633
20
2.30822276049443
30
0
41
1
10
60.7774598376485
20
2.31665144436184
30
0
41
1
10
60.7046444532668
20
2.31844619935268
30
0
0
SPLINE
5
113
100
AcDbEntity
8
1
62
256
6
ByLayer
370
18
48
1
60
0
100
AcDbSpline
70
4
71
3
72
53
73
49
40
0
40
0
40
0
40
0
40
0.125000000000166
40
0.125000000000166
40
0.250000000000332
40
0.250000000000332
40
0.265625000000347
40
0.265625000000347
40
0.281250000000361
40
0.281250000000361
40
0.296875000000377
40
0.296875000000377
40
0.312500000000392
40
0.312500000000392
40
0.343750000000421
40
0.359375000000436
40
0.359375000000436
40
0.37500000000045
40
0.37500000000045
40
0.40625000000048
40
0.40625000000048
40
0.421875000000486
40
0.421875000000486
40
0.437500000000492
40
0.437500000000492
40
0.468750000000504
40
0.468750000000504
40
0.484375000000501
40
0.484375000000501
40
0.500000000000498
40
0.500000000000498
40
0.507812500000489
40
0.507812500000489
40
0.51562500000048
40
0.51562500000048
40
0.531250000000462
40
0.531250000000462
40
0.546875000000444
40
0.546875000000444
40
0.562500000000426
40
0.562500000000426
40
0.625000000000365
40
0.625000000000365
40
0.750000000000243
40
0.750000000000243
40
0.875000000000122
40
0.875000000000122
40
1
40
1
40
1
40
1
41
1
10
60.7046444532668
20
2.31844619935268
30
0
41
1
10
60.6715847739255
20
2.31926105496316
30
0
41
1
10
60.6383391467593
20
2.31870740610364
30
0
41
1
10
60.5718200430888
20
2.31439579900996
30
0
41
1
10
60.5386275773658
20
2.31054248038606
30
0
41
1
10
60.5005557219174
20
2.30522029194844
30
0
41
1
10
60.4963146794867
20
2.30461583379372
30
0
41
1
10
60.4878066157965
20
2.30338533566564
30
0
41
1
10
60.4835728875976
20
2.30272155941176
30
0
41
1
10
60.4748791702779
20
2.30159918477494
30
0
41
1
10
60.4703589254318
20
2.30120891873963
30
0
41
1
10
60.4604917584442
20
2.30131081544323
30
0
41
1
10
60.455160174956
20
2.30176708188284
30
0
41
1
10
60.4386043465498
20
2.30402176765642
30
0
41
1
10
60.4207977018729
20
2.30800829271391
30
0
41
1
10
60.4012471965181
20
2.31445108604052
30
0
41
1
10
60.3878569769928
20
2.31925388304663
30
0
41
1
10
60.3809638847934
20
2.32191857594174
30
0
41
1
10
60.3600885571112
20
2.33053977487793
30
0
41
1
10
60.3458234268932
20
2.33713605429136
30
0
41
1
10
60.3238895186263
20
2.34847015838366
30
0
41
1
10
60.3164875585693
20
2.35249194176873
30
0
41
1
10
60.3014804954122
20
2.36111258196266
30
0
41
1
10
60.2938519948888
20
2.3657315392968
30
0
41
1
10
60.2711352227233
20
2.38019480323425
30
0
41
1
10
60.2560694212727
20
2.39070258540028
30
0
41
1
10
60.2336464142347
20
2.40794154540569
30
0
41
1
10
60.2261569674569
20
2.41397710655579
30
0
41
1
10
60.2115501529146
20
2.42641222101887
30
0
41
1
10
60.20442228256
20
2.43281477384781
30
0
41
1
10
60.1940663685274
20
2.4427726618423
30
0
41
1
10
60.1906704809175
20
2.44615107510208
30
0
41
1
10
60.1840044896966
20
2.45304049863128
30
0
41
1
10
60.1807239352106
20
2.45656456471454
30
0
41
1
10
60.1712892798112
20
2.46713582235716
30
0
41
1
10
60.1655040426251
20
2.47424333078058
30
0
41
1
10
60.1548290041411
20
2.48856861933575
30
0
41
1
10
60.1499067895795
20
2.49578785896148
30
0
41
1
10
60.1402882147314
20
2.51025334496455
30
0
41
1
10
60.1355329863688
20
2.51749701920878
30
0
41
1
10
60.1116343816267
20
2.55380250736519
30
0
41
1
10
60.0924940046849
20
2.5830947188748
30
0
41
1
10
60.0350480302049
20
2.67169817508594
30
0
41
1
10
59.9967045501189
20
2.73176106439217
30
0
41
1
10
59.9203256698235
20
2.85335016601337
30
0
41
1
10
59.8822615651289
20
2.91492294736295
30
0
41
1
10
59.8063869312965
20
3.0395611869653
30
0
41
1
10
59.7685466549393
20
3.10262750817827
30
0
41
1
10
59.7310674438944
20
3.1664096850638
30
0
0
SPLINE
5
114
100
AcDbEntity
8
1
62
256
6
ByLayer
370
18
48
1
60
0
100
AcDbSpline
70
4
71
3
72
10
73
6
40
0
40
0
40
0
40
0
40
0.5
40
0.5
40
1
40
1
40
1
40
1
41
1
10
59.6072964871549
20
3.24286783271955
30
0
41
1
10
59.5710092196022
20
3.22673327677563
30
0
41
1
10
59.5348799539715
20
3.20850650470555
30
0
41
1
10
59.4625947870426
20
3.16846252030399
30
0
41
1
10
59.4264329110312
20
3.14664540399895
30
0
41
1
10
59.390010280199
20
3.12328918953375
30
0
0
SPLINE
5
115
100
AcDbEntity
8
1
62
256
6
ByLayer
370
18
48
1
60
0
100
AcDbSpline
70
4
71
3
72
52
73
48
40
0
40
0
40
0
40
0
40
0.125000000000062
40
0.125000000000062
40
0.250000000000124
40
0.250000000000124
40
0.265625000000125
40
0.265625000000125
40
0.281250000000127
40
0.281250000000127
40
0.296875000000128
40
0.296875000000128
40
0.31250000000013
40
0.31250000000013
40
0.343750000000146
40
0.343750000000146
40
0.375000000000162
40
0.375000000000162
40
0.406250000000179
40
0.406250000000179
40
0.437500000000195
40
0.437500000000195
40
0.453125000000203
40
0.453125000000203
40
0.468750000000211
40
0.468750000000211
40
0.484375000000219
40
0.484375000000219
40
0.500000000000227
40
0.500000000000227
40
0.515625000000235
40
0.515625000000235
40
0.523437500000239
40
0.523437500000239
40
0.531250000000243
40
0.531250000000243
40
0.546875000000238
40
0.546875000000238
40
0.562500000000234
40
0.562500000000234
40
0.625000000000196
40
0.625000000000196
40
0.750000000000131
40
0.750000000000131
40
0.875000000000065
40
0.875000000000065
40
1
40
1
40
1
40
1
41
1
10
59.390010280199
20
3.12328918953344
30
0
41
1
10
59.3571739533301
20
3.10223271241813
30
0
41
1
10
59.3241641455119
20
3.0799463250458
30
0
41
1
10
59.2581317040842
20
3.03240259441526
30
0
41
1
10
59.2251935441274
20
3.00703991813359
30
0
41
1
10
59.1874159431782
20
2.97766654954299
30
0
41
1
10
59.1832079943404
20
2.97439196121093
30
0
41
1
10
59.1747672060254
20
2.96782588880123
30
0
41
1
10
59.1705551586269
20
2.96450735943009
30
0
41
1
10
59.1619954193266
20
2.95799709273831
30
0
41
1
10
59.1576013251965
20
2.95486577384051
30
0
41
1
10
59.1480603306485
20
2.94952982032635
30
0
41
1
10
59.1429332580705
20
2.94729924113318
30
0
41
1
10
59.1266858037039
20
2.94165370785538
30
0
41
1
10
59.1146207993161
20
2.9392314810076
30
0
41
1
10
59.0893555068441
20
2.93718035496016
30
0
41
1
10
59.076067523044
20
2.93749851370231
30
0
41
1
10
59.0483848279168
20
2.9404626786183
30
0
41
1
10
59.0338546441691
20
2.94315987074515
30
0
41
1
10
59.0045268633237
20
2.95105417802182
30
0
41
1
10
58.9896660774004
20
2.95628405413589
30
0
41
1
10
58.9670838526697
20
2.96638917651069
30
0
41
1
10
58.9595097911844
20
2.97012139102861
30
0
41
1
10
58.9442713972022
20
2.97835802412453
30
0
41
1
10
58.9366201069968
20
2.98285986591694
30
0
41
1
10
58.921575987158
20
2.99249685684907
30
0
41
1
10
58.9141412369523
20
2.99765204286143
30
0
41
1
10
58.8994785384164
20
3.00874178551314
30
0
41
1
10
58.892207530688
20
3.01471101462892
30
0
41
1
10
58.8781371578103
20
3.02750828438155
30
0
41
1
10
58.8714168355378
20
3.03426221127873
30
0
41
1
10
58.8618833925446
20
3.04500986014077
30
0
41
1
10
58.8587969092927
20
3.04869538477703
30
0
41
1
10
58.8528213884839
20
3.05628904199645
30
0
41
1
10
58.8499235777442
20
3.06022009245402
30
0
41
1
10
58.8416405101564
20
3.07215062547766
30
0
41
1
10
58.8366361988747
20
3.08029718745954
30
0
41
1
10
58.8269321546917
20
3.09671148079116
30
0
41
1
10
58.8221704071544
20
3.10495686141084
30
0
41
1
10
58.7981787865183
20
3.1461459952246
30
0
41
1
10
58.7789631056395
20
3.17917948786726
30
0
41
1
10
58.7212894684666
20
3.27853613679181
30
0
41
1
10
58.6828391764885
20
3.34506099268384
30
0
41
1
10
58.6062352248108
20
3.47839814997005
30
0
41
1
10
58.5680562132107
20
3.54525907615582
30
0
41
1
10
58.4919486807549
20
3.67935659071003
30
0
41
1
10
58.4539894873058
20
3.74657869134717
30
0
41
1
10
58.4163916426799
20
3.81409591671914
30
0
0
SPLINE
5
116
100
AcDbEntity
8
1
62
256
6
ByLayer
370
18
48
1
60
0
100
AcDbSpline
70
4
71
3
72
8
73
4
40
0
40
0
40
0
40
0
40
1
40
1
40
1
40
1
41
1
10
58.2924462371922
20
3.85529411661281
30
0
41
1
10
58.2199573176702
20
3.77716826202234
30
0
41
1
10
58.1481535014016
20
3.69167443207871
30
0
41
1
10
58.0753954538159
20
3.60122054847952
30
0
0
SPLINE
5
117
100
AcDbEntity
8
1
62
256
6
ByLayer
370
18
48
1
60
0
100
AcDbSpline
70
4
71
3
72
54
73
50
40
0
40
0
40
0
40
0
40
0.124999999999977
40
0.124999999999977
40
0.249999999999954
40
0.249999999999954
40
0.265624999999952
40
0.265624999999952
40
0.28124999999995
40
0.28124999999995
40
0.296874999999948
40
0.296874999999948
40
0.312499999999946
40
0.312499999999946
40
0.343749999999956
40
0.343749999999956
40
0.359374999999953
40
0.359374999999953
40
0.37499999999995
40
0.37499999999995
40
0.406249999999944
40
0.406249999999944
40
0.421874999999933
40
0.421874999999933
40
0.437499999999921
40
0.437499999999921
40
0.46874999999988
40
0.46874999999988
40
0.484374999999869
40
0.484374999999869
40
0.499999999999857
40
0.499999999999857
40
0.50781249999986
40
0.50781249999986
40
0.515624999999862
40
0.515624999999862
40
0.531249999999867
40
0.531249999999867
40
0.546874999999871
40
0.546874999999871
40
0.562499999999876
40
0.562499999999876
40
0.624999999999894
40
0.624999999999894
40
0.749999999999929
40
0.749999999999929
40
0.874999999999965
40
0.874999999999965
40
1
40
1
40
1
40
1
41
1
10
58.0753954538159
20
3.60122054847949
30
0
41
1
10
58.0423414824879
20
3.56012736120732
30
0
41
1
10
58.0091080595242
20
3.51803049486136
30
0
41
1
10
57.9426253914252
20
3.43134592632146
30
0
41
1
10
57.9094574255584
20
3.38665426697671
30
0
41
1
10
57.8714196354024
20
3.33585352693552
30
0
41
1
10
57.8671824687896
20
3.33020226588783
30
0
41
1
10
57.858682342236
20
3.31889106626292
30
0
41
1
10
57.8544516117224
20
3.31319325583908
30
0
41
1
10
57.8457730477809
20
3.30201349078379
30
0
41
1
10
57.841266133793
20
3.29660099662652
30
0
41
1
10
57.8314296213779
20
3.28670064750932
30
0
41
1
10
57.8261084710362
20
3.28215585910945
30
0
41
1
10
57.8095649616434
20
3.26974906522946
30
0
41
1
10
57.7977041320742
20
3.26298965702975
30
0
41
1
10
57.7787564391347
20
3.25497409698391
30
0
41
1
10
57.7722473925516
20
3.25265716972245
30
0
41
1
10
57.7588741362727
20
3.24867944452123
30
0
41
1
10
57.7519851385515
20
3.24701639232126
30
0
41
1
10
57.7311062558966
20
3.24306964331021
30
0
41
1
10
57.7168389545561
20
3.24177225223647
30
0
41
1
10
57.6949024719543
20
3.24203738535942
30
0
41
1
10
57.6874997785275
20
3.24250005934351
30
0
41
1
10
57.6724918195194
20
3.24430098961832
30
0
41
1
10
57.6648543561281
20
3.24565608804508
30
0
41
1
10
57.6420947664339
20
3.25098349244755
30
0
41
1
10
57.627002105948
20
3.2561806565578
30
0
41
1
10
57.6045440884179
20
3.26670398288084
30
0
41
1
10
57.5970428458583
20
3.2707030011608
30
0
41
1
10
57.5824008551523
20
3.2796551663173
30
0
41
1
10
57.5752576871794
20
3.28459979078298
30
0
41
1
10
57.5648829563041
20
3.29290664967155
30
0
41
1
10
57.5614814919225
20
3.29582420003518
30
0
41
1
10
57.5548058132617
20
3.3019915181475
30
0
41
1
10
57.5515185302074
20
3.30525721809923
30
0
41
1
10
57.5420604988375
20
3.31540179630622
30
0
41
1
10
57.5362639777732
20
3.32269252530119
30
0
41
1
10
57.525573245145
20
3.33820723191036
30
0
41
1
10
57.520646552583
20
3.34640420582113
30
0
41
1
10
57.5110189009652
20
3.36298690582879
30
0
41
1
10
57.506259386677
20
3.37131422605907
30
0
41
1
10
57.4823389364454
20
3.4128327719271
30
0
41
1
10
57.4631813290765
20
3.44595086366061
30
0
41
1
10
57.4056848954543
20
3.54504922524308
30
0
41
1
10
57.3673083342483
20
3.61080211521602
30
0
41
1
10
57.2908739498042
20
3.74131221680517
30
0
41
1
10
57.2527871486198
20
3.80612551722572
30
0
41
1
10
57.176876352384
20
3.93491989167592
30
0
41
1
10
57.139022679879
20
3.99887344310866
30
0
41
1
10
57.1015339003856
20
4.0626510836544
30
0
0
SPLINE
5
118
100
AcDbEntity
8
1
62
256
6
ByLayer
370
18
48
1
60
0
100
AcDbSpline
70
4
71
3
72
10
73
6
40
0
40
0
40
0
40
0
40
0.5
40
0.5
40
1
40
1
40
1
40
1
41
1
10
56.9784105630201
20
4.06419306798884
30
0
41
1
10
56.9420845385512
20
4.00627557522157
30
0
41
1
10
56.9059112327661
20
3.94692535541219
30
0
41
1
10
56.833529758257
20
3.82603460484847
30
0
41
1
10
56.797315721911
20
3.7644874677838
30
0
41
1
10
56.7608393342505
20
3.70207485333035
30
0
0
SPLINE
5
119
100
AcDbEntity
8
1
62
256
6
ByLayer
370
18
48
1
60
0
100
AcDbSpline
70
4
71
3
72
52
73
48
40
0
40
0
40
0
40
0
40
0.124999999999892
40
0.124999999999892
40
0.249999999999785
40
0.249999999999785
40
0.265624999999776
40
0.265624999999776
40
0.281249999999768
40
0.281249999999768
40
0.296874999999759
40
0.296874999999759
40
0.312499999999751
40
0.312499999999751
40
0.343749999999747
40
0.343749999999747
40
0.374999999999743
40
0.374999999999743
40
0.406249999999739
40
0.406249999999739
40
0.437499999999736
40
0.437499999999736
40
0.453124999999734
40
0.453124999999734
40
0.468749999999732
40
0.468749999999732
40
0.48437499999973
40
0.48437499999973
40
0.499999999999728
40
0.499999999999728
40
0.515624999999726
40
0.515624999999726
40
0.523437499999733
40
0.523437499999733
40
0.531249999999739
40
0.531249999999739
40
0.546874999999752
40
0.546874999999752
40
0.562499999999765
40
0.562499999999765
40
0.624999999999793
40
0.624999999999793
40
0.749999999999862
40
0.749999999999862
40
0.874999999999931
40
0.874999999999931
40
1
40
1
40
1
40
1
41
1
10
56.7608393342505
20
3.70207485333037
30
0
41
1
10
56.7279751373329
20
3.64584284728238
30
0
41
1
10
56.6949355434164
20
3.58896946034815
30
0
41
1
10
56.6288475702676
20
3.4735460873477
30
0
41
1
10
56.5958832758952
20
3.41490512257951
30
0
41
1
10
56.5580812415795
20
3.34870822840958
30
0
41
1
10
56.5538706489937
20
3.34135075804397
30
0
41
1
10
56.5454247381943
20
3.32663561980851
30
0
41
1
10
56.5412113275017
20
3.31925332248324
30
0
41
1
10
56.5326419473416
20
3.30462082383764
30
0
41
1
10
56.5282383545071
20
3.29742419882439
30
0
41
1
10
56.5186769801339
20
3.28384921329729
30
0
41
1
10
56.513540696994
20
3.27744660253938
30
0
41
1
10
56.4972721490775
20
3.25915995004306
30
0
41
1
10
56.4852019204787
20
3.24808398295966
30
0
41
1
10
56.4599428373748
20
3.2291407678232
30
0
41
1
10
56.4466639359761
20
3.22113637006825
30
0
41
1
10
56.4190075313857
20
3.20765345922604
30
0
41
1
10
56.4044951830255
20
3.20215992956986
30
0
41
1
10
56.3752061483789
20
3.19438238930974
30
0
41
1
10
56.360366374749
20
3.19210200429327
30
0
41
1
10
56.3378162691876
20
3.19146637687376
30
0
41
1
10
56.3302529492387
20
3.19170271252767
30
0
41
1
10
56.3150359603152
20
3.19311938249638
30
0
41
1
10
56.3073904135376
20
3.19430492277135
30
0
41
1
10
56.2923578587209
20
3.19764141689197
30
0
41
1
10
56.2849285041469
20
3.19979283140484
30
0
41
1
10
56.2702759913821
20
3.20520703000895
30
0
41
1
10
56.2630118305711
20
3.20848705310203
30
0
41
1
10
56.2489430503103
20
3.21641632848434
30
0
41
1
10
56.242223121193
20
3.22101573168501
30
0
41
1
10
56.232689736521
20
3.2290140296908
30
0
41
1
10
56.2296031827631
20
3.23186366689256
30
0
41
1
10
56.2236273316968
20
3.23795954758992
30
0
41
1
10
56.2207290232811
20
3.24122979052541
30
0
41
1
10
56.2124403663717
20
3.2514607609634
30
0
41
1
10
56.2074334946411
20
3.25882818094033
30
0
41
1
10
56.1977279248854
20
3.27386752105042
30
0
41
1
10
56.1929673590358
20
3.28147230614042
30
0
41
1
10
56.168978625581
20
3.31922044964045
30
0
41
1
10
56.1497649063749
20
3.34915691688426
30
0
41
1
10
56.0920965280155
20
3.43823418241183
30
0
41
1
10
56.053648436499
20
3.49659487236252
30
0
41
1
10
55.9770526912061
20
3.61119201764109
30
0
41
1
10
55.9388796821317
20
3.66747428341887
30
0
41
1
10
55.8627887122399
20
3.77809830004949
30
0
41
1
10
55.8248398691186
20
3.83240070259973
30
0
41
1
10
55.7872522513992
20
3.88607763094916
30
0
0
SPLINE
5
11A
100
AcDbEntity
8
1
62
256
6
ByLayer
370
18
48
1
60
0
100
AcDbSpline
70
4
71
3
72
8
73
4
40
0
40
0
40
0
40
0
40
1
40
1
40
1
40
1
41
1
10
55.6640183817077
20
3.84804563874991
30
0
41
1
10
55.7051093327799
20
3.86132330012265
30
0
41
1
10
55.7461843115986
20
3.87400125808748
30
0
41
1
10
55.7872522513993
20
3.88607763094913
30
0
0
SPLINE
5
11B
100
AcDbEntity
8
1
62
256
6
ByLayer
370
18
48
1
60
0
100
AcDbSpline
70
4
71
3
72
10
73
6
40
0
40
0
40
0
40
0
40
0.5
40
0.5
40
1
40
1
40
1
40
1
41
1
10
55.6640183817077
20
3.84804563874988
30
0
41
1
10
55.6276706105379
20
3.77737309360461
30
0
41
1
10
55.5914706979076
20
3.70584361859946
30
0
41
1
10
55.5190268361872
20
3.56167549148117
30
0
41
1
10
55.4827772586318
20
3.48902828354693
30
0
41
1
10
55.4462613513831
20
3.41600216265024
30
0
0
SPLINE
5
11C
100
AcDbEntity
8
1
62
256
6
ByLayer
370
18
48
1
60
0
100
AcDbSpline
70
4
71
3
72
52
73
48
40
0
40
0
40
0
40
0
40
0.124999999999949
40
0.124999999999949
40
0.249999999999897
40
0.249999999999897
40
0.265624999999885
40
0.265624999999885
40
0.281249999999874
40
0.281249999999874
40
0.296874999999862
40
0.296874999999862
40
0.312499999999851
40
0.312499999999851
40
0.34374999999984
40
0.34374999999984
40
0.37499999999983
40
0.37499999999983
40
0.406249999999819
40
0.406249999999819
40
0.437499999999809
40
0.437499999999809
40
0.453124999999813
40
0.453124999999813
40
0.468749999999817
40
0.468749999999817
40
0.484374999999821
40
0.484374999999821
40
0.499999999999825
40
0.499999999999825
40
0.515624999999829
40
0.515624999999829
40
0.52343749999983
40
0.52343749999983
40
0.531249999999832
40
0.531249999999832
40
0.546874999999836
40
0.546874999999836
40
0.562499999999841
40
0.562499999999841
40
0.624999999999868
40
0.624999999999868
40
0.749999999999912
40
0.749999999999912
40
0.874999999999956
40
0.874999999999956
40
1
40
1
40
1
40
1
41
1
10
55.4462613513832
20
3.41600216265059
30
0
41
1
10
55.4133976565007
20
3.3502798970294
30
0
41
1
10
55.3803558454395
20
3.2843236746516
30
0
41
1
10
55.3142617554104
20
3.15166738550343
30
0
41
1
10
55.2812937727007
20
3.08489905263701
30
0
41
1
10
55.2434867821557
20
3.00990025932359
30
0
41
1
10
55.2392756397572
20
3.00156946679476
30
0
41
1
10
55.2308286389177
20
2.98491601411462
30
0
41
1
10
55.2266154045854
20
2.97657409832945
30
0
41
1
10
55.2180417491784
20
2.96000255705974
30
0
41
1
10
55.2136328960896
20
2.9518141670971
30
0
41
1
10
55.2040594750452
20
2.93606695644439
30
0
41
1
10
55.1989174809969
20
2.92848888715784
30
0
41
1
10
55.1826349830173
20
2.90646287559122
30
0
41
1
10
55.1705643179772
20
2.89260440123888
30
0
41
1
10
55.145319256946
20
2.867807267388
30
0
41
1
10
55.132049826873
20
2.85670338502612
30
0
41
1
10
55.1044161850982
20
2.83671889572318
30
0
41
1
10
55.0899184407092
20
2.82779185080199
30
0
41
1
10
55.0606704300812
20
2.81300784448908
30
0
41
1
10
55.045853894467
20
2.80713683166158
30
0
41
1
10
55.023343593447
20
2.80094069201621
30
0
41
1
10
55.0157943409353
20
2.79929538602138
30
0
41
1
10
55.0006071528321
20
2.79688582910779
30
0
41
1
10
54.9929751241908
20
2.79612827626406
30
0
41
1
10
54.977969931676
20
2.79559610858115
30
0
41
1
10
54.970554431337
20
2.79581142309382
30
0
41
1
10
54.9559296533845
20
2.79734569520701
30
0
41
1
10
54.9486822113861
20
2.79866995336431
30
0
41
1
10
54.9346309374288
20
2.80272875121506
30
0
41
1
10
54.9279187458673
20
2.80543578914981
30
0
41
1
10
54.9183947094779
20
2.81066828544687
30
0
41
1
10
54.9153108930388
20
2.81260813701636
30
0
41
1
10
54.9093395985431
20
2.81691050077725
30
0
41
1
10
54.9064429435788
20
2.81929308662069
30
0
41
1
10
54.8981501778436
20
2.82695086983867
30
0
41
1
10
54.8931419776889
20
2.83270491494267
30
0
41
1
10
54.8834424992406
20
2.84457699781612
30
0
41
1
10
54.8786901189104
20
2.850615829763
30
0
41
1
10
54.8547350993435
20
2.88044382096368
30
0
41
1
10
54.8355484518729
20
2.90390549785388
30
0
41
1
10
54.777961105443
20
2.97315767257521
30
0
41
1
10
54.7395532564475
20
3.01779507868938
30
0
41
1
10
54.6629396752656
20
3.10414279467454
30
0
41
1
10
54.6246978971885
20
3.14589980204136
30
0
41
1
10
54.5485121569848
20
3.22651985172766
30
0
41
1
10
54.5105481462068
20
3.26532610867562
30
0
41
1
10
54.4729708746591
20
3.3030858378668
30
0
0
SPLINE
5
11D
100
AcDbEntity
8
1
62
256
6
ByLayer
370
18
48
1
60
0
100
AcDbSpline
70
4
71
3
72
8
73
4
40
0
40
0
40
0
40
0
40
1
40
1
40
1
40
1
41
1
10
54.3488216478896
20
3.22887855386645
30
0
41
1
10
54.3902196611419
20
3.25413098791097
30
0
41
1
10
54.4315991425808
20
3.27886866877421
30
0
41
1
10
54.4729708746591
20
3.30308583786677
30
0
0
SPLINE
5
11E
100
AcDbEntity
8
1
62
256
6
ByLayer
370
18
48
1
60
0
100
AcDbSpline
70
4
71
3
72
10
73
6
40
0
40
0
40
0
40
0
40
0.5
40
0.5
40
1
40
1
40
1
40
1
41
1
10
54.3488216478896
20
3.22887855386645
30
0
41
1
10
54.3125467616678
20
3.1530884486346
30
0
41
1
10
54.2764237677713
20
3.07711026124707
30
0
41
1
10
54.2041531927116
20
2.92525845821891
30
0
41
1
10
54.1679919268359
20
2.84935772354311
30
0
41
1
10
54.1315692929485
20
2.77359275387255
30
0
0
SPLINE
5
11F
100
AcDbEntity
8
1
62
256
6
ByLayer
370
18
48
1
60
0
100
AcDbSpline
70
4
71
3
72
8
73
4
40
0
40
0
40
0
40
0
40
1
40
1
40
1
40
1
41
1
10
54.1315692929486
20
2.77359275387332
30
0
41
1
10
54.1126530997009
20
2.73424401231543
30
0
41
1
10
54.0936783638759
20
2.69495661171476
30
0
41
1
10
54.0746775657369
20
2.65571685883663
30
0
0
SPLINE
5
120
100
AcDbEntity
8
1
62
256
6
ByLayer
370
18
48
1
60
0
100
AcDbSpline
70
4
71
3
72
49
73
45
40
0
40
0
40
0
40
0
40
0.125000000000041
40
0.125000000000041
40
0.250000000000081
40
0.250000000000081
40
0.375000000000122
40
0.375000000000122
40
0.500000000000162
40
0.500000000000162
40
0.515625000000158
40
0.515625000000158
40
0.531250000000155
40
0.531250000000155
40
0.546875000000151
40
0.546875000000151
40
0.562500000000147
40
0.562500000000147
40
0.593750000000153
40
0.593750000000153
40
0.62500000000016
40
0.62500000000016
40
0.656250000000166
40
0.656250000000166
40
0.671875000000161
40
0.671875000000161
40
0.687500000000155
40
0.687500000000155
40
0.718750000000144
40
0.718750000000144
40
0.734375000000139
40
0.734375000000139
40
0.750000000000134
40
0.750000000000134
40
0.757812500000131
40
0.757812500000131
40
0.765625000000128
40
0.765625000000128
40
0.781250000000122
40
0.781250000000122
40
0.8125000000001
40
0.875000000000066
40
0.875000000000066
40
1
40
1
40
1
40
1
41
1
10
56.0613453693705
20
1.91559832142465
30
0
41
1
10
56.0957010934343
20
1.85154569037942
30
0
41
1
10
56.1303781476317
20
1.7881937841436
30
0
41
1
10
56.1999674090595
20
1.66321859387006
30
0
41
1
10
56.234895075083
20
1.60156815103767
30
0
41
1
10
56.3050364720617
20
1.47997664539346
30
0
41
1
10
56.3402725565791
20
1.42000325840911
30
0
41
1
10
56.4108632176774
20
1.30202608326428
30
0
41
1
10
56.446220542029
20
1.24401593459819
30
0
41
1
10
56.4860183205152
20
1.17985759660797
30
0
41
1
10
56.4904077187502
20
1.17274944198391
30
0
41
1
10
56.4994193078004
20
1.15852508399513
30
0
41
1
10
56.5040678215747
20
1.15140454600009
30
0
41
1
10
56.5140381495532
20
1.13708410394474
30
0
41
1
10
56.5193778324037
20
1.12988128988127
30
0
41
1
10
56.5307998123294
20
1.11538609456744
30
0
41
1
10
56.5369116858392
20
1.10805393053141
30
0
41
1
10
56.5557471299273
20
1.08652612573758
30
0
41
1
10
56.5690737773493
20
1.07262344181134
30
0
41
1
10
56.5968450075287
20
1.04546603906198
30
0
41
1
10
56.6113383541652
20
1.03218285640051
30
0
41
1
10
56.6413403428112
20
1.00641488782304
30
0
41
1
10
56.6564947242272
20
0.9942554765735
30
0
41
1
10
56.6794292143925
20
0.977152199357278
30
0
41
1
10
56.6871065330095
20
0.971633152343514
30
0
41
1
10
56.7025189301976
20
0.960952414912384
30
0
41
1
10
56.7102930810914
20
0.955765887697794
30
0
41
1
10
56.7333751228759
20
0.940979209777481
30
0
41
1
10
56.7484103880866
20
0.932130619768344
30
0
41
1
10
56.7702188320898
20
0.920837908458765
30
0
41
1
10
56.7774062090389
20
0.917404519437667
30
0
41
1
10
56.7911092674843
20
0.911468693049756
30
0
41
1
10
56.7976594012133
20
0.908939132752579
30
0
41
1
10
56.8069438521424
20
0.905930721500937
30
0
41
1
10
56.8099452070385
20
0.90506410183491
30
0
41
1
10
56.8157220076753
20
0.903662194641697
30
0
41
1
10
56.8185034641178
20
0.903130811474085
30
0
41
1
10
56.8264800845621
20
0.901949466115042
30
0
41
1
10
56.8314184414095
20
0.901585498974498
30
0
41
1
10
56.8464333067232
20
0.900151239649006
30
0
41
1
10
56.8762083633422
20
0.897184000939518
30
0
41
1
10
56.9055149382052
20
0.893586276610364
30
0
41
1
10
56.9640702864887
20
0.884902187465912
30
0
41
1
10
57.0031448662729
20
0.876970128129813
30
0
41
1
10
57.0419253067964
20
0.867350318868148
30
0
0
SPLINE
5
121
100
AcDbEntity
8
1
62
256
6
ByLayer
370
18
48
1
60
0
100
AcDbSpline
70
4
71
3
72
8
73
4
40
0
40
0
40
0
40
0
40
1
40
1
40
1
40
1
41
1
10
58.3564944735788
20
-0.330024574186723
30
0
41
1
10
58.4271080460831
20
-0.386958622043352
30
0
41
1
10
58.496575752243
20
-0.448893563382967
30
0
41
1
10
58.5668233929794
20
-0.517412233574163
30
0
0
SPLINE
5
122
100
AcDbEntity
8
1
62
256
6
ByLayer
370
18
48
1
60
0
100
AcDbSpline
70
4
71
3
72
54
73
50
40
0
40
0
40
0
40
0
40
0.125000000000034
40
0.125000000000034
40
0.250000000000069
40
0.250000000000069
40
0.375000000000103
40
0.375000000000103
40
0.500000000000137
40
0.500000000000137
40
0.531250000000148
40
0.531250000000148
40
0.546875000000154
40
0.546875000000154
40
0.562500000000159
40
0.562500000000159
40
0.593750000000156
40
0.593750000000156
40
0.609375000000155
40
0.609375000000155
40
0.625000000000153
40
0.625000000000153
40
0.656250000000149
40
0.656250000000149
40
0.671875000000147
40
0.671875000000147
40
0.687500000000145
40
0.687500000000145
40
0.703125000000144
40
0.703125000000144
40
0.718750000000142
40
0.718750000000142
40
0.73437500000014
40
0.73437500000014
40
0.742187500000139
40
0.742187500000139
40
0.750000000000138
40
0.750000000000138
40
0.757812500000137
40
0.757812500000137
40
0.765625000000136
40
0.765625000000136
40
0.773437500000135
40
0.773437500000135
40
0.781250000000134
40
0.81250000000012
40
0.87500000000008
40
0.87500000000008
40
1
40
1
40
1
40
1
41
1
10
58.6900136323487
20
-0.639478548802941
30
0
41
1
10
58.724613326688
20
-0.672560451809858
30
0
41
1
10
58.7595233397898
20
-0.704428343169042
30
0
41
1
10
58.8296176881514
20
-0.765293616665815
30
0
41
1
10
58.8648146635453
20
-0.794301076562334
30
0
41
1
10
58.9353627123748
20
-0.849263632503295
30
0
41
1
10
58.9707323225395
20
-0.875235005457171
30
0
41
1
10
59.0416208745189
20
-0.924035572608688
30
0
41
1
10
59.0771523707787
20
-0.946867977853231
30
0
41
1
10
59.1215834758096
20
-0.973265127889022
30
0
41
1
10
59.1303401689678
20
-0.97831563911339
30
0
41
1
10
59.1457824934308
20
-0.987905559857381
30
0
41
1
10
59.1513191968183
20
-0.991441108834209
30
0
41
1
10
59.1631413725181
20
-0.999163125380989
30
0
41
1
10
59.1692967683209
20
-1.00326366907081
30
0
41
1
10
59.188387469761
20
-1.01617491317506
30
0
41
1
10
59.2019273518659
20
-1.02557232414946
30
0
41
1
10
59.2231789046118
20
-1.04059914521454
30
0
41
1
10
59.230456285355
20
-1.04579197640658
30
0
41
1
10
59.2451734678174
20
-1.05639654380843
30
0
41
1
10
59.2525989593713
20
-1.06179753514823
30
0
41
1
10
59.2750714676459
20
-1.07831934401023
30
0
41
1
10
59.2903206517692
20
-1.08976962803661
30
0
41
1
10
59.3135919259731
20
-1.10773746418013
30
0
41
1
10
59.3214359130132
20
-1.11387332885701
30
0
41
1
10
59.336948001427
20
-1.12617993160859
30
0
41
1
10
59.3446501258986
20
-1.13237632355589
30
0
41
1
10
59.3599349497804
20
-1.14486773506903
30
0
41
1
10
59.3675178865171
20
-1.15116254740005
30
0
41
1
10
59.3825406061952
20
-1.1638730643719
30
0
41
1
10
59.3900312219773
20
-1.17033380582629
30
0
41
1
10
59.4045010373084
20
-1.18313113216658
30
0
41
1
10
59.4114923899337
20
-1.1894731289085
30
0
41
1
10
59.4215887327133
20
-1.19890131750972
30
0
41
1
10
59.4248885842632
20
-1.20202976368191
30
0
41
1
10
59.4313415779175
20
-1.20825488813281
30
0
41
1
10
59.4345127297782
20
-1.21136919460687
30
0
41
1
10
59.4405692210786
20
-1.2174520997068
30
0
41
1
10
59.4434501147673
20
-1.22041794737368
30
0
41
1
10
59.4489297442547
20
-1.22620537223267
30
0
41
1
10
59.4515265135271
20
-1.22902582633867
30
0
41
1
10
59.4565904864977
20
-1.23460695923507
30
0
41
1
10
59.4590591959164
20
-1.23736846965343
30
0
41
1
10
59.463997544142
20
-1.24290420912638
30
0
41
1
10
59.4763160900498
20
-1.25675890986417
30
0
41
1
10
59.508028927942
20
-1.29300060305425
30
0
41
1
10
59.5368757593021
20
-1.32707996561893
30
0
41
1
10
59.5945159625272
20
-1.39632499483784
30
0
41
1
10
59.6329615351335
20
-1.44397841597532
30
0
41
1
10
59.6711360369191
20
-1.49289330972923
30
0
0
SPLINE
5
123
100
AcDbEntity
8
1
62
256
6
ByLayer
370
18
48
1
60
0
100
AcDbSpline
70
4
71
3
72
8
73
4
40
0
40
0
40
0
40
0
40
1
40
1
40
1
40
1
41
1
10
59.6711360369191
20
-1.49289330972925
30
0
41
1
10
59.7416301105243
20
-1.58322088335558
30
0
41
1
10
59.8109950585833
20
-1.67758706971651
30
0
41
1
10
59.8811511208685
20
-1.77678151561247
30
0
0
SPLINE
5
124
100
AcDbEntity
8
1
62
256
6
ByLayer
370
18
48
1
60
0
100
AcDbSpline
70
4
71
3
72
51
73
47
40
0
40
0
40
0
40
0
40
0.125000000000083
40
0.125000000000083
40
0.250000000000166
40
0.250000000000166
40
0.375000000000249
40
0.375000000000249
40
0.500000000000332
40
0.500000000000332
40
0.515625000000344
40
0.515625000000344
40
0.531250000000356
40
0.531250000000356
40
0.562500000000378
40
0.562500000000378
40
0.578125000000383
40
0.578125000000383
40
0.593750000000387
40
0.593750000000387
40
0.625000000000379
40
0.625000000000379
40
0.640625000000367
40
0.640625000000367
40
0.656250000000355
40
0.656250000000355
40
0.687500000000312
40
0.687500000000312
40
0.703125000000291
40
0.703125000000291
40
0.71875000000027
40
0.71875000000027
40
0.734375000000249
40
0.734375000000249
40
0.750000000000228
40
0.750000000000228
40
0.757812500000224
40
0.757812500000224
40
0.76562500000022
40
0.76562500000022
40
0.781250000000213
40
0.781250000000213
40
0.812500000000187
40
0.875000000000125
40
0.875000000000125
40
1
40
1
40
1
40
1
41
1
10
60.0043503360459
20
-1.88668825132117
30
0
41
1
10
60.0391777932446
20
-1.89800190212
30
0
41
1
10
60.0743420960242
20
-1.90800348262954
30
0
41
1
10
60.1449259275122
20
-1.92480720106516
30
0
41
1
10
60.180336574277
20
-1.93161579595315
30
0
41
1
10
60.2514139145204
20
-1.94197929030324
30
0
41
1
10
60.2870964867929
20
-1.94553286904235
30
0
41
1
10
60.3585479132551
20
-1.94924522055118
30
0
41
1
10
60.3943291114939
20
-1.94941303802656
30
0
41
1
10
60.4345877429201
20
-1.94760180876392
30
0
41
1
10
60.4390602647088
20
-1.94737204481044
30
0
41
1
10
60.4484857684343
20
-1.94741793203178
30
0
41
1
10
60.4534760671035
20
-1.94770561106287
30
0
41
1
10
60.4694710880277
20
-1.9499238164322
30
0
41
1
10
60.4813191753584
20
-1.95306175905515
30
0
41
1
10
60.5004686851132
20
-1.95969224042744
30
0
41
1
10
60.507080818838
20
-1.96222245762854
30
0
41
1
10
60.5207055796342
20
-1.96784530526966
30
0
41
1
10
60.527721747179
20
-1.97094238598325
30
0
41
1
10
60.5489716115538
20
-1.98087779713669
30
0
41
1
10
60.56352338149
20
-1.98839179288873
30
0
41
1
10
60.5859260967389
20
-2.00112845282271
30
0
41
1
10
60.5935142330279
20
-2.00563718982696
30
0
41
1
10
60.6088034553544
20
-2.0151705910319
30
0
41
1
10
60.6164314435484
20
-2.02014694110682
30
0
41
1
10
60.6392583783573
20
-2.03567026031206
30
0
41
1
10
60.6544019569317
20
-2.0467954324657
30
0
41
1
10
60.6769562741164
20
-2.06477146976883
30
0
41
1
10
60.684449110139
20
-2.07098283031775
30
0
41
1
10
60.6993573458854
20
-2.08392544584677
30
0
41
1
10
60.7066350237115
20
-2.09053927293937
30
0
41
1
10
60.7207706135004
20
-2.10410699431679
30
0
41
1
10
60.7276349513022
20
-2.11105577251325
30
0
41
1
10
60.7409097603032
20
-2.12532238586351
30
0
41
1
10
60.7473130015383
20
-2.13263186822275
30
0
41
1
10
60.756100618948
20
-2.14353127924966
30
0
41
1
10
60.7589004318438
20
-2.14716823703895
30
0
41
1
10
60.7642558606634
20
-2.15444991518734
30
0
41
1
10
60.7668124967115
20
-2.15809462175434
30
0
41
1
10
60.7743301567293
20
-2.16903989601363
30
0
41
1
10
60.7792044203439
20
-2.17635188538574
30
0
41
1
10
60.793899803987
20
-2.19832683344188
30
0
41
1
10
60.8230607641841
20
-2.24243636233175
30
0
41
1
10
60.851797377468
20
-2.28704869934333
30
0
41
1
10
60.9092290132427
20
-2.37699298152285
30
0
41
1
10
60.9475723736307
20
-2.43794237162607
30
0
41
1
10
60.9856286673161
20
-2.49972023344614
30
0
0
SPLINE
5
125
100
AcDbEntity
8
1
62
256
6
ByLayer
370
18
48
1
60
0
100
AcDbSpline
70
4
71
3
72
8
73
4
40
0
40
0
40
0
40
0
40
1
40
1
40
1
40
1
41
1
10
60.9856286673161
20
-2.49972023344614
30
0
41
1
10
61.0559836655897
20
-2.61392949926787
30
0
41
1
10
61.1252243994621
20
-2.73078321247937
30
0
41
1
10
61.1952580473384
20
-2.85024774850874
30
0
0
SPLINE
5
126
100
AcDbEntity
8
1
62
256
6
ByLayer
370
18
48
1
60
0
100
AcDbSpline
70
4
71
3
72
51
73
47
40
0
40
0
40
0
40
0
40
0.124999999999983
40
0.124999999999983
40
0.249999999999965
40
0.249999999999965
40
0.374999999999948
40
0.374999999999948
40
0.49999999999993
40
0.49999999999993
40
0.531249999999929
40
0.531249999999929
40
0.546874999999928
40
0.546874999999928
40
0.562499999999927
40
0.562499999999927
40
0.593749999999912
40
0.593749999999912
40
0.609374999999912
40
0.609374999999912
40
0.624999999999912
40
0.624999999999912
40
0.656249999999912
40
0.656249999999912
40
0.671874999999903
40
0.671874999999903
40
0.687499999999895
40
0.687499999999895
40
0.718749999999878
40
0.718749999999878
40
0.734374999999878
40
0.734374999999878
40
0.749999999999879
40
0.749999999999879
40
0.757812499999885
40
0.757812499999885
40
0.765624999999892
40
0.765624999999892
40
0.773437499999899
40
0.773437499999899
40
0.781249999999906
40
0.781249999999906
40
0.812499999999923
40
0.874999999999945
40
0.874999999999945
40
1
40
1
40
1
40
1
41
1
10
61.3194036828772
20
-2.93746448138239
30
0
41
1
10
61.3538674142169
20
-2.92583076028822
30
0
41
1
10
61.3886547525638
20
-2.91294555794698
30
0
41
1
10
61.4584455441396
20
-2.88412216620094
30
0
41
1
10
61.4934653514653
20
-2.86818886591041
30
0
41
1
10
61.563775092711
20
-2.83321453879128
30
0
41
1
10
61.5990859347484
20
-2.81416180956134
30
0
41
1
10
61.6698205073463
20
-2.77288149085186
30
0
41
1
10
61.7052468010195
20
-2.75065937008713
30
0
41
1
10
61.7495518724573
20
-2.72079552092143
30
0
41
1
10
61.758246378521
20
-2.71449378381516
30
0
41
1
10
61.7734219002363
20
-2.70773935064381
30
0
41
1
10
61.7788483404952
20
-2.70595357331959
30
0
41
1
10
61.790438155809
20
-2.70331297998936
30
0
41
1
10
61.7966112722158
20
-2.70245791224363
30
0
41
1
10
61.8155730138998
20
-2.70119860728514
30
0
41
1
10
61.8289647708356
20
-2.70200738165599
30
0
41
1
10
61.8498776139319
20
-2.70506283534255
30
0
41
1
10
61.856991271818
20
-2.7064007731521
30
0
41
1
10
61.8714997550761
20
-2.7097228371255
30
0
41
1
10
61.8789252938355
20
-2.71171672572549
30
0
41
1
10
61.9014296879637
20
-2.71869329632867
30
0
41
1
10
61.9165769920508
20
-2.72463384377036
30
0
41
1
10
61.9394825196388
20
-2.73567004578695
30
0
41
1
10
61.9471472296867
20
-2.73968969189207
30
0
41
1
10
61.9625286791539
20
-2.74842329662184
30
0
41
1
10
61.9702824439632
20
-2.7531627337126
30
0
41
1
10
61.9932181797627
20
-2.76825230669064
30
0
41
1
10
62.0081529232482
20
-2.77944767857633
30
0
41
1
10
62.0297955509726
20
-2.79858415047261
30
0
41
1
10
62.0369164319953
20
-2.80541778899871
30
0
41
1
10
62.0504624003023
20
-2.81957392577891
30
0
41
1
10
62.0569356508591
20
-2.82692483478777
30
0
41
1
10
62.066098009952
20
-2.83844969457718
30
0
41
1
10
62.0690556887611
20
-2.84237914343612
30
0
41
1
10
62.0747464649474
20
-2.8504426406752
30
0
41
1
10
62.0774831390532
20
-2.85459315714854
30
0
41
1
10
62.0827349715906
20
-2.86295346294037
30
0
41
1
10
62.0852658904803
20
-2.86716551058083
30
0
41
1
10
62.0902857991771
20
-2.87560632002695
30
0
41
1
10
62.0927826764419
20
-2.8798325839368
30
0
41
1
10
62.1052561039932
20
-2.90097586470228
30
0
41
1
10
62.1349407727366
20
-2.95188099657918
30
0
41
1
10
62.164160982162
20
-3.00317030228877
30
0
41
1
10
62.2225429857126
20
-3.10606696722181
30
0
41
1
10
62.2614991790818
20
-3.17502468461157
30
0
41
1
10
62.3001667910844
20
-3.24434409133323
30
0
0
SPLINE
5
127
100
AcDbEntity
8
1
62
256
6
ByLayer
370
18
48
1
60
0
100
AcDbSpline
70
4
71
3
72
8
73
4
40
0
40
0
40
0
40
0
40
1
40
1
40
1
40
1
41
1
10
62.3001667910844
20
-3.24434409133323
30
0
41
1
10
62.3706856561731
20
-3.37076322190424
30
0
41
1
10
62.4400806815316
20
-3.49819248511531
30
0
41
1
10
62.5102648243429
20
-3.62575970603265
30
0
0
SPLINE
5
128
100
AcDbEntity
8
1
62
256
6
ByLayer
370
18
48
1
60
0
100
AcDbSpline
70
4
71
3
72
51
73
47
40
0
40
0
40
0
40
0
40
0.125000000000074
40
0.125000000000074
40
0.250000000000148
40
0.250000000000148
40
0.375000000000222
40
0.375000000000222
40
0.500000000000295
40
0.500000000000295
40
0.515625000000305
40
0.515625000000305
40
0.531250000000315
40
0.531250000000315
40
0.562500000000346
40
0.562500000000346
40
0.578125000000354
40
0.578125000000354
40
0.593750000000362
40
0.593750000000362
40
0.625000000000363
40
0.625000000000363
40
0.640625000000355
40
0.640625000000355
40
0.656250000000347
40
0.656250000000347
40
0.68750000000033
40
0.68750000000033
40
0.703125000000313
40
0.703125000000313
40
0.718750000000296
40
0.718750000000296
40
0.73437500000028
40
0.73437500000028
40
0.750000000000263
40
0.750000000000263
40
0.757812500000254
40
0.757812500000254
40
0.765625000000246
40
0.765625000000246
40
0.781250000000228
40
0.781250000000228
40
0.812500000000192
40
0.875000000000132
40
0.875000000000132
40
1
40
1
40
1
40
1
41
1
10
62.6336534767273
20
-3.68000931492801
30
0
41
1
10
62.6684622994894
20
-3.64659173697177
30
0
41
1
10
62.7036162584195
20
-3.61207020000538
30
0
41
1
10
62.7741950371557
20
-3.54029017825729
30
0
41
1
10
62.8096099579593
20
-3.50305909266263
30
0
41
1
10
62.8807091089861
20
-3.42586553142735
30
0
41
1
10
62.9164096303706
20
-3.38588515159182
30
0
41
1
10
62.987903477871
20
-3.30322375293363
30
0
41
1
10
63.0237097841517
20
-3.26053344648236
30
0
41
1
10
63.0639993702644
20
-3.21089139227959
30
0
41
1
10
63.0684816681636
20
-3.20536026338502
30
0
41
1
10
63.0779412827904
20
-3.1948679890736
30
0
41
1
10
63.082958651428
20
-3.1898907801199
30
0
41
1
10
63.0989991027413
20
-3.17670510497837
30
0
41
1
10
63.1108843439222
20
-3.17007645407432
30
0
41
1
10
63.1301054825781
20
-3.16265513990939
30
0
41
1
10
63.1367435820283
20
-3.16059977294083
30
0
41
1
10
63.1504262274777
20
-3.15722759915064
30
0
41
1
10
63.1574523021019
20
-3.15592051361716
30
0
41
1
10
63.1787429292697
20
-3.15311214766558
30
0
41
1
10
63.1933285814178
20
-3.15266739161808
30
0
41
1
10
63.2157969877927
20
-3.15432003413898
30
0
41
1
10
63.22342477649
20
-3.15527250264259
30
0
41
1
10
63.2387045150757
20
-3.1580477995862
30
0
41
1
10
63.2463298278942
20
-3.15985562216275
30
0
41
1
10
63.2691542127313
20
-3.16645671104362
30
0
41
1
10
63.284303283085
20
-3.17239526159469
30
0
41
1
10
63.3068759801908
20
-3.18380924496574
30
0
41
1
10
63.3144068234775
20
-3.18805854122596
30
0
41
1
10
63.3292557873044
20
-3.19748534547472
30
0
41
1
10
63.3365057860211
20
-3.20262058885731
30
0
41
1
10
63.350591873085
20
-3.213884299829
30
0
41
1
10
63.3574348152347
20
-3.21999557877973
30
0
41
1
10
63.3706700680515
20
-3.23328989149559
30
0
41
1
10
63.3770080311442
20
-3.24041216469013
30
0
41
1
10
63.3857138470034
20
-3.25174609052974
30
0
41
1
10
63.3884870431713
20
-3.2556494470889
30
0
41
1
10
63.3937961458113
20
-3.2636868785022
30
0
41
1
10
63.3963359010292
20
-3.26781715778748
30
0
41
1
10
63.4038185611967
20
-3.28033736582702
30
0
41
1
10
63.4086887077703
20
-3.28879414373077
30
0
41
1
10
63.4233538431389
20
-3.31407971555942
30
0
41
1
10
63.4524556151686
20
-3.36476261316585
30
0
41
1
10
63.4811344237443
20
-3.41559075435447
30
0
41
1
10
63.5384484544587
20
-3.51706313571572
30
0
41
1
10
63.5767067148997
20
-3.5844054655881
30
0
41
1
10
63.6146678830892
20
-3.65157453021124
30
0
0
SPLINE
5
129
100
AcDbEntity
8
1
62
256
6
ByLayer
370
18
48
1
60
0
100
AcDbSpline
70
4
71
3
72
8
73
4
40
0
40
0
40
0
40
0
40
1
40
1
40
1
40
1
41
1
10
63.6146678830892
20
-3.65157453021124
30
0
41
1
10
63.6745197480032
20
-3.75747732440786
30
0
41
1
10
63.7335285497317
20
-3.86281020414606
30
0
41
1
10
63.7928746618522
20
-3.96658518871348
30
0
0
SPLINE
5
12A
100
AcDbEntity
8
1
62
256
6
ByLayer
370
18
48
1
60
0
100
AcDbSpline
70
4
71
3
72
10
73
6
40
0
40
0
40
0
40
0
40
0.5
40
0.5
40
1
40
1
40
1
40
1
41
1
10
63.7928746618522
20
-3.96658518871339
30
0
41
1
10
63.8348825045503
20
-3.95572619321933
30
0
41
1
10
63.8770095935492
20
-3.94402023665117
30
0
41
1
10
63.9616632299045
20
-3.91884959272471
30
0
41
1
10
64.004170051043
20
-3.90539760767189
30
0
41
1
10
64.0468440729167
20
-3.89110103998215
30
0
0
SPLINE
5
12B
100
AcDbEntity
8
1
62
256
6
ByLayer
370
18
48
1
60
0
100
AcDbSpline
70
4
71
3
72
50
73
46
40
0
40
0
40
0
40
0
40
0.250000000000061
40
0.250000000000061
40
0.375000000000085
40
0.437500000000103
40
0.468750000000112
40
0.484375000000116
40
0.484375000000116
40
0.50000000000012
40
0.50000000000012
40
0.515625000000125
40
0.515625000000125
40
0.531250000000129
40
0.531250000000129
40
0.562500000000138
40
0.562500000000138
40
0.593750000000147
40
0.593750000000147
40
0.625000000000155
40
0.656250000000164
40
0.656250000000164
40
0.671875000000158
40
0.671875000000158
40
0.687500000000151
40
0.687500000000151
40
0.718750000000138
40
0.718750000000138
40
0.734375000000143
40
0.734375000000143
40
0.750000000000147
40
0.750000000000147
40
0.781250000000136
40
0.781250000000136
40
0.79687500000012
40
0.79687500000012
40
0.812500000000104
40
0.812500000000104
40
0.828125000000089
40
0.828125000000089
40
0.843750000000073
40
0.843750000000073
40
0.875000000000056
40
0.875000000000056
40
1
40
1
40
1
40
1
41
1
10
64.0468440729164
20
-3.89110103998217
30
0
41
1
10
64.1023507450818
20
-3.80714277765088
30
0
41
1
10
64.1581775722997
20
-3.72075744683153
30
0
41
1
10
64.2424275232443
20
-3.58738031311839
30
0
41
1
10
64.2846239858463
20
-3.51981645423993
30
0
41
1
10
64.3339348781647
20
-3.43940369342181
30
0
41
1
10
64.3586020562462
20
-3.39878933251725
30
0
41
1
10
64.3691750632915
20
-3.38129435964189
30
0
41
1
10
64.3762238920098
20
-3.36961113371356
30
0
41
1
10
64.3797381863361
20
-3.36374851723735
30
0
41
1
10
64.3869794914633
20
-3.35223417642922
30
0
41
1
10
64.3907092467152
20
-3.34658541442582
30
0
41
1
10
64.398597041445
20
-3.33573191293442
30
0
41
1
10
64.4027534519179
20
-3.33055899944324
30
0
41
1
10
64.415744141044
20
-3.3160880443979
30
0
41
1
10
64.4251224500957
20
-3.30769017579243
30
0
41
1
10
64.4450627337349
20
-3.29295102282796
30
0
41
1
10
64.4556654640581
20
-3.28657461572908
30
0
41
1
10
64.477638002108
20
-3.27563450414661
30
0
41
1
10
64.5001313088156
20
-3.26662578597677
30
0
41
1
10
64.5235808471134
20
-3.26131725461102
30
0
41
1
10
64.5415593395479
20
-3.25894548580328
30
0
41
1
10
64.5475970600393
20
-3.25843734701473
30
0
41
1
10
64.5596113302244
20
-3.25799422841851
30
0
41
1
10
64.5656093474151
20
-3.25805151815951
30
0
41
1
10
64.5835718555859
20
-3.25902458023481
30
0
41
1
10
64.5955053535144
20
-3.26072813908499
30
0
41
1
10
64.6133195627939
20
-3.26494660297084
30
0
41
1
10
64.6192431902745
20
-3.26663284940807
30
0
41
1
10
64.6310552381095
20
-3.27063044149654
30
0
41
1
10
64.6369558729752
20
-3.27295009452487
30
0
41
1
10
64.6542407820554
20
-3.28085119443418
30
0
41
1
10
64.6653015905648
20
-3.28744513739511
30
0
41
1
10
64.6810772888905
20
-3.29963495716243
30
0
41
1
10
64.6862085140372
20
-3.30409500443105
30
0
41
1
10
64.6958623517916
20
-3.31367088542811
30
0
41
1
10
64.7003996881692
20
-3.31883783883825
30
0
41
1
10
64.7088468903186
20
-3.32999367704363
30
0
41
1
10
64.7127699177252
20
-3.33596487864065
30
0
41
1
10
64.7205256386631
20
-3.34800659405025
30
0
41
1
10
64.7243784398101
20
-3.3540500925113
30
0
41
1
10
64.7359167818488
20
-3.37216832977455
30
0
41
1
10
64.7435619742549
20
-3.38426068495227
30
0
41
1
10
64.7816245873677
20
-3.44471591954365
30
0
41
1
10
64.8115917634578
20
-3.4930180656776
30
0
41
1
10
64.8416595981669
20
-3.54065418874748
30
0
0
SPLINE
5
12C
100
AcDbEntity
8
1
62
256
6
ByLayer
370
18
48
1
60
0
100
AcDbSpline
70
4
71
3
72
14
73
10
40
0
40
0
40
0
40
0
40
0.5
40
0.5
40
0.75
40
0.75
40
0.875
40
0.875
40
1
40
1
40
1
40
1
41
1
10
64.8416595981668
20
-3.54065418874759
30
0
41
1
10
64.9822623755612
20
-3.46504479254156
30
0
41
1
10
65.1236239443386
20
-3.38250452299877
30
0
41
1
10
65.3374043925627
20
-3.2489906029177
30
0
41
1
10
65.4089585540589
20
-3.20285694570563
30
0
41
1
10
65.5172983227705
20
-3.13125257085733
30
0
41
1
10
65.5535602663492
20
-3.10698654678009
30
0
41
1
10
65.6264264690546
20
-3.05767388901759
30
0
41
1
10
65.6630629839769
20
-3.03262495319902
30
0
41
1
10
65.7000000195723
20
-3.00719498169701
30
0
0
SPLINE
5
12D
100
AcDbEntity
8
1
62
256
6
ByLayer
370
18
48
1
60
0
100
AcDbSpline
70
4
71
3
72
10
73
6
40
0
40
0
40
0
40
0
40
0.5
40
0.5
40
1
40
1
40
1
40
1
41
1
10
65.7000000195723
20
-3.00719498169698
30
0
41
1
10
65.7481505531655
20
-2.94738081642271
30
0
41
1
10
65.7971597929653
20
-2.88693497204767
30
0
41
1
10
65.8971635662448
20
-2.76522588544537
30
0
41
1
10
65.9480967380381
20
-2.70404959442419
30
0
41
1
10
66.0000000000003
20
-2.64294700726771
30
0
0
SPLINE
5
12E
100
AcDbEntity
8
1
62
256
6
ByLayer
370
18
48
1
60
0
100
AcDbSpline
70
4
71
3
72
28
73
24
40
0
40
0
40
0
40
0
40
0.125
40
0.125
40
0.250000000000001
40
0.250000000000001
40
0.281250000000001
40
0.281250000000001
40
0.312500000000001
40
0.312500000000001
40
0.375000000000001
40
0.375000000000001
40
0.406250000000001
40
0.406250000000001
40
0.437500000000001
40
0.437500000000001
40
0.500000000000001
40
0.500000000000001
40
0.625
40
0.625
40
0.75
40
0.75
40
1
40
1
40
1
40
1
41
1
10
66
20
-2.64294700726725
30
0
41
1
10
66
20
-2.56803752291759
30
0
41
1
10
65.9999999999999
20
-2.49699998651832
30
0
41
1
10
65.9999999999999
20
-2.36241674997126
30
0
41
1
10
65.9999999999999
20
-2.29882004505637
30
0
41
1
10
66
20
-2.22411053789796
30
0
41
1
10
66
20
-2.20941030113309
30
0
41
1
10
66
20
-2.18049902684143
30
0
41
1
10
65.9999999999999
20
-2.16627408914312
30
0
41
1
10
66
20
-2.12471669535125
30
0
41
1
10
66
20
-2.09837235644011
30
0
41
1
10
66
20
-2.06083423174911
30
0
41
1
10
65.9999999999999
20
-2.04867123588574
30
0
41
1
10
65.9999999999999
20
-2.02490926277682
30
0
41
1
10
65.9999999999999
20
-2.01318997151489
30
0
41
1
10
66
20
-1.97834410966249
30
0
41
1
10
66.0000000000001
20
-1.95565152718385
30
0
41
1
10
66.0000000000001
20
-1.88911307776189
30
0
41
1
10
66
20
-1.8468400500096
30
0
41
1
10
66
20
-1.76649262431499
30
0
41
1
10
66
20
-1.72839561322274
30
0
41
1
10
66
20
-1.6205673992819
30
0
41
1
10
66.0000000000001
20
-1.55841599422362
30
0
41
1
10
66.0000000000001
20
-1.50560807042731
30
0
0
SPLINE
5
12F
100
AcDbEntity
8
1
62
256
6
ByLayer
370
18
48
1
60
0
100
AcDbSpline
70
4
71
3
72
10
73
6
40
0
40
0
40
0
40
0
40
0.5
40
0.5
40
1
40
1
40
1
40
1
41
1
10
66.0000000000001
20
-1.61294685155161
30
0
41
1
10
65.9507255629513
20
-1.61310366627652
30
0
41
1
10
65.9010773054197
20
-1.61354766484163
30
0
41
1
10
65.801069101608
20
-1.61531545725296
30
0
41
1
10
65.7507251974205
20
-1.61659157157598
30
0
41
1
10
65.6999999964928
20
-1.61866457995725
30
0
0
SPLINE
5
130
100
AcDbEntity
8
1
62
256
6
ByLayer
370
18
48
1
60
0
100
AcDbSpline
70
4
71
3
72
8
73
4
40
0
40
0
40
0
40
0
40
1
40
1
40
1
40
1
41
1
10
65.6999999964929
20
-1.61866457995725
30
0
41
1
10
65.6747197387581
20
-1.60908095098327
30
0
41
1
10
65.6494329301479
20
-1.59938449159878
30
0
41
1
10
65.624205001383
20
-1.5894726125247
30
0
0
SPLINE
5
131
100
AcDbEntity
8
1
62
256
6
ByLayer
370
18
48
1
60
0
100
AcDbSpline
70
4
71
3
72
24
73
20
40
0
40
0
40
0
40
0
40
0.125000000000001
40
0.125000000000001
40
0.250000000000001
40
0.250000000000001
40
0.375000000000002
40
0.375000000000002
40
0.500000000000003
40
0.500000000000003
40
0.562500000000003
40
0.562500000000003
40
0.625000000000003
40
0.625000000000003
40
0.750000000000002
40
0.750000000000002
40
0.875000000000001
40
0.875000000000001
40
1
40
1
40
1
40
1
41
1
10
64.5032821849767
20
1.54797060717487
30
0
41
1
10
64.5087086107243
20
1.44487401976718
30
0
41
1
10
64.5141089526413
20
1.33988539093915
30
0
41
1
10
64.5249790354976
20
1.12616563360228
30
0
41
1
10
64.5303978286489
20
1.0184496244419
30
0
41
1
10
64.5413424410082
20
0.801448543501522
30
0
41
1
10
64.5468854814455
20
0.692149228068189
30
0
41
1
10
64.5581413292522
20
0.47196181518899
30
0
41
1
10
64.5638296178477
20
0.361074265280621
30
0
41
1
10
64.5723421920378
20
0.193521897491593
30
0
41
1
10
64.5751767167189
20
0.137467182704654
30
0
41
1
10
64.5808249625384
20
0.0249395428205617
30
0
41
1
10
64.5836428344849
20
-0.0316537667893897
30
0
41
1
10
64.5919815245471
20
-0.200433956638875
30
0
41
1
10
64.5974147297413
20
-0.312032418087369
30
0
41
1
10
64.6081637759062
20
-0.533447449557656
30
0
41
1
10
64.6134795021478
20
-0.643263832585944
30
0
41
1
10
64.6241333580049
20
-0.861108891032472
30
0
41
1
10
64.6294663826664
20
-0.96913639906893
30
0
41
1
10
64.6348981008788
20
-1.07623765564006
30
0
0
SPLINE
5
132
100
AcDbEntity
8
1
62
256
6
ByLayer
370
13
48
1
60
0
100
AcDbSpline
70
4
71
3
72
8
73
4
40
0
40
0
40
0
40
0
40
1
40
1
40
1
40
1
41
1
10
64.5032821849747
20
1.54797060721012
30
0
41
1
10
64.4991937182501
20
1.61730213714088
30
0
41
1
10
64.4951225343069
20
1.68535023149948
30
0
41
1
10
64.4910675998397
20
1.75204655669998
30
0
0
SPLINE
5
133
100
AcDbEntity
8
1
62
256
6
ByLayer
370
18
48
1
60
0
100
AcDbSpline
70
4
71
3
72
50
73
46
40
0
40
0
40
0
40
0
40
0.124999999999981
40
0.124999999999981
40
0.249999999999961
40
0.249999999999961
40
0.374999999999942
40
0.374999999999942
40
0.499999999999922
40
0.499999999999922
40
0.53124999999992
40
0.53124999999992
40
0.546874999999919
40
0.546874999999919
40
0.562499999999917
40
0.562499999999917
40
0.593749999999915
40
0.593749999999915
40
0.624999999999912
40
0.624999999999912
40
0.65624999999991
40
0.65624999999991
40
0.671874999999909
40
0.671874999999909
40
0.687499999999907
40
0.687499999999907
40
0.703124999999906
40
0.703124999999906
40
0.718749999999905
40
0.718749999999905
40
0.734374999999904
40
0.734374999999904
40
0.749999999999902
40
0.749999999999902
40
0.757812499999902
40
0.757812499999902
40
0.765624999999902
40
0.765624999999902
40
0.773437499999902
40
0.773437499999902
40
0.781249999999901
40
0.812499999999912
40
0.874999999999945
40
0.874999999999945
40
1
40
1
40
1
40
1
41
1
10
63.5102698527226
20
2.75852326695119
30
0
41
1
10
63.5447920918099
20
2.68927449624479
30
0
41
1
10
63.5796204317023
20
2.6204294184553
30
0
41
1
10
63.649553804963
20
2.48350592930271
30
0
41
1
10
63.6846714731317
20
2.41541540192779
30
0
41
1
10
63.7550755894833
20
2.28032282466737
30
0
41
1
10
63.7903784764229
20
2.21328264119816
30
0
41
1
10
63.8611753928216
20
2.08028497443598
30
0
41
1
10
63.8966870130276
20
2.01432215801168
30
0
41
1
10
63.9411096338656
20
1.9326548667849
30
0
41
1
10
63.9498468449203
20
1.91634021897315
30
0
41
1
10
63.9652279196203
20
1.89221560943196
30
0
41
1
10
63.9707406772328
20
1.88423301252803
30
0
41
1
10
63.9825304517157
20
1.86838588242645
30
0
41
1
10
63.9887342650426
20
1.86061921124957
30
0
41
1
10
64.0078780446974
20
1.83805992280816
30
0
41
1
10
64.021446656493
20
1.82383105614747
30
0
41
1
10
64.0498101341374
20
1.79660776039725
30
0
41
1
10
64.0646944980201
20
1.78357954645381
30
0
41
1
10
64.0947132396827
20
1.75970273805782
30
0
41
1
10
64.1099693299064
20
1.74877736658158
30
0
41
1
10
64.13321354207
20
1.7340252045253
30
0
41
1
10
64.141055001201
20
1.72935270896198
30
0
41
1
10
64.1565792144766
20
1.72069283319169
30
0
41
1
10
64.1642815873645
20
1.71668992829913
30
0
41
1
10
64.1795557242964
20
1.70935325569872
30
0
41
1
10
64.187127732329
20
1.70601841474718
30
0
41
1
10
64.2021169935164
20
1.70010349487723
30
0
41
1
10
64.2095834232597
20
1.69750837357256
30
0
41
1
10
64.2240552428444
20
1.69335397500592
30
0
41
1
10
64.2310400410896
20
1.69178604243234
30
0
41
1
10
64.2444777261164
20
1.68971306995274
30
0
41
1
10
64.2509563825385
20
1.68919263462675
30
0
41
1
10
64.2600862852558
20
1.68947601073637
30
0
41
1
10
64.2629822659064
20
1.68976016690397
30
0
41
1
10
64.2684890051076
20
1.69069508070928
30
0
41
1
10
64.2710971058087
20
1.69134945467908
30
0
41
1
10
64.2761774866649
20
1.69282442086083
30
0
41
1
10
64.2786516242854
20
1.69364252323098
30
0
41
1
10
64.2835983428454
20
1.69526450825072
30
0
41
1
10
64.2959375569708
20
1.69931570820557
30
0
41
1
10
64.3277017929294
20
1.70974752881079
30
0
41
1
10
64.3565885899619
20
1.71881016658651
30
0
41
1
10
64.4143141561185
20
1.73550214382277
30
0
41
1
10
64.4528360265219
20
1.7445686597533
30
0
41
1
10
64.4910675998397
20
1.75204655670001
30
0
0
SPLINE
5
134
100
AcDbEntity
8
1
62
256
6
ByLayer
370
18
48
1
60
0
100
AcDbSpline
70
4
71
3
72
30
73
26
40
0
40
0
40
0
40
0
40
0.125
40
0.125
40
0.187500000000001
40
0.187500000000001
40
0.218750000000001
40
0.218750000000001
40
0.250000000000001
40
0.250000000000001
40
0.375000000000002
40
0.375000000000002
40
0.500000000000004
40
0.500000000000004
40
0.562500000000004
40
0.562500000000004
40
0.593750000000004
40
0.593750000000004
40
0.625000000000004
40
0.625000000000004
40
0.750000000000003
40
0.750000000000003
40
0.875000000000001
40
0.875000000000001
40
1
40
1
40
1
40
1
41
1
10
63.6743246979076
20
-0.330074400113773
30
0
41
1
10
63.6674627858308
20
-0.191075876307934
30
0
41
1
10
63.6607113687924
20
-0.0514830463288263
30
0
41
1
10
63.6506515011421
20
0.158807461323846
30
0
41
1
10
63.6473081416628
20
0.229054737435547
30
0
41
1
10
63.6422829584463
20
0.334654701355646
30
0
41
1
10
63.6406043232446
20
0.36993027284953
30
0
41
1
10
63.6372568633686
20
0.440165073362039
30
0
41
1
10
63.6355860987563
20
0.475165075135436
30
0
41
1
10
63.6272321543146
20
0.649583893503745
30
0
41
1
10
63.6205137332188
20
0.787262160417754
30
0
41
1
10
63.6068458363092
20
1.05898671498284
30
0
41
1
10
63.5999439356191
20
1.19303516743923
30
0
41
1
10
63.5895536379056
20
1.39136913244843
30
0
41
1
10
63.5860827848999
20
1.45702304792303
30
0
41
1
10
63.5808612785257
20
1.55480659756418
30
0
41
1
10
63.5791181457276
20
1.58728482906241
30
0
41
1
10
63.5756247224014
20
1.65200604618778
30
0
41
1
10
63.5738720872658
20
1.68429056440596
30
0
41
1
10
63.5651354585046
20
1.84427382578187
30
0
41
1
10
63.5582077344502
20
1.96811063654837
30
0
41
1
10
63.544437733275
20
2.20775096484246
30
0
41
1
10
63.537596491008
20
2.32355378950965
30
0
41
1
10
63.5239405698038
20
2.54712711620707
30
0
41
1
10
63.5171270222199
20
2.65489830487022
30
0
41
1
10
63.5102698527226
20
2.75852326695119
30
0
0
SPLINE
5
135
100
AcDbEntity
8
1
62
256
6
ByLayer
370
18
48
1
60
0
100
AcDbSpline
70
4
71
3
72
49
73
45
40
0
40
0
40
0
40
0
40
0.125000000000045
40
0.125000000000045
40
0.25000000000009
40
0.25000000000009
40
0.265625000000095
40
0.265625000000095
40
0.281250000000101
40
0.281250000000101
40
0.296875000000106
40
0.296875000000106
40
0.312500000000112
40
0.312500000000112
40
0.343750000000123
40
0.343750000000123
40
0.375000000000134
40
0.375000000000134
40
0.406250000000145
40
0.406250000000145
40
0.437500000000156
40
0.437500000000156
40
0.468750000000167
40
0.468750000000167
40
0.484375000000164
40
0.484375000000164
40
0.500000000000161
40
0.500000000000161
40
0.507812500000159
40
0.507812500000159
40
0.515625000000158
40
0.515625000000158
40
0.531250000000155
40
0.531250000000155
40
0.546875000000153
40
0.546875000000153
40
0.56250000000015
40
0.625000000000128
40
0.625000000000128
40
0.750000000000086
40
0.750000000000086
40
0.875000000000043
40
0.875000000000043
40
1
40
1
40
1
40
1
41
1
10
64.6348981008788
20
-1.07623765564003
30
0
41
1
10
64.6023937884142
20
-1.01986678862085
30
0
41
1
10
64.5697499326287
20
-0.964325819685058
30
0
41
1
10
64.5044967954902
20
-0.855031109213428
30
0
41
1
10
64.4718924051667
20
-0.801274997160135
30
0
41
1
10
64.4344074436318
20
-0.741652193231545
30
0
41
1
10
64.4302433400574
20
-0.735042422947203
30
0
41
1
10
64.4218266247785
20
-0.721828874819636
30
0
41
1
10
64.4175392389523
20
-0.715215688868767
30
0
41
1
10
64.4082298032972
20
-0.701823947922605
30
0
41
1
10
64.403190623503
20
-0.695020250305305
30
0
41
1
10
64.3925805297118
20
-0.681398906836023
30
0
41
1
10
64.3870592653461
20
-0.674630195932906
30
0
41
1
10
64.3699319202529
20
-0.65443508234813
30
0
41
1
10
64.3577430890048
20
-0.641122644897223
30
0
41
1
10
64.3319379715235
20
-0.614762493931153
30
0
41
1
10
64.3182788924625
20
-0.601651068909433
30
0
41
1
10
64.2904900133566
20
-0.576439405679935
30
0
41
1
10
64.276270175831
20
-0.564240795089063
30
0
41
1
10
64.2471082696428
20
-0.54075277250152
30
0
41
1
10
64.2320328531707
20
-0.529419088167856
30
0
41
1
10
64.2023008390051
20
-0.508571772348006
30
0
41
1
10
64.187523397562
20
-0.498929492845463
30
0
41
1
10
64.1655621178425
20
-0.485832565935027
30
0
41
1
10
64.1583324133838
20
-0.481734881076022
30
0
41
1
10
64.1443224543306
20
-0.474307450013214
30
0
41
1
10
64.1375144512612
20
-0.470965490540408
30
0
41
1
10
64.127673430769
20
-0.466645831860205
30
0
41
1
10
64.124440810758
20
-0.465316912977073
30
0
41
1
10
64.1182333461053
20
-0.462961244360031
30
0
41
1
10
64.1152478851439
20
-0.461928983573387
30
0
41
1
10
64.1066547796194
20
-0.459279182981163
30
0
41
1
10
64.1014404352741
20
-0.458147471499729
30
0
41
1
10
64.0915710150213
20
-0.456544416419433
30
0
41
1
10
64.0868999497612
20
-0.456049617674779
30
0
41
1
10
64.0774854460181
20
-0.454895389281887
30
0
41
1
10
64.0539414601114
20
-0.451845458929824
30
0
41
1
10
64.0303661990362
20
-0.44798512180202
30
0
41
1
10
63.9737628685465
20
-0.437228678070738
30
0
41
1
10
63.9359893029939
20
-0.428066565519884
30
0
41
1
10
63.8607469266586
20
-0.406107242936741
30
0
41
1
10
63.82324847414
20
-0.393309808688116
30
0
41
1
10
63.748505984477
20
-0.364187673675957
30
0
41
1
10
63.7112364920195
20
-0.347827184395726
30
0
41
1
10
63.6743246978994
20
-0.33007440011545
30
0
0
SPLINE
5
136
100
AcDbEntity
8
1
62
256
6
ByLayer
370
18
48
1
60
0
100
AcDbSpline
70
4
71
3
72
22
73
18
40
0
40
0
40
0
40
0
40
0.0284638760744498
40
0.0284638760744498
40
0.245492645070339
40
0.245492645070339
40
0.462521414066227
40
0.462521414066227
40
0.571035798564173
40
0.571035798564173
40
0.679550183062117
40
0.679550183062117
40
0.788064567560061
40
0.788064567560061
40
0.896578952058005
40
0.896578952058005
40
1
40
1
40
1
40
1
41
1
10
39.4984263203682
20
-1.14505971879774
30
0
41
1
10
39.4826114608228
20
-1.15305872557701
30
0
41
1
10
39.4669057880676
20
-1.16147276830384
30
0
41
1
10
39.3327571084752
20
-1.23748042429523
30
0
41
1
10
39.2202309199574
20
-1.32879271831746
30
0
41
1
10
39.0117475031682
20
-1.55738407437372
30
0
41
1
10
38.9197658544726
20
-1.6900534353627
30
0
41
1
10
38.7973612791502
20
-1.91238849024416
30
0
41
1
10
38.7596017263891
20
-1.98956549698832
30
0
41
1
10
38.6903997570943
20
-2.14741012831749
30
0
41
1
10
38.6597423245111
20
-2.22905166709455
30
0
41
1
10
38.6096958517181
20
-2.40010471255664
30
0
41
1
10
38.5895633067684
20
-2.48999776306701
30
0
41
1
10
38.559705108106
20
-2.66948801908202
30
0
41
1
10
38.5497672517327
20
-2.75954735996683
30
0
41
1
10
38.5388603319233
20
-2.93597417541554
30
0
41
1
10
38.5375171921494
20
-3.02271037485588
30
0
41
1
10
38.5398870602877
20
-3.10866403975385
30
0
0
SPLINE
5
137
100
AcDbEntity
8
1
62
256
6
ByLayer
370
18
48
1
60
0
100
AcDbSpline
70
4
71
3
72
10
73
6
40
0
40
0
40
0
40
0
40
0.439736985773706
40
0.439736985773706
40
1
40
1
40
1
40
1
41
1
10
55.2213552793663
20
-4.06420994851717
30
0
41
1
10
55.2159904936287
20
-4.06420605975745
30
0
41
1
10
55.2106389488624
20
-4.05977705327962
30
0
41
1
10
55.1984057245472
20
-4.03973020768325
30
0
41
1
10
55.1914690618364
20
-4.02137907306565
30
0
41
1
10
55.1844736009836
20
-3.9957604185326
30
0
0
SPLINE
5
138
100
AcDbEntity
8
1
62
256
6
ByLayer
370
18
48
1
60
0
100
AcDbSpline
70
4
71
3
72
12
73
8
40
0
40
0
40
0
40
0
40
0.480424636692679
40
0.480424636692679
40
0.960849273385357
40
0.960849273385357
40
1
40
1
40
1
40
1
41
1
10
55.0604867333989
20
-3.9712461909578
30
0
41
1
10
55.0671594021524
20
-4.00095127184349
30
0
41
1
10
55.0739202375776
20
-4.0235111176867
30
0
41
1
10
55.0876104594582
20
-4.0544798026219
30
0
41
1
10
55.0945309983676
20
-4.06288918493198
30
0
41
1
10
55.1020763296632
20
-4.06416127008731
30
0
41
1
10
55.1026452629253
20
-4.06420896620216
30
0
41
1
10
55.1032145740446
20
-4.06420833714608
30
0
0
SPLINE
5
139
100
AcDbEntity
8
1
62
256
6
ByLayer
370
18
48
1
60
0
100
AcDbSpline
70
4
71
3
72
17
73
13
40
0
40
0
40
0
40
0
40
0.0382638160696056
40
0.358842544046402
40
0.358842544046402
40
0.5191319080348
40
0.5191319080348
40
0.599276590029
40
0.599276590029
40
0.6794212720232
40
0.6794212720232
40
1
40
1
40
1
40
1
41
1
10
58.2283504825765
20
4.06420914112499
30
0
41
1
10
58.2291710985377
20
4.06420707551649
30
0
41
1
10
58.2368655068918
20
4.06323305385703
30
0
41
1
10
58.244544862733
20
4.05333107379934
30
0
41
1
10
58.2548373949
20
4.02928020398363
30
0
41
1
10
58.258268919382
20
4.01946279893801
30
0
41
1
10
58.2634231968068
20
4.00199148468985
30
0
41
1
10
58.2651424789541
20
3.99570994264792
30
0
41
1
10
58.2685847161575
20
3.98222094017782
30
0
41
1
10
58.2703091673812
20
3.97500562059457
30
0
41
1
10
58.2788951782681
20
3.93681383940168
30
0
41
1
10
58.2856828109231
20
3.89938379293252
30
0
41
1
10
58.2924462371922
20
3.85529411661281
30
0
0
SPLINE
5
13A
100
AcDbEntity
8
1
62
256
6
ByLayer
370
18
48
1
60
0
100
AcDbSpline
70
4
71
3
72
18
73
14
40
0
40
0
40
0
40
0
40
0.0566640376818254
40
0.0566640376818254
40
0.174581032971597
40
0.174581032971597
40
0.292498028261369
40
0.292498028261369
40
0.528332018840913
40
0.528332018840913
40
0.764166009420456
40
0.764166009420456
40
1
40
1
40
1
40
1
41
1
10
62.7214884297684
20
-4.06421026298241
30
0
41
1
10
62.7198292887728
20
-4.06421128066634
30
0
41
1
10
62.7181684180882
20
-4.06379685836646
30
0
41
1
10
62.7130499681388
20
-4.06123638974356
30
0
41
1
10
62.7095928746417
20
-4.05769917670025
30
0
41
1
10
62.7026813951293
20
-4.04694276247099
30
0
41
1
10
62.6992191824805
20
-4.03969502455485
30
0
41
1
10
62.6889152202549
20
-4.01262741989279
30
0
41
1
10
62.6821071702463
20
-3.98748461027594
30
0
41
1
10
62.6683556778122
20
-3.92340478373066
30
0
41
1
10
62.6614451411473
20
-3.88446670093262
30
0
41
1
10
62.6475813566887
20
-3.79274560982188
30
0
41
1
10
62.6406288331105
20
-3.73996403673721
30
0
41
1
10
62.6336534767274
20
-3.68000931492799
30
0
0
SPLINE
5
13B
100
AcDbEntity
8
1
62
256
6
ByLayer
370
18
48
1
60
0
100
AcDbSpline
70
4
71
3
72
19
73
15
40
0
40
0
40
0
40
0
40
0.220403358170589
40
0.440806716341179
40
0.440806716341179
40
0.551008395426474
40
0.551008395426474
40
0.606109234969121
40
0.606109234969121
40
0.661210074511769
40
0.661210074511769
40
0.88161343268236
40
0.88161343268236
40
1
40
1
40
1
40
1
41
1
10
62.5102648243429
20
-3.62575970603265
30
0
41
1
10
62.5171006867651
20
-3.68927225135857
30
0
41
1
10
62.5306444004355
20
-3.80245880589729
30
0
41
1
10
62.5441536989778
20
-3.88863035854561
30
0
41
1
10
62.5544259870816
20
-3.94305123800132
30
0
41
1
10
62.5578720758794
20
-3.9594869646827
30
0
41
1
10
62.5630696233675
20
-3.9815433220248
30
0
41
1
10
62.5648068864234
20
-3.98846234443346
30
0
41
1
10
62.5682903282959
20
-4.00142465850269
30
0
41
1
10
62.5700389978983
20
-4.00747528958513
30
0
41
1
10
62.5787603718629
20
-4.03537836715586
30
0
41
1
10
62.5856791152437
20
-4.05027669983943
30
0
41
1
10
62.5962286606924
20
-4.0621382219397
30
0
41
1
10
62.5998988192497
20
-4.06421067916386
30
0
41
1
10
62.6035585648548
20
-4.06421184634164
30
0
0
SPLINE
5
13C
100
AcDbEntity
8
1
62
256
6
ByLayer
370
18
48
1
60
0
100
AcDbSpline
70
4
71
3
72
24
73
20
40
0
40
0
40
0
40
0
40
0.0360268938978177
40
0.0360268938978177
40
0.0867623205347747
40
0.0867623205347747
40
0.18823317380869
40
0.18823317380869
40
0.391174880356519
40
0.391174880356519
40
0.594116586904348
40
0.594116586904348
40
0.695587440178261
40
0.695587440178261
40
0.746322866815218
40
0.746322866815218
40
0.797058293452175
40
0.797058293452175
40
1
40
1
40
1
40
1
41
1
10
53.9713135088161
20
-4.06420831096077
30
0
41
1
10
53.9701113502477
20
-4.06420524495465
30
0
41
1
10
53.9689069254661
20
-4.06397283210237
30
0
41
1
10
53.9659996853855
20
-4.06285639365535
30
0
41
1
10
53.9642923770697
20
-4.06174237352411
30
0
41
1
10
53.959178282045
20
-4.05703944220892
30
0
41
1
10
53.9557713248328
20
-4.05209135347951
30
0
41
1
10
53.9455236321946
20
-4.03191785649048
30
0
41
1
10
53.9386478145062
20
-4.01137706524199
30
0
41
1
10
53.9246819858401
20
-3.95634236449945
30
0
41
1
10
53.9176310288665
20
-3.92184831784053
30
0
41
1
10
53.9071023965665
20
-3.85947586047979
30
0
41
1
10
53.9035994007756
20
-3.83690966217338
30
0
41
1
10
53.8983607232482
20
-3.80034338619521
30
0
41
1
10
53.8966146568207
20
-3.78768285073465
30
0
41
1
10
53.8931451758895
20
-3.76157935573488
30
0
41
1
10
53.8914205872293
20
-3.74812962090806
30
0
41
1
10
53.8828456157849
20
-3.67891338078687
30
0
41
1
10
53.8761455312613
20
-3.61725998882852
30
0
41
1
10
53.8695178160559
20
-3.54948143440603
30
0
0
SPLINE
5
13D
100
AcDbEntity
8
1
62
256
6
ByLayer
370
18
48
1
60
0
100
AcDbSpline
70
4
71
3
72
21
73
17
40
0
40
0
40
0
40
0
40
0.191392345302074
40
0.191392345302074
40
0.382784690604148
40
0.382784690604148
40
0.574177035906222
40
0.765569381208297
40
0.765569381208297
40
0.813417467533815
40
0.813417467533815
40
0.861265553859333
40
0.861265553859333
40
0.956961726510369
40
0.956961726510369
40
1
40
1
40
1
40
1
41
1
10
53.7458463331583
20
-3.48763619728587
30
0
41
1
10
53.752649898611
20
-3.55915805123212
30
0
41
1
10
53.7595247129638
20
-3.62478751673404
30
0
41
1
10
53.7735097683564
20
-3.74382622311148
30
0
41
1
10
53.7804810990674
20
-3.7962110818151
30
0
41
1
10
53.7943430586816
20
-3.88714136014974
30
0
41
1
10
53.80812731317
20
-3.96425730617912
30
0
41
1
10
53.8217756288451
20
-4.0138727982148
30
0
41
1
10
53.8303028681656
20
-4.03605039834312
30
0
41
1
10
53.8320083172629
20
-4.04004317959155
30
0
41
1
10
53.8354208430432
20
-4.04713260043789
30
0
41
1
10
53.8371239675957
20
-4.05022010705116
30
0
41
1
10
53.8422113128388
20
-4.05809517765658
30
0
41
1
10
53.8455798404351
20
-4.06150986829013
30
0
41
1
10
53.8504430607121
20
-4.063848769272
30
0
41
1
10
53.8519488355342
20
-4.06421069120938
30
0
41
1
10
53.8534527245071
20
-4.0642100470572
30
0
0
SPLINE
5
13E
100
AcDbEntity
8
1
62
256
6
ByLayer
370
18
48
1
60
0
100
AcDbSpline
70
4
71
3
72
18
73
14
40
0
40
0
40
0
40
0
40
0.146251362127887
40
0.146251362127887
40
0.21937704319183
40
0.21937704319183
40
0.292502724255772
40
0.292502724255772
40
0.585005448511543
40
0.585005448511543
40
0.877508172767313
40
0.877508172767313
40
1
40
1
40
1
40
1
41
1
10
58.4163916426724
20
3.81409591673108
30
0
41
1
10
58.4129991822859
20
3.83821162803989
30
0
41
1
10
58.4096020896007
20
3.86069406184441
30
0
41
1
10
58.4044872323851
20
3.89192426441107
30
0
41
1
10
58.4027790467345
20
3.90191854094948
30
0
41
1
10
58.3993537626957
20
3.92106554414519
30
0
41
1
10
58.3976399026341
20
3.93019906479478
30
0
41
1
10
58.3890889734017
20
3.97352040096487
30
0
41
1
10
58.3822737204742
20
4.00085720544422
30
0
41
1
10
58.3685321481551
20
4.04131751515826
30
0
41
1
10
58.361623054836
20
4.05444026531163
30
0
41
1
10
58.3517900692338
20
4.06295224442593
30
0
41
1
10
58.3488840271203
20
4.06421572839355
30
0
41
1
10
58.3459740636619
20
4.06421196149034
30
0
0
SPLINE
5
13F
100
AcDbEntity
8
1
62
256
6
ByLayer
370
18
48
1
60
0
100
AcDbSpline
70
4
71
3
72
25
73
21
40
0
40
0
40
0
40
0
40
0.0918849814052986
40
0.0918849814052986
40
0.221615698347398
40
0.221615698347398
40
0.286481056818448
40
0.286481056818448
40
0.351346415289497
40
0.351346415289497
40
0.481077132231597
40
0.610807849173698
40
0.610807849173698
40
0.675673207644748
40
0.675673207644748
40
0.740538566115799
40
0.740538566115799
40
0.870269283057899
40
0.870269283057899
40
1
40
1
40
1
40
1
41
1
10
52.9657537488445
20
-3.64208752888169
30
0
41
1
10
52.9623676003919
20
-3.6401409059275
30
0
41
1
10
52.9589856454595
20
-3.63546664120761
30
0
41
1
10
52.9508360386054
20
-3.61760389764709
30
0
41
1
10
52.9460714755979
20
-3.60170239160951
30
0
41
1
10
52.9389070343676
20
-3.56942626230079
30
0
41
1
10
52.9365121931104
20
-3.55723381335295
30
0
41
1
10
52.9317598691701
20
-3.53027884911003
30
0
41
1
10
52.929396448211
20
-3.51549401835879
30
0
41
1
10
52.9223310687915
20
-3.46727740235514
30
0
41
1
10
52.9129778863258
20
-3.39270725462328
30
0
41
1
10
52.9035939150227
20
-3.29776697381681
30
0
41
1
10
52.8964727309773
20
-3.21877964575813
30
0
41
1
10
52.894084272857
20
-3.1911508789849
30
0
41
1
10
52.8892703046397
20
-3.13324451428045
30
0
41
1
10
52.8868408639104
20
-3.10288827403997
30
0
41
1
10
52.8795838057746
20
-3.00873286108737
30
0
41
1
10
52.8747739270067
20
-2.94168026825108
30
0
41
1
10
52.8651788471557
20
-2.79924181866088
30
0
41
1
10
52.8603901844207
20
-2.72385398045427
30
0
41
1
10
52.8555593813161
20
-2.64428047513297
30
0
0
SPLINE
5
140
100
AcDbEntity
8
1
62
256
6
ByLayer
370
13
48
1
60
0
100
AcDbSpline
70
4
71
3
72
9
73
5
40
0
40
0
40
0
40
0
40
0.827806396307976
40
1
40
1
40
1
40
1
41
1
10
53.6331045167227
20
-3.69806389267504
30
0
41
1
10
53.6066836307222
20
-3.65252159326289
30
0
41
1
10
53.57464848535
20
-3.48018417279474
30
0
41
1
10
53.5420935345406
20
-3.17022863820185
30
0
41
1
10
53.5364783848723
20
-3.11303004247907
30
0
0
SPLINE
5
141
100
AcDbEntity
8
1
62
256
6
ByLayer
370
18
48
1
60
0
100
AcDbSpline
70
4
71
3
72
21
73
17
40
0
40
0
40
0
40
0
40
0.0424727159026647
40
0.0424727159026647
40
0.202060596585554
40
0.202060596585554
40
0.361648477268443
40
0.361648477268443
40
0.521236357951332
40
0.521236357951332
40
0.601030298292777
40
0.601030298292777
40
0.680824238634222
40
0.680824238634222
40
0.840412119317111
40
1
40
1
40
1
40
1
41
1
10
59.4785150212661
20
4.06420555555036
30
0
41
1
10
59.4803266172225
20
4.06420487837556
30
0
41
1
10
59.4821380265561
20
4.06368577332165
30
0
41
1
10
59.4907295872969
20
4.0587514247448
30
0
41
1
10
59.4974689378595
20
4.04760160751405
30
0
41
1
10
59.511030375743
20
4.01120102585585
30
0
41
1
10
59.5178673235501
20
3.98594959282627
30
0
41
1
10
59.531635575341
20
3.92129231613282
30
0
41
1
10
59.5385622750066
20
3.88188791476961
30
0
41
1
10
59.5490250551515
20
3.81177921580601
30
0
41
1
10
59.5524982376757
20
3.78675124171232
30
0
41
1
10
59.5594108854108
20
3.73352899577407
30
0
41
1
10
59.5628522644322
20
3.70532196054114
30
0
41
1
10
59.5731446935251
20
3.61598164774244
30
0
41
1
10
59.5867823158665
20
3.48430111083681
30
0
41
1
10
59.6004243756003
20
3.32762459437333
30
0
41
1
10
59.6072964871549
20
3.24286783271958
30
0
0
SPLINE
5
142
100
AcDbEntity
8
1
62
256
6
ByLayer
370
18
48
1
60
0
100
AcDbSpline
70
4
71
3
72
28
73
24
40
0
40
0
40
0
40
0
40
0.0523089610744638
40
0.187693395206683
40
0.187693395206683
40
0.255385612272793
40
0.255385612272793
40
0.289231720805848
40
0.289231720805848
40
0.323077829338903
40
0.323077829338903
40
0.458462263471123
40
0.458462263471123
40
0.593846697603343
40
0.593846697603343
40
0.729231131735563
40
0.729231131735563
40
0.763077240268618
40
0.763077240268618
40
0.796923348801672
40
0.864615565867782
40
0.864615565867782
40
1
40
1
40
1
40
1
41
1
10
61.4708947135523
20
-4.06421186384813
30
0
41
1
10
61.4682624182869
20
-4.06421249948352
30
0
41
1
10
61.4588479801979
20
-4.06035311877505
30
0
41
1
10
61.4495084966114
20
-4.04277014440953
30
0
41
1
10
61.4393477849419
20
-4.01296071038073
30
0
41
1
10
61.4359511816033
20
-4.00122317801538
30
0
41
1
10
61.4308242868374
20
-3.98087324429932
30
0
41
1
10
61.4291099705947
20
-3.97363242624724
30
0
41
1
10
61.4256675116043
20
-3.95822584079238
30
0
41
1
10
61.4239368013326
20
-3.95004686858513
30
0
41
1
10
61.415279901498
20
-3.90700968020658
30
0
41
1
10
61.408334357266
20
-3.86575825211125
30
0
41
1
10
61.3944892532974
20
-3.77006354076423
30
0
41
1
10
61.3875897247985
20
-3.71561892646599
30
0
41
1
10
61.3738282907093
20
-3.59355491970356
30
0
41
1
10
61.3669629757626
20
-3.5259365924957
30
0
41
1
10
61.3583641982974
20
-3.4329259002854
30
0
41
1
10
61.3566410583315
20
-3.413870259817
30
0
41
1
10
61.3532046993174
20
-3.37504717697294
30
0
41
1
10
61.3480680809734
20
-3.31578355201174
30
0
41
1
10
61.3429776876822
20
-3.25347132009489
30
0
41
1
10
61.3328359366262
20
-3.12485170504615
30
0
41
1
10
61.3261270816062
20
-3.033788757048
30
0
41
1
10
61.3194036828845
20
-2.93746448137293
30
0
0
SPLINE
5
143
100
AcDbEntity
8
1
62
256
6
ByLayer
370
18
48
1
60
0
100
AcDbSpline
70
4
71
3
72
27
73
23
40
0
40
0
40
0
40
0
40
0.13011125839331
40
0.13011125839331
40
0.162639072991638
40
0.162639072991638
40
0.195166887589965
40
0.195166887589965
40
0.260222516786621
40
0.260222516786621
40
0.390333775179932
40
0.520445033573243
40
0.520445033573243
40
0.585500662769898
40
0.585500662769898
40
0.650556291966554
40
0.650556291966554
40
0.780667550359864
40
0.780667550359864
40
0.910778808753174
40
0.910778808753174
40
1
40
1
40
1
40
1
41
1
10
61.1952580473384
20
-2.85024774850874
30
0
41
1
10
61.2020067564407
20
-2.94953980242096
30
0
41
1
10
61.208826781178
20
-3.04390658023272
30
0
41
1
10
61.2174558295375
20
-3.15557735991507
30
0
41
1
10
61.2191868035347
20
-3.17759633532251
30
0
41
1
10
61.2226593564875
20
-3.2209973647808
30
0
41
1
10
61.2244023575537
20
-3.24239653243043
30
0
41
1
10
61.2296383104706
20
-3.3055138425259
30
0
41
1
10
61.2331197370258
20
-3.34593275831037
30
0
41
1
10
61.2435389073352
20
-3.46231951985655
30
0
41
1
10
61.2573635273058
20
-3.60454099709401
30
0
41
1
10
61.2710923812399
20
-3.72133471543867
30
0
41
1
10
61.2813863006721
20
-3.79927365261494
30
0
41
1
10
61.2848173944005
20
-3.82364075881947
30
0
41
1
10
61.2916879714052
20
-3.86908996058088
30
0
41
1
10
61.2951344738973
20
-3.89020411365524
30
0
41
1
10
61.3053863143769
20
-3.94788513898197
30
0
41
1
10
61.3121356156504
20
-3.97904853352711
30
0
41
1
10
61.3255737320546
20
-4.02719574345596
30
0
41
1
10
61.332262484439
20
-4.04417861807963
30
0
41
1
10
61.3436045667339
20
-4.06080698925473
30
0
41
1
10
61.3482369421263
20
-4.06422448777471
30
0
41
1
10
61.352915401225
20
-4.06421119325268
30
0
0
SPLINE
5
144
100
AcDbEntity
8
1
62
256
6
ByLayer
370
18
48
1
60
0
100
AcDbSpline
70
4
71
3
72
60
73
56
40
0
40
0
40
0
40
0
40
0.0568020464560981
40
0.0568020464560981
40
0.113604092912196
40
0.113604092912196
40
0.227208185824399
40
0.227208185824399
40
0.340812278736602
40
0.340812278736602
40
0.355012790350629
40
0.355012790350629
40
0.369213301964657
40
0.369213301964657
40
0.397614325192711
40
0.397614325192711
40
0.45441637164882
40
0.45441637164882
40
0.482817394876871
40
0.482817394876871
40
0.511218418104921
40
0.539619441332972
40
0.539619441332972
40
0.568020464561022
40
0.568020464561022
40
0.596421487789073
40
0.596421487789073
40
0.624822511017123
40
0.624822511017123
40
0.68162455747322
40
0.68162455747322
40
0.738426603929317
40
0.738426603929317
40
0.795228650385414
40
0.795228650385414
40
0.823629673613463
40
0.823629673613463
40
0.852030696841511
40
0.852030696841511
40
0.880431720069559
40
0.880431720069559
40
0.894632231683585
40
0.894632231683585
40
0.908832743297611
40
0.908832743297611
40
0.937233766525667
40
0.937233766525667
40
0.965634789753722
40
0.965634789753722
40
0.972735045560738
40
0.972735045560738
40
0.979835301367753
40
0.994035812981781
40
0.994035812981781
40
1
40
1
40
1
40
1
41
1
10
40.8320498780286
20
3.08858961879682
30
0
41
1
10
40.758736550834
20
3.09626407078059
30
0
41
1
10
40.6848351585823
20
3.10203497748324
30
0
41
1
10
40.5353722246552
20
3.11016266985155
30
0
41
1
10
40.4598247500456
20
3.11252336595501
30
0
41
1
10
40.2302220584529
20
3.11522613351104
30
0
41
1
10
40.0731727698083
20
3.11116147714304
30
0
41
1
10
39.7483198245297
20
3.09589806247231
30
0
41
1
10
39.5805255885197
20
3.08469827550638
30
0
41
1
10
39.3837753044381
20
3.07118715311526
30
0
41
1
10
39.3618040454326
20
3.06967348390913
30
0
41
1
10
39.3176350375722
20
3.06663241577283
30
0
41
1
10
39.2954129391538
20
3.065103352281
30
0
41
1
10
39.2286240859719
20
3.06052826151762
30
0
41
1
10
39.1839255346092
20
3.05749369595995
30
0
41
1
10
39.0492905909586
20
3.04857544350412
30
0
41
1
10
38.9588179320308
20
3.04287632523747
30
0
41
1
10
38.821904124861
20
3.03525701080076
30
0
41
1
10
38.7760722502157
20
3.03286367321067
30
0
41
1
10
38.6839319000614
20
3.0285311453147
30
0
41
1
10
38.5913156304442
20
3.02465404233948
30
0
41
1
10
38.4978297416989
20
3.02169821683816
30
0
41
1
10
38.4039520559962
20
3.01918726072691
30
0
41
1
10
38.3568104636709
20
3.01816252725914
30
0
41
1
10
38.2622218867684
20
3.01647478744482
30
0
41
1
10
38.2147709417853
20
3.01581619111883
30
0
41
1
10
38.1195341168083
20
3.01490781482133
30
0
41
1
10
38.0718427548931
20
3.01465974604361
30
0
41
1
10
37.9292592824936
20
3.0145723373642
30
0
41
1
10
37.8345789453463
20
3.01538517273022
30
0
41
1
10
37.6460668267805
20
3.01890757431414
30
0
41
1
10
37.552232967111
20
3.02161589036004
30
0
41
1
10
37.3655688139929
20
3.02901241045797
30
0
41
1
10
37.2727265738207
20
3.0336838956166
30
0
41
1
10
37.1344303720599
20
3.04218313010111
30
0
41
1
10
37.0888411432008
20
3.045240431677
30
0
41
1
10
36.9989692917104
20
3.05174513252993
30
0
41
1
10
36.95466115787
20
3.05519439927468
30
0
41
1
10
36.8674921084128
20
3.06241319088105
30
0
41
1
10
36.8246297726303
20
3.06618339087333
30
0
41
1
10
36.7616285642727
20
3.07199515634102
30
0
41
1
10
36.7409116967184
20
3.07395205373112
30
0
41
1
10
36.7003487189063
20
3.07785799889243
30
0
41
1
10
36.6804636505142
20
3.07981064592744
30
0
41
1
10
36.6220784646827
20
3.08562674868912
30
0
41
1
10
36.5848391007826
20
3.08945112889319
30
0
41
1
10
36.5142838181418
20
3.09671116356185
30
0
41
1
10
36.4809680993945
20
3.10015002900485
30
0
41
1
10
36.4423007981833
20
3.10394987043785
30
0
41
1
10
36.4346992451028
20
3.10468612267113
30
0
41
1
10
36.4199046550619
20
3.10609058593366
30
0
41
1
10
36.3983564746539
20
3.10809240083151
30
0
41
1
10
36.3787583288539
20
3.10975100451347
30
0
41
1
10
36.3614645000874
20
3.11106554994836
30
0
41
1
10
36.3565056494689
20
3.11142274075561
30
0
41
1
10
36.3517049266291
20
3.11174598589244
30
0
0
SPLINE
5
145
100
AcDbEntity
8
1
62
256
6
ByLayer
370
18
48
1
60
0
100
AcDbSpline
70
4
71
3
72
15
73
11
40
0
40
0
40
0
40
0
40
0.0858020612487757
40
0.0858020612487757
40
0.213484637545915
40
0.468849790140212
40
0.468849790140212
40
0.97958009532881
40
0.97958009532881
40
1
40
1
40
1
40
1
41
1
10
36.300218235676
20
3.11384991343527
30
0
41
1
10
36.2974557877935
20
3.11385066405876
30
0
41
1
10
36.2948037677761
20
3.11382340169212
30
0
41
1
10
36.2885133320879
20
3.11368392779576
30
0
41
1
10
36.2780182484612
20
3.11324326793815
30
0
41
1
10
36.269836808936
20
3.11221811509452
30
0
41
1
10
36.2564232838865
20
3.1093535893273
30
0
41
1
10
36.251406727007
20
3.10635848276783
30
0
41
1
10
36.2499972956384
20
3.10201759988073
30
0
41
1
10
36.2499490344695
20
3.10184894735752
30
0
41
1
10
36.2499067703621
20
3.10167853863996
30
0
0
SPLINE
5
146
100
AcDbEntity
8
1
62
256
6
ByLayer
370
18
48
1
60
0
100
AcDbSpline
70
4
71
3
72
32
73
28
40
0
40
0
40
0
40
0
40
0.0242707439085261
40
0.0242707439085261
40
0.0649261295790003
40
0.0649261295790003
40
0.105581515249474
40
0.105581515249474
40
0.146236900919949
40
0.146236900919949
40
0.166564593755187
40
0.166564593755187
40
0.186892286590426
40
0.186892286590426
40
0.268203057931383
40
0.268203057931383
40
0.349513829272341
40
0.349513829272341
40
0.430824600613298
40
0.430824600613298
40
0.512135371954256
40
0.512135371954256
40
0.67475691463617
40
0.67475691463617
40
0.837378457318085
40
0.837378457318085
40
1
40
1
40
1
40
1
41
1
10
36.2677127999087
20
3.07848409244468
30
0
41
1
10
36.273454577447
20
3.07428679642385
30
0
41
1
10
36.2804979321211
20
3.06974416948103
30
0
41
1
10
36.3025501419211
20
3.05669948229024
30
0
41
1
10
36.319438147658
20
3.04779609221507
30
0
41
1
10
36.3573300021821
20
3.02865898372579
30
0
41
1
10
36.3783575762794
20
3.01842173409344
30
0
41
1
10
36.4235608571337
20
2.99670439268576
30
0
41
1
10
36.4477456397891
20
2.98522393168773
30
0
41
1
10
36.4859286744349
20
2.96712151894207
30
0
41
1
10
36.4989554483198
20
2.96095005684995
30
0
41
1
10
36.5254340268989
20
2.94839425209753
30
0
41
1
10
36.5389034918728
20
2.94200237383222
30
0
41
1
10
36.6072565296202
20
2.90948524068614
30
0
41
1
10
36.6651064515765
20
2.88169627749926
30
0
41
1
10
36.7849988448926
20
2.82283729840603
30
0
41
1
10
36.8470640166909
20
2.79176386864168
30
0
41
1
10
36.9742070357194
20
2.72643764616797
30
0
41
1
10
37.0393164052238
20
2.69217089122799
30
0
41
1
10
37.1717324694599
20
2.62053002256505
30
0
41
1
10
37.2385804780344
20
2.5834043040575
30
0
41
1
10
37.4403809208433
20
2.46814276284627
30
0
41
1
10
37.5765506877217
20
2.38613348655485
30
0
41
1
10
37.8502137359418
20
2.21156719616283
30
0
41
1
10
37.9877262023883
20
2.11900087185708
30
0
41
1
10
38.2633350429351
20
1.92284115655315
30
0
41
1
10
38.4014321588988
20
1.81923639244783
30
0
41
1
10
38.5398870604076
20
1.70990278583807
30
0
0
SPLINE
5
147
100
AcDbEntity
8
1
62
256
6
ByLayer
370
18
48
1
60
0
100
AcDbSpline
70
4
71
3
72
27
73
23
40
0
40
0
40
0
40
0
40
0.15254902913083
40
0.305098058261661
40
0.305098058261661
40
0.381372572827076
40
0.381372572827076
40
0.419509830109783
40
0.419509830109783
40
0.457647087392491
40
0.457647087392491
40
0.610196116523321
40
0.610196116523321
40
0.76274514565415
40
0.76274514565415
40
0.839019660219565
40
0.839019660219565
40
0.877156917502273
40
0.877156917502273
40
0.91529417478498
40
0.91529417478498
40
1
40
1
40
1
40
1
41
1
10
59.7310674438945
20
3.1664096850638
30
0
41
1
10
59.7242137400576
20
3.25421945399304
30
0
41
1
10
59.7104507132595
20
3.41764529093419
30
0
41
1
10
59.6967182438439
20
3.55707662717944
30
0
41
1
10
59.6864182876176
20
3.65250821428563
30
0
41
1
10
59.6829842047923
20
3.68279208524947
30
0
41
1
10
59.6778243827898
20
3.7258812436248
30
0
41
1
10
59.6761007070443
20
3.7398715823202
30
0
41
1
10
59.672666737789
20
3.76692254863528
30
0
41
1
10
59.6709549886538
20
3.77999641909707
30
0
41
1
10
59.6624171617396
20
3.84313294793083
30
0
41
1
10
59.6556557088213
20
3.88651532462274
30
0
41
1
10
59.6421044029932
20
3.95937133845979
30
0
41
1
10
59.6352933025318
20
3.98884421516036
30
0
41
1
10
59.6250472410856
20
4.02254587756684
30
0
41
1
10
59.6216280938998
20
4.03202506342311
30
0
41
1
10
59.6164881090851
20
4.04357023111177
30
0
41
1
10
59.6147727927045
20
4.04697278786639
30
0
41
1
10
59.6113358851334
20
4.0528764353129
30
0
41
1
10
59.6096117801988
20
4.05537994232563
30
0
41
1
10
59.6040693909108
20
4.06194536648965
30
0
41
1
10
59.6002553381392
20
4.0641960651019
30
0
41
1
10
59.5964390715539
20
4.0642119795049
30
0
0
SPLINE
5
148
100
AcDbEntity
8
1
62
256
6
ByLayer
370
18
48
1
60
0
100
AcDbSpline
70
4
71
3
72
29
73
25
40
0
40
0
40
0
40
0
40
0.0625000000000004
40
0.0625000000000004
40
0.125000000000001
40
0.125000000000001
40
0.250000000000002
40
0.375000000000002
40
0.500000000000003
40
0.500000000000003
40
0.531250000000003
40
0.531250000000003
40
0.562500000000003
40
0.562500000000003
40
0.625000000000002
40
0.625000000000002
40
0.750000000000002
40
0.875000000000002
40
0.875000000000002
40
0.906250000000001
40
0.906250000000001
40
0.937500000000001
40
0.937500000000001
40
1
40
1
40
1
40
1
41
1
10
52.6430406036462
20
1.92379980721481
30
0
41
1
10
52.6407219146022
20
1.96704463431709
30
0
41
1
10
52.6384055315508
20
2.00969446116548
30
0
41
1
10
52.6337750549458
20
2.09378190271607
30
0
41
1
10
52.6314585825347
20
2.13525805654732
30
0
41
1
10
52.6245769438066
20
2.25657314492435
30
0
41
1
10
52.6155373186845
20
2.41090077692064
30
0
41
1
10
52.6021698370312
20
2.62059805720682
30
0
41
1
10
52.5931766412529
20
2.74578839272286
30
0
41
1
10
52.5874428906216
20
2.81931439935605
30
0
41
1
10
52.5862903992015
20
2.83378317175101
30
0
41
1
10
52.5839713695432
20
2.86224182316627
30
0
41
1
10
52.5828035867
20
2.87624573648222
30
0
41
1
10
52.5792908162062
20
2.91734772698533
30
0
41
1
10
52.5769301807809
20
2.94358055045095
30
0
41
1
10
52.569794947168
20
3.01882694851122
30
0
41
1
10
52.5601680753456
20
3.10998114614688
30
0
41
1
10
52.5505927243362
20
3.1831148465206
30
0
41
1
10
52.544656586574
20
3.2231150971362
30
0
41
1
10
52.5434715631424
20
3.2308290205402
30
0
41
1
10
52.5411058315421
20
3.24567977890135
30
0
41
1
10
52.5399246656882
20
3.252818623682
30
0
41
1
10
52.5364020602977
20
3.27327638410611
30
0
41
1
10
52.534076742662
20
3.28566943020462
30
0
41
1
10
52.5317697698526
20
3.29683191826206
30
0
0
SPLINE
5
149
100
AcDbEntity
8
1
62
256
6
ByLayer
370
18
48
1
60
0
100
AcDbSpline
70
4
71
3
72
29
73
25
40
0
40
0
40
0
40
0
40
0.125
40
0.125
40
0.249999999999999
40
0.249999999999999
40
0.374999999999999
40
0.374999999999999
40
0.406249999999999
40
0.406249999999999
40
0.437499999999998
40
0.499999999999998
40
0.499999999999998
40
0.624999999999999
40
0.624999999999999
40
0.749999999999999
40
0.749999999999999
40
0.781249999999999
40
0.781249999999999
40
0.8125
40
0.8125
40
0.875
40
0.875
40
1
40
1
40
1
40
1
41
1
10
60.7573728351686
20
4.02134353158038
30
0
41
1
10
60.7642486592181
20
4.00090704759793
30
0
41
1
10
60.7710677220078
20
3.9733921850052
30
0
41
1
10
60.7847870104694
20
3.90467433498066
30
0
41
1
10
60.7916612176456
20
3.86346992961381
30
0
41
1
10
60.8054039478284
20
3.76738832451548
30
0
41
1
10
60.812271899729
20
3.71251213396201
30
0
41
1
10
60.8208781526541
20
3.63510645942077
30
0
41
1
10
60.8226031841858
20
3.61915956319441
30
0
41
1
10
60.826043428906
20
3.58650428720341
30
0
41
1
10
60.831187116346
20
3.53640274675666
30
0
41
1
10
60.8362890112683
20
3.48298689104652
30
0
41
1
10
60.8464654699417
20
3.3718115118416
30
0
41
1
10
60.8532108693408
20
3.29191415805752
30
0
41
1
10
60.8668323496757
20
3.12067898350116
30
0
41
1
10
60.8737457696905
20
3.0293429025738
30
0
41
1
10
60.8824178123334
20
2.9078634485245
30
0
41
1
10
60.8841534011508
20
2.88320114168272
30
0
41
1
10
60.8876256089311
20
2.83313583938349
30
0
41
1
10
60.8893644584325
20
2.8076995581558
30
0
41
1
10
60.8945658518975
20
2.73051207604956
30
0
41
1
10
60.8980039527759
20
2.67801561458958
30
0
41
1
10
60.9082536131027
20
2.51747863699751
30
0
41
1
10
60.9150107629618
20
2.40639879875962
30
0
41
1
10
60.9218012757024
20
2.29134236793968
30
0
0
SPLINE
5
14A
100
AcDbEntity
8
1
62
256
6
ByLayer
370
13
48
1
60
0
100
AcDbSpline
70
4
71
3
72
9
73
5
40
0
40
0
40
0
40
0
40
0.783848225252656
40
1
40
1
40
1
40
1
41
1
10
53.2551108954778
20
1.51687855610206
30
0
41
1
10
53.214271861163
20
2.21202633398508
30
0
41
1
10
53.1620503635644
20
2.97790124165465
30
0
41
1
10
53.1096037549572
20
3.39827229294835
30
0
41
1
10
53.0983126195301
20
3.47247299983388
30
0
0
SPLINE
5
14B
100
AcDbEntity
8
1
62
256
6
ByLayer
370
18
48
1
60
0
100
AcDbSpline
70
4
71
3
72
31
73
27
40
0
40
0
40
0
40
0
40
0.125
40
0.125
40
0.15625
40
0.15625
40
0.1875
40
0.249999999999999
40
0.249999999999999
40
0.374999999999999
40
0.499999999999999
40
0.499999999999999
40
0.531249999999999
40
0.531249999999999
40
0.562499999999999
40
0.562499999999999
40
0.624999999999999
40
0.624999999999999
40
0.749999999999999
40
0.874999999999999
40
0.874999999999999
40
0.937499999999999
40
0.937499999999999
40
0.96875
40
0.96875
40
1
40
1
40
1
40
1
41
1
10
60.1688903157349
20
-3.92611867476003
30
0
41
1
10
60.1620274305919
20
-3.89007186964514
30
0
41
1
10
60.1551736875255
20
-3.84700110169968
30
0
41
1
10
60.1465697147735
20
-3.78407677235828
30
0
41
1
10
60.1448481134546
20
-3.77104277451744
30
0
41
1
10
60.1414197637569
20
-3.74421695542364
30
0
41
1
10
60.1362921459154
20
-3.70278811731305
30
0
41
1
10
60.1312019902915
20
-3.65782981810523
30
0
41
1
10
60.1210509710086
20
-3.5632789345529
30
0
41
1
10
60.1075952659076
20
-3.42487632461652
30
0
41
1
10
60.0940575721097
20
-3.26197109923581
30
0
41
1
10
60.0854924695526
20
-3.15230375737295
30
0
41
1
10
60.0837742448555
20
-3.12997670720137
30
0
41
1
10
60.0803254456375
20
-3.08452642211984
30
0
41
1
10
60.0785945584784
20
-3.06139783316576
30
0
41
1
10
60.0734112850662
20
-2.99122502447744
30
0
41
1
10
60.0699580334961
20
-2.94326187349199
30
0
41
1
10
60.0595872184062
20
-2.7958983819754
30
0
41
1
10
60.0457201779138
20
-2.59016818515772
30
0
41
1
10
60.0319132714604
20
-2.36621883357273
30
0
41
1
10
60.0215672376073
20
-2.19130950281064
30
0
41
1
10
60.0181194276359
20
-2.13184626237
30
0
41
1
10
60.012941937003
20
-2.04087532041163
30
0
41
1
10
60.0112137774504
20
-2.01023092526304
30
0
41
1
10
60.0077737597074
20
-1.94870032181876
30
0
41
1
10
60.0060595867454
20
-1.91777392990969
30
0
41
1
10
60.004350336046
20
-1.88668825132117
30
0
0
SPLINE
5
14C
100
AcDbEntity
8
1
62
256
6
ByLayer
370
18
48
1
60
0
100
AcDbSpline
70
4
71
3
72
32
73
28
40
0
40
0
40
0
40
0
40
0.0312499999999998
40
0.0312499999999998
40
0.0624999999999997
40
0.124999999999999
40
0.124999999999999
40
0.249999999999998
40
0.249999999999998
40
0.374999999999998
40
0.374999999999998
40
0.406249999999998
40
0.406249999999998
40
0.437499999999998
40
0.437499999999998
40
0.499999999999998
40
0.499999999999998
40
0.624999999999999
40
0.749999999999999
40
0.749999999999999
40
0.8125
40
0.8125
40
0.84375
40
0.84375
40
0.875
40
0.875
40
1
40
1
40
1
40
1
41
1
10
59.8811511208685
20
-1.77678151561244
30
0
41
1
10
59.8828649591256
20
-1.80851778090656
30
0
41
1
10
59.8845789716272
20
-1.84006699876465
30
0
41
1
10
59.8879948428487
20
-1.90255076077207
30
0
41
1
10
59.8931057259072
20
-1.9954644895019
30
0
41
1
10
59.8981744038371
20
-2.08596997488226
30
0
41
1
10
59.9082665147553
20
-2.26381690766698
30
0
41
1
10
59.9149266768169
20
-2.3781712554657
30
0
41
1
10
59.9283462139622
20
-2.59849783791663
30
0
41
1
10
59.9351474991931
20
-2.70446897029288
30
0
41
1
10
59.9438340995708
20
-2.83155211575763
30
0
41
1
10
59.9455792831332
20
-2.85669906786157
30
0
41
1
10
59.9490845876911
20
-2.90644733336629
30
0
41
1
10
59.950843455818
20
-2.93102961388578
30
0
41
1
10
59.956110353504
20
-3.00353132685581
30
0
41
1
10
59.959618491709
20
-3.05034735246002
30
0
41
1
10
59.9701235264958
20
-3.18632752854356
30
0
41
1
10
59.9840766112953
20
-3.35574333205631
30
0
41
1
10
59.9978617739418
20
-3.50171602643419
30
0
41
1
10
60.0081556020926
20
-3.60224779328485
30
0
41
1
10
60.0115798504788
20
-3.63426415037807
30
0
41
1
10
60.0167131981223
20
-3.67999958200184
30
0
41
1
10
60.0184239687722
20
-3.69486250528826
30
0
41
1
10
60.0218262586879
20
-3.72365005401261
30
0
41
1
10
60.0235203134101
20
-3.73759766222915
30
0
41
1
10
60.0319607734328
20
-3.80512877851527
30
0
41
1
10
60.0386146793954
20
-3.85210939664816
30
0
41
1
10
60.0452657655114
20
-3.89220390951331
30
0
0
SPLINE
5
14D
100
AcDbEntity
8
1
62
256
6
ByLayer
370
18
48
1
60
0
100
AcDbSpline
70
4
71
3
72
30
73
26
40
0
40
0
40
0
40
0
40
0.125
40
0.125
40
0.15625
40
0.15625
40
0.187499999999999
40
0.187499999999999
40
0.249999999999999
40
0.249999999999999
40
0.374999999999997
40
0.499999999999996
40
0.499999999999996
40
0.531249999999996
40
0.531249999999996
40
0.562499999999996
40
0.562499999999996
40
0.624999999999997
40
0.624999999999997
40
0.749999999999998
40
0.874999999999999
40
0.874999999999999
40
0.9375
40
0.9375
40
1
40
1
40
1
40
1
41
1
10
53.1030806875634
20
3.4788466863869
30
0
41
1
10
53.1131907374438
20
3.43811780626325
30
0
41
1
10
53.1231249016082
20
3.39090850528291
30
0
41
1
10
53.1356578051838
20
3.3239435817359
30
0
41
1
10
53.1381734035742
20
3.31013719998938
30
0
41
1
10
53.1432094846632
20
3.28183641183219
30
0
41
1
10
53.1457310843142
20
3.26733688022139
30
0
41
1
10
53.1533238176801
20
3.22281173144248
30
0
41
1
10
53.1584323282628
20
3.19176513586112
30
0
41
1
10
53.1738691915311
20
3.0945905938124
30
0
41
1
10
53.1947159866436
20
2.95426928073115
30
0
41
1
10
53.2156300216942
20
2.79241471722679
30
0
41
1
10
53.2286538290165
20
2.68434020013842
30
0
41
1
10
53.2312565188091
20
2.66237880134955
30
0
41
1
10
53.2364572734395
20
2.6177553664719
30
0
41
1
10
53.2390581359052
20
2.59506843482831
30
0
41
1
10
53.246834394029
20
2.52611622859976
30
0
41
1
10
53.2519632469066
20
2.47914078711
30
0
41
1
10
53.2671981151164
20
2.33526066592404
30
0
41
1
10
53.2871000283155
20
2.13555634034731
30
0
41
1
10
53.3065012995101
20
1.92053101288522
30
0
41
1
10
53.3210701936081
20
1.75352902773034
30
0
41
1
10
53.3259303764272
20
1.69690478921564
30
0
41
1
10
53.3357041608569
20
1.58172747982525
30
0
41
1
10
53.3406294399237
20
1.5230330121648
30
0
41
1
10
53.3455578436142
20
1.46396877548986
30
0
0
SPLINE
5
14E
100
AcDbEntity
8
1
62
256
6
ByLayer
370
18
48
1
60
0
100
AcDbSpline
70
4
71
3
72
29
73
25
40
0
40
0
40
0
40
0
40
0.124999999999999
40
0.124999999999999
40
0.156249999999999
40
0.156249999999999
40
0.187499999999999
40
0.25
40
0.25
40
0.375
40
0.375
40
0.5
40
0.5
40
0.5625
40
0.5625
40
0.625
40
0.625
40
0.75
40
0.75
40
0.874999999999999
40
0.874999999999999
40
0.9375
40
0.9375
40
1
40
1
40
1
40
1
41
1
10
61.0460765184923
20
2.18716217899117
30
0
41
1
10
61.0394657035625
20
2.30463195925418
30
0
41
1
10
61.0326205233392
20
2.4185092416898
30
0
41
1
10
61.02386550683
20
2.55623578892468
30
0
41
1
10
61.0221026190913
20
2.58357898463612
30
0
41
1
10
61.0185681179189
20
2.63765928015215
30
0
41
1
10
61.013263309309
20
2.71771866196426
30
0
41
1
10
61.0079600159414
20
2.79463553052798
30
0
41
1
10
60.9973782943072
20
2.9443532480139
30
0
41
1
10
60.9903595656673
20
3.03868785243586
30
0
41
1
10
60.9764594165318
20
3.21652311232197
30
0
41
1
10
60.9695788732986
20
3.30002402769043
30
0
41
1
10
60.9593414936472
20
3.41697678924288
30
0
41
1
10
60.9559398745436
20
3.4545992631023
30
0
41
1
10
60.9491573077692
20
3.52690880709625
30
0
41
1
10
60.9458016743594
20
3.56132731107428
30
0
41
1
10
60.9358041507748
20
3.65948632982961
30
0
41
1
10
60.9292359535487
20
3.71814361438817
30
0
41
1
10
60.9159985476819
20
3.82215122184488
30
0
41
1
10
60.9093180241769
20
3.86750101468729
30
0
41
1
10
60.8989281839691
20
3.92542072537083
30
0
41
1
10
60.8954148895856
20
3.94304008262458
30
0
41
1
10
60.8883236099615
20
3.97484333142256
30
0
41
1
10
60.8847376618277
20
3.98904710488875
30
0
41
1
10
60.8811739125749
20
4.00136615474696
30
0
0
SPLINE
5
14F
100
AcDbEntity
8
1
62
256
6
ByLayer
370
18
48
1
60
0
100
AcDbSpline
70
4
71
3
72
24
73
20
40
0
40
0
40
0
40
0
40
0.124999999999999
40
0.124999999999999
40
0.187499999999998
40
0.187499999999998
40
0.218749999999998
40
0.218749999999998
40
0.249999999999998
40
0.249999999999998
40
0.374999999999998
40
0.499999999999999
40
0.499999999999999
40
0.624999999999999
40
0.624999999999999
40
0.749999999999999
40
0.749999999999999
40
0.875
40
1
40
1
40
1
40
1
41
1
10
53.6218089767781
20
1.23095682368975
30
0
41
1
10
53.6167273647341
20
1.35719154186813
30
0
41
1
10
53.6116113071561
20
1.48128231478699
30
0
41
1
10
53.6039661192024
20
1.66416670532459
30
0
41
1
10
53.6014217681547
20
1.72458503004515
30
0
41
1
10
53.5976140075789
20
1.8143821155131
30
0
41
1
10
53.5963447098049
20
1.84420976555867
30
0
41
1
10
53.5938220087882
20
1.90327377823607
30
0
41
1
10
53.5925673463479
20
1.93254007644595
30
0
41
1
10
53.5863253135292
20
2.07755674827194
30
0
41
1
10
53.5765462593646
20
2.30119221574981
30
0
41
1
10
53.56693873284
20
2.50835910898499
30
0
41
1
10
53.5571734063334
20
2.7071519683372
30
0
41
1
10
53.5521914312264
20
2.80236126099049
30
0
41
1
10
53.5420180349724
20
2.98405165215598
30
0
41
1
10
53.5369178080981
20
3.06894943116367
30
0
41
1
10
53.5267033693095
20
3.22728444245592
30
0
41
1
10
53.5164753938287
20
3.37415596149819
30
0
41
1
10
53.506229188172
20
3.4982295382822
30
0
41
1
10
53.5010932982107
20
3.55441481799133
30
0
0
SPLINE
5
150
100
AcDbEntity
8
1
62
256
6
ByLayer
370
18
48
1
60
0
100
AcDbSpline
70
4
71
3
72
25
73
21
40
0
40
0
40
0
40
0
40
0.124999999999999
40
0.249999999999998
40
0.249999999999998
40
0.312499999999998
40
0.312499999999998
40
0.374999999999998
40
0.374999999999998
40
0.499999999999998
40
0.499999999999998
40
0.624999999999998
40
0.624999999999998
40
0.687499999999998
40
0.687499999999998
40
0.749999999999998
40
0.749999999999998
40
0.874999999999999
40
0.874999999999999
40
1
40
1
40
1
40
1
41
1
10
58.8540819723164
20
-3.38523374979391
30
0
41
1
10
58.8473291285796
20
-3.30780108978448
30
0
41
1
10
58.833960597313
20
-3.14163598071707
30
0
41
1
10
58.8205418747586
20
-2.9531405476057
30
0
41
1
10
58.810325993426
20
-2.80322823112149
30
0
41
1
10
58.806894929613
20
-2.75182536831775
30
0
41
1
10
58.7999612849609
20
-2.6461268886346
30
0
41
1
10
58.7964855961354
20
-2.5922886935254
30
0
41
1
10
58.786065956662
20
-2.42787167781609
30
0
41
1
10
58.7791413072152
20
-2.31439758271384
30
0
41
1
10
58.765378261706
20
-2.07987580705193
30
0
41
1
10
58.758537124937
20
-1.9588279756214
30
0
41
1
10
58.7482070128754
20
-1.7715141331833
30
0
41
1
10
58.7447546285944
20
-1.70811720944732
30
0
41
1
10
58.7378385028047
20
-1.57937027552924
30
0
41
1
10
58.7343663291139
20
-1.51385544470935
30
0
41
1
10
58.7240361579824
20
-1.31646522006818
30
0
41
1
10
58.7172427378253
20
-1.18325788648525
30
0
41
1
10
58.7036527485067
20
-0.91371563457011
30
0
41
1
10
58.696830222266
20
-0.777381778857176
30
0
41
1
10
58.6900136323487
20
-0.639478548802941
30
0
0
SPLINE
5
151
100
AcDbEntity
8
1
62
256
6
ByLayer
370
18
48
1
60
0
100
AcDbSpline
70
4
71
3
72
29
73
25
40
0
40
0
40
0
40
0
40
0.125000000000001
40
0.125000000000001
40
0.187500000000002
40
0.187500000000002
40
0.218750000000003
40
0.218750000000003
40
0.250000000000004
40
0.250000000000004
40
0.375000000000004
40
0.375000000000004
40
0.500000000000004
40
0.500000000000004
40
0.625000000000004
40
0.625000000000004
40
0.656250000000003
40
0.656250000000003
40
0.687500000000003
40
0.750000000000002
40
0.750000000000002
40
0.875000000000001
40
0.875000000000001
40
1
40
1
40
1
40
1
41
1
10
58.5668233929795
20
-0.517412233573964
30
0
41
1
10
58.5734666870291
20
-0.655658799294997
30
0
41
1
10
58.5800619593422
20
-0.792812433595998
30
0
41
1
10
58.5901096395922
20
-0.996879772950649
30
0
41
1
10
58.5934787365998
20
-1.06462478438573
30
0
41
1
10
58.5985712811605
20
-1.16581907299746
30
0
41
1
10
58.6002752478771
20
-1.19947992970557
30
0
41
1
10
58.6036972696968
20
-1.26665888048854
30
0
41
1
10
58.605417570068
20
-1.30022012646745
30
0
41
1
10
58.6140112255396
20
-1.46678504427916
30
0
41
1
10
58.62088550846
20
-1.59653777737816
30
0
41
1
10
58.6346585122288
20
-1.84927011612089
30
0
41
1
10
58.6415558211039
20
-1.97224917529485
30
0
41
1
10
58.6553890347766
20
-2.2114372922909
30
0
41
1
10
58.662323759572
20
-2.32764694585308
30
0
41
1
10
58.67104529763
20
-2.46854246800177
30
0
41
1
10
58.67279480631
20
-2.4965426483858
30
0
41
1
10
58.6762827933857
20
-2.5518361579629
30
0
41
1
10
58.6815000654561
20
-2.63374784226545
30
0
41
1
10
58.6866750144367
20
-2.71261127495708
30
0
41
1
10
58.6969750768849
20
-2.86634090179953
30
0
41
1
10
58.7037737252623
20
-2.96350810178939
30
0
41
1
10
58.7172981628239
20
-3.14729886555324
30
0
41
1
10
58.7240227593593
20
-3.23392280717042
30
0
41
1
10
58.7307742214538
20
-3.31515231675405
30
0
0
SPLINE
5
152
100
AcDbEntity
8
1
62
256
6
ByLayer
370
18
48
1
60
0
100
AcDbSpline
70
4
71
3
72
10
73
6
40
0
40
0
40
0
40
0
40
0.215826539684289
40
0.810210421554404
40
1
40
1
40
1
40
1
41
1
10
54.5697428049053
20
0.355304510993591
30
0
41
1
10
54.5584248395815
20
0.565646438616596
30
0
41
1
10
54.5157201711738
20
1.35281727427588
30
0
41
1
10
54.4629028652773
20
2.24002724773754
30
0
41
1
10
54.4225446267226
20
2.75913754648386
30
0
41
1
10
54.41282066975
20
2.87389119248573
30
0
0
SPLINE
5
153
100
AcDbEntity
8
1
62
256
6
ByLayer
370
18
48
1
60
0
100
AcDbSpline
70
4
71
3
72
32
73
28
40
0
40
0
40
0
40
0
40
0.0624999999999996
40
0.0937499999999992
40
0.0937499999999992
40
0.124999999999999
40
0.124999999999999
40
0.249999999999999
40
0.249999999999999
40
0.374999999999999
40
0.374999999999999
40
0.499999999999998
40
0.499999999999998
40
0.531249999999999
40
0.531249999999999
40
0.562499999999999
40
0.624999999999999
40
0.624999999999999
40
0.75
40
0.75
40
0.875
40
0.875
40
0.90625
40
0.90625
40
0.9375
40
0.9375
40
1
40
1
40
1
40
1
41
1
10
54.6221110614665
20
3.04287228195148
30
0
41
1
10
54.6255083878276
20
2.99665538749409
30
0
41
1
10
54.6306396927426
20
2.92517639208333
30
0
41
1
10
54.6358457500338
20
2.85041467316182
30
0
41
1
10
54.6393354356545
20
2.7998353196891
30
0
41
1
10
54.6410914626777
20
2.77415117311196
30
0
41
1
10
54.6498748688041
20
2.64460402104297
30
0
41
1
10
54.6569439747574
20
2.53688156217257
30
0
41
1
10
54.6709400033749
20
2.31351693813255
30
0
41
1
10
54.6778679900536
20
2.19787403880824
30
0
41
1
10
54.6915498039543
20
1.95866562503733
30
0
41
1
10
54.6983037455254
20
1.83510070855897
30
0
41
1
10
54.7067246392234
20
1.67553695842872
30
0
41
1
10
54.7084104513121
20
1.64332387565656
30
0
41
1
10
54.7117674423288
20
1.57871287492622
30
0
41
1
10
54.7167847379856
20
1.48145232993059
30
0
41
1
10
54.7217673828398
20
1.38317293705006
30
0
41
1
10
54.7317500410557
20
1.18528084519033
30
0
41
1
10
54.7384602613716
20
1.05157996742113
30
0
41
1
10
54.7521555279752
20
0.780672580724001
30
0
41
1
10
54.7590857274561
20
0.643463645581789
30
0
41
1
10
54.7677718179792
20
0.469703921470796
30
0
41
1
10
54.7695106931424
20
0.434839285402433
30
0
41
1
10
54.7729917877404
20
0.364882183180498
30
0
41
1
10
54.7747365698354
20
0.329737890042651
30
0
41
1
10
54.7799547834454
20
0.22441391500783
30
0
41
1
10
54.7834111482497
20
0.154359524862372
30
0
41
1
10
54.7868534400599
20
0.0844637675916431
30
0
0
SPLINE
5
154
100
AcDbEntity
8
1
62
256
6
ByLayer
370
18
48
1
60
0
100
AcDbSpline
70
4
71
3
72
29
73
25
40
0
40
0
40
0
40
0
40
0.125000000000003
40
0.125000000000003
40
0.250000000000005
40
0.250000000000005
40
0.281250000000005
40
0.281250000000005
40
0.312500000000006
40
0.375000000000005
40
0.375000000000005
40
0.500000000000005
40
0.500000000000005
40
0.625000000000004
40
0.625000000000004
40
0.656250000000004
40
0.656250000000004
40
0.687500000000004
40
0.687500000000004
40
0.750000000000003
40
0.750000000000003
40
0.875000000000002
40
0.875000000000002
40
1
40
1
40
1
40
1
41
1
10
56.2251329967508
20
-1.33490441744229
30
0
41
1
10
56.2183883435898
20
-1.20327620967717
30
0
41
1
10
56.2116625162108
20
-1.06960958078696
30
0
41
1
10
56.1981003303645
20
-0.798199748042663
30
0
41
1
10
56.1912635218322
20
-0.660456952335124
30
0
41
1
10
56.1825527553519
20
-0.485648437318929
30
0
41
1
10
56.1808020782594
20
-0.450555118055519
30
0
41
1
10
56.1773043741064
20
-0.380517300358321
30
0
41
1
10
56.1720568219751
20
-0.275528725466444
30
0
41
1
10
56.1668237045315
20
-0.170741373159871
30
0
41
1
10
56.1564007145761
20
0.038570373215606
30
0
41
1
10
56.1495161876991
20
0.177761933444373
30
0
41
1
10
56.135832907493
20
0.455448550091916
30
0
41
1
10
56.1290077246982
20
0.593942336609587
30
0
41
1
10
56.1204826778576
20
0.766610885602518
30
0
41
1
10
56.1187786605039
20
0.801122136624656
30
0
41
1
10
56.1153720198718
20
0.870099176812545
30
0
41
1
10
56.1136682981509
20
0.904587142685386
30
0
41
1
10
56.1085861453442
20
1.00738407677832
30
0
41
1
10
56.105227787784
20
1.07521823295016
30
0
41
1
10
56.0951989564184
20
1.27666852332521
30
0
41
1
10
56.0885682128169
20
1.40823744225119
30
0
41
1
10
56.0750845127465
20
1.66598239972259
30
0
41
1
10
56.0682582086995
20
1.79215975258322
30
0
41
1
10
56.06134536936
20
1.91559832143125
30
0
0
SPLINE
5
155
100
AcDbEntity
8
1
62
256
6
ByLayer
370
13
48
1
60
0
100
AcDbSpline
70
4
71
3
72
10
73
6
40
0
40
0
40
0
40
0
40
0.582738965094055
40
0.876093313583305
40
1
40
1
40
1
40
1
41
1
10
57.1990266620488
20
-1.95378695799843
30
0
41
1
10
57.1692689011772
20
-1.48060209858644
30
0
41
1
10
57.1241480247791
20
-0.665598103477691
30
0
41
1
10
57.0708159784242
20
0.336904680243151
30
0
41
1
10
57.0485314937953
20
0.747156658965707
30
0
41
1
10
57.0419253067964
20
0.86735031886812
30
0
0
SPLINE
5
156
100
AcDbEntity
8
1
62
256
6
ByLayer
370
18
48
1
60
0
100
AcDbSpline
70
4
71
3
72
28
73
24
40
0
40
0
40
0
40
0
40
0.0312499999999998
40
0.0312499999999998
40
0.0624999999999996
40
0.0624999999999996
40
0.125
40
0.125
40
0.25
40
0.25
40
0.374999999999999
40
0.374999999999999
40
0.437499999999999
40
0.437499999999999
40
0.499999999999999
40
0.499999999999999
40
0.624999999999999
40
0.624999999999999
40
0.749999999999999
40
0.749999999999999
40
0.875
40
0.875
40
1
40
1
40
1
40
1
41
1
10
57.2518855389835
20
0.796251084552068
30
0
41
1
10
57.2536044850645
20
0.76188469387165
30
0
41
1
10
57.2553227947847
20
0.727375266976395
30
0
41
1
10
57.2587616725173
20
0.658067494184905
30
0
41
1
10
57.2604841726202
20
0.623229928711254
30
0
41
1
10
57.2656486370562
20
0.518554322520288
30
0
41
1
10
57.269077977619
20
0.448805604485386
30
0
41
1
10
57.2793170719609
20
0.239661824248174
30
0
41
1
10
57.2860691506551
20
0.100368435222066
30
0
41
1
10
57.2995135454931
20
-0.177947627606443
30
0
41
1
10
57.3062084992894
20
-0.316970164897668
30
0
41
1
10
57.316426712975
20
-0.525287502947549
30
0
41
1
10
57.3198590669981
20
-0.594690618184387
30
0
41
1
10
57.3267754570712
20
-0.733423603180341
30
0
41
1
10
57.33026590258
20
-0.802877867922746
30
0
41
1
10
57.3406937798555
20
-1.0087822237513
30
0
41
1
10
57.3476219384088
20
-1.14348732647227
30
0
41
1
10
57.3614243965202
20
-1.40790896055643
30
0
41
1
10
57.3682980545997
20
-1.53762520028934
30
0
41
1
10
57.3820136923455
20
-1.79204606103715
30
0
41
1
10
57.3888549967851
20
-1.91675124884952
30
0
41
1
10
57.4025772097687
20
-2.16096181440381
30
0
41
1
10
57.4093387785805
20
-2.27833557904793
30
0
41
1
10
57.4160658781353
20
-2.39110483785697
30
0
0
SPLINE
5
157
100
AcDbEntity
8
1
62
256
6
ByLayer
370
18
48
1
60
0
100
AcDbSpline
70
4
71
3
72
31
73
27
40
0
40
0
40
0
40
0
40
0.0625
40
0.0625
40
0.0937499999999999
40
0.0937499999999999
40
0.125
40
0.125
40
0.25
40
0.375000000000001
40
0.375000000000001
40
0.437500000000001
40
0.437500000000001
40
0.468750000000001
40
0.468750000000001
40
0.500000000000001
40
0.500000000000001
40
0.625000000000001
40
0.625000000000001
40
0.750000000000001
40
0.875000000000001
40
0.875000000000001
40
0.906250000000001
40
0.906250000000001
40
0.937500000000001
40
1
40
1
40
1
40
1
41
1
10
57.5398817069492
20
-2.49052634806614
30
0
41
1
10
57.536506561608
20
-2.43526756722253
30
0
41
1
10
57.5331256631971
20
-2.37875892136248
30
0
41
1
10
57.5280340298456
20
-2.29208404006462
30
0
41
1
10
57.526330990904
20
-2.26283121811355
30
0
41
1
10
57.5229327172432
20
-2.20397183739311
30
0
41
1
10
57.5212366275704
20
-2.17435158699237
30
0
41
1
10
57.5127659612732
20
-2.025308553087
30
0
41
1
10
57.4992748853485
20
-1.7808279061571
30
0
41
1
10
57.4856409941429
20
-1.52463247391503
30
0
41
1
10
57.4752873307948
20
-1.32806698615482
30
0
41
1
10
57.4718150612452
20
-1.26180722475735
30
0
41
1
10
57.4665695916515
20
-1.16129386767687
30
0
41
1
10
57.4648149554027
20
-1.12760203178897
30
0
41
1
10
57.4612928902926
20
-1.05983956765556
30
0
41
1
10
57.4595228647766
20
-1.02571875563748
30
0
41
1
10
57.4506770272178
20
-0.854865434749399
30
0
41
1
10
57.4436019219589
20
-0.717550627065293
30
0
41
1
10
57.4296304586673
20
-0.441690413375454
30
0
41
1
10
57.4159500876792
20
-0.164593819363205
30
0
41
1
10
57.4028760879872
20
0.114972526383554
30
0
41
1
10
57.3944972667833
20
0.29047692495331
30
0
41
1
10
57.3928087320011
20
0.325661347914973
30
0
41
1
10
57.3894215678758
20
0.395889343391019
30
0
41
1
10
57.3843323640607
20
0.500882682294076
30
0
41
1
10
57.3792219025339
20
0.604843386649264
30
0
41
1
10
57.3758087611191
20
0.673699677293655
30
0
0
SPLINE
5
158
100
AcDbEntity
8
1
62
256
6
ByLayer
370
18
48
1
60
0
100
AcDbSpline
70
4
71
3
72
10
73
6
40
0
40
0
40
0
40
0
40
0.321623210577182
40
0.910174101933026
40
1
40
1
40
1
40
1
41
1
10
58.5136247496047
20
-2.85955430943116
30
0
41
1
10
58.4977139665314
20
-2.6697652723239
30
0
41
1
10
58.4520498756279
20
-2.04821886636188
30
0
41
1
10
58.3995955006467
20
-1.12993094356773
30
0
41
1
10
58.3615528667182
20
-0.424199292810186
30
0
41
1
10
58.3564944735788
20
-0.330024574186723
30
0
0
SPLINE
5
159
100
AcDbEntity
8
1
62
256
6
ByLayer
370
18
48
1
60
0
100
AcDbSpline
70
4
71
3
72
10
73
6
40
0
40
0
40
0
40
0
40
0.406517599024064
40
0.406517599024064
40
1
40
1
40
1
40
1
41
1
10
52.8673879914837
20
-3.58528994867021
30
0
41
1
10
52.7928301343151
20
-3.54210672118737
30
0
41
1
10
52.7177536540885
20
-3.49614312091691
30
0
41
1
10
52.5315523466581
20
-3.37630989071039
30
0
41
1
10
52.4197165248737
20
-3.29931806882172
30
0
41
1
10
52.3060780818729
20
-3.2163844243733
30
0
0
SPLINE
5
15A
100
AcDbEntity
8
1
62
256
6
ByLayer
370
18
48
1
60
0
100
AcDbSpline
70
4
71
3
72
12
73
8
40
0
40
0
40
0
40
0
40
0.25
40
0.25
40
0.5
40
0.5
40
1
40
1
40
1
40
1
41
1
10
52.3060780818729
20
-3.2163844243733
30
0
41
1
10
52.264652546541
20
-3.18615195613819
30
0
41
1
10
52.2220657681513
20
-3.15814531670719
30
0
41
1
10
52.1345229926763
20
-3.10644423979838
30
0
41
1
10
52.0894986940643
20
-3.08275799950525
30
0
41
1
10
51.9513227034411
20
-3.01850483437622
30
0
41
1
10
51.8551189725007
20
-2.98467107525531
30
0
41
1
10
51.7560780818729
20
-2.96105243567052
30
0
0
SPLINE
5
15B
100
AcDbEntity
8
1
62
256
6
ByLayer
370
18
48
1
60
0
100
AcDbSpline
70
4
71
3
72
74
73
70
40
0
40
0
40
0
40
0
40
0.0312500000000064
40
0.0312500000000064
40
0.0468750000000084
40
0.0468750000000084
40
0.0625000000000105
40
0.125000000000019
40
0.125000000000019
40
0.156250000000024
40
0.156250000000024
40
0.187500000000029
40
0.187500000000029
40
0.203125000000032
40
0.203125000000032
40
0.218750000000034
40
0.218750000000034
40
0.25000000000004
40
0.25000000000004
40
0.281250000000045
40
0.281250000000045
40
0.31250000000005
40
0.31250000000005
40
0.343750000000056
40
0.343750000000056
40
0.375000000000061
40
0.375000000000061
40
0.406250000000066
40
0.406250000000066
40
0.414062500000068
40
0.414062500000068
40
0.42187500000007
40
0.437500000000072
40
0.437500000000072
40
0.468750000000072
40
0.468750000000072
40
0.500000000000073
40
0.500000000000073
40
0.562500000000076
40
0.562500000000076
40
0.593750000000077
40
0.593750000000077
40
0.609375000000076
40
0.609375000000076
40
0.625000000000075
40
0.625000000000075
40
0.687500000000067
40
0.687500000000067
40
0.750000000000059
40
0.750000000000059
40
0.781250000000054
40
0.781250000000054
40
0.81250000000005
40
0.81250000000005
40
0.820312500000048
40
0.820312500000048
40
0.828125000000046
40
0.828125000000046
40
0.843750000000041
40
0.843750000000041
40
0.875000000000035
40
0.875000000000035
40
0.890625000000031
40
0.890625000000031
40
0.906250000000026
40
0.906250000000026
40
0.937500000000017
40
0.937500000000017
40
1
40
1
40
1
40
1
41
1
10
51.7560780818729
20
-2.96105243567055
30
0
41
1
10
51.6412454940076
20
-2.93366789290053
30
0
41
1
10
51.5268989572809
20
-2.90281855499978
30
0
41
1
10
51.3556991868174
20
-2.85167764086958
30
0
41
1
10
51.2986661797706
20
-2.83383171552839
30
0
41
1
10
51.1847804287425
20
-2.79649656875338
30
0
41
1
10
50.9005223287118
20
-2.69904183123853
30
0
41
1
10
50.617889285454
20
-2.58141912795196
30
0
41
1
10
50.2780404292413
20
-2.42248225932511
30
0
41
1
10
50.1646443584322
20
-2.36653748429114
30
0
41
1
10
49.9372117866268
20
-2.24902835784502
30
0
41
1
10
49.8231518510534
20
-2.1874873029459
30
0
41
1
10
49.6513452099911
20
-2.09113757047075
30
0
41
1
10
49.5939986758474
20
-2.058306258339
30
0
41
1
10
49.4791014841351
20
-1.99123825879499
30
0
41
1
10
49.421678082107
20
-1.95708247793965
30
0
41
1
10
49.2499267525867
20
-1.8531345574182
30
0
41
1
10
49.1359076851004
20
-1.78173799596033
30
0
41
1
10
48.9084712293894
20
-1.6351914283556
30
0
41
1
10
48.7950552767801
20
-1.56003954017123
30
0
41
1
10
48.568438241505
20
-1.40645365863216
30
0
41
1
10
48.4552542148173
20
-1.32799874586547
30
0
41
1
10
48.2286016087571
20
-1.1684216975402
30
0
41
1
10
48.115107375852
20
-1.0873363518686
30
0
41
1
10
47.8880239234198
20
-0.922264842192732
30
0
41
1
10
47.7743879929834
20
-0.838332623847634
30
0
41
1
10
47.5465628087089
20
-0.668084865867002
30
0
41
1
10
47.4323744011578
20
-0.581768168640309
30
0
41
1
10
47.2890522716345
20
-0.472655135067811
30
0
41
1
10
47.2603374809673
20
-0.450756082793674
30
0
41
1
10
47.2029753664086
20
-0.40694700410188
30
0
41
1
10
47.1170219588111
20
-0.341208480613972
30
0
41
1
10
47.0313060919206
20
-0.275436294101837
30
0
41
1
10
46.8601035879672
20
-0.14395991504864
30
0
41
1
10
46.7462354686751
20
-0.056451266182961
30
0
41
1
10
46.5187860017833
20
0.117974883211474
30
0
41
1
10
46.4053190687692
20
0.205044148180008
30
0
41
1
10
46.0653586216322
20
0.465383886654735
30
0
41
1
10
45.8391978564051
20
0.63764374457412
30
0
41
1
10
45.4985367404959
20
0.891271944415877
30
0
41
1
10
45.3847605890628
20
0.975038875117804
30
0
41
1
10
45.2133543719523
20
1.09899656531172
30
0
41
1
10
45.1560774520586
20
1.14001129071119
30
0
41
1
10
45.0412878028715
20
1.22148973917652
30
0
41
1
10
44.9837147957102
20
1.26199795471453
30
0
41
1
10
44.6968300197539
20
1.46206291543797
30
0
41
1
10
44.4694688268131
20
1.61494838243161
30
0
41
1
10
44.0160793298454
20
1.90340194887392
30
0
41
1
10
43.790051640487
20
2.03895678870563
30
0
41
1
10
43.4494030885211
20
2.22677577848921
30
0
41
1
10
43.3357392025605
20
2.28694835412475
30
0
41
1
10
43.1079983055329
20
2.40218046079261
30
0
41
1
10
42.9938902427996
20
2.45721085428602
30
0
41
1
10
42.8507353589872
20
2.52250909473278
30
0
41
1
10
42.8220783204018
20
2.53539417792609
30
0
41
1
10
42.7647062711232
20
2.56080847631333
30
0
41
1
10
42.7359871019696
20
2.5733391348715
30
0
41
1
10
42.6499836338294
20
2.61028022928775
30
0
41
1
10
42.5927702660463
20
2.63407693626789
30
0
41
1
10
42.4214184562088
20
2.70294920144525
30
0
41
1
10
42.3075738127798
20
2.74550962550467
30
0
41
1
10
42.137055813911
20
2.80421182000657
30
0
41
1
10
42.0802558901036
20
2.82292174196226
30
0
41
1
10
41.9666703969882
20
2.85860848937054
30
0
41
1
10
41.9098924508961
20
2.87559083902062
30
0
41
1
10
41.7397472682776
20
2.9240352696109
30
0
41
1
10
41.6265017539338
20
2.95295621070088
30
0
41
1
10
41.2867178595827
20
3.02928188977884
30
0
41
1
10
41.0601579442841
20
3.06625635121483
30
0
41
1
10
40.8320363835762
20
3.08858998552307
30
0
0
SPLINE
5
15C
100
AcDbEntity
8
1
62
256
6
ByLayer
370
18
48
1
60
0
100
AcDbSpline
70
4
71
3
72
96
73
92
40
0
40
0
40
0
40
0
40
0.0177708275326968
40
0.0177708275326968
40
0.0355416550653937
40
0.0355416550653937
40
0.0710833101307896
40
0.0710833101307896
40
0.0888541376634887
40
0.0888541376634887
40
0.106624965196188
40
0.106624965196188
40
0.142166620261586
40
0.142166620261586
40
0.159937447794286
40
0.159937447794286
40
0.177708275326986
40
0.177708275326986
40
0.213249930392387
40
0.213249930392387
40
0.248791585457787
40
0.248791585457787
40
0.266562412990488
40
0.266562412990488
40
0.27544782675684
40
0.27544782675684
40
0.284333240523192
40
0.284333240523192
40
0.302104068055898
40
0.302104068055898
40
0.319874895588603
40
0.319874895588603
40
0.355416550654013
40
0.355416550654013
40
0.390958205719422
40
0.390958205719422
40
0.426499860784832
40
0.426499860784832
40
0.444270688317536
40
0.444270688317536
40
0.462041515850241
40
0.462041515850241
40
0.470926929616593
40
0.470926929616593
40
0.479812343382946
40
0.49758317091565
40
0.49758317091565
40
0.53312482598106
40
0.53312482598106
40
0.550895653513766
40
0.550895653513766
40
0.568666481046472
40
0.568666481046472
40
0.586437308579178
40
0.586437308579178
40
0.604208136111884
40
0.604208136111884
40
0.639749791177295
40
0.639749791177295
40
0.657520618710001
40
0.657520618710001
40
0.666406032476354
40
0.666406032476354
40
0.675291446242707
40
0.675291446242707
40
0.693062273775411
40
0.693062273775411
40
0.710833101308114
40
0.710833101308114
40
0.746374756373522
40
0.746374756373522
40
0.781916411438929
40
0.781916411438929
40
0.817458066504336
40
0.817458066504336
40
0.852999721569743
40
0.852999721569743
40
0.861885135336096
40
0.861885135336096
40
0.870770549102448
40
0.888541376635153
40
0.888541376635153
40
0.924083031700564
40
0.924083031700564
40
0.959624686765976
40
0.959624686765976
40
0.977395514298683
40
0.977395514298683
40
0.99516634183139
40
0.99516634183139
40
1
40
1
40
1
40
1
41
1
10
38.5398870917177
20
1.70990220459797
30
0
41
1
10
38.6091741520187
20
1.6654438951995
30
0
41
1
10
38.678360048588
20
1.62023118974125
30
0
41
1
10
38.8165557461532
20
1.5283212627196
30
0
41
1
10
38.8855192793174
20
1.4815699525104
30
0
41
1
10
39.0926061187637
20
1.33960613225131
30
0
41
1
10
39.2310121747627
20
1.24279562295317
30
0
41
1
10
39.4392664874566
20
1.09451095072066
30
0
41
1
10
39.5088459847893
20
1.04452657435576
30
0
41
1
10
39.6475104381891
20
0.944017943172412
30
0
41
1
10
39.7166760156383
20
0.893442927725545
30
0
41
1
10
39.9237513908198
20
0.740860984356573
30
0
41
1
10
40.0612516960186
20
0.638013134801867
30
0
41
1
10
40.2668439038107
20
0.482273237465279
30
0
41
1
10
40.3352619284186
20
0.43011122497569
30
0
41
1
10
40.4718682968236
20
0.325282934103342
30
0
41
1
10
40.5401008777609
20
0.27267436137609
30
0
41
1
10
40.7451558050926
20
0.115015257673718
30
0
41
1
10
40.8821192192408
20
0.0098484691851581
30
0
41
1
10
41.1567618428268
20
-0.200342897529936
30
0
41
1
10
41.2944198052605
20
-0.305395838431707
30
0
41
1
10
41.5016507943638
20
-0.462602808562622
30
0
41
1
10
41.5708505808902
20
-0.514944766491055
30
0
41
1
10
41.6748490529263
20
-0.593350227103031
30
0
41
1
10
41.7095781660904
20
-0.619490102738297
30
0
41
1
10
41.7789376247999
20
-0.671608635772458
30
0
41
1
10
41.8135596746569
20
-0.697581161420743
30
0
41
1
10
41.917252699983
20
-0.775239923218436
30
0
41
1
10
41.9861035563009
20
-0.826727916885204
30
0
41
1
10
42.1235919274492
20
-0.928694624426242
30
0
41
1
10
42.1922931950106
20
-0.979092815396825
30
0
41
1
10
42.3983308216521
20
-1.1284925298194
30
0
41
1
10
42.5355452078252
20
-1.22577443795373
30
0
41
1
10
42.8097394234968
20
-1.41572827656128
30
0
41
1
10
42.9467526343726
20
-1.50835818040892
30
0
41
1
10
43.2208550276145
20
-1.68861961830669
30
0
41
1
10
43.3579279654656
20
-1.77627023629756
30
0
41
1
10
43.5637293990519
20
-1.90374620703665
30
0
41
1
10
43.6323683616326
20
-1.94556159767564
30
0
41
1
10
43.7701493946544
20
-2.02738105968703
30
0
41
1
10
43.8392554626835
20
-2.06742472079819
30
0
41
1
10
43.9432503712453
20
-2.12617499290835
30
0
41
1
10
43.9780014163245
20
-2.14555579684819
30
0
41
1
10
44.0474240413917
20
-2.18377292718836
30
0
41
1
10
44.1514505761077
20
-2.24029211218652
30
0
41
1
10
44.255159191405
20
-2.29441348789487
30
0
41
1
10
44.46219995363
20
-2.39946321464325
30
0
41
1
10
44.5997111384282
20
-2.46525707578908
30
0
41
1
10
44.8053821801512
20
-2.55750142753743
30
0
41
1
10
44.8738403475377
20
-2.58717355743133
30
0
41
1
10
45.0105708749581
20
-2.64434670960631
30
0
41
1
10
45.0788351084807
20
-2.67185147995409
30
0
41
1
10
45.215389980197
20
-2.72453018979363
30
0
41
1
10
45.2837000131656
20
-2.7496909530457
30
0
41
1
10
45.420653609057
20
-2.79750812425769
30
0
41
1
10
45.489233533373
20
-2.82020584865512
30
0
41
1
10
45.6952122672072
20
-2.88470893715669
30
0
41
1
10
45.8329110772785
20
-2.92289348448497
30
0
41
1
10
46.0402249878386
20
-2.9727360861946
30
0
41
1
10
46.1094569712674
20
-2.98810999672685
30
0
41
1
10
46.2135230191598
20
-3.00927033514742
30
0
41
1
10
46.2482735850728
20
-3.01601132399054
30
0
41
1
10
46.3176290132761
20
-3.02881264039823
30
0
41
1
10
46.3522533876749
20
-3.03487740007157
30
0
41
1
10
46.4559694548996
20
-3.05206701168237
30
0
41
1
10
46.524897296503
20
-3.06218946976287
30
0
41
1
10
46.6623585124647
20
-3.07975612604011
30
0
41
1
10
46.7309143787353
20
-3.08719160592457
30
0
41
1
10
46.9366025918428
20
-3.10540514363922
30
0
41
1
10
47.0737034225897
20
-3.11212581568452
30
0
41
1
10
47.3478474564187
20
-3.11499263106219
30
0
41
1
10
47.4849292635042
20
-3.11113596603013
30
0
41
1
10
47.7591726842084
20
-3.09282483303912
30
0
41
1
10
47.8963634336067
20
-3.07837026546022
30
0
41
1
10
48.1711294212982
20
-3.03863966867098
30
0
41
1
10
48.308565561027
20
-3.01328122757215
30
0
41
1
10
48.4818667740725
20
-2.97504364995018
30
0
41
1
10
48.5166089363555
20
-2.96706120367244
30
0
41
1
10
48.5859672171416
20
-2.95048481335255
30
0
41
1
10
48.6898956123356
20
-2.92468873773802
30
0
41
1
10
48.7935303578462
20
-2.89613830108149
30
0
41
1
10
49.0004677020774
20
-2.83544469903487
30
0
41
1
10
49.1379734435355
20
-2.7901926538635
30
0
41
1
10
49.4123242608592
20
-2.6903605182695
30
0
41
1
10
49.5491826903021
20
-2.63579151167983
30
0
41
1
10
49.7540590483396
20
-2.54692700662741
30
0
41
1
10
49.8222801746716
20
-2.51612917337454
30
0
41
1
10
49.9590376823659
20
-2.45253362736466
30
0
41
1
10
50.0275236139732
20
-2.41969981686955
30
0
41
1
10
50.1147830230204
20
-2.37662885677756
30
0
41
1
10
50.1334511109118
20
-2.36734319255655
30
0
41
1
10
50.1521283401143
20
-2.35798212570532
30
0
0
SPLINE
5
15D
100
AcDbEntity
8
1
62
256
6
ByLayer
370
18
48
1
60
0
100
AcDbSpline
70
4
71
3
72
8
73
4
40
0
40
0
40
0
40
0
40
1
40
1
40
1
40
1
41
1
10
60.8811739125825
20
4.00136615474682
30
0
41
1
10
60.8398957136583
20
4.00864464783351
30
0
41
1
10
60.798630496009
20
4.01530600721344
30
0
41
1
10
60.7573728351687
20
4.02134353158038
30
0
0
SPLINE
5
15E
100
AcDbEntity
8
1
62
256
6
ByLayer
370
18
48
1
60
0
100
AcDbSpline
70
4
71
3
72
8
73
4
40
0
40
0
40
0
40
0
40
1
40
1
40
1
40
1
41
1
10
63.5102698527226
20
2.75852326695122
30
0
41
1
10
63.4688061631003
20
2.78913222738817
30
0
41
1
10
63.427343929278
20
2.81925938895429
30
0
41
1
10
63.3858810585291
20
2.84890700871776
30
0
0
SPLINE
5
15F
100
AcDbEntity
8
1
62
256
6
ByLayer
370
18
48
1
60
0
100
AcDbSpline
70
4
71
3
72
27
73
23
40
0
40
0
40
0
40
0
40
0.125
40
0.125
40
0.249999999999999
40
0.249999999999999
40
0.312499999999999
40
0.312499999999999
40
0.374999999999999
40
0.374999999999999
40
0.499999999999999
40
0.499999999999999
40
0.625
40
0.625
40
0.75
40
0.75
40
0.78125
40
0.78125
40
0.8125
40
0.875
40
0.875
40
1
40
1
40
1
40
1
41
1
10
63.3858810585291
20
2.84890700871779
30
0
41
1
10
63.3928402633638
20
2.74870049955729
30
0
41
1
10
63.3999386206087
20
2.6440166983671
30
0
41
1
10
63.4140414457152
20
2.42586262085288
30
0
41
1
10
63.4210253398901
20
2.31239116754767
30
0
41
1
10
63.4313603099624
20
2.13551273467445
30
0
41
1
10
63.4347852554089
20
2.0754393284148
30
0
41
1
10
63.4416331091461
20
1.9530258432751
30
0
41
1
10
63.4450670911204
20
1.89052338072813
30
0
41
1
10
63.4552946733491
20
1.70158529007983
30
0
41
1
10
63.4620407593652
20
1.57328524368091
30
0
41
1
10
63.4755163997229
20
1.31214148843628
30
0
41
1
10
63.4822450546584
20
1.1792974325038
30
0
41
1
10
63.4957793932203
20
0.90905506762374
30
0
41
1
10
63.5025843681455
20
0.77165720438876
30
0
41
1
10
63.511191871867
20
0.596963899301386
30
0
41
1
10
63.5129143796135
20
0.561959996692195
30
0
41
1
10
63.516352356365
20
0.49203184392681
30
0
41
1
10
63.5215035548876
20
0.387161802854337
30
0
41
1
10
63.5266431766859
20
0.282357857191585
30
0
41
1
10
63.536921850676
20
0.0728375296177717
30
0
41
1
10
63.5437733381708
20
-0.0667261751135868
30
0
41
1
10
63.5506641762776
20
-0.206171984860902
30
0
0
SPLINE
5
160
100
AcDbEntity
8
1
62
256
6
ByLayer
370
18
48
1
60
0
100
AcDbSpline
70
4
71
3
72
8
73
4
40
0
40
0
40
0
40
0
40
1
40
1
40
1
40
1
41
1
10
60.0452657655112
20
-3.89220390951331
30
0
41
1
10
60.0864681865969
20
-3.90411488742612
30
0
41
1
10
60.1276732014446
20
-3.91542083335585
30
0
41
1
10
60.1688903157419
20
-3.92611867476009
30
0
0
SPLINE
5
161
100
AcDbEntity
8
1
62
256
6
ByLayer
370
18
48
1
60
0
100
AcDbSpline
70
4
71
3
72
50
73
46
40
0
40
0
40
0
40
0
40
0.125000000000007
40
0.125000000000007
40
0.250000000000013
40
0.250000000000013
40
0.281250000000007
40
0.281250000000007
40
0.296875000000009
40
0.296875000000009
40
0.312500000000011
40
0.312500000000011
40
0.343750000000003
40
0.343750000000003
40
0.359375000000005
40
0.359375000000005
40
0.375000000000008
40
0.375000000000008
40
0.406250000000012
40
0.406250000000012
40
0.437500000000017
40
0.437500000000017
40
0.453125000000019
40
0.453125000000019
40
0.468750000000022
40
0.468750000000022
40
0.500000000000026
40
0.500000000000026
40
0.515625000000029
40
0.515625000000029
40
0.531250000000031
40
0.531250000000031
40
0.539062500000025
40
0.539062500000025
40
0.54687500000002
40
0.54687500000002
40
0.56250000000002
40
0.56250000000002
40
0.625000000000022
40
0.625000000000022
40
0.750000000000014
40
0.750000000000014
40
0.875000000000007
40
0.875000000000007
40
1
40
1
40
1
40
1
41
1
10
59.8282824311373
20
-3.4662257559539
30
0
41
1
10
59.7961925518601
20
-3.4025782919129
30
0
41
1
10
59.7639326648667
20
-3.33865124944279
30
0
41
1
10
59.6993816120562
20
-3.2099576416843
30
0
41
1
10
59.6671795626243
20
-3.14511796539574
30
0
41
1
10
59.6262143034738
20
-3.06410397704138
30
0
41
1
10
59.6179836750072
20
-3.04790449922132
30
0
41
1
10
59.6055581168937
20
-3.02362900564904
30
0
41
1
10
59.6014194339543
20
-3.01552754519156
30
0
41
1
10
59.5926191267928
20
-2.99974360783233
30
0
41
1
10
59.5879102334024
20
-2.9921002346897
30
0
41
1
10
59.5727606801738
20
-2.96999489459068
30
0
41
1
10
59.5614865646623
20
-2.95620056341821
30
0
41
1
10
59.54295731518
20
-2.93680497538753
30
0
41
1
10
59.53646454226
20
-2.9305554611974
30
0
41
1
10
59.5232619650032
20
-2.91883917249874
30
0
41
1
10
59.5165170668988
20
-2.91332113563419
30
0
41
1
10
59.4958904901159
20
-2.89770318191467
30
0
41
1
10
59.4816254825416
20
-2.88851666132368
30
0
41
1
10
59.4520291747931
20
-2.8727807570628
30
0
41
1
10
59.4369977656966
20
-2.86641894069607
30
0
41
1
10
59.4142490170512
20
-2.85963492656435
30
0
41
1
10
59.4066259193092
20
-2.85781613660808
30
0
41
1
10
59.3913058828401
20
-2.85507679943024
30
0
41
1
10
59.3835707997179
20
-2.85415387632298
30
0
41
1
10
59.3605475488608
20
-2.85286793814828
30
0
41
1
10
59.345539251715
20
-2.85388204388528
30
0
41
1
10
59.3237764987357
20
-2.85927888539268
30
0
41
1
10
59.3166782001819
20
-2.86177234585804
30
0
41
1
10
59.3033223100776
20
-2.86826272356012
30
0
41
1
10
59.2970054857901
20
-2.87226861037874
30
0
41
1
10
59.2881593614345
20
-2.87960066156629
30
0
41
1
10
59.2853139657305
20
-2.8822796742291
30
0
41
1
10
59.2798873995279
20
-2.88790618312416
30
0
41
1
10
59.2772915463339
20
-2.89086290729892
30
0
41
1
10
59.2697151695189
20
-2.89998447198198
30
0
41
1
10
59.2649193641034
20
-2.90636714960769
30
0
41
1
10
59.2406346872976
20
-2.93777690857255
30
0
41
1
10
59.2211818484126
20
-2.96250531819598
30
0
41
1
10
59.1627921915557
20
-3.03556346251401
30
0
41
1
10
59.1238494516296
20
-3.08273932261295
30
0
41
1
10
59.0462769343072
20
-3.1740322618617
30
0
41
1
10
59.0076185800671
20
-3.21819159101378
30
0
41
1
10
58.9305654576465
20
-3.30367257156928
30
0
41
1
10
58.8921374370324
20
-3.34494740538722
30
0
41
1
10
58.8540819723164
20
-3.38523374979394
30
0
0
SPLINE
5
162
100
AcDbEntity
8
1
62
256
6
ByLayer
370
18
48
1
60
0
100
AcDbSpline
70
4
71
3
72
8
73
4
40
0
40
0
40
0
40
0
40
1
40
1
40
1
40
1
41
1
10
58.7307742214537
20
-3.31515231675405
30
0
41
1
10
58.771872743304
20
-3.33902614547228
30
0
41
1
10
58.8129724132896
20
-3.36238845092183
30
0
41
1
10
58.8540819723164
20
-3.38523374979391
30
0
0
SPLINE
5
163
100
AcDbEntity
8
1
62
256
6
ByLayer
370
18
48
1
60
0
100
AcDbSpline
70
4
71
3
72
10
73
6
40
0
40
0
40
0
40
0
40
0.5
40
0.5
40
1
40
1
40
1
40
1
41
1
10
58.7307742214538
20
-3.31515231675408
30
0
41
1
10
58.6945152817825
20
-3.23944950556032
30
0
41
1
10
58.6584111973735
20
-3.16348425576984
30
0
41
1
10
58.5861772099948
20
-3.01152314882421
30
0
41
1
10
58.5500334520453
20
-2.93549979641841
30
0
41
1
10
58.513624749605
20
-2.85955430943346
30
0
0
SPLINE
5
164
100
AcDbEntity
8
1
62
256
6
ByLayer
370
18
48
1
60
0
100
AcDbSpline
70
4
71
3
72
48
73
44
40
0
40
0
40
0
40
0
40
0.125000000000057
40
0.125000000000057
40
0.250000000000113
40
0.250000000000113
40
0.281250000000122
40
0.281250000000122
40
0.296875000000121
40
0.296875000000121
40
0.31250000000012
40
0.31250000000012
40
0.343750000000131
40
0.343750000000131
40
0.359375000000136
40
0.359375000000136
40
0.375000000000141
40
0.375000000000141
40
0.406250000000135
40
0.406250000000135
40
0.421875000000132
40
0.421875000000132
40
0.43750000000013
40
0.43750000000013
40
0.468750000000124
40
0.468750000000124
40
0.500000000000119
40
0.500000000000119
40
0.515625000000116
40
0.515625000000116
40
0.531250000000113
40
0.531250000000113
40
0.546875000000111
40
0.546875000000111
40
0.562500000000108
40
0.562500000000108
40
0.625000000000097
40
0.625000000000097
40
0.750000000000065
40
0.750000000000065
40
0.875000000000033
40
0.875000000000033
40
1
40
1
40
1
40
1
41
1
10
58.513624749605
20
-2.85955430943406
30
0
41
1
10
58.4816201850255
20
-2.7927954831147
30
0
41
1
10
58.4494447229757
20
-2.72616626009304
30
0
41
1
10
58.3850606394352
20
-2.59302050369968
30
0
41
1
10
58.3529412627307
20
-2.5264607947945
30
0
41
1
10
58.3120899883838
20
-2.44366202754929
30
0
41
1
10
58.3038826987902
20
-2.42712325792977
30
0
41
1
10
58.2914933297542
20
-2.40235768409479
30
0
41
1
10
58.2873735016192
20
-2.39409846260929
30
0
41
1
10
58.2786447053391
20
-2.37781782258224
30
0
41
1
10
58.2739850288503
20
-2.36982089838426
30
0
41
1
10
58.2589713871177
20
-2.34633227867681
30
0
41
1
10
58.2477823264547
20
-2.33124640922344
30
0
41
1
10
58.2294074415939
20
-2.30939101519272
30
0
41
1
10
58.2229502248321
20
-2.30219776461132
30
0
41
1
10
58.2097627938947
20
-2.28841467587634
30
0
41
1
10
58.2030275429715
20
-2.28180011242711
30
0
41
1
10
58.1824387611144
20
-2.26271089357513
30
0
41
1
10
58.1682103580089
20
-2.25097327787688
30
0
41
1
10
58.1460978922908
20
-2.23492443078408
30
0
41
1
10
58.1386022117314
20
-2.22984742735707
30
0
41
1
10
58.1236022821834
20
-2.22045704303107
30
0
41
1
10
58.1160660898653
20
-2.21612556440462
30
0
41
1
10
58.093352344433
20
-2.20430126279234
30
0
41
1
10
58.0780748661753
20
-2.1979093617434
30
0
41
1
10
58.0472942924561
20
-2.18834411477673
30
0
41
1
10
58.0322713995918
20
-2.18527922103252
30
0
41
1
10
58.0105197344112
20
-2.18411961753617
30
0
41
1
10
58.0033722906782
20
-2.18435284147253
30
0
41
1
10
57.9899282160005
20
-2.18631494058451
30
0
41
1
10
57.9835753985927
20
-2.18803142082146
30
0
41
1
10
57.9717171804435
20
-2.19314950300966
30
0
41
1
10
57.9662467168371
20
-2.19662942705622
30
0
41
1
10
57.9560581383333
20
-2.20436266006274
30
0
41
1
10
57.9512533727697
20
-2.20859391705085
30
0
41
1
10
57.9269417607023
20
-2.22921122801142
30
0
41
1
10
57.9074671662021
20
-2.24519867090473
30
0
41
1
10
57.8490117037603
20
-2.29172445047109
30
0
41
1
10
57.8100192422785
20
-2.32081253346749
30
0
41
1
10
57.7323454583744
20
-2.37529256008509
30
0
41
1
10
57.6936342939341
20
-2.40071499030324
30
0
41
1
10
57.6164737958159
20
-2.44807359970727
30
0
41
1
10
57.5779910614599
20
-2.46995326848972
30
0
41
1
10
57.5398817069633
20
-2.49052634804838
30
0
0
SPLINE
5
165
100
AcDbEntity
8
1
62
256
6
ByLayer
370
18
48
1
60
0
100
AcDbSpline
70
4
71
3
72
8
73
4
40
0
40
0
40
0
40
0
40
1
40
1
40
1
40
1
41
1
10
57.4160658781352
20
-2.391104837857
30
0
41
1
10
57.4573360681065
20
-2.42461732389626
30
0
41
1
10
57.4986054762481
20
-2.45776002753479
30
0
41
1
10
57.5398817069601
20
-2.49052634806546
30
0
0
SPLINE
5
166
100
AcDbEntity
8
1
62
256
6
ByLayer
370
18
48
1
60
0
100
AcDbSpline
70
4
71
3
72
10
73
6
40
0
40
0
40
0
40
0
40
0.5
40
0.5
40
1
40
1
40
1
40
1
41
1
10
57.4160658781353
20
-2.39110483785703
30
0
41
1
10
57.3798281973228
20
-2.31718530992512
30
0
41
1
10
57.343742839717
20
-2.24369546828157
30
0
41
1
10
57.2715445023926
20
-2.09788693407305
30
0
41
1
10
57.2354178159145
20
-2.02554046845768
30
0
41
1
10
57.1990266620488
20
-1.95378695799843
30
0
0
SPLINE
5
167
100
AcDbEntity
8
1
62
256
6
ByLayer
370
18
48
1
60
0
100
AcDbSpline
70
4
71
3
72
50
73
46
40
0
40
0
40
0
40
0
40
0.124999999999897
40
0.124999999999897
40
0.249999999999795
40
0.249999999999795
40
0.281249999999769
40
0.281249999999769
40
0.296874999999756
40
0.296874999999756
40
0.312499999999744
40
0.312499999999744
40
0.343749999999719
40
0.343749999999719
40
0.359374999999713
40
0.359374999999713
40
0.374999999999708
40
0.374999999999708
40
0.406249999999713
40
0.406249999999713
40
0.437499999999717
40
0.437499999999717
40
0.45312499999972
40
0.45312499999972
40
0.468749999999722
40
0.468749999999722
40
0.49999999999971
40
0.49999999999971
40
0.515624999999703
40
0.515624999999703
40
0.531249999999697
40
0.531249999999697
40
0.5390624999997
40
0.5390624999997
40
0.546874999999704
40
0.546874999999704
40
0.562499999999711
40
0.562499999999711
40
0.624999999999752
40
0.624999999999752
40
0.749999999999835
40
0.749999999999835
40
0.874999999999917
40
0.874999999999917
40
1
40
1
40
1
40
1
41
1
10
57.1990266620488
20
-1.95378695799843
30
0
41
1
10
57.1669388647487
20
-1.89051850249163
30
0
41
1
10
57.1346799765187
20
-1.82777925554024
30
0
41
1
10
57.0701322946177
20
-1.70336008394247
30
0
41
1
10
57.0379325234342
20
-1.64167223311804
30
0
41
1
10
56.9969725919224
20
-1.56529362977972
30
0
41
1
10
56.9887431590894
20
-1.55005470409569
30
0
41
1
10
56.9763196385239
20
-1.52725391753333
30
0
41
1
10
56.9721809333354
20
-1.51966196642778
30
0
41
1
10
56.9633779472936
20
-1.50453708224899
30
0
41
1
10
56.9586668418328
20
-1.49700793695888
30
0
41
1
10
56.9435131483058
20
-1.4745288641042
30
0
41
1
10
56.9322383105397
20
-1.45967263427588
30
0
41
1
10
56.9137099302258
20
-1.43756998095793
30
0
41
1
10
56.9072145561272
20
-1.43020632536647
30
0
41
1
10
56.8940060624665
20
-1.41592741896989
30
0
41
1
10
56.8872592927885
20
-1.40896189809649
30
0
41
1
10
56.8666305242509
20
-1.38854041344655
30
0
41
1
10
56.8523685212477
20
-1.37554891270446
30
0
41
1
10
56.8227900787033
20
-1.35086643772342
30
0
41
1
10
56.8077594717446
20
-1.33943423759658
30
0
41
1
10
56.7850312712528
20
-1.32401828646766
30
0
41
1
10
56.7774166550099
20
-1.31915224240078
30
0
41
1
10
56.7621169293323
20
-1.30996645978766
30
0
41
1
10
56.7543956593984
20
-1.30562764141501
30
0
41
1
10
56.7313962977812
20
-1.29363255006078
30
0
41
1
10
56.716407946757
20
-1.28699336682163
30
0
41
1
10
56.6946799922104
20
-1.27980740931858
30
0
41
1
10
56.6875853882208
20
-1.27791737921046
30
0
41
1
10
56.6742397550567
20
-1.27547861384852
30
0
41
1
10
56.6679283523829
20
-1.27490598011369
30
0
41
1
10
56.6590896701464
20
-1.27516986652154
30
0
41
1
10
56.6562441748615
20
-1.27545373044003
30
0
41
1
10
56.6508142865034
20
-1.27631666328548
30
0
41
1
10
56.6482170539966
20
-1.27689390027572
30
0
41
1
10
56.6406381352905
20
-1.27887977072999
30
0
41
1
10
56.6358438868186
20
-1.28050953613234
30
0
41
1
10
56.6115692723752
20
-1.28809712511349
30
0
41
1
10
56.5921249010592
20
-1.29361067965124
30
0
41
1
10
56.5337614351872
20
-1.30856390854308
30
0
41
1
10
56.4948355731877
20
-1.31641067142144
30
0
41
1
10
56.4172908537361
20
-1.32815592663422
30
0
41
1
10
56.3786433666485
20
-1.33206714958061
30
0
41
1
10
56.3016065395198
20
-1.33613847365456
30
0
41
1
10
56.2631839951562
20
-1.33624883904983
30
0
41
1
10
56.2251329967426
20
-1.33490441744669
30
0
0
SPLINE
5
168
100
AcDbEntity
8
1
62
256
6
ByLayer
370
18
48
1
60
0
100
AcDbSpline
70
4
71
3
72
8
73
4
40
0
40
0
40
0
40
0
40
1
40
1
40
1
40
1
41
1
10
56.1015105261935
20
-1.21697944001468
30
0
41
1
10
56.1427147283571
20
-1.25647736276176
30
0
41
1
10
56.1839185018072
20
-1.29578928354206
30
0
41
1
10
56.2251329967445
20
-1.33490441744075
30
0
0
SPLINE
5
169
100
AcDbEntity
8
1
62
256
6
ByLayer
370
18
48
1
60
0
100
AcDbSpline
70
4
71
3
72
8
73
4
40
0
40
0
40
0
40
0
40
1
40
1
40
1
40
1
41
1
10
54.7868534400599
20
0.0844637675916431
30
0
41
1
10
54.8281620269636
20
0.0429673561827997
30
0
41
1
10
54.8694731115688
20
0.0014570364623125
30
0
41
1
10
54.9107970694109
20
-0.0400568366369782
30
0
0
SPLINE
5
16A
100
AcDbEntity
8
1
62
256
6
ByLayer
370
18
48
1
60
0
100
AcDbSpline
70
4
71
3
72
8
73
4
40
0
40
0
40
0
40
0
40
1
40
1
40
1
40
1
41
1
10
54.7868534400599
20
0.0844637675916431
30
0
41
1
10
54.7143529572478
20
0.18093096228057
30
0
41
1
10
54.6425447378486
20
0.270967017091664
30
0
41
1
10
54.5697428049053
20
0.355304510993562
30
0
0
SPLINE
5
16B
100
AcDbEntity
8
1
62
256
6
ByLayer
370
18
48
1
60
0
100
AcDbSpline
70
4
71
3
72
54
73
50
40
0
40
0
40
0
40
0
40
0.125000000000072
40
0.125000000000072
40
0.250000000000145
40
0.250000000000145
40
0.281250000000158
40
0.281250000000158
40
0.296875000000165
40
0.296875000000165
40
0.312500000000171
40
0.312500000000171
40
0.328125000000178
40
0.328125000000178
40
0.343750000000185
40
0.343750000000185
40
0.375000000000199
40
0.375000000000199
40
0.390625000000198
40
0.390625000000198
40
0.406250000000197
40
0.406250000000197
40
0.437500000000194
40
0.437500000000194
40
0.468750000000192
40
0.468750000000192
40
0.48437500000019
40
0.48437500000019
40
0.500000000000189
40
0.500000000000189
40
0.515625000000187
40
0.515625000000187
40
0.531250000000186
40
0.531250000000186
40
0.539062500000185
40
0.539062500000185
40
0.546875000000185
40
0.546875000000185
40
0.562500000000183
40
0.562500000000183
40
0.578125000000182
40
0.578125000000182
40
0.593750000000181
40
0.625000000000167
40
0.750000000000111
40
0.750000000000111
40
0.875000000000056
40
0.875000000000056
40
1
40
1
40
1
40
1
41
1
10
54.5697428049053
20
0.355304510993562
30
0
41
1
10
54.5378111453774
20
0.392295783502902
30
0
41
1
10
54.5057115026311
20
0.428156473435109
30
0
41
1
10
54.4414881159219
20
0.497320055683161
30
0
41
1
10
54.4094547601331
20
0.53056196873348
30
0
41
1
10
54.368716858326
20
0.570969082343595
30
0
41
1
10
54.3605333060314
20
0.578993678274173
30
0
41
1
10
54.348181951292
20
0.590959669421551
30
0
41
1
10
54.3440797626526
20
0.594917347619031
30
0
41
1
10
54.3354288339082
20
0.603102202034989
30
0
41
1
10
54.3308282183294
20
0.607365387558474
30
0
41
1
10
54.3209465371256
20
0.616322307291455
30
0
41
1
10
54.3157023063984
20
0.620990387893158
30
0
41
1
10
54.304702730152
20
0.630639356772804
30
0
41
1
10
54.2989119109679
20
0.635649608505418
30
0
41
1
10
54.2811020853225
20
0.650869342815582
30
0
41
1
10
54.2685719565417
20
0.66132923190878
30
0
41
1
10
54.2489635124264
20
0.677425300038351
30
0
41
1
10
54.2422915186805
20
0.682858536519547
30
0
41
1
10
54.2286811271237
20
0.693864876590879
30
0
41
1
10
54.2217201458882
20
0.699455958975449
30
0
41
1
10
54.200574471708
20
0.716339025528868
30
0
41
1
10
54.1862972841101
20
0.72760653054209
30
0
41
1
10
54.1573722414427
20
0.750245510430659
30
0
41
1
10
54.1427256264237
20
0.761617089758687
30
0
41
1
10
54.1205059056142
20
0.77881338910737
30
0
41
1
10
54.1131197245828
20
0.784520459467075
30
0
41
1
10
54.0985660999633
20
0.795759494793629
30
0
41
1
10
54.0913729664028
20
0.801311334943478
30
0
41
1
10
54.0771866023628
20
0.812264540812066
30
0
41
1
10
54.0701427402057
20
0.817705056042314
30
0
41
1
10
54.0565766615444
20
0.828194128951395
30
0
41
1
10
54.0500935629589
20
0.833212516088565
30
0
41
1
10
54.0408881106025
20
0.840351547809576
30
0
41
1
10
54.0379063015912
20
0.842666336079702
30
0
41
1
10
54.0321296725236
20
0.847155975186524
30
0
41
1
10
54.029327233589
20
0.849336631363087
30
0
41
1
10
54.0213068764926
20
0.855587491243654
30
0
41
1
10
54.0164427242671
20
0.859392354162281
30
0
41
1
10
54.0070112852337
20
0.866815536177512
30
0
41
1
10
54.0023883976462
20
0.870479052672863
30
0
41
1
10
53.9930695561807
20
0.877919594038133
30
0
41
1
10
53.9790871253015
20
0.889165145523378
30
0
41
1
10
53.9277797824274
20
0.931320173108702
30
0
41
1
10
53.8810611392573
20
0.972384019022229
30
0
41
1
10
53.806583124389
20
1.04113690358739
30
0
41
1
10
53.769451414799
20
1.07706142162579
30
0
41
1
10
53.6954235515102
20
1.15185462146363
30
0
41
1
10
53.6584860117376
20
1.19075921756121
30
0
41
1
10
53.6218089767855
20
1.23095682368591
30
0
0
SPLINE
5
16C
100
AcDbEntity
8
1
62
256
6
ByLayer
370
18
48
1
60
0
100
AcDbSpline
70
4
71
3
72
8
73
4
40
0
40
0
40
0
40
0
40
1
40
1
40
1
40
1
41
1
10
53.621808976779
20
1.23095682369331
30
0
41
1
10
53.5299882161655
20
1.31308792180579
30
0
41
1
10
53.4379829974877
20
1.39078686390999
30
0
41
1
10
53.3455578436141
20
1.46396877548986
30
0
0
SPLINE
5
16D
100
AcDbEntity
8
1
62
256
6
ByLayer
370
18
48
1
60
0
100
AcDbSpline
70
4
71
3
72
8
73
4
40
0
40
0
40
0
40
0
40
1
40
1
40
1
40
1
41
1
10
53.3455578436141
20
1.46396877548986
30
0
41
1
10
53.3154872653699
20
1.48279031421987
30
0
41
1
10
53.2853853608789
20
1.5003891073986
30
0
41
1
10
53.2551108954778
20
1.51687855610197
30
0
0
SPLINE
5
16E
100
AcDbEntity
8
1
62
256
6
ByLayer
370
18
48
1
60
0
100
AcDbSpline
70
4
71
3
72
48
73
44
40
0
40
0
40
0
40
0
40
0.249999999999959
40
0.249999999999959
40
0.374999999999931
40
0.374999999999931
40
0.437499999999909
40
0.437499999999909
40
0.468749999999897
40
0.468749999999897
40
0.4843749999999
40
0.4843749999999
40
0.499999999999902
40
0.499999999999902
40
0.531249999999907
40
0.531249999999907
40
0.562499999999912
40
0.562499999999912
40
0.593749999999917
40
0.593749999999917
40
0.624999999999922
40
0.624999999999922
40
0.687499999999931
40
0.687499999999931
40
0.718749999999936
40
0.718749999999936
40
0.749999999999941
40
0.749999999999941
40
0.781249999999946
40
0.781249999999946
40
0.812499999999951
40
0.812499999999951
40
0.843749999999955
40
0.843749999999955
40
0.859374999999958
40
0.859374999999958
40
0.874999999999961
40
0.874999999999961
40
0.906249999999966
40
0.906249999999966
40
0.937499999999971
40
0.937499999999971
40
1
40
1
40
1
40
1
41
1
10
53.2551108954778
20
1.51687855610186
30
0
41
1
10
53.2151838630004
20
1.53862542248555
30
0
41
1
10
53.1750115855434
20
1.55840402197063
30
0
41
1
10
53.1147736649796
20
1.58459827149699
30
0
41
1
10
53.0946695800932
20
1.59277918250729
30
0
41
1
10
53.0642408980275
20
1.60444972540824
30
0
41
1
10
53.0540517035831
20
1.60824020030384
30
0
41
1
10
53.0386568244268
20
1.61381394602142
30
0
41
1
10
53.0335666880105
20
1.61559390881172
30
0
41
1
10
53.02563073542
20
1.61850504701687
30
0
41
1
10
53.022916876833
20
1.61953380071483
30
0
41
1
10
53.0172160551601
20
1.62184163656917
30
0
41
1
10
53.0142325869845
20
1.6231172348279
30
0
41
1
10
53.0048809547126
20
1.62730994164403
30
0
41
1
10
52.9982002233007
20
1.63053508423252
30
0
41
1
10
52.9843347750006
20
1.63755218498469
30
0
41
1
10
52.9771106153365
20
1.64136662731997
30
0
41
1
10
52.9620884262608
20
1.64960659710124
30
0
41
1
10
52.9542859012573
20
1.6540375147045
30
0
41
1
10
52.9381604030356
20
1.66345984119729
30
0
41
1
10
52.9298089535861
20
1.66846998323646
30
0
41
1
10
52.9044719297705
20
1.68405358924124
30
0
41
1
10
52.8870794975408
20
1.69523087080154
30
0
41
1
10
52.8601729656427
20
1.71350291614874
30
0
41
1
10
52.8510040030965
20
1.71990108886357
30
0
41
1
10
52.832656314464
20
1.73309204312929
30
0
41
1
10
52.8235121891536
20
1.73985346571041
30
0
41
1
10
52.8052968738174
20
1.75372406282529
30
0
41
1
10
52.7962254431548
20
1.76083238758608
30
0
41
1
10
52.7781770023845
20
1.77545442455482
30
0
41
1
10
52.7691811259892
20
1.78298676418561
30
0
41
1
10
52.7518767025119
20
1.79810262843517
30
0
41
1
10
52.7435101058392
20
1.80573656636656
30
0
41
1
10
52.7315293433971
20
1.81734248720935
30
0
41
1
10
52.7276519508182
20
1.82121844114761
30
0
41
1
10
52.7203007802874
20
1.82882807785364
30
0
41
1
10
52.7168082739551
20
1.83258243523315
30
0
41
1
10
52.7068511921905
20
1.84370364113755
30
0
41
1
10
52.7008917403134
20
1.85093685827888
30
0
41
1
10
52.689277743793
20
1.86535261172105
30
0
41
1
10
52.6835232741099
20
1.87257114323072
30
0
41
1
10
52.6661817464544
20
1.894356706108
30
0
41
1
10
52.6546133284606
20
1.90901324041192
30
0
41
1
10
52.6430406036462
20
1.92379980721481
30
0
0
SPLINE
5
16F
100
AcDbEntity
8
1
62
256
6
ByLayer
370
18
48
1
60
0
100
AcDbSpline
70
4
71
3
72
8
73
4
40
0
40
0
40
0
40
0
40
1
40
1
40
1
40
1
41
1
10
52.6430406036462
20
1.92379980721478
30
0
41
1
10
52.5317471295345
20
1.98115613503231
30
0
41
1
10
52.4195683292614
20
2.03162327776542
30
0
41
1
10
52.3060780818729
20
2.07491525543085
30
0
0
SPLINE
5
170
100
AcDbEntity
8
1
62
256
6
ByLayer
370
18
48
1
60
0
100
AcDbSpline
70
4
71
3
72
12
73
8
40
0
40
0
40
0
40
0
40
0.25
40
0.25
40
0.5
40
0.5
40
1
40
1
40
1
40
1
41
1
10
52.3060780818729
20
2.07491525543088
30
0
41
1
10
52.264652546541
20
2.09071743572073
30
0
41
1
10
52.2220657681512
20
2.1074889991294
30
0
41
1
10
52.1345229926763
20
2.14277609097107
30
0
41
1
10
52.0894986940643
20
2.16122335332244
30
0
41
1
10
51.9513227034411
20
2.22003110518867
30
0
41
1
10
51.8551189725006
20
2.26384094287113
30
0
41
1
10
51.7560780818729
20
2.31489587319314
30
0
0
SPLINE
5
171
100
AcDbEntity
8
1
62
256
6
ByLayer
370
18
48
1
60
0
100
AcDbSpline
70
4
71
3
72
44
73
40
40
0
40
0
40
0
40
0
40
0.0583839348581757
40
0.0583839348581757
40
0.0875759022872636
40
0.0875759022872636
40
0.116767869716352
40
0.233535739432699
40
0.233535739432699
40
0.291919674290875
40
0.291919674290875
40
0.35030360914905
40
0.35030360914905
40
0.379495576578138
40
0.379495576578138
40
0.408687544007226
40
0.408687544007226
40
0.467071478865407
40
0.467071478865407
40
0.525455413723587
40
0.525455413723587
40
0.583839348581767
40
0.583839348581767
40
0.642223283439947
40
0.642223283439947
40
0.700607218298128
40
0.700607218298128
40
0.758991153156308
40
0.758991153156308
40
0.773587136870854
40
0.773587136870854
40
0.7881831205854
40
0.817375088014492
40
0.817375088014492
40
0.875759022872681
40
0.875759022872681
40
0.934142957730871
40
0.934142957730871
40
1
40
1
40
1
40
1
41
1
10
51.7560780818729
20
2.31489587319311
30
0
41
1
10
51.641245493904
20
2.37409132004629
30
0
41
1
10
51.5268989570747
20
2.43020641517177
30
0
41
1
10
51.3556991864573
20
2.50955390161337
30
0
41
1
10
51.2986661793592
20
2.53518492592988
30
0
41
1
10
51.1847804282294
20
2.58491696542964
30
0
41
1
10
50.9005223279449
20
2.70542042566191
30
0
41
1
10
50.6178892844341
20
2.8063394956051
30
0
41
1
10
50.2780404279122
20
2.90725158361124
30
0
41
1
10
50.1646443569992
20
2.93752526237131
30
0
41
1
10
49.9372117849828
20
2.99111383375123
30
0
41
1
10
49.8231518493011
20
3.01442173452534
30
0
41
1
10
49.6513452080779
20
3.04403068833125
30
0
41
1
10
49.5939986738808
20
3.05302049611913
30
0
41
1
10
49.4791014820601
20
3.06919942837075
30
0
41
1
10
49.4216780799869
20
3.07636690584164
30
0
41
1
10
49.2499267503208
20
3.09504271568744
30
0
41
1
10
49.135907682737
20
3.10375504141706
30
0
41
1
10
48.9084712268296
20
3.11377059862701
30
0
41
1
10
48.7950552741213
20
3.11507325555937
30
0
41
1
10
48.5684382386452
20
3.11033783302841
30
0
41
1
10
48.4552542118561
20
3.10429641017575
30
0
41
1
10
48.2286016055855
20
3.08497636826982
30
0
41
1
10
48.1151073725769
20
3.07171565438586
30
0
41
1
10
47.8880239199359
20
3.03791723546806
30
0
41
1
10
47.7743879893933
20
3.01738059666368
30
0
41
1
10
47.5465628049014
20
2.96901218958519
30
0
41
1
10
47.4323743972391
20
2.94117996621796
30
0
41
1
10
47.2890522675726
20
2.90182200811336
30
0
41
1
10
47.2603374768772
20
2.89371598670039
30
0
41
1
10
47.2029753622724
20
2.87708693270267
30
0
41
1
10
47.1170219546056
20
2.85151591886864
30
0
41
1
10
47.0313060876445
20
2.82409042439102
30
0
41
1
10
46.8601035835483
20
2.76684490481037
30
0
41
1
10
46.7462354641562
20
2.72551342749367
30
0
41
1
10
46.5187859970706
20
2.63680797882185
30
0
41
1
10
46.4053190639619
20
2.5893568497695
30
0
41
1
10
46.1641738569437
20
2.48196875517735
30
0
41
1
10
46.0365013363851
20
2.42123445020979
30
0
41
1
10
45.908725488424
20
2.35688084554931
30
0
0
SPLINE
5
172
100
AcDbEntity
8
1
62
256
6
ByLayer
370
18
48
1
60
0
100
AcDbSpline
70
4
71
3
72
77
73
73
40
0
40
0
40
0
40
0
40
0.0072799913672797
40
0.0072799913672797
40
0.0545523727307449
40
0.0545523727307449
40
0.078188563412476
40
0.078188563412476
40
0.101824754094207
40
0.101824754094207
40
0.113642849435073
40
0.113642849435073
40
0.125460944775938
40
0.149097135457669
40
0.149097135457669
40
0.196369516821131
40
0.196369516821131
40
0.220005707502864
40
0.220005707502864
40
0.243641898184596
40
0.243641898184596
40
0.267278088866329
40
0.267278088866329
40
0.290914279548061
40
0.290914279548061
40
0.338186660911526
40
0.338186660911526
40
0.361822851593258
40
0.361822851593258
40
0.373640946934123
40
0.373640946934123
40
0.385459042274989
40
0.385459042274989
40
0.40909523295672
40
0.40909523295672
40
0.432731423638451
40
0.432731423638451
40
0.480003805001917
40
0.480003805001917
40
0.527276186365382
40
0.527276186365382
40
0.574548567728847
40
0.574548567728847
40
0.621820949092313
40
0.621820949092313
40
0.633639044433178
40
0.633639044433178
40
0.645457139774042
40
0.669093330455769
40
0.669093330455769
40
0.716365711819225
40
0.716365711819225
40
0.763638093182682
40
0.763638093182682
40
0.78727428386441
40
0.78727428386441
40
0.810910474546138
40
0.810910474546138
40
0.858182855909598
40
0.858182855909598
40
0.881819046591329
40
0.881819046591329
40
0.893637141932196
40
0.893637141932196
40
0.905455237273063
40
0.929091427954797
40
0.929091427954797
40
0.952727618636531
40
0.952727618636531
40
0.976363809318266
40
0.976363809318266
40
1
40
1
40
1
40
1
41
1
10
43.0204880474067
20
3.11385040094353
30
0
41
1
10
43.041592704492
20
3.11385169848612
30
0
41
1
10
43.0626978173023
20
3.11372719333085
30
0
41
1
10
43.2208550276146
20
3.11185075713681
30
0
41
1
10
43.3579279654657
20
3.10491708061878
30
0
41
1
10
43.5637293990519
20
3.08634402576146
30
0
41
1
10
43.6323683616326
20
3.07878543733068
30
0
41
1
10
43.7701493946544
20
3.0609954690826
30
0
41
1
10
43.8392554626835
20
3.05076073560892
30
0
41
1
10
43.9432503712453
20
3.03339500286538
30
0
41
1
10
43.9780014163245
20
3.02726480735376
30
0
41
1
10
44.0474240413918
20
3.01436616103663
30
0
41
1
10
44.1514505761077
20
2.99406013116996
30
0
41
1
10
44.255159191405
20
2.97090757890353
30
0
41
1
10
44.4621999536301
20
2.9208741965731
30
0
41
1
10
44.5997111384282
20
2.88254721023773
30
0
41
1
10
44.8053821801512
20
2.81774790412393
30
0
41
1
10
44.8738403475378
20
2.7949289875084
30
0
41
1
10
45.0105708749581
20
2.74684930029119
30
0
41
1
10
45.0788351084808
20
2.72158152593249
30
0
41
1
10
45.215389980197
20
2.66872448539797
30
0
41
1
10
45.2837000131655
20
2.64114765662757
30
0
41
1
10
45.420653609057
20
2.58390497459453
30
0
41
1
10
45.489233533373
20
2.55419637248414
30
0
41
1
10
45.6952122672072
20
2.46175822525015
30
0
41
1
10
45.8329110772786
20
2.39576633749311
30
0
41
1
10
46.0402249878386
20
2.29027917522512
30
0
41
1
10
46.1094569712674
20
2.2540319409884
30
0
41
1
10
46.2135230191597
20
2.19802921469906
30
0
41
1
10
46.2482735850728
20
2.17907504249357
30
0
41
1
10
46.3176290132761
20
2.14074315872503
30
0
41
1
10
46.3522533876749
20
2.12135541236924
30
0
41
1
10
46.4559694548996
20
2.06253159406137
30
0
41
1
10
46.524897296503
20
2.02242827222039
30
0
41
1
10
46.6623585124647
20
1.94048829697286
30
0
41
1
10
46.7309143787353
20
1.89867315161888
30
0
41
1
10
46.9366025918428
20
1.7712907667426
30
0
41
1
10
47.0737034225897
20
1.68374406150193
30
0
41
1
10
47.3478474564188
20
1.50351967420758
30
0
41
1
10
47.4849292635042
20
1.41088472987173
30
0
41
1
10
47.7591726842084
20
1.22062965579192
30
0
41
1
10
47.8963634336067
20
1.12304274923585
30
0
41
1
10
48.1711294212982
20
0.923124543531486
30
0
41
1
10
48.308565561027
20
0.820594929041704
30
0
41
1
10
48.4818667740725
20
0.69102028022229
30
0
41
1
10
48.5166089363555
20
0.665002845786432
30
0
41
1
10
48.5859672171416
20
0.612945270064131
30
0
41
1
10
48.6898956123356
20
0.534774364591641
30
0
41
1
10
48.7935303578461
20
0.456392795393612
30
0
41
1
10
49.0004677020774
20
0.29942450510481
30
0
41
1
10
49.1379734435355
20
0.194492223942746
30
0
41
1
10
49.4123242608592
20
-0.0156289514719106
30
0
41
1
10
49.5491826903021
20
-0.120800340924745
30
0
41
1
10
49.7540590483396
20
-0.278633602056004
30
0
41
1
10
49.8222801746717
20
-0.331260187973697
30
0
41
1
10
49.9590376823659
20
-0.435943118054695
30
0
41
1
10
50.0275236139732
20
-0.488065996271445
30
0
41
1
10
50.2333241700143
20
-0.643751698672929
30
0
41
1
10
50.371003791171
20
-0.746602852233508
30
0
41
1
10
50.5784073495753
20
-0.899249829306427
30
0
41
1
10
50.647685184655
20
-0.949865675930397
30
0
41
1
10
50.7518483598594
20
-1.02534712853341
30
0
41
1
10
50.7866140964413
20
-1.05043639936082
30
0
41
1
10
50.8560558237721
20
-1.10033605620157
30
0
41
1
10
50.9601489612514
20
-1.17481497495282
30
0
41
1
10
51.0640466246717
20
-1.24816832709777
30
0
41
1
10
51.2024096641923
20
-1.34495969183882
30
0
41
1
10
51.2714866900254
20
-1.39287297344947
30
0
41
1
10
51.4095694491773
20
-1.48756183521345
30
0
41
1
10
51.4786915389246
20
-1.53420296547535
30
0
41
1
10
51.6172121283614
20
-1.62595817568282
30
0
41
1
10
51.6865930458054
20
-1.67109279998172
30
0
41
1
10
51.756078081873
20
-1.71550369326289
30
0
0
SPLINE
5
173
100
AcDbEntity
8
1
62
256
6
ByLayer
370
18
48
1
60
0
100
AcDbSpline
70
4
71
3
72
16
73
12
40
0
40
0
40
0
40
0
40
0.25
40
0.25
40
0.499999999999999
40
0.499999999999999
40
0.749999999999999
40
0.749999999999999
40
0.874999999999999
40
0.874999999999999
40
1
40
1
40
1
40
1
41
1
10
51.7560780818729
20
-1.71550369326286
30
0
41
1
10
51.8029120795627
20
-1.74543732776948
30
0
41
1
10
51.8496530830951
20
-1.77633792408645
30
0
41
1
10
51.9426990703927
20
-1.840381573147
30
0
41
1
10
51.9890046617799
20
-1.87352259696462
30
0
41
1
10
52.081009331434
20
-1.94234570372328
30
0
41
1
10
52.1267060406721
20
-1.97802737404865
30
0
41
1
10
52.1947290076444
20
-2.03371525127292
30
0
41
1
10
52.2173201384515
20
-2.05263753013534
30
0
41
1
10
52.2620350986597
20
-2.09099554855402
30
0
41
1
10
52.2841900599375
20
-2.11046549894451
30
0
41
1
10
52.306078081873
20
-2.13029819026716
30
0
0
SPLINE
5
174
100
AcDbEntity
8
1
62
256
6
ByLayer
370
18
48
1
60
0
100
AcDbSpline
70
4
71
3
72
10
73
6
40
0
40
0
40
0
40
0
40
0.5
40
0.5
40
1
40
1
40
1
40
1
41
1
10
52.3060780818729
20
-2.1302981902671
30
0
41
1
10
52.3995580708108
20
-2.21500021454818
30
0
41
1
10
52.4920303096193
20
-2.30026073018632
30
0
41
1
10
52.6750789737175
20
-2.47171271735832
30
0
41
1
10
52.7656878302431
20
-2.55787616522335
30
0
41
1
10
52.8555593813161
20
-2.64428047513297
30
0
0
SPLINE
5
175
100
AcDbEntity
8
1
62
256
6
ByLayer
370
18
48
1
60
0
100
AcDbSpline
70
4
71
3
72
45
73
41
40
0
40
0
40
0
40
0
40
0.124999999999999
40
0.187500000000006
40
0.21875000000001
40
0.21875000000001
40
0.250000000000013
40
0.250000000000013
40
0.281250000000017
40
0.281250000000017
40
0.312500000000021
40
0.312500000000021
40
0.343750000000025
40
0.343750000000025
40
0.375000000000029
40
0.375000000000029
40
0.406250000000032
40
0.406250000000032
40
0.437500000000036
40
0.437500000000036
40
0.500000000000044
40
0.500000000000044
40
0.531250000000048
40
0.531250000000048
40
0.562500000000052
40
0.562500000000052
40
0.593750000000056
40
0.593750000000056
40
0.62500000000006
40
0.62500000000006
40
0.640625000000061
40
0.640625000000061
40
0.656250000000063
40
0.656250000000063
40
0.687500000000065
40
0.750000000000052
40
0.750000000000052
40
0.875000000000026
40
0.875000000000026
40
1
40
1
40
1
40
1
41
1
10
52.8555593813161
20
-2.64428047513295
30
0
41
1
10
52.8780802251367
20
-2.63486642803784
30
0
41
1
10
52.9118993884259
20
-2.6197554259922
30
0
41
1
10
52.9514084686198
20
-2.60029356601211
30
0
41
1
10
52.9683502387902
20
-2.59154745666874
30
0
41
1
10
52.9796471716867
20
-2.58562478457148
30
0
41
1
10
52.9852315121666
20
-2.58253021740455
30
0
41
1
10
52.9968342535736
20
-2.57682659685551
30
0
41
1
10
53.002918668457
20
-2.57430581453198
30
0
41
1
10
53.0163596117085
20
-2.57086544681221
30
0
41
1
10
53.0236792003885
20
-2.56989619828641
30
0
41
1
10
53.0394447373473
20
-2.56936060962408
30
0
41
1
10
53.0477587857199
20
-2.5698070975599
30
0
41
1
10
53.0648466221674
20
-2.57182690794403
30
0
41
1
10
53.0736572123669
20
-2.57339138714991
30
0
41
1
10
53.0917471988706
20
-2.57751159447974
30
0
41
1
10
53.1010275424492
20
-2.58006930051684
30
0
41
1
10
53.1200648659988
20
-2.58623097423816
30
0
41
1
10
53.1297422359257
20
-2.58981378436951
30
0
41
1
10
53.1588691905923
20
-2.60206107580697
30
0
41
1
10
53.1785725088953
20
-2.61234532311496
30
0
41
1
10
53.2084588506425
20
-2.63107218866898
30
0
41
1
10
53.2184047851428
20
-2.63783096264783
30
0
41
1
10
53.2378832584712
20
-2.65223198391902
30
0
41
1
10
53.2474692918435
20
-2.65990119409852
30
0
41
1
10
53.2662402339028
20
-2.67644088329178
30
0
41
1
10
53.2754554272114
20
-2.68538498583635
30
0
41
1
10
53.2926994829109
20
-2.70396335012941
30
0
41
1
10
53.3008385864571
20
-2.71365026991654
30
0
41
1
10
53.3119562563696
20
-2.72907875698161
30
0
41
1
10
53.3154495310402
20
-2.73436782299208
30
0
41
1
10
53.3221122489981
20
-2.74495179547424
30
0
41
1
10
53.3253260597343
20
-2.75027240622805
30
0
41
1
10
53.3350031917728
20
-2.76623800644933
30
0
41
1
10
53.3542476059227
20
-2.79823769620492
30
0
41
1
10
53.3732492546314
20
-2.83042277352828
30
0
41
1
10
53.411100820154
20
-2.89500022824797
30
0
41
1
10
53.4361807220213
20
-2.93832827785263
30
0
41
1
10
53.4864197457164
20
-3.02536723310453
30
0
41
1
10
53.5115096651668
20
-3.06908888221201
30
0
41
1
10
53.5364783848724
20
-3.11303004247904
30
0
0
SPLINE
5
176
100
AcDbEntity
8
1
62
256
6
ByLayer
370
18
48
1
60
0
100
AcDbSpline
70
4
71
3
72
8
73
4
40
0
40
0
40
0
40
0
40
1
40
1
40
1
40
1
41
1
10
53.5364783848724
20
-3.11303004247907
30
0
41
1
10
53.6067421010279
20
-3.23668352767831
30
0
41
1
10
53.6758953041602
20
-3.36177483537122
30
0
41
1
10
53.7458463331582
20
-3.48763619728598
30
0
0
SPLINE
5
177
100
AcDbEntity
8
1
62
256
6
ByLayer
370
18
48
1
60
0
100
AcDbSpline
70
4
71
3
72
8
73
4
40
0
40
0
40
0
40
0
40
1
40
1
40
1
40
1
41
1
10
53.869517816056
20
-3.54948143440603
30
0
41
1
10
53.8283029783972
20
-3.52940899386988
30
0
41
1
10
53.7870798094933
20
-3.50879357809671
30
0
41
1
10
53.7458463331581
20
-3.48763619728601
30
0
0
SPLINE
5
178
100
AcDbEntity
8
1
62
256
6
ByLayer
370
18
48
1
60
0
100
AcDbSpline
70
4
71
3
72
50
73
46
40
0
40
0
40
0
40
0
40
0.125000000000065
40
0.125000000000065
40
0.250000000000131
40
0.250000000000131
40
0.375000000000196
40
0.375000000000196
40
0.500000000000262
40
0.500000000000262
40
0.531250000000275
40
0.531250000000275
40
0.562500000000289
40
0.562500000000289
40
0.578125000000296
40
0.578125000000296
40
0.593750000000303
40
0.593750000000303
40
0.625000000000302
40
0.625000000000302
40
0.640625000000293
40
0.640625000000293
40
0.656250000000283
40
0.656250000000283
40
0.687500000000265
40
0.687500000000265
40
0.703125000000256
40
0.703125000000256
40
0.718750000000247
40
0.718750000000247
40
0.734375000000238
40
0.734375000000238
40
0.750000000000229
40
0.750000000000229
40
0.757812500000224
40
0.757812500000224
40
0.76562500000022
40
0.76562500000022
40
0.773437500000215
40
0.773437500000215
40
0.78125000000021
40
0.812500000000181
40
0.87500000000012
40
0.87500000000012
40
1
40
1
40
1
40
1
41
1
10
53.869517816056
20
-3.54948143440603
30
0
41
1
10
53.9042608683931
20
-3.52081155707421
30
0
41
1
10
53.9393400657412
20
-3.49100922170959
30
0
41
1
10
54.009757532121
20
-3.4286038518089
30
0
41
1
10
54.0450865143392
20
-3.39602392483809
30
0
41
1
10
54.1160044122214
20
-3.32805793302941
30
0
41
1
10
54.1516096415698
20
-3.29265619565257
30
0
41
1
10
54.2229143900653
20
-3.21904661371178
30
0
41
1
10
54.2586258447753
20
-3.18083303619792
30
0
41
1
10
54.3032808108154
20
-3.1311779491306
30
0
41
1
10
54.3121867370577
20
-3.12107923294155
30
0
41
1
10
54.3332806224142
20
-3.10500314389986
30
0
41
1
10
54.345019280838
20
-3.0991624371959
30
0
41
1
10
54.3640045336038
20
-3.09293039441516
30
0
41
1
10
54.3705635884886
20
-3.09127710431861
30
0
41
1
10
54.3840805447119
20
-3.0887050347433
30
0
41
1
10
54.3910678512652
20
-3.08778692008508
30
0
41
1
10
54.4122782952579
20
-3.08612014891796
30
0
41
1
10
54.4268027194677
20
-3.086409218565
30
0
41
1
10
54.4491536229738
20
-3.08906086075325
30
0
41
1
10
54.456699526137
20
-3.09032099179592
30
0
41
1
10
54.4720006503363
20
-3.09370328779079
30
0
41
1
10
54.4796965980035
20
-3.09582037654332
30
0
41
1
10
54.5026346289526
20
-3.10329693830207
30
0
41
1
10
54.5178426563307
20
-3.10977502552092
30
0
41
1
10
54.5404808283963
20
-3.12186176126522
30
0
41
1
10
54.5479975989262
20
-3.12629158839243
30
0
41
1
10
54.5629559796884
20
-3.13609978500142
30
0
41
1
10
54.570364427602
20
-3.14146413192003
30
0
41
1
10
54.5846574554789
20
-3.15305832921422
30
0
41
1
10
54.5915910597262
20
-3.15930563704222
30
0
41
1
10
54.6049921759312
20
-3.17277711748073
30
0
41
1
10
54.6115062315771
20
-3.18005108627437
30
0
41
1
10
54.620469297262
20
-3.19151405311868
30
0
41
1
10
54.6233259090389
20
-3.19544426386165
30
0
41
1
10
54.6287802604914
20
-3.20352033674479
30
0
41
1
10
54.6313752759286
20
-3.2076684913913
30
0
41
1
10
54.6364392628136
20
-3.21606875637207
30
0
41
1
10
54.638910073315
20
-3.22031932142366
30
0
41
1
10
54.643849863981
20
-3.22881995223241
30
0
41
1
10
54.6561727905931
20
-3.25008876095859
30
0
41
1
10
54.687893101996
20
-3.30555903893085
30
0
41
1
10
54.7167382695093
20
-3.35696928658055
30
0
41
1
10
54.7743828891927
20
-3.45972479645633
30
0
41
1
10
54.8128705876796
20
-3.52808874201443
30
0
41
1
10
54.8510721185944
20
-3.59642245113741
30
0
0
SPLINE
5
179
100
AcDbEntity
8
1
62
256
6
ByLayer
370
18
48
1
60
0
100
AcDbSpline
70
4
71
3
72
8
73
4
40
0
40
0
40
0
40
0
40
1
40
1
40
1
40
1
41
1
10
55.1844736009836
20
-3.9957604185326
30
0
41
1
10
55.143111525031
20
-3.98820283640848
30
0
41
1
10
55.1017843536598
20
-3.98003038511507
30
0
41
1
10
55.0604867333989
20
-3.9712461909578
30
0
0
SPLINE
5
17A
100
AcDbEntity
8
1
62
256
6
ByLayer
370
18
48
1
60
0
100
AcDbSpline
70
4
71
3
72
8
73
4
40
0
40
0
40
0
40
0
40
1
40
1
40
1
40
1
41
1
10
63.5506641762776
20
-0.206171984860873
30
0
41
1
10
63.5918979290108
20
-0.24752242455466
30
0
41
1
10
63.6331154214606
20
-0.288825870298751
30
0
41
1
10
63.6743246979009
20
-0.330074400112522
30
0
0
SPLINE
5
17B
100
AcDbEntity
8
1
62
256
6
ByLayer
370
18
48
1
60
0
100
AcDbSpline
70
4
71
3
72
8
73
4
40
0
40
0
40
0
40
0
40
1
40
1
40
1
40
1
41
1
10
62.2363507186178
20
1.10006630521707
30
0
41
1
10
62.2776560613116
20
1.06012276368961
30
0
41
1
10
62.3189436996249
20
1.02002031530876
30
0
41
1
10
62.3602244420439
20
0.979769569726272
30
0
0
SPLINE
5
17C
100
AcDbEntity
8
1
62
256
6
ByLayer
370
18
48
1
60
0
100
AcDbSpline
70
4
71
3
72
8
73
4
40
0
40
0
40
0
40
0
40
1
40
1
40
1
40
1
41
1
10
60.9218012757024
20
2.29134236793968
30
0
41
1
10
60.9632384587874
20
2.25696002387966
30
0
41
1
10
61.0046602128349
20
2.22223034594575
30
0
41
1
10
61.0460765185027
20
2.18716217899015
30
0
0
SPLINE
5
17D
100
AcDbEntity
8
1
62
256
6
ByLayer
370
18
48
1
60
0
100
AcDbSpline
70
4
71
3
72
8
73
4
40
0
40
0
40
0
40
0
40
1
40
1
40
1
40
1
41
1
10
59.6072964871549
20
3.24286783271958
30
0
41
1
10
59.648564707435
20
3.21787563685777
30
0
41
1
10
59.689818472155
20
3.19238733380507
30
0
41
1
10
59.7310674438944
20
3.1664096850638
30
0
0
SPLINE
5
17E
100
AcDbEntity
8
1
62
256
6
ByLayer
370
18
48
1
60
0
100
AcDbSpline
70
4
71
3
72
8
73
4
40
0
40
0
40
0
40
0
40
1
40
1
40
1
40
1
41
1
10
58.2924462371922
20
3.85529411661281
30
0
41
1
10
58.3337723746059
20
3.84215770052532
30
0
41
1
10
58.3750843999997
20
3.82842359642564
30
0
41
1
10
58.4163916426785
20
3.81409591673105
30
0
0
SPLINE
5
17F
100
AcDbEntity
8
1
62
256
6
ByLayer
370
18
48
1
60
0
100
AcDbSpline
70
4
71
3
72
8
73
4
40
0
40
0
40
0
40
0
40
1
40
1
40
1
40
1
41
1
10
56.9784105630201
20
4.06419306798887
30
0
41
1
10
57.0194630981747
20
4.06430606295774
30
0
41
1
10
57.0605010049963
20
4.06379168105411
30
0
41
1
10
57.1015339003832
20
4.06265108367739
30
0
0
SPLINE
5
180
100
AcDbEntity
8
1
62
256
6
ByLayer
370
18
48
1
60
0
100
AcDbSpline
70
4
71
3
72
30
73
26
40
0
40
0
40
0
40
0
40
0.0837037720267423
40
0.0837037720267423
40
0.266963017621378
40
0.266963017621378
40
0.358592640418699
40
0.358592640418699
40
0.450222263216021
40
0.450222263216021
40
0.473129668915355
40
0.473129668915355
40
0.496037074614689
40
0.496037074614689
40
0.541851886013357
40
0.541851886013357
40
0.633481508810693
40
0.633481508810693
40
0.679296320209357
40
0.679296320209357
40
0.725111131608021
40
0.725111131608021
40
0.81674075440535
40
0.81674075440535
40
1
40
1
40
1
40
1
41
1
10
44.553961093691
20
-3.11384954296358
30
0
41
1
10
44.4499990167312
20
-3.11386895108117
30
0
41
1
10
44.3463170176011
20
-3.11080068647189
30
0
41
1
10
44.0160793036397
20
-3.09127028903006
30
0
41
1
10
43.7900516134845
20
-3.0631965104744
30
0
41
1
10
43.4494030602509
20
-2.99987538279748
30
0
41
1
10
43.3357391738991
20
-2.97519351299462
30
0
41
1
10
43.1079982760145
20
-2.91862977242144
30
0
41
1
10
42.9938902128364
20
-2.88675839055705
30
0
41
1
10
42.850735328444
20
-2.84243200788364
30
0
41
1
10
42.8220782897414
20
-2.83334238193578
30
0
41
1
10
42.764706240226
20
-2.81471446482854
30
0
41
1
10
42.7359870709929
20
-2.80517438384874
30
0
41
1
10
42.649983602626
20
-2.7759695594591
30
0
41
1
10
42.5927702346879
20
-2.75569381413973
30
0
41
1
10
42.4214184243729
20
-2.69252305010301
30
0
41
1
10
42.3075737806107
20
-2.64728003706793
30
0
41
1
10
42.1370557812067
20
-2.57504123239644
30
0
41
1
10
42.0802558572121
20
-2.55023424461012
30
0
41
1
10
41.9666703637207
20
-2.49922867951795
30
0
41
1
10
41.9098924174544
20
-2.47302530958993
30
0
41
1
10
41.7397472343193
20
-2.39220365143436
30
0
41
1
10
41.6265017196008
20
-2.33542381069898
30
0
41
1
10
41.2867178240851
20
-2.1568647876451
30
0
41
1
10
41.0601579079375
20
-2.02684048534303
30
0
41
1
10
40.8320363462788
20
-1.88708542028957
30
0
0
SPLINE
5
181
100
AcDbEntity
8
1
62
256
6
ByLayer
370
18
48
1
60
0
100
AcDbSpline
70
4
71
3
72
30
73
26
40
0
40
0
40
0
40
0
40
0.0659761142033667
40
0.0659761142033667
40
0.131952228406733
40
0.131952228406733
40
0.263904456813458
40
0.263904456813458
40
0.329880571016821
40
0.329880571016821
40
0.395856685220183
40
0.395856685220183
40
0.527808913626908
40
0.527808913626908
40
0.593785027830275
40
0.593785027830275
40
0.659761142033642
40
0.659761142033642
40
0.791713370440384
40
0.791713370440384
40
0.923665598847125
40
0.923665598847125
40
0.989641713050492
40
0.989641713050492
40
1
40
1
40
1
40
1
41
1
10
38.5398870917177
20
-3.10866408422638
30
0
41
1
10
38.6091741520187
20
-3.1117329694271
30
0
41
1
10
38.6783600485881
20
-3.11344194844273
30
0
41
1
10
38.8165557461532
20
-3.11412865468626
30
0
41
1
10
38.8855192793174
20
-3.11310261089804
30
0
41
1
10
39.0926061187637
20
-3.10591982611416
30
0
41
1
10
39.2310121747627
20
-3.09568834040258
30
0
41
1
10
39.4392664874566
20
-3.07227011782968
30
0
41
1
10
39.5088459847893
20
-3.06310541311831
30
0
41
1
10
39.6475104381892
20
-3.04217980726648
30
0
41
1
10
39.7166760156383
20
-3.03041253467367
30
0
41
1
10
39.9237513908198
20
-2.99126311629411
30
0
41
1
10
40.0612516960186
20
-2.96004441726328
30
0
41
1
10
40.2668439038107
20
-2.90566064604212
30
0
41
1
10
40.3352619284186
20
-2.88627084466555
30
0
41
1
10
40.4718682968236
20
-2.844950328013
30
0
41
1
10
40.5401008777609
20
-2.82303862586394
30
0
41
1
10
40.7451558050926
20
-2.75388521021336
30
0
41
1
10
40.8821192192408
20
-2.70312089302144
30
0
41
1
10
41.1567618428268
20
-2.59245459180818
30
0
41
1
10
41.2944198052605
20
-2.5325357577822
30
0
41
1
10
41.5016507943638
20
-2.43583961602656
30
0
41
1
10
41.5708505808902
20
-2.40246929825253
30
0
41
1
10
41.6510681078901
20
-2.36252811443498
30
0
41
1
10
41.6619595274356
20
-2.35707832717566
30
0
41
1
10
41.6728536762414
20
-2.35160033291766
30
0
0
SPLINE
5
182
100
AcDbEntity
8
1
62
256
6
ByLayer
370
18
48
1
60
0
100
AcDbSpline
70
4
71
3
72
10
73
6
40
0
40
0
40
0
40
0
40
0.140154531844121
40
0.140154531844121
40
1
40
1
40
1
40
1
41
1
10
51.514094383924
20
3.11384988472238
30
0
41
1
10
51.5253766945397
20
3.11384776836084
30
0
41
1
10
51.5366624281148
20
3.1138093345657
30
0
41
1
10
51.6172121283614
20
3.11327632208307
30
0
41
1
10
51.6865930458053
20
3.11145432798168
30
0
41
1
10
51.756078081873
20
3.10826993713334
30
0
0
SPLINE
5
183
100
AcDbEntity
8
1
62
256
6
ByLayer
370
18
48
1
60
0
100
AcDbSpline
70
4
71
3
72
16
73
12
40
0
40
0
40
0
40
0
40
0.249999999999989
40
0.249999999999989
40
0.499999999999977
40
0.499999999999977
40
0.749999999999966
40
0.749999999999966
40
0.874999999999983
40
0.874999999999983
40
1
40
1
40
1
40
1
41
1
10
51.7560780818729
20
3.10826993713334
30
0
41
1
10
51.8029120795627
20
3.10612360805195
30
0
41
1
10
51.8496530830951
20
3.10636181532823
30
0
41
1
10
51.9426990703928
20
3.111679926346
30
0
41
1
10
51.9890046617799
20
3.11675611503861
30
0
41
1
10
52.0810093314339
20
3.13204375366883
30
0
41
1
10
52.1267060406721
20
3.14224666326859
30
0
41
1
10
52.1947290076444
20
3.16191064554937
30
0
41
1
10
52.2173201384515
20
3.16920150476912
30
0
41
1
10
52.2620350986597
20
3.1852749445973
30
0
41
1
10
52.2841900599374
20
3.19406543929247
30
0
41
1
10
52.3060780818729
20
3.20361798396911
30
0
0
SPLINE
5
184
100
AcDbEntity
8
1
62
256
6
ByLayer
370
18
48
1
60
0
100
AcDbSpline
70
4
71
3
72
8
73
4
40
0
40
0
40
0
40
0
40
1
40
1
40
1
40
1
41
1
10
52.3060780818729
20
3.20361798396911
30
0
41
1
10
52.3818825588128
20
3.23670117690406
30
0
41
1
10
52.4571090144926
20
3.26782383283438
30
0
41
1
10
52.5317697698526
20
3.29683191826206
30
0
0
SPLINE
5
185
100
AcDbEntity
8
1
62
256
6
ByLayer
370
18
48
1
60
0
100
AcDbSpline
70
4
71
3
72
43
73
39
40
0
40
0
40
0
40
0
40
0.0312500000000342
40
0.0312500000000342
40
0.0625000000000683
40
0.0625000000000683
40
0.0937500000001025
40
0.0937500000001025
40
0.125000000000137
40
0.125000000000137
40
0.156250000000171
40
0.156250000000171
40
0.187500000000205
40
0.187500000000205
40
0.250000000000274
40
0.250000000000274
40
0.281250000000292
40
0.281250000000292
40
0.31250000000031
40
0.31250000000031
40
0.375000000000313
40
0.375000000000313
40
0.406250000000297
40
0.406250000000297
40
0.437500000000282
40
0.437500000000282
40
0.468750000000266
40
0.468750000000266
40
0.500000000000251
40
0.500000000000251
40
0.531250000000235
40
0.531250000000235
40
0.562500000000219
40
0.562500000000219
40
0.625000000000188
40
0.750000000000125
40
0.750000000000125
40
1
40
1
40
1
40
1
41
1
10
52.5317697698525
20
3.2968319182622
30
0
41
1
10
52.5363375075459
20
3.28837166903901
30
0
41
1
10
52.5408989779579
20
3.27989512826824
30
0
41
1
10
52.5500496523167
20
3.26294554008618
30
0
41
1
10
52.5546724698348
20
3.25450269093241
30
0
41
1
10
52.5645163620686
20
3.23813109006815
30
0
41
1
10
52.5697613839622
20
3.23021768756712
30
0
41
1
10
52.5808758039641
20
3.21549392643982
30
0
41
1
10
52.5867414364731
20
3.20860573441436
30
0
41
1
10
52.5990191295219
20
3.19566723342484
30
0
41
1
10
52.6054321280535
20
3.18961846248811
30
0
41
1
10
52.6187420560263
20
3.17826379481528
30
0
41
1
10
52.6256579545561
20
3.17293569691211
30
0
41
1
10
52.6468956018009
20
3.15805803865601
30
0
41
1
10
52.6615160657482
20
3.14969778379034
30
0
41
1
10
52.6840792826357
20
3.13940375517893
30
0
41
1
10
52.6917079727201
20
3.13635500939699
30
0
41
1
10
52.7071952131488
20
3.13110386267073
30
0
41
1
10
52.7150498375806
20
3.12891888944748
30
0
41
1
10
52.7384647062291
20
3.12386370315483
30
0
41
1
10
52.7540394405253
20
3.12234542239773
30
0
41
1
10
52.7773027484008
20
3.12280140387324
30
0
41
1
10
52.7850406290111
20
3.12341632598972
30
0
41
1
10
52.8004718554827
20
3.12569578390926
30
0
41
1
10
52.8081729283654
20
3.12736920827817
30
0
41
1
10
52.8230986808528
20
3.1318911429417
30
0
41
1
10
52.8303647818902
20
3.13476573095878
30
0
41
1
10
52.8444643430719
20
3.14184468623586
30
0
41
1
10
52.8513602594805
20
3.146080702587
30
0
41
1
10
52.864230027547
20
3.15585861313747
30
0
41
1
10
52.8701896639336
20
3.1614544352106
30
0
41
1
10
52.8810521721778
20
3.17422194919956
30
0
41
1
10
52.8860513199722
20
3.18124609485503
30
0
41
1
10
52.9012034357207
20
3.2019987786685
30
0
41
1
10
52.9312405530678
20
3.24356812437293
30
0
41
1
10
52.9607856094642
20
3.28497352023194
30
0
41
1
10
53.0198067325148
20
3.36689959786838
30
0
41
1
10
53.0592078418394
20
3.42017752993033
30
0
41
1
10
53.0983126195301
20
3.47247299983391
30
0
0
SPLINE
5
186
100
AcDbEntity
8
1
62
256
6
ByLayer
370
18
48
1
60
0
100
AcDbSpline
70
4
71
3
72
8
73
4
40
0
40
0
40
0
40
0
40
1
40
1
40
1
40
1
41
1
10
53.0983126195301
20
3.47247299983391
30
0
41
1
10
53.0999025081903
20
3.47459918439466
30
0
41
1
10
53.1014918564974
20
3.47672375604157
30
0
41
1
10
53.1030806875633
20
3.47884668638682
30
0
0
SPLINE
5
187
100
AcDbEntity
8
1
62
256
6
ByLayer
370
18
48
1
60
0
100
AcDbSpline
70
4
71
3
72
8
73
4
40
0
40
0
40
0
40
0
40
1
40
1
40
1
40
1
41
1
10
53.1030806875634
20
3.4788466863869
30
0
41
1
10
53.2370265297067
20
3.51169361465173
30
0
41
1
10
53.3695583102757
20
3.53701456642918
30
0
41
1
10
53.5010932982107
20
3.55441481799133
30
0
0
SPLINE
5
188
100
AcDbEntity
8
1
62
256
6
ByLayer
370
18
48
1
60
0
100
AcDbSpline
70
4
71
3
72
53
73
49
40
0
40
0
40
0
40
0
40
0.125000000000028
40
0.125000000000028
40
0.250000000000057
40
0.250000000000057
40
0.375000000000085
40
0.375000000000085
40
0.437500000000099
40
0.453125000000103
40
0.453125000000103
40
0.468750000000106
40
0.468750000000106
40
0.48437500000011
40
0.48437500000011
40
0.500000000000113
40
0.500000000000113
40
0.515625000000117
40
0.515625000000117
40
0.53125000000012
40
0.53125000000012
40
0.562500000000127
40
0.562500000000127
40
0.593750000000134
40
0.593750000000134
40
0.625000000000141
40
0.625000000000141
40
0.640625000000135
40
0.640625000000135
40
0.656250000000129
40
0.656250000000129
40
0.687500000000117
40
0.687500000000117
40
0.703125000000111
40
0.703125000000111
40
0.718750000000105
40
0.718750000000105
40
0.734375000000098
40
0.734375000000098
40
0.750000000000092
40
0.750000000000092
40
0.765625000000085
40
0.765625000000085
40
0.781250000000079
40
0.812500000000066
40
0.87500000000004
40
0.87500000000004
40
1
40
1
40
1
40
1
41
1
10
53.5010932982107
20
3.55441481799136
30
0
41
1
10
53.5329054991965
20
3.49129782239874
30
0
41
1
10
53.5648565209871
20
3.42802763802641
30
0
41
1
10
53.628978281555
20
3.30112710079564
30
0
41
1
10
53.6611583728674
20
3.23751273502342
30
0
41
1
10
53.7256430812653
20
3.11015586213119
30
0
41
1
10
53.7579603999923
20
3.04638467892775
30
0
41
1
10
53.8065115156911
20
2.95056356200652
30
0
41
1
10
53.8267574578802
20
2.91060190328326
30
0
41
1
10
53.8470112443752
20
2.87059863487011
30
0
41
1
10
53.8551131481644
20
2.8545938501685
30
0
41
1
10
53.8591439908597
20
2.8465764111539
30
0
41
1
10
53.8673216399723
20
2.83061378262661
30
0
41
1
10
53.871495026064
20
2.82268601377899
30
0
41
1
10
53.880335501588
20
2.80715011917047
30
0
41
1
10
53.8850136262328
20
2.79954921748649
30
0
41
1
10
53.895036312436
20
2.78478008328659
30
0
41
1
10
53.9003654014832
20
2.77759441900054
30
0
41
1
10
53.9116129009709
20
2.76363470776093
30
0
41
1
10
53.9174220678899
20
2.75699418553617
30
0
41
1
10
53.9353252442592
20
2.73794375333219
30
0
41
1
10
53.9478726246303
20
2.72636216916004
30
0
41
1
10
53.973953327611
20
2.70502123089957
30
0
41
1
10
53.9876024053738
20
2.69521570075713
30
0
41
1
10
54.0151420224477
20
2.67813060618829
30
0
41
1
10
54.0290896891046
20
2.67082747487882
30
0
41
1
10
54.0502672268483
20
2.66190461349413
30
0
41
1
10
54.0573675061116
20
2.65925694285954
30
0
41
1
10
54.0716454535936
20
2.65462142426085
30
0
41
1
10
54.0788079839674
20
2.65264188853141
30
0
41
1
10
54.1000150313274
20
2.64782872478162
30
0
41
1
10
54.1139120760725
20
2.64603207993349
30
0
41
1
10
54.1342656420443
20
2.64603265430895
30
0
41
1
10
54.1410023681995
20
2.64651797765663
30
0
41
1
10
54.1539571990884
20
2.64854176569653
30
0
41
1
10
54.16020619802
20
2.65005899623992
30
0
41
1
10
54.1722001620904
20
2.65420221614531
30
0
41
1
10
54.1779663294503
20
2.65682393806466
30
0
41
1
10
54.1887286727625
20
2.66359603268495
30
0
41
1
10
54.1935370237177
20
2.66774385339033
30
0
41
1
10
54.2028080976451
20
2.67646608298372
30
0
41
1
10
54.207355142094
20
2.6809243662467
30
0
41
1
10
54.2164715761193
20
2.6897614645836
30
0
41
1
10
54.2300963012863
20
2.7030127251281
30
0
41
1
10
54.2616058914382
20
2.73381268391202
30
0
41
1
10
54.2883213730561
20
2.75976079544128
30
0
41
1
10
54.3417735568443
20
2.8105118819806
30
0
41
1
10
54.3774224022927
20
2.84277446834437
30
0
41
1
10
54.41282066975
20
2.87389119248587
30
0
0
SPLINE
5
189
100
AcDbEntity
8
1
62
256
6
ByLayer
370
18
48
1
60
0
100
AcDbSpline
70
4
71
3
72
8
73
4
40
0
40
0
40
0
40
0
40
1
40
1
40
1
40
1
41
1
10
54.41282066975
20
2.87389119248584
30
0
41
1
10
54.4830728438119
20
2.93564612225089
30
0
41
1
10
54.5521878293306
20
2.99274885146931
30
0
41
1
10
54.6221110614664
20
3.04287228195142
30
0
0
SPLINE
5
18A
100
AcDbEntity
8
1
62
256
6
ByLayer
370
18
48
1
60
0
100
AcDbSpline
70
4
71
3
72
8
73
4
40
0
40
0
40
0
40
0
40
1
40
1
40
1
40
1
41
1
10
54.7460416096509
20
2.95879501772464
30
0
41
1
10
54.7046890019122
20
2.98727753439564
30
0
41
1
10
54.6633802377019
20
3.01530470382309
30
0
41
1
10
54.6221110614663
20
3.0428722819515
30
0
0
SPLINE
5
18B
100
AcDbEntity
8
1
62
256
6
ByLayer
370
18
48
1
60
0
100
AcDbSpline
70
4
71
3
72
8
73
4
40
0
40
0
40
0
40
0
40
1
40
1
40
1
40
1
41
1
10
56.0613453693714
20
1.91559832143497
30
0
41
1
10
56.0198613741537
20
1.95257629559998
30
0
41
1
10
55.9784038217536
20
1.98924334378043
30
0
41
1
10
55.9369238380406
20
2.02555786851434
30
0
0
SPLINE
5
18C
100
AcDbEntity
8
1
62
256
6
ByLayer
370
18
48
1
60
0
100
AcDbSpline
70
4
71
3
72
8
73
4
40
0
40
0
40
0
40
0
40
1
40
1
40
1
40
1
41
1
10
57.0419253067964
20
0.86735031886812
30
0
41
1
10
57.1124179373224
20
0.849864038391132
30
0
41
1
10
57.1817679633709
20
0.826905237974529
30
0
41
1
10
57.2518855389835
20
0.796251084552097
30
0
0
SPLINE
5
18D
100
AcDbEntity
8
1
62
256
6
ByLayer
370
18
48
1
60
0
100
AcDbSpline
70
4
71
3
72
8
73
4
40
0
40
0
40
0
40
0
40
1
40
1
40
1
40
1
41
1
10
57.375808761119
20
0.673699677293683
30
0
41
1
10
57.3345188185165
20
0.714703958986661
30
0
41
1
10
57.293215065544
20
0.755558074132551
30
0
41
1
10
57.2518855389835
20
0.79625108455204
30
0
0
SPLINE
5
18E
100
AcDbEntity
8
1
62
256
6
ByLayer
370
18
48
1
60
0
100
AcDbSpline
70
4
71
3
72
52
73
48
40
0
40
0
40
0
40
0
40
0.125000000000003
40
0.125000000000003
40
0.250000000000006
40
0.250000000000006
40
0.37500000000001
40
0.37500000000001
40
0.500000000000013
40
0.500000000000013
40
0.51562500000001
40
0.51562500000001
40
0.531250000000007
40
0.531250000000007
40
0.562500000000012
40
0.562500000000012
40
0.578125000000021
40
0.578125000000021
40
0.593750000000031
40
0.593750000000031
40
0.625000000000035
40
0.625000000000035
40
0.640625000000037
40
0.640625000000037
40
0.656250000000039
40
0.656250000000039
40
0.687500000000042
40
0.687500000000042
40
0.703125000000044
40
0.703125000000044
40
0.718750000000046
40
0.718750000000046
40
0.734375000000048
40
0.734375000000048
40
0.750000000000049
40
0.750000000000049
40
0.75781250000005
40
0.75781250000005
40
0.765625000000051
40
0.765625000000051
40
0.773437500000052
40
0.773437500000052
40
0.781250000000053
40
0.812500000000045
40
0.87500000000003
40
0.87500000000003
40
1
40
1
40
1
40
1
41
1
10
57.3758087611191
20
0.673699677293683
30
0
41
1
10
57.4105478753098
20
0.621947424963054
30
0
41
1
10
57.4456098968666
20
0.571187469482652
30
0
41
1
10
57.5159703588638
20
0.472073403998564
30
0
41
1
10
57.5512608829101
20
0.423732508086971
30
0
41
1
10
57.6220941245195
20
0.329587899381352
30
0
41
1
10
57.657656797495
20
0.283775876753197
30
0
41
1
10
57.7288938906808
20
0.195087565015712
30
0
41
1
10
57.7645786080553
20
0.152181095067021
30
0
41
1
10
57.8047497059848
20
0.105564051143006
30
0
41
1
10
57.8091982029481
20
0.100416546840961
30
0
41
1
10
57.8185379813086
20
0.089898128319561
30
0
41
1
10
57.8234624537707
20
0.0844952414199156
30
0
41
1
10
57.8392768058216
20
0.067814443177781
30
0
41
1
10
57.8510207107936
20
0.0562257775280557
30
0
41
1
10
57.8700442151854
20
0.03830418061861
30
0
41
1
10
57.8766205327665
20
0.0322400050808653
30
0
41
1
10
57.8901830827734
20
0.0199537150923845
30
0
41
1
10
57.8971798593847
20
0.0137235761297347
30
0
41
1
10
57.9183856619914
20
-0.0048768963197574
30
0
41
1
10
57.9329237608446
20
-0.0172660724588809
30
0
41
1
10
57.9553274171863
20
-0.0358820707073733
30
0
41
1
10
57.9629120669185
20
-0.0421057574254746
30
0
41
1
10
57.9782373511068
20
-0.0545231932574666
30
0
41
1
10
57.9858862056974
20
-0.0606427319806642
30
0
41
1
10
58.0087835060758
20
-0.0787679016953291
30
0
41
1
10
58.0239842076244
20
-0.090546017347009
30
0
41
1
10
58.0466397302377
20
-0.107781969763465
30
0
41
1
10
58.0541670837575
20
-0.113454166094812
30
0
41
1
10
58.0691573560041
20
-0.124632518213929
30
0
41
1
10
58.0764929537579
20
-0.130043393031571
30
0
41
1
10
58.0907297584993
20
-0.140409172487466
30
0
41
1
10
58.0976439643362
20
-0.145376161512246
30
0
41
1
10
58.1110200639203
20
-0.154843481859501
30
0
41
1
10
58.1174800548254
20
-0.159343123902232
30
0
41
1
10
58.126358513463
20
-0.165376970582713
30
0
41
1
10
58.129189116026
20
-0.167271535929444
30
0
41
1
10
58.1345997841883
20
-0.170834501427123
30
0
41
1
10
58.1371783313706
20
-0.172501410647556
30
0
41
1
10
58.1422205695278
20
-0.175739787015431
30
0
41
1
10
58.1446856700329
20
-0.177312605135882
30
0
41
1
10
58.1496176213938
20
-0.180475213132354
30
0
41
1
10
58.1619205680851
20
-0.188394198144266
30
0
41
1
10
58.1935906055861
20
-0.209175898440947
30
0
41
1
10
58.2223912343454
20
-0.229017554098419
30
0
41
1
10
58.2799462023345
20
-0.270040748830524
30
0
41
1
10
58.3183678538881
20
-0.299283985471305
30
0
41
1
10
58.3564944735788
20
-0.330024574186723
30
0
0
SPLINE
5
18F
100
AcDbEntity
8
1
62
256
6
ByLayer
370
18
48
1
60
0
100
AcDbSpline
70
4
71
3
72
8
73
4
40
0
40
0
40
0
40
0
40
1
40
1
40
1
40
1
41
1
10
58.6900136323487
20
-0.639478548802913
30
0
41
1
10
58.648952876434
20
-0.598855142733697
30
0
41
1
10
58.6078900779402
20
-0.558165682663002
30
0
41
1
10
58.5668233929792
20
-0.517412233573964
30
0
0
SPLINE
5
190
100
AcDbEntity
8
1
62
256
6
ByLayer
370
18
48
1
60
0
100
AcDbSpline
70
4
71
3
72
8
73
4
40
0
40
0
40
0
40
0
40
1
40
1
40
1
40
1
41
1
10
60.004350336046
20
-1.88668825132117
30
0
41
1
10
59.963273799653
20
-1.85032334394666
30
0
41
1
10
59.9222083363231
20
-1.81368677977142
30
0
41
1
10
59.8811511208684
20
-1.77678151561244
30
0
0
SPLINE
5
191
100
AcDbEntity
8
1
62
256
6
ByLayer
370
18
48
1
60
0
100
AcDbSpline
70
4
71
3
72
8
73
4
40
0
40
0
40
0
40
0
40
1
40
1
40
1
40
1
41
1
10
61.3194036828767
20
-2.93746448137418
30
0
41
1
10
61.2779995992809
20
-2.90884344998722
30
0
41
1
10
61.2366196206864
20
-2.87976986770048
30
0
41
1
10
61.1952580473384
20
-2.85024774850876
30
0
0
SPLINE
5
192
100
AcDbEntity
8
1
62
256
6
ByLayer
370
18
48
1
60
0
100
AcDbSpline
70
4
71
3
72
8
73
4
40
0
40
0
40
0
40
0
40
1
40
1
40
1
40
1
41
1
10
62.6336534767274
20
-3.68000931492799
30
0
41
1
10
62.5924903001437
20
-3.66249637051979
30
0
41
1
10
62.5513626556905
20
-3.64441263400954
30
0
41
1
10
62.5102648243428
20
-3.62575970603265
30
0
0
SPLINE
5
193
100
AcDbEntity
8
1
62
256
6
ByLayer
370
18
48
1
60
0
100
AcDbSpline
70
4
71
3
72
8
73
4
40
0
40
0
40
0
40
0
40
1
40
1
40
1
40
1
41
1
10
55.7273195578537
20
1.97401361387281
30
0
41
1
10
55.79769629208
20
1.99746339501686
30
0
41
1
10
55.8669301957574
20
2.01550405234079
30
0
41
1
10
55.9369238380407
20
2.02555786851409
30
0
0
SPLINE
5
194
100
AcDbEntity
8
1
62
256
6
ByLayer
370
18
48
1
60
0
100
AcDbSpline
70
4
71
3
72
8
73
4
40
0
40
0
40
0
40
0
40
1
40
1
40
1
40
1
41
1
10
56.1015105261935
20
-1.21697944001468
30
0
41
1
10
56.0290276585724
20
-1.08810520629916
30
0
41
1
10
55.9571914844695
20
-0.963596151079031
30
0
41
1
10
55.8843745175523
20
-0.843456706048954
30
0
0
SPLINE
5
195
100
AcDbEntity
8
1
62
256
6
ByLayer
370
18
48
1
60
0
100
AcDbSpline
70
4
71
3
72
29
73
25
40
0
40
0
40
0
40
0
40
0.125000000000001
40
0.125000000000001
40
0.250000000000003
40
0.250000000000003
40
0.281250000000003
40
0.281250000000003
40
0.312500000000003
40
0.312500000000003
40
0.375000000000003
40
0.375000000000003
40
0.500000000000002
40
0.500000000000002
40
0.625000000000002
40
0.625000000000002
40
0.687500000000002
40
0.687500000000002
40
0.718750000000002
40
0.718750000000002
40
0.750000000000001
40
0.750000000000001
40
0.875000000000001
40
1
40
1
40
1
40
1
41
1
10
55.9369238380408
20
2.02555786851437
30
0
41
1
10
55.9438513345278
20
1.90452401592807
30
0
41
1
10
55.9507885665586
20
1.78034271217123
30
0
41
1
10
55.9646588910876
20
1.52571763061843
30
0
41
1
10
55.9715910017704
20
1.39527415526914
30
0
41
1
10
55.9802560114956
20
1.22820052561551
30
0
41
1
10
55.9819891204301
20
1.19458432271872
30
0
41
1
10
55.9854561655516
20
1.12694420100584
30
0
41
1
10
55.9871878224874
20
1.09296418685685
30
0
41
1
10
55.9923558475668
20
0.990992666517002
30
0
41
1
10
55.9957739879641
20
0.922797669989905
30
0
41
1
10
56.0059632947133
20
0.717583538403602
30
0
41
1
10
56.0126669236891
20
0.579936766098854
30
0
41
1
10
56.0260350640756
20
0.302998070262703
30
0
41
1
10
56.032698679048
20
0.163706112681297
30
0
41
1
10
56.0428342226291
20
-0.0464796760935826
30
0
41
1
10
56.0462382355349
20
-0.116749883349115
30
0
41
1
10
56.0514050005862
20
-0.222473203502716
30
0
41
1
10
56.0531358250022
20
-0.257752352946369
30
0
41
1
10
56.0565945113783
20
-0.328003787912962
30
0
41
1
10
56.0583248721933
20
-0.363027319050644
30
0
41
1
10
56.0669789226383
20
-0.537639654635598
30
0
41
1
10
56.0808364915474
20
-0.813793866610041
30
0
41
1
10
56.0946254283381
20
-1.08364492277607
30
0
41
1
10
56.1015105261935
20
-1.21697944001468
30
0
0
SPLINE
5
196
100
AcDbEntity
8
1
62
256
6
ByLayer
370
18
48
1
60
0
100
AcDbSpline
70
4
71
3
72
50
73
46
40
0
40
0
40
0
40
0
40
0.125000000000011
40
0.125000000000011
40
0.250000000000022
40
0.250000000000022
40
0.375000000000033
40
0.375000000000033
40
0.500000000000044
40
0.500000000000044
40
0.515625000000046
40
0.515625000000046
40
0.531250000000047
40
0.531250000000047
40
0.56250000000005
40
0.56250000000005
40
0.578125000000059
40
0.578125000000059
40
0.593750000000068
40
0.593750000000068
40
0.62500000000007
40
0.62500000000007
40
0.640625000000079
40
0.640625000000079
40
0.656250000000088
40
0.656250000000088
40
0.687500000000124
40
0.687500000000124
40
0.71875000000016
40
0.71875000000016
40
0.73437500000017
40
0.73437500000017
40
0.75000000000018
40
0.75000000000018
40
0.757812500000178
40
0.757812500000178
40
0.765625000000176
40
0.765625000000176
40
0.773437500000174
40
0.773437500000174
40
0.781250000000173
40
0.812500000000145
40
0.8750000000001
40
0.8750000000001
40
1
40
1
40
1
40
1
41
1
10
54.7460416096508
20
2.95879501772231
30
0
41
1
10
54.780747819602
20
2.88808460083774
30
0
41
1
10
54.815809224357
20
2.81766424218461
30
0
41
1
10
54.8861361421338
20
2.67762962175615
30
0
41
1
10
54.9214212867006
20
2.6079881415038
30
0
41
1
10
54.9922505232137
20
2.46947480516539
30
0
41
1
10
55.027796560068
20
2.40060399963181
30
0
41
1
10
55.0991004101504
20
2.2636334066768
30
0
41
1
10
55.1348749846371
20
2.19550437412499
30
0
41
1
10
55.1750975194182
20
2.11944423428972
30
0
41
1
10
55.1795452784967
20
2.1109968875893
30
0
41
1
10
55.1888687676026
20
2.09419561405136
30
0
41
1
10
55.1937789718729
20
2.0858014776723
30
0
41
1
10
55.2095542059863
20
2.06117656735654
30
0
41
1
10
55.221287001461
20
2.04567105315451
30
0
41
1
10
55.2403123099448
20
2.0234817493666
30
0
41
1
10
55.2468926605921
20
2.01626412803336
30
0
41
1
10
55.260468261044
20
2.00213980466432
30
0
41
1
10
55.2674671598392
20
1.99523447332777
30
0
41
1
10
55.2886825530999
20
1.97530639398968
30
0
41
1
10
55.3032341423804
20
1.96292450839232
30
0
41
1
10
55.3256692512086
20
1.94575072756348
30
0
41
1
10
55.3332798941369
20
1.94024367878086
30
0
41
1
10
55.3485937342778
20
1.92985655650011
30
0
41
1
10
55.3562401962236
20
1.92501507791107
30
0
41
1
10
55.3791395131089
20
1.91145878181644
30
0
41
1
10
55.3943535523611
20
1.90368607660844
30
0
41
1
10
55.4246129687348
20
1.89077637535578
30
0
41
1
10
55.4398134225434
20
1.88559517506812
30
0
41
1
10
55.4612000857827
20
1.88101774184042
30
0
41
1
10
55.4681294999737
20
1.88000375458128
30
0
41
1
10
55.4815456252418
20
1.87909466823177
30
0
41
1
10
55.4880095003707
20
1.87919956854867
30
0
41
1
10
55.4969094659507
20
1.88042832779837
30
0
41
1
10
55.4997489690641
20
1.88102783249261
30
0
41
1
10
55.5051774325398
20
1.88260054244876
30
0
41
1
10
55.507764099235
20
1.88357735587468
30
0
41
1
10
55.5128177919854
20
1.88570044600536
30
0
41
1
10
55.515286436512
20
1.88684420517129
30
0
41
1
10
55.5202233803807
20
1.88911495738853
30
0
41
1
10
55.5325385738436
20
1.89478922475155
30
0
41
1
10
55.5642396329042
20
1.90945201528999
30
0
41
1
10
55.5930687449936
20
1.92243779186666
30
0
41
1
10
55.6506833178524
20
1.94698276379069
30
0
41
1
10
55.6891485380645
20
1.96129489269399
30
0
41
1
10
55.7273195578537
20
1.97401361387281
30
0
0
SPLINE
5
197
100
AcDbEntity
8
1
62
256
6
ByLayer
370
18
48
1
60
0
100
AcDbSpline
70
4
71
3
72
28
73
24
40
0
40
0
40
0
40
0
40
0.0624999999999997
40
0.0624999999999997
40
0.124999999999999
40
0.124999999999999
40
0.249999999999999
40
0.374999999999998
40
0.374999999999998
40
0.437499999999998
40
0.437499999999998
40
0.499999999999998
40
0.499999999999998
40
0.624999999999998
40
0.749999999999998
40
0.749999999999998
40
0.812499999999998
40
0.812499999999998
40
0.843749999999998
40
0.843749999999998
40
0.874999999999998
40
0.874999999999998
40
1
40
1
40
1
40
1
41
1
10
54.9107970694109
20
-0.0400568366369782
30
0
41
1
10
54.9073154344798
20
0.0301807710216053
30
0
41
1
10
54.9038019985141
20
0.100837111228174
30
0
41
1
10
54.8968148447366
20
0.241136462494893
30
0
41
1
10
54.8933326119671
20
0.31095145046271
30
0
41
1
10
54.8829269498582
20
0.519410598651632
30
0
41
1
10
54.8691671790178
20
0.794732602783228
30
0
41
1
10
54.8555845088184
20
1.06486674449698
30
0
41
1
10
54.8453944951536
20
1.2654793192292
30
0
41
1
10
54.8419968386509
20
1.33201816760209
30
0
41
1
10
54.8351826159571
20
1.46441616006857
30
0
41
1
10
54.8317932525245
20
1.52974447467827
30
0
41
1
10
54.8216619248888
20
1.72292957236763
30
0
41
1
10
54.8082404652916
20
1.97327585199682
30
0
41
1
10
54.7946770993727
20
2.2094358050395
30
0
41
1
10
54.7843455646137
20
2.38117285022469
30
0
41
1
10
54.7808753406824
20
2.43751964927341
30
0
41
1
10
54.775619884609
20
2.52066734566742
30
0
41
1
10
54.7738601524773
20
2.54815439366593
30
0
41
1
10
54.7703313720982
20
2.60266558174845
30
0
41
1
10
54.768565946301
20
2.62963320587477
30
0
41
1
10
54.7597756602004
20
2.76258741376358
30
0
41
1
10
54.7528479810167
20
2.86339054867889
30
0
41
1
10
54.7460416096491
20
2.95879501772447
30
0
0
SPLINE
5
198
100
AcDbEntity
8
1
62
256
6
ByLayer
370
18
48
1
60
0
100
AcDbSpline
70
4
71
3
72
52
73
48
40
0
40
0
40
0
40
0
40
0.124999999999867
40
0.124999999999867
40
0.249999999999733
40
0.249999999999733
40
0.281249999999705
40
0.281249999999705
40
0.296874999999696
40
0.296874999999696
40
0.312499999999687
40
0.312499999999687
40
0.34374999999967
40
0.34374999999967
40
0.359374999999661
40
0.359374999999661
40
0.374999999999652
40
0.374999999999652
40
0.406249999999635
40
0.406249999999635
40
0.421874999999635
40
0.421874999999635
40
0.437499999999634
40
0.437499999999634
40
0.453124999999634
40
0.453124999999634
40
0.468749999999634
40
0.468749999999634
40
0.499999999999633
40
0.499999999999633
40
0.515624999999641
40
0.515624999999641
40
0.531249999999649
40
0.531249999999649
40
0.539062499999653
40
0.539062499999653
40
0.546874999999657
40
0.546874999999657
40
0.562499999999665
40
0.562499999999665
40
0.624999999999717
40
0.624999999999717
40
0.749999999999812
40
0.749999999999812
40
0.874999999999906
40
0.874999999999906
40
1
40
1
40
1
40
1
41
1
10
55.8843745175523
20
-0.843456706048954
30
0
41
1
10
55.852310706365
20
-0.790555182617226
30
0
41
1
10
55.820074777192
20
-0.738530053287121
30
0
41
1
10
55.7555739208526
20
-0.636377769013563
30
0
41
1
10
55.7233980405608
20
-0.586278474239975
30
0
41
1
10
55.6824733118183
20
-0.524638699768872
30
0
41
1
10
55.6742511908946
20
-0.512359470938435
30
0
41
1
10
55.6618391879269
20
-0.494007116468396
30
0
41
1
10
55.6577067103514
20
-0.487906582179107
30
0
41
1
10
55.6489265334992
20
-0.475567489625973
30
0
41
1
10
55.6442307214722
20
-0.469313259791193
30
0
41
1
10
55.629118505186
20
-0.450263323811839
30
0
41
1
10
55.617869023271
20
-0.437243794702454
30
0
41
1
10
55.5993860449836
20
-0.417282110654071
30
0
41
1
10
55.5929017285443
20
-0.410516237054168
30
0
41
1
10
55.5797076671404
20
-0.397178672164671
30
0
41
1
10
55.5729684858083
20
-0.39056856258648
30
0
41
1
10
55.5523643898274
20
-0.370894721412498
30
0
41
1
10
55.5381212725043
20
-0.357984921139376
30
0
41
1
10
55.515973026258
20
-0.338912559452012
30
0
41
1
10
55.5085009828881
20
-0.332643224574355
30
0
41
1
10
55.4935224204011
20
-0.320413832366228
30
0
41
1
10
55.4859935800936
20
-0.314437404572629
30
0
41
1
10
55.4708589050995
20
-0.302772172138617
30
0
41
1
10
55.463254070592
20
-0.297079675323289
30
0
41
1
10
55.4479762013883
20
-0.285969432459297
30
0
41
1
10
55.4402717828453
20
-0.280530036470964
30
0
41
1
10
55.4172795001156
20
-0.264796937947722
30
0
41
1
10
55.4022992419144
20
-0.255180113168024
30
0
41
1
10
55.3805837263149
20
-0.242497408402187
30
0
41
1
10
55.3734776264257
20
-0.238583130434904
30
0
41
1
10
55.3601099881849
20
-0.23179606345019
30
0
41
1
10
55.353787100791
20
-0.228884914369559
30
0
41
1
10
55.3449289308883
20
-0.225353512552772
30
0
41
1
10
55.3420743464957
20
-0.224318276344036
30
0
41
1
10
55.336622954945
20
-0.222509822732377
30
0
41
1
10
55.334017249985
20
-0.2217313226339
30
0
41
1
10
55.3264211517204
20
-0.219618373684597
30
0
41
1
10
55.3216306455895
20
-0.218483038044695
30
0
41
1
10
55.2973832416413
20
-0.21231301844287
30
0
41
1
10
55.2779603663399
20
-0.206825247633674
30
0
41
1
10
55.2196601113029
20
-0.188781645043008
30
0
41
1
10
55.1807653631436
20
-0.174650174408583
30
0
41
1
10
55.103183431418
20
-0.142530822721142
30
0
41
1
10
55.0644582402888
20
-0.124529375380007
30
0
41
1
10
54.9873027043191
20
-0.0848743594490031
30
0
41
1
10
54.9488529222638
20
-0.0631886925509946
30
0
41
1
10
54.9107970694109
20
-0.0400568366369782
30
0
0
SPLINE
5
199
100
AcDbEntity
8
1
62
256
6
ByLayer
370
13
48
1
60
0
100
AcDbSpline
70
4
71
3
72
9
73
5
40
0
40
0
40
0
40
0
40
0.2534147391924
40
1
40
1
40
1
40
1
41
1
10
55.8843745175523
20
-0.843456706048954
30
0
41
1
10
55.8714804709763
20
-0.609295677938007
30
0
41
1
10
55.8203196397198
20
0.340549193232135
30
0
41
1
10
55.7679374072703
20
1.33295255887606
30
0
41
1
10
55.7273195578537
20
1.97401361387281
30
0
0
SPLINE
5
19A
100
AcDbEntity
8
1
62
256
6
ByLayer
370
18
48
1
60
0
100
AcDbSpline
70
4
71
3
72
96
73
92
40
0
40
0
40
0
40
0
40
0.031250000000009
40
0.031250000000009
40
0.0625000000000181
40
0.0625000000000181
40
0.125000000000036
40
0.125000000000036
40
0.187500000000054
40
0.187500000000054
40
0.195312500000054
40
0.195312500000054
40
0.203125000000054
40
0.203125000000054
40
0.218750000000053
40
0.218750000000053
40
0.250000000000056
40
0.250000000000056
40
0.265625000000055
40
0.265625000000055
40
0.281250000000054
40
0.296875000000054
40
0.296875000000054
40
0.312500000000053
40
0.312500000000053
40
0.328125000000052
40
0.328125000000052
40
0.343750000000051
40
0.343750000000051
40
0.375000000000047
40
0.375000000000047
40
0.406250000000044
40
0.406250000000044
40
0.43750000000004
40
0.43750000000004
40
0.453125000000038
40
0.453125000000038
40
0.468750000000036
40
0.468750000000036
40
0.484375000000034
40
0.484375000000034
40
0.492187500000032
40
0.492187500000032
40
0.50000000000003
40
0.50000000000003
40
0.515625000000028
40
0.515625000000028
40
0.531250000000026
40
0.531250000000026
40
0.535156250000026
40
0.535156250000026
40
0.539062500000026
40
0.546875000000024
40
0.546875000000024
40
0.562500000000022
40
0.562500000000022
40
0.566406250000022
40
0.566406250000022
40
0.570312500000022
40
0.578125000000022
40
0.578125000000022
40
0.593750000000021
40
0.593750000000021
40
0.60156250000002
40
0.60156250000002
40
0.60937500000002
40
0.625000000000019
40
0.625000000000019
40
0.640625000000018
40
0.640625000000018
40
0.656250000000017
40
0.656250000000017
40
0.671875000000016
40
0.671875000000016
40
0.679687500000015
40
0.679687500000015
40
0.687500000000015
40
0.687500000000015
40
0.718750000000013
40
0.718750000000013
40
0.750000000000011
40
0.750000000000011
40
0.781250000000009
40
0.781250000000009
40
0.812500000000007
40
0.812500000000007
40
0.875000000000005
40
0.875000000000005
40
0.937500000000002
40
0.937500000000002
40
1
40
1
40
1
40
1
41
1
10
40.8320498780286
20
-1.88708773795821
30
0
41
1
10
40.758736550834
20
-1.83906442931206
30
0
41
1
10
40.6848351585823
20
-1.79095838349272
30
0
41
1
10
40.5353722246552
20
-1.69545052462743
30
0
41
1
10
40.4598247500457
20
-1.64803077191198
30
0
41
1
10
40.230222058453
20
-1.50784484622122
30
0
41
1
10
40.0731727698083
20
-1.41718649712473
30
0
41
1
10
39.7483198245298
20
-1.24760146791181
30
0
41
1
10
39.5805255885198
20
-1.16866102825898
30
0
41
1
10
39.3837753044383
20
-1.09065781766915
30
0
41
1
10
39.3618040454327
20
-1.08213992374388
30
0
41
1
10
39.3176350375723
20
-1.06541653650629
30
0
41
1
10
39.2954129391539
20
-1.05720242836884
30
0
41
1
10
39.2286240859719
20
-1.03313308200572
30
0
41
1
10
39.1839255346093
20
-1.01784451309601
30
0
41
1
10
39.0492905909587
20
-0.974388086377019
30
0
41
1
10
38.958817932031
20
-0.948616054640638
30
0
41
1
10
38.8219041248611
20
-0.915500788220101
30
0
41
1
10
38.7760722502157
20
-0.90535359937914
30
0
41
1
10
38.6839319000615
20
-0.887278743755587
30
0
41
1
10
38.5913156023493
20
-0.871421008948261
30
0
41
1
10
38.497829741699
20
-0.859641548390869
30
0
41
1
10
38.4039520559963
20
-0.849709106398592
30
0
41
1
10
38.356810463671
20
-0.84569876768947
30
0
41
1
10
38.2622218867685
20
-0.839122299612711
30
0
41
1
10
38.2147709417855
20
-0.836574811717611
30
0
41
1
10
38.1195341168084
20
-0.833067517385075
30
0
41
1
10
38.0718427548933
20
-0.832114101052525
30
0
41
1
10
37.9292592824938
20
-0.831777749353193
30
0
41
1
10
37.8345789453464
20
-0.834882355174301
30
0
41
1
10
37.6460668267807
20
-0.848596612385194
30
0
41
1
10
37.5522329671111
20
-0.859188874376002
30
0
41
1
10
37.365568813993
20
-0.889172519856629
30
0
41
1
10
37.2727265738209
20
-0.908461157041614
30
0
41
1
10
37.13443037206
20
-0.945752495484214
30
0
41
1
10
37.088841143201
20
-0.95948578038616
30
0
41
1
10
36.9989692917105
20
-0.989797858791945
30
0
41
1
10
36.9546611578702
20
-1.00638172076378
30
0
41
1
10
36.8674921084129
20
-1.04279665013311
30
0
41
1
10
36.8246297726304
20
-1.06262485878224
30
0
41
1
10
36.7616285642728
20
-1.09522386550142
30
0
41
1
10
36.7409116967185
20
-1.10653609191854
30
0
41
1
10
36.7003487189065
20
-1.12995826324862
30
0
41
1
10
36.6804636505143
20
-1.14208804625136
30
0
41
1
10
36.6220784646828
20
-1.17980268288676
30
0
41
1
10
36.5848391007827
20
-1.20670412502537
30
0
41
1
10
36.5142838181419
20
-1.26449878870312
30
0
41
1
10
36.4809680993946
20
-1.29539348878868
30
0
41
1
10
36.4423007981834
20
-1.33696065427898
30
0
41
1
10
36.4346992451028
20
-1.34544315729283
30
0
41
1
10
36.419904655062
20
-1.36261035787447
30
0
41
1
10
36.398356474654
20
-1.38862320666746
30
0
41
1
10
36.378758328854
20
-1.41541798265416
30
0
41
1
10
36.342222020418
20
-1.47004054793791
30
0
41
1
10
36.3214066612487
20
-1.50783220877525
30
0
41
1
10
36.3000742217144
20
-1.55677076994843
30
0
41
1
10
36.2960377988967
20
-1.56665896377626
30
0
41
1
10
36.2885133320879
20
-1.58640498253598
30
0
41
1
10
36.2780182484613
20
-1.61604473531662
30
0
41
1
10
36.269836808936
20
-1.64572997424969
30
0
41
1
10
36.2564232838865
20
-1.70512118434877
30
0
41
1
10
36.2514067270071
20
-1.74474203681419
30
0
41
1
10
36.2493738576801
20
-1.80407602254539
30
0
41
1
10
36.2496227007474
20
-1.82365376884243
30
0
41
1
10
36.2522591767262
20
-1.86215794163095
30
0
41
1
10
36.2592714559318
20
-1.91906471767257
30
0
41
1
10
36.2749328759569
20
-1.97353794280383
30
0
41
1
10
36.3025501419211
20
-2.04418960092497
30
0
41
1
10
36.319438147658
20
-2.07768656542945
30
0
41
1
10
36.3573300021821
20
-2.14194088368637
30
0
41
1
10
36.3783575762794
20
-2.17269555480738
30
0
41
1
10
36.4235608571337
20
-2.23196404307927
30
0
41
1
10
36.4477456397891
20
-2.26047369285442
30
0
41
1
10
36.4859286744349
20
-2.30178931092635
30
0
41
1
10
36.4989554483197
20
-2.3152948528855
30
0
41
1
10
36.5254340268989
20
-2.34170595558933
30
0
41
1
10
36.5389034918728
20
-2.35462891657861
30
0
41
1
10
36.6072565296202
20
-2.41795561247102
30
0
41
1
10
36.6651064515765
20
-2.46454340833373
30
0
41
1
10
36.7849988448926
20
-2.55149508165371
30
0
41
1
10
36.8470640166909
20
-2.59183808233249
30
0
41
1
10
36.9742070357194
20
-2.66731757426246
30
0
41
1
10
37.0393164052238
20
-2.70245665500781
30
0
41
1
10
37.1717324694599
20
-2.76807080732684
30
0
41
1
10
37.2385804780344
20
-2.79832009787276
30
0
41
1
10
37.4403809208433
20
-2.88227898656811
30
0
41
1
10
37.5765506877217
20
-2.929263835548
30
0
41
1
10
37.8502137359418
20
-3.0074494487489
30
0
41
1
10
37.9877262023883
20
-3.03861340920019
30
0
41
1
10
38.2633350429352
20
-3.08545520538826
30
0
41
1
10
38.4014321588989
20
-3.10111689177373
30
0
41
1
10
38.5398870604076
20
-3.10866404410427
30
0
0
SPLINE
5
19B
100
AcDbEntity
8
SK1
62
256
6
ByLayer
370
18
48
1
60
0
100
AcDbSpline
70
4
71
3
72
25
73
21
40
0
40
0
40
0
40
0
40
0.0625082013713239
40
0.0625082013713239
40
0.125016402742648
40
0.125016402742648
40
0.250032805485296
40
0.250032805485296
40
0.500065610970594
40
0.500065610970594
40
0.625082013713243
40
0.625082013713243
40
0.687590215084567
40
0.718844315770229
40
0.718844315770229
40
0.750098416455891
40
0.750098416455891
40
0.87511481919854
40
0.87511481919854
40
1
40
1
40
1
40
1
41
1
10
-22.8
20
3.09999999999997
30
0
41
1
10
-22.8255580387326
20
3.09999999999997
30
0
41
1
10
-22.8507859698115
20
3.09999999999997
30
0
41
1
10
-22.900515272324
20
3.09999999999997
30
0
41
1
10
-22.9250377452358
20
3.09999999999997
30
0
41
1
10
-22.9972279312134
20
3.09999999999997
30
0
41
1
10
-23.0434983576829
20
3.09999999999997
30
0
41
1
10
-23.1757222997548
20
3.09999999999997
30
0
41
1
10
-23.2551635800205
20
3.09999999999997
30
0
41
1
10
-23.3559652856179
20
3.09999999999997
30
0
41
1
10
-23.386487399267
20
3.09999999999997
30
0
41
1
10
-23.4268208094404
20
3.09999999999997
30
0
41
1
10
-23.4456232733698
20
3.09999999999997
30
0
41
1
10
-23.4622079504984
20
3.09999999999997
30
0
41
1
10
-23.4727515433793
20
3.09999999999997
30
0
41
1
10
-23.4777720281785
20
3.09999999999997
30
0
41
1
10
-23.5014388703221
20
3.09999999999997
30
0
41
1
10
-23.5158360601473
20
3.09999999999997
30
0
41
1
10
-23.5351008122361
20
3.09999999999997
30
0
41
1
10
-23.5399770632899
20
3.09999999999994
30
0
41
1
10
-23.5400000000048
20
3.09999999999994
30
0
0
SPLINE
5
19C
100
AcDbEntity
8
SK1
62
256
6
ByLayer
370
18
48
1
60
0
100
AcDbSpline
70
4
71
3
72
25
73
21
40
0
40
0
40
0
40
0
40
0.124885161238495
40
0.124885161238495
40
0.249901566775853
40
0.249901566775853
40
0.281155668160192
40
0.281155668160192
40
0.312409769544532
40
0.37491797231321
40
0.37491797231321
40
0.499934377850569
40
0.499934377850569
40
0.749967188925284
40
0.749967188925284
40
0.874983594462643
40
0.874983594462643
40
0.937491797231321
40
0.937491797231321
40
1
40
1
40
1
40
1
41
1
10
-23.5399999999925
20
-3.10000000000005
30
0
41
1
10
-23.5399770615442
20
-3.10000000000005
30
0
41
1
10
-23.5351008105127
20
-3.10000000000002
30
0
41
1
10
-23.5158360601473
20
-3.10000000000002
30
0
41
1
10
-23.5014388703221
20
-3.10000000000002
30
0
41
1
10
-23.4777720281785
20
-3.10000000000002
30
0
41
1
10
-23.4727515433793
20
-3.10000000000002
30
0
41
1
10
-23.4622079504984
20
-3.10000000000002
30
0
41
1
10
-23.4456232733698
20
-3.10000000000002
30
0
41
1
10
-23.4268208094403
20
-3.10000000000002
30
0
41
1
10
-23.3864873992669
20
-3.10000000000002
30
0
41
1
10
-23.3559652856179
20
-3.10000000000002
30
0
41
1
10
-23.2551635800205
20
-3.10000000000002
30
0
41
1
10
-23.1757222997547
20
-3.10000000000002
30
0
41
1
10
-23.0434983576829
20
-3.10000000000002
30
0
41
1
10
-22.9972279312133
20
-3.10000000000002
30
0
41
1
10
-22.9250377452358
20
-3.10000000000002
30
0
41
1
10
-22.9005152723239
20
-3.10000000000002
30
0
41
1
10
-22.8507859698115
20
-3.10000000000002
30
0
41
1
10
-22.8255580387326
20
-3.10000000000002
30
0
41
1
10
-22.8
20
-3.10000000000002
30
0
0
SPLINE
5
19D
100
AcDbEntity
8
SK1
62
256
6
ByLayer
370
18
48
1
60
0
100
AcDbSpline
70
4
71
3
72
42
73
38
40
0
40
0
40
0
40
0
40
0.0624999999999998
40
0.0624999999999998
40
0.0937499999999997
40
0.0937499999999997
40
0.125
40
0.125
40
0.25
40
0.25
40
0.375
40
0.375
40
0.390625
40
0.390625
40
0.40625
40
0.40625
40
0.4375
40
0.4375
40
0.5
40
0.5625
40
0.5625
40
0.624999999999999
40
0.624999999999999
40
0.640624999999999
40
0.640624999999999
40
0.656249999999999
40
0.687499999999999
40
0.687499999999999
40
0.75
40
0.75
40
0.875
40
0.875
40
0.9375
40
0.9375
40
0.96875
40
0.96875
40
1
40
1
40
1
40
1
41
1
10
-22.8
20
-2.26618622359246
30
0
41
1
10
-22.8508894316494
20
-2.17995526185629
30
0
41
1
10
-22.9004658050821
20
-2.09275503916427
30
0
41
1
10
-22.9724426999165
20
-1.96019220081689
30
0
41
1
10
-22.996036028223
20
-1.91571008013594
30
0
41
1
10
-23.0423408985636
20
-1.82609493008272
30
0
41
1
10
-23.0650757832331
20
-1.78091234802616
30
0
41
1
10
-23.1758387500034
20
-1.55417609606832
30
0
41
1
10
-23.2554566958293
20
-1.36974721051177
30
0
41
1
10
-23.3897816515624
20
-0.992468314566707
30
0
41
1
10
-23.444474755522
20
-0.799613603282126
30
0
41
1
10
-23.486994699949
20
-0.57622580404788
30
0
41
1
10
-23.4914541484178
20
-0.551315357845539
30
0
41
1
10
-23.4998243597224
20
-0.501308982638278
30
0
41
1
10
-23.5037398055586
20
-0.476178764178911
30
0
41
1
10
-23.5145929273497
20
-0.400801949397191
30
0
41
1
10
-23.5206393479445
20
-0.350580412204295
30
0
41
1
10
-23.5351619313951
20
-0.200006058842433
30
0
41
1
10
-23.5448636827396
20
0.0005186273750724
30
0
41
1
10
-23.535110928051
20
0.200557804829629
30
0
41
1
10
-23.5158360601473
20
0.400359347393845
30
0
41
1
10
-23.5014388703221
20
0.500141333692056
30
0
41
1
10
-23.4777720281785
20
0.62472730657376
30
0
41
1
10
-23.4727515433793
20
0.649653694457953
30
0
41
1
10
-23.4622079504984
20
0.69924920209607
30
0
41
1
10
-23.4456232733698
20
0.773343264923909
30
0
41
1
10
-23.4268208094403
20
0.846574765308077
30
0
41
1
10
-23.386487399267
20
0.991976579143682
30
0
41
1
10
-23.3559652856179
20
1.08749807377382
30
0
41
1
10
-23.2551635800205
20
1.37047065302403
30
0
41
1
10
-23.1757222997547
20
1.55435848789429
30
0
41
1
10
-23.0434983576829
20
1.82511003621912
30
0
41
1
10
-22.9972279312134
20
1.91450654932038
30
0
41
1
10
-22.9250377452358
20
2.04751832711881
30
0
41
1
10
-22.9005152723239
20
2.09166174892783
30
0
41
1
10
-22.8507859698115
20
2.17932232815221
30
0
41
1
10
-22.8255580387326
20
2.22287871968496
30
0
41
1
10
-22.8
20
2.26618622359243
30
0
0
SPLINE
5
19E
100
AcDbEntity
8
1
62
256
6
ByLayer
370
18
48
1
60
0
100
AcDbSpline
70
4
71
2
72
6
73
3
40
0
40
0
40
0
40
1
40
1
40
1
41
1
10
56.6314100672183
20
3.47667796868342
30
0
41
1
10
56.6263436782899
20
3.46826999799086
30
0
41
1
10
56.6212452677305
20
3.45968051480236
30
0
0
SPLINE
5
19F
100
AcDbEntity
8
1
62
256
6
ByLayer
370
18
48
1
60
0
100
AcDbSpline
70
4
71
2
72
6
73
3
40
0
40
0
40
0
40
1
40
1
40
1
41
1
10
56.9635734957797
20
4.05212503215023
30
0
41
1
10
56.8599612456758
20
3.87512685019163
30
0
41
1
10
56.7577348517356
20
3.69715067030703
30
0
0
SPLINE
5
1A0
100
AcDbEntity
8
1
62
256
6
ByLayer
370
18
48
1
60
0
100
AcDbSpline
70
4
71
1
72
4
73
2
40
0
40
0
40
1
40
1
41
1
10
66
20
2.94052591971575
30
0
41
1
10
65.7980320830987
20
3.14246728834766
30
0
0
SPLINE
5
1A1
100
AcDbEntity
8
1
62
256
6
ByLayer
370
18
48
1
60
0
100
AcDbSpline
70
4
71
3
72
10
73
6
40
0
40
0
40
0
40
0
40
0.714848966371164
40
0.941610209893406
40
1
40
1
40
1
40
1
41
1
10
64.0832113544856
20
-3.88445604589091
30
0
41
1
10
64.1626624096398
20
-3.74964392222805
30
0
41
1
10
64.2654371704523
20
-3.57388711903252
30
0
41
1
10
64.3724155113501
20
-3.38807029361408
30
0
41
1
10
64.4025286786245
20
-3.33591635517286
30
0
41
1
10
64.4095442435147
20
-3.32592183628466
30
0
0
SPLINE
5
1A2
100
AcDbEntity
8
1
62
256
6
ByLayer
370
18
48
1
60
0
100
AcDbSpline
70
4
71
1
72
4
73
2
40
0
40
0
40
1
40
1
41
1
10
63.831480950511
20
-4.00232622258955
30
0
41
1
10
64.0767568906006
20
-3.89540341794682
30
0
0
SPLINE
5
1A3
100
AcDbEntity
8
1
62
256
6
ByLayer
370
18
48
1
60
0
100
AcDbSpline
70
4
71
2
72
6
73
3
40
0
40
0
40
0
40
1
40
1
40
1
41
1
10
63.6439242214195
20
-3.71188133447376
30
0
41
1
10
63.7218221310204
20
-3.84747128231859
30
0
41
1
10
63.8003324090983
20
-3.98270553332117
30
0
0
SPLINE
5
1A4
100
AcDbEntity
8
1
62
256
6
ByLayer
370
18
48
1
60
0
100
AcDbSpline
70
4
71
2
72
6
73
3
40
0
40
0
40
0
40
1
40
1
40
1
41
1
10
63.8111922468605
20
-4.00140490163102
30
0
41
1
10
63.8141327227737
20
-4.00646623177511
30
0
41
1
10
63.8170740567648
20
-4.01152706350095
30
0
0
SPLINE
5
1A5
100
AcDbEntity
8
1
62
256
6
ByLayer
370
18
48
1
60
0
100
AcDbSpline
70
4
71
3
72
13
73
9
40
0
40
0
40
0
40
0
40
0.355267208231965
40
0.637288005257329
40
0.840156763281374
40
0.914146072175473
40
0.975574548614132
40
1
40
1
40
1
40
1
41
1
10
55.2328071066275
20
-4.05903867597269
30
0
41
1
10
55.2889672752682
20
-3.96258677293861
30
0
41
1
10
55.3893044767572
20
-3.790100928606
30
0
41
1
10
55.5206480363179
20
-3.56260979217552
30
0
41
1
10
55.6075091809118
20
-3.41346907832113
30
0
41
1
10
55.6569193627084
20
-3.32227684664755
30
0
41
1
10
55.6946389794651
20
-3.29171585290845
30
0
41
1
10
55.7171744558655
20
-3.28058319800539
30
0
41
1
10
55.723601304534
20
-3.27783616235837
30
0
0
SPLINE
5
1A6
100
AcDbEntity
8
1
62
256
6
ByLayer
370
18
48
1
60
0
100
AcDbSpline
70
4
71
3
72
8
73
4
40
0
40
0
40
0
40
0
40
1
40
1
40
1
40
1
41
1
10
55.859887780492
20
-3.27858548349983
30
0
41
1
10
55.8680541452891
20
-3.28236322873752
30
0
41
1
10
55.8761152058665
20
-3.2868518155081
30
0
41
1
10
55.88416882475
20
-3.29202446340963
30
0
0
SPLINE
5
1A7
100
AcDbEntity
8
1
62
256
6
ByLayer
370
18
48
1
60
0
100
AcDbSpline
70
4
71
2
72
6
73
3
40
0
40
0
40
0
40
1
40
1
40
1
41
1
10
54.887096617722
20
-3.70523222976234
30
0
41
1
10
54.9851728345144
20
-3.87623526430977
30
0
41
1
10
55.0846512046371
20
-4.04646626554529
30
0
0
SPLINE
5
1A8
100
AcDbEntity
8
1
62
256
6
ByLayer
370
18
48
1
60
0
100
AcDbSpline
70
4
71
2
72
6
73
3
40
0
40
0
40
0
40
1
40
1
40
1
41
1
10
55.0856743961992
20
-4.04821710424807
30
0
41
1
10
55.0886476041442
20
-4.05330447828484
30
0
41
1
10
55.0916220644395
20
-4.05839116277073
30
0
0
SPLINE
5
1A9
100
AcDbEntity
8
1
62
256
6
ByLayer
370
18
48
1
60
0
100
AcDbSpline
70
4
71
3
72
16
73
12
40
0
40
0
40
0
40
0
40
0.400881739720048
40
0.553274608293751
40
0.613760836112333
40
0.671583034570041
40
0.773852757672791
40
0.848012433075554
40
0.896846384094826
40
0.955958345012262
40
1
40
1
40
1
40
1
41
1
10
58.0108647343346
20
3.70312305180857
30
0
41
1
10
57.9635667097031
20
3.61982344234894
30
0
41
1
10
57.8975066051987
20
3.50582877749363
30
0
41
1
10
57.8266165459465
20
3.37576428470069
30
0
41
1
10
57.7929356667299
20
3.32178948284681
30
0
41
1
10
57.7528530847035
20
3.28714552869485
30
0
41
1
10
57.6998819968712
20
3.265312721752
30
0
41
1
10
57.6458772851281
20
3.26409708970488
30
0
41
1
10
57.6091026716873
20
3.27266894245682
30
0
41
1
10
57.5748239221156
20
3.28709890342299
30
0
41
1
10
57.5545293022778
20
3.30274070535316
30
0
41
1
10
57.5463385752706
20
3.31008243285311
30
0
0
SPLINE
5
1AA
100
AcDbEntity
8
1
62
256
6
ByLayer
370
18
48
1
60
0
100
AcDbSpline
70
4
71
2
72
6
73
3
40
0
40
0
40
0
40
1
40
1
40
1
41
1
10
58.2132903969959
20
4.05292053830439
30
0
41
1
10
58.109874593014
20
3.87610899215409
30
0
41
1
10
58.0078798691575
20
3.69839824356288
30
0
0
SPLINE
5
1AB
100
AcDbEntity
8
1
62
256
6
ByLayer
370
18
48
1
60
0
100
AcDbSpline
70
4
71
3
72
19
73
15
40
0
40
0
40
0
40
0
40
0.240371505054992
40
0.409400434931973
40
0.467035995777144
40
0.509780525596923
40
0.541255022457191
40
0.567130717606461
40
0.599265056091588
40
0.638152036233239
40
0.682736141464494
40
0.729675055663454
40
0.849784456532993
40
1
40
1
40
1
40
1
41
1
10
62.7325594674404
20
-4.0597812727012
30
0
41
1
10
62.8038227835684
20
-3.93777452453531
30
0
41
1
10
62.9221180242121
20
-3.73103898274178
30
0
41
1
10
63.0611230387655
20
-3.49763745661775
30
0
41
1
10
63.1316291554045
20
-3.3633780490284
30
0
41
1
10
63.1738840996287
20
-3.3043752400655
30
0
41
1
10
63.2183722531072
20
-3.28006543149115
30
0
41
1
10
63.2470233951363
20
-3.27003275482034
30
0
41
1
10
63.2901931761038
20
-3.26316291136277
30
0
41
1
10
63.3432508413209
20
-3.27187559143212
30
0
41
1
10
63.4004861871011
20
-3.30136497198834
30
0
41
1
10
63.4572292305263
20
-3.38069163078023
30
0
41
1
10
63.5271346692792
20
-3.52020812131437
30
0
41
1
10
63.593441406273
20
-3.63043912090296
30
0
41
1
10
63.6297432835538
20
-3.69254235488512
30
0
0
SPLINE
5
1AC
100
AcDbEntity
8
1
62
256
6
ByLayer
370
18
48
1
60
0
100
AcDbSpline
70
4
71
2
72
6
73
3
40
0
40
0
40
0
40
1
40
1
40
1
41
1
10
62.3838403439217
20
-3.69959549051134
30
0
41
1
10
62.4852590583382
20
-3.87629858458499
30
0
41
1
10
62.5881776628955
20
-4.05221462590106
30
0
0
SPLINE
5
1AD
100
AcDbEntity
8
1
62
256
6
ByLayer
370
18
48
1
60
0
100
AcDbSpline
70
4
71
3
72
18
73
14
40
0
40
0
40
0
40
0
40
0.193821063386348
40
0.348292954849179
40
0.460705860006003
40
0.502712630804017
40
0.538550693800621
40
0.595006188037123
40
0.632450567572397
40
0.682225436359845
40
0.746826356264051
40
0.831229339380983
40
1
40
1
40
1
40
1
41
1
10
53.9822793068374
20
-4.05940555361838
30
0
41
1
10
54.0385103436129
20
-3.96289735043209
30
0
41
1
10
54.1387859321687
20
-3.7905083861836
30
0
41
1
10
54.2695970250479
20
-3.5632771691273
30
0
41
1
10
54.3563582944644
20
-3.41411315148358
30
0
41
1
10
54.4038277879212
20
-3.32401916513484
30
0
41
1
10
54.4596311899599
20
-3.28009417231621
30
0
41
1
10
54.5081042229388
20
-3.26449820112899
30
0
41
1
10
54.5737568106225
20
-3.26549319515172
30
0
41
1
10
54.6465266025731
20
-3.29371323827965
30
0
41
1
10
54.7018480528994
20
-3.37459291405546
30
0
41
1
10
54.7764152997943
20
-3.51609829863625
30
0
41
1
10
54.840556114874
20
-3.62527492958256
30
0
41
1
10
54.8828045435639
20
-3.69870338563857
30
0
0
SPLINE
5
1AE
100
AcDbEntity
8
1
62
256
6
ByLayer
370
18
48
1
60
0
100
AcDbSpline
70
4
71
2
72
6
73
3
40
0
40
0
40
0
40
1
40
1
40
1
41
1
10
53.6330389075629
20
-3.69795060135397
30
0
41
1
10
53.7351743871446
20
-3.8758314577218
30
0
41
1
10
53.8387339300517
20
-4.05280704254059
30
0
0
SPLINE
5
1AF
100
AcDbEntity
8
1
62
256
6
ByLayer
370
18
48
1
60
0
100
AcDbSpline
70
4
71
3
72
16
73
12
40
0
40
0
40
0
40
0
40
0.207814188331215
40
0.318027408446162
40
0.367899852246609
40
0.405431865319034
40
0.46196269844217
40
0.497830554304223
40
0.651972956208606
40
0.806335498318708
40
1
40
1
40
1
40
1
41
1
10
59.2579137935972
20
3.69772314112444
30
0
41
1
10
59.2114243769763
20
3.60231438986099
30
0
41
1
10
59.1225533221683
20
3.47525093989691
30
0
41
1
10
59.0432903038714
20
3.30253590608135
30
0
41
1
10
58.9493750136203
20
3.26506932434302
30
0
41
1
10
58.8839078878352
20
3.26423877138305
30
0
41
1
10
58.8346576352948
20
3.27916119771163
30
0
41
1
10
58.7362194142984
20
3.36259523124704
30
0
41
1
10
58.6640219369101
20
3.54737609520802
30
0
41
1
10
58.5119690308728
20
3.78770613193379
30
0
41
1
10
58.4142406756585
20
3.96197867711643
30
0
41
1
10
58.3580204054743
20
4.05844335720505
30
0
0
SPLINE
5
1B0
100
AcDbEntity
8
1
62
256
6
ByLayer
370
18
48
1
60
0
100
AcDbSpline
70
4
71
2
72
6
73
3
40
0
40
0
40
0
40
1
40
1
40
1
41
1
10
59.4696415992648
20
4.06101159579418
30
0
41
1
10
59.3666260302828
20
3.8848540163618
30
0
41
1
10
59.2651161781302
20
3.70784227866696
30
0
0
SPLINE
5
1B1
100
AcDbEntity
8
1
62
256
6
ByLayer
370
18
48
1
60
0
100
AcDbSpline
70
4
71
3
72
16
73
12
40
0
40
0
40
0
40
0
40
0.118486235604092
40
0.245281826423794
40
0.313981952392852
40
0.388896819888785
40
0.427329264253907
40
0.465720511143238
40
0.53827452714706
40
0.680939327342043
40
1
40
1
40
1
40
1
41
1
10
53.0352353195454
20
-3.53138526742964
30
0
41
1
10
53.0539071483419
20
-3.49708221222312
30
0
41
1
10
53.0963650881778
20
-3.42902757774181
30
0
41
1
10
53.1376055874801
20
-3.33189728022441
30
0
41
1
10
53.2108397054866
20
-3.27732794464461
30
0
41
1
10
53.2712539785524
20
-3.26228315205054
30
0
41
1
10
53.3214842613419
20
-3.26732330364737
30
0
41
1
10
53.3688403790888
20
-3.28216991963913
30
0
41
1
10
53.4374240991123
20
-3.33301879257766
30
0
41
1
10
53.5081791890722
20
-3.49398452150032
30
0
41
1
10
53.5886837283245
20
-3.61468050568524
30
0
41
1
10
53.635967579244
20
-3.70261928129724
30
0
0
SPLINE
5
1B2
100
AcDbEntity
8
1
62
256
6
ByLayer
370
18
48
1
60
0
100
AcDbSpline
70
4
71
3
72
19
73
15
40
0
40
0
40
0
40
0
40
0.158001894195766
40
0.320982675623489
40
0.438516483801977
40
0.481636341346405
40
0.517697494062272
40
0.546888310364433
40
0.571649006562284
40
0.609097566141756
40
0.660599395631982
40
0.728539232791763
40
0.818448174912388
40
1
40
1
40
1
40
1
41
1
10
61.5183748355365
20
-3.99640477421246
30
0
41
1
10
61.5616532816612
20
-3.92192574952043
30
0
41
1
10
61.6491901598353
20
-3.77108131506205
30
0
41
1
10
61.7677598309759
20
-3.56511537959841
30
0
41
1
10
61.8545230029499
20
-3.41541273786728
30
0
41
1
10
61.9036471088893
20
-3.32406002668253
30
0
41
1
10
61.9470653809832
20
-3.28853713197165
30
0
41
1
10
61.987885117235
20
-3.27139731206799
30
0
41
1
10
62.0237489935814
20
-3.26362686959328
30
0
41
1
10
62.0771798265287
20
-3.26522508287991
30
0
41
1
10
62.1489549839189
20
-3.2940529051607
30
0
41
1
10
62.2043446526581
20
-3.37584647193867
30
0
41
1
10
62.2787489016189
20
-3.51811461587568
30
0
41
1
10
62.3424887538536
20
-3.62724604004569
30
0
41
1
10
62.3841824546497
20
-3.70014683755051
30
0
0
SPLINE
5
1B3
100
AcDbEntity
8
1
62
256
6
ByLayer
370
18
48
1
60
0
100
AcDbSpline
70
4
71
2
72
6
73
3
40
0
40
0
40
0
40
1
40
1
40
1
41
1
10
61.1257687720822
20
-3.68374420737959
30
0
41
1
10
61.2272016756177
20
-3.86002754146719
30
0
41
1
10
61.3301385573681
20
-4.03560487857493
30
0
0
SPLINE
5
1B4
100
AcDbEntity
8
1
62
256
6
ByLayer
370
18
48
1
60
0
100
AcDbSpline
70
4
71
3
72
15
73
11
40
0
40
0
40
0
40
0
40
0.0104322206080873
40
0.0628191779441496
40
0.0974328795478661
40
0.140204415476126
40
0.194122395335903
40
0.437799692438487
40
0.686545002117615
40
1
40
1
40
1
40
1
41
1
10
60.2129781159425
20
3.26965991080175
30
0
41
1
10
60.2097443987531
20
3.26806531674225
30
0
41
1
10
60.1902584149414
20
3.25945968927741
30
0
41
1
10
60.1558017758691
20
3.26143089827667
30
0
41
1
10
60.1187554273468
20
3.26792505453386
30
0
41
1
10
60.0777956408398
20
3.28456419954136
30
0
41
1
10
59.9897353447879
20
3.36102528777221
30
0
41
1
10
59.9161602889789
20
3.54512165733209
30
0
41
1
10
59.764255056803
20
3.7842083697692
30
0
41
1
10
59.666334039857
20
3.9584055361469
30
0
41
1
10
59.6101789509607
20
4.0546594226744
30
0
0
SPLINE
5
1B5
100
AcDbEntity
8
1
62
256
6
ByLayer
370
18
48
1
60
0
100
AcDbSpline
70
4
71
2
72
6
73
3
40
0
40
0
40
0
40
1
40
1
40
1
41
1
10
60.9817327702533
20
-3.43675612387832
30
0
41
1
10
61.0489423004954
20
-3.55443685352844
30
0
41
1
10
61.1133346849702
20
-3.64656610700186
30
0
0
LINE
5
7F
100
AcDbEntity
8
80
62
256
6
ByLayer
370
18
48
1
60
0
100
AcDbLine
10
0
20
0
30
0
11
-5
21
0
31
0
39
0
210
0
220
0
230
1
0
LINE
5
80
100
AcDbEntity
8
4
62
256
6
ByLayer
370
18
48
0.05
60
0
100
AcDbLine
10
0
20
0
30
0
11
67.55
21
0
31
0
39
0
210
0
220
0
230
1
0
LINE
5
82
100
AcDbEntity
8
81
62
256
6
ByLayer
370
18
48
1
60
0
100
AcDbLine
10
67.55
20
0
30
0
11
72.55
21
0
31
0
39
0
210
0
220
0
230
1
0
LINE
5
83
100
AcDbEntity
8
SK4
62
256
6
ByLayer
370
18
48
0.05
60
0
100
AcDbLine
10
-24
20
0
30
0
11
67.55
21
0
31
0
39
0
210
0
220
0
230
1
0
LINE
5
85
100
AcDbEntity
8
1
62
256
6
ByLayer
370
18
48
1
60
0
100
AcDbLine
10
0
20
4
30
0
11
0
21
-4
31
0
39
0
210
0
220
0
230
1
0
LINE
5
86
100
AcDbEntity
8
1
62
256
6
ByLayer
370
18
48
1
60
0
100
AcDbLine
10
56.760839
20
3.702075
30
0
11
56.757877
21
3.697396
31
0
39
0
210
0
220
0
230
1
0
LINE
5
87
100
AcDbEntity
8
1
62
256
6
ByLayer
370
18
48
1
60
0
100
AcDbLine
10
66
20
2.940526
30
0
11
66
21
2.938254
31
0
39
0
210
0
220
0
230
1
0
LINE
5
88
100
AcDbEntity
8
1
62
256
6
ByLayer
370
18
48
1
60
0
100
AcDbLine
10
58.011144
20
3.703522
30
0
11
58.007895
21
3.698424
31
0
39
0
210
0
220
0
230
1
0
LINE
5
89
100
AcDbEntity
8
1
62
256
6
ByLayer
370
18
48
1
60
0
100
AcDbLine
10
57.101534
20
4.062651
30
0
11
57.096134
21
4.06421
31
0
39
0
210
0
220
0
230
1
0
LINE
5
8A
100
AcDbEntity
8
1
62
256
6
ByLayer
370
18
48
1
60
0
100
AcDbLine
10
53.636245
20
-3.70302
30
0
11
53.633105
21
-3.698064
31
0
39
0
210
0
220
0
230
1
0
LINE
5
8B
100
AcDbEntity
8
1
62
256
6
ByLayer
370
13
48
1
60
0
100
AcDbLine
10
52.306078
20
-2.130298
30
0
11
52.306078
21
-3.216384
31
0
39
0
210
0
220
0
230
1
0
LINE
5
8C
100
AcDbEntity
8
1
62
256
6
ByLayer
370
13
48
1
60
0
100
AcDbLine
10
52.306078
20
3.203618
30
0
11
52.306078
21
2.074915
31
0
39
0
210
0
220
0
230
1
0
LINE
5
8D
100
AcDbEntity
8
1
62
256
6
ByLayer
370
13
48
1
60
0
100
AcDbLine
10
51.756078
20
-2.961052
30
0
11
51.756078
21
-1.715504
31
0
39
0
210
0
220
0
230
1
0
LINE
5
8E
100
AcDbEntity
8
1
62
256
6
ByLayer
370
13
48
1
60
0
100
AcDbLine
10
51.756078
20
2.314896
30
0
11
51.756078
21
3.10827
31
0
39
0
210
0
220
0
230
1
0
LINE
5
8F
100
AcDbEntity
8
1
62
256
6
ByLayer
370
13
48
1
60
0
100
AcDbLine
10
31.096238
20
-3.11385
30
0
11
31.096238
21
3.11385
31
0
39
0
210
0
220
0
230
1
0
LINE
5
90
100
AcDbEntity
8
1
62
256
6
ByLayer
370
13
48
1
60
0
100
AcDbLine
10
30.905225
20
3.130561
30
0
11
30.905225
21
-3.130561
31
0
39
0
210
0
220
0
230
1
0
LINE
5
91
100
AcDbEntity
8
1
62
256
6
ByLayer
370
18
48
1
60
0
100
AcDbLine
10
25.974394
20
4
30
0
11
25.974394
21
-4
31
0
39
0
210
0
220
0
230
1
0
LINE
5
92
100
AcDbEntity
8
SK1
62
256
6
ByLayer
370
18
48
1
60
0
100
AcDbLine
10
-24
20
2.64
30
0
11
-24
21
-2.64
31
0
39
0
210
0
220
0
230
1
0
LINE
5
94
100
AcDbEntity
8
SK1
62
256
6
ByLayer
370
18
48
1
60
0
100
AcDbLine
10
-15
20
2.266186
30
0
11
-15
21
-2.266186
31
0
39
0
210
0
220
0
230
1
0
LINE
5
95
100
AcDbEntity
8
SK1
62
256
6
ByLayer
370
18
48
1
60
0
100
AcDbLine
10
-15
20
3.1
30
0
11
-14.26
21
3.84
31
0
39
0
210
0
220
0
230
1
0
LINE
5
96
100
AcDbEntity
8
SK1
62
256
6
ByLayer
370
18
48
1
60
0
100
AcDbLine
10
-22.8
20
3.1
30
0
11
-15
21
3.1
31
0
39
0
210
0
220
0
230
1
0
LINE
5
97
100
AcDbEntity
8
SK1
62
256
6
ByLayer
370
18
48
1
60
0
100
AcDbLine
10
-22.8
20
2.266186
30
0
11
-22.8
21
3.1
31
0
39
0
210
0
220
0
230
1
0
LINE
5
98
100
AcDbEntity
8
SK1
62
256
6
ByLayer
370
18
48
1
60
0
100
AcDbLine
10
-15
20
2.266186
30
0
11
-22.8
21
2.266186
31
0
39
0
210
0
220
0
230
1
0
LINE
5
99
100
AcDbEntity
8
SK1
62
256
6
ByLayer
370
18
48
1
60
0
100
AcDbLine
10
-22.8
20
-2.266186
30
0
11
-15
21
-2.266186
31
0
39
0
210
0
220
0
230
1
0
LINE
5
9A
100
AcDbEntity
8
SK1
62
256
6
ByLayer
370
18
48
1
60
0
100
AcDbLine
10
-22.8
20
-3.1
30
0
11
-22.8
21
-2.266186
31
0
39
0
210
0
220
0
230
1
0
LINE
5
9B
100
AcDbEntity
8
SK1
62
256
6
ByLayer
370
18
48
1
60
0
100
AcDbLine
10
-15
20
-3.1
30
0
11
-22.8
21
-3.1
31
0
39
0
210
0
220
0
230
1
0
LINE
5
9C
100
AcDbEntity
8
SK1
62
256
6
ByLayer
370
18
48
1
60
0
100
AcDbLine
10
-15
20
-3.1
30
0
11
-14.26
21
-3.84
31
0
39
0
210
0
220
0
230
1
0
LINE
5
9D
100
AcDbEntity
8
SK1
62
256
6
ByLayer
370
18
48
1
60
0
100
AcDbLine
10
0
20
4
30
0
11
0
21
-4
31
0
39
0
210
0
220
0
230
1
0
LINE
5
9E
100
AcDbEntity
8
SK1
62
256
6
ByLayer
370
18
48
1
60
0
100
AcDbLine
10
-14.1
20
3.84
30
0
11
-14.1
21
-3.84
31
0
39
0
210
0
220
0
230
1
0
LINE
5
9F
100
AcDbEntity
8
SK1
62
256
6
ByLayer
370
18
48
1
60
0
100
AcDbLine
10
-13.94
20
-4
30
0
11
-13.94
21
4
31
0
39
0
210
0
220
0
230
1
0
LINE
5
A0
100
AcDbEntity
8
1
62
256
6
ByLayer
370
18
48
1
60
0
100
AcDbLine
10
25.974394
20
4
30
0
11
0
21
4
31
0
39
0
210
0
220
0
230
1
0
LINE
5
A1
100
AcDbEntity
8
1
62
256
6
ByLayer
370
18
48
1
60
0
100
AcDbLine
10
0
20
-4
30
0
11
25.974394
21
-4
31
0
39
0
210
0
220
0
230
1
0
LINE
5
A2
100
AcDbEntity
8
1
62
256
6
ByLayer
370
18
48
1
60
0
100
AcDbLine
10
57.09605
20
4.064208
30
0
11
56.989501
21
4.064208
31
0
39
0
210
0
220
0
230
1
0
LINE
5
A3
100
AcDbEntity
8
1
62
256
6
ByLayer
370
18
48
1
60
0
100
AcDbLine
10
55.103223
20
-4.064208
30
0
11
55.22136
21
-4.064208
31
0
39
0
210
0
220
0
230
1
0
LINE
5
A4
100
AcDbEntity
8
1
62
256
6
ByLayer
370
18
48
1
60
0
100
AcDbLine
10
58.346003
20
4.064208
30
0
11
58.22836
21
4.064208
31
0
39
0
210
0
220
0
230
1
0
LINE
5
A5
100
AcDbEntity
8
1
62
256
6
ByLayer
370
18
48
1
60
0
100
AcDbLine
10
67.55
20
0
30
0
11
66
21
1.55
31
0
39
0
210
0
220
0
230
1
0
LINE
5
A6
100
AcDbEntity
8
1
62
256
6
ByLayer
370
18
48
1
60
0
100
AcDbLine
10
66
20
-1.55
30
0
11
67.55
21
0
31
0
39
0
210
0
220
0
230
1
0
LINE
5
A7
100
AcDbEntity
8
1
62
256
6
ByLayer
370
18
48
1
60
0
100
AcDbLine
10
62.603559
20
-4.064208
30
0
11
62.721488
21
-4.064208
31
0
39
0
210
0
220
0
230
1
0
LINE
5
A8
100
AcDbEntity
8
1
62
256
6
ByLayer
370
18
48
1
60
0
100
AcDbLine
10
53.853417
20
-4.064208
30
0
11
53.97132
21
-4.064208
31
0
39
0
210
0
220
0
230
1
0
LINE
5
A9
100
AcDbEntity
8
1
62
256
6
ByLayer
370
18
48
1
60
0
100
AcDbLine
10
52.862093
20
-3.582237
30
0
11
52.961757
21
-3.639779
31
0
39
0
210
0
220
0
230
1
0
LINE
5
AA
100
AcDbEntity
8
1
62
256
6
ByLayer
370
18
48
1
60
0
100
AcDbLine
10
59.59633
20
4.064208
30
0
11
59.478512
21
4.064208
31
0
39
0
210
0
220
0
230
1
0
LINE
5
AB
100
AcDbEntity
8
1
62
256
6
ByLayer
370
18
48
1
60
0
100
AcDbLine
10
61.352944
20
-4.064208
30
0
11
61.47094
21
-4.064208
31
0
39
0
210
0
220
0
230
1
0
LINE
5
AC
100
AcDbEntity
8
1
62
256
6
ByLayer
370
18
48
1
60
0
100
AcDbLine
10
31.096238
20
-3.11385
30
0
11
38.773181
21
-3.11385
31
0
39
0
210
0
220
0
230
1
0
LINE
5
AD
100
AcDbEntity
8
1
62
256
6
ByLayer
370
18
48
1
60
0
100
AcDbLine
10
44.553982
20
-3.11385
30
0
11
47.267251
21
-3.11385
31
0
39
0
210
0
220
0
230
1
0
LINE
5
AE
100
AcDbEntity
8
1
62
256
6
ByLayer
370
18
48
1
60
0
100
AcDbLine
10
51.514049
20
3.11385
30
0
11
48.79089
21
3.11385
31
0
39
0
210
0
220
0
230
1
0
LINE
5
AF
100
AcDbEntity
8
1
62
256
6
ByLayer
370
18
48
1
60
0
100
AcDbLine
10
43.020378
20
3.11385
30
0
11
40.291036
21
3.11385
31
0
39
0
210
0
220
0
230
1
0
LINE
5
B0
100
AcDbEntity
8
1
62
256
6
ByLayer
370
18
48
1
60
0
100
AcDbLine
10
36.300891
20
3.11385
30
0
11
31.096238
21
3.11385
31
0
39
0
210
0
220
0
230
1
0
LINE
5
B1
100
AcDbEntity
8
1
62
256
6
ByLayer
370
18
48
1
60
0
100
AcDbLine
10
30.905225
20
3.130561
30
0
11
25.974394
21
4
31
0
39
0
210
0
220
0
230
1
0
LINE
5
B2
100
AcDbEntity
8
1
62
256
6
ByLayer
370
18
48
1
60
0
100
AcDbLine
10
25.974394
20
-4
30
0
11
30.905225
21
-3.130561
31
0
39
0
210
0
220
0
230
1
0
LINE
5
B3
100
AcDbEntity
8
SK1
62
256
6
ByLayer
370
18
48
1
60
0
100
AcDbLine
10
-24
20
-2.64
30
0
11
-23.54
21
-3.1
31
0
39
0
210
0
220
0
230
1
0
LINE
5
B4
100
AcDbEntity
8
SK1
62
256
6
ByLayer
370
18
48
1
60
0
100
AcDbLine
10
-23.54
20
3.1
30
0
11
-24
21
2.64
31
0
39
0
210
0
220
0
230
1
0
LINE
5
B5
100
AcDbEntity
8
SK1
62
256
6
ByLayer
370
18
48
1
60
0
100
AcDbLine
10
-14.1
20
3.84
30
0
11
-14.26
21
3.84
31
0
39
0
210
0
220
0
230
1
0
LINE
5
B6
100
AcDbEntity
8
SK1
62
256
6
ByLayer
370
18
48
1
60
0
100
AcDbLine
10
-14.26
20
-3.84
30
0
11
-14.1
21
-3.84
31
0
39
0
210
0
220
0
230
1
0
LINE
5
B7
100
AcDbEntity
8
SK1
62
256
6
ByLayer
370
18
48
1
60
0
100
AcDbLine
10
0
20
4
30
0
11
-13.94
21
4
31
0
39
0
210
0
220
0
230
1
0
LINE
5
B8
100
AcDbEntity
8
SK1
62
256
6
ByLayer
370
18
48
1
60
0
100
AcDbLine
10
-13.94
20
-4
30
0
11
0
21
-4
31
0
39
0
210
0
220
0
230
1
0
LINE
5
B9
100
AcDbEntity
8
SK1
62
256
6
ByLayer
370
18
48
1
60
0
100
AcDbLine
10
-14.1
20
-3.84
30
0
11
-13.94
21
-4
31
0
39
0
210
0
220
0
230
1
0
LINE
5
BA
100
AcDbEntity
8
SK1
62
256
6
ByLayer
370
18
48
1
60
0
100
AcDbLine
10
-13.94
20
4
30
0
11
-14.1
21
3.84
31
0
39
0
210
0
220
0
230
1
0
LINE
5
BB
100
AcDbEntity
8
SK2
62
256
6
ByLayer
370
18
48
1
60
0
100
AcDbLine
10
14.017197
20
-4
30
0
11
14.017197
21
16.841828
31
0
39
0
210
0
220
0
230
1
0
LINE
5
BD
100
AcDbEntity
8
1
62
256
6
ByLayer
370
18
48
1
60
1
100
AcDbLine
10
14.017197
20
4
30
0
11
14.477981
21
0.500002
31
0
39
0
210
0
220
0
230
1
0
LINE
5
BE
100
AcDbEntity
8
1
62
256
6
ByLayer
370
18
48
1
60
1
100
AcDbLine
10
14.477981
20
0.500002
30
0
11
13.556413
21
0.499998
31
0
39
0
210
0
220
0
230
1
0
LINE
5
BF
100
AcDbEntity
8
1
62
256
6
ByLayer
370
18
48
1
60
1
100
AcDbLine
10
13.556413
20
0.499998
30
0
11
14.017197
21
4
31
0
39
0
210
0
220
0
230
1
0
LINE
5
C0
100
AcDbEntity
8
1
62
256
6
ByLayer
370
18
48
1
60
1
100
AcDbLine
10
14.017197
20
-4
30
0
11
13.556413
21
-0.500002
31
0
39
0
210
0
220
0
230
1
0
LINE
5
C1
100
AcDbEntity
8
1
62
256
6
ByLayer
370
18
48
1
60
1
100
AcDbLine
10
13.556413
20
-0.500002
30
0
11
14.477981
21
-0.499998
31
0
39
0
210
0
220
0
230
1
0
LINE
5
C2
100
AcDbEntity
8
1
62
256
6
ByLayer
370
18
48
1
60
1
100
AcDbLine
10
14.477981
20
-0.499998
30
0
11
14.017197
21
-4
31
0
39
0
210
0
220
0
230
1
0
LINE
5
C3
100
AcDbEntity
8
2
62
256
6
ByLayer
370
18
48
1
60
0
100
AcDbLine
10
66
20
-41.564208
30
0
11
-24
21
-41.564208
31
0
39
0
210
0
220
0
230
1
0
LINE
5
C5
100
AcDbEntity
8
2
62
256
6
ByLayer
370
18
48
1
60
0
100
AcDbLine
10
-24
20
-4.2275
30
0
11
-24
21
-43.564208
31
0
39
0
210
0
220
0
230
1
0
LINE
5
C6
100
AcDbEntity
8
2
62
256
6
ByLayer
370
18
48
1
60
0
100
AcDbLine
10
66
20
-5.651708
30
0
11
66
21
-43.564208
31
0
39
0
210
0
220
0
230
1
0
LINE
5
C7
100
AcDbEntity
8
1
62
256
6
ByLayer
370
18
48
1
60
1
100
AcDbLine
10
-24
20
-41.564208
30
0
11
-20.500002
21
-41.103425
31
0
39
0
210
0
220
0
230
1
0
LINE
5
C8
100
AcDbEntity
8
1
62
256
6
ByLayer
370
18
48
1
60
1
100
AcDbLine
10
-20.500002
20
-41.103425
30
0
11
-20.499998
21
-42.024992
31
0
39
0
210
0
220
0
230
1
0
LINE
5
C9
100
AcDbEntity
8
1
62
256
6
ByLayer
370
18
48
1
60
1
100
AcDbLine
10
-20.499998
20
-42.024992
30
0
11
-24
21
-41.564208
31
0
39
0
210
0
220
0
230
1
0
LINE
5
CA
100
AcDbEntity
8
1
62
256
6
ByLayer
370
18
48
1
60
1
100
AcDbLine
10
66
20
-41.564208
30
0
11
62.500002
21
-42.024992
31
0
39
0
210
0
220
0
230
1
0
LINE
5
CB
100
AcDbEntity
8
1
62
256
6
ByLayer
370
18
48
1
60
1
100
AcDbLine
10
62.500002
20
-42.024992
30
0
11
62.499998
21
-41.103425
31
0
39
0
210
0
220
0
230
1
0
LINE
5
CC
100
AcDbEntity
8
1
62
256
6
ByLayer
370
18
48
1
60
1
100
AcDbLine
10
62.499998
20
-41.103425
30
0
11
66
21
-41.564208
31
0
39
0
210
0
220
0
230
1
0
LINE
5
1BA
100
AcDbEntity
8
1
62
256
6
ByLayer
370
18
48
1
60
1
100
AcDbLine
10
14.017197
20
4
30
0
11
14.477981
21
0.500002
31
0
39
0
210
0
220
0
230
1
0
LINE
5
1BB
100
AcDbEntity
8
1
62
256
6
ByLayer
370
18
48
1
60
1
100
AcDbLine
10
14.477981
20
0.500002
30
0
11
13.556413
21
0.499998
31
0
39
0
210
0
220
0
230
1
0
LINE
5
1BC
100
AcDbEntity
8
1
62
256
6
ByLayer
370
18
48
1
60
1
100
AcDbLine
10
13.556413
20
0.499998
30
0
11
14.017197
21
4
31
0
39
0
210
0
220
0
230
1
0
LINE
5
1BE
100
AcDbEntity
8
1
62
256
6
ByLayer
370
18
48
1
60
1
100
AcDbLine
10
14.017197
20
-4
30
0
11
13.556413
21
-0.500002
31
0
39
0
210
0
220
0
230
1
0
LINE
5
1BF
100
AcDbEntity
8
1
62
256
6
ByLayer
370
18
48
1
60
1
100
AcDbLine
10
13.556413
20
-0.500002
30
0
11
14.477981
21
-0.499998
31
0
39
0
210
0
220
0
230
1
0
LINE
5
1C0
100
AcDbEntity
8
1
62
256
6
ByLayer
370
18
48
1
60
1
100
AcDbLine
10
14.477981
20
-0.499998
30
0
11
14.017197
21
-4
31
0
39
0
210
0
220
0
230
1
0
LINE
5
1C3
100
AcDbEntity
8
1
62
256
6
ByLayer
370
18
48
1
60
1
100
AcDbLine
10
-24
20
-41.564208
30
0
11
-20.500002
21
-41.103425
31
0
39
0
210
0
220
0
230
1
0
LINE
5
1C4
100
AcDbEntity
8
1
62
256
6
ByLayer
370
18
48
1
60
1
100
AcDbLine
10
-20.500002
20
-41.103425
30
0
11
-20.499998
21
-42.024992
31
0
39
0
210
0
220
0
230
1
0
LINE
5
1C5
100
AcDbEntity
8
1
62
256
6
ByLayer
370
18
48
1
60
1
100
AcDbLine
10
-20.499998
20
-42.024992
30
0
11
-24
21
-41.564208
31
0
39
0
210
0
220
0
230
1
0
LINE
5
1C7
100
AcDbEntity
8
1
62
256
6
ByLayer
370
18
48
1
60
1
100
AcDbLine
10
66
20
-41.564208
30
0
11
62.500002
21
-42.024992
31
0
39
0
210
0
220
0
230
1
0
LINE
5
1C8
100
AcDbEntity
8
1
62
256
6
ByLayer
370
18
48
1
60
1
100
AcDbLine
10
62.500002
20
-42.024992
30
0
11
62.499998
21
-41.103425
31
0
39
0
210
0
220
0
230
1
0
LINE
5
1C9
100
AcDbEntity
8
1
62
256
6
ByLayer
370
18
48
1
60
1
100
AcDbLine
10
62.499998
20
-41.103425
30
0
11
66
21
-41.564208
31
0
39
0
210
0
220
0
230
1
0
MTEXT
5
1B6
100
AcDbEntity
8
SK2
62
256
6
ByLayer
370
18
48
1
60
0
100
AcDbMText
10
12.676082
20
9.658437
30
0
210
0
220
0
230
1
1
%%c
40
3
41
0
44
1.084337
50
90
71
7
72
5
7
iso_b_vert
0
MTEXT
5
1B9
100
AcDbEntity
8
SK2
62
256
6
ByLayer
370
18
48
1
60
0
100
AcDbMText
10
12.676082
20
15.635
30
0
210
0
220
0
230
1
1
\W0.5404;8
40
3
41
0
44
1.084337
50
90
71
7
72
5
7
iso_b_vert
0
MTEXT
5
1C2
100
AcDbEntity
8
2
62
256
6
ByLayer
370
18
48
1
60
0
100
AcDbMText
10
19.367172
20
-40.679094
30
0
210
0
220
0
230
1
1
\W0.6740;90
40
3
41
0
44
1.084337
50
0
71
7
72
5
7
iso_b_vert
0
MTEXT
5
1CB
100
AcDbEntity
8
SK6
62
256
6
ByLayer
370
18
48
1
60
0
100
AcDbMText
10
3.205429
20
-82.114886
30
0
210
0
220
0
230
1
1
\W0.7281;T300-XM102DA-M8     C110
40
3
41
0
44
1.084337
50
0
71
7
72
5
7
iso_b_vert
0
HATCH
5
1BD
100
AcDbEntity
8
SK2
62
256
6
ByLayer
370
13
48
1
60
0
100
AcDbHatch
10
0
20
0
30
0
210
0
220
0
230
1
2
ANSI31
70
0
71
0
91
1
92
5
93
3
72
1
10
14.0171968077729
20
4.00000000000003
11
14.4779805493257
21
0.500001692553212
72
1
10
14.4779805493257
20
0.500001692553212
11
13.5564130662201
21
0.499998307446845
72
1
10
13.5564130662201
20
0.499998307446845
11
14.0171968077729
21
4.00000000000003
97
0
75
0
76
1
52
0
41
0.0062
77
0
78
1
53
45
43
0
44
0
45
-0.0139193969876572
46
0.0139193969876572
79
0
47
0
98
1
10
0
20
0
0
HATCH
5
1C1
100
AcDbEntity
8
SK2
62
256
6
ByLayer
370
13
48
1
60
0
100
AcDbHatch
10
0
20
0
30
0
210
0
220
0
230
1
2
ANSI31
70
0
71
0
91
1
92
5
93
3
72
1
10
14.0171968077729
20
-3.99999999999997
11
13.5564130662201
21
-0.500001692553155
72
1
10
13.5564130662201
20
-0.500001692553155
11
14.4779805493257
21
-0.499998307446788
72
1
10
14.4779805493257
20
-0.499998307446788
11
14.0171968077729
21
-3.99999999999997
97
0
75
0
76
1
52
0
41
0.0062
77
0
78
1
53
45
43
0
44
0
45
-0.0139193969876572
46
0.0139193969876572
79
0
47
0
98
1
10
0
20
0
0
HATCH
5
1C6
100
AcDbEntity
8
2
62
256
6
ByLayer
370
13
48
1
60
0
100
AcDbHatch
10
0
20
0
30
0
210
0
220
0
230
1
2
ANSI31
70
0
71
0
91
1
92
5
93
3
72
1
10
-24
20
-41.5642083312539
11
-20.5000016925532
21
-41.1034245897011
72
1
10
-20.5000016925532
20
-41.1034245897011
11
-20.4999983074468
21
-42.0249920728067
72
1
10
-20.4999983074468
20
-42.0249920728067
11
-24
21
-41.5642083312539
97
0
75
0
76
1
52
0
41
0.0062
77
0
78
1
53
45
43
0
44
0
45
-0.0139193969876572
46
0.0139193969876572
79
0
47
0
98
1
10
0
20
0
0
HATCH
5
1CA
100
AcDbEntity
8
2
62
256
6
ByLayer
370
13
48
1
60
0
100
AcDbHatch
10
0
20
0
30
0
210
0
220
0
230
1
2
ANSI31
70
0
71
0
91
1
92
5
93
3
72
1
10
66
20
-41.5642083312539
11
62.5000016925532
21
-42.0249920728067
72
1
10
62.5000016925532
20
-42.0249920728067
11
62.4999983074468
21
-41.1034245897011
72
1
10
62.4999983074468
20
-41.1034245897011
11
66
21
-41.5642083312539
97
0
75
0
76
1
52
0
41
0.0062
77
0
78
1
53
45
43
0
44
0
45
-0.0139193969876572
46
0.0139193969876572
79
0
47
0
98
1
10
0
20
0
0
DIMENSION
5
1CE
100
AcDbEntity
8
2
62
256
6
ByLayer
370
18
48
1
60
0
100
AcDbDimension
2
_U0
10
85.5
20
-4.064208
30
0
11
85.5
21
21.564208
31
0
70
32
71
1
72
1
41
1
210
0
220
0
230
1
3
Standard
100
AcDbAlignedDimension
13
66
23
4.064208
33
0
14
66
24
-4.064208
34
0
50
90
100
AcDbRotatedDimension
1001
ACAD
1000
DSTYLE
1002
{
1070
   371
1070
    13
1070
   372
1070
    13
1070
     3
1000

1070
   170
1070
     0
1070
   144
1040
1.0
1070
   277
1070
     2
1070
   284
1070
     8
1070
   278
1070
    46
1070
   146
1040
1.166667
1070
   345
1005
16
1070
   347
1005
16
1070
   346
1005
16
1070
   344
1005
0
1070
   343
1005
0
1070
   172
1070
     1
1070
    76
1070
     0
1070
    75
1070
     0
1070
   282
1070
     0
1070
   281
1070
     0
1070
    71
1070
     0
1070
    74
1070
     0
1070
   279
1070
     0
1070
   173
1070
     1
1070
   340
1005
1B7
1070
   271
1070
     3
1070
   272
1070
     3
1070
    77
1070
     1
1070
    73
1070
     0
1070
   171
1070
     3
1070
   274
1070
     4
1070
   177
1070
     2
1070
   176
1070
     2
1070
   178
1070
     2
1070
    78
1070
     8
1070
    48
1040
-0.1
1070
    41
1040
3.5
1070
   147
1040
1.5
1070
    42
1040
1.5875
1070
    44
1040
2.0
1070
   140
1040
3.0
1002
}
1001
ACAD_DSTYLE_DIM_LINETYPE
1070
   380
1005
16
1001
ACAD_DSTYLE_DIM_EXT1_LINETYPE
1070
   381
1005
16
1001
ACAD_DSTYLE_DIM_EXT2_LINETYPE
1070
   382
1005
16
0
DIMENSION
5
1E9
100
AcDbEntity
8
SK2
62
256
6
ByLayer
370
18
48
1
60
0
100
AcDbDimension
2
_U1
10
63.81
20
13.890393
30
0
11
64.905
21
13.890393
31
0
70
32
71
1
72
1
41
1
210
0
220
0
230
1
3
Standard
100
AcDbAlignedDimension
13
66
23
4.064208
33
0
14
63.81
24
0
34
0
50
0
100
AcDbRotatedDimension
1001
ACAD
1000
DSTYLE
1002
{
1070
   371
1070
    13
1070
   372
1070
    13
1070
   170
1070
     0
1070
   144
1040
1.0
1070
   277
1070
     2
1070
   284
1070
     8
1070
   278
1070
    46
1070
   146
1040
1.166667
1070
   345
1005
16
1070
   347
1005
16
1070
   346
1005
16
1070
   344
1005
0
1070
   343
1005
0
1070
   172
1070
     1
1070
    76
1070
     0
1070
    75
1070
     0
1070
   282
1070
     0
1070
   281
1070
     0
1070
    71
1070
     0
1070
    74
1070
     0
1070
   279
1070
     0
1070
   173
1070
     1
1070
   340
1005
1B7
1070
   271
1070
     3
1070
   272
1070
     3
1070
    77
1070
     1
1070
    73
1070
     1
1070
   171
1070
     3
1070
   274
1070
     4
1070
   177
1070
     2
1070
   176
1070
     2
1070
   178
1070
     2
1070
    78
1070
     8
1070
    48
1040
-0.1
1070
    41
1040
3.5
1070
   147
1040
1.5
1070
    42
1040
1.5875
1070
    44
1040
2.0
1070
   140
1040
3.0
1002
}
1001
ACAD_DSTYLE_DIM_LINETYPE
1070
   380
1005
16
1001
ACAD_DSTYLE_DIM_EXT1_LINETYPE
1070
   381
1005
16
1001
ACAD_DSTYLE_DIM_EXT2_LINETYPE
1070
   382
1005
16
0
DIMENSION
5
203
100
AcDbEntity
8
SK2
62
256
6
ByLayer
370
18
48
1
60
0
100
AcDbDimension
2
_U2
10
54
20
-11.064208
30
0
11
79.714286
21
-11.064208
31
0
70
32
71
1
72
1
41
1
210
0
220
0
230
1
3
Standard
100
AcDbAlignedDimension
13
66
23
-4.064208
33
0
14
54
24
-4.064208
34
0
50
0
100
AcDbRotatedDimension
1001
ACAD
1000
DSTYLE
1002
{
1070
   371
1070
    13
1070
   372
1070
    13
1070
   170
1070
     0
1070
   144
1040
1.0
1070
   277
1070
     2
1070
   284
1070
     8
1070
   278
1070
    46
1070
   146
1040
0.833333
1070
   345
1005
16
1070
   347
1005
16
1070
   346
1005
16
1070
   344
1005
0
1070
   343
1005
0
1070
   172
1070
     1
1070
    76
1070
     0
1070
    75
1070
     0
1070
   282
1070
     0
1070
   281
1070
     0
1070
    47
1040
0.5
1070
    72
1070
     0
1070
    71
1070
     1
1070
    74
1070
     0
1070
   279
1070
     0
1070
   173
1070
     1
1070
   340
1005
1B7
1070
   271
1070
     1
1070
   272
1070
     3
1070
    77
1070
     1
1070
    73
1070
     1
1070
   171
1070
     3
1070
   274
1070
     4
1070
   177
1070
     2
1070
   176
1070
     2
1070
   178
1070
     2
1070
    78
1070
     8
1070
    48
1040
0.5
1070
    41
1040
3.5
1070
   147
1040
1.5
1070
    42
1040
1.5875
1070
    44
1040
2.0
1070
   140
1040
3.0
1002
}
1001
ACAD_DSTYLE_DIM_LINETYPE
1070
   380
1005
16
1001
ACAD_DSTYLE_DIM_EXT1_LINETYPE
1070
   381
1005
16
1001
ACAD_DSTYLE_DIM_EXT2_LINETYPE
1070
   382
1005
16
0
DIMENSION
5
21E
100
AcDbEntity
8
SK2
62
256
6
ByLayer
370
18
48
1
60
0
100
AcDbDimension
2
_U3
10
31
20
-33.564208
30
0
11
48.5
21
-33.564208
31
0
70
32
71
1
72
1
41
1
210
0
220
0
230
1
3
Standard
100
AcDbAlignedDimension
13
66
23
-4.064208
33
0
14
31
24
-3.11385
34
0
50
0
100
AcDbRotatedDimension
1001
ACAD
1000
DSTYLE
1002
{
1070
   371
1070
    13
1070
   372
1070
    13
1070
   170
1070
     0
1070
   144
1040
1.0
1070
   277
1070
     2
1070
   284
1070
     8
1070
   278
1070
    46
1070
   146
1040
1.166667
1070
   345
1005
16
1070
   347
1005
16
1070
   346
1005
16
1070
   344
1005
0
1070
   343
1005
0
1070
   172
1070
     1
1070
    76
1070
     0
1070
    75
1070
     0
1070
   282
1070
     0
1070
   281
1070
     0
1070
    71
1070
     0
1070
    74
1070
     0
1070
   279
1070
     0
1070
   173
1070
     1
1070
   340
1005
1B7
1070
   271
1070
     1
1070
   272
1070
     3
1070
    77
1070
     1
1070
    73
1070
     1
1070
   171
1070
     3
1070
   274
1070
     4
1070
   177
1070
     2
1070
   176
1070
     2
1070
   178
1070
     2
1070
    78
1070
     8
1070
    48
1040
-0.1
1070
    41
1040
3.5
1070
   147
1040
1.5
1070
    42
1040
1.5875
1070
    44
1040
2.0
1070
   140
1040
3.0
1002
}
1001
ACAD_DSTYLE_DIM_LINETYPE
1070
   380
1005
16
1001
ACAD_DSTYLE_DIM_EXT1_LINETYPE
1070
   381
1005
16
1001
ACAD_DSTYLE_DIM_EXT2_LINETYPE
1070
   382
1005
16
0
DIMENSION
5
236
100
AcDbEntity
8
2
62
256
6
ByLayer
370
18
48
1
60
0
100
AcDbDimension
2
_U4
10
36.25
20
-22.564208
30
0
11
51.125
21
-22.564208
31
0
70
32
71
1
72
1
41
1
210
0
220
0
230
1
3
Standard
100
AcDbAlignedDimension
13
66
23
-4.064208
33
0
14
36.25
24
0
34
0
50
0
100
AcDbRotatedDimension
1001
ACAD
1000
DSTYLE
1002
{
1070
   371
1070
    13
1070
   372
1070
    13
1070
   170
1070
     0
1070
   144
1040
1.0
1070
   277
1070
     2
1070
   284
1070
     8
1070
   278
1070
    46
1070
   146
1040
1.166667
1070
   345
1005
16
1070
   347
1005
16
1070
   346
1005
16
1070
   344
1005
0
1070
   343
1005
0
1070
   172
1070
     1
1070
    76
1070
     0
1070
    75
1070
     0
1070
   282
1070
     0
1070
   281
1070
     0
1070
    71
1070
     0
1070
    74
1070
     0
1070
   279
1070
     0
1070
   173
1070
     1
1070
   340
1005
1B7
1070
   271
1070
     1
1070
   272
1070
     3
1070
    77
1070
     1
1070
    73
1070
     1
1070
   171
1070
     3
1070
   274
1070
     4
1070
   177
1070
     2
1070
   176
1070
     2
1070
   178
1070
     2
1070
    78
1070
     8
1070
    48
1040
-0.1
1070
    41
1040
3.5
1070
   147
1040
1.5
1070
    42
1040
1.5875
1070
    44
1040
2.0
1070
   140
1040
3.0
1002
}
1001
ACAD_DSTYLE_DIM_LINETYPE
1070
   380
1005
16
1001
ACAD_DSTYLE_DIM_EXT1_LINETYPE
1070
   381
1005
16
1001
ACAD_DSTYLE_DIM_EXT2_LINETYPE
1070
   382
1005
16
0
ENDSEC
0
SECTION
2
OBJECTS
0
DICTIONARY
5
2be
330
0
100
AcDbDictionary
280
0
281
1
3
ACAD_GROUP
350
2bf
3
ACAD_MLINESTYLE
350
2c0
0
DICTIONARY
5
2bf
330
0
100
AcDbDictionary
280
0
281
1
0
DICTIONARY
5
2c0
330
0
100
AcDbDictionary
280
0
281
1
3
Standard
350
18
0
MLINESTYLE
5
18
330
2c0
100
AcDbMlineStyle
2
Standard
70
0
3

62
256
51
90
52
90
71
2
49
-0.5
62
256
6
ByLayer
49
0.5
62
256
6
ByLayer
0
RASTERVARIABLES
5
2ac
330

100
AcDbRasterVariables
90
0
70
1
71
1
72
1
0
ENDSEC
0
EOF
