0
SECTION
2
HEADER
9
$ACADVER
1
AC1015
9
$DWGCODEPAGE
3
ANSI_1252
9
$HANDSEED
5
315
9
$ANGBASE
50
0
9
$ANGDIR
70
0
9
$ATTMODE
70
1
9
$AUNITS
70
0
9
$AUPREC
70
0
9
$CECOLOR
62
256
9
$CELTSCALE
40
1
9
$CELTYPE
6
ByLayer
9
$CELWEIGHT
370
18
9
$CLAYER
8
0
9
$CMLJUST
70
0
9
$CMLSCALE
40
1
9
$CMLSTYLE
2
Standard
9
$DIMSTYLE
2
Standard
9
$TEXTSIZE
40
0.2
9
$TEXTSTYLE
7
Standard
9
$LUNITS
70
2
9
$LUPREC
70
4
9
$EXTNAMES
290
1
9
$INSUNITS
70
4
9
$LTSCALE
40
1
9
$LWDISPLAY
290
1
9
$PDMODE
70
0
9
$PDSIZE
40
0
9
$PLINEGEN
70
0
0
ENDSEC
0
SECTION
2
CLASSES
0
CLASS
1
RASTERVARIABLES
2
AcDbRasterVariables
3
ISM
90
0
280
0
281
0
0
ENDSEC
0
SECTION
2
TABLES
0
TABLE
2
VPORT
5
30b
100
AcDbSymbolTable
0
VPORT
5
1
100
AcDbSymbolTableRecord
100
AcDbViewportTableRecord
2
*Active
70
0
10
0
20
0
11
1
21
1
12
-1
22
1
13
0
23
0
14
0.5
24
0.5
15
10
25
10
16
0
26
0
36
1
17
0
27
0
37
0
0
ENDTAB
0
TABLE
2
LTYPE
5
30c
100
AcDbSymbolTable
0
LTYPE
5
14
100
AcDbSymbolTableRecord
100
AcDbLinetypeTableRecord
70
0
2
ByBlock
3

72
65
73
0
40
0
0
LTYPE
5
15
100
AcDbSymbolTableRecord
100
AcDbLinetypeTableRecord
70
0
2
ByLayer
3

72
65
73
0
40
0
0
LTYPE
5
16
100
AcDbSymbolTableRecord
100
AcDbLinetypeTableRecord
70
0
2
Continuous
3
Solid line
72
65
73
0
40
0
0
LTYPE
5
6E
100
AcDbSymbolTableRecord
100
AcDbLinetypeTableRecord
70
0
2
CENTER
3
____ _ ____ _ ____ _ ____
72
65
73
4
40
47.5
49
22
74
0
49
-8.5
74
0
49
8.5
74
0
49
-8.5
74
0
0
LTYPE
5
6F
100
AcDbSymbolTableRecord
100
AcDbLinetypeTableRecord
70
0
2
DASHED
3
__ __ __ __ __ __ __ __ __
72
65
73
2
40
25.72
49
12.86
74
0
49
-12.86
74
0
0
ENDTAB
0
TABLE
2
LAYER
5
30d
100
AcDbSymbolTable
0
LAYER
5
10
100
AcDbSymbolTableRecord
100
AcDbLayerTableRecord
2
0
70
0
62
7
6
Continuous
290
1
370
-3
390
0
0
LAYER
5
71
100
AcDbSymbolTableRecord
100
AcDbLayerTableRecord
2
81
70
0
62
-3
6
Continuous
290
1
370
-3
390
0
0
LAYER
5
73
100
AcDbSymbolTableRecord
100
AcDbLayerTableRecord
2
80
70
0
62
-6
6
Continuous
290
1
370
-3
390
0
0
LAYER
5
75
100
AcDbSymbolTableRecord
100
AcDbLayerTableRecord
2
1
70
0
62
4
6
Continuous
290
1
370
-3
390
0
0
LAYER
5
82
100
AcDbSymbolTableRecord
100
AcDbLayerTableRecord
2
4
70
0
62
-2
6
CENTER
290
1
370
-3
390
0
0
LAYER
5
CB
100
AcDbSymbolTableRecord
100
AcDbLayerTableRecord
2
2
70
0
62
7
6
Continuous
290
1
370
-3
390
0
0
LAYER
5
21B
100
AcDbSymbolTableRecord
100
AcDbLayerTableRecord
2
Defpoints
70
0
62
7
6
Continuous
290
0
370
-3
390
0
0
LAYER
5
2f7
100
AcDbSymbolTableRecord
100
AcDbLayerTableRecord
2
SK4
70
0
62
2
6
CENTER
290
1
370
-3
390
0
0
LAYER
5
2f8
100
AcDbSymbolTableRecord
100
AcDbLayerTableRecord
2
SK1
70
0
62
4
6
Continuous
290
1
370
-3
390
0
0
LAYER
5
2f9
100
AcDbSymbolTableRecord
100
AcDbLayerTableRecord
2
SK2
70
0
62
7
6
Continuous
290
1
370
-3
390
0
0
LAYER
5
2fa
100
AcDbSymbolTableRecord
100
AcDbLayerTableRecord
2
SK6
70
0
62
5
6
Continuous
290
1
370
-3
390
0
0
ENDTAB
0
TABLE
2
STYLE
5
30e
100
AcDbSymbolTable
0
STYLE
5
11
100
AcDbSymbolTableRecord
100
AcDbTextStyleTableRecord
2
Standard
3
txt
70
0
71
0
40
0
41
1
42
0
50
0
0
STYLE
5
201
100
AcDbSymbolTableRecord
100
AcDbTextStyleTableRecord
2
iso_b_vert
3
simplex.shx
70
0
71
0
40
0
41
1
42
0
50
0
0
STYLE
5
202
100
AcDbSymbolTableRecord
100
AcDbTextStyleTableRecord
2
DWGDirectTextStyle
3
simplex
70
0
71
0
40
0
41
1
42
0
50
0
0
ENDTAB
0
TABLE
2
DIMSTYLE
5
30f
100
AcDbSymbolTable
100
AcDbDimStyleTable
0
DIMSTYLE
105
27
100
AcDbSymbolTableRecord
100
AcDbDimStyleTableRecord
2
Standard
70
0
3
<>
41
0.18
42
0.0625
44
0.18
140
0.18
147
0.09
73
0
74
0
77
1
271
2
275
0
278
52
280
0
340
11
0
ENDTAB
0
TABLE
2
VIEW
5
310
100
AcDbSymbolTable
0
ENDTAB
0
TABLE
2
UCS
5
311
100
AcDbSymbolTable
0
ENDTAB
0
TABLE
2
APPID
5
312
100
AcDbSymbolTable
0
APPID
5
12
100
AcDbSymbolTableRecord
100
AcDbRegAppTableRecord
2
ACAD
70
0
0
APPID
5
217
100
AcDbSymbolTableRecord
100
AcDbRegAppTableRecord
2
ACAD_DSTYLE_DIMBREAK
70
0
0
APPID
5
2B6
100
AcDbSymbolTableRecord
100
AcDbRegAppTableRecord
2
ACAD_DSTYLE_DIM_LINETYPE
70
0
0
APPID
5
2B7
100
AcDbSymbolTableRecord
100
AcDbRegAppTableRecord
2
ACAD_DSTYLE_DIM_EXT1_LINETYPE
70
0
0
APPID
5
2B8
100
AcDbSymbolTableRecord
100
AcDbRegAppTableRecord
2
ACAD_DSTYLE_DIM_EXT2_LINETYPE
70
0
0
APPID
5
2F3
100
AcDbSymbolTableRecord
100
AcDbRegAppTableRecord
2
ACAD_MLEADERVER
70
0
0
ENDTAB
0
TABLE
2
BLOCK_RECORD
5
313
100
AcDbSymbolTable
0
BLOCK_RECORD
5
1F
100
AcDbSymbolTableRecord
100
AcDbBlockTableRecord
2
*Model_Space
340
0
70
0
0
BLOCK_RECORD
5
1B
100
AcDbSymbolTableRecord
100
AcDbBlockTableRecord
2
*Paper_Space
340
0
70
0
0
BLOCK_RECORD
5
23
100
AcDbSymbolTableRecord
100
AcDbBlockTableRecord
2
*Paper_Space0
340
0
70
0
0
BLOCK_RECORD
5
21C
100
AcDbSymbolTableRecord
100
AcDbBlockTableRecord
2
*D1
340
0
70
0
0
BLOCK_RECORD
5
22A
100
AcDbSymbolTableRecord
100
AcDbBlockTableRecord
2
_U0
340
0
70
0
0
BLOCK_RECORD
5
236
100
AcDbSymbolTableRecord
100
AcDbBlockTableRecord
2
*D3
340
0
70
0
0
BLOCK_RECORD
5
243
100
AcDbSymbolTableRecord
100
AcDbBlockTableRecord
2
_U1
340
0
70
0
0
BLOCK_RECORD
5
250
100
AcDbSymbolTableRecord
100
AcDbBlockTableRecord
2
*D5
340
0
70
0
0
BLOCK_RECORD
5
25E
100
AcDbSymbolTableRecord
100
AcDbBlockTableRecord
2
_U2
340
0
70
0
0
BLOCK_RECORD
5
26B
100
AcDbSymbolTableRecord
100
AcDbBlockTableRecord
2
*D7
340
0
70
0
0
BLOCK_RECORD
5
277
100
AcDbSymbolTableRecord
100
AcDbBlockTableRecord
2
_U3
340
0
70
0
0
BLOCK_RECORD
5
283
100
AcDbSymbolTableRecord
100
AcDbBlockTableRecord
2
*D9
340
0
70
0
0
BLOCK_RECORD
5
28F
100
AcDbSymbolTableRecord
100
AcDbBlockTableRecord
2
_U4
340
0
70
0
0
ENDTAB
0
ENDSEC
0
SECTION
2
BLOCKS
0
BLOCK
5
20
100
AcDbEntity
8
0
100
AcDbBlockBegin
2
*Model_Space
70
0
10
0
20
0
30
0
3
*Model_Space
0
ENDBLK
5
21
100
AcDbEntity
8
0
100
AcDbBlockEnd
0
BLOCK
5
1C
100
AcDbEntity
8
0
100
AcDbBlockBegin
2
*Paper_Space
70
0
10
0
20
0
30
0
3
*Paper_Space
0
ENDBLK
5
1D
100
AcDbEntity
8
0
100
AcDbBlockEnd
0
BLOCK
5
24
100
AcDbEntity
8
0
100
AcDbBlockBegin
2
*Paper_Space0
70
0
10
0
20
0
30
0
3
*Paper_Space0
0
ENDBLK
5
25
100
AcDbEntity
8
0
100
AcDbBlockEnd
0
BLOCK
5
21D
100
AcDbEntity
8
0
100
AcDbBlockBegin
2
*D1
70
1
10
0
20
0
30
0
3
*D1
0
LINE
5
21F
100
AcDbEntity
8
0
62
256
6
ByLayer
370
-2
48
1
60
0
100
AcDbLine
10
43.5875
20
2.047508
30
0
11
62.712492
21
2.047508
31
0
39
0
210
0
220
0
230
1
0
LINE
5
220
100
AcDbEntity
8
0
62
256
6
ByLayer
370
-2
48
1
60
0
100
AcDbLine
10
43.5875
20
-2.047508
30
0
11
62.712492
21
-2.047508
31
0
39
0
210
0
220
0
230
1
0
LINE
5
221
100
AcDbEntity
8
0
62
256
6
ByLayer
370
-2
48
1
60
0
100
AcDbLine
10
60.712492
20
2.047508
30
0
11
60.712492
21
30.047508
31
0
39
0
210
0
220
0
230
1
0
LINE
5
222
100
AcDbEntity
8
0
62
256
6
ByLayer
370
-2
48
1
60
0
100
AcDbLine
10
60.712492
20
5.547508
30
0
11
60.712492
21
9.047508
31
0
39
0
210
0
220
0
230
1
0
LINE
5
223
100
AcDbEntity
8
0
62
256
6
ByLayer
370
-2
48
1
60
0
100
AcDbLine
10
60.712492
20
-5.547508
30
0
11
60.712492
21
-9.047508
31
0
39
0
210
0
220
0
230
1
0
SOLID
5
224
100
AcDbEntity
8
0
62
256
6
ByLayer
370
-1
48
1
60
0
100
AcDbTrace
10
60.129159
20
5.547508
30
0
11
61.295826
21
5.547508
31
0
12
60.712492
22
2.047508
32
0
13
60.712492
23
2.047508
33
0
39
0
210
0
220
0
230
1
0
SOLID
5
225
100
AcDbEntity
8
0
62
256
6
ByLayer
370
-1
48
1
60
0
100
AcDbTrace
10
61.295826
20
-5.547508
30
0
11
60.129159
21
-5.547508
31
0
12
60.712492
22
-2.047508
32
0
13
60.712492
23
-2.047508
33
0
39
0
210
0
220
0
230
1
0
MTEXT
5
226
100
AcDbEntity
8
0
62
256
6
ByLayer
370
18
48
1
60
0
100
AcDbMText
10
54.712492
20
19.547508
30
0
210
0
220
0
230
1
1
\A1;4.095
40
3
41
0
44
1
50
90
71
5
72
5
7
iso_b_vert
0
POINT
5
227
100
AcDbEntity
8
Defpoints
62
0
6
ByLayer
370
-1
48
1
60
0
100
AcDbPoint
10
42
20
2.047508
30
0
39
0
210
0
220
0
230
1
50
360
0
POINT
5
228
100
AcDbEntity
8
Defpoints
62
0
6
ByLayer
370
-1
48
1
60
0
100
AcDbPoint
10
42
20
-2.047508
30
0
39
0
210
0
220
0
230
1
50
360
0
POINT
5
229
100
AcDbEntity
8
Defpoints
62
0
6
ByLayer
370
-1
48
1
60
0
100
AcDbPoint
10
60.712492
20
-2.047508
30
0
39
0
210
0
220
0
230
1
50
360
0
ENDBLK
5
21E
100
AcDbEntity
8
0
100
AcDbBlockEnd
0
BLOCK
5
231
100
AcDbEntity
8
0
100
AcDbBlockBegin
2
_U0
70
0
10
0
20
0
30
0
3
_U0
0
MTEXT
5
22B
100
AcDbEntity
8
2
62
256
6
ByLayer
370
18
48
1
60
0
100
AcDbMText
10
60.121378
20
12.182508
30
0
210
0
220
0
230
1
1
\W0.7578;M4
40
3
41
0
44
1.084337
50
90
71
7
72
5
7
iso_b_vert
0
LINE
5
22C
100
AcDbEntity
8
2
62
256
6
ByLayer
370
13
48
1
60
0
100
AcDbLine
10
43.5875
20
2.047508
30
0
11
62.712492
21
2.047508
31
0
39
0
210
0
220
0
230
1
0
LINE
5
22D
100
AcDbEntity
8
2
62
256
6
ByLayer
370
13
48
1
60
0
100
AcDbLine
10
43.5875
20
-2.047508
30
0
11
62.712492
21
-2.047508
31
0
39
0
210
0
220
0
230
1
0
LINE
5
22E
100
AcDbEntity
8
2
62
256
6
ByLayer
370
13
48
1
60
0
100
AcDbLine
10
60.712492
20
-9.547508
30
0
11
60.712492
21
16.618193
31
0
39
0
210
0
220
0
230
1
0
SOLID
5
22F
100
AcDbEntity
8
2
62
256
6
ByLayer
370
18
48
1
60
0
100
AcDbTrace
10
60.712492
20
2.047508
30
0
11
60.251709
21
5.547506
31
0
12
61.173276
22
5.547509
32
0
13
61.173276
23
5.547509
33
0
39
0
210
0
220
0
230
1
0
SOLID
5
230
100
AcDbEntity
8
2
62
256
6
ByLayer
370
18
48
1
60
0
100
AcDbTrace
10
60.712492
20
-2.047508
30
0
11
61.173276
21
-5.547506
31
0
12
60.251709
22
-5.547509
32
0
13
60.251709
23
-5.547509
33
0
39
0
210
0
220
0
230
1
0
ENDBLK
5
232
100
AcDbEntity
8
0
100
AcDbBlockEnd
0
BLOCK
5
237
100
AcDbEntity
8
0
100
AcDbBlockBegin
2
*D3
70
1
10
0
20
0
30
0
3
*D3
0
LINE
5
239
100
AcDbEntity
8
0
62
256
6
ByLayer
370
-2
48
1
60
0
100
AcDbLine
10
42
20
3.635008
30
0
11
42
21
13.145629
31
0
39
0
210
0
220
0
230
1
0
LINE
5
23A
100
AcDbEntity
8
0
62
256
6
ByLayer
370
-2
48
1
60
0
100
AcDbLine
10
40.78
20
1.5875
30
0
11
40.78
21
13.145629
31
0
39
0
210
0
220
0
230
1
0
LINE
5
23B
100
AcDbEntity
8
0
62
256
6
ByLayer
370
-2
48
1
60
0
100
AcDbLine
10
45.5
20
11.145629
30
0
11
49
21
11.145629
31
0
39
0
210
0
220
0
230
1
0
LINE
5
23C
100
AcDbEntity
8
0
62
256
6
ByLayer
370
-2
48
1
60
0
100
AcDbLine
10
37.28
20
11.145629
30
0
11
33.78
21
11.145629
31
0
39
0
210
0
220
0
230
1
0
SOLID
5
23D
100
AcDbEntity
8
0
62
256
6
ByLayer
370
-1
48
1
60
0
100
AcDbTrace
10
45.5
20
11.728962
30
0
11
45.5
21
10.562296
31
0
12
42
22
11.145629
32
0
13
42
23
11.145629
33
0
39
0
210
0
220
0
230
1
0
SOLID
5
23E
100
AcDbEntity
8
0
62
256
6
ByLayer
370
-1
48
1
60
0
100
AcDbTrace
10
37.28
20
10.562296
30
0
11
37.28
21
11.728962
31
0
12
40.78
22
11.145629
32
0
13
40.78
23
11.145629
33
0
39
0
210
0
220
0
230
1
0
MTEXT
5
23F
100
AcDbEntity
8
0
62
256
6
ByLayer
370
18
48
1
60
0
100
AcDbMText
10
41.39
20
17.145629
30
0
210
0
220
0
230
1
1
\A1;1.22
40
3
41
0
44
1
50
0
71
5
72
5
7
iso_b_vert
0
POINT
5
240
100
AcDbEntity
8
Defpoints
62
0
6
ByLayer
370
-1
48
1
60
0
100
AcDbPoint
10
42
20
2.047508
30
0
39
0
210
0
220
0
230
1
50
360
0
POINT
5
241
100
AcDbEntity
8
Defpoints
62
0
6
ByLayer
370
-1
48
1
60
0
100
AcDbPoint
10
40.78
20
0
30
0
39
0
210
0
220
0
230
1
50
360
0
POINT
5
242
100
AcDbEntity
8
Defpoints
62
0
6
ByLayer
370
-1
48
1
60
0
100
AcDbPoint
10
40.78
20
11.145629
30
0
39
0
210
0
220
0
230
1
50
360
0
ENDBLK
5
238
100
AcDbEntity
8
0
100
AcDbBlockEnd
0
BLOCK
5
24B
100
AcDbEntity
8
0
100
AcDbBlockBegin
2
_U1
70
0
10
0
20
0
30
0
3
_U1
0
MTEXT
5
244
100
AcDbEntity
8
SK2
62
256
6
ByLayer
370
18
48
1
60
0
100
AcDbMText
10
38.429986
20
11.928262
30
0
210
0
220
0
230
1
1
\W0.6844;'E'
40
3.5
41
0
44
1.084337
50
0
71
7
72
5
7
iso_b_vert
0
MTEXT
5
245
100
AcDbEntity
8
SK2
62
256
6
ByLayer
370
18
48
1
60
0
100
AcDbMText
10
38.403486
20
19.030743
30
0
210
0
220
0
230
1
1
\W0.6563;1.22
40
3
41
0
44
1.084337
50
0
71
7
72
5
7
iso_b_vert
0
LINE
5
246
100
AcDbEntity
8
SK2
62
256
6
ByLayer
370
13
48
1
60
0
100
AcDbLine
10
42
20
3.635008
30
0
11
42
21
13.145629
31
0
39
0
210
0
220
0
230
1
0
LINE
5
247
100
AcDbEntity
8
SK2
62
256
6
ByLayer
370
13
48
1
60
0
100
AcDbLine
10
40.78
20
1.5875
30
0
11
40.78
21
13.145629
31
0
39
0
210
0
220
0
230
1
0
LINE
5
248
100
AcDbEntity
8
SK2
62
256
6
ByLayer
370
13
48
1
60
0
100
AcDbLine
10
49.5
20
11.145629
30
0
11
33.28
21
11.145629
31
0
39
0
210
0
220
0
230
1
0
SOLID
5
249
100
AcDbEntity
8
SK2
62
256
6
ByLayer
370
18
48
1
60
0
100
AcDbTrace
10
42
20
11.145629
30
0
11
45.499998
21
11.606413
31
0
12
45.500002
22
10.684845
32
0
13
45.500002
23
10.684845
33
0
39
0
210
0
220
0
230
1
0
SOLID
5
24A
100
AcDbEntity
8
SK2
62
256
6
ByLayer
370
18
48
1
60
0
100
AcDbTrace
10
40.78
20
11.145629
30
0
11
37.280002
21
10.684845
31
0
12
37.279998
22
11.606413
32
0
13
37.279998
23
11.606413
33
0
39
0
210
0
220
0
230
1
0
ENDBLK
5
24C
100
AcDbEntity
8
0
100
AcDbBlockEnd
0
BLOCK
5
251
100
AcDbEntity
8
0
100
AcDbBlockBegin
2
*D5
70
1
10
0
20
0
30
0
3
*D5
0
LINE
5
253
100
AcDbEntity
8
0
62
256
6
ByLayer
370
-2
48
1
60
0
100
AcDbLine
10
42
20
-3.635008
30
0
11
42
21
-11.047508
31
0
39
0
210
0
220
0
230
1
0
LINE
5
254
100
AcDbEntity
8
0
62
256
6
ByLayer
370
-2
48
1
60
0
100
AcDbLine
10
35
20
-3.635008
30
0
11
35
21
-11.047508
31
0
39
0
210
0
220
0
230
1
0
LINE
5
255
100
AcDbEntity
8
0
62
256
6
ByLayer
370
-2
48
1
60
0
100
AcDbLine
10
42
20
-9.047508
30
0
11
60
21
-9.047508
31
0
39
0
210
0
220
0
230
1
0
LINE
5
256
100
AcDbEntity
8
0
62
256
6
ByLayer
370
-2
48
1
60
0
100
AcDbLine
10
45.5
20
-9.047508
30
0
11
49
21
-9.047508
31
0
39
0
210
0
220
0
230
1
0
LINE
5
257
100
AcDbEntity
8
0
62
256
6
ByLayer
370
-2
48
1
60
0
100
AcDbLine
10
31.5
20
-9.047508
30
0
11
28
21
-9.047508
31
0
39
0
210
0
220
0
230
1
0
SOLID
5
258
100
AcDbEntity
8
0
62
256
6
ByLayer
370
-1
48
1
60
0
100
AcDbTrace
10
45.5
20
-8.464174
30
0
11
45.5
21
-9.630841
31
0
12
42
22
-9.047508
32
0
13
42
23
-9.047508
33
0
39
0
210
0
220
0
230
1
0
SOLID
5
259
100
AcDbEntity
8
0
62
256
6
ByLayer
370
-1
48
1
60
0
100
AcDbTrace
10
31.5
20
-9.630841
30
0
11
31.5
21
-8.464174
31
0
12
35
22
-9.047508
32
0
13
35
23
-9.047508
33
0
39
0
210
0
220
0
230
1
0
MTEXT
5
25A
100
AcDbEntity
8
0
62
256
6
ByLayer
370
18
48
1
60
0
100
AcDbMText
10
54.5
20
-3.047508
30
0
210
0
220
0
230
1
1
\A1;7
40
3
41
0
44
1
50
0
71
5
72
5
7
iso_b_vert
0
POINT
5
25B
100
AcDbEntity
8
Defpoints
62
0
6
ByLayer
370
-1
48
1
60
0
100
AcDbPoint
10
42
20
-2.047508
30
0
39
0
210
0
220
0
230
1
50
360
0
POINT
5
25C
100
AcDbEntity
8
Defpoints
62
0
6
ByLayer
370
-1
48
1
60
0
100
AcDbPoint
10
35
20
-2.047508
30
0
39
0
210
0
220
0
230
1
50
360
0
POINT
5
25D
100
AcDbEntity
8
Defpoints
62
0
6
ByLayer
370
-1
48
1
60
0
100
AcDbPoint
10
35
20
-9.047508
30
0
39
0
210
0
220
0
230
1
50
360
0
ENDBLK
5
252
100
AcDbEntity
8
0
100
AcDbBlockEnd
0
BLOCK
5
266
100
AcDbEntity
8
0
100
AcDbBlockBegin
2
_U2
70
0
10
0
20
0
30
0
3
_U2
0
MTEXT
5
25F
100
AcDbEntity
8
SK2
62
256
6
ByLayer
370
18
48
1
60
0
100
AcDbMText
10
48.159
20
-8.162393
30
0
210
0
220
0
230
1
1
\W0.5404;7
40
3
41
0
44
1.084337
50
0
71
7
72
5
7
iso_b_vert
0
MTEXT
5
260
100
AcDbEntity
8
SK2
62
256
6
ByLayer
370
18
48
1
60
0
100
AcDbMText
10
51.974328
20
-7.809912
30
0
210
0
220
0
230
1
1
\W0.8315;\W0.4158;%%p\W0.8315;0.5
40
2.5
41
0
44
1.084337
50
0
71
7
72
5
7
iso_b_vert
0
LINE
5
261
100
AcDbEntity
8
SK2
62
256
6
ByLayer
370
13
48
1
60
0
100
AcDbLine
10
42
20
-3.635008
30
0
11
42
21
-11.047508
31
0
39
0
210
0
220
0
230
1
0
LINE
5
262
100
AcDbEntity
8
SK2
62
256
6
ByLayer
370
13
48
1
60
0
100
AcDbLine
10
35
20
-3.635008
30
0
11
35
21
-11.047508
31
0
39
0
210
0
220
0
230
1
0
LINE
5
263
100
AcDbEntity
8
SK2
62
256
6
ByLayer
370
13
48
1
60
0
100
AcDbLine
10
27.5
20
-9.047508
30
0
11
59.091065
21
-9.047508
31
0
39
0
210
0
220
0
230
1
0
SOLID
5
264
100
AcDbEntity
8
SK2
62
256
6
ByLayer
370
18
48
1
60
0
100
AcDbTrace
10
42
20
-9.047508
30
0
11
45.499998
21
-8.586724
31
0
12
45.500002
22
-9.508291
32
0
13
45.500002
23
-9.508291
33
0
39
0
210
0
220
0
230
1
0
SOLID
5
265
100
AcDbEntity
8
SK2
62
256
6
ByLayer
370
18
48
1
60
0
100
AcDbTrace
10
35
20
-9.047508
30
0
11
31.500002
21
-9.508291
31
0
12
31.499998
22
-8.586724
32
0
13
31.499998
23
-8.586724
33
0
39
0
210
0
220
0
230
1
0
ENDBLK
5
267
100
AcDbEntity
8
0
100
AcDbBlockEnd
0
BLOCK
5
26C
100
AcDbEntity
8
0
100
AcDbBlockBegin
2
*D7
70
1
10
0
20
0
30
0
3
*D7
0
LINE
5
26E
100
AcDbEntity
8
0
62
256
6
ByLayer
370
-2
48
1
60
0
100
AcDbLine
10
42
20
-3.635008
30
0
11
42
21
-33.547508
31
0
39
0
210
0
220
0
230
1
0
LINE
5
26F
100
AcDbEntity
8
0
62
256
6
ByLayer
370
-2
48
1
60
0
100
AcDbLine
10
21
20
-3.08645
30
0
11
21
21
-33.547508
31
0
39
0
210
0
220
0
230
1
0
LINE
5
270
100
AcDbEntity
8
0
62
256
6
ByLayer
370
-2
48
1
60
0
100
AcDbLine
10
38.5
20
-31.547508
30
0
11
24.5
21
-31.547508
31
0
39
0
210
0
220
0
230
1
0
SOLID
5
271
100
AcDbEntity
8
0
62
256
6
ByLayer
370
-1
48
1
60
0
100
AcDbTrace
10
38.5
20
-32.130841
30
0
11
38.5
21
-30.964174
31
0
12
42
22
-31.547508
32
0
13
42
23
-31.547508
33
0
39
0
210
0
220
0
230
1
0
SOLID
5
272
100
AcDbEntity
8
0
62
256
6
ByLayer
370
-1
48
1
60
0
100
AcDbTrace
10
24.5
20
-30.964174
30
0
11
24.5
21
-32.130841
31
0
12
21
22
-31.547508
32
0
13
21
23
-31.547508
33
0
39
0
210
0
220
0
230
1
0
MTEXT
5
273
100
AcDbEntity
8
0
62
256
6
ByLayer
370
18
48
1
60
0
100
AcDbMText
10
31.5
20
-25.547508
30
0
210
0
220
0
230
1
1
\A1;21
40
3
41
0
44
1
50
0
71
5
72
5
7
iso_b_vert
0
POINT
5
274
100
AcDbEntity
8
Defpoints
62
0
6
ByLayer
370
-1
48
1
60
0
100
AcDbPoint
10
42
20
-2.047508
30
0
39
0
210
0
220
0
230
1
50
360
0
POINT
5
275
100
AcDbEntity
8
Defpoints
62
0
6
ByLayer
370
-1
48
1
60
0
100
AcDbPoint
10
21
20
-1.49895
30
0
39
0
210
0
220
0
230
1
50
360
0
POINT
5
276
100
AcDbEntity
8
Defpoints
62
0
6
ByLayer
370
-1
48
1
60
0
100
AcDbPoint
10
21
20
-31.547508
30
0
39
0
210
0
220
0
230
1
50
360
0
ENDBLK
5
26D
100
AcDbEntity
8
0
100
AcDbBlockEnd
0
BLOCK
5
27E
100
AcDbEntity
8
0
100
AcDbBlockBegin
2
_U3
70
0
10
0
20
0
30
0
3
_U3
0
MTEXT
5
278
100
AcDbEntity
8
SK2
62
256
6
ByLayer
370
18
48
1
60
0
100
AcDbMText
10
30.242115
20
-30.662393
30
0
210
0
220
0
230
1
1
\W0.6351;21
40
3
41
0
44
1.084337
50
0
71
7
72
5
7
iso_b_vert
0
LINE
5
279
100
AcDbEntity
8
SK2
62
256
6
ByLayer
370
13
48
1
60
0
100
AcDbLine
10
42
20
-3.635008
30
0
11
42
21
-33.547508
31
0
39
0
210
0
220
0
230
1
0
LINE
5
27A
100
AcDbEntity
8
SK2
62
256
6
ByLayer
370
13
48
1
60
0
100
AcDbLine
10
21
20
-3.08645
30
0
11
21
21
-33.547508
31
0
39
0
210
0
220
0
230
1
0
LINE
5
27B
100
AcDbEntity
8
SK2
62
256
6
ByLayer
370
13
48
1
60
0
100
AcDbLine
10
42
20
-31.547508
30
0
11
21
21
-31.547508
31
0
39
0
210
0
220
0
230
1
0
SOLID
5
27C
100
AcDbEntity
8
SK2
62
256
6
ByLayer
370
18
48
1
60
0
100
AcDbTrace
10
42
20
-31.547508
30
0
11
38.500002
21
-32.008291
31
0
12
38.499998
22
-31.086724
32
0
13
38.499998
23
-31.086724
33
0
39
0
210
0
220
0
230
1
0
SOLID
5
27D
100
AcDbEntity
8
SK2
62
256
6
ByLayer
370
18
48
1
60
0
100
AcDbTrace
10
21
20
-31.547508
30
0
11
24.499998
21
-31.086724
31
0
12
24.500002
22
-32.008291
32
0
13
24.500002
23
-32.008291
33
0
39
0
210
0
220
0
230
1
0
ENDBLK
5
27F
100
AcDbEntity
8
0
100
AcDbBlockEnd
0
BLOCK
5
284
100
AcDbEntity
8
0
100
AcDbBlockBegin
2
*D9
70
1
10
0
20
0
30
0
3
*D9
0
LINE
5
286
100
AcDbEntity
8
0
62
256
6
ByLayer
370
-2
48
1
60
0
100
AcDbLine
10
42
20
-3.635008
30
0
11
42
21
-22.547508
31
0
39
0
210
0
220
0
230
1
0
LINE
5
287
100
AcDbEntity
8
0
62
256
6
ByLayer
370
-2
48
1
60
0
100
AcDbLine
10
24.15
20
-1.5875
30
0
11
24.15
21
-22.547508
31
0
39
0
210
0
220
0
230
1
0
LINE
5
288
100
AcDbEntity
8
0
62
256
6
ByLayer
370
-2
48
1
60
0
100
AcDbLine
10
38.5
20
-20.547508
30
0
11
27.65
21
-20.547508
31
0
39
0
210
0
220
0
230
1
0
SOLID
5
289
100
AcDbEntity
8
0
62
256
6
ByLayer
370
-1
48
1
60
0
100
AcDbTrace
10
38.5
20
-21.130841
30
0
11
38.5
21
-19.964174
31
0
12
42
22
-20.547508
32
0
13
42
23
-20.547508
33
0
39
0
210
0
220
0
230
1
0
SOLID
5
28A
100
AcDbEntity
8
0
62
256
6
ByLayer
370
-1
48
1
60
0
100
AcDbTrace
10
27.65
20
-19.964174
30
0
11
27.65
21
-21.130841
31
0
12
24.15
22
-20.547508
32
0
13
24.15
23
-20.547508
33
0
39
0
210
0
220
0
230
1
0
MTEXT
5
28B
100
AcDbEntity
8
0
62
256
6
ByLayer
370
18
48
1
60
0
100
AcDbMText
10
33.075
20
-14.547508
30
0
210
0
220
0
230
1
1
\A1;17.9
40
3
41
0
44
1
50
0
71
5
72
5
7
iso_b_vert
0
POINT
5
28C
100
AcDbEntity
8
Defpoints
62
0
6
ByLayer
370
-1
48
1
60
0
100
AcDbPoint
10
42
20
-2.047508
30
0
39
0
210
0
220
0
230
1
50
360
0
POINT
5
28D
100
AcDbEntity
8
Defpoints
62
0
6
ByLayer
370
-1
48
1
60
0
100
AcDbPoint
10
24.15
20
0
30
0
39
0
210
0
220
0
230
1
50
360
0
POINT
5
28E
100
AcDbEntity
8
Defpoints
62
0
6
ByLayer
370
-1
48
1
60
0
100
AcDbPoint
10
24.15
20
-20.547508
30
0
39
0
210
0
220
0
230
1
50
360
0
ENDBLK
5
285
100
AcDbEntity
8
0
100
AcDbBlockEnd
0
BLOCK
5
296
100
AcDbEntity
8
0
100
AcDbBlockBegin
2
_U4
70
0
10
0
20
0
30
0
3
_U4
0
MTEXT
5
290
100
AcDbEntity
8
2
62
256
6
ByLayer
370
18
48
1
60
0
100
AcDbMText
10
30.088486
20
-19.662393
30
0
210
0
220
0
230
1
1
\W0.6563;17.8
40
3
41
0
44
1.084337
50
0
71
7
72
5
7
iso_b_vert
0
LINE
5
291
100
AcDbEntity
8
2
62
256
6
ByLayer
370
13
48
1
60
0
100
AcDbLine
10
42
20
-3.635008
30
0
11
42
21
-22.547508
31
0
39
0
210
0
220
0
230
1
0
LINE
5
292
100
AcDbEntity
8
2
62
256
6
ByLayer
370
13
48
1
60
0
100
AcDbLine
10
24.15
20
-1.5875
30
0
11
24.15
21
-22.547508
31
0
39
0
210
0
220
0
230
1
0
LINE
5
293
100
AcDbEntity
8
2
62
256
6
ByLayer
370
13
48
1
60
0
100
AcDbLine
10
42
20
-20.547508
30
0
11
24.15
21
-20.547508
31
0
39
0
210
0
220
0
230
1
0
SOLID
5
294
100
AcDbEntity
8
2
62
256
6
ByLayer
370
18
48
1
60
0
100
AcDbTrace
10
42
20
-20.547508
30
0
11
38.500002
21
-21.008291
31
0
12
38.499998
22
-20.086724
32
0
13
38.499998
23
-20.086724
33
0
39
0
210
0
220
0
230
1
0
SOLID
5
295
100
AcDbEntity
8
2
62
256
6
ByLayer
370
18
48
1
60
0
100
AcDbTrace
10
24.15
20
-20.547508
30
0
11
27.649998
21
-20.086724
31
0
12
27.650002
22
-21.008291
32
0
13
27.650002
23
-21.008291
33
0
39
0
210
0
220
0
230
1
0
ENDBLK
5
297
100
AcDbEntity
8
0
100
AcDbBlockEnd
0
ENDSEC
0
SECTION
2
ENTITIES
0
ARC
5
D4
100
AcDbEntity
8
SK1
62
256
6
ByLayer
370
18
48
1
60
0
100
AcDbCircle
39
0
10
-16.7
20
0
30
0
40
2.1600000000001
210
0
220
0
230
1
100
AcDbArc
50
321.909474
51
38.090526
0
ARC
5
D5
100
AcDbEntity
8
1
62
256
6
ByLayer
370
18
48
1
60
0
100
AcDbCircle
39
0
10
33.777332
20
1.99895
30
0
40
0.5
210
0
220
0
230
1
100
AcDbArc
50
270
51
300
0
ARC
5
D6
100
AcDbEntity
8
1
62
256
6
ByLayer
370
18
48
1
60
0
100
AcDbCircle
39
0
10
21.043744
20
-1.99895
30
0
40
0.5
210
0
220
0
230
1
100
AcDbArc
50
90
51
100
0
ARC
5
D7
100
AcDbEntity
8
1
62
256
6
ByLayer
370
18
48
1
60
0
100
AcDbCircle
39
0
10
21.043744
20
1.99895
30
0
40
0.5
210
0
220
0
230
1
100
AcDbArc
50
260
51
270
0
POINT
5
70
100
AcDbEntity
8
81
62
256
6
ByLayer
370
18
48
1
60
0
100
AcDbPoint
10
42.2
20
0
30
0
39
0
210
0
220
0
230
1
50
360
0
POINT
5
72
100
AcDbEntity
8
80
62
256
6
ByLayer
370
18
48
1
60
0
100
AcDbPoint
10
0
20
0
30
0
39
0
210
0
220
0
230
1
50
360
0
POINT
5
74
100
AcDbEntity
8
1
62
256
6
ByLayer
370
18
48
1
60
1
100
AcDbPoint
10
42
20
2.047508
30
0
39
0
210
0
220
0
230
1
50
360
0
POINT
5
76
100
AcDbEntity
8
1
62
256
6
ByLayer
370
18
48
1
60
1
100
AcDbPoint
10
42
20
-2.047508
30
0
39
0
210
0
220
0
230
1
50
360
0
POINT
5
77
100
AcDbEntity
8
1
62
256
6
ByLayer
370
18
48
1
60
1
100
AcDbPoint
10
42
20
2.047508
30
0
39
0
210
0
220
0
230
1
50
360
0
POINT
5
78
100
AcDbEntity
8
1
62
256
6
ByLayer
370
18
48
1
60
1
100
AcDbPoint
10
40.78
20
0
30
0
39
0
210
0
220
0
230
1
50
360
0
POINT
5
79
100
AcDbEntity
8
1
62
256
6
ByLayer
370
18
48
1
60
1
100
AcDbPoint
10
42
20
-2.047508
30
0
39
0
210
0
220
0
230
1
50
360
0
POINT
5
7A
100
AcDbEntity
8
1
62
256
6
ByLayer
370
18
48
1
60
1
100
AcDbPoint
10
35
20
-2.047508
30
0
39
0
210
0
220
0
230
1
50
360
0
POINT
5
7B
100
AcDbEntity
8
1
62
256
6
ByLayer
370
18
48
1
60
1
100
AcDbPoint
10
42
20
-2.047508
30
0
39
0
210
0
220
0
230
1
50
360
0
POINT
5
7C
100
AcDbEntity
8
1
62
256
6
ByLayer
370
18
48
1
60
1
100
AcDbPoint
10
21
20
-1.49895
30
0
39
0
210
0
220
0
230
1
50
360
0
POINT
5
7D
100
AcDbEntity
8
1
62
256
6
ByLayer
370
18
48
1
60
1
100
AcDbPoint
10
42
20
-2.047508
30
0
39
0
210
0
220
0
230
1
50
360
0
POINT
5
7E
100
AcDbEntity
8
1
62
256
6
ByLayer
370
18
48
1
60
1
100
AcDbPoint
10
24.15
20
0
30
0
39
0
210
0
220
0
230
1
50
360
0
SPLINE
5
D8
100
AcDbEntity
8
1
62
256
6
ByLayer
370
13
48
1
60
0
100
AcDbSpline
70
4
71
3
72
9
73
5
40
0
40
0
40
0
40
0
40
0.958505846157726
40
1
40
1
40
1
40
1
41
1.04
10
41.1259155853893
20
-1.63646598810815
30
0
41
1.04
10
41.1200665087862
20
-1.64536421962631
30
0
41
1.04
10
41.1138620019449
20
-1.64780003549553
30
0
41
1.04
10
41.1075532835067
20
-1.64212897711191
30
0
41
1.04
10
41.107291337414
20
-1.64187969586052
30
0
0
SPLINE
5
D9
100
AcDbEntity
8
1
62
256
6
ByLayer
370
13
48
1
60
0
100
AcDbSpline
70
4
71
3
72
9
73
5
40
0
40
0
40
0
40
0
40
0.986119301491557
40
1
40
1
40
1
40
1
41
1.04
10
36.9265170937678
20
-1.63535805857069
30
0
41
1.04
10
36.9217283670584
20
-1.64294542600116
30
0
41
1.04
10
36.9169020742406
20
-1.6459448790379
30
0
41
1.04
10
36.9120946388158
20
-1.64425243874594
30
0
41
1.04
10
36.9120279118987
20
-1.64422804335267
30
0
0
SPLINE
5
DA
100
AcDbEntity
8
1
62
256
6
ByLayer
370
18
48
1
60
0
100
AcDbSpline
70
4
71
3
72
14
73
10
40
0
40
0
40
0
40
0
40
0.040682226913612
40
0.040682226913612
40
0.23254578153089
40
0.23254578153089
40
0.616272890765445
40
0.616272890765445
40
1
40
1
40
1
40
1
41
1
10
40.9574812897782
20
-1.92605401283862
30
0
41
1
10
40.9571988773813
20
-1.92646060291935
30
0
41
1
10
40.9569171288958
20
-1.92682961036158
30
0
41
1
10
40.9553099609832
20
-1.92872336101567
30
0
41
1
10
40.9540007028273
20
-1.92943813793517
30
0
41
1
10
40.9501314343985
20
-1.92906182592139
30
0
41
1
10
40.9476109794001
20
-1.92547694154254
30
0
41
1
10
40.9426275831763
20
-1.91178032329179
30
0
41
1
10
40.9401922026214
20
-1.90165726614492
30
0
41
1
10
40.9377980999487
20
-1.88821120843551
30
0
0
SPLINE
5
DB
100
AcDbEntity
8
1
62
256
6
ByLayer
370
18
48
1
60
0
100
AcDbSpline
70
4
71
3
72
12
73
8
40
0
40
0
40
0
40
0
40
0.631410150825965
40
0.631410150825965
40
0.947115226238949
40
0.947115226238949
40
1
40
1
40
1
40
1
41
1
10
40.7539067265289
20
-1.90947190123944
30
0
41
1
10
40.7586043803639
20
-1.92928422028945
30
0
41
1
10
40.7632945303377
20
-1.9456413189981
30
0
41
1
10
40.7703131722688
20
-1.96488191976656
30
0
41
1
10
40.7726518912199
20
-1.97041435205233
30
0
41
1
10
40.7753876970844
20
-1.97583287816394
30
0
41
1
10
40.7757804532187
20
-1.97658542381308
30
0
41
1
10
40.7761734063617
20
-1.97731292595412
30
0
0
SPLINE
5
DC
100
AcDbEntity
8
1
62
256
6
ByLayer
370
18
48
1
60
0
100
AcDbSpline
70
4
71
3
72
10
73
6
40
0
40
0
40
0
40
0
40
0.0540232877390559
40
0.0540232877390559
40
1
40
1
40
1
40
1
41
1
10
40.7813036111757
20
-1.98536463752305
30
0
41
1
10
40.7815500318482
20
-1.98568173166947
30
0
41
1
10
40.7817964796152
20
-1.98598878653917
30
0
41
1
10
40.7863587283469
20
-1.99148604210063
30
0
41
1
10
40.7906495065158
20
-1.99356135654838
30
0
41
1
10
40.794907666975
20
-1.99261740313887
30
0
0
SPLINE
5
DD
100
AcDbEntity
8
1
62
256
6
ByLayer
370
13
48
1
60
0
100
AcDbSpline
70
4
71
3
72
8
73
4
40
0
40
0
40
0
40
0
40
1
40
1
40
1
40
1
41
1
10
36.3766833138835
20
-1.63283201444653
30
0
41
1
10
36.3701723559967
20
-1.62146233658541
30
0
41
1
10
36.3636462272648
20
-1.60178208269787
30
0
41
1
10
36.3570944206049
20
-1.5737439165851
30
0
0
SPLINE
5
DE
100
AcDbEntity
8
1
62
256
6
ByLayer
370
13
48
1
60
0
100
AcDbSpline
70
4
71
3
72
8
73
4
40
0
40
0
40
0
40
0
40
1
40
1
40
1
40
1
41
1
10
40.57836302045
20
-1.6365556479555
30
0
41
1
10
40.5696169275538
20
-1.62312634035231
30
0
41
1
10
40.5610129259558
20
-1.59441973138613
30
0
41
1
10
40.5525236306734
20
-1.55268997680787
30
0
0
SPLINE
5
DF
100
AcDbEntity
8
1
62
256
6
ByLayer
370
13
48
1
60
0
100
AcDbSpline
70
4
71
3
72
9
73
5
40
0
40
0
40
0
40
0
40
0.784298814907073
40
1
40
1
40
1
40
1
41
1
10
38.1653566647024
20
1.60238443882631
30
0
41
1
10
38.1554053997449
20
1.63568310908582
30
0
41
1
10
38.1426572465174
20
1.6541832286895
30
0
41
1
10
38.1298142847787
20
1.63862168140486
30
0
41
1
10
38.1270455143034
20
1.63375288842218
30
0
0
SPLINE
5
E0
100
AcDbEntity
8
1
62
256
6
ByLayer
370
13
48
1
60
0
100
AcDbSpline
70
4
71
3
72
9
73
5
40
0
40
0
40
0
40
0
40
0.967082271131591
40
1
40
1
40
1
40
1
41
1.04
10
38.7201659549002
20
1.44388163054167
30
0
41
1.04
10
38.7058147055248
20
1.54537293958654
30
0
41
1.04
10
38.6913762672002
20
1.6111593674432
30
0
41
1.04
10
38.6771749078088
20
1.63513077197294
30
0
41
1.04
10
38.6767076864597
20
1.63587478183991
30
0
0
SPLINE
5
E1
100
AcDbEntity
8
1
62
256
6
ByLayer
370
13
48
1
60
0
100
AcDbSpline
70
4
71
3
72
8
73
4
40
0
40
0
40
0
40
0
40
1
40
1
40
1
40
1
41
1.04
10
34.5243286783527
20
1.41421350099789
30
0
41
1.04
10
34.5098626201739
20
1.52396218962016
30
0
41
1.04
10
34.4947313281063
20
1.60290994699149
30
0
41
1.04
10
34.4785722432978
20
1.63212058172086
30
0
0
SPLINE
5
E2
100
AcDbEntity
8
1
62
256
6
ByLayer
370
13
48
1
60
0
100
AcDbSpline
70
4
71
3
72
8
73
4
40
0
40
0
40
0
40
0
40
1
40
1
40
1
40
1
41
1.04
10
36.2250419582325
20
-1.63729760096938
30
0
41
1.04
10
36.2072923581558
20
-1.66153257561752
30
0
41
1.04
10
36.1895223071278
20
-1.62406371036425
30
0
41
1.04
10
36.1715168073679
20
-1.52374109912882
30
0
0
SPLINE
5
E3
100
AcDbEntity
8
1
62
256
6
ByLayer
370
13
48
1
60
0
100
AcDbSpline
70
4
71
3
72
9
73
5
40
0
40
0
40
0
40
0
40
0.433110029212226
40
1
40
1
40
1
40
1
41
1
10
35.6786716388982
20
-1.63603673439269
30
0
41
1
10
35.6698299648125
20
-1.62279388370695
30
0
41
1
10
35.6493933595858
20
-1.55655406218284
30
0
41
1
10
35.6286124137231
20
-1.40828831971268
30
0
41
1
10
35.6167225064699
20
-1.3011187211408
30
0
0
SPLINE
5
E4
100
AcDbEntity
8
1
62
256
6
ByLayer
370
13
48
1
60
0
100
AcDbSpline
70
4
71
3
72
9
73
5
40
0
40
0
40
0
40
0
40
0.144410475088355
40
1
40
1
40
1
40
1
41
1.04
10
40.4250907425662
20
-1.63711642297703
30
0
41
1.04
10
40.422194977051
20
-1.641369704568
30
0
41
1.04
10
40.4022258410042
20
-1.65929580758896
30
0
41
1.04
10
40.3830316582136
20
-1.59548762780416
30
0
41
1.04
10
40.3669855076425
20
-1.49667219337957
30
0
0
SPLINE
5
E5
100
AcDbEntity
8
1
62
256
6
ByLayer
370
13
48
1
60
0
100
AcDbSpline
70
4
71
3
72
9
73
5
40
0
40
0
40
0
40
0
40
0.488994475534634
40
1
40
1
40
1
40
1
41
1
10
39.877225183289
20
-1.63397729873478
30
0
41
1
10
39.8670121137855
20
-1.61679139002177
30
0
41
1
10
39.8458073246404
20
-1.53906512914907
30
0
41
1
10
39.823682207507
20
-1.36747843417055
30
0
41
1
10
39.8122328452829
20
-1.25893367323042
30
0
0
SPLINE
5
E6
100
AcDbEntity
8
1
62
256
6
ByLayer
370
13
48
1
60
0
100
AcDbSpline
70
4
71
3
72
9
73
5
40
0
40
0
40
0
40
0
40
0.710018057340707
40
1
40
1
40
1
40
1
41
1
10
38.9057585908337
20
1.3664641923624
30
0
41
1
10
38.8875476602447
20
1.5156469727624
30
0
41
1
10
38.8628466309353
20
1.64267390993967
30
0
41
1
10
38.8388339228278
20
1.64832292253485
30
0
41
1
10
38.8319226542863
20
1.6405586516565
30
0
0
SPLINE
5
E7
100
AcDbEntity
8
1
62
256
6
ByLayer
370
13
48
1
60
0
100
AcDbSpline
70
4
71
3
72
9
73
5
40
0
40
0
40
0
40
0
40
0.125184404118562
40
1
40
1
40
1
40
1
41
1.04
10
39.4606510679013
20
1.07066138307646
30
0
41
1.04
10
39.4573020019243
20
1.10819432260421
30
0
41
1.04
10
39.4305398976547
20
1.39655051993774
30
0
41
1.04
10
39.403774989902
20
1.58144576274724
30
0
41
1.04
10
39.3799008483358
20
1.63008440753322
30
0
0
SPLINE
5
E8
100
AcDbEntity
8
1
62
256
6
ByLayer
370
18
48
1
60
0
100
AcDbSpline
70
4
71
3
72
24
73
20
40
0
40
0
40
0
40
0
40
0.0627333586546997
40
0.0627333586546997
40
0.196628593132599
40
0.196628593132599
40
0.263576210371549
40
0.263576210371549
40
0.330523827610498
40
0.330523827610498
40
0.464419062088398
40
0.598314296566298
40
0.598314296566298
40
0.665261913805248
40
0.665261913805248
40
0.732209531044199
40
0.732209531044199
40
0.866104765522099
40
1
40
1
40
1
40
1
41
1
10
39.0722482883298
20
2.04750925358306
30
0
41
1
10
39.0740007106228
20
2.04752252895022
30
0
41
1
10
39.0757594403817
20
2.04674379278097
30
0
41
1
10
39.0813081547081
20
2.0418340758203
30
0
41
1
10
39.0851479522956
20
2.03490276141736
30
0
41
1
10
39.0910197265896
20
2.01901527628107
30
0
41
1
10
39.0929924951077
20
2.01280254631701
30
0
41
1
10
39.0969619317528
20
1.99850189461623
30
0
41
1
10
39.0989410774681
20
1.99047704011329
30
0
41
1
10
39.1048556320596
20
1.96383758963239
30
0
41
1
10
39.1126780885535
20
1.92149146159562
30
0
41
1
10
39.1203814561839
20
1.86576333153948
30
0
41
1
10
39.1261423134972
20
1.81889094455039
30
0
41
1
10
39.1280600497952
20
1.80241912729036
30
0
41
1
10
39.1318974318765
20
1.76774976880679
30
0
41
1
10
39.1338220355175
20
1.74950023101823
30
0
41
1
10
39.1395503592787
20
1.69271487601438
30
0
41
1
10
39.1470938813564
20
1.61137628339307
30
0
41
1
10
39.1545845150109
20
1.51911246823317
30
0
41
1
10
39.1583431523018
20
1.47024247475454
30
0
0
SPLINE
5
E9
100
AcDbEntity
8
1
62
256
6
ByLayer
370
13
48
1
60
0
100
AcDbSpline
70
4
71
3
72
8
73
4
40
0
40
0
40
0
40
0
40
1
40
1
40
1
40
1
41
1
10
34.7098555495167
20
1.33210287544117
30
0
41
1
10
34.6869364100088
20
1.53119703289138
30
0
41
1
10
34.6625124656816
20
1.66148012965968
30
0
41
1
10
34.6350447377969
20
1.64281920928303
30
0
0
SPLINE
5
EA
100
AcDbEntity
8
1
62
256
6
ByLayer
370
13
48
1
60
0
100
AcDbSpline
70
4
71
3
72
9
73
5
40
0
40
0
40
0
40
0
40
0.100865765039162
40
1
40
1
40
1
40
1
41
1.04
10
35.2647972491776
20
1.0241012676027
30
0
41
1.04
10
35.2620509225464
20
1.05576653019725
30
0
41
1.04
10
35.2348775054591
20
1.35974787297018
30
0
41
1.04
10
35.2083071702372
20
1.55737179176735
30
0
41
1.04
10
35.1843927044144
20
1.61991168091434
30
0
0
SPLINE
5
EB
100
AcDbEntity
8
1
62
256
6
ByLayer
370
13
48
1
60
0
100
AcDbSpline
70
4
71
3
72
9
73
5
40
0
40
0
40
0
40
0
40
0.429880038424056
40
1
40
1
40
1
40
1
41
1.04
10
35.5115912201349
20
-1.64388498226866
30
0
41
1.04
10
35.5002078543082
20
-1.63939126371789
30
0
41
1.04
10
35.4737513882653
20
-1.569290400755
30
0
41
1.04
10
35.4467154741224
20
-1.36089387301341
30
0
41
1.04
10
35.4311162239742
20
-1.20420060804931
30
0
0
SPLINE
5
EC
100
AcDbEntity
8
1
62
256
6
ByLayer
370
13
48
1
60
0
100
AcDbSpline
70
4
71
3
72
9
73
5
40
0
40
0
40
0
40
0
40
0.962404513047185
40
1
40
1
40
1
40
1
41
1
10
34.9567206896124
20
-1.57188887392493
30
0
41
1
10
34.9311656109118
20
-1.45998037229032
30
0
41
1
10
34.9048023706607
20
-1.21531635774852
30
0
41
1
10
34.8773736875651
20
-0.872660319998346
30
0
41
1
10
34.8763409071281
20
-0.8596438133672
30
0
0
SPLINE
5
ED
100
AcDbEntity
8
1
62
256
6
ByLayer
370
13
48
1
60
0
100
AcDbSpline
70
4
71
3
72
8
73
4
40
0
40
0
40
0
40
0
40
1
40
1
40
1
40
1
41
1
10
34.2162500821027
20
-1.29680928863027
30
0
41
1
10
34.1988392900141
20
-1.13870631052467
30
0
41
1
10
34.181608148158
20
-0.934546270813058
30
0
41
1
10
34.1641035041229
20
-0.700431248640882
30
0
0
SPLINE
5
EE
100
AcDbEntity
8
1
62
256
6
ByLayer
370
13
48
1
60
0
100
AcDbSpline
70
4
71
3
72
9
73
5
40
0
40
0
40
0
40
0
40
0.458615693711669
40
1
40
1
40
1
40
1
41
1.04
10
39.7075457513274
20
-1.64138312181043
30
0
41
1.04
10
39.6957101991838
20
-1.63044980642538
30
0
41
1.04
10
39.6694730858533
20
-1.54585231388794
30
0
41
1.04
10
39.641816790454
20
-1.3163372076688
30
0
41
1.04
10
39.6266491553462
20
-1.1577682875839
30
0
0
SPLINE
5
EF
100
AcDbEntity
8
1
62
256
6
ByLayer
370
13
48
1
60
0
100
AcDbSpline
70
4
71
3
72
11
73
7
40
0
40
0
40
0
40
0
40
0.284420124747399
40
0.621372453409357
40
0.977437639038796
40
1
40
1
40
1
40
1
41
1
10
39.1526652557815
20
-1.55249300888656
30
0
41
1
10
39.1445914642282
20
-1.51333603392192
30
0
41
1
10
39.1271027588714
20
-1.40228469670518
30
0
41
1
10
39.1002030466625
20
-1.15155592235431
30
0
41
1
10
39.0818532362122
20
-0.929029321270463
30
0
41
1
10
39.0725102775806
20
-0.808964918780049
30
0
41
1
10
39.0719548233288
20
-0.801802590422142
30
0
0
SPLINE
5
F0
100
AcDbEntity
8
1
62
256
6
ByLayer
370
13
48
1
60
0
100
AcDbSpline
70
4
71
3
72
9
73
5
40
0
40
0
40
0
40
0
40
0.830613825459751
40
1
40
1
40
1
40
1
41
1.04
10
34.7711444816068
20
-1.52098166231912
30
0
41
1.04
10
34.7492389824498
20
-1.39741698775309
30
0
41
1.04
10
34.7228813991684
20
-1.14295188240663
30
0
41
1.04
10
34.6954705722846
20
-0.79086375772877
30
0
41
1.04
10
34.6907901621119
20
-0.728809201474279
30
0
0
SPLINE
5
F1
100
AcDbEntity
8
1
62
256
6
ByLayer
370
18
48
1
60
0
100
AcDbSpline
70
4
71
3
72
57
73
53
40
0
40
0
40
0
40
0
40
0.124999999999949
40
0.124999999999949
40
0.249999999999899
40
0.249999999999899
40
0.312499999999873
40
0.312499999999873
40
0.374999999999848
40
0.374999999999848
40
0.499999999999797
40
0.499999999999797
40
0.562499999999771
40
0.562499999999771
40
0.624999999999745
40
0.656249999999732
40
0.656249999999732
40
0.68749999999972
40
0.68749999999972
40
0.695312499999716
40
0.695312499999716
40
0.703124999999712
40
0.703124999999712
40
0.707031249999712
40
0.707031249999712
40
0.710937499999712
40
0.710937499999712
40
0.712890624999712
40
0.712890624999712
40
0.714843749999712
40
0.714843749999712
40
0.716796874999712
40
0.716796874999712
40
0.718749999999712
40
0.718749999999712
40
0.72265624999972
40
0.72265624999972
40
0.726562499999728
40
0.726562499999728
40
0.734374999999738
40
0.734374999999738
40
0.749999999999755
40
0.749999999999755
40
0.781249999999786
40
0.781249999999786
40
0.812499999999816
40
0.812499999999816
40
0.874999999999877
40
0.874999999999877
40
0.937499999999939
40
0.937499999999939
40
1
40
1
40
1
40
1
41
1
10
34.0864231855814
20
-1.18799187529285
30
0
41
1
10
34.0848461796827
20
-1.14699741303639
30
0
41
1
10
34.0834204272382
20
-1.10390533537429
30
0
41
1
10
34.0809019486959
20
-1.01365862395917
30
0
41
1
10
34.0798083163604
20
-0.966503339036791
30
0
41
1
10
34.0784646691223
20
-0.892717105121847
30
0
41
1
10
34.0780665642546
20
-0.867611770443631
30
0
41
1
10
34.0773849315602
20
-0.816368569813079
30
0
41
1
10
34.0771007486211
20
-0.790159839767909
30
0
41
1
10
34.0764604161159
20
-0.710553016230307
30
0
41
1
10
34.0762686775696
20
-0.656235897570241
30
0
41
1
10
34.0767824645807
20
-0.573029709434849
30
0
41
1
10
34.0771026844803
20
-0.54500872731731
30
0
41
1
10
34.0782990061555
20
-0.488453973203974
30
0
41
1
10
34.0795825685642
20
-0.445645940169072
30
0
41
1
10
34.0821756349916
20
-0.402416121944981
30
0
41
1
10
34.0844632054717
20
-0.373565286826533
30
0
41
1
10
34.0858210807041
20
-0.359125936293196
30
0
41
1
10
34.0885408869875
20
-0.34128899756351
30
0
41
1
10
34.0891411631351
20
-0.337737553870653
30
0
41
1
10
34.0905391941484
20
-0.330696943542762
30
0
41
1
10
34.0913289061604
20
-0.327197865722923
30
0
41
1
10
34.092843327537
20
-0.322096733103251
30
0
41
1
10
34.0934031966564
20
-0.320420236799691
30
0
41
1
10
34.0947459182434
20
-0.317197035494615
30
0
41
1
10
34.0955071870692
20
-0.315629925723698
30
0
41
1
10
34.0971106926518
20
-0.313696681999971
30
0
41
1
10
34.0977308765201
20
-0.313126800365467
30
0
41
1
10
34.0992039759092
20
-0.312502459543197
30
0
41
1
10
34.1000781529128
20
-0.312514832437472
30
0
41
1
10
34.101656757397
20
-0.31322706497474
30
0
41
1
10
34.1023501584035
20
-0.313848019137595
30
0
41
1
10
34.1035664684831
20
-0.315218953258125
30
0
41
1
10
34.1040980975611
20
-0.315978751618502
30
0
41
1
10
34.1055818660751
20
-0.318366418191118
30
0
41
1
10
34.1063912357985
20
-0.320044536024511
30
0
41
1
10
34.107881157301
20
-0.323459173811955
30
0
41
1
10
34.1085526280452
20
-0.325201002028905
30
0
41
1
10
34.1104455863972
20
-0.330483745355508
30
0
41
1
10
34.1115415613886
20
-0.33406590302323
30
0
41
1
10
34.1145854966319
20
-0.344817303127655
30
0
41
1
10
34.1163003174047
20
-0.352039888248925
30
0
41
1
10
34.1210796203806
20
-0.373763729531362
30
0
41
1
10
34.1237569796756
20
-0.388339935785382
30
0
41
1
10
34.128713425991
20
-0.417343293637629
30
0
41
1
10
34.1309718813321
20
-0.431803313244728
30
0
41
1
10
34.1373817345599
20
-0.475055414781679
30
0
41
1
10
34.1411711489699
20
-0.503719589930256
30
0
41
1
10
34.1483136506624
20
-0.560698955632603
30
0
41
1
10
34.151655545565
20
-0.589047898074966
30
0
41
1
10
34.1580600679915
20
-0.645157996263862
30
0
41
1
10
34.1611235617331
20
-0.672932784740937
30
0
41
1
10
34.1641035041207
20
-0.700431248617633
30
0
0
SPLINE
5
F2
100
AcDbEntity
8
1
62
256
6
ByLayer
370
13
48
1
60
0
100
AcDbSpline
70
4
71
3
72
9
73
5
40
0
40
0
40
0
40
0
40
0.260181098495271
40
1
40
1
40
1
40
1
41
1
10
39.6462430342296
20
0.952728031826354
30
0
41
1
10
39.6392720141164
20
1.03657484187812
30
0
41
1
10
39.6124404699675
20
1.33805196672259
30
0
41
1
10
39.5856060508263
20
1.53485782075242
30
0
41
1
10
39.5654729571795
20
1.60270382787391
30
0
0
SPLINE
5
F3
100
AcDbEntity
8
1
62
256
6
ByLayer
370
13
48
1
60
0
100
AcDbSpline
70
4
71
3
72
9
73
5
40
0
40
0
40
0
40
0
40
0.0662307809293369
40
1
40
1
40
1
40
1
41
1.04
10
40.2011689677761
20
0.557227046314779
30
0
41
1.04
10
40.1993258473914
20
0.582802908542709
30
0
41
1.04
10
40.1715770120881
20
0.964335675712912
30
0
41
1.04
10
40.1451181041177
20
1.26830949761587
30
0
41
1.04
10
40.1202164027966
20
1.44454276586069
30
0
0
SPLINE
5
F4
100
AcDbEntity
8
1
62
256
6
ByLayer
370
13
48
1
60
0
100
AcDbSpline
70
4
71
3
72
9
73
5
40
0
40
0
40
0
40
0
40
0.234537174773305
40
1
40
1
40
1
40
1
41
1
10
35.4503910062554
20
0.902910586709368
30
0
41
1
10
35.4439942927327
20
0.981771968008218
30
0
41
1
10
35.41682511985
20
1.29716772405513
30
0
41
1
10
35.3902559843553
20
1.50638215789056
30
0
41
1
10
35.3699565637485
20
1.58661689454925
30
0
0
SPLINE
5
F5
100
AcDbEntity
8
1
62
256
6
ByLayer
370
13
48
1
60
0
100
AcDbSpline
70
4
71
3
72
10
73
6
40
0
40
0
40
0
40
0
40
0.408381419507892
40
0.747346481906644
40
1
40
1
40
1
40
1
41
1.04
10
36.0053143746959
20
0.49980612637653
30
0
41
1.04
10
35.995121830545
20
0.642781547184212
30
0
41
1.04
10
35.976032174054
20
0.898281314876735
30
0
41
1.04
10
35.9490111371323
20
1.20491930188128
30
0
41
1.04
10
35.9321510438872
20
1.35521578322325
30
0
41
1.04
10
35.9248017721923
20
1.41126225505493
30
0
0
SPLINE
5
F6
100
AcDbEntity
8
1
62
256
6
ByLayer
370
13
48
1
60
0
100
AcDbSpline
70
4
71
3
72
9
73
5
40
0
40
0
40
0
40
0
40
0.497076526067724
40
1
40
1
40
1
40
1
41
1
10
41.1272315629014
20
-0.178228568437248
30
0
41
1
10
41.1130083990606
20
0.0313298518977945
30
0
41
1
10
41.0854992208943
20
0.44327169483094
30
0
41
1
10
41.0591539935653
20
0.797148597839197
30
0
41
1
10
41.0460826900403
20
0.953950625268874
30
0
0
SPLINE
5
F7
100
AcDbEntity
8
1
62
256
6
ByLayer
370
13
48
1
60
0
100
AcDbSpline
70
4
71
3
72
9
73
5
40
0
40
0
40
0
40
0
40
0.695347043320591
40
1
40
1
40
1
40
1
41
1
10
38.4121874102235
20
-1.2588333006677
30
0
41
1
10
38.3933144140723
20
-1.0797738806952
30
0
41
1
10
38.3666823429549
20
-0.749044380925426
30
0
41
1
10
38.3396841715598
20
-0.360777776091822
30
0
41
1
10
38.3314443722915
20
-0.240391960021725
30
0
0
SPLINE
5
F8
100
AcDbEntity
8
1
62
256
6
ByLayer
370
13
48
1
60
0
100
AcDbSpline
70
4
71
3
72
10
73
6
40
0
40
0
40
0
40
0
40
0.125470174664635
40
0.810180695348126
40
1
40
1
40
1
40
1
41
1
10
36.9313435299477
20
-0.238392744679061
30
0
41
1
10
36.9280176711699
20
-0.189800692487068
30
0
41
1
10
36.9064976538692
20
0.126498800329728
30
0
41
1
10
36.8794430862099
20
0.529175355433665
30
0
41
1
10
36.8558195446527
20
0.834966912073185
30
0
41
1
10
36.8506823271752
20
0.898606260263165
30
0
0
SPLINE
5
F9
100
AcDbEntity
8
1
62
256
6
ByLayer
370
18
48
1
60
0
100
AcDbSpline
70
4
71
3
72
25
73
21
40
0
40
0
40
0
40
0
40
0.0625000000000001
40
0.0625000000000001
40
0.125
40
0.125
40
0.25
40
0.375
40
0.375
40
0.5
40
0.5
40
0.625000000000001
40
0.625000000000001
40
0.750000000000001
40
0.750000000000001
40
0.875000000000001
40
0.875000000000001
40
0.9375
40
0.9375
40
1
40
1
40
1
40
1
41
1
10
37.0919562487533
20
0.9804244409045
30
0
41
1
10
37.0938817811674
20
0.949589979689421
30
0
41
1
10
37.095816344992
20
0.918247953728752
30
0
41
1
10
37.0997149243163
20
0.854530163751292
30
0
41
1
10
37.1016823377601
20
0.822104407647601
30
0
41
1
10
37.1075498545507
20
0.724380268809369
30
0
41
1
10
37.1153190594979
20
0.592212644220297
30
0
41
1
10
37.1229225542093
20
0.456403611907888
30
0
41
1
10
37.1304706642617
20
0.31876669809418
30
0
41
1
10
37.1342170794233
20
0.249026911118506
30
0
41
1
10
37.141741886724
20
0.107686849979785
30
0
41
1
10
37.1454555233511
20
0.0373173454582059
30
0
41
1
10
37.1529369840031
20
-0.102833944791172
30
0
41
1
10
37.1567225601721
20
-0.172614705172577
30
0
41
1
10
37.164409183303
20
-0.311587732029864
30
0
41
1
10
37.1683015991009
20
-0.380780505675858
30
0
41
1
10
37.1741970779565
20
-0.484117907295911
30
0
41
1
10
37.176177021471
20
-0.518577336652299
30
0
41
1
10
37.18011364174
20
-0.586630470057003
30
0
41
1
10
37.1820735019573
20
-0.620281343214828
30
0
41
1
10
37.1840249368948
20
-0.653563460063054
30
0
0
SPLINE
5
FA
100
AcDbEntity
8
1
62
256
6
ByLayer
370
13
48
1
60
0
100
AcDbSpline
70
4
71
3
72
9
73
5
40
0
40
0
40
0
40
0
40
0.197031619329746
40
1
40
1
40
1
40
1
41
1
10
40.3867532078712
20
0.414338709217077
30
0
41
1
10
40.3812469093059
20
0.492987026337005
30
0
41
1
10
40.3535038031462
20
0.881271838812751
30
0
41
1
10
40.3270345967522
20
1.19212603195936
30
0
41
1
10
40.3057782249368
20
1.36702492244828
30
0
0
SPLINE
5
FB
100
AcDbEntity
8
1
62
256
6
ByLayer
370
18
48
1
60
0
100
AcDbSpline
70
4
71
3
72
14
73
10
40
0
40
0
40
0
40
0
40
0.5
40
0.5
40
0.749999999999999
40
0.749999999999999
40
0.875
40
0.875
40
1
40
1
40
1
40
1
41
1
10
40.6430712833667
20
1.10457914762
30
0
41
1
10
40.6393446866259
20
1.18648767421405
30
0
41
1
10
40.6358555058924
20
1.26358475697845
30
0
41
1
10
40.6308868967715
20
1.37207250849698
30
0
41
1
10
40.6292752919205
20
1.40703619285841
30
0
41
1
10
40.6268586959496
20
1.45770079238989
30
0
41
1
10
40.6260537126199
20
1.47428477494023
30
0
41
1
10
40.624441964739
20
1.50671808283576
30
0
41
1
10
40.6236343399521
20
1.52258568773118
30
0
41
1
10
40.6228209792281
20
1.53810685259663
30
0
0
SPLINE
5
FC
100
AcDbEntity
8
1
62
256
6
ByLayer
370
13
48
1
60
0
100
AcDbSpline
70
4
71
3
72
9
73
5
40
0
40
0
40
0
40
0
40
0.36502884109382
40
1
40
1
40
1
40
1
41
1.04
10
40.9416867696076
20
-0.0289235997629935
30
0
41
1.04
10
40.931307565168
20
0.124629129537095
30
0
41
1.04
10
40.9036037602417
20
0.534756095444886
30
0
41
1.04
10
40.8770923160172
20
0.886044765080658
30
0
41
1.04
10
40.8604968966731
20
1.071788411438
30
0
0
SPLINE
5
FD
100
AcDbEntity
8
1
62
256
6
ByLayer
370
18
48
1
60
0
100
AcDbSpline
70
4
71
3
72
22
73
18
40
0
40
0
40
0
40
0
40
0.25
40
0.25
40
0.3125
40
0.3125
40
0.375
40
0.375
40
0.5
40
0.5
40
0.75
40
0.75
40
0.875000000000001
40
0.875000000000001
40
0.9375
40
0.9375
40
1
40
1
40
1
40
1
41
1
10
40.7023050683166
20
0.0892673185656747
30
0
41
1
10
40.6974372573051
20
0.178540602899773
30
0
41
1
10
40.6925320842506
20
0.267501917552096
30
0
41
1
10
40.6863372784082
20
0.378304102883305
30
0
41
1
10
40.6850950969899
20
0.400444483401486
30
0
41
1
10
40.6826035027309
20
0.444684538748192
30
0
41
1
10
40.6813529173404
20
0.466804577837394
30
0
41
1
10
40.6776163078406
20
0.532617851295271
30
0
41
1
10
40.6751367333615
20
0.575918114630298
30
0
41
1
10
40.6677168807348
20
0.704131938603979
30
0
41
1
10
40.6627949045309
20
0.787365545906908
30
0
41
1
10
40.6554086926372
20
0.908874908982625
30
0
41
1
10
40.6529462898435
20
0.948819425043951
30
0
41
1
10
40.6492476232724
20
1.00788477538916
30
0
41
1
10
40.6480138862335
20
1.02743120555345
30
0
41
1
10
40.6455438437695
20
1.06623631476555
30
0
41
1
10
40.6443052447036
20
1.0855302553723
30
0
41
1
10
40.6430712833667
20
1.10457914762
30
0
0
SPLINE
5
FE
100
AcDbEntity
8
1
62
256
6
ByLayer
370
18
48
1
60
0
100
AcDbSpline
70
4
71
3
72
14
73
10
40
0
40
0
40
0
40
0
40
0.25
40
0.25
40
0.375
40
0.375
40
0.499999999999999
40
0.499999999999999
40
1
40
1
40
1
40
1
41
1
10
40.6430712833667
20
1.10457914762012
30
0
41
1
10
40.6370111539589
20
1.15058634229126
30
0
41
1
10
40.6307565121107
20
1.19559698567417
30
0
41
1
10
40.6210588431178
20
1.26156582230709
30
0
41
1
10
40.6177838724018
20
1.28322458588576
30
0
41
1
10
40.6111764757922
20
1.32568847293723
30
0
41
1
10
40.6078380010369
20
1.34652458567172
30
0
41
1
10
40.5909904272737
20
1.44874592892776
30
0
41
1
10
40.5771544363073
20
1.52430715631553
30
0
41
1
10
40.5636434322568
20
1.59361735046642
30
0
0
SPLINE
5
FF
100
AcDbEntity
8
1
62
256
6
ByLayer
370
13
48
1
60
0
100
AcDbSpline
70
4
71
3
72
11
73
7
40
0
40
0
40
0
40
0
40
0.152703511422357
40
0.482615010420858
40
0.831239991285845
40
1
40
1
40
1
40
1
41
1.04
10
38.967061151088
20
-1.49682333793968
30
0
41
1.04
10
38.9626693406284
20
-1.47012401801346
30
0
41
1.04
10
38.9488598749461
20
-1.37526644435396
30
0
41
1.04
10
38.92549566705
20
-1.15919568885746
30
0
41
1.04
10
38.903304243497
20
-0.891501547649079
30
0
41
1.04
10
38.8904670022529
20
-0.723263360856089
30
0
41
1.04
10
38.8863514990665
20
-0.668119695848901
30
0
0
SPLINE
5
100
100
AcDbEntity
8
1
62
256
6
ByLayer
370
18
48
1
60
0
100
AcDbSpline
70
4
71
3
72
27
73
23
40
0
40
0
40
0
40
0
40
0.125000000000001
40
0.125000000000001
40
0.250000000000001
40
0.250000000000001
40
0.281250000000002
40
0.281250000000002
40
0.312500000000002
40
0.312500000000002
40
0.375000000000002
40
0.375000000000002
40
0.500000000000002
40
0.625000000000003
40
0.625000000000003
40
0.687500000000002
40
0.687500000000002
40
0.718750000000002
40
0.718750000000002
40
0.750000000000002
40
0.875000000000001
40
1
40
1
40
1
40
1
41
1
10
37.2462919928724
20
-0.712513715347939
30
0
41
1
10
37.242512217267
20
-0.646680015227304
30
0
41
1
10
37.2387436214104
20
-0.579849416416835
30
0
41
1
10
37.2311304518591
20
-0.444214824350951
30
0
41
1
10
37.227274873976
20
-0.375411533699463
30
0
41
1
10
37.222416980366
20
-0.288143699751856
30
0
41
1
10
37.2214436106931
20
-0.270626777970648
30
0
41
1
10
37.2194937198232
20
-0.235464781993954
30
0
41
1
10
37.2185160391947
20
-0.217798639583833
30
0
41
1
10
37.2155944714036
20
-0.16489396822459
30
0
41
1
10
37.2136581878205
20
-0.12967802500205
30
0
41
1
10
37.2078818379446
20
-0.0241885246171023
30
0
41
1
10
37.2002692366691
20
0.116042900482711
30
0
41
1
10
37.1927512782769
20
0.25544105851759
30
0
41
1
10
37.1870946302371
20
0.359669450340647
30
0
41
1
10
37.1852058480821
20
0.394358762341796
30
0
41
1
10
37.1823595966177
20
0.446310467352333
30
0
41
1
10
37.1814072677068
20
0.463639091148593
30
0
41
1
10
37.1795057611749
20
0.49810569086722
30
0
41
1
10
37.17475862751
20
0.583821478804708
30
0
41
1
10
37.166238693754
20
0.734115721456618
30
0
41
1
10
37.1585378276063
20
0.862164166227018
30
0
41
1
10
37.1546270471121
20
0.924791658408054
30
0
0
SPLINE
5
101
100
AcDbEntity
8
1
62
256
6
ByLayer
370
13
48
1
60
0
100
AcDbSpline
70
4
71
3
72
9
73
5
40
0
40
0
40
0
40
0
40
0.283519330309795
40
1
40
1
40
1
40
1
41
1.04
10
37.4861038515976
20
-0.666552147862458
30
0
41
1.04
10
37.4788043234727
20
-0.568117921961922
30
0
41
1.04
10
37.4527730530498
20
-0.202059103923838
30
0
41
1.04
10
37.4257428106554
20
0.212717296216607
30
0
41
1.04
10
37.4055471460559
20
0.496082896716853
30
0
0
SPLINE
5
102
100
AcDbEntity
8
1
62
256
6
ByLayer
370
13
48
1
60
0
100
AcDbSpline
70
4
71
3
72
9
73
5
40
0
40
0
40
0
40
0
40
0.420135927582568
40
1
40
1
40
1
40
1
41
1
10
37.6716956291312
20
-0.800514668835064
30
0
41
1
10
37.6608694191446
20
-0.660921327377736
30
0
41
1
10
37.6346668259815
20
-0.296481956805024
30
0
41
1
10
37.6074404161936
20
0.116930136435712
30
0
41
1
10
37.5911350020574
20
0.351756329524108
30
0
0
SPLINE
5
103
100
AcDbEntity
8
1
62
256
6
ByLayer
370
18
48
1
60
0
100
AcDbSpline
70
4
71
3
72
29
73
25
40
0
40
0
40
0
40
0
40
0.124999999999999
40
0.124999999999999
40
0.187499999999999
40
0.187499999999999
40
0.249999999999999
40
0.249999999999999
40
0.374999999999999
40
0.374999999999999
40
0.499999999999999
40
0.499999999999999
40
0.562499999999999
40
0.562499999999999
40
0.59375
40
0.59375
40
0.625
40
0.749999999999999
40
0.874999999999999
40
0.874999999999999
40
0.937499999999999
40
0.96875
40
0.96875
40
1
40
1
40
1
40
1
41
1
10
37.9867764215433
20
-1.34807960519802
30
0
41
1
10
37.9829712341282
20
-1.29539975300116
30
0
41
1
10
37.9791589818929
20
-1.24027010007993
30
0
41
1
10
37.9733957647071
20
-1.1538032266046
30
0
41
1
10
37.9714616403141
20
-1.12426438587625
30
0
41
1
10
37.9676094503029
20
-1.06449163529476
30
0
41
1
10
37.965689404118
20
-1.03423129820797
30
0
41
1
10
37.9599368836854
20
-0.942350040933093
30
0
41
1
10
37.9561121043858
20
-0.879631703303971
30
0
41
1
10
37.9484253548586
20
-0.751310268962413
30
0
41
1
10
37.9445548735077
20
-0.68570766867569
30
0
41
1
10
37.9387413278533
20
-0.585100776660369
30
0
41
1
10
37.9368026469659
20
-0.551197235053081
30
0
41
1
10
37.9338952706888
20
-0.499778242858781
30
0
41
1
10
37.9329262586045
20
-0.482544900481145
30
0
41
1
10
37.9309996485151
20
-0.448092233175856
30
0
41
1
10
37.926203930907
20
-0.361869292148924
30
0
41
1
10
37.9177599791898
20
-0.205858716620696
30
0
41
1
10
37.9103910845248
20
-0.06606420782839
30
0
41
1
10
37.9048232983102
20
0.0391998136655616
30
0
41
1
10
37.9020284520343
20
0.0919365251122883
30
0
41
1
10
37.8991934089997
20
0.144831603040444
30
0
41
1
10
37.8972913288154
20
0.180130441671139
30
0
41
1
10
37.8963334254041
20
0.197813001954728
30
0
41
1
10
37.8953733838048
20
0.215412992141609
30
0
0
SPLINE
5
104
100
AcDbEntity
8
1
62
256
6
ByLayer
370
13
48
1
60
0
100
AcDbSpline
70
4
71
3
72
9
73
5
40
0
40
0
40
0
40
0
40
0.561653919918716
40
1
40
1
40
1
40
1
41
1.04
10
38.226596257648
20
-1.15734998316658
30
0
41
1.04
10
38.2114574415729
20
-0.998675185955952
30
0
41
1.04
10
38.1847957843414
20
-0.661863534984547
30
0
41
1.04
10
38.1577683256339
20
-0.266777371155331
30
0
41
1.04
10
38.1459078961698
20
-0.0920139025047079
30
0
0
SPLINE
5
105
100
AcDbEntity
8
1
62
256
6
ByLayer
370
13
48
1
60
0
100
AcDbSpline
70
4
71
3
72
10
73
6
40
0
40
0
40
0
40
0
40
0.543397396032334
40
0.875420252603176
40
1
40
1
40
1
40
1
41
1
10
36.1908941013236
20
0.355433534126462
30
0
41
1
10
36.1772648415521
20
0.551842001454816
30
0
41
1
10
36.1546948848119
20
0.862711757381192
30
0
41
1
10
36.1271095259147
20
1.17420350164141
30
0
41
1
10
36.1139711537471
20
1.29685385754283
30
0
41
1
10
36.1103473825977
20
1.32854885851162
30
0
0
SPLINE
5
106
100
AcDbEntity
8
1
62
256
6
ByLayer
370
13
48
1
60
0
100
AcDbSpline
70
4
71
3
72
9
73
5
40
0
40
0
40
0
40
0
40
0.675807110482532
40
1
40
1
40
1
40
1
41
1.04
10
36.7457528488116
20
-0.0893940849828677
30
0
41
1.04
10
36.7277982020091
20
0.175000162282566
30
0
41
1.04
10
36.7008291719889
20
0.576188343352376
30
0
41
1.04
10
36.6739079137729
20
0.918064149447417
30
0
41
1.04
10
36.6651290872486
20
1.01994004414947
30
0
0
SPLINE
5
107
100
AcDbEntity
8
1
62
256
6
ByLayer
370
18
48
1
60
0
100
AcDbSpline
70
4
71
3
72
10
73
6
40
0
40
0
40
0
40
0
40
0.5
40
0.5
40
1
40
1
40
1
40
1
41
1
10
41.0579846380443
20
1.77051750533982
30
0
41
1
10
41.0287090351
20
1.71203533927789
30
0
41
1
10
40.9992241173469
20
1.65291064231414
30
0
41
1
10
40.9399960655288
20
1.53399262626456
30
0
41
1
10
40.9102359239076
20
1.47416247372669
30
0
41
1
10
40.8802532230832
20
1.41398280036009
30
0
0
SPLINE
5
108
100
AcDbEntity
8
1
62
256
6
ByLayer
370
18
48
1
60
0
100
AcDbSpline
70
4
71
3
72
24
73
20
40
0
40
0
40
0
40
0
40
0.160584768259097
40
0.160584768259097
40
0.321169536518195
40
0.321169536518195
40
0.481754304777292
40
0.481754304777292
40
0.562046688906841
40
0.562046688906841
40
0.64233907303639
40
0.64233907303639
40
0.802923841295407
40
0.802923841295407
40
0.883216225424876
40
0.883216225424876
40
0.963508609554345
40
0.963508609554345
40
1
40
1
40
1
40
1
41
1
10
40.8802532230832
20
1.41398280036009
30
0
41
1
10
40.8752801843114
20
1.40400118293749
30
0
41
1
10
40.8695120440257
20
1.39476223249213
30
0
41
1
10
40.8567271453193
20
1.37744336340259
30
0
41
1
10
40.8496454520918
20
1.36932364993214
30
0
41
1
10
40.834764748139
20
1.3546304728973
30
0
41
1
10
40.8269322755664
20
1.34799808387322
30
0
41
1
10
40.8146177953847
20
1.33909948410596
30
0
41
1
10
40.8104108947971
20
1.33630819498666
30
0
41
1
10
40.8019527841844
20
1.33118126840125
30
0
41
1
10
40.7976842948686
20
1.32883215424567
30
0
41
1
10
40.7847651157007
20
1.32243710243068
30
0
41
1
10
40.7760025023885
20
1.31903075894613
30
0
41
1
10
40.7626248182812
20
1.31543064210939
30
0
41
1
10
40.7581117756193
20
1.31448623760502
30
0
41
1
10
40.7492186634547
20
1.31321203308116
30
0
41
1
10
40.7448145951596
20
1.31287362788058
30
0
41
1
10
40.7384819611519
20
1.31286411648176
30
0
41
1
10
40.736508490593
20
1.31293124600495
30
0
41
1
10
40.7345486317216
20
1.31307217878293
30
0
0
SPLINE
5
109
100
AcDbEntity
8
1
62
256
6
ByLayer
370
18
48
1
60
0
100
AcDbSpline
70
4
71
3
72
8
73
4
40
0
40
0
40
0
40
0
40
1
40
1
40
1
40
1
41
1
10
40.4874462980883
20
1.55135798872712
30
0
41
1
10
40.4766121784658
20
1.56149849619123
30
0
41
1
10
40.465801932614
20
1.57140093533394
30
0
41
1
10
40.4550150183622
20
1.58106576807455
30
0
0
SPLINE
5
10A
100
AcDbEntity
8
1
62
256
6
ByLayer
370
18
48
1
60
0
100
AcDbSpline
70
4
71
3
72
8
73
4
40
0
40
0
40
0
40
0
40
1
40
1
40
1
40
1
41
1
10
40.3924924800031
20
1.54041929223854
30
0
41
1
10
40.413317021502
20
1.55420200059055
30
0
41
1
10
40.4341562603769
20
1.56775221442808
30
0
41
1
10
40.4550150183622
20
1.58106576807441
30
0
0
SPLINE
5
10B
100
AcDbEntity
8
1
62
256
6
ByLayer
370
18
48
1
60
0
100
AcDbSpline
70
4
71
3
72
8
73
4
40
0
40
0
40
0
40
0
40
1
40
1
40
1
40
1
41
1
10
40.3924924800031
20
1.54041929223857
30
0
41
1
10
40.3662062645737
20
1.48493006246946
30
0
41
1
10
40.3398012986635
20
1.42960371472805
30
0
41
1
10
40.3132376692287
20
1.37447534539143
30
0
0
SPLINE
5
10C
100
AcDbEntity
8
1
62
256
6
ByLayer
370
18
48
1
60
0
100
AcDbSpline
70
4
71
3
72
16
73
12
40
0
40
0
40
0
40
0
40
0.232659531660508
40
0.232659531660508
40
0.360549609717048
40
0.360549609717048
40
0.488439687773589
40
0.488439687773589
40
0.744219843886794
40
0.744219843886794
40
1
40
1
40
1
40
1
41
1
10
35.6078393176693
20
-1.59397331235934
30
0
41
1
10
35.5999792703758
20
-1.59372563264716
30
0
41
1
10
35.5919957682134
20
-1.59424348416573
30
0
41
1
10
35.5794263803324
20
-1.59643686800533
30
0
41
1
10
35.5749168978318
20
-1.59749639667231
30
0
41
1
10
35.566032407018
20
-1.6001819257209
30
0
41
1
10
35.5616328182073
20
-1.60181015625341
30
0
41
1
10
35.5485849018968
20
-1.607652827192
30
0
41
1
10
35.5399900829417
20
-1.61290112148794
30
0
41
1
10
35.5244179421446
20
-1.62617012706306
30
0
41
1
10
35.5172666694592
20
-1.63435197184268
30
0
41
1
10
35.5115912201374
20
-1.64388498226447
30
0
0
SPLINE
5
10D
100
AcDbEntity
8
1
62
256
6
ByLayer
370
18
48
1
60
0
100
AcDbSpline
70
4
71
3
72
10
73
6
40
0
40
0
40
0
40
0
40
0.5
40
0.5
40
1
40
1
40
1
40
1
41
1
10
35.5115912201349
20
-1.64388498226864
30
0
41
1
10
35.4710698646618
20
-1.71194840459427
30
0
41
1
10
35.4307536330362
20
-1.77914052796541
30
0
41
1
10
35.3506956405683
20
-1.9111798846487
30
0
41
1
10
35.3110083301362
20
-1.97593782744329
30
0
41
1
10
35.2716328444546
20
-2.03928774071406
30
0
0
SPLINE
5
10E
100
AcDbEntity
8
1
62
256
6
ByLayer
370
18
48
1
60
0
100
AcDbSpline
70
4
71
3
72
8
73
4
40
0
40
0
40
0
40
0
40
1
40
1
40
1
40
1
41
1
10
35.2087820490474
20
-2.03267014906029
30
0
41
1
10
35.229740764684
20
-2.03519951768925
30
0
41
1
10
35.2506894625273
20
-2.0374052585191
30
0
41
1
10
35.2716328444546
20
-2.03928774071392
30
0
0
SPLINE
5
10F
100
AcDbEntity
8
1
62
256
6
ByLayer
370
18
48
1
60
0
100
AcDbSpline
70
4
71
3
72
10
73
6
40
0
40
0
40
0
40
0
40
0.5
40
0.5
40
1
40
1
40
1
40
1
41
1
10
35.2087820490475
20
-2.03267014906029
30
0
41
1
10
35.1674304951296
20
-1.96002224968967
30
0
41
1
10
35.1258135503777
20
-1.88518541191064
30
0
41
1
10
35.041730758584
20
-1.73123468043218
30
0
41
1
10
34.9994494579338
20
-1.65245675864674
30
0
41
1
10
34.9567206896125
20
-1.57188887392564
30
0
0
SPLINE
5
110
100
AcDbEntity
8
1
62
256
6
ByLayer
370
18
48
1
60
0
100
AcDbSpline
70
4
71
3
72
26
73
22
40
0
40
0
40
0
40
0
40
0.125000000000028
40
0.125000000000028
40
0.250000000000056
40
0.250000000000056
40
0.375000000000084
40
0.375000000000084
40
0.43750000000007
40
0.43750000000007
40
0.500000000000055
40
0.500000000000055
40
0.624999999999965
40
0.624999999999965
40
0.68749999999995
40
0.68749999999995
40
0.749999999999936
40
0.749999999999936
40
0.874999999999968
40
0.874999999999968
40
1
40
1
40
1
40
1
41
1
10
34.9567206896128
20
-1.57188887392667
30
0
41
1
10
34.9517406848603
20
-1.56249874955446
30
0
41
1
10
34.9459640501144
20
-1.55401284009673
30
0
41
1
10
34.9331596023165
20
-1.53844396629975
30
0
41
1
10
34.9260661332833
20
-1.5313317115176
30
0
41
1
10
34.9111613047548
20
-1.51882017857093
30
0
41
1
10
34.9033169895828
20
-1.51336605888253
30
0
41
1
10
34.8909889487569
20
-1.5063659116924
30
0
41
1
10
34.8867791741759
20
-1.50423123692795
30
0
41
1
10
34.878316678345
20
-1.50044030314555
30
0
41
1
10
34.8740465048444
20
-1.49877318159028
30
0
41
1
10
34.8611236461714
20
-1.49446863019406
30
0
41
1
10
34.8523602250804
20
-1.49251444374144
30
0
41
1
10
34.838985246575
20
-1.49120434604507
30
0
41
1
10
34.834475992785
20
-1.4910449497348
30
0
41
1
10
34.8255919133044
20
-1.49134578411449
30
0
41
1
10
34.8211925780101
20
-1.49180148195828
30
0
41
1
10
34.8081453560041
20
-1.49418907486273
30
0
41
1
10
34.7995505193732
20
-1.49719177231518
30
0
41
1
10
34.7839758888732
20
-1.50645362478707
30
0
41
1
10
34.7768222531383
20
-1.51282834679145
30
0
41
1
10
34.7711444816093
20
-1.52098166231554
30
0
0
SPLINE
5
111
100
AcDbEntity
8
1
62
256
6
ByLayer
370
18
48
1
60
0
100
AcDbSpline
70
4
71
3
72
8
73
4
40
0
40
0
40
0
40
0
40
1
40
1
40
1
40
1
41
1
10
34.7711444816066
20
-1.52098166231892
30
0
41
1
10
34.718995968132
20
-1.59586725473099
30
0
41
1
10
34.6671628192667
20
-1.66697263437453
30
0
41
1
10
34.6158780205379
20
-1.73384009964388
30
0
0
SPLINE
5
112
100
AcDbEntity
8
1
62
256
6
ByLayer
370
18
48
1
60
0
100
AcDbSpline
70
4
71
3
72
8
73
4
40
0
40
0
40
0
40
0
40
1
40
1
40
1
40
1
41
1
10
34.246290981088
20
-1.35762285057703
30
0
41
1
10
34.2363000306654
20
-1.33735695111036
30
0
41
1
10
34.2262873376522
20
-1.31708538048383
30
0
41
1
10
34.2162500821027
20
-1.2968092886303
30
0
0
SPLINE
5
113
100
AcDbEntity
8
1
62
256
6
ByLayer
370
18
48
1
60
0
100
AcDbSpline
70
4
71
3
72
20
73
16
40
0
40
0
40
0
40
0
40
0.250000000000049
40
0.250000000000049
40
0.375000000000041
40
0.375000000000041
40
0.500000000000033
40
0.500000000000033
40
0.625000000000024
40
0.625000000000024
40
0.750000000000016
40
0.750000000000016
40
0.875000000000008
40
0.875000000000008
40
1
40
1
40
1
40
1
41
1
10
34.2162500821027
20
-1.29680928863027
30
0
41
1
10
34.2092500729095
20
-1.28266868727994
30
0
41
1
10
34.2007038628431
20
-1.26977674508174
30
0
41
1
10
34.1861384006127
20
-1.2518421891528
30
0
41
1
10
34.1810106956993
20
-1.2461482799948
30
0
41
1
10
34.170420972751
20
-1.23546219356879
30
0
41
1
10
34.1649345005962
20
-1.2304401013796
30
0
41
1
10
34.1535923431179
20
-1.22102274870645
30
0
41
1
10
34.1477038566402
20
-1.21660884458839
30
0
41
1
10
34.1358160013426
20
-1.2086140149168
30
0
41
1
10
34.1297961174874
20
-1.20501110482579
30
0
41
1
10
34.1176109665389
20
-1.19861791794281
30
0
41
1
10
34.1114457894106
20
-1.19582675156843
30
0
41
1
10
34.0989656418612
20
-1.19115519884406
30
0
41
1
10
34.0926271052511
20
-1.18927727655398
30
0
41
1
10
34.0864231855815
20
-1.18799187529251
30
0
0
SPLINE
5
114
100
AcDbEntity
8
1
62
256
6
ByLayer
370
18
48
1
60
0
100
AcDbSpline
70
4
71
3
72
8
73
4
40
0
40
0
40
0
40
0
40
1
40
1
40
1
40
1
41
1
10
34.0864231855814
20
-1.18799187529285
30
0
41
1
10
34.0667799569312
20
-1.16702964349759
30
0
41
1
10
34.0470912186879
20
-1.14597357339315
30
0
41
1
10
34.0273316097966
20
-1.12483855079077
30
0
0
SPLINE
5
115
100
AcDbEntity
8
1
62
256
6
ByLayer
370
18
48
1
60
0
100
AcDbSpline
70
4
71
3
72
14
73
10
40
0
40
0
40
0
40
0
40
0.500000000000052
40
0.500000000000052
40
0.750000000000052
40
0.750000000000052
40
0.875000000000026
40
0.875000000000026
40
1
40
1
40
1
40
1
41
1
10
33.7773316097986
20
-1.27565943854987
30
0
41
1
10
33.8199061030587
20
-1.25924616065359
30
0
41
1
10
33.8622581633206
20
-1.24697838703887
30
0
41
1
10
33.9249625563392
20
-1.23496303109945
30
0
41
1
10
33.9457310696795
20
-1.2320360690131
30
0
41
1
10
33.9766542406889
20
-1.22947342610365
30
0
41
1
10
33.9869339008374
20
-1.22892597218197
30
0
41
1
10
34.0072734067858
20
-1.22850899051133
30
0
41
1
10
34.0173494817956
20
-1.22863738032297
30
0
41
1
10
34.0273316097986
20
-1.22914013108192
30
0
0
SPLINE
5
116
100
AcDbEntity
8
1
62
256
6
ByLayer
370
18
48
1
60
0
100
AcDbSpline
70
4
71
3
72
11
73
7
40
0
40
0
40
0
40
0
40
0.249999999999982
40
0.249999999999982
40
0.499999999999964
40
1
40
1
40
1
40
1
41
1
10
34.0273316097986
20
-1.22914013108189
30
0
41
1
10
34.0408965813051
20
-1.22982333207051
30
0
41
1
10
34.0544703107959
20
-1.23043465179938
30
0
41
1
10
34.0815279742125
20
-1.23135892051968
30
0
41
1
10
34.1219716452909
20
-1.2322843131868
30
0
41
1
10
34.1619886020469
20
-1.23180066862184
30
0
41
1
10
34.1884841465073
20
-1.23083468743195
30
0
0
SPLINE
5
117
100
AcDbEntity
8
1
62
256
6
ByLayer
370
18
48
1
60
0
100
AcDbSpline
70
4
71
3
72
10
73
6
40
0
40
0
40
0
40
0
40
0.164622387472083
40
0.164622387472083
40
1
40
1
40
1
40
1
41
1
10
38.9229059587075
20
1.79849612994894
30
0
41
1
10
38.930863200886
20
1.81220674505818
30
0
41
1
10
38.9388072801534
20
1.82588847514109
30
0
41
1
10
38.9869820327075
20
1.90880720756627
30
0
41
1
10
39.0268152797101
20
1.97715254017211
30
0
41
1
10
39.0663013658089
20
2.04440037300202
30
0
0
SPLINE
5
118
100
AcDbEntity
8
1
62
256
6
ByLayer
370
18
48
1
60
0
100
AcDbSpline
70
4
71
3
72
26
73
22
40
0
40
0
40
0
40
0
40
0.124999999999985
40
0.124999999999985
40
0.24999999999997
40
0.24999999999997
40
0.374999999999955
40
0.374999999999955
40
0.49999999999994
40
0.49999999999994
40
0.624999999999925
40
0.624999999999925
40
0.74999999999991
40
0.74999999999991
40
0.812499999999933
40
0.812499999999933
40
0.874999999999955
40
0.874999999999955
40
0.937499999999978
40
0.937499999999978
40
1
40
1
40
1
40
1
41
1
10
39.3799008483385
20
1.63008440752878
30
0
41
1
10
39.3850249792638
20
1.62118773502752
30
0
41
1
10
39.3909886804311
20
1.61338310520958
30
0
41
1
10
39.4041965564606
20
1.59941836023322
30
0
41
1
10
39.4115244228266
20
1.59323279547579
30
0
41
1
10
39.4267931199243
20
1.58278379277465
30
0
41
1
10
39.4347744736757
20
1.578459352453
30
0
41
1
10
39.4513685526646
20
1.57151150107347
30
0
41
1
10
39.4600390287745
20
1.56889291931313
30
0
41
1
10
39.4773708553501
20
1.56562414836608
30
0
41
1
10
39.4860994299
20
1.56493199655881
30
0
41
1
10
39.5036565253941
20
1.56565623441284
30
0
41
1
10
39.5125246834507
20
1.56710557516689
30
0
41
1
10
39.5252503920293
20
1.57112433905937
30
0
41
1
10
39.5294196172964
20
1.57277274980564
30
0
41
1
10
39.5375876149887
20
1.57677887914966
30
0
41
1
10
39.5415979521286
20
1.57915109950667
30
0
41
1
10
39.5491738906749
20
1.58457241952971
30
0
41
1
10
39.5527692571899
20
1.58763189839064
30
0
41
1
10
39.5595141173204
20
1.59455875292073
30
0
41
1
10
39.5626710793493
20
1.59844642159334
30
0
41
1
10
39.5654729571787
20
1.60270382787209
30
0
0
SPLINE
5
119
100
AcDbEntity
8
1
62
256
6
ByLayer
370
18
48
1
60
0
100
AcDbSpline
70
4
71
3
72
10
73
6
40
0
40
0
40
0
40
0
40
0.5
40
0.5
40
1
40
1
40
1
40
1
41
1
10
39.5654729571795
20
1.60270382787391
30
0
41
1
10
39.6064417220071
20
1.66495517758756
30
0
41
1
10
39.6470991196391
20
1.7252440311008
30
0
41
1
10
39.7277291489603
20
1.84147751656522
30
0
41
1
10
39.7676412192052
20
1.89733898055977
30
0
41
1
10
39.8072311057347
20
1.95096351471921
30
0
0
SPLINE
5
11A
100
AcDbEntity
8
1
62
256
6
ByLayer
370
18
48
1
60
0
100
AcDbSpline
70
4
71
3
72
8
73
4
40
0
40
0
40
0
40
0
40
1
40
1
40
1
40
1
41
1
10
39.8696314785762
20
1.93108475679114
30
0
41
1
10
39.8488361062943
20
1.93800290847807
30
0
41
1
10
39.8279973303298
20
1.94464125377036
30
0
41
1
10
39.8072311057347
20
1.95096351471918
30
0
0
SPLINE
5
11B
100
AcDbEntity
8
1
62
256
6
ByLayer
370
18
48
1
60
0
100
AcDbSpline
70
4
71
3
72
10
73
6
40
0
40
0
40
0
40
0
40
0.5
40
0.5
40
1
40
1
40
1
40
1
41
1
10
39.8696314785762
20
1.93108475679145
30
0
41
1
10
39.9106169162293
20
1.85170736017781
30
0
41
1
10
39.9519543784424
20
1.77131984992141
30
0
41
1
10
40.0355615270364
20
1.60874190942621
30
0
41
1
10
40.0776476953399
20
1.52688813390401
30
0
41
1
10
40.1202164027966
20
1.44454276586069
30
0
0
SPLINE
5
11C
100
AcDbEntity
8
1
62
256
6
ByLayer
370
18
48
1
60
0
100
AcDbSpline
70
4
71
3
72
26
73
22
40
0
40
0
40
0
40
0
40
0.125
40
0.125
40
0.25
40
0.25
40
0.375
40
0.375
40
0.5
40
0.5
40
0.625
40
0.625
40
0.75
40
0.75
40
0.8125
40
0.8125
40
0.875
40
0.875
40
0.9375
40
0.9375
40
1
40
1
40
1
40
1
41
1
10
40.1202164027992
20
1.44454276585682
30
0
41
1
10
40.1253467131844
20
1.43461863797012
30
0
41
1
10
40.1313177285349
20
1.42552877113988
30
0
41
1
10
40.1445402658968
20
1.40861034887055
30
0
41
1
10
40.1518758656913
20
1.40073503188566
30
0
41
1
10
40.1671570040498
20
1.38668111920254
30
0
41
1
10
40.1751433418133
20
1.38043266289645
30
0
41
1
10
40.1917446044713
20
1.36939463217189
30
0
41
1
10
40.2004162769448
20
1.36459489273326
30
0
41
1
10
40.2177469474443
20
1.35685240830602
30
0
41
1
10
40.2264737020462
20
1.35385186114476
30
0
41
1
10
40.2440243098509
20
1.34977937614966
30
0
41
1
10
40.252884743009
20
1.34872760230513
30
0
41
1
10
40.2655978979274
20
1.34899207920097
30
0
41
1
10
40.2697628175419
20
1.34938228722851
30
0
41
1
10
40.277921920285
20
1.35085449723422
30
0
41
1
10
40.2819276028202
20
1.35194657170413
30
0
41
1
10
40.2894949375413
20
1.35486437091319
30
0
41
1
10
40.2930862398373
20
1.356691606167
30
0
41
1
10
40.2998236237538
20
1.36119881457393
30
0
41
1
10
40.3029778770662
20
1.36389564949766
30
0
41
1
10
40.3057782249371
20
1.36702492244547
30
0
0
SPLINE
5
11D
100
AcDbEntity
8
1
62
256
6
ByLayer
370
18
48
1
60
0
100
AcDbSpline
70
4
71
3
72
8
73
4
40
0
40
0
40
0
40
0
40
1
40
1
40
1
40
1
41
1
10
40.5636434322568
20
1.59361735046642
30
0
41
1
10
40.5833272963959
20
1.57526822348387
30
0
41
1
10
40.60305268775
20
1.55676390965149
30
0
41
1
10
40.6228209792281
20
1.5381068525966
30
0
0
SPLINE
5
11E
100
AcDbEntity
8
1
62
256
6
ByLayer
370
18
48
1
60
0
100
AcDbSpline
70
4
71
3
72
10
73
6
40
0
40
0
40
0
40
0
40
0.5
40
0.5
40
1
40
1
40
1
40
1
41
1
10
40.6228209792281
20
1.5381068525966
30
0
41
1
10
40.6617268397855
20
1.45906331035087
30
0
41
1
10
40.7009521040488
20
1.3804803283989
30
0
41
1
10
40.7802144815654
20
1.22468816881204
30
0
41
1
10
40.8201285231458
20
1.14771904368351
30
0
41
1
10
40.8604968966732
20
1.07178841143647
30
0
0
SPLINE
5
11F
100
AcDbEntity
8
1
62
256
6
ByLayer
370
18
48
1
60
0
100
AcDbSpline
70
4
71
3
72
26
73
22
40
0
40
0
40
0
40
0
40
0.125
40
0.125
40
0.25
40
0.25
40
0.375
40
0.375
40
0.5
40
0.5
40
0.625
40
0.625
40
0.75
40
0.75
40
0.8125
40
0.8125
40
0.875
40
0.875
40
0.9375
40
0.9375
40
1
40
1
40
1
40
1
41
1
10
40.8604968966757
20
1.07178841143536
30
0
41
1
10
40.8656306561851
20
1.06213209954487
30
0
41
1
10
40.8716057126559
20
1.05293754517552
30
0
41
1
10
40.8848360984932
20
1.03525517127787
30
0
41
1
10
40.8921757159805
20
1.02670502306717
30
0
41
1
10
40.9074631823677
20
1.01085009084767
30
0
41
1
10
40.9154519296281
20
1.00347579488519
30
0
41
1
10
40.9320567875104
20
0.989751012836706
30
0
41
1
10
40.9407292358953
20
0.983376518208928
30
0
41
1
10
40.958060599831
20
0.972131915715835
30
0
41
1
10
40.9667874999599
20
0.967195445872989
30
0
41
1
10
40.9843386798736
20
0.958822348829358
30
0
41
1
10
40.9931981468068
20
0.955391302385351
30
0
41
1
10
41.0059095128743
20
0.951848830190755
30
0
41
1
10
41.0100738171567
20
0.950924562288265
30
0
41
1
10
41.018231566744
20
0.949661638804628
30
0
41
1
10
41.0222363975297
20
0.949327375408757
30
0
41
1
10
41.0298020958183
20
0.949355094600861
30
0
41
1
10
41.0333926062797
20
0.949709515074574
30
0
41
1
10
41.0401285030983
20
0.951206287411452
30
0
41
1
10
41.0432823339612
20
0.952359243177114
30
0
41
1
10
41.0460826900404
20
0.953950625267993
30
0
0
SPLINE
5
120
100
AcDbEntity
8
1
62
256
6
ByLayer
370
18
48
1
60
0
100
AcDbSpline
70
4
71
3
72
8
73
4
40
0
40
0
40
0
40
0
40
1
40
1
40
1
40
1
41
1
10
41.0460826900403
20
0.953950625268959
30
0
41
1
10
41.085137766405
20
0.97614478462836
30
0
41
1
10
41.1239096723408
20
0.994832758376816
30
0
41
1
10
41.1623672112168
20
1.01004509860604
30
0
0
SPLINE
5
121
100
AcDbEntity
8
1
62
256
6
ByLayer
370
18
48
1
60
0
100
AcDbSpline
70
4
71
3
72
18
73
14
40
0
40
0
40
0
40
0
40
0.08550426177297
40
0.08550426177297
40
0.314128196329643
40
0.314128196329643
40
0.428440163608035
40
0.428440163608035
40
0.542752130886428
40
0.542752130886428
40
0.771376065443214
40
0.771376065443214
40
1
40
1
40
1
40
1
41
1
10
39.8157957456048
20
-1.59506653077162
30
0
41
1
10
39.812617577159
20
-1.59454992704747
30
0
41
1
10
39.8094175781668
20
-1.59416115777279
30
0
41
1
10
39.7975833478858
20
-1.59321024075098
30
0
41
1
10
39.7888203005667
20
-1.59343316731935
30
0
41
1
10
39.7754414830581
20
-1.59540498557553
30
0
41
1
10
39.7709286149799
20
-1.59634555330618
30
0
41
1
10
39.7620359626999
20
-1.59880368001953
30
0
41
1
10
39.7576320082137
20
-1.60032262510643
30
0
41
1
10
39.7445709370066
20
-1.60585175356482
30
0
41
1
10
39.7359664922633
20
-1.61090848299935
30
0
41
1
10
39.7203796772002
20
-1.62386475035598
30
0
41
1
10
39.7132229329674
20
-1.63192228598533
30
0
41
1
10
39.7075457513309
20
-1.6413831218072
30
0
0
SPLINE
5
122
100
AcDbEntity
8
1
62
256
6
ByLayer
370
18
48
1
60
0
100
AcDbSpline
70
4
71
3
72
10
73
6
40
0
40
0
40
0
40
0
40
0.5
40
0.5
40
1
40
1
40
1
40
1
41
1
10
39.7075457513284
20
-1.6413831218114
30
0
41
1
10
39.6670893416541
20
-1.70880239327761
30
0
41
1
10
39.6268300393062
20
-1.77522261376694
30
0
41
1
10
39.5468762638498
20
-1.90545588586519
30
0
41
1
10
39.5072352731752
20
-1.96918402203738
30
0
41
1
10
39.4679012214782
20
-2.03138526991793
30
0
0
SPLINE
5
123
100
AcDbEntity
8
1
62
256
6
ByLayer
370
18
48
1
60
0
100
AcDbSpline
70
4
71
3
72
8
73
4
40
0
40
0
40
0
40
0
40
1
40
1
40
1
40
1
41
1
10
39.4053766023772
20
-2.02256854818867
30
0
41
1
10
39.4262150926199
20
-2.02582447243751
30
0
41
1
10
39.4470549896381
20
-2.02876371315176
30
0
41
1
10
39.4679012214782
20
-2.03138526991793
30
0
0
SPLINE
5
124
100
AcDbEntity
8
1
62
256
6
ByLayer
370
18
48
1
60
0
100
AcDbSpline
70
4
71
3
72
10
73
6
40
0
40
0
40
0
40
0
40
0.5
40
0.5
40
1
40
1
40
1
40
1
41
1
10
39.4053766023779
20
-2.02256854818262
30
0
41
1
10
39.3639462694651
20
-1.94808332005914
30
0
41
1
10
39.3222326210864
20
-1.87155335926761
30
0
41
1
10
39.2379262292841
20
-1.71449579900261
30
0
41
1
10
39.1955230862767
20
-1.63431681401974
30
0
41
1
10
39.1526652557815
20
-1.55249300888653
30
0
0
SPLINE
5
125
100
AcDbEntity
8
1
62
256
6
ByLayer
370
18
48
1
60
0
100
AcDbSpline
70
4
71
3
72
26
73
22
40
0
40
0
40
0
40
0
40
0.124999999999933
40
0.124999999999933
40
0.249999999999866
40
0.249999999999866
40
0.374999999999799
40
0.374999999999799
40
0.437499999999794
40
0.437499999999794
40
0.49999999999979
40
0.49999999999979
40
0.624999999999842
40
0.624999999999842
40
0.687499999999869
40
0.687499999999869
40
0.749999999999895
40
0.749999999999895
40
0.874999999999947
40
0.874999999999947
40
1
40
1
40
1
40
1
41
1
10
39.1526652557815
20
-1.55249300888653
30
0
41
1
10
39.1476860028332
20
-1.54298666154594
30
0
41
1
10
39.1419111992064
20
-1.53436240396022
30
0
41
1
10
39.1291114889767
20
-1.51848409774425
30
0
41
1
10
39.1220214825953
20
-1.51119925042318
30
0
41
1
10
39.1071241831437
20
-1.49832181734013
30
0
41
1
10
39.0992838204467
20
-1.49267358433886
30
0
41
1
10
39.0869594247813
20
-1.48536616218067
30
0
41
1
10
39.0827498917818
20
-1.48312591113594
30
0
41
1
10
39.0742869172718
20
-1.47912234362323
30
0
41
1
10
39.0700161177639
20
-1.47734774446593
30
0
41
1
10
39.0570903336392
20
-1.47271724704757
30
0
41
1
10
39.048323621334
20
-1.47054113402766
30
0
41
1
10
39.0349416324991
20
-1.468889723914
30
0
41
1
10
39.0304283141875
20
-1.46861472391834
30
0
41
1
10
39.0215357836711
20
-1.46868714062543
30
0
41
1
10
39.0171323593073
20
-1.46902934060068
30
0
41
1
10
39.0040740377837
20
-1.47107747604869
30
0
41
1
10
38.9954725729603
20
-1.47385275915263
30
0
41
1
10
38.9798914071942
20
-1.4826833173108
30
0
41
1
10
38.9727371743952
20
-1.48885016196479
30
0
41
1
10
38.9670611510876
20
-1.49682333793748
30
0
0
SPLINE
5
126
100
AcDbEntity
8
1
62
256
6
ByLayer
370
18
48
1
60
0
100
AcDbSpline
70
4
71
3
72
10
73
6
40
0
40
0
40
0
40
0
40
0.5
40
0.5
40
1
40
1
40
1
40
1
41
1
10
38.9670611510876
20
-1.49682333793748
30
0
41
1
10
38.9265730234775
20
-1.55369748181434
30
0
41
1
10
38.8862850549843
20
-1.60815991767538
30
0
41
1
10
38.8062763676146
20
-1.71189903511865
30
0
41
1
10
38.7666084927898
20
-1.76112391260458
30
0
41
1
10
38.7272473484827
20
-1.80767126970394
30
0
0
SPLINE
5
127
100
AcDbEntity
8
1
62
256
6
ByLayer
370
18
48
1
60
0
100
AcDbSpline
70
4
71
3
72
8
73
4
40
0
40
0
40
0
40
0
40
1
40
1
40
1
40
1
41
1
10
38.6648973552033
20
-1.777416099372
30
0
41
1
10
38.6856770769811
20
-1.78777897636056
30
0
41
1
10
38.7064588002023
20
-1.79786488359113
30
0
41
1
10
38.7272473484827
20
-1.80767126970394
30
0
0
SPLINE
5
128
100
AcDbEntity
8
1
62
256
6
ByLayer
370
18
48
1
60
0
100
AcDbSpline
70
4
71
3
72
10
73
6
40
0
40
0
40
0
40
0
40
0.5
40
0.5
40
1
40
1
40
1
40
1
41
1
10
38.6648973552051
20
-1.77741609935799
30
0
41
1
10
38.623464163034
20
-1.69165025471375
30
0
41
1
10
38.5817494839789
20
-1.60539310670575
30
0
41
1
10
38.4974376542811
20
-1.43208474673978
30
0
41
1
10
38.4550304603622
20
-1.34542086607482
30
0
41
1
10
38.4121874102235
20
-1.2588333006677
30
0
0
SPLINE
5
129
100
AcDbEntity
8
1
62
256
6
ByLayer
370
18
48
1
60
0
100
AcDbSpline
70
4
71
3
72
26
73
22
40
0
40
0
40
0
40
0
40
0.125000000000068
40
0.125000000000068
40
0.250000000000137
40
0.250000000000137
40
0.375000000000205
40
0.375000000000205
40
0.43750000000024
40
0.43750000000024
40
0.500000000000275
40
0.500000000000275
40
0.625000000000285
40
0.625000000000285
40
0.687500000000258
40
0.687500000000258
40
0.750000000000231
40
0.750000000000231
40
0.875000000000116
40
0.875000000000116
40
1
40
1
40
1
40
1
41
1
10
38.4121874102235
20
-1.2588333006677
30
0
41
1
10
38.4072052548277
20
-1.2487641598214
30
0
41
1
10
38.401426447782
20
-1.23930706392042
30
0
41
1
10
38.3886184898003
20
-1.22135007628273
30
0
41
1
10
38.3815240543298
20
-1.21280459319817
30
0
41
1
10
38.3666204782076
20
-1.19709790775229
30
0
41
1
10
38.3587780972952
20
-1.18987666165671
30
0
41
1
10
38.3464536910618
20
-1.17996785461747
30
0
41
1
10
38.3422452095373
20
-1.17681844960873
30
0
41
1
10
38.3337849650697
20
-1.17094272012486
30
0
41
1
10
38.3295158041302
20
-1.16820153305551
30
0
41
1
10
38.3165955110143
20
-1.16057501203017
30
0
41
1
10
38.3078332027441
20
-1.15627534073229
30
0
41
1
10
38.2944581967347
20
-1.15119976658531
30
0
41
1
10
38.289947931594
20
-1.14973921832831
30
0
41
1
10
38.2810611264863
20
-1.14740380659171
30
0
41
1
10
38.2766602719612
20
-1.14651778857439
30
0
41
1
10
38.2636083571567
20
-1.1447971249215
30
0
41
1
10
38.2550100504464
20
-1.14491446721041
30
0
41
1
10
38.2394300531222
20
-1.14844487616105
30
0
41
1
10
38.2322741934194
20
-1.15190847221075
30
0
41
1
10
38.226596257648
20
-1.1573499831666
30
0
0
SPLINE
5
12A
100
AcDbEntity
8
1
62
256
6
ByLayer
370
18
48
1
60
0
100
AcDbSpline
70
4
71
3
72
10
73
6
40
0
40
0
40
0
40
0
40
0.5
40
0.5
40
1
40
1
40
1
40
1
41
1
10
38.226596257648
20
-1.1573499831666
30
0
41
1
10
38.1861111376936
20
-1.19614933431251
30
0
41
1
10
38.1458239579497
20
-1.23147877167042
30
0
41
1
10
38.0658109178219
20
-1.29508349159892
30
0
41
1
10
38.0261389467948
20
-1.32333321914089
30
0
41
1
10
37.9867764215433
20
-1.34807960519802
30
0
0
SPLINE
5
12B
100
AcDbEntity
8
1
62
256
6
ByLayer
370
18
48
1
60
0
100
AcDbSpline
70
4
71
3
72
8
73
4
40
0
40
0
40
0
40
0
40
1
40
1
40
1
40
1
41
1
10
37.9242519655184
20
-1.30016955701436
30
0
41
1
10
37.9450892712158
20
-1.31634505398156
30
0
41
1
10
37.9659289692301
20
-1.33231647356598
30
0
41
1
10
37.9867764215433
20
-1.34807960519802
30
0
0
SPLINE
5
12C
100
AcDbEntity
8
1
62
256
6
ByLayer
370
18
48
1
60
0
100
AcDbSpline
70
4
71
3
72
10
73
6
40
0
40
0
40
0
40
0
40
0.5
40
0.5
40
1
40
1
40
1
40
1
41
1
10
37.9242519655184
20
-1.30016955701447
30
0
41
1
10
37.8828567904187
20
-1.21424764664329
30
0
41
1
10
37.8411788027537
20
-1.12946192800229
30
0
41
1
10
37.7569195195206
20
-0.962461206186845
30
0
41
1
10
37.7145290182353
20
-0.880603353324403
30
0
41
1
10
37.671695624565
20
-0.800514609957958
30
0
0
SPLINE
5
12D
100
AcDbEntity
8
1
62
256
6
ByLayer
370
18
48
1
60
0
100
AcDbSpline
70
4
71
3
72
26
73
22
40
0
40
0
40
0
40
0
40
0.124999999999949
40
0.124999999999949
40
0.249999999999898
40
0.249999999999898
40
0.374999999999848
40
0.374999999999848
40
0.437499999999851
40
0.437499999999851
40
0.499999999999854
40
0.499999999999854
40
0.624999999999861
40
0.624999999999861
40
0.687499999999863
40
0.687499999999863
40
0.749999999999866
40
0.749999999999866
40
0.874999999999933
40
0.874999999999933
40
1
40
1
40
1
40
1
41
1
10
37.671695624565
20
-0.800514609957929
30
0
41
1
10
37.6667125198678
20
-0.791197332967641
30
0
41
1
10
37.6609327760778
20
-0.782140073929526
30
0
41
1
10
37.6481231741359
20
-0.764442661053948
30
0
41
1
10
37.6410277499877
20
-0.75574826090633
30
0
41
1
10
37.6261223663829
20
-0.739255254027256
30
0
41
1
10
37.618279090076
20
-0.731400001074661
30
0
41
1
10
37.605953374326
20
-0.720179571250497
30
0
41
1
10
37.6017447910515
20
-0.71653119801752
30
0
41
1
10
37.5932845319039
20
-0.709549638692664
30
0
41
1
10
37.5890153913682
20
-0.706199899928123
30
0
41
1
10
37.5760951263297
20
-0.696575367488492
30
0
41
1
10
37.567332753463
20
-0.690717539282275
30
0
41
1
10
37.5539576007973
20
-0.682890413833519
30
0
41
1
10
37.5494480678077
20
-0.680439362130898
30
0
41
1
10
37.5405629617005
20
-0.676011204253427
30
0
41
1
10
37.5361628569977
20
-0.674018345617156
30
0
41
1
10
37.5231128197127
20
-0.668771830105726
30
0
41
1
10
37.5145159549516
20
-0.666230491938165
30
0
41
1
10
37.4989376465028
20
-0.664026460963044
30
0
41
1
10
37.4917821006266
20
-0.664346226510332
30
0
41
1
10
37.4861038511904
20
-0.666552142343818
30
0
0
SPLINE
5
12E
100
AcDbEntity
8
1
62
256
6
ByLayer
370
18
48
1
60
0
100
AcDbSpline
70
4
71
3
72
10
73
6
40
0
40
0
40
0
40
0
40
0.5
40
0.5
40
1
40
1
40
1
40
1
41
1
10
37.4861038511885
20
-0.666552142344585
30
0
41
1
10
37.4456159246371
20
-0.682281102347162
30
0
41
1
10
37.4053261871522
20
-0.693939975457141
30
0
41
1
10
37.3253142212222
20
-0.709186729929996
30
0
41
1
10
37.2856478993511
20
-0.712776407523251
30
0
41
1
10
37.2462919928724
20
-0.712513715347939
30
0
0
SPLINE
5
12F
100
AcDbEntity
8
1
62
256
6
ByLayer
370
18
48
1
60
0
100
AcDbSpline
70
4
71
3
72
8
73
4
40
0
40
0
40
0
40
0
40
1
40
1
40
1
40
1
41
1
10
37.1840249368859
20
-0.653563460063594
30
0
41
1
10
37.2047783565278
20
-0.673315133651755
30
0
41
1
10
37.2255323756059
20
-0.69296682846803
30
0
41
1
10
37.2462919928724
20
-0.712513715347939
30
0
0
SPLINE
5
130
100
AcDbEntity
8
1
62
256
6
ByLayer
370
18
48
1
60
0
100
AcDbSpline
70
4
71
3
72
10
73
6
40
0
40
0
40
0
40
0
40
0.5
40
0.5
40
1
40
1
40
1
40
1
41
1
10
37.1840249368874
20
-0.653563460058251
30
0
41
1
10
37.1425846795129
20
-0.578799056286101
30
0
41
1
10
37.1008563896919
20
-0.506645456428032
30
0
41
1
10
37.0165428746836
20
-0.367853901467555
30
0
41
1
10
36.9741496313206
20
-0.301505933777634
30
0
41
1
10
36.9313435299477
20
-0.238392744679061
30
0
0
SPLINE
5
131
100
AcDbEntity
8
1
62
256
6
ByLayer
370
18
48
1
60
0
100
AcDbSpline
70
4
71
3
72
26
73
22
40
0
40
0
40
0
40
0
40
0.124999999999949
40
0.124999999999949
40
0.249999999999898
40
0.249999999999898
40
0.374999999999847
40
0.374999999999847
40
0.437499999999851
40
0.437499999999851
40
0.499999999999854
40
0.499999999999854
40
0.624999999999921
40
0.624999999999921
40
0.687499999999955
40
0.687499999999955
40
0.749999999999989
40
0.749999999999989
40
0.874999999999994
40
0.874999999999994
40
1
40
1
40
1
40
1
41
1
10
36.9313435299477
20
-0.238392744679061
30
0
41
1
10
36.9263592894687
20
-0.23104399527702
30
0
41
1
10
36.9205783895472
20
-0.223568733853909
30
0
41
1
10
36.9077676129971
20
-0.208440862592312
30
0
41
1
10
36.9006721287415
20
-0.200732543423499
30
0
41
1
10
36.8857669490279
20
-0.185605881839166
30
0
41
1
10
36.877924101566
20
-0.178141771552902
30
0
41
1
10
36.8655998281805
20
-0.167073764751137
30
0
41
1
10
36.8613918793257
20
-0.163402180250159
30
0
41
1
10
36.8529328251984
20
-0.156224844446086
30
0
41
1
10
36.8486642965603
20
-0.152703071773658
30
0
41
1
10
36.8357458905719
20
-0.142334304924333
30
0
41
1
10
36.826984778194
20
-0.135680781663837
30
0
41
1
10
36.813611521708
20
-0.126120002816918
30
0
41
1
10
36.8091020146799
20
-0.122996354428579
30
0
41
1
10
36.8002163796884
20
-0.117049230201218
30
0
41
1
10
36.7958159348055
20
-0.114207631998397
30
0
41
1
10
36.7827648090444
20
-0.106114155904692
30
0
41
1
10
36.7741666520691
20
-0.101241756733799
30
0
41
1
10
36.7585863099265
20
-0.0935839731190526
30
0
41
1
10
36.7514304993894
20
-0.0907147979941954
30
0
41
1
10
36.745752848814
20
-0.0893940849834394
30
0
0
SPLINE
5
132
100
AcDbEntity
8
1
62
256
6
ByLayer
370
18
48
1
60
0
100
AcDbSpline
70
4
71
3
72
10
73
6
40
0
40
0
40
0
40
0
40
0.5
40
0.5
40
1
40
1
40
1
40
1
41
1
10
36.7457528488116
20
-0.0893940849828709
30
0
41
1
10
36.7053117103929
20
-0.0799868245401569
30
0
41
1
10
36.6650641617664
20
-0.0663716941117798
30
0
41
1
10
36.5851228837644
20
-0.0311349091903423
30
0
41
1
10
36.5454834525852
20
-0.0095599369131492
30
0
41
1
10
36.5061458147101
20
0.0156857087669096
30
0
0
SPLINE
5
133
100
AcDbEntity
8
1
62
256
6
ByLayer
370
18
48
1
60
0
100
AcDbSpline
70
4
71
3
72
10
73
6
40
0
40
0
40
0
40
0
40
0.5
40
0.5
40
1
40
1
40
1
40
1
41
1
10
36.4436466252737
20
0.0784252254689193
30
0
41
1
10
36.4022194561862
20
0.132369547421064
30
0
41
1
10
36.3605012353827
20
0.182594510905915
30
0
41
1
10
36.2761765793545
20
0.275255212781104
30
0
41
1
10
36.2337586084232
20
0.317498380877936
30
0
41
1
10
36.1908941013236
20
0.355433534126462
30
0
0
SPLINE
5
134
100
AcDbEntity
8
1
62
256
6
ByLayer
370
18
48
1
60
0
100
AcDbSpline
70
4
71
3
72
26
73
22
40
0
40
0
40
0
40
0
40
0.125000000000018
40
0.125000000000018
40
0.250000000000035
40
0.250000000000035
40
0.375000000000053
40
0.375000000000053
40
0.437500000000091
40
0.437500000000091
40
0.500000000000129
40
0.500000000000129
40
0.625000000000143
40
0.625000000000143
40
0.687500000000119
40
0.687500000000119
40
0.750000000000095
40
0.750000000000095
40
0.875000000000048
40
0.875000000000048
40
1
40
1
40
1
40
1
41
1
10
36.1908941013236
20
0.355433534126462
30
0
41
1
10
36.1859092271067
20
0.359845155305379
30
0
41
1
10
36.180127002046
20
0.364753117764138
30
0
41
1
10
36.167311356053
20
0.375317634857822
30
0
41
1
10
36.1602118681747
20
0.381024535019492
30
0
41
1
10
36.1452968092095
20
0.392791252526138
30
0
41
1
10
36.1374482875985
20
0.398879973519968
30
0
41
1
10
36.1251147835972
20
0.40833608941
30
0
41
1
10
36.1209038918961
20
0.411546567811428
30
0
41
1
10
36.1124395779651
20
0.417972398423018
30
0
41
1
10
36.1081686162166
20
0.421201243030794
30
0
41
1
10
36.0952437720363
20
0.430945165441841
30
0
41
1
10
36.0864795015309
20
0.437515692939968
30
0
41
1
10
36.0731045139105
20
0.447548319090174
30
0
41
1
10
36.0685968095951
20
0.450930713931996
30
0
41
1
10
36.0597168841878
20
0.457608339712067
30
0
41
1
10
36.0553198197962
20
0.46092217479918
30
0
41
1
10
36.0422802221483
20
0.47079087963877
30
0
41
1
10
36.0336926974339
20
0.477348994913683
30
0
41
1
10
36.018133334316
20
0.489448916108529
30
0
41
1
10
36.0109873535016
20
0.495129786615934
30
0
41
1
10
36.0053143746984
20
0.499806126374608
30
0
0
SPLINE
5
135
100
AcDbEntity
8
1
62
256
6
ByLayer
370
18
48
1
60
0
100
AcDbSpline
70
4
71
3
72
10
73
6
40
0
40
0
40
0
40
0
40
0.5
40
0.5
40
1
40
1
40
1
40
1
41
1
10
36.005314374696
20
0.499806126376541
30
0
41
1
10
35.9648493531916
20
0.533162180657826
30
0
41
1
10
35.9245868869337
20
0.570285747367194
30
0
41
1
10
35.844624298239
20
0.651345574060286
30
0
41
1
10
35.8049785557559
20
0.695212039843454
30
0
41
1
10
35.7656394729827
20
0.742119607690199
30
0
0
SPLINE
5
136
100
AcDbEntity
8
1
62
256
6
ByLayer
370
18
48
1
60
0
100
AcDbSpline
70
4
71
3
72
10
73
6
40
0
40
0
40
0
40
0
40
0.5
40
0.5
40
1
40
1
40
1
40
1
41
1
10
35.7030292411191
20
0.800379046752255
30
0
41
1
10
35.6615634488189
20
0.826520398435662
30
0
41
1
10
35.6198137419615
20
0.848298736043233
30
0
41
1
10
35.5355073020003
20
0.882679325625332
30
0
41
1
10
35.4931511638063
20
0.895188432215434
30
0
41
1
10
35.4503910062552
20
0.902910586711812
30
0
0
SPLINE
5
137
100
AcDbEntity
8
1
62
256
6
ByLayer
370
18
48
1
60
0
100
AcDbSpline
70
4
71
3
72
26
73
22
40
0
40
0
40
0
40
0
40
0.125000000000002
40
0.125000000000002
40
0.250000000000003
40
0.250000000000003
40
0.375000000000005
40
0.375000000000005
40
0.437500000000035
40
0.437500000000035
40
0.500000000000065
40
0.500000000000065
40
0.625000000000065
40
0.625000000000065
40
0.687500000000034
40
0.687500000000034
40
0.750000000000002
40
0.750000000000002
40
0.875000000000001
40
0.875000000000001
40
1
40
1
40
1
40
1
41
1
10
35.450391006254
20
0.902910586714199
30
0
41
1
10
35.4454067177253
20
0.903810710761377
30
0
41
1
10
35.4396252844967
20
0.905513612090999
30
0
41
1
10
35.4268125233489
20
0.910143975962853
30
0
41
1
10
35.4197156247789
20
0.913109404811138
30
0
41
1
10
35.4048063999184
20
0.91999333454919
30
0
41
1
10
35.3969610245371
20
0.923920406991442
30
0
41
1
10
35.3846331436792
20
0.93054564945578
30
0
41
1
10
35.3804240159724
20
0.932881845011366
30
0
41
1
10
35.3719629926003
20
0.937730325496034
30
0
41
1
10
35.3676936513534
20
0.940251695106099
30
0
41
1
10
35.3547734916059
20
0.948120579485163
30
0
41
1
10
35.346012139066
20
0.953766157261072
30
0
41
1
10
35.3326403220265
20
0.96298476989989
30
0
41
1
10
35.3281319251758
20
0.966194737010142
30
0
41
1
10
35.3192489696959
20
0.972752617055562
30
0
41
1
10
35.3148500244245
20
0.976116546899306
30
0
41
1
10
35.3018034454346
20
0.986502553829638
30
0
41
1
10
35.2932082321634
20
0.993910707911226
30
0
41
1
10
35.2776312564005
20
1.00890865050735
30
0
41
1
10
35.2704759143853
20
1.01667366478114
30
0
41
1
10
35.2647972491766
20
1.02410126760307
30
0
0
SPLINE
5
138
100
AcDbEntity
8
1
62
256
6
ByLayer
370
18
48
1
60
0
100
AcDbSpline
70
4
71
3
72
10
73
6
40
0
40
0
40
0
40
0
40
0.5
40
0.5
40
1
40
1
40
1
40
1
41
1
10
35.2647972491772
20
1.02410126760267
30
0
41
1
10
35.2243431316397
20
1.07701460313803
30
0
41
1
10
35.1840862080553
20
1.13271604990004
30
0
41
1
10
35.1041278810086
20
1.24892103016305
30
0
41
1
10
35.0644806574815
20
1.30932918441746
30
0
41
1
10
35.0251397090918
20
1.3717498845902
30
0
0
SPLINE
5
139
100
AcDbEntity
8
1
62
256
6
ByLayer
370
18
48
1
60
0
100
AcDbSpline
70
4
71
3
72
8
73
4
40
0
40
0
40
0
40
0
40
1
40
1
40
1
40
1
41
1
10
34.9622831870148
20
1.41797470653407
30
0
41
1
10
34.9832421969422
20
1.40278404152551
30
0
41
1
10
35.004192498957
20
1.38737428083573
30
0
41
1
10
35.0251397090918
20
1.3717498845902
30
0
0
SPLINE
5
13A
100
AcDbEntity
8
1
62
256
6
ByLayer
370
18
48
1
60
0
100
AcDbSpline
70
4
71
3
72
10
73
6
40
0
40
0
40
0
40
0
40
0.5
40
0.5
40
1
40
1
40
1
40
1
41
1
10
34.9622831870149
20
1.41797470653395
30
0
41
1
10
34.9208893753193
20
1.41270822344941
30
0
41
1
10
34.8792143876189
20
1.40295825428262
30
0
41
1
10
34.7949929534099
20
1.37431182942777
30
0
41
1
10
34.7526399240641
20
1.35550098418295
30
0
41
1
10
34.7098555495167
20
1.33210287544083
30
0
0
SPLINE
5
13B
100
AcDbEntity
8
1
62
256
6
ByLayer
370
18
48
1
60
0
100
AcDbSpline
70
4
71
3
72
26
73
22
40
0
40
0
40
0
40
0
40
0.124999999999964
40
0.124999999999964
40
0.249999999999928
40
0.249999999999928
40
0.374999999999892
40
0.374999999999892
40
0.437499999999903
40
0.437499999999903
40
0.499999999999913
40
0.499999999999913
40
0.624999999999934
40
0.624999999999934
40
0.687499999999945
40
0.687499999999945
40
0.749999999999956
40
0.749999999999956
40
0.874999999999978
40
0.874999999999978
40
1
40
1
40
1
40
1
41
1
10
34.7098555495167
20
1.33210287544083
30
0
41
1
10
34.7048734627213
20
1.32937824969054
30
0
41
1
10
34.6990945095696
20
1.32765795465119
30
0
41
1
10
34.6862864860522
20
1.32575809102551
30
0
41
1
10
34.6791916685223
20
1.32559946043023
30
0
41
1
10
34.6642861661545
20
1.32671074635692
30
0
41
1
10
34.6564424525151
20
1.32796743627753
30
0
41
1
10
34.6441165603125
20
1.3309017179825
30
0
41
1
10
34.6399082213109
20
1.33205983607982
30
0
41
1
10
34.6314489124041
20
1.33469951459159
30
0
41
1
10
34.6271804312872
20
1.33618466180926
30
0
41
1
10
34.6142628359855
20
1.34115145356276
30
0
41
1
10
34.6055031724498
20
1.34513384169134
30
0
41
1
10
34.5921337519155
20
1.35233111262207
30
0
41
1
10
34.5876272664824
20
1.35494618249206
30
0
41
1
10
34.5787487720122
20
1.3605192757104
30
0
41
1
10
34.5743520416364
20
1.36348920354285
30
0
41
1
10
34.5613120012961
20
1.37302042447541
30
0
41
1
10
34.5527219777226
20
1.38029744659153
30
0
41
1
10
34.537155335716
20
1.39620280212191
30
0
41
1
10
34.5300048418189
20
1.40501984103889
30
0
41
1
10
34.5243286783527
20
1.41421350099793
30
0
0
SPLINE
5
13C
100
AcDbEntity
8
1
62
256
6
ByLayer
370
18
48
1
60
0
100
AcDbSpline
70
4
71
3
72
8
73
4
40
0
40
0
40
0
40
0
40
1
40
1
40
1
40
1
41
1
10
34.5243286783527
20
1.41421350099793
30
0
41
1
10
34.4935022066909
20
1.4641430176311
30
0
41
1
10
34.4627884519054
20
1.51493277140497
30
0
41
1
10
34.4322407754233
20
1.56639593689613
30
0
0
SPLINE
5
13D
100
AcDbEntity
8
1
62
256
6
ByLayer
370
18
48
1
60
0
100
AcDbSpline
70
4
71
3
72
8
73
4
40
0
40
0
40
0
40
0
40
1
40
1
40
1
40
1
41
1
10
25.2874737049267
20
-1.16313121097508
30
0
41
1
10
25.2862803370685
20
-1.19040393757817
30
0
41
1
10
25.286203504877
20
-1.21830862410567
30
0
41
1
10
25.2871748565659
20
-1.2468065834025
30
0
0
SPLINE
5
13E
100
AcDbEntity
8
1
62
256
6
ByLayer
370
18
48
1
60
0
100
AcDbSpline
70
4
71
3
72
8
73
4
40
0
40
0
40
0
40
0
40
1
40
1
40
1
40
1
41
1
10
34.5510310167575
20
-0.668440811384045
30
0
41
1
10
34.5971207908874
20
-0.693995167715855
30
0
41
1
10
34.6437030981401
20
-0.714192832591266
30
0
41
1
10
34.6907901621119
20
-0.728809201474263
30
0
0
SPLINE
5
13F
100
AcDbEntity
8
1
62
256
6
ByLayer
370
18
48
1
60
0
100
AcDbSpline
70
4
71
3
72
26
73
22
40
0
40
0
40
0
40
0
40
0.125
40
0.125
40
0.25
40
0.25
40
0.375
40
0.375
40
0.5
40
0.5
40
0.625
40
0.625
40
0.75
40
0.75
40
0.8125
40
0.8125
40
0.875
40
0.875
40
0.9375
40
0.9375
40
1
40
1
40
1
40
1
41
1
10
34.6907901621119
20
-0.728809201474263
30
0
41
1
10
34.6958969191381
20
-0.730394397878428
30
0
41
1
10
34.7018374423935
20
-0.732812674460433
30
0
41
1
10
34.7149958310004
20
-0.738890662149089
30
0
41
1
10
34.7222958396867
20
-0.742603067976006
30
0
41
1
10
34.7375171833625
20
-0.750891729033384
30
0
41
1
10
34.745478503994
20
-0.755482802722156
30
0
41
1
10
34.7620419080471
20
-0.76554183599356
30
0
41
1
10
34.7707049230734
20
-0.771054283977946
30
0
41
1
10
34.7880347741742
20
-0.782639900788354
30
0
41
1
10
34.7967669831376
20
-0.78874844751391
30
0
41
1
10
34.8143414009783
20
-0.801724569408833
30
0
41
1
10
34.8232334316558
20
-0.808639686027277
30
0
41
1
10
34.8359977387708
20
-0.81925194745267
30
0
41
1
10
34.8401800459378
20
-0.822846326928442
30
0
41
1
10
34.8483745630461
20
-0.830170335961554
30
0
41
1
10
34.8523990247167
20
-0.833914215970225
30
0
41
1
10
34.8600004514392
20
-0.841330688017706
30
0
41
1
10
34.8636074160206
20
-0.845028563619479
30
0
41
1
10
34.8703724749323
20
-0.8524000478522
30
0
41
1
10
34.873536144002
20
-0.856084491678729
30
0
41
1
10
34.8763409071271
20
-0.859643813367711
30
0
0
SPLINE
5
140
100
AcDbEntity
8
1
62
256
6
ByLayer
370
18
48
1
60
0
100
AcDbSpline
70
4
71
3
72
10
73
6
40
0
40
0
40
0
40
0
40
0.5
40
0.5
40
1
40
1
40
1
40
1
41
1
10
34.8763409071281
20
-0.8596438133672
30
0
41
1
10
34.9171519572608
20
-0.91143416050636
30
0
41
1
10
34.9576681879353
20
-0.966162571613609
30
0
41
1
10
35.0380537759867
20
-1.08065133750563
30
0
41
1
10
35.0778681647579
20
-1.14030613749952
30
0
41
1
10
35.1173655824308
20
-1.20209515946453
30
0
0
SPLINE
5
141
100
AcDbEntity
8
1
62
256
6
ByLayer
370
18
48
1
60
0
100
AcDbSpline
70
4
71
3
72
10
73
6
40
0
40
0
40
0
40
0
40
0.5
40
0.5
40
1
40
1
40
1
40
1
41
1
10
35.1799040011507
20
-1.25225628768942
30
0
41
1
10
35.2210025409479
20
-1.25308028408213
30
0
41
1
10
35.2624385201965
20
-1.24951994801319
30
0
41
1
10
35.346254333359
20
-1.23350272317188
30
0
41
1
10
35.3884460735898
20
-1.22109249667477
30
0
41
1
10
35.4311162239742
20
-1.20420060804929
30
0
0
SPLINE
5
142
100
AcDbEntity
8
1
62
256
6
ByLayer
370
18
48
1
60
0
100
AcDbSpline
70
4
71
3
72
26
73
22
40
0
40
0
40
0
40
0
40
0.125
40
0.125
40
0.250000000000001
40
0.250000000000001
40
0.375000000000001
40
0.375000000000001
40
0.500000000000002
40
0.500000000000002
40
0.625000000000002
40
0.625000000000002
40
0.750000000000002
40
0.750000000000002
40
0.812500000000002
40
0.812500000000002
40
0.875000000000001
40
0.875000000000001
40
0.937500000000001
40
0.937500000000001
40
1
40
1
40
1
40
1
41
1
10
35.4311162239742
20
-1.20420060804929
30
0
41
1
10
35.4362280094271
20
-1.20217699881053
30
0
41
1
10
35.4421740238838
20
-1.20124231336592
30
0
41
1
10
35.4553415414327
20
-1.20100231710452
30
0
41
1
10
35.4626448974986
20
-1.20173080395145
30
0
41
1
10
35.4778689999727
20
-1.20460948911679
30
0
41
1
10
35.4858302592113
20
-1.20674941165851
30
0
41
1
10
35.5023901730753
20
-1.21238054670383
30
0
41
1
10
35.5110500354286
20
-1.2159094399758
30
0
41
1
10
35.5283746928716
20
-1.22416143347337
30
0
41
1
10
35.5371042919283
20
-1.2288975713129
30
0
41
1
10
35.5546754185355
20
-1.23977900991926
30
0
41
1
10
35.5635695791571
20
-1.24597757782891
30
0
41
1
10
35.5763409266246
20
-1.25616796675396
30
0
41
1
10
35.5805259182083
20
-1.25972769315354
30
0
41
1
10
35.5887261545285
20
-1.26722566104951
30
0
41
1
10
35.592754507853
20
-1.27118197963685
30
0
41
1
10
35.6003638950973
20
-1.2792931796418
30
0
41
1
10
35.603974703907
20
-1.28347234022772
30
0
41
1
10
35.610746891398
20
-1.29211715887561
30
0
41
1
10
35.6139143639903
20
-1.29659934231958
30
0
41
1
10
35.616722506469
20
-1.30111872114034
30
0
0
SPLINE
5
143
100
AcDbEntity
8
1
62
256
6
ByLayer
370
18
48
1
60
0
100
AcDbSpline
70
4
71
3
72
10
73
6
40
0
40
0
40
0
40
0
40
0.5
40
0.5
40
1
40
1
40
1
40
1
41
1
10
35.6167225064699
20
-1.3011187211408
30
0
41
1
10
35.6575698585812
20
-1.36685778510417
30
0
41
1
10
35.698126002699
20
-1.43425093037592
30
0
41
1
10
35.7785874619114
20
-1.57157023253819
30
0
41
1
10
35.8184334375563
20
-1.64139149038866
30
0
41
1
10
35.8579491611955
20
-1.71213926687668
30
0
0
SPLINE
5
144
100
AcDbEntity
8
1
62
256
6
ByLayer
370
18
48
1
60
0
100
AcDbSpline
70
4
71
3
72
10
73
6
40
0
40
0
40
0
40
0
40
0.5
40
0.5
40
1
40
1
40
1
40
1
41
1
10
35.9203551674175
20
-1.74560269356382
30
0
41
1
10
35.9614738623055
20
-1.71647427187915
30
0
41
1
10
36.0029076545737
20
-1.6834492387809
30
0
41
1
10
36.0866907223211
20
-1.60943878335363
30
0
41
1
10
36.1288588505324
20
-1.56858717406129
30
0
41
1
10
36.1715168073679
20
-1.52374109912881
30
0
0
SPLINE
5
145
100
AcDbEntity
8
1
62
256
6
ByLayer
370
18
48
1
60
0
100
AcDbSpline
70
4
71
3
72
26
73
22
40
0
40
0
40
0
40
0
40
0.125000000000015
40
0.125000000000015
40
0.25000000000003
40
0.25000000000003
40
0.375000000000045
40
0.375000000000045
40
0.50000000000006
40
0.50000000000006
40
0.625000000000075
40
0.625000000000075
40
0.75000000000009
40
0.75000000000009
40
0.812500000000068
40
0.812500000000068
40
0.875000000000045
40
0.875000000000045
40
0.937500000000023
40
0.937500000000023
40
1
40
1
40
1
40
1
41
1
10
36.1715168073679
20
-1.52374109912881
30
0
41
1
10
36.1766286004639
20
-1.51836709921966
30
0
41
1
10
36.1825750638734
20
-1.51419292850142
30
0
41
1
10
36.1957446397653
20
-1.50764425036672
30
0
41
1
10
36.2030500871159
20
-1.50528007484758
30
0
41
1
10
36.2182799340759
20
-1.50234368380274
30
0
41
1
10
36.2262444657067
20
-1.50173711821841
30
0
41
1
10
36.2428120616122
20
-1.50217230051138
30
0
41
1
10
36.2514760816587
20
-1.50323996773275
30
0
41
1
10
36.2688067790025
20
-1.50704917219792
30
0
41
1
10
36.2775386470709
20
-1.50978002094854
30
0
41
1
10
36.2951105048197
20
-1.51712174959493
30
0
41
1
10
36.3040008356943
20
-1.52178189165255
30
0
41
1
10
36.3167620691544
20
-1.53020071983366
30
0
41
1
10
36.320943160958
20
-1.53325475491772
30
0
41
1
10
36.3291347127178
20
-1.53993455154583
30
0
41
1
10
36.3331581562828
20
-1.54357896180022
30
0
41
1
10
36.3407577070832
20
-1.55130872849128
30
0
41
1
10
36.3443635404187
20
-1.5554144076838
30
0
41
1
10
36.3511261155629
20
-1.56418336835622
30
0
41
1
10
36.3542894130697
20
-1.56886667536924
30
0
41
1
10
36.3570944206041
20
-1.57374391658391
30
0
0
SPLINE
5
146
100
AcDbEntity
8
1
62
256
6
ByLayer
370
18
48
1
60
0
100
AcDbSpline
70
4
71
3
72
10
73
6
40
0
40
0
40
0
40
0
40
0.5
40
0.5
40
1
40
1
40
1
40
1
41
1
10
36.3570944206049
20
-1.5737439165851
30
0
41
1
10
36.3979224256003
20
-1.64473411045947
30
0
41
1
10
36.4384604163498
20
-1.71593152117487
30
0
41
1
10
36.5188887864797
20
-1.85803793374441
30
0
41
1
10
36.5587191429922
20
-1.92883905327864
30
0
41
1
10
36.5982155458461
20
-1.99918765856177
30
0
0
SPLINE
5
147
100
AcDbEntity
8
1
62
256
6
ByLayer
370
18
48
1
60
0
100
AcDbSpline
70
4
71
3
72
10
73
6
40
0
40
0
40
0
40
0
40
0.5
40
0.5
40
1
40
1
40
1
40
1
41
1
10
36.6607913705383
20
-2.01182201756015
30
0
41
1
10
36.7018629215941
20
-1.95652175932909
30
0
41
1
10
36.7432603215954
20
-1.89821653929468
30
0
41
1
10
36.8270746427824
20
-1.77543218491414
30
0
41
1
10
36.869304687291
20
-1.71122566104711
30
0
41
1
10
36.9120279118984
20
-1.64422804335257
30
0
0
SPLINE
5
148
100
AcDbEntity
8
1
62
256
6
ByLayer
370
18
48
1
60
0
100
AcDbSpline
70
4
71
3
72
26
73
22
40
0
40
0
40
0
40
0
40
0.125
40
0.125
40
0.25
40
0.25
40
0.374999999999999
40
0.374999999999999
40
0.499999999999999
40
0.499999999999999
40
0.624999999999999
40
0.624999999999999
40
0.749999999999999
40
0.749999999999999
40
0.812499999999999
40
0.812499999999999
40
0.874999999999999
40
0.874999999999999
40
0.9375
40
0.9375
40
1
40
1
40
1
40
1
41
1
10
36.9120279118984
20
-1.64422804335257
30
0
41
1
10
36.9171392932558
20
-1.63621248794593
30
0
41
1
10
36.9230866843133
20
-1.62935124172495
30
0
41
1
10
36.9362604180124
20
-1.61736794249012
30
0
41
1
10
36.943570068185
20
-1.61223088861425
30
0
41
1
10
36.9588087558185
20
-1.60389131779385
30
0
41
1
10
36.9667773290157
20
-1.60063511293802
30
0
41
1
10
36.9833516701422
20
-1.59585867218209
30
0
41
1
10
36.9920170704811
20
-1.59434978237837
30
0
41
1
10
37.0093449476432
20
-1.59326841013208
30
0
41
1
10
37.0180738172464
20
-1.59366280392518
30
0
41
1
10
37.0356359153234
20
-1.5965553912381
30
0
41
1
10
37.0445130752046
20
-1.59909244262246
30
0
41
1
10
37.0572509177549
20
-1.60466831641276
30
0
41
1
10
37.0614239646697
20
-1.60682608675978
30
0
41
1
10
37.0695990991199
20
-1.61182939985008
30
0
41
1
10
37.0736127730977
20
-1.61469091571436
30
0
41
1
10
37.0811934364248
20
-1.62103534615727
30
0
41
1
10
37.0847903924867
20
-1.62453238123243
30
0
41
1
10
37.0915368968922
20
-1.63227842695463
30
0
41
1
10
37.0946929920488
20
-1.63654764091677
30
0
41
1
10
37.0974926547845
20
-1.64113992429836
30
0
0
SPLINE
5
149
100
AcDbEntity
8
1
62
256
6
ByLayer
370
18
48
1
60
0
100
AcDbSpline
70
4
71
3
72
10
73
6
40
0
40
0
40
0
40
0
40
0.5
40
0.5
40
1
40
1
40
1
40
1
41
1
10
37.0974926547854
20
-1.6411399243002
30
0
41
1
10
37.1383994569971
20
-1.70823930223827
30
0
41
1
10
37.1790013683962
20
-1.77404219450423
30
0
41
1
10
37.2595265162452
20
-1.9025165177525
30
0
41
1
10
37.2993873777355
20
-1.96508753341277
30
0
41
1
10
37.3389102469402
20
-2.02588258832162
30
0
0
SPLINE
5
14A
100
AcDbEntity
8
1
62
256
6
ByLayer
370
18
48
1
60
0
100
AcDbSpline
70
4
71
3
72
8
73
4
40
0
40
0
40
0
40
0
40
1
40
1
40
1
40
1
41
1
10
37.4017702340217
20
-2.01574126242545
30
0
41
1
10
37.3807959291811
20
-2.01944556288265
30
0
41
1
10
37.3598474250985
20
-2.02282636283104
30
0
41
1
10
37.33891024694
20
-2.02588258832193
30
0
0
SPLINE
5
14B
100
AcDbEntity
8
1
62
256
6
ByLayer
370
18
48
1
60
0
100
AcDbSpline
70
4
71
3
72
10
73
6
40
0
40
0
40
0
40
0
40
0.5
40
0.5
40
1
40
1
40
1
40
1
41
1
10
37.4017702340218
20
-2.01574126242576
30
0
41
1
10
37.4427390542009
20
-1.94161262336911
30
0
41
1
10
37.4840361343011
20
-1.86572775730826
30
0
41
1
10
37.5676287550727
20
-1.7106312474487
30
0
41
1
10
37.6097341121786
20
-1.63177102136885
30
0
41
1
10
37.6523346432965
20
-1.55168250868394
30
0
0
SPLINE
5
14C
100
AcDbEntity
8
1
62
256
6
ByLayer
370
18
48
1
60
0
100
AcDbSpline
70
4
71
3
72
26
73
22
40
0
40
0
40
0
40
0
40
0.125
40
0.125
40
0.25
40
0.25
40
0.375000000000001
40
0.375000000000001
40
0.500000000000001
40
0.500000000000001
40
0.625000000000001
40
0.625000000000001
40
0.750000000000001
40
0.750000000000001
40
0.812500000000001
40
0.812500000000001
40
0.875
40
0.875
40
0.9375
40
0.9375
40
1
40
1
40
1
40
1
41
1
10
37.6523346432965
20
-1.55168250868394
30
0
41
1
10
37.6574494962779
20
-1.54206664341027
30
0
41
1
10
37.663401082279
20
-1.5334066712804
30
0
41
1
10
37.6765834519019
20
-1.51753359638175
30
0
41
1
10
37.6838972045745
20
-1.51028263587844
30
0
41
1
10
37.6991420441383
20
-1.4975990781432
30
0
41
1
10
37.7071132879577
20
-1.49210004254775
30
0
41
1
10
37.7236910391407
20
-1.48269115668069
30
0
41
1
10
37.7323569055388
20
-1.47877638041976
30
0
41
1
10
37.7496858713754
20
-1.47288704283599
30
0
41
1
10
37.7584152935843
20
-1.47086095818713
30
0
41
1
10
37.77597982994
20
-1.46885650915058
30
0
41
1
10
37.7848596442628
20
-1.46890403998387
30
0
41
1
10
37.7976053425038
20
-1.47086259972008
30
0
41
1
10
37.8017815301436
20
-1.4718275976461
30
0
41
1
10
37.8099640208187
20
-1.47447400225269
30
0
41
1
10
37.8139822007299
20
-1.47616787541992
30
0
41
1
10
37.8215727866111
20
-1.48028178903081
30
0
41
1
10
37.8251750858769
20
-1.48270734078551
30
0
41
1
10
37.8319325851021
20
-1.48841253857867
30
0
41
1
10
37.8350943144837
20
-1.49171002827316
30
0
41
1
10
37.8378990257757
20
-1.49542055614651
30
0
0
SPLINE
5
14D
100
AcDbEntity
8
1
62
256
6
ByLayer
370
18
48
1
60
0
100
AcDbSpline
70
4
71
3
72
10
73
6
40
0
40
0
40
0
40
0
40
0.5
40
0.5
40
1
40
1
40
1
40
1
41
1
10
37.8378990257766
20
-1.49542055614881
30
0
41
1
10
37.8789108766579
20
-1.54967769708031
30
0
41
1
10
37.9196128205723
20
-1.6012809106447
30
0
41
1
10
38.0003368550491
20
-1.69897051601581
30
0
41
1
10
38.0403004227962
20
-1.74500038587982
30
0
41
1
10
38.0799298042391
20
-1.78821739953065
30
0
0
SPLINE
5
14E
100
AcDbEntity
8
1
62
256
6
ByLayer
370
18
48
1
60
0
100
AcDbSpline
70
4
71
3
72
8
73
4
40
0
40
0
40
0
40
0
40
1
40
1
40
1
40
1
41
1
10
38.1422882250945
20
-1.75694885600285
30
0
41
1
10
38.121482033018
20
-1.76765277983927
30
0
41
1
10
38.1006967748483
20
-1.77807574494753
30
0
41
1
10
38.0799298042391
20
-1.78821739953068
30
0
0
SPLINE
5
14F
100
AcDbEntity
8
1
62
256
6
ByLayer
370
18
48
1
60
0
100
AcDbSpline
70
4
71
3
72
10
73
6
40
0
40
0
40
0
40
0
40
0.5
40
0.5
40
1
40
1
40
1
40
1
41
1
10
38.1422882250945
20
-1.75694885600314
30
0
41
1
10
38.1832906565351
20
-1.67384292024622
30
0
41
1
10
38.2245922418677
20
-1.59055034121082
30
0
41
1
10
38.3081148519544
20
-1.42383785414737
30
0
41
1
10
38.3501548589939
20
-1.34077856954607
30
0
41
1
10
38.3926680932759
20
-1.25811693482956
30
0
0
SPLINE
5
150
100
AcDbEntity
8
1
62
256
6
ByLayer
370
18
48
1
60
0
100
AcDbSpline
70
4
71
3
72
26
73
22
40
0
40
0
40
0
40
0
40
0.125000000000031
40
0.125000000000031
40
0.250000000000062
40
0.250000000000062
40
0.375000000000093
40
0.375000000000093
40
0.437500000000108
40
0.437500000000108
40
0.500000000000123
40
0.500000000000123
40
0.625000000000093
40
0.625000000000093
40
0.687500000000077
40
0.687500000000077
40
0.750000000000062
40
0.750000000000062
40
0.875000000000031
40
0.875000000000031
40
1
40
1
40
1
40
1
41
1
10
41.1272315629014
20
-0.178228568437248
30
0
41
1
10
41.1222523718963
20
-0.171124350903995
30
0
41
1
10
41.1164772315917
20
-0.16385824518531
30
0
41
1
10
41.1036801469855
20
-0.149089586414902
30
0
41
1
10
41.0965932180136
20
-0.141531206834969
30
0
41
1
10
41.0817050279294
20
-0.126641999510525
30
0
41
1
10
41.0738701201198
20
-0.119267801482835
30
0
41
1
10
41.0615544490823
20
-0.108294149757
30
0
41
1
10
41.0573482334963
20
-0.104646464700892
30
0
41
1
10
41.0488918490211
20
-0.0975017908148459
30
0
41
1
10
41.0446243460113
20
-0.0939889970298964
30
0
41
1
10
41.031708419136
20
-0.083624162982403
30
0
41
1
10
41.0229483842632
20
-0.0769427824548075
30
0
41
1
10
41.0095746433094
20
-0.0672869084268086
30
0
41
1
10
41.0050631614599
20
-0.0641213653407817
30
0
41
1
10
40.9961725552339
20
-0.0580730620610268
30
0
41
1
10
40.9917694528875
20
-0.0551723249740803
30
0
41
1
10
40.978709900589
20
-0.0468726455020203
30
0
41
1
10
40.9701051507147
20
-0.0418212265183797
30
0
41
1
10
40.954518710908
20
-0.033711297388237
30
0
41
1
10
40.9473627417831
20
-0.0305633791629418
30
0
41
1
10
40.94168676961
20
-0.0289235997636297
30
0
0
SPLINE
5
151
100
AcDbEntity
8
1
62
256
6
ByLayer
370
18
48
1
60
0
100
AcDbSpline
70
4
71
3
72
10
73
6
40
0
40
0
40
0
40
0
40
0.5
40
0.5
40
1
40
1
40
1
40
1
41
1
10
40.9416867696076
20
-0.028923599762976
30
0
41
1
10
40.9012837347385
20
-0.0172512267819229
30
0
41
1
10
40.8610722968402
20
-0.0014233040672593
30
0
41
1
10
40.7812062083815
20
0.038192041009097
30
0
41
1
10
40.7416041944526
20
0.0619126779642158
30
0
41
1
10
40.7023050683166
20
0.0892673185656747
30
0
0
SPLINE
5
152
100
AcDbEntity
8
1
62
256
6
ByLayer
370
18
48
1
60
0
100
AcDbSpline
70
4
71
3
72
8
73
4
40
0
40
0
40
0
40
0
40
1
40
1
40
1
40
1
41
1
10
40.6391978468912
20
0.152533807088105
30
0
41
1
10
40.6602408056817
20
0.131459054313922
30
0
41
1
10
40.6812750403341
20
0.110368720733987
30
0
41
1
10
40.7023050683166
20
0.0892673185657031
30
0
0
SPLINE
5
153
100
AcDbEntity
8
1
62
256
6
ByLayer
370
18
48
1
60
0
100
AcDbSpline
70
4
71
3
72
10
73
6
40
0
40
0
40
0
40
0
40
0.5
40
0.5
40
1
40
1
40
1
40
1
41
1
10
40.6391978468912
20
0.152533807088105
30
0
41
1
10
40.5977572252856
20
0.204147438945966
30
0
41
1
10
40.5560433401356
20
0.25193702434234
30
0
41
1
10
40.4718249780563
20
0.33951042519999
30
0
41
1
10
40.4295087168276
20
0.379123003249617
30
0
41
1
10
40.3867532078712
20
0.414338709217418
30
0
0
SPLINE
5
154
100
AcDbEntity
8
1
62
256
6
ByLayer
370
18
48
1
60
0
100
AcDbSpline
70
4
71
3
72
26
73
22
40
0
40
0
40
0
40
0
40
0.125000000000082
40
0.125000000000082
40
0.250000000000164
40
0.250000000000164
40
0.375000000000246
40
0.375000000000246
40
0.437500000000258
40
0.437500000000258
40
0.50000000000027
40
0.50000000000027
40
0.625000000000233
40
0.625000000000233
40
0.687500000000215
40
0.687500000000215
40
0.750000000000196
40
0.750000000000196
40
0.875000000000098
40
0.875000000000098
40
1
40
1
40
1
40
1
41
1
10
40.3867532078712
20
0.414338709217418
30
0
41
1
10
40.3817789267167
20
0.418435791133021
30
0
41
1
10
40.3760101297553
20
0.423058352042432
30
0
41
1
10
40.3632247735734
20
0.433101329752816
30
0
41
1
10
40.3561436036199
20
0.438571323911219
30
0
41
1
10
40.3412638434342
20
0.449925191251253
30
0
41
1
10
40.3334320930519
20
0.455835768563276
30
0
41
1
10
40.321118774883
20
0.465063718387057
30
0
41
1
10
40.3169120759823
20
0.468206123927445
30
0
41
1
10
40.3084538560702
20
0.474512336055028
30
0
41
1
10
40.304185139367
20
0.477689065389797
30
0
41
1
10
40.2912647073
20
0.487300490668332
30
0
41
1
10
40.2825004365327
20
0.493814122888693
30
0
41
1
10
40.2691193566811
20
0.503816964720272
30
0
41
1
10
40.2646038621315
20
0.507202407535857
30
0
41
1
10
40.2557047568491
20
0.513907968776493
30
0
41
1
10
40.2512976403904
20
0.517245503025435
30
0
41
1
10
40.2382270651676
20
0.527218847943431
30
0
41
1
10
40.2296147112298
20
0.533896450941484
30
0
41
1
10
40.2140133073407
20
0.546347974603236
30
0
41
1
10
40.2068500016339
20
0.552264012933904
30
0
41
1
10
40.2011689677784
20
0.557227046313926
30
0
0
SPLINE
5
155
100
AcDbEntity
8
1
62
256
6
ByLayer
370
18
48
1
60
0
100
AcDbSpline
70
4
71
3
72
10
73
6
40
0
40
0
40
0
40
0
40
0.5
40
0.5
40
1
40
1
40
1
40
1
41
1
10
40.201168967776
20
0.557227046316115
30
0
41
1
10
40.1607004802765
20
0.592580902570546
30
0
41
1
10
40.1204251430989
20
0.631620458247255
30
0
41
1
10
40.0404322098694
20
0.716404760442629
30
0
41
1
10
40.0007672006068
20
0.762058266838835
30
0
41
1
10
39.9614066707233
20
0.810662829556435
30
0
0
SPLINE
5
156
100
AcDbEntity
8
1
62
256
6
ByLayer
370
18
48
1
60
0
100
AcDbSpline
70
4
71
3
72
10
73
6
40
0
40
0
40
0
40
0
40
0.5
40
0.5
40
1
40
1
40
1
40
1
41
1
10
39.8989422768437
20
0.86787950435729
30
0
41
1
10
39.8575302746371
20
0.891074977918038
30
0
41
1
10
39.8158314536803
20
0.909877228759569
30
0
41
1
10
39.7315284072956
20
0.938343361207103
30
0
41
1
10
39.6891126223991
20
0.947951023901538
30
0
41
1
10
39.6462430342296
20
0.952728031826354
30
0
0
SPLINE
5
157
100
AcDbEntity
8
1
62
256
6
ByLayer
370
18
48
1
60
0
100
AcDbSpline
70
4
71
3
72
26
73
22
40
0
40
0
40
0
40
0
40
0.12500000000009
40
0.12500000000009
40
0.250000000000179
40
0.250000000000179
40
0.375000000000269
40
0.375000000000269
40
0.437500000000284
40
0.437500000000284
40
0.5000000000003
40
0.5000000000003
40
0.625000000000272
40
0.625000000000272
40
0.687500000000227
40
0.687500000000227
40
0.750000000000181
40
0.750000000000181
40
0.875000000000091
40
0.875000000000091
40
1
40
1
40
1
40
1
41
1
10
39.6462430342296
20
0.952728031826354
30
0
41
1
10
39.6412610036989
20
0.953283185265974
30
0
41
1
10
39.6354823775049
20
0.954661557451402
30
0
41
1
10
39.6226746321532
20
0.958678442566622
30
0
41
1
10
39.6155802890301
20
0.961354324104633
30
0
41
1
10
39.6006761974696
20
0.967711253822785
30
0
41
1
10
39.5928333586642
20
0.971398289931699
30
0
41
1
10
39.5805067572346
20
0.977695674983039
30
0
41
1
10
39.576297266224
20
0.97992818250907
30
0
41
1
10
39.567834945519
20
0.984583945491124
30
0
41
1
10
39.5635646872868
20
0.987015791157432
30
0
41
1
10
39.5506411159052
20
0.994637172844904
30
0
41
1
10
39.5418766847102
20
1.00014547719403
30
0
41
1
10
39.5284987187592
20
1.00920726415515
30
0
41
1
10
39.5239878489703
20
1.01237332837803
30
0
41
1
10
39.5151003868809
20
1.01886345053126
30
0
41
1
10
39.5106993037423
20
1.02220321602823
30
0
41
1
10
39.4976475249333
20
1.03254999610405
30
0
41
1
10
39.4890507503297
20
1.03997729614991
30
0
41
1
10
39.4734770592485
20
1.05512963657426
30
0
41
1
10
39.4663256729938
20
1.06303134493098
30
0
41
1
10
39.4606510679034
20
1.0706613830736
30
0
0
SPLINE
5
158
100
AcDbEntity
8
1
62
256
6
ByLayer
370
18
48
1
60
0
100
AcDbSpline
70
4
71
3
72
10
73
6
40
0
40
0
40
0
40
0
40
0.5
40
0.5
40
1
40
1
40
1
40
1
41
1
10
39.4606510679013
20
1.07066138307638
30
0
41
1
10
39.4202204439619
20
1.1250241445178
30
0
41
1
10
39.3799876902659
20
1.18206047436155
30
0
41
1
10
39.300078484323
20
1.30071148772694
30
0
41
1
10
39.2604555680721
20
1.36223021649576
30
0
41
1
10
39.2211350176065
20
1.4256490102153
30
0
0
SPLINE
5
159
100
AcDbEntity
8
1
62
256
6
ByLayer
370
18
48
1
60
0
100
AcDbSpline
70
4
71
3
72
8
73
4
40
0
40
0
40
0
40
0
40
1
40
1
40
1
40
1
41
1
10
39.1583431523017
20
1.47024247475457
30
0
41
1
10
39.1792805019581
20
1.45560319325415
30
0
41
1
10
39.2002092686367
20
1.44073725985399
30
0
41
1
10
39.2211350176065
20
1.42564901021521
30
0
0
SPLINE
5
15A
100
AcDbEntity
8
1
62
256
6
ByLayer
370
18
48
1
60
0
100
AcDbSpline
70
4
71
3
72
10
73
6
40
0
40
0
40
0
40
0
40
0.5
40
0.5
40
1
40
1
40
1
40
1
41
1
10
39.1583431523017
20
1.47024247475451
30
0
41
1
10
39.1169449758601
20
1.46195472656865
30
0
41
1
10
39.0752587419907
20
1.44921494602818
30
0
41
1
10
38.9909854170922
20
1.41459254753229
30
0
41
1
10
38.9485922570448
20
1.39281330703699
30
0
41
1
10
38.9057585908336
20
1.36646419236351
30
0
0
SPLINE
5
15B
100
AcDbEntity
8
1
62
256
6
ByLayer
370
18
48
1
60
0
100
AcDbSpline
70
4
71
3
72
26
73
22
40
0
40
0
40
0
40
0
40
0.125000000000014
40
0.125000000000014
40
0.250000000000028
40
0.250000000000028
40
0.375000000000042
40
0.375000000000042
40
0.437500000000049
40
0.437500000000049
40
0.500000000000056
40
0.500000000000056
40
0.625000000000073
40
0.625000000000073
40
0.687500000000081
40
0.687500000000081
40
0.750000000000089
40
0.750000000000089
40
0.875000000000045
40
0.875000000000045
40
1
40
1
40
1
40
1
41
1
10
38.9057585908323
20
1.36646419236496
30
0
41
1
10
38.9007782840029
20
1.36340055837405
30
0
41
1
10
38.8950019783771
20
1.36134885009878
30
0
41
1
10
38.8821999160972
20
1.35880131731483
30
0
41
1
10
38.875109234876
20
1.35832516473556
30
0
41
1
10
38.8602132270632
20
1.35883654256327
30
0
41
1
10
38.8523746135475
20
1.35980834278351
30
0
41
1
10
38.8400549586989
20
1.36233558533121
30
0
41
1
10
38.8358476353031
20
1.36336152403084
30
0
41
1
10
38.8273892751018
20
1.36574861626417
30
0
41
1
10
38.8231208864081
20
1.36711270550626
30
0
41
1
10
38.8102023739502
20
1.37173240588373
30
0
41
1
10
38.8014405765127
20
1.3755045239962
30
0
41
1
10
38.7880646759146
20
1.38242407133308
30
0
41
1
10
38.7835531133274
20
1.3849540748482
30
0
41
1
10
38.7746628657177
20
1.3903765600385
30
0
41
1
10
38.770260083437
20
1.39327996459568
30
0
41
1
10
38.7572019396293
20
1.40264119607383
30
0
41
1
10
38.748598303484
20
1.4098453270673
30
0
41
1
10
38.7330080413934
20
1.42571992893039
30
0
41
1
10
38.7258471908759
20
1.43457839454686
30
0
41
1
10
38.7201659549002
20
1.44388163054168
30
0
0
SPLINE
5
15C
100
AcDbEntity
8
1
62
256
6
ByLayer
370
18
48
1
60
0
100
AcDbSpline
70
4
71
3
72
10
73
6
40
0
40
0
40
0
40
0
40
0.5
40
0.5
40
1
40
1
40
1
40
1
41
1
10
38.7201659549002
20
1.44388163054168
30
0
41
1
10
38.6796204724804
20
1.51027637159532
30
0
41
1
10
38.6392737118969
20
1.57800664989682
30
0
41
1
10
38.5591512167429
20
1.71538843986013
30
0
41
1
10
38.5194301019454
20
1.78493297041803
30
0
41
1
10
38.4800234015617
20
1.85507196764397
30
0
0
SPLINE
5
15D
100
AcDbEntity
8
1
62
256
6
ByLayer
370
18
48
1
60
0
100
AcDbSpline
70
4
71
3
72
10
73
6
40
0
40
0
40
0
40
0
40
0.5
40
0.5
40
1
40
1
40
1
40
1
41
1
10
38.4181687504801
20
1.88050936689487
30
0
41
1
10
38.3767535197382
20
1.84182406678957
30
0
41
1
10
38.3350334922058
20
1.79927695671435
30
0
41
1
10
38.2506839667008
20
1.70639642563066
30
0
41
1
10
38.2082443558256
20
1.65627952597455
30
0
41
1
10
38.1653566652671
20
1.60238443693683
30
0
0
SPLINE
5
15E
100
AcDbEntity
8
1
62
256
6
ByLayer
370
18
48
1
60
0
100
AcDbSpline
70
4
71
3
72
26
73
22
40
0
40
0
40
0
40
0
40
0.125
40
0.125
40
0.25
40
0.25
40
0.374999999999999
40
0.374999999999999
40
0.437499999999999
40
0.437499999999999
40
0.499999999999999
40
0.499999999999999
40
0.624999999999998
40
0.624999999999998
40
0.687499999999999
40
0.687499999999999
40
0.749999999999999
40
0.749999999999999
40
0.875
40
0.875
40
1
40
1
40
1
40
1
41
1
10
38.1653566652661
20
1.60238443693549
30
0
41
1
10
38.1603725038353
20
1.59612105878415
30
0
41
1
10
38.1545915854338
20
1.59092972483813
30
0
41
1
10
38.1417793844089
20
1.58219913054953
30
0
41
1
10
38.1346825459031
20
1.57865927867366
30
0
41
1
10
38.1197744125908
20
1.5733115963578
30
0
41
1
10
38.11192986772
20
1.57146847058829
30
0
41
1
10
38.0996021648545
20
1.56993672183262
30
0
41
1
10
38.0953930043036
20
1.56963592554737
30
0
41
1
10
38.0869316614499
20
1.56946967784765
30
0
41
1
10
38.0826619891448
20
1.56960123701336
30
0
41
1
10
38.0697402463797
20
1.57065562087647
30
0
41
1
10
38.0609770597698
20
1.5722248579948
30
0
41
1
10
38.0476010959343
20
1.57613638355349
30
0
41
1
10
38.0430917894492
20
1.57771106057314
30
0
41
1
10
38.0342077749972
20
1.58137710336752
30
0
41
1
10
38.0298083877971
20
1.58347377234571
30
0
41
1
10
38.0167611657749
20
1.59065048221018
30
0
41
1
10
38.0081674262469
20
1.59670123837483
30
0
41
1
10
37.9925973313416
20
1.61123097866258
30
0
41
1
10
37.985446552026
20
1.6198853670972
30
0
41
1
10
37.9797716238386
20
1.62963706128849
30
0
0
SPLINE
5
15F
100
AcDbEntity
8
1
62
256
6
ByLayer
370
18
48
1
60
0
100
AcDbSpline
70
4
71
3
72
10
73
6
40
0
40
0
40
0
40
0
40
0.5
40
0.5
40
1
40
1
40
1
40
1
41
1
10
37.9797716238386
20
1.62963706128849
30
0
41
1
10
37.9393097782596
20
1.69916596658428
30
0
41
1
10
37.8990485485596
20
1.76852798639266
30
0
41
1
10
37.8190964921925
20
1.90622288563597
30
0
41
1
10
37.7794591134185
20
1.97445935544587
30
0
41
1
10
37.7401279569941
20
2.04189454297796
30
0
0
SPLINE
5
160
100
AcDbEntity
8
1
62
256
6
ByLayer
370
18
48
1
60
0
100
AcDbSpline
70
4
71
3
72
10
73
6
40
0
40
0
40
0
40
0
40
0.5
40
0.5
40
1
40
1
40
1
40
1
41
1
10
37.6777722246433
20
2.04557250182151
30
0
41
1
10
37.6363417292781
20
1.98162514250058
30
0
41
1
10
37.594614363157
20
1.91490157008676
30
0
41
1
10
37.5102665690765
20
1.77591335987572
30
0
41
1
10
37.4678350958371
20
1.70395953902428
30
0
41
1
10
37.4249491009422
20
1.62949322824875
30
0
0
SPLINE
5
161
100
AcDbEntity
8
1
62
256
6
ByLayer
370
18
48
1
60
0
100
AcDbSpline
70
4
71
3
72
26
73
22
40
0
40
0
40
0
40
0
40
0.125000000000013
40
0.125000000000013
40
0.250000000000025
40
0.250000000000025
40
0.375000000000038
40
0.375000000000038
40
0.437500000000016
40
0.437500000000016
40
0.499999999999993
40
0.499999999999993
40
0.624999999999949
40
0.624999999999949
40
0.687499999999957
40
0.687499999999957
40
0.749999999999966
40
0.749999999999966
40
0.874999999999983
40
0.874999999999983
40
1
40
1
40
1
40
1
41
1
10
37.4249491009422
20
1.62949322824875
30
0
41
1
10
37.4199657804682
20
1.62084029873316
30
0
41
1
10
37.4141852791911
20
1.61317605077051
30
0
41
1
10
37.4013723580474
20
1.59937772606119
30
0
41
1
10
37.3942738459374
20
1.5932226248936
30
0
41
1
10
37.3793606033935
20
1.58268733031323
30
0
41
1
10
37.3715128389552
20
1.57825696089509
30
0
41
1
10
37.3591798573076
20
1.57284790437382
30
0
41
1
10
37.354968918761
20
1.57125388610379
30
0
41
1
10
37.3465044271217
20
1.56854546995558
30
0
41
1
10
37.3422333258704
20
1.56742245392275
30
0
41
1
10
37.3293078864167
20
1.56476042676275
30
0
41
1
10
37.3205429740346
20
1.56391455606243
30
0
41
1
10
37.3071667020119
20
1.56429796761498
30
0
41
1
10
37.3026586620174
20
1.56470980722079
30
0
41
1
10
37.2937784694828
20
1.5661379774192
30
0
41
1
10
37.2893813821986
20
1.56715298686373
30
0
41
1
10
37.2763421104764
20
1.57120523308043
30
0
41
1
10
37.2677557942355
20
1.57531225149577
30
0
41
1
10
37.2522011962749
20
1.58660190609183
30
0
41
1
10
37.2450585783401
20
1.59392389279662
30
0
41
1
10
37.239388936406
20
1.60285031302726
30
0
0
SPLINE
5
162
100
AcDbEntity
8
1
62
256
6
ByLayer
370
18
48
1
60
0
100
AcDbSpline
70
4
71
3
72
10
73
6
40
0
40
0
40
0
40
0
40
0.5
40
0.5
40
1
40
1
40
1
40
1
41
1
10
37.2393889364039
20
1.60285031303067
30
0
41
1
10
37.1989727273647
20
1.6664825618119
30
0
41
1
10
37.158759099411
20
1.72845101413671
30
0
41
1
10
37.0788968437513
20
1.84856376316307
30
0
41
1
10
37.0393017491188
20
1.90663208594535
30
0
41
1
10
37.0000113769571
20
1.96261700401641
30
0
0
SPLINE
5
163
100
AcDbEntity
8
1
62
256
6
ByLayer
370
18
48
1
60
0
100
AcDbSpline
70
4
71
3
72
8
73
4
40
0
40
0
40
0
40
0
40
1
40
1
40
1
40
1
41
1
10
36.9369062387067
20
1.94361839257047
30
0
41
1
10
36.9579473239868
20
1.95026524869908
30
0
41
1
10
36.9789807370492
20
1.95659839272187
30
0
41
1
10
37.0000113769571
20
1.96261700401624
30
0
0
SPLINE
5
164
100
AcDbEntity
8
1
62
256
6
ByLayer
370
18
48
1
60
0
100
AcDbSpline
70
4
71
3
72
10
73
6
40
0
40
0
40
0
40
0
40
0.5
40
0.5
40
1
40
1
40
1
40
1
41
1
10
36.9369062387067
20
1.94361839257047
30
0
41
1
10
36.8955315353346
20
1.86272328505001
30
0
41
1
10
36.8538719767314
20
1.78047955549639
30
0
41
1
10
36.769648263099
20
1.61342001443492
30
0
41
1
10
36.7272708782869
20
1.52897367083577
30
0
41
1
10
36.6844360500847
20
1.44366136875976
30
0
0
SPLINE
5
165
100
AcDbEntity
8
1
62
256
6
ByLayer
370
18
48
1
60
0
100
AcDbSpline
70
4
71
3
72
26
73
22
40
0
40
0
40
0
40
0
40
0.125000000000037
40
0.125000000000037
40
0.250000000000073
40
0.250000000000073
40
0.37500000000011
40
0.37500000000011
40
0.4375000000001
40
0.4375000000001
40
0.500000000000089
40
0.500000000000089
40
0.625000000000067
40
0.625000000000067
40
0.687500000000056
40
0.687500000000056
40
0.750000000000045
40
0.750000000000045
40
0.875000000000022
40
0.875000000000022
40
1
40
1
40
1
40
1
41
1
10
36.6844360500847
20
1.44366136875976
30
0
41
1
10
36.6794545507161
20
1.43373992873646
30
0
41
1
10
36.6736760621725
20
1.42459277648879
30
0
41
1
10
36.6608673379773
20
1.40750416055113
30
0
41
1
10
36.6537711400257
20
1.3995244364373
30
0
41
1
10
36.6388621418286
20
1.38514786181369
30
0
41
1
10
36.6310163208756
20
1.37869233965498
30
0
41
1
10
36.6186864720279
20
1.37008410885514
30
0
41
1
10
36.6144763898944
20
1.36739484443561
30
0
41
1
10
36.6060135549185
20
1.36247655836593
30
0
41
1
10
36.6017433037864
20
1.36023440371702
30
0
41
1
10
36.5888205200815
20
1.35416830271259
30
0
41
1
10
36.5800575820143
20
1.35099198792915
30
0
41
1
10
36.5666838298482
20
1.34775539254406
30
0
41
1
10
36.5621758914941
20
1.3469362922061
30
0
41
1
10
36.5532950153695
20
1.34591215978691
30
0
41
1
10
36.5488973442888
20
1.34569914843908
30
0
41
1
10
36.5358553981024
20
1.3460575533332
30
0
41
1
10
36.5272654391379
20
1.3476593926234
30
0
41
1
10
36.51170056406
20
1.35419898740062
30
0
41
1
10
36.504551696603
20
1.3592210743713
30
0
41
1
10
36.4988773077982
20
1.36615449515995
30
0
0
SPLINE
5
166
100
AcDbEntity
8
1
62
256
6
ByLayer
370
18
48
1
60
0
100
AcDbSpline
70
4
71
3
72
8
73
4
40
0
40
0
40
0
40
0
40
1
40
1
40
1
40
1
41
1
10
36.4988773077955
20
1.36615449516316
30
0
41
1
10
36.4894087240495
20
1.37772396592931
30
0
41
1
10
36.4799512660974
20
1.38913292586079
30
0
41
1
10
36.4705059700759
20
1.40037987536698
30
0
0
SPLINE
5
167
100
AcDbEntity
8
1
62
256
6
ByLayer
370
18
48
1
60
0
100
AcDbSpline
70
4
71
3
72
8
73
4
40
0
40
0
40
0
40
0
40
1
40
1
40
1
40
1
41
1
10
36.3404113371646
20
1.54581005193973
30
0
41
1
10
36.3131149314407
20
1.57430180103538
30
0
41
1
10
36.2859738832395
20
1.60133435064878
30
0
41
1
10
36.2589795809766
20
1.62690609846206
30
0
0
SPLINE
5
168
100
AcDbEntity
8
1
62
256
6
ByLayer
370
18
48
1
60
0
100
AcDbSpline
70
4
71
3
72
8
73
4
40
0
40
0
40
0
40
0
40
1
40
1
40
1
40
1
41
1
10
36.1969474586701
20
1.58832552568964
30
0
41
1
10
36.2176307125076
20
1.60143779115336
30
0
41
1
10
36.2383064125182
20
1.61429884459716
30
0
41
1
10
36.2589795809767
20
1.62690609846197
30
0
0
SPLINE
5
169
100
AcDbEntity
8
1
62
256
6
ByLayer
370
18
48
1
60
0
100
AcDbSpline
70
4
71
3
72
10
73
6
40
0
40
0
40
0
40
0
40
0.948230968931766
40
0.948230968931766
40
1
40
1
40
1
40
1
41
1
10
36.1969474586701
20
1.58832552568964
30
0
41
1
10
36.1555229040513
20
1.50111080927746
30
0
41
1
10
36.113786232065
20
1.41415806539467
30
0
41
1
10
36.0692872269979
20
1.32285502499474
30
0
41
1
10
36.0669827694069
20
1.31813060426597
30
0
41
1
10
36.0646774995191
20
1.31340844814071
30
0
0
SPLINE
5
16A
100
AcDbEntity
8
1
62
256
6
ByLayer
370
18
48
1
60
0
100
AcDbSpline
70
4
71
3
72
10
73
6
40
0
40
0
40
0
40
0
40
0.5
40
0.5
40
1
40
1
40
1
40
1
41
1
10
34.6294833538793
20
1.63704002031346
30
0
41
1
10
34.6703785179853
20
1.70703984705295
30
0
41
1
10
34.7109799795787
20
1.77644436357241
30
0
41
1
10
34.7915176632849
20
1.91343500243769
30
0
41
1
10
34.8313916893856
20
1.98091374189124
30
0
41
1
10
34.8709265640355
20
2.04720787037343
30
0
0
SPLINE
5
16B
100
AcDbEntity
8
1
62
256
6
ByLayer
370
18
48
1
60
0
100
AcDbSpline
70
4
71
3
72
8
73
4
40
0
40
0
40
0
40
0
40
1
40
1
40
1
40
1
41
1
10
35.1660984701751
20
1.65224269481803
30
0
41
1
10
35.1721871977049
20
1.64150695528227
30
0
41
1
10
35.1782850727433
20
1.6307298704877
30
0
41
1
10
35.1843927044144
20
1.61991168091436
30
0
0
SPLINE
5
16C
100
AcDbEntity
8
1
62
256
6
ByLayer
370
18
48
1
60
0
100
AcDbSpline
70
4
71
3
72
26
73
22
40
0
40
0
40
0
40
0
40
0.124999999999985
40
0.124999999999985
40
0.24999999999997
40
0.24999999999997
40
0.374999999999955
40
0.374999999999955
40
0.49999999999994
40
0.49999999999994
40
0.624999999999925
40
0.624999999999925
40
0.74999999999991
40
0.74999999999991
40
0.812499999999933
40
0.812499999999933
40
0.874999999999955
40
0.874999999999955
40
0.937499999999977
40
0.937499999999977
40
1
40
1
40
1
40
1
41
1
10
35.1843927044144
20
1.61991168091436
30
0
41
1
10
35.1894964625679
20
1.61087161003226
30
0
41
1
10
35.195433131498
20
1.60288541986799
30
0
41
1
10
35.2085824680492
20
1.58850685470082
30
0
41
1
10
35.2158769867863
20
1.58208660947761
30
0
41
1
10
35.2310884014521
20
1.57113621516137
30
0
41
1
10
35.2390450741389
20
1.56654470014678
30
0
41
1
10
35.2556002082959
20
1.55903733017362
30
0
41
1
10
35.2642608628537
20
1.5561224535071
30
0
41
1
10
35.2815897395575
20
1.55226332185947
30
0
41
1
10
35.2903223260466
20
1.55127513105427
30
0
41
1
10
35.3078994367848
20
1.55140968497085
30
0
41
1
10
35.316798100008
20
1.55256535627117
30
0
41
1
10
35.3295737420176
20
1.55617872756676
30
0
41
1
10
35.3337597849425
20
1.55769661496515
30
0
41
1
10
35.3419615507604
20
1.56145274640315
30
0
41
1
10
35.3459905631195
20
1.5637061265692
30
0
41
1
10
35.3536005370536
20
1.5689103345164
30
0
41
1
10
35.357211284593
20
1.57187033090014
30
0
41
1
10
35.3639829030326
20
1.57861970333505
30
0
41
1
10
35.3671495665653
20
1.58242778354236
30
0
41
1
10
35.3699565637453
20
1.58661689454382
30
0
0
SPLINE
5
16D
100
AcDbEntity
8
1
62
256
6
ByLayer
370
18
48
1
60
0
100
AcDbSpline
70
4
71
3
72
10
73
6
40
0
40
0
40
0
40
0
40
0.5
40
0.5
40
1
40
1
40
1
40
1
41
1
10
35.3699565637485
20
1.58661689454942
30
0
41
1
10
35.410830615748
20
1.64761657853524
30
0
41
1
10
35.451415480438
20
1.70655979116802
30
0
41
1
10
35.531923972059
20
1.81988689211894
30
0
41
1
10
35.5717869671903
20
1.87418540801028
30
0
41
1
10
35.6113347053864
20
1.92615552450235
30
0
0
SPLINE
5
16E
100
AcDbEntity
8
1
62
256
6
ByLayer
370
18
48
1
60
0
100
AcDbSpline
70
4
71
3
72
8
73
4
40
0
40
0
40
0
40
0
40
1
40
1
40
1
40
1
41
1
10
35.6742697799698
20
1.90380817103934
30
0
41
1
10
35.6532745451527
20
1.91155978267665
30
0
41
1
10
35.6322971420746
20
1.91900935171415
30
0
41
1
10
35.6113347053863
20
1.92615552450246
30
0
0
SPLINE
5
16F
100
AcDbEntity
8
1
62
256
6
ByLayer
370
18
48
1
60
0
100
AcDbSpline
70
4
71
3
72
10
73
6
40
0
40
0
40
0
40
0
40
0.5
40
0.5
40
1
40
1
40
1
40
1
41
1
10
35.6742697799691
20
1.90380817102803
30
0
41
1
10
35.7152415932588
20
1.82320819905789
30
0
41
1
10
35.7565411612157
20
1.74169367526312
30
0
41
1
10
35.8401189065722
20
1.57708201423668
30
0
41
1
10
35.8822149141736
20
1.4943439396061
30
0
41
1
10
35.9248017721923
20
1.41126225505494
30
0
0
SPLINE
5
170
100
AcDbEntity
8
1
62
256
6
ByLayer
370
18
48
1
60
0
100
AcDbSpline
70
4
71
3
72
26
73
22
40
0
40
0
40
0
40
0
40
0.125
40
0.125
40
0.25
40
0.25
40
0.375
40
0.375
40
0.5
40
0.5
40
0.625
40
0.625
40
0.75
40
0.75
40
0.8125
40
0.8125
40
0.875
40
0.875
40
0.9375
40
0.9375
40
1
40
1
40
1
40
1
41
1
10
35.9248017721923
20
1.41126225505494
30
0
41
1
10
35.9299103600968
20
1.40129603287923
30
0
41
1
10
35.9358537994617
20
1.39211833951558
30
0
41
1
10
35.949018409785
20
1.37496232023307
30
0
41
1
10
35.9563218379608
20
1.36693566457197
30
0
41
1
10
35.9715479818098
20
1.35253034107382
30
0
41
1
10
35.9795109646407
20
1.34608196401174
30
0
41
1
10
35.9960759601173
20
1.33460306650522
30
0
41
1
10
36.0047381808911
20
1.32955827734867
30
0
41
1
10
36.0220646216896
20
1.32130588752386
30
0
41
1
10
36.0307946215061
20
1.31803940720147
30
0
41
1
10
36.048364312403
20
1.3134141254055
30
0
41
1
10
36.0572519998711
20
1.31207200849698
30
0
41
1
10
36.070010937619
20
1.31191315703569
30
0
41
1
10
36.0741916847949
20
1.31216331681995
30
0
41
1
10
36.082383532008
20
1.31335867723414
30
0
41
1
10
36.0864066416509
20
1.3143136948992
30
0
41
1
10
36.094006183387
20
1.31697012026117
30
0
41
1
10
36.0976126166367
20
1.31867199502616
30
0
41
1
10
36.104377425623
20
1.32294194018817
30
0
41
1
10
36.1075415814973
20
1.325525190598
30
0
41
1
10
36.1103473825967
20
1.32854885850864
30
0
0
SPLINE
5
171
100
AcDbEntity
8
1
62
256
6
ByLayer
370
18
48
1
60
0
100
AcDbSpline
70
4
71
3
72
10
73
6
40
0
40
0
40
0
40
0
40
0.5
40
0.5
40
1
40
1
40
1
40
1
41
1
10
36.1103473825978
20
1.32854885851128
30
0
41
1
10
36.1512367383905
20
1.37261321967858
30
0
41
1
10
36.1918273915151
20
1.41348568760512
30
0
41
1
10
36.2723525472833
20
1.48877294388117
30
0
41
1
10
36.3122264631104
20
1.52312749246929
30
0
41
1
10
36.3517776791978
20
1.55423874865471
30
0
0
SPLINE
5
172
100
AcDbEntity
8
1
62
256
6
ByLayer
370
18
48
1
60
0
100
AcDbSpline
70
4
71
3
72
8
73
4
40
0
40
0
40
0
40
0
40
1
40
1
40
1
40
1
41
1
10
36.4142250630911
20
1.51278083652213
30
0
41
1
10
36.3934000439134
20
1.52684090775088
30
0
41
1
10
36.3725850981354
20
1.540660694043
30
0
41
1
10
36.3517776791978
20
1.55423874865474
30
0
0
SPLINE
5
173
100
AcDbEntity
8
1
62
256
6
ByLayer
370
18
48
1
60
0
100
AcDbSpline
70
4
71
3
72
10
73
6
40
0
40
0
40
0
40
0
40
0.5
40
0.5
40
1
40
1
40
1
40
1
41
1
10
36.4142250630911
20
1.51278083652227
30
0
41
1
10
36.4552666506754
20
1.428920089244
30
0
41
1
10
36.4966352493621
20
1.34574738053931
30
0
41
1
10
36.5803393965347
20
1.18103197982288
30
0
41
1
10
36.6224889102496
20
1.09984035590733
30
0
41
1
10
36.6651290872486
20
1.01994004414942
30
0
0
SPLINE
5
174
100
AcDbEntity
8
1
62
256
6
ByLayer
370
18
48
1
60
0
100
AcDbSpline
70
4
71
3
72
26
73
22
40
0
40
0
40
0
40
0
40
0.125
40
0.125
40
0.25
40
0.25
40
0.375
40
0.375
40
0.5
40
0.5
40
0.625
40
0.625
40
0.75
40
0.75
40
0.8125
40
0.8125
40
0.875
40
0.875
40
0.9375
40
0.9375
40
1
40
1
40
1
40
1
41
1
10
36.6651290872486
20
1.01994004414942
30
0
41
1
10
36.6702427929408
20
1.01035784473703
30
0
41
1
10
36.6761918562629
20
1.00119340256228
30
0
41
1
10
36.6893668364847
20
0.983508351098067
30
0
41
1
10
36.6966753180757
20
0.974925069745922
30
0
41
1
10
36.711909317483
20
0.958943879760398
30
0
41
1
10
36.7198751822883
20
0.951477556742191
30
0
41
1
10
36.7364441587576
20
0.937517294948236
30
0
41
1
10
36.7451072834697
20
0.930994919737742
30
0
41
1
10
36.7624342733046
20
0.919414166790148
30
0
41
1
10
36.7711639402499
20
0.914289894934967
30
0
41
1
10
36.7887312916327
20
0.905498678726531
30
0
41
1
10
36.7976164997239
20
0.901830700800645
30
0
41
1
10
36.8103704612788
20
0.897920708120949
30
0
41
1
10
36.8145493314259
20
0.896871257892428
30
0
41
1
10
36.822736818496
20
0.895352400641343
30
0
41
1
10
36.8267577572456
20
0.894886815955516
30
0
41
1
10
36.8343527383961
20
0.894654509031284
30
0
41
1
10
36.8379566382085
20
0.894879241520584
30
0
41
1
10
36.8447160076459
20
0.896117807398184
30
0
41
1
10
36.8478780251617
20
0.897141536130789
30
0
41
1
10
36.8506823271743
20
0.898606260260863
30
0
0
SPLINE
5
175
100
AcDbEntity
8
1
62
256
6
ByLayer
370
18
48
1
60
0
100
AcDbSpline
70
4
71
3
72
10
73
6
40
0
40
0
40
0
40
0
40
0.5
40
0.5
40
1
40
1
40
1
40
1
41
1
10
36.8506823271752
20
0.898606260263165
30
0
41
1
10
36.8915390705143
20
0.919946279128112
30
0
41
1
10
36.9321039330032
20
0.937407078682099
30
0
41
1
10
37.0125827870735
20
0.964666837799967
30
0
41
1
10
37.0524353731483
20
0.974444112187314
30
0
41
1
10
37.0919562487533
20
0.980424440904301
30
0
0
SPLINE
5
176
100
AcDbEntity
8
1
62
256
6
ByLayer
370
18
48
1
60
0
100
AcDbSpline
70
4
71
3
72
8
73
4
40
0
40
0
40
0
40
0
40
1
40
1
40
1
40
1
41
1
10
37.1546270471206
20
0.924791658410669
30
0
41
1
10
37.1337375901056
20
0.943497145074389
30
0
41
1
10
37.1128491601218
20
0.962042818356622
30
0
41
1
10
37.0919562487532
20
0.980424440904471
30
0
0
SPLINE
5
177
100
AcDbEntity
8
1
62
256
6
ByLayer
370
18
48
1
60
0
100
AcDbSpline
70
4
71
3
72
10
73
6
40
0
40
0
40
0
40
0
40
0.5
40
0.5
40
1
40
1
40
1
40
1
41
1
10
37.1546270471198
20
0.924791658403251
30
0
41
1
10
37.1957082830121
20
0.848667333071518
30
0
41
1
10
37.2370880222898
20
0.774682715417526
30
0
41
1
10
37.3207833807786
20
0.631346669440688
30
0
41
1
10
37.3629137779168
20
0.562303451904484
30
0
41
1
10
37.4055471460559
20
0.496082896716899
30
0
0
SPLINE
5
178
100
AcDbEntity
8
1
62
256
6
ByLayer
370
18
48
1
60
0
100
AcDbSpline
70
4
71
3
72
26
73
22
40
0
40
0
40
0
40
0
40
0.125000000000015
40
0.125000000000015
40
0.250000000000029
40
0.250000000000029
40
0.375000000000044
40
0.375000000000044
40
0.500000000000059
40
0.500000000000059
40
0.625000000000073
40
0.625000000000073
40
0.750000000000088
40
0.750000000000088
40
0.812500000000066
40
0.812500000000066
40
0.875000000000044
40
0.875000000000044
40
0.937500000000022
40
0.937500000000022
40
1
40
1
40
1
40
1
41
1
10
37.4055471460559
20
0.496082896716871
30
0
41
1
10
37.4106619056154
20
0.488138363304898
30
0
41
1
10
37.4166118984204
20
0.480180772110998
30
0
41
1
10
37.4297889746383
20
0.464265180612671
30
0
41
1
10
37.4370987382805
20
0.456238238232317
30
0
41
1
10
37.4523366737583
20
0.440749993543619
30
0
41
1
10
37.4603050638709
20
0.433230533945249
30
0
41
1
10
37.4768803780791
20
0.418590296945439
30
0
41
1
10
37.4855473170207
20
0.411430542888581
30
0
41
1
10
37.5028817061181
20
0.398011386098915
30
0
41
1
10
37.5116151610881
20
0.391687380949463
30
0
41
1
10
37.5291894124275
20
0.379855354603421
30
0
41
1
10
37.5380770256092
20
0.374329009853142
30
0
41
1
10
37.5508321188594
20
0.367161628111575
30
0
41
1
10
37.5550110460416
20
0.364943970348122
30
0
41
1
10
37.5631979584379
20
0.360898027143747
30
0
41
1
10
37.567218189907
20
0.359067055584404
30
0
41
1
10
37.5748112636268
20
0.355966006149202
30
0
41
1
10
37.5784139780924
20
0.354679481846091
30
0
41
1
10
37.5851707655798
20
0.352717311498026
30
0
41
1
10
37.588331578344
20
0.352044457608486
30
0
41
1
10
37.591135002054
20
0.351756329522402
30
0
0
SPLINE
5
179
100
AcDbEntity
8
1
62
256
6
ByLayer
370
18
48
1
60
0
100
AcDbSpline
70
4
71
3
72
10
73
6
40
0
40
0
40
0
40
0
40
0.5
40
0.5
40
1
40
1
40
1
40
1
41
1
10
37.5911350020574
20
0.351756329523965
30
0
41
1
10
37.6320125126143
20
0.347555052768286
30
0
41
1
10
37.6725961614581
20
0.339227846755591
30
0
41
1
10
37.7530913008294
20
0.314579077575161
30
0
41
1
10
37.7929395119812
20
0.29828077929028
30
0
41
1
10
37.8324497279341
20
0.278217970935856
30
0
0
SPLINE
5
17A
100
AcDbEntity
8
1
62
256
6
ByLayer
370
18
48
1
60
0
100
AcDbSpline
70
4
71
3
72
10
73
6
40
0
40
0
40
0
40
0
40
0.5
40
0.5
40
1
40
1
40
1
40
1
41
1
10
37.8953733838137
20
0.215412992138113
30
0
41
1
10
37.9363557961542
20
0.157033652670435
30
0
41
1
10
37.9776431228153
20
0.102062630822786
30
0
41
1
10
38.0612149620244
20
-0.0007158209276099
30
0
41
1
10
38.1033080902113
20
-0.048310713624403
30
0
41
1
10
38.1459078961698
20
-0.0920139025047035
30
0
0
SPLINE
5
17B
100
AcDbEntity
8
1
62
256
6
ByLayer
370
18
48
1
60
0
100
AcDbSpline
70
4
71
3
72
26
73
22
40
0
40
0
40
0
40
0
40
0.124999999999985
40
0.124999999999985
40
0.24999999999997
40
0.24999999999997
40
0.374999999999954
40
0.374999999999954
40
0.499999999999939
40
0.499999999999939
40
0.624999999999924
40
0.624999999999924
40
0.749999999999909
40
0.749999999999909
40
0.812499999999932
40
0.812499999999932
40
0.874999999999954
40
0.874999999999954
40
0.937499999999977
40
0.937499999999977
40
1
40
1
40
1
40
1
41
1
10
38.1459078961698
20
-0.0920139025047035
30
0
41
1
10
38.1510234736956
20
-0.0972619792460989
30
0
41
1
10
38.1569764548799
20
-0.102952819870865
30
0
41
1
10
38.1701630808911
20
-0.114982997589891
30
0
41
1
10
38.177480155081
20
-0.121388932735385
30
0
41
1
10
38.1927321052074
20
-0.134334836871602
30
0
41
1
10
38.2007071043684
20
-0.140914855491189
30
0
41
1
10
38.2172937956609
20
-0.154308448246383
30
0
41
1
10
38.2259636271204
20
-0.161165090663104
30
0
41
1
10
38.2432977715886
20
-0.174664937769478
30
0
41
1
10
38.2520294966254
20
-0.181363810969572
30
0
41
1
10
38.2695970299181
20
-0.194700215372166
30
0
41
1
10
38.2784724306401
20
-0.201366075777855
30
0
41
1
10
38.291207747162
20
-0.210862624397805
30
0
41
1
10
38.2953801472091
20
-0.213962250452738
30
0
41
1
10
38.3035543704623
20
-0.220014807912349
30
0
41
1
10
38.3075667578418
20
-0.222975401483154
30
0
41
1
10
38.3151453529472
20
-0.228547583935949
30
0
41
1
10
38.3187417043787
20
-0.231181635240574
30
0
41
1
10
38.3254878225541
20
-0.236097468292741
30
0
41
1
10
38.3286440240783
20
-0.238383748188625
30
0
41
1
10
38.3314443722872
20
-0.240391960020645
30
0
0
SPLINE
5
17C
100
AcDbEntity
8
1
62
256
6
ByLayer
370
18
48
1
60
0
100
AcDbSpline
70
4
71
3
72
10
73
6
40
0
40
0
40
0
40
0
40
0.5
40
0.5
40
1
40
1
40
1
40
1
41
1
10
38.3314443722914
20
-0.240391960021725
30
0
41
1
10
38.372381198042
20
-0.269748958403028
30
0
41
1
10
38.4130066688509
20
-0.302999473337877
30
0
41
1
10
38.4935609316469
20
-0.376658573382457
30
0
41
1
10
38.5334305947401
20
-0.41698144699339
30
0
41
1
10
38.5729713252599
20
-0.460437693118706
30
0
0
SPLINE
5
17D
100
AcDbEntity
8
1
62
256
6
ByLayer
370
18
48
1
60
0
100
AcDbSpline
70
4
71
3
72
10
73
6
40
0
40
0
40
0
40
0
40
0.5
40
0.5
40
1
40
1
40
1
40
1
41
1
10
38.6356951726476
20
-0.521568586703808
30
0
41
1
10
38.6767052779664
20
-0.554520252073871
30
0
41
1
10
38.7180429037356
20
-0.583286525529331
30
0
41
1
10
38.8016674059635
20
-0.632295181784599
30
0
41
1
10
38.8437700144372
20
-0.652433352343564
30
0
41
1
10
38.8863514990664
20
-0.668119695847338
30
0
0
SPLINE
5
17E
100
AcDbEntity
8
1
62
256
6
ByLayer
370
18
48
1
60
0
100
AcDbSpline
70
4
71
3
72
26
73
22
40
0
40
0
40
0
40
0
40
0.125000000000015
40
0.125000000000015
40
0.25000000000003
40
0.25000000000003
40
0.375000000000045
40
0.375000000000045
40
0.50000000000006
40
0.50000000000006
40
0.625000000000075
40
0.625000000000075
40
0.75000000000009
40
0.75000000000009
40
0.812500000000068
40
0.812500000000068
40
0.875000000000045
40
0.875000000000045
40
0.937500000000023
40
0.937500000000023
40
1
40
1
40
1
40
1
41
1
10
38.8863514990665
20
-0.668119695848901
30
0
41
1
10
38.8914763957386
20
-0.670007626491042
30
0
41
1
10
38.8974403695562
20
-0.672714058568573
30
0
41
1
10
38.910648582586
20
-0.679341944129931
30
0
41
1
10
38.9179761990944
20
-0.683318566244395
30
0
41
1
10
38.9332447749224
20
-0.692088265907557
30
0
41
1
10
38.9412264808507
20
-0.696898607335868
30
0
41
1
10
38.9578221370509
20
-0.707354178329979
30
0
41
1
10
38.9664939376314
20
-0.713042568363051
30
0
41
1
10
38.983828898456
20
-0.72492014688072
30
0
41
1
10
38.9925592856905
20
-0.73114792505325
30
0
41
1
10
39.0101202410573
20
-0.744301022673596
30
0
41
1
10
39.0189910811289
20
-0.751266162233208
30
0
41
1
10
39.0317203792749
20
-0.761892489000701
30
0
41
1
10
39.0358907270023
20
-0.765481940636192
30
0
41
1
10
39.0440608442771
20
-0.772773886258136
30
0
41
1
10
39.0480723743949
20
-0.776489896312995
30
0
41
1
10
39.0556506294288
20
-0.783828344621384
30
0
41
1
10
39.0592470858546
20
-0.787475918000126
30
0
41
1
10
39.065994061972
20
-0.79472034387814
30
0
41
1
10
39.0691520832545
20
-0.798329597039668
30
0
41
1
10
39.071954823328
20
-0.801802590422625
30
0
0
SPLINE
5
17F
100
AcDbEntity
8
1
62
256
6
ByLayer
370
18
48
1
60
0
100
AcDbSpline
70
4
71
3
72
10
73
6
40
0
40
0
40
0
40
0
40
0.5
40
0.5
40
1
40
1
40
1
40
1
41
1
10
39.0719548233288
20
-0.801802590422142
30
0
41
1
10
39.1129121897125
20
-0.852554589789918
30
0
41
1
10
39.1535545762605
20
-0.906327085306572
30
0
41
1
10
39.234166898655
20
-1.01899078135759
30
0
41
1
10
39.2740738100748
20
-1.07781806096685
30
0
41
1
10
39.3136408084165
20
-1.13890047202389
30
0
0
SPLINE
5
180
100
AcDbEntity
8
1
62
256
6
ByLayer
370
18
48
1
60
0
100
AcDbSpline
70
4
71
3
72
10
73
6
40
0
40
0
40
0
40
0
40
0.5
40
0.5
40
1
40
1
40
1
40
1
41
1
10
39.3760334420411
20
-1.19028461490632
30
0
41
1
10
39.4170730405004
20
-1.1935999031293
30
0
41
1
10
39.4584332108676
20
-1.19261576467127
30
0
41
1
10
39.5420345878153
20
-1.1818223288945
30
0
41
1
10
39.584098958162
20
-1.17203703633947
30
0
41
1
10
39.6266491553463
20
-1.15776828758388
30
0
0
SPLINE
5
181
100
AcDbEntity
8
1
62
256
6
ByLayer
370
18
48
1
60
0
100
AcDbSpline
70
4
71
3
72
26
73
22
40
0
40
0
40
0
40
0
40
0.125000000000015
40
0.125000000000015
40
0.25000000000003
40
0.25000000000003
40
0.375000000000045
40
0.375000000000045
40
0.50000000000006
40
0.50000000000006
40
0.625000000000074
40
0.625000000000074
40
0.750000000000089
40
0.750000000000089
40
0.812500000000067
40
0.812500000000067
40
0.875000000000045
40
0.875000000000045
40
0.937500000000022
40
0.937500000000022
40
1
40
1
40
1
40
1
41
1
10
39.6266491553463
20
-1.15776828758391
30
0
41
1
10
39.6317737151562
20
-1.15604982183729
30
0
41
1
10
39.6377370150698
20
-1.1554196601582
30
0
41
1
10
39.6509418452429
20
-1.15578129004939
30
0
41
1
10
39.6582666757426
20
-1.15680981485934
30
0
41
1
10
39.6735277690244
20
-1.16025667569366
30
0
41
1
10
39.6815048658318
20
-1.16266685155418
30
0
41
1
10
39.6980904575172
20
-1.16880885459238
30
0
41
1
10
39.7067571709771
20
-1.17257849686698
30
0
41
1
10
39.7240843273503
20
-1.18125958376996
30
0
41
1
10
39.7328115718771
20
-1.18618748623024
30
0
41
1
10
39.7503690242276
20
-1.19739993308582
30
0
41
1
10
39.7592414434903
20
-1.20373101823967
30
0
41
1
10
39.7719755721622
20
-1.21405719630687
30
0
41
1
10
39.7761478375924
20
-1.21765255534012
30
0
41
1
10
39.7843222280224
20
-1.22519923269314
30
0
41
1
10
39.7883363880015
20
-1.2291674424828
30
0
41
1
10
39.7959196182236
20
-1.23727622685325
30
0
41
1
10
39.7995183943707
20
-1.24144151203026
30
0
41
1
10
39.8062692565505
20
-1.25002912344408
30
0
41
1
10
39.8094289059198
20
-1.25446936959932
30
0
41
1
10
39.8122328452821
20
-1.25893367323013
30
0
0
SPLINE
5
182
100
AcDbEntity
8
1
62
256
6
ByLayer
370
18
48
1
60
0
100
AcDbSpline
70
4
71
3
72
10
73
6
40
0
40
0
40
0
40
0
40
0.5
40
0.5
40
1
40
1
40
1
40
1
41
1
10
39.8122328452829
20
-1.25893367323042
30
0
41
1
10
39.853224025098
20
-1.3241979493929
30
0
41
1
10
39.8939132323641
20
-1.39122494221576
30
0
41
1
10
39.974608257476
20
-1.52808241997977
30
0
41
1
10
40.0145475356249
20
-1.59780809267986
30
0
41
1
10
40.0541379316855
20
-1.66859266866749
30
0
0
SPLINE
5
183
100
AcDbEntity
8
1
62
256
6
ByLayer
370
18
48
1
60
0
100
AcDbSpline
70
4
71
3
72
10
73
6
40
0
40
0
40
0
40
0
40
0.5
40
0.5
40
1
40
1
40
1
40
1
41
1
10
40.1158038195576
20
-1.70368201000426
30
0
41
1
10
40.1568713934643
20
-1.6770855625185
30
0
41
1
10
40.1982690212509
20
-1.64657702604555
30
0
41
1
10
40.2820578564538
20
-1.57750018187542
30
0
41
1
10
40.3242617128588
20
-1.53908539338815
30
0
41
1
10
40.3669855076424
20
-1.49667219337957
30
0
0
SPLINE
5
184
100
AcDbEntity
8
1
62
256
6
ByLayer
370
18
48
1
60
0
100
AcDbSpline
70
4
71
3
72
26
73
22
40
0
40
0
40
0
40
0
40
0.125
40
0.125
40
0.25
40
0.25
40
0.375
40
0.375
40
0.5
40
0.5
40
0.625
40
0.625
40
0.75
40
0.75
40
0.8125
40
0.8125
40
0.875
40
0.875
40
0.9375
40
0.9375
40
1
40
1
40
1
40
1
41
1
10
40.3669855076424
20
-1.49667219337957
30
0
41
1
10
40.3721189292433
20
-1.49157609088866
30
0
41
1
10
40.37809422332
20
-1.48770128148428
30
0
41
1
10
40.3913274258722
20
-1.48177630313515
30
0
41
1
10
40.3986703650743
20
-1.47973978902189
30
0
41
1
10
40.41396658153
20
-1.47745788770089
30
0
41
1
10
40.421960161712
20
-1.47717977287246
30
0
41
1
10
40.438575280117
20
-1.47826864735222
30
0
41
1
10
40.4472522869635
20
-1.47966309059652
30
0
41
1
10
40.4645890410116
20
-1.48408922315369
30
0
41
1
10
40.4733176422448
20
-1.48711415940821
30
0
41
1
10
40.4908688771437
20
-1.4950071271428
30
0
41
1
10
40.4997218439383
20
-1.49991531919687
30
0
41
1
10
40.5124200384338
20
-1.5086407273705
30
0
41
1
10
40.5165795793089
20
-1.51178754491102
30
0
41
1
10
40.5247271124232
20
-1.51863052234933
30
0
41
1
10
40.5287250898284
20
-1.52234273846199
30
0
41
1
10
40.5362766094786
20
-1.5301771671281
30
0
41
1
10
40.5398600643909
20
-1.53432099534692
30
0
41
1
10
40.54658232182
20
-1.54313267556813
30
0
41
1
10
40.5497292210532
20
-1.54782209998083
30
0
41
1
10
40.5525236306735
20
-1.55268997680827
30
0
0
SPLINE
5
185
100
AcDbEntity
8
1
62
256
6
ByLayer
370
18
48
1
60
0
100
AcDbSpline
70
4
71
3
72
8
73
4
40
0
40
0
40
0
40
0
40
1
40
1
40
1
40
1
41
1
10
40.5525236306734
20
-1.55268997680787
30
0
41
1
10
40.6205893018784
20
-1.67126074796434
30
0
41
1
10
40.6878153329932
20
-1.7908485777225
30
0
41
1
10
40.7539067265289
20
-1.90947190123944
30
0
0
SPLINE
5
186
100
AcDbEntity
8
1
62
256
6
ByLayer
370
18
48
1
60
0
100
AcDbSpline
70
4
71
3
72
8
73
4
40
0
40
0
40
0
40
0
40
1
40
1
40
1
40
1
41
1
10
40.7539067265289
20
-1.9094719012395
30
0
41
1
10
40.8146094799626
20
-1.90577954163987
30
0
41
1
10
40.8758059649201
20
-1.89876161094693
30
0
41
1
10
40.9377980999487
20
-1.88821120843551
30
0
0
SPLINE
5
187
100
AcDbEntity
8
1
62
256
6
ByLayer
370
18
48
1
60
0
100
AcDbSpline
70
4
71
3
72
10
73
6
40
0
40
0
40
0
40
0
40
0.5
40
0.5
40
1
40
1
40
1
40
1
41
1
10
40.9377980999487
20
-1.88821120843551
30
0
41
1
10
40.9656656313193
20
-1.84984925212129
30
0
41
1
10
40.9937577840715
20
-1.81003400625846
30
0
41
1
10
41.0502416457565
20
-1.72788415483464
30
0
41
1
10
41.0786549175601
20
-1.68552323641117
30
0
41
1
10
41.1072913374139
20
-1.64187969586052
30
0
0
SPLINE
5
188
100
AcDbEntity
8
1
62
256
6
ByLayer
370
18
48
1
60
0
100
AcDbSpline
70
4
71
3
72
11
73
7
40
0
40
0
40
0
40
0
40
0.317443830774723
40
0.743519109114822
40
0.743519109114822
40
1
40
1
40
1
40
1
41
1
10
37.6581399970164
20
2.03006640847693
30
0
41
1
10
37.6588712825864
20
2.03177235753975
30
0
41
1
10
37.660584163208
20
2.03548024183388
30
0
41
1
10
37.6622969982357
20
2.03851007417396
30
0
41
1
10
37.6638694275935
20
2.04093056426717
30
0
41
1
10
37.6644607982097
20
2.04175891625513
30
0
41
1
10
37.6650513379798
20
2.04250418565366
30
0
0
SPLINE
5
189
100
AcDbEntity
8
1
62
256
6
ByLayer
370
18
48
1
60
0
100
AcDbSpline
70
4
71
3
72
8
73
4
40
0
40
0
40
0
40
0
40
1
40
1
40
1
40
1
41
1
10
37.7401279569943
20
2.04189454297787
30
0
41
1
10
37.7374394313905
20
2.04562129711488
30
0
41
1
10
37.7347463136998
20
2.04748394630218
30
0
41
1
10
37.732025529986
20
2.04750858235496
30
0
0
SPLINE
5
18A
100
AcDbEntity
8
1
62
256
6
ByLayer
370
18
48
1
60
0
100
AcDbSpline
70
4
71
3
72
10
73
6
40
0
40
0
40
0
40
0
40
0.451761248245938
40
0.451761248245938
40
1
40
1
40
1
40
1
41
1
10
36.6817916725913
20
-2.04750808705265
30
0
41
1
10
36.6786541765639
20
-2.04753349198256
30
0
41
1
10
36.6755028930824
20
-2.04510751150625
30
0
41
1
10
36.6684974628983
20
-2.03437112520348
30
0
41
1
10
36.6646446147129
20
-2.02491477099005
30
0
41
1
10
36.6607913705384
20
-2.01182201756004
30
0
0
SPLINE
5
18B
100
AcDbEntity
8
1
62
256
6
ByLayer
370
18
48
1
60
0
100
AcDbSpline
70
4
71
3
72
15
73
11
40
0
40
0
40
0
40
0
40
0.475604866359392
40
0.475604866359392
40
0.59450608294924
40
0.59450608294924
40
0.713407299539089
40
0.951209732718789
40
0.951209732718789
40
1
40
1
40
1
40
1
41
1
10
36.5982155458461
20
-1.99918765856179
30
0
41
1
10
36.60211622071
20
-2.01430940736674
30
0
41
1
10
36.606027833924
20
-2.02597777015345
30
0
41
1
10
36.6109300837121
20
-2.03609931570469
30
0
41
1
10
36.6119114401782
20
-2.03789934625914
30
0
41
1
10
36.6138643162488
20
-2.04103059168713
30
0
41
1
10
36.6167832172331
20
-2.04503368161744
30
0
41
1
10
36.6196726113251
20
-2.04697945592935
30
0
41
1
10
36.6219810138729
20
-2.04745782206018
30
0
41
1
10
36.622373537279
20
-2.04750143519243
30
0
41
1
10
36.6227656257245
20
-2.04750725132817
30
0
0
SPLINE
5
18C
100
AcDbEntity
8
1
62
256
6
ByLayer
370
18
48
1
60
0
100
AcDbSpline
70
4
71
3
72
15
73
11
40
0
40
0
40
0
40
0
40
0.110207120797919
40
0.110207120797919
40
0.237320389255359
40
0.237320389255359
40
0.491546926170239
40
0.745773463085119
40
0.745773463085119
40
1
40
1
40
1
40
1
41
1
10
38.3724448368161
20
2.04750680510253
30
0
41
1
10
38.3741164476186
20
2.04747867465264
30
0
41
1
10
38.3758029027555
20
2.04676852411643
30
0
41
1
10
38.379461549706
20
2.04374634990532
30
0
41
1
10
38.3814399117798
20
2.04119589883473
30
0
41
1
10
38.387346668711
20
2.03085830936141
30
0
41
1
10
38.3951895085084
20
2.00990981575356
30
0
41
1
10
38.4029077463084
20
1.9750045432354
30
0
41
1
10
38.4105693410164
20
1.93308369476273
30
0
41
1
10
38.4143746096919
20
1.90859323459245
30
0
41
1
10
38.4181687504801
20
1.8805093668949
30
0
0
SPLINE
5
18D
100
AcDbEntity
8
1
62
256
6
ByLayer
370
18
48
1
60
0
100
AcDbSpline
70
4
71
3
72
18
73
14
40
0
40
0
40
0
40
0
40
0.235273585751583
40
0.235273585751583
40
0.352910378627374
40
0.352910378627374
40
0.470547171503166
40
0.470547171503166
40
0.705820757254749
40
0.705820757254749
40
0.941094343006332
40
0.941094343006332
40
1
40
1
40
1
40
1
41
1
10
38.4800234015617
20
1.85507196764388
30
0
41
1
10
38.4762740055845
20
1.88471755166074
30
0
41
1
10
38.4725608819865
20
1.91111052475367
30
0
41
1
10
38.4669945122869
20
1.94574725082541
30
0
41
1
10
38.4651393150888
20
1.95646576220682
30
0
41
1
10
38.4614164696854
20
1.9762159401659
30
0
41
1
10
38.459548252819
20
1.98524337173822
30
0
41
1
10
38.4539661344675
20
2.00947620145684
30
0
41
1
10
38.450254361921
20
2.02196374109869
30
0
41
1
10
38.4426842042471
20
2.03979078258368
30
0
41
1
10
38.4388238717014
20
2.04513007447918
30
0
41
1
10
38.4339263688912
20
2.04731201946424
30
0
41
1
10
38.4329421787591
20
2.04752317777283
30
0
41
1
10
38.4319547593078
20
2.04750689946607
30
0
0
SPLINE
5
18E
100
AcDbEntity
8
1
62
256
6
ByLayer
370
18
48
1
60
0
100
AcDbSpline
70
4
71
3
72
16
73
12
40
0
40
0
40
0
40
0
40
0.362476985906751
40
0.362476985906751
40
0.543715478860126
40
0.543715478860126
40
0.634334725336813
40
0.634334725336813
40
0.7249539718135
40
0.7249539718135
40
1
40
1
40
1
40
1
41
1
10
34.4322407754233
20
1.5663959368961
30
0
41
1
10
34.4271079324264
20
1.61897576375352
30
0
41
1
10
34.4220740686635
20
1.6617170696008
30
0
41
1
10
34.414391511131
20
1.71132045177103
30
0
41
1
10
34.4118086320678
20
1.72542129917451
30
0
41
1
10
34.4078729327243
20
1.74281325549424
30
0
41
1
10
34.406547349928
20
1.74799418693354
30
0
41
1
10
34.4038917442923
20
1.75700843924318
30
0
41
1
10
34.4025630416008
20
1.76084167507503
30
0
41
1
10
34.3971953168802
20
1.77363998731343
30
0
41
1
10
34.3931334703131
20
1.77721621727213
30
0
41
1
10
34.3890900444067
20
1.77480743861557
30
0
0
SPLINE
5
18F
100
AcDbEntity
8
1
62
256
6
ByLayer
370
18
48
1
60
0
100
AcDbSpline
70
4
71
3
72
24
73
20
40
0
40
0
40
0
40
0
40
0.0621737865443455
40
0.0621737865443455
40
0.109065097217129
40
0.109065097217129
40
0.155956407889912
40
0.249739029235477
40
0.249739029235477
40
0.437304271926606
40
0.624869514617736
40
0.624869514617736
40
0.671760825290518
40
0.671760825290518
40
0.718652135963301
40
0.718652135963301
40
0.812434757308867
40
0.812434757308867
40
1
40
1
40
1
40
1
41
1
10
35.9813948229898
20
-2.0475086642731
30
0
41
1
10
35.9801305033334
20
-2.04749197972134
30
0
41
1
10
35.9788664437404
20
-2.04707473490055
30
0
41
1
10
35.9766481849418
20
-2.04563230933491
30
0
41
1
10
35.9756941773979
20
-2.04478030936826
30
0
41
1
10
35.9737956827816
20
-2.04262443010447
30
0
41
1
10
35.9709579801219
20
-2.03871046575631
30
0
41
1
10
35.968145496839
20
-2.03277951941826
30
0
41
1
10
35.9625395961977
20
-2.01826965480419
30
0
41
1
10
35.9551168510818
20
-1.99187546949022
30
0
41
1
10
35.9476181729164
20
-1.95148646958245
30
0
41
1
10
35.942842684715
20
-1.92176288814127
30
0
41
1
10
35.941883117656
20
-1.91559357434386
30
0
41
1
10
35.9399533031283
20
-1.90280072619601
30
0
41
1
10
35.9389822065271
20
-1.89617074213516
30
0
41
1
10
35.9360669688201
20
-1.87571087668701
30
0
41
1
10
35.9341141408856
20
-1.86128007205841
30
0
41
1
10
35.9282321784221
20
-1.81566226311619
30
0
41
1
10
35.9242875291347
20
-1.78215575505533
30
0
41
1
10
35.9203551674096
20
-1.74560269357568
30
0
0
SPLINE
5
190
100
AcDbEntity
8
1
62
256
6
ByLayer
370
18
48
1
60
0
100
AcDbSpline
70
4
71
3
72
19
73
15
40
0
40
0
40
0
40
0
40
0.176962687472293
40
0.176962687472293
40
0.353925374944586
40
0.353925374944586
40
0.530888062416879
40
0.530888062416879
40
0.619369406153026
40
0.619369406153026
40
0.707850749889172
40
0.707850749889172
40
0.884813437361466
40
1
40
1
40
1
40
1
41
1
10
35.8579491611955
20
-1.71213926687668
30
0
41
1
10
35.8618035645951
20
-1.75102405342119
30
0
41
1
10
35.865609765341
20
-1.786519321577
30
0
41
1
10
35.8731769912838
20
-1.85089102934862
30
0
41
1
10
35.8769391783462
20
-1.87978072768016
30
0
41
1
10
35.8845170603081
20
-1.93099722717423
30
0
41
1
10
35.8883433127683
20
-1.95332426414237
30
0
41
1
10
35.8941552652721
20
-1.98175916909406
30
0
41
1
10
35.8961092709697
20
-1.99041198123413
30
0
41
1
10
35.9000010721532
20
-2.00583971021106
30
0
41
1
10
35.9019412830422
20
-2.01263193979753
30
0
41
1
10
35.9077463857911
20
-2.03029542876035
30
0
41
1
10
35.9141006793801
20
-2.04377515647312
30
0
41
1
10
35.9204211258093
20
-2.04754774007216
30
0
41
1
10
35.9229124119189
20
-2.04750841764076
30
0
0
SPLINE
5
191
100
AcDbEntity
8
1
62
256
6
ByLayer
370
18
48
1
60
0
100
AcDbSpline
70
4
71
3
72
23
73
19
40
0
40
0
40
0
40
0
40
0.124777743871986
40
0.124777743871986
40
0.299822195097591
40
0.299822195097591
40
0.387344420710393
40
0.387344420710393
40
0.431105533516794
40
0.431105533516794
40
0.474866646323195
40
0.649911097548797
40
0.824955548774398
40
0.824955548774398
40
0.9124777743872
40
0.9562388871936
40
0.9562388871936
40
1
40
1
40
1
40
1
41
1
10
40.1821706120002
20
-2.04750819318838
30
0
41
1
10
40.1795644395367
20
-2.04755015009238
30
0
41
1
10
40.1769215586931
20
-2.04575532473061
30
0
41
1
10
40.1704847786287
20
-2.03707846487987
30
0
41
1
10
40.1666575997869
20
-2.02843834631551
30
0
41
1
10
40.1608285058328
20
-2.01002979431507
30
0
41
1
10
40.1588707808863
20
-2.00298376895398
30
0
41
1
10
40.1559137338471
20
-1.99102210008638
30
0
41
1
10
40.1549235624047
20
-1.98679733402904
30
0
41
1
10
40.1529475649196
20
-1.97792853687534
30
0
41
1
10
40.148012576015
20
-1.95468608229248
30
0
41
1
10
40.1391838714052
20
-1.90336488853399
30
0
41
1
10
40.1313985328398
20
-1.84457919032423
30
0
41
1
10
40.1255511787862
20
-1.79551544164312
30
0
41
1
10
40.1226262919691
20
-1.76973751934091
30
0
41
1
10
40.1197014678962
20
-1.7420606491726
30
0
41
1
10
40.1177516059107
20
-1.72318241424131
30
0
41
1
10
40.1167753183769
20
-1.71351564958491
30
0
41
1
10
40.1158038195489
20
-1.70368201001551
30
0
0
SPLINE
5
192
100
AcDbEntity
8
1
62
256
6
ByLayer
370
18
48
1
60
0
100
AcDbSpline
70
4
71
3
72
19
73
15
40
0
40
0
40
0
40
0
40
0.167109689466116
40
0.167109689466116
40
0.250664534199174
40
0.250664534199174
40
0.334219378932232
40
0.334219378932232
40
0.501329068398347
40
0.501329068398347
40
0.668438757864463
40
0.835548447330578
40
0.835548447330578
40
1
40
1
40
1
40
1
41
1
10
40.0541379316855
20
-1.66859266866723
30
0
41
1
10
40.0579604765072
20
-1.70920929320155
30
0
41
1
10
40.0617180488273
20
-1.74687957339646
30
0
41
1
10
40.067315096744
20
-1.79890786954186
30
0
41
1
10
40.0691749613503
20
-1.81550297798123
30
0
41
1
10
40.072903009526
20
-1.8471697726001
30
0
41
1
10
40.074775297727
20
-1.86226894329255
30
0
41
1
10
40.0803845427506
20
-1.90476763962255
30
0
41
1
10
40.0841428322978
20
-1.92953244215667
30
0
41
1
10
40.091728004267
20
-1.97212632040151
30
0
41
1
10
40.0993785831021
20
-2.00778291466509
30
0
41
1
10
40.1071639645371
20
-2.0295204880313
30
0
41
1
10
40.1149539799692
20
-2.04393089648721
30
0
41
1
10
40.1187888340916
20
-2.04746782859385
30
0
41
1
10
40.1225902142071
20
-2.04750732191621
30
0
0
SPLINE
5
193
100
AcDbEntity
8
1
62
256
6
ByLayer
370
18
48
1
60
0
100
AcDbSpline
70
4
71
3
72
28
73
24
40
0
40
0
40
0
40
0
40
0.0643776786545467
40
0.0643776786545467
40
0.09656651798182
40
0.09656651798182
40
0.128755357309093
40
0.257510714618185
40
0.386266071927276
40
0.386266071927276
40
0.450643750581822
40
0.482832589909095
40
0.482832589909095
40
0.515021429236368
40
0.515021429236368
40
0.643776786545459
40
0.772532143854551
40
0.901287501163643
40
0.901287501163643
40
0.933476340490916
40
0.933476340490916
40
0.96566517981819
40
1
40
1
40
1
40
1
41
1
10
39.2211350176066
20
1.42564901021521
30
0
41
1
10
39.2192235606555
20
1.4509021500277
30
0
41
1
10
39.2172909352513
20
1.475593201571
30
0
41
1
10
39.2143595294047
20
1.51176918017322
30
0
41
1
10
39.2133768018992
20
1.52369029554416
30
0
41
1
10
39.2114138641588
20
1.54710696891641
30
0
41
1
10
39.2065055058822
20
1.60466910391014
30
0
41
1
10
39.1976934138081
20
1.69960146391392
30
0
41
1
10
39.1899702596645
20
1.77193060766885
30
0
41
1
10
39.1842161768936
20
1.82161878614769
30
0
41
1
10
39.1813482211948
20
1.84532097598839
30
0
41
1
10
39.1784888922658
20
1.86728222192798
30
0
41
1
10
39.1765837151863
20
1.88153150650436
30
0
41
1
10
39.1756305240033
20
1.88846809273446
30
0
41
1
10
39.170890460218
20
1.92198174934973
30
0
41
1
10
39.1634435501052
20
1.96838338559462
30
0
41
1
10
39.1524209036091
20
2.01700663034586
30
0
41
1
10
39.1449482061216
20
2.03544392468021
30
0
41
1
10
39.1401563983769
20
2.04246129426522
30
0
41
1
10
39.1391904916564
20
2.04364002570591
30
0
41
1
10
39.1372531651267
20
2.04553217193305
30
0
41
1
10
39.1352444533607
20
2.04700868472028
30
0
41
1
10
39.1332220095932
20
2.04750802440472
30
0
41
1
10
39.1321755430253
20
2.04750776924124
30
0
0
SPLINE
5
194
100
AcDbEntity
8
1
62
256
6
ByLayer
370
18
48
1
60
0
100
AcDbSpline
70
4
71
3
72
89
73
85
40
0
40
0
40
0
40
0
40
0.0312499999999988
40
0.0312499999999988
40
0.0624999999999976
40
0.0624999999999976
40
0.124999999999999
40
0.124999999999999
40
0.187500000000001
40
0.187500000000001
40
0.203125000000001
40
0.203125000000001
40
0.218750000000001
40
0.218750000000001
40
0.250000000000002
40
0.250000000000002
40
0.281250000000003
40
0.281250000000003
40
0.296875000000004
40
0.296875000000004
40
0.312500000000004
40
0.312500000000004
40
0.34375
40
0.34375
40
0.359375000000001
40
0.359375000000001
40
0.375000000000001
40
0.375000000000001
40
0.406250000000006
40
0.406250000000006
40
0.421875000000009
40
0.421875000000009
40
0.437500000000012
40
0.437500000000012
40
0.468750000000017
40
0.468750000000017
40
0.500000000000022
40
0.500000000000022
40
0.515625000000023
40
0.515625000000023
40
0.531250000000024
40
0.531250000000024
40
0.546875000000025
40
0.546875000000025
40
0.554687500000025
40
0.554687500000025
40
0.562500000000025
40
0.570312500000026
40
0.570312500000026
40
0.578125000000026
40
0.578125000000026
40
0.585937500000027
40
0.585937500000027
40
0.593750000000027
40
0.593750000000027
40
0.609375000000028
40
0.609375000000028
40
0.617187500000027
40
0.617187500000027
40
0.625000000000027
40
0.625000000000027
40
0.640625000000025
40
0.640625000000025
40
0.656250000000024
40
0.656250000000024
40
0.68750000000002
40
0.68750000000002
40
0.718750000000017
40
0.718750000000017
40
0.734375000000016
40
0.734375000000016
40
0.750000000000016
40
0.750000000000016
40
0.781250000000012
40
0.781250000000012
40
0.812500000000009
40
0.812500000000009
40
0.875000000000005
40
0.875000000000005
40
0.937500000000001
40
0.937500000000001
40
0.96875
40
0.96875
40
1
40
1
40
1
40
1
41
1
10
26.4375377101216
20
-1.42530064943193
30
0
41
1
10
26.4011557613938
20
-1.41617789840345
30
0
41
1
10
26.3644926199443
20
-1.40641361090445
30
0
41
1
10
26.2902659370057
20
-1.3860158515219
30
0
41
1
10
26.2527446101721
20
-1.37535944957781
30
0
41
1
10
26.1387393470044
20
-1.34250646066303
30
0
41
1
10
26.0607983112312
20
-1.31942480380207
30
0
41
1
10
25.8997111731632
20
-1.27390248841994
30
0
41
1
10
25.8165647980914
20
-1.25146738827411
30
0
41
1
10
25.7085222218983
20
-1.22590660336979
30
0
41
1
10
25.6866754320477
20
-1.2209154524372
30
0
41
1
10
25.6426697608896
20
-1.21128068236305
30
0
41
1
10
25.6205722721413
20
-1.20665011107303
30
0
41
1
10
25.5539830851137
20
-1.19339869974178
30
0
41
1
10
25.5091967974445
20
-1.18541347540216
30
0
41
1
10
25.4187428086839
20
-1.17161462142207
30
0
41
1
10
25.3730834019952
20
-1.16577913219911
30
0
41
1
10
25.3038498094833
20
-1.15901440573438
30
0
41
1
10
25.280646992543
20
-1.15709295385008
30
0
41
1
10
25.2339604388118
20
-1.15401896799875
30
0
41
1
10
25.2103952176275
20
-1.15286499846726
30
0
41
1
10
25.1399783816001
20
-1.1506927594219
30
0
41
1
10
25.093398295109
20
-1.15092773251763
30
0
41
1
10
25.0241993055994
20
-1.15436668577496
30
0
41
1
10
25.0012493292126
20
-1.15604702535259
30
0
41
1
10
24.9556101364913
20
-1.16058220892529
30
0
41
1
10
24.9328666517295
20
-1.16318813023514
30
0
41
1
10
24.8648468733976
20
-1.1719099639306
30
0
41
1
10
24.8197835596517
20
-1.17893964237868
30
0
41
1
10
24.7525058906755
20
-1.19068686757436
30
0
41
1
10
24.730078823256
20
-1.19478382051756
30
0
41
1
10
24.6856842819354
20
-1.20343669950665
30
0
41
1
10
24.6637006807258
20
-1.20798185980746
30
0
41
1
10
24.5984437493624
20
-1.22228562945594
30
0
41
1
10
24.555858271793
20
-1.23271146042586
30
0
41
1
10
24.4729214448204
20
-1.25542788708177
30
0
41
1
10
24.4325638765191
20
-1.26771751837586
30
0
41
1
10
24.3741913156572
20
-1.28764704922671
30
0
41
1
10
24.3550916641834
20
-1.29454005611743
30
0
41
1
10
24.3177729905187
20
-1.30885101787575
30
0
41
1
10
24.2997787328968
20
-1.31618172516835
30
0
41
1
10
24.2652714720259
20
-1.33115050254281
30
0
41
1
10
24.2487344302803
20
-1.33880024427685
30
0
41
1
10
24.2252761602057
20
-1.35043432366766
30
0
41
1
10
24.2176585956256
20
-1.35430302275776
30
0
41
1
10
24.2032591853968
20
-1.36212875780961
30
0
41
1
10
24.1898490022208
20
-1.37008633101462
30
0
41
1
10
24.1786986709451
20
-1.37831182281963
30
0
41
1
10
24.1688474520861
20
-1.38666975309022
30
0
41
1
10
24.1646714846882
20
-1.39083409568849
30
0
41
1
10
24.1578812614119
20
-1.39905444116542
30
0
41
1
10
24.1552564109672
20
-1.40311931018923
30
0
41
1
10
24.1515369682575
20
-1.41113216931831
30
0
41
1
10
24.1504461169031
20
-1.41510590382558
30
0
41
1
10
24.1494337724428
20
-1.42651334267393
30
0
41
1
10
24.1515206158959
20
-1.43350906724424
30
0
41
1
10
24.1576277465919
20
-1.44316226975008
30
0
41
1
10
24.1601851471832
20
-1.44625108984559
30
0
41
1
10
24.1661253523888
20
-1.45208887139901
30
0
41
1
10
24.1695008312836
20
-1.45483756944989
30
0
41
1
10
24.1806441846294
20
-1.46262443192671
30
0
41
1
10
24.1894191605909
20
-1.46720585542937
30
0
41
1
10
24.2089626764339
20
-1.47533329208
30
0
41
1
10
24.2197438924875
20
-1.47887971536213
30
0
41
1
10
24.2544019239593
20
-1.48812560757358
30
0
41
1
10
24.2800557038615
20
-1.49233287012365
30
0
41
1
10
24.3344228856963
20
-1.49777706291059
30
0
41
1
10
24.3631714118801
20
-1.49899896082641
30
0
41
1
10
24.4078977653097
20
-1.49892329169356
30
0
41
1
10
24.423078767609
20
-1.4985775538519
30
0
41
1
10
24.4539047546988
20
-1.49727992951938
30
0
41
1
10
24.4695731248399
20
-1.49632580154548
30
0
41
1
10
24.5169187573587
20
-1.49261383252238
30
0
41
1
10
24.5489821243123
20
-1.489011564766
30
0
41
1
10
24.6137896493124
20
-1.47976408319192
30
0
41
1
10
24.6465357278332
20
-1.47411726685019
30
0
41
1
10
24.7454878827188
20
-1.4542816043128
30
0
41
1
10
24.8123877852123
20
-1.43721566329938
30
0
41
1
10
24.9471194757024
20
-1.3956661179669
30
0
41
1
10
25.0149595483513
20
-1.37117235929838
30
0
41
1
10
25.1171782000601
20
-1.32867876329934
30
0
41
1
10
25.1512858735099
20
-1.31356886324042
30
0
41
1
10
25.219310268435
20
-1.28155617211357
30
0
41
1
10
25.2532648310967
20
-1.26463762876665
30
0
41
1
10
25.2871746561383
20
-1.24680070273769
30
0
0
SPLINE
5
195
100
AcDbEntity
8
1
62
256
6
ByLayer
370
18
48
1
60
0
100
AcDbSpline
70
4
71
3
72
29
73
25
40
0
40
0
40
0
40
0
40
0.0425927004331691
40
0.0425927004331691
40
0.106419853737624
40
0.106419853737624
40
0.234074160346534
40
0.361728466955445
40
0.361728466955445
40
0.489382773564355
40
0.489382773564355
40
0.55320992686881
40
0.55320992686881
40
0.617037080173265
40
0.617037080173265
40
0.744691386782176
40
0.744691386782176
40
0.872345693391087
40
0.872345693391087
40
0.904259270043315
40
0.904259270043315
40
0.936172846695544
40
0.936172846695544
40
1
40
1
40
1
40
1
41
1
10
34.8727945575388
20
2.04750774852636
30
0
41
1
10
34.8740442696418
20
2.04750805411865
30
0
41
1
10
34.8752958702614
20
2.04710599328999
30
0
41
1
10
34.8784334556887
20
2.0450839543314
30
0
41
1
10
34.8803290551558
20
2.04294585767758
30
0
41
1
10
34.885999924448
20
2.03383799866441
30
0
41
1
10
34.8935530302502
20
2.01453943041727
30
0
41
1
10
34.9011885379776
20
1.98133546802947
30
0
41
1
10
34.9088750391871
20
1.94115675354743
30
0
41
1
10
34.9127433540086
20
1.91758095135574
30
0
41
1
10
34.9185824740325
20
1.87680156042862
30
0
41
1
10
34.9205233953988
20
1.86238204994277
30
0
41
1
10
34.9243787107444
20
1.83204083945748
30
0
41
1
10
34.9262956991371
20
1.81610089281631
30
0
41
1
10
34.9320182670695
20
1.76600694416464
30
0
41
1
10
34.9357936534157
20
1.72958460813308
30
0
41
1
10
34.9433167478259
20
1.65072353586157
30
0
41
1
10
34.9470661296268
20
1.6082851258881
30
0
41
1
10
34.9518026856172
20
1.55138159289626
30
0
41
1
10
34.9527523926535
20
1.53980762060522
30
0
41
1
10
34.9546578123853
20
1.51626872216454
30
0
41
1
10
34.9556134530782
20
1.50430409126366
30
0
41
1
10
34.9584740926018
20
1.46803392610104
30
0
41
1
10
34.9603784906777
20
1.44328376945816
30
0
41
1
10
34.9622831870149
20
1.4179747065341
30
0
0
SPLINE
5
196
100
AcDbEntity
8
1
62
256
6
ByLayer
370
18
48
1
60
0
100
AcDbSpline
70
4
71
3
72
27
73
23
40
0
40
0
40
0
40
0
40
0.124999999999999
40
0.249999999999997
40
0.249999999999997
40
0.281249999999997
40
0.281249999999997
40
0.312499999999996
40
0.312499999999996
40
0.374999999999996
40
0.374999999999996
40
0.499999999999996
40
0.624999999999997
40
0.624999999999997
40
0.687499999999997
40
0.687499999999997
40
0.718749999999997
40
0.718749999999997
40
0.749999999999997
40
0.874999999999999
40
0.874999999999999
40
1
40
1
40
1
40
1
41
1
10
35.0251397090918
20
1.37174988459017
30
0
41
1
10
35.0212107163533
20
1.42379656298993
30
0
41
1
10
35.0133600859297
20
1.52269953390609
30
0
41
1
10
35.0055641928278
20
1.61128667582022
30
0
41
1
10
35.0007073387155
20
1.66334575586711
30
0
41
1
10
34.9997366799719
20
1.67359175288405
30
0
41
1
10
34.9977964561802
20
1.6937482437792
30
0
41
1
10
34.9968269589652
20
1.70365739628951
30
0
41
1
10
34.9939364328496
20
1.73270753837747
30
0
41
1
10
34.99202768909
20
1.75123182172834
30
0
41
1
10
34.9863472834693
20
1.80432563670232
30
0
41
1
10
34.9788972793465
20
1.86851943016629
30
0
41
1
10
34.9715580965269
20
1.91970742589353
30
0
41
1
10
34.9660194825135
20
1.95313753998482
30
0
41
1
10
34.9641673047342
20
1.96345249452551
30
0
41
1
10
34.9613679195794
20
1.97765651017542
30
0
41
1
10
34.960430419828
20
1.98218285782144
30
0
41
1
10
34.9585567907507
20
1.9907601703421
30
0
41
1
10
34.953870076804
20
2.01104504965383
30
0
41
1
10
34.9491436854729
20
2.02562656395932
30
0
41
1
10
34.9413822740048
20
2.04183099109613
30
0
41
1
10
34.937375096652
20
2.04637001887596
30
0
41
1
10
34.9333252237999
20
2.04731984470166
30
0
0
SPLINE
5
197
100
AcDbEntity
8
1
62
256
6
ByLayer
370
18
48
1
60
0
100
AcDbSpline
70
4
71
3
72
89
73
85
40
0
40
0
40
0
40
0
40
0.0312499999999932
40
0.0312499999999932
40
0.0624999999999864
40
0.0624999999999864
40
0.124999999999977
40
0.124999999999977
40
0.187499999999967
40
0.187499999999967
40
0.203124999999964
40
0.203124999999964
40
0.218749999999962
40
0.218749999999962
40
0.249999999999957
40
0.249999999999957
40
0.281249999999952
40
0.281249999999952
40
0.29687499999995
40
0.29687499999995
40
0.312499999999947
40
0.312499999999947
40
0.343749999999947
40
0.343749999999947
40
0.359374999999947
40
0.359374999999947
40
0.374999999999947
40
0.374999999999947
40
0.406249999999951
40
0.406249999999951
40
0.421874999999953
40
0.421874999999953
40
0.437499999999955
40
0.437499999999955
40
0.46874999999996
40
0.46874999999996
40
0.499999999999964
40
0.499999999999964
40
0.515624999999966
40
0.515624999999966
40
0.531249999999968
40
0.531249999999968
40
0.54687499999997
40
0.54687499999997
40
0.554687499999971
40
0.554687499999971
40
0.562499999999972
40
0.570312499999974
40
0.570312499999974
40
0.578124999999975
40
0.578124999999975
40
0.585937499999976
40
0.585937499999976
40
0.593749999999977
40
0.593749999999977
40
0.609374999999979
40
0.609374999999979
40
0.617187499999981
40
0.617187499999981
40
0.624999999999982
40
0.624999999999982
40
0.640624999999984
40
0.640624999999984
40
0.656249999999985
40
0.656249999999985
40
0.687499999999988
40
0.687499999999988
40
0.718749999999991
40
0.718749999999991
40
0.734374999999991
40
0.734374999999991
40
0.749999999999991
40
0.749999999999991
40
0.781249999999991
40
0.781249999999991
40
0.81249999999999
40
0.81249999999999
40
0.874999999999994
40
0.874999999999994
40
0.937499999999997
40
0.937499999999997
40
0.968749999999998
40
0.968749999999998
40
1
40
1
40
1
40
1
41
1
10
26.4375377101216
20
1.11455438157736
30
0
41
1
10
26.4011557613938
20
1.13425749669875
30
0
41
1
10
26.3644926199442
20
1.15290471337016
30
0
41
1
10
26.2902659370057
20
1.18792982524232
30
0
41
1
10
26.2527446101721
20
1.20435437479415
30
0
41
1
10
26.1387393470044
20
1.25047162104843
30
0
41
1
10
26.0607983112312
20
1.27698116816251
30
0
41
1
10
25.8997111731632
20
1.32219676733737
30
0
41
1
10
25.8165647980914
20
1.34090759341595
30
0
41
1
10
25.7085222218983
20
1.35998963677187
30
0
41
1
10
25.6866754320477
20
1.36359340076115
30
0
41
1
10
25.6426697608896
20
1.37035504757154
30
0
41
1
10
25.6205722721413
20
1.37350424334923
30
0
41
1
10
25.5539830851137
20
1.38228962093024
30
0
41
1
10
25.5091967974445
20
1.38726824754161
30
0
41
1
10
25.4187428086839
20
1.39557345462012
30
0
41
1
10
25.3730834019952
20
1.39891391694584
30
0
41
1
10
25.3038498094833
20
1.40270952953165
30
0
41
1
10
25.2806469925431
20
1.40377045633028
30
0
41
1
10
25.2339604388118
20
1.40545553546977
30
0
41
1
10
25.2103952176275
20
1.40608062301266
30
0
41
1
10
25.1399783816001
20
1.40725490873822
30
0
41
1
10
25.093398295109
20
1.40713207086543
30
0
41
1
10
25.0241993055995
20
1.40526480500429
30
0
41
1
10
25.0012493292126
20
1.4043493298295
30
0
41
1
10
24.9556101364912
20
1.40183513977567
30
0
41
1
10
24.9328666517295
20
1.40037328663243
30
0
41
1
10
24.8648468733976
20
1.39538245246484
30
0
41
1
10
24.8197835596517
20
1.391241351682
30
0
41
1
10
24.7525058906755
20
1.38392934035832
30
0
41
1
10
24.7300788232561
20
1.38132177561295
30
0
41
1
10
24.6856842819355
20
1.37565788216688
30
0
41
1
10
24.6637006807258
20
1.37260823226688
30
0
41
1
10
24.5984437493625
20
1.36270728317615
30
0
41
1
10
24.5558582717931
20
1.35511558174352
30
0
41
1
10
24.4729214448205
20
1.33720312033324
30
0
41
1
10
24.4325638765191
20
1.32689448934872
30
0
41
1
10
24.3741913156573
20
1.30845490996106
30
0
41
1
10
24.3550916641835
20
1.30180729988842
30
0
41
1
10
24.3177729905187
20
1.28725745158761
30
0
41
1
10
24.2997787328969
20
1.27944290941466
30
0
41
1
10
24.265271472026
20
1.2625324281575
30
0
41
1
10
24.2487344302803
20
1.25342283338526
30
0
41
1
10
24.2252761602057
20
1.23863718517671
30
0
41
1
10
24.2176585956256
20
1.23356860558624
30
0
41
1
10
24.2032591853968
20
1.22296513197247
30
0
41
1
10
24.1898490022209
20
1.21183405861797
30
0
41
1
10
24.1786986709451
20
1.1994679866585
30
0
41
1
10
24.1688474520862
20
1.18637267604572
30
0
41
1
10
24.1646714846882
20
1.17958468323832
30
0
41
1
10
24.1578812614119
20
1.16559364659065
30
0
41
1
10
24.1552564109672
20
1.15837673279958
30
0
41
1
10
24.1515369682575
20
1.14348067905922
30
0
41
1
10
24.150446116903
20
1.13574579726125
30
0
41
1
10
24.1494337724427
20
1.11244383309346
30
0
41
1
10
24.1515206158959
20
1.09666189024054
30
0
41
1
10
24.1576277465919
20
1.07258104732219
30
0
41
1
10
24.1601851471832
20
1.06445309359802
30
0
41
1
10
24.1661253523888
20
1.04824714955157
30
0
41
1
10
24.1695008312835
20
1.04017517551418
30
0
41
1
10
24.1806441846294
20
1.0160149523202
30
0
41
1
10
24.1894191605908
20
0.999980537860722
30
0
41
1
10
24.2089626764339
20
0.967928574725704
30
0
41
1
10
24.2197438924874
20
0.951902779665062
30
0
41
1
10
24.2544019239591
20
0.903794647320069
30
0
41
1
10
24.2800557038615
20
0.872325095723056
30
0
41
1
10
24.3344228856962
20
0.809773311676793
30
0
41
1
10
24.36317141188
20
0.778705841654556
30
0
41
1
10
24.4078977653096
20
0.732117320864631
30
0
41
1
10
24.4230787676089
20
0.716591845171138
30
0
41
1
10
24.4539047546987
20
0.685515385382274
30
0
41
1
10
24.4695731248399
20
0.669943383061309
30
0
41
1
10
24.5169187573586
20
0.62338879508448
30
0
41
1
10
24.5489821243122
20
0.592515609138815
30
0
41
1
10
24.6137896493123
20
0.530857434577285
30
0
41
1
10
24.6465357278331
20
0.500073797270318
30
0
41
1
10
24.7454878827188
20
0.407615872862465
30
0
41
1
10
24.8123877852123
20
0.345820793336486
30
0
41
1
10
24.9471194757024
20
0.221126767406986
30
0
41
1
10
25.0149595483513
20
0.158232791437371
30
0
41
1
10
25.1171782000601
20
0.0627913707367611
30
0
41
1
10
25.15128587351
20
0.0308390974776103
30
0
41
1
10
25.219310268435
20
-0.0331026626511459
30
0
41
1
10
25.2532648310967
20
-0.0651275723845117
30
0
41
1
10
25.2871746561383
20
-0.0971926909334684
30
0
0
SPLINE
5
198
100
AcDbEntity
8
1
62
256
6
ByLayer
370
18
48
1
60
0
100
AcDbSpline
70
4
71
3
72
29
73
25
40
0
40
0
40
0
40
0
40
0.0625000000000002
40
0.0937500000000003
40
0.0937500000000003
40
0.125
40
0.125
40
0.25
40
0.25
40
0.375
40
0.375
40
0.499999999999999
40
0.499999999999999
40
0.531249999999999
40
0.531249999999999
40
0.562499999999999
40
0.624999999999999
40
0.624999999999999
40
0.75
40
0.875
40
0.875
40
0.9375
40
0.9375
40
1
40
1
40
1
40
1
41
1
10
35.2716328444546
20
-2.03928774071392
30
0
41
1
10
35.2697525913291
20
-2.03615218231388
30
0
41
1
10
35.2669292101174
20
-2.03009737126325
30
0
41
1
10
35.2640913633535
20
-2.02198226246901
30
0
41
1
10
35.2621950071059
20
-2.01610885843411
30
0
41
1
10
35.2612435791539
20
-2.0129364014214
30
0
41
1
10
35.2564984617282
20
-1.99599996450485
30
0
41
1
10
35.2527236211199
20
-1.9789771671461
30
0
41
1
10
35.2451360415919
20
-1.93820658752733
30
0
41
1
10
35.2413149361097
20
-1.91445843068152
30
0
41
1
10
35.233630680219
20
-1.86024043276424
30
0
41
1
10
35.2297718911952
20
-1.82977103627729
30
0
41
1
10
35.2249270651326
20
-1.7873506301224
30
0
41
1
10
35.2239555120986
20
-1.77863606574294
30
0
41
1
10
35.2220186399125
20
-1.76085048912412
30
0
41
1
10
35.2191219616309
20
-1.73363344320345
30
0
41
1
10
35.2162486256778
20
-1.70482001541862
30
0
41
1
10
35.2105237915725
20
-1.64510019797936
30
0
41
1
10
35.2029504346335
20
-1.55990303211684
30
0
41
1
10
35.1953598371696
20
-1.46367496169418
30
0
41
1
10
35.1895950209669
20
-1.38727806892621
30
0
41
1
10
35.1876569033547
20
-1.36106382133738
30
0
41
1
10
35.1837707508379
20
-1.30737948460526
30
0
41
1
10
35.1818335650514
20
-1.28005431582744
30
0
41
1
10
35.1799040011418
20
-1.25225628769789
30
0
0
SPLINE
5
199
100
AcDbEntity
8
1
62
256
6
ByLayer
370
18
48
1
60
0
100
AcDbSpline
70
4
71
3
72
23
73
19
40
0
40
0
40
0
40
0
40
0.124999999999999
40
0.249999999999999
40
0.249999999999999
40
0.312499999999998
40
0.312499999999998
40
0.374999999999998
40
0.374999999999998
40
0.499999999999998
40
0.624999999999998
40
0.624999999999998
40
0.687499999999998
40
0.687499999999998
40
0.749999999999998
40
0.749999999999998
40
0.874999999999999
40
1
40
1
40
1
40
1
41
1
10
35.1173655824308
20
-1.20209515946451
30
0
41
1
10
35.1211869181911
20
-1.25878936510071
30
0
41
1
10
35.1288524227921
20
-1.36762622970241
30
0
41
1
10
35.1365871887241
20
-1.46738257561037
30
0
41
1
10
35.142423392095
20
-1.53869288629627
30
0
41
1
10
35.1443775560876
20
-1.56190661692702
30
0
41
1
10
35.1482551800687
20
-1.6066280931752
30
0
41
1
10
35.1501838969743
20
-1.62820230515896
30
0
41
1
10
35.1559443784076
20
-1.69060633702293
30
0
41
1
10
35.1635558504426
20
-1.76764060097494
30
0
41
1
10
35.171094803992
20
-1.83246838794332
30
0
41
1
10
35.1767591653505
20
-1.87641650928879
30
0
41
1
10
35.1786492287885
20
-1.8902863080302
30
0
41
1
10
35.1824408293263
20
-1.91642688390149
30
0
41
1
10
35.1843258747523
20
-1.92858381344777
30
0
41
1
10
35.1899628637803
20
-1.96237460907176
30
0
41
1
10
35.1974300346765
20
-2.00029638887148
30
0
41
1
10
35.2049593234572
20
-2.02423586201576
30
0
41
1
10
35.2087820490475
20
-2.03267014906029
30
0
0
SPLINE
5
19A
100
AcDbEntity
8
1
62
256
6
ByLayer
370
18
48
1
60
0
100
AcDbSpline
70
4
71
3
72
20
73
16
40
0
40
0
40
0
40
0
40
0.0625
40
0.0625
40
0.125
40
0.125
40
0.25
40
0.25
40
0.5
40
0.5
40
0.625
40
0.625
40
0.75
40
0.75
40
1
40
1
40
1
40
1
41
1
10
41.7407646227446
20
-0.62438511787542
30
0
41
1
10
41.7415641324534
20
-0.603215477430268
30
0
41
1
10
41.7422207792348
20
-0.581915832525567
30
0
41
1
10
41.7433332696865
20
-0.539027460848814
30
0
41
1
10
41.7437874270616
20
-0.517455206324314
30
0
41
1
10
41.7449125534352
20
-0.452619841361582
30
0
41
1
10
41.7453524086588
20
-0.409135760800297
30
0
41
1
10
41.7460647489046
20
-0.27787073739907
30
0
41
1
10
41.7457333368144
20
-0.189282131934846
30
0
41
1
10
41.7446453141922
20
-0.0546730852803705
30
0
41
1
10
41.744179956758
20
-0.0095150764313132
30
0
41
1
10
41.7431237735945
20
0.0814102327406658
30
0
41
1
10
41.7425493746727
20
0.126609244064468
30
0
41
1
10
41.7406978971879
20
0.260980622101954
30
0
41
1
10
41.7392484573186
20
0.349147281850151
30
0
41
1
10
41.7374478382113
20
0.4359370613154
30
0
0
SPLINE
5
19B
100
AcDbEntity
8
1
62
256
6
ByLayer
370
18
48
1
60
0
100
AcDbSpline
70
4
71
3
72
26
73
22
40
0
40
0
40
0
40
0
40
0.125
40
0.250000000000001
40
0.250000000000001
40
0.281250000000001
40
0.281250000000001
40
0.312500000000002
40
0.312500000000002
40
0.375000000000002
40
0.375000000000002
40
0.500000000000002
40
0.625000000000002
40
0.625000000000002
40
0.687500000000002
40
0.687500000000002
40
0.750000000000002
40
0.750000000000002
40
0.875000000000001
40
0.875000000000001
40
1
40
1
40
1
40
1
41
1
10
39.4679012214782
20
-2.03138526991793
30
0
41
1
10
39.4641248800798
20
-2.0225779311449
30
0
41
1
10
39.4565755831504
20
-1.99786741123884
30
0
41
1
10
39.4488814630656
20
-1.95910031580968
30
0
41
1
10
39.4439905057897
20
-1.93037968455201
30
0
41
1
10
39.4430082615761
20
-1.92441042966385
30
0
41
1
10
39.441034989242
20
-1.91201684805569
30
0
41
1
10
39.4400425151069
20
-1.90558281340398
30
0
41
1
10
39.437062869447
20
-1.88566840584613
30
0
41
1
10
39.4350764075435
20
-1.87159270661056
30
0
41
1
10
39.4291421739091
20
-1.82701706978025
30
0
41
1
10
39.4213038666898
20
-1.76133236104297
30
0
41
1
10
39.4137005232877
20
-1.68336449761509
30
0
41
1
10
39.4080492652614
20
-1.62021872959807
30
0
41
1
10
39.4061733862797
20
-1.5983903346775
30
0
41
1
10
39.4024234485878
20
-1.55314443715673
30
0
41
1
10
39.4005471595433
20
-1.52969390675943
30
0
41
1
10
39.3949578906396
20
-1.45776333623331
30
0
41
1
10
39.3912644854362
20
-1.4074627315093
30
0
41
1
10
39.3837553315898
20
-1.30229990003224
30
0
41
1
10
39.3799102491575
20
-1.24743878000786
30
0
41
1
10
39.3760334420338
20
-1.1902846149147
30
0
0
SPLINE
5
19C
100
AcDbEntity
8
1
62
256
6
ByLayer
370
18
48
1
60
0
100
AcDbSpline
70
4
71
3
72
28
73
24
40
0
40
0
40
0
40
0
40
0.0624999999999993
40
0.0624999999999993
40
0.0937499999999988
40
0.0937499999999988
40
0.124999999999998
40
0.249999999999998
40
0.249999999999998
40
0.374999999999998
40
0.374999999999998
40
0.437499999999998
40
0.437499999999998
40
0.499999999999997
40
0.499999999999997
40
0.624999999999998
40
0.624999999999998
40
0.749999999999998
40
0.874999999999999
40
0.874999999999999
40
0.937499999999999
40
0.937499999999999
40
1
40
1
40
1
40
1
41
1
10
39.3136408084165
20
-1.13890047202406
30
0
41
1
10
39.3155247704809
20
-1.1681212739725
30
0
41
1
10
39.3173963126695
20
-1.19691452216938
30
0
41
1
10
39.3201996128775
20
-1.23944964700576
30
0
41
1
10
39.3211348104266
20
-1.25353924555122
30
0
41
1
10
39.3229988979068
20
-1.28137524440964
30
0
41
1
10
39.327640679827
20
-1.35010622928408
30
0
41
1
10
39.3322617864046
20
-1.41460695298917
30
0
41
1
10
39.3397966515377
20
-1.5125253930112
30
0
41
1
10
39.3436015255554
20
-1.55884436879526
30
0
41
1
10
39.3493360254088
20
-1.62433983676453
30
0
41
1
10
39.3512531702577
20
-1.6455064894777
30
0
41
1
10
39.35510615159
20
-1.68648919245413
30
0
41
1
10
39.3570450497659
20
-1.70633502522153
30
0
41
1
10
39.3628920464807
20
-1.76360334083498
30
0
41
1
10
39.3667970788434
20
-1.7983601655701
30
0
41
1
10
39.3745795589643
20
-1.86126488641008
30
0
41
1
10
39.3823323318719
20
-1.91755889360377
30
0
41
1
10
39.3900278914722
20
-1.96066910669867
30
0
41
1
10
39.3958085798708
20
-1.98791133758533
30
0
41
1
10
39.3977406279716
20
-1.99615008981516
30
0
41
1
10
39.4015727439682
20
-2.01073260347843
30
0
41
1
10
39.4034778033009
20
-2.01710294207138
30
0
41
1
10
39.4053766023813
20
-2.02256854818864
30
0
0
SPLINE
5
19D
100
AcDbEntity
8
1
62
256
6
ByLayer
370
18
48
1
60
0
100
AcDbSpline
70
4
71
3
72
16
73
12
40
0
40
0
40
0
40
0
40
0.25
40
0.25
40
0.499999999999999
40
0.499999999999999
40
0.624999999999999
40
0.624999999999999
40
0.75
40
0.75
40
1
40
1
40
1
40
1
41
1
10
34.1641035041229
20
-0.700431248640797
30
0
41
1
10
34.1710460794489
20
-0.764496298221246
30
0
41
1
10
34.1779399862671
20
-0.826289499999348
30
0
41
1
10
34.1916856288717
20
-0.945516001396072
30
0
41
1
10
34.1985365548223
20
-1.00294849916978
30
0
41
1
10
34.2088262065135
20
-1.0858127338534
30
0
41
1
10
34.2122584259941
20
-1.11288524025051
30
0
41
1
10
34.2191374509986
20
-1.16591177833308
30
0
41
1
10
34.2225873812656
20
-1.19188364561822
30
0
41
1
10
34.2328363216527
20
-1.26706937328385
30
0
41
1
10
34.2395809589441
20
-1.31392907969203
30
0
41
1
10
34.246290981088
20
-1.357622850577
30
0
0
SPLINE
5
19E
100
AcDbEntity
8
1
62
256
6
ByLayer
370
18
48
1
60
0
100
AcDbSpline
70
4
71
3
72
22
73
18
40
0
40
0
40
0
40
0
40
0.125000000000001
40
0.125000000000001
40
0.187500000000001
40
0.187500000000001
40
0.250000000000001
40
0.250000000000001
40
0.500000000000001
40
0.500000000000001
40
0.562500000000002
40
0.562500000000002
40
0.625000000000002
40
0.625000000000002
40
0.750000000000001
40
0.750000000000001
40
1
40
1
40
1
40
1
41
1
10
34.6158780205379
20
-1.73384009964386
30
0
41
1
10
34.6131830311778
20
-1.70716838301138
30
0
41
1
10
34.6104897199326
20
-1.67783142896877
30
0
41
1
10
34.6064351436513
20
-1.62971292290897
30
0
41
1
10
34.6050773782341
20
-1.61293748338815
30
0
41
1
10
34.6023768483102
20
-1.57829117721747
30
0
41
1
10
34.6010333506937
20
-1.56041602608701
30
0
41
1
10
34.5943387545281
20
-1.46832716294361
30
0
41
1
10
34.5890576747697
20
-1.38604966392066
30
0
41
1
10
34.5823581686394
20
-1.27241613813362
30
0
41
1
10
34.5810132908422
20
-1.24914538360377
30
0
41
1
10
34.5783086526958
20
-1.2014956675919
30
0
41
1
10
34.5769450235927
20
-1.17704562047015
30
0
41
1
10
34.5728590350605
20
-1.10262247162524
30
0
41
1
10
34.5701406380914
20
-1.05159902032986
30
0
41
1
10
34.5619717637424
20
-0.894426812387906
30
0
41
1
10
34.5565305623968
20
-0.784220092856373
30
0
41
1
10
34.5510310167578
20
-0.668440811383846
30
0
0
SPLINE
5
19F
100
AcDbEntity
8
1
62
256
6
ByLayer
370
18
48
1
60
0
100
AcDbSpline
70
4
71
3
72
8
73
4
40
0
40
0
40
0
40
0
40
1
40
1
40
1
40
1
41
1
10
41.6382405852199
20
-0.478346638897449
30
0
41
1
10
41.6463230978229
20
-0.525831516821285
30
0
41
1
10
41.6544661216438
20
-0.572015918305539
30
0
41
1
10
41.6626909127507
20
-0.616908425549838
30
0
0
SPLINE
5
1A0
100
AcDbEntity
8
1
62
256
6
ByLayer
370
13
48
1
60
0
100
AcDbSpline
70
4
71
3
72
9
73
5
40
0
40
0
40
0
40
0
40
0.593125763670785
40
1
40
1
40
1
40
1
41
1.04
10
41.6819578624084
20
-0.610832123854211
30
0
41
1.04
10
41.6654169938878
20
-0.384123455685198
30
0
41
1.04
10
41.6382507852513
20
0.0238230887245659
30
0
41
1.04
10
41.6116994834617
20
0.410896851722598
30
0
41
1.04
10
41.6010231857225
20
0.559145296954109
30
0
0
SPLINE
5
1A1
100
AcDbEntity
8
1
62
256
6
ByLayer
370
18
48
1
60
0
100
AcDbSpline
70
4
71
3
72
30
73
26
40
0
40
0
40
0
40
0
40
0.0625000000000003
40
0.0625000000000003
40
0.125000000000001
40
0.125000000000001
40
0.25
40
0.375
40
0.375
40
0.437499999999999
40
0.437499999999999
40
0.468749999999999
40
0.468749999999999
40
0.499999999999999
40
0.499999999999999
40
0.624999999999999
40
0.624999999999999
40
0.749999999999999
40
0.749999999999999
40
0.812499999999999
40
0.843749999999999
40
0.843749999999999
40
0.874999999999999
40
0.874999999999999
40
1
40
1
40
1
40
1
41
1
10
39.8072311057347
20
1.95096351471918
30
0
41
1
10
39.8091973821243
20
1.94024212704784
30
0
41
1
10
39.8111683361486
20
1.92857394667624
30
0
41
1
10
39.8150702586975
20
1.90363466453317
30
0
41
1
10
39.8170037778779
20
1.89035519695995
30
0
41
1
10
39.8227581662772
20
1.84813265162501
30
0
41
1
10
39.8303054307158
20
1.78549039900071
30
0
41
1
10
39.8377209563932
20
1.71033010084608
30
0
41
1
10
39.8433083281343
20
1.64918230443081
30
0
41
1
10
39.8451754069692
20
1.62800190914248
30
0
41
1
10
39.8479956909815
20
1.59500950483232
30
0
41
1
10
39.8489386932609
20
1.58381236952971
30
0
41
1
10
39.8508226022991
20
1.56114185214585
30
0
41
1
10
39.8517648701959
20
1.54965266682575
30
0
41
1
10
39.8564837899954
20
1.4914455627912
30
0
41
1
10
39.8603009024918
20
1.44245093773864
30
0
41
1
10
39.8680136179499
20
1.33971323829891
30
0
41
1
10
39.8718972883443
20
1.28596953454812
30
0
41
1
10
39.8777295045447
20
1.20175779138009
30
0
41
1
10
39.8806478316637
20
1.15875113791304
30
0
41
1
10
39.8835682889629
20
1.11437059605646
30
0
41
1
10
39.8855159942345
20
1.08447452774894
30
0
41
1
10
39.8864907257711
20
1.06936327650914
30
0
41
1
10
39.891338847929
20
0.993471972578874
30
0
41
1
10
39.8951558003704
20
0.93135518402562
30
0
41
1
10
39.8989422768436
20
0.86787950435729
30
0
0
SPLINE
5
1A2
100
AcDbEntity
8
1
62
256
6
ByLayer
370
18
48
1
60
0
100
AcDbSpline
70
4
71
3
72
24
73
20
40
0
40
0
40
0
40
0
40
0.125000000000001
40
0.250000000000001
40
0.250000000000001
40
0.312500000000002
40
0.312500000000002
40
0.375000000000002
40
0.375000000000002
40
0.500000000000003
40
0.625000000000004
40
0.750000000000005
40
0.750000000000005
40
0.781250000000005
40
0.781250000000005
40
0.812500000000005
40
0.875000000000003
40
0.875000000000003
40
1
40
1
40
1
40
1
41
1
10
39.9614066707233
20
0.810662829556406
30
0
41
1
10
39.9575155773154
20
0.875473704304227
30
0
41
1
10
39.9497978056489
20
1.00141037988203
30
0
41
1
10
39.9421197064362
20
1.12012633899911
30
0
41
1
10
39.9363490395434
20
1.20642543346591
30
0
41
1
10
39.9344235025947
20
1.23473460092288
30
0
41
1
10
39.9305638858072
20
1.29042236144215
30
0
41
1
10
39.9286242844727
20
1.31787613155555
30
0
41
1
10
39.9228419201807
20
1.39802677118448
30
0
41
1
10
39.915214509966
20
1.4992531290425
30
0
41
1
10
39.9038893784034
20
1.63466109261489
30
0
41
1
10
39.8963156753486
20
1.71395594550236
30
0
41
1
10
39.8915357351787
20
1.75996578867441
30
0
41
1
10
39.8905775181611
20
1.76898782886568
30
0
41
1
10
39.8886665820176
20
1.7865702835179
30
0
41
1
10
39.885804196955
20
1.81229256598348
30
0
41
1
10
39.8829490106896
20
1.8360830436477
30
0
41
1
10
39.877235522965
20
1.88112757463648
30
0
41
1
10
39.873426909592
20
1.9077820864195
30
0
41
1
10
39.8696314785764
20
1.93108475679117
30
0
0
SPLINE
5
1A3
100
AcDbEntity
8
1
62
256
6
ByLayer
370
18
48
1
60
0
100
AcDbSpline
70
4
71
3
72
27
73
23
40
0
40
0
40
0
40
0
40
0.124999999999998
40
0.124999999999998
40
0.187499999999998
40
0.218749999999998
40
0.218749999999998
40
0.249999999999997
40
0.249999999999997
40
0.374999999999997
40
0.499999999999997
40
0.499999999999997
40
0.624999999999997
40
0.624999999999997
40
0.656249999999997
40
0.656249999999997
40
0.687499999999997
40
0.749999999999998
40
0.749999999999998
40
0.874999999999999
40
0.874999999999999
40
1
40
1
40
1
40
1
41
1
10
35.6113347053864
20
1.92615552450243
30
0
41
1
10
35.615275904582
20
1.90243808725313
30
0
41
1
10
35.619193244463
20
1.87538311698668
30
0
41
1
10
35.6250306820986
20
1.82974547405129
30
0
41
1
10
35.6279401711138
20
1.80566040981455
30
0
41
1
10
35.6308391125619
20
1.77964369880593
30
0
41
1
10
35.632770036427
20
1.76186467158564
30
0
41
1
10
35.6337347550732
20
1.75275595142344
30
0
41
1
10
35.6385276598136
20
1.70639277434773
30
0
41
1
10
35.6460436680342
20
1.62656949369335
30
0
41
1
10
35.6533959203204
20
1.53580748470571
30
0
41
1
10
35.6607569794987
20
1.43957486960781
30
0
41
1
10
35.6644440074445
20
1.38872381925967
30
0
41
1
10
35.6691186141325
20
1.3216309533392
30
0
41
1
10
35.6700577032214
20
1.30802124409422
30
0
41
1
10
35.6719333719019
20
1.28059893370542
30
0
41
1
10
35.6747464871216
20
1.2391139133247
30
0
41
1
10
35.6775659043213
20
1.19658706168497
30
0
41
1
10
35.6832366272359
20
1.11016766298206
30
0
41
1
10
35.68705910326
20
1.05073725439644
30
0
41
1
10
35.6949374988472
20
0.928279775783409
30
0
41
1
10
35.6989808147534
20
0.865252399633022
30
0
41
1
10
35.7030292411191
20
0.80037904675217
30
0
0
SPLINE
5
1A4
100
AcDbEntity
8
1
62
256
6
ByLayer
370
18
48
1
60
0
100
AcDbSpline
70
4
71
3
72
27
73
23
40
0
40
0
40
0
40
0
40
0.125000000000001
40
0.125000000000001
40
0.1875
40
0.1875
40
0.25
40
0.25
40
0.375
40
0.5
40
0.5
40
0.5625
40
0.5625
40
0.625
40
0.625
40
0.75
40
0.75
40
0.875
40
0.875
40
0.9375
40
0.9375
40
1
40
1
40
1
40
1
41
1
10
35.7656394729827
20
0.742119607690114
30
0
41
1
10
35.7618251583608
20
0.807274445343097
30
0
41
1
10
35.7579757030301
20
0.871266314292257
30
0
41
1
10
35.7521313171069
20
0.965459172286103
30
0
41
1
10
35.7501673255465
20
0.996624308880399
30
0
41
1
10
35.7462605980536
20
1.05767298149229
30
0
41
1
10
35.7443136481722
20
1.08762659297719
30
0
41
1
10
35.738498542183
20
1.17580643877011
30
0
41
1
10
35.7308209438475
20
1.28890580781743
30
0
41
1
10
35.7231984057134
20
1.39316368975551
30
0
41
1
10
35.7174594742254
20
1.46797580248017
30
0
41
1
10
35.7155427679428
20
1.49234852851296
30
0
41
1
10
35.7116958998691
20
1.53993973273296
30
0
41
1
10
35.7097787029218
20
1.56300703484729
30
0
41
1
10
35.7040729566104
20
1.62981025609389
30
0
41
1
10
35.7003233368517
20
1.67126757157001
30
0
41
1
10
35.6928916870759
20
1.74815477826917
30
0
41
1
10
35.6892087849301
20
1.78358441354209
30
0
41
1
10
35.683654977223
20
1.83215990280425
30
0
41
1
10
35.6817983786455
20
1.8475887659865
30
0
41
1
10
35.6780570323837
20
1.87689410461286
30
0
41
1
10
35.6761666531486
20
1.89080702819362
30
0
41
1
10
35.6742697799623
20
1.90380817103937
30
0
0
SPLINE
5
1A5
100
AcDbEntity
8
1
62
256
6
ByLayer
370
18
48
1
60
0
100
AcDbSpline
70
4
71
3
72
8
73
4
40
0
40
0
40
0
40
0
40
1
40
1
40
1
40
1
41
1
10
41.6382405852199
20
-0.478346638897449
30
0
41
1
10
41.6370740942147
20
-0.523773783494676
30
0
41
1
10
41.6361309380192
20
-0.568619354111235
30
0
41
1
10
41.6354113977473
20
-0.612877919232886
30
0
0
SPLINE
5
1A6
100
AcDbEntity
8
1
62
256
6
ByLayer
370
18
48
1
60
0
100
AcDbSpline
70
4
71
3
72
21
73
17
40
0
40
0
40
0
40
0
40
0.250000000000004
40
0.250000000000004
40
0.312500000000005
40
0.312500000000005
40
0.375000000000005
40
0.375000000000005
40
0.500000000000004
40
0.500000000000004
40
0.750000000000001
40
0.750000000000001
40
0.812500000000001
40
0.812500000000001
40
0.875
40
1
40
1
40
1
40
1
41
1
10
41.6382405852209
20
-0.478346638898927
30
0
41
1
10
41.6314074262681
20
-0.390387299725717
30
0
41
1
10
41.6250868930817
20
-0.300438491273383
30
0
41
1
10
41.6175509069558
20
-0.185541132576816
30
0
41
1
10
41.6160614492897
20
-0.162437827124478
30
0
41
1
10
41.6131089261126
20
-0.11598099592473
30
0
41
1
10
41.6116528471364
20
-0.0927371195165279
30
0
41
1
10
41.607344117565
20
-0.0232173354225154
30
0
41
1
10
41.6045442514924
20
0.0229567460431213
30
0
41
1
10
41.5962134540456
20
0.160970079274279
30
0
41
1
10
41.590709544788
20
0.252303680174151
30
0
41
1
10
41.5840369713274
20
0.365607912460405
30
0
41
1
10
41.5827104798229
20
0.388269599365941
30
0
41
1
10
41.5800961328545
20
0.433266706060209
30
0
41
1
10
41.5762355882449
20
0.500215458925624
30
0
41
1
10
41.5725691707438
20
0.565538424009446
30
0
41
1
10
41.5702163201334
20
0.608360807399606
30
0
0
SPLINE
5
1A7
100
AcDbEntity
8
1
62
256
6
ByLayer
370
18
48
1
60
0
100
AcDbSpline
70
4
71
3
72
22
73
18
40
0
40
0
40
0
40
0
40
0.125
40
0.25
40
0.25
40
0.312500000000001
40
0.312500000000001
40
0.375000000000001
40
0.375000000000001
40
0.500000000000002
40
0.625000000000002
40
0.625000000000002
40
0.687500000000002
40
0.687500000000002
40
0.750000000000001
40
0.750000000000001
40
1
40
1
40
1
40
1
41
1
10
41.1623672112168
20
1.01004509860581
30
0
41
1
10
41.1667652202525
20
0.96005492082179
30
0
41
1
10
41.1753967441164
20
0.857137266864953
30
0
41
1
10
41.1837880733921
20
0.748435972536498
30
0
41
1
10
41.1900141574088
20
0.664702151556838
30
0
41
1
10
41.1920782243898
20
0.636422184762381
30
0
41
1
10
41.196192496139
20
0.57911482771749
30
0
41
1
10
41.1982359137873
20
0.550180267015747
30
0
41
1
10
41.2042936272685
20
0.463159543193285
30
0
41
1
10
41.2122091420451
20
0.346067221285239
30
0
41
1
10
41.2199424109912
20
0.226906495551674
30
0
41
1
10
41.2257147777247
20
0.13675565528095
30
0
41
1
10
41.2276341537433
20
0.106575046807478
30
0
41
1
10
41.2314682013054
20
0.0459489533960209
30
0
41
1
10
41.2333864966007
20
0.0154456119581994
30
0
41
1
10
41.2429327823272
20
-0.137084022621764
30
0
41
1
10
41.2503488048541
20
-0.257396852947778
30
0
41
1
10
41.2574596026408
20
-0.376020291028084
30
0
0
SPLINE
5
1A8
100
AcDbEntity
8
1
62
256
6
ByLayer
370
18
48
1
60
0
100
AcDbSpline
70
4
71
3
72
26
73
22
40
0
40
0
40
0
40
0
40
0.124999999999999
40
0.124999999999999
40
0.249999999999997
40
0.249999999999997
40
0.312499999999997
40
0.343749999999997
40
0.343749999999997
40
0.374999999999996
40
0.374999999999996
40
0.499999999999996
40
0.624999999999996
40
0.749999999999996
40
0.749999999999996
40
0.781249999999996
40
0.781249999999996
40
0.812499999999996
40
0.874999999999997
40
0.874999999999997
40
1
40
1
40
1
40
1
41
1
10
38.5729713252599
20
-0.460437693118706
30
0
41
1
10
38.5767845927712
20
-0.529237495463946
30
0
41
1
10
38.5805373814577
20
-0.596768292307019
30
0
41
1
10
38.5880400438115
20
-0.729344156646334
30
0
41
1
10
38.5918021633125
20
-0.79438851821061
30
0
41
1
10
38.5975021333379
20
-0.89007207855721
30
0
41
1
10
38.6003644753778
20
-0.937442294343214
30
0
41
1
10
38.6032487895805
20
-0.984093448997697
30
0
41
1
10
38.6051770093287
20
-1.01503248416
30
0
41
1
10
38.6061448139545
20
-1.03043706896844
30
0
41
1
10
38.610971425477
20
-1.10662709766112
30
0
41
1
10
38.6186497972355
20
-1.22379249000574
30
0
41
1
10
38.630131119221
20
-1.38576886275626
30
0
41
1
10
38.6378360402207
20
-1.48457291520174
30
0
41
1
10
38.6426939236883
20
-1.54336381781667
30
0
41
1
10
38.6436689992653
20
-1.55498939723159
30
0
41
1
10
38.6456143821469
20
-1.57782668650813
30
0
41
1
10
38.6485269242639
20
-1.61148302220172
30
0
41
1
10
38.6514258677246
20
-1.64336221285757
30
0
41
1
10
38.6572125036327
20
-1.70478985418575
30
0
41
1
10
38.6610557905938
20
-1.74263997328424
30
0
41
1
10
38.6648973552139
20
-1.77741609937078
30
0
0
SPLINE
5
1A9
100
AcDbEntity
8
1
62
256
6
ByLayer
370
18
48
1
60
0
100
AcDbSpline
70
4
71
3
72
31
73
27
40
0
40
0
40
0
40
0
40
0.124999999999999
40
0.124999999999999
40
0.156249999999999
40
0.156249999999999
40
0.187499999999999
40
0.187499999999999
40
0.249999999999999
40
0.249999999999999
40
0.374999999999998
40
0.499999999999997
40
0.499999999999997
40
0.562499999999997
40
0.562499999999997
40
0.593749999999997
40
0.593749999999997
40
0.624999999999997
40
0.749999999999997
40
0.874999999999998
40
0.874999999999998
40
0.937499999999999
40
0.937499999999999
40
0.968749999999999
40
0.968749999999999
40
1
40
1
40
1
40
1
41
1
10
40.5474947052768
20
1.60371257095852
30
0
41
1
10
40.5513345638122
20
1.56014132860244
30
0
41
1
10
40.5551746368249
20
1.51369915214911
30
0
41
1
10
40.5599970346596
20
1.45197032769468
30
0
41
1
10
40.5609626564738
20
1.43944029079844
30
0
41
1
10
40.5628968452382
20
1.41400755706894
30
0
41
1
10
40.5638664816724
20
1.40109007114864
30
0
41
1
10
40.5667647922749
20
1.36199023086073
30
0
41
1
10
40.5686871774463
20
1.33540566429141
30
0
41
1
10
40.5744334601016
20
1.25412941035529
30
0
41
1
10
40.5820396875499
20
1.14170882831533
30
0
41
1
10
40.5896212445456
20
1.02131785141313
30
0
41
1
10
40.5953247290423
20
0.92799038596317
30
0
41
1
10
40.5972287051209
20
0.896374536851624
30
0
41
1
10
40.6000913318276
20
0.848175597345488
30
0
41
1
10
40.6010480014429
20
0.831956697981155
30
0
41
1
10
40.6029544366041
20
0.799418313862589
30
0
41
1
10
40.6077061512233
20
0.717781080182334
30
0
41
1
10
40.6161345921601
20
0.568253909782953
30
0
41
1
10
40.6236381184924
20
0.431771631712763
30
0
41
1
10
40.6293811522932
20
0.328068553908508
30
0
41
1
10
40.631317857778
20
0.293277038915818
30
0
41
1
10
40.6342539513651
20
0.240748743895836
30
0
41
1
10
40.6352374412353
20
0.223182425086549
30
0
41
1
10
40.6372124835167
20
0.187934702772395
30
0
41
1
10
40.6382054817411
20
0.170227524810542
30
0
41
1
10
40.6391978468912
20
0.152533807088105
30
0
0
SPLINE
5
1AA
100
AcDbEntity
8
1
62
256
6
ByLayer
370
18
48
1
60
0
100
AcDbSpline
70
4
71
3
72
28
73
24
40
0
40
0
40
0
40
0
40
0.0625000000000004
40
0.0625000000000004
40
0.125000000000001
40
0.125000000000001
40
0.250000000000001
40
0.250000000000001
40
0.375000000000001
40
0.375000000000001
40
0.437500000000001
40
0.437500000000001
40
0.500000000000001
40
0.500000000000001
40
0.625000000000001
40
0.625000000000001
40
0.75
40
0.75
40
0.8125
40
0.8125
40
0.875
40
0.875
40
1
40
1
40
1
40
1
41
1
10
38.7272473484827
20
-1.80767126970394
30
0
41
1
10
38.7253411170856
20
-1.79106741731286
30
0
41
1
10
38.7234207394374
20
-1.77355756160921
30
0
41
1
10
38.7195854436564
20
-1.73718490370356
30
0
41
1
10
38.7176667924628
20
-1.71828174580429
30
0
41
1
10
38.7119208191679
20
-1.65945936000986
30
0
41
1
10
38.7081075764205
20
-1.61743252947471
30
0
41
1
10
38.7004909277044
20
-1.52782017249729
30
0
41
1
10
38.6966861415561
20
-1.48023472408534
30
0
41
1
10
38.6908670430037
20
-1.40460785695046
30
0
41
1
10
38.6889118142645
20
-1.3786893075235
30
0
41
1
10
38.6849859276892
20
-1.32540052221088
30
0
41
1
10
38.6830319992518
20
-1.29825574121668
30
0
41
1
10
38.677215574518
20
-1.21539570846937
30
0
41
1
10
38.6734014282877
20
-1.15823904214147
30
0
41
1
10
38.6658894947074
20
-1.04016947193762
30
0
41
1
10
38.6621900834524
20
-0.979256479465192
30
0
41
1
10
38.6566046374509
20
-0.885043429550649
30
0
41
1
10
38.6547367396512
20
-0.85316424748973
30
0
41
1
10
38.6509727435101
20
-0.788440180048383
30
0
41
1
10
38.6490714462424
20
-0.755504276123304
30
0
41
1
10
38.643365977945
20
-0.656243076974818
30
0
41
1
10
38.6395476275206
20
-0.589285558082082
30
0
41
1
10
38.6356951726392
20
-0.521568586707389
30
0
0
SPLINE
5
1AB
100
AcDbEntity
8
1
62
256
6
ByLayer
370
18
48
1
60
0
100
AcDbSpline
70
4
71
3
72
26
73
22
40
0
40
0
40
0
40
0
40
0.125
40
0.125
40
0.1875
40
0.1875
40
0.25
40
0.25
40
0.375
40
0.375
40
0.5
40
0.5
40
0.625
40
0.625
40
0.65625
40
0.65625
40
0.6875
40
0.75
40
0.75
40
0.875
40
1
40
1
40
1
40
1
41
1
10
37.8324497279342
20
0.278217970936169
30
0
41
1
10
37.836314685912
20
0.208842984709349
30
0
41
1
10
37.8401533642533
20
0.139036391328403
30
0
41
1
10
37.8458910121242
20
0.0336729945771026
30
0
41
1
10
37.8478004296871
20
-0.0015572522855791
30
0
41
1
10
37.8516202048046
20
-0.0722394267057496
30
0
41
1
10
37.8535358494862
20
-0.107790020852718
30
0
41
1
10
37.8592427288431
20
-0.21371204641153
30
0
41
1
10
37.8630017914026
20
-0.283530544677234
30
0
41
1
10
37.8705569399069
20
-0.421615015748699
30
0
41
1
10
37.8743702005907
20
-0.489879970686758
30
0
41
1
10
37.8820830277385
20
-0.624851524237812
30
0
41
1
10
37.8859743910621
20
-0.691558714051013
30
0
41
1
10
37.8908668941265
20
-0.773936637650621
30
0
41
1
10
37.8918464527504
20
-0.790354507344745
30
0
41
1
10
37.8937969346679
20
-0.822897789319342
30
0
41
1
10
37.8967140017375
20
-0.871345756596128
30
0
41
1
10
37.8996051120529
20
-0.918705445729302
30
0
41
1
10
37.9053561960409
20
-1.01199565367642
30
0
41
1
10
37.9129386833067
20
-1.13257881461041
30
0
41
1
10
37.9204534944351
20
-1.24560000830047
30
0
41
1
10
37.9242519655183
20
-1.30016955701438
30
0
0
SPLINE
5
1AC
100
AcDbEntity
8
1
62
256
6
ByLayer
370
18
48
1
60
0
100
AcDbSpline
70
4
71
3
72
25
73
21
40
0
40
0
40
0
40
0
40
0.125
40
0.125
40
0.25
40
0.25
40
0.3125
40
0.34375
40
0.34375
40
0.375
40
0.375
40
0.5
40
0.625
40
0.75
40
0.75
40
0.8125
40
0.8125
40
0.875
40
0.875
40
1
40
1
40
1
40
1
41
1
10
36.3517776791978
20
1.55423874865471
30
0
41
1
10
36.3556187648113
20
1.50830255453653
30
0
41
1
10
36.3594430869792
20
1.45991698638346
30
0
41
1
10
36.3670747406683
20
1.35836700168088
30
0
41
1
10
36.3708799026445
20
1.30520227401263
30
0
41
1
10
36.3765859300407
20
1.22184571467227
30
0
41
1
10
36.3794387612431
20
1.17926332680929
30
0
41
1
10
36.3822979398258
20
1.13530382634121
30
0
41
1
10
36.3842071453185
20
1.10568797241737
30
0
41
1
10
36.3851647128547
20
1.09070297457669
30
0
41
1
10
36.3899432973624
20
1.01532741407297
30
0
41
1
10
36.3975334407505
20
0.891879199255158
30
0
41
1
10
36.4089596357096
20
0.698456361916413
30
0
41
1
10
36.4166711397652
20
0.564021698635514
30
0
41
1
10
36.4225023082964
20
0.46107659788376
30
0
41
1
10
36.4244558297468
20
0.426371266127887
30
0
41
1
10
36.4283347266496
20
0.357053299135259
30
0
41
1
10
36.4302656333109
20
0.322343301340368
30
0
41
1
10
36.4360354512733
20
0.218063014142388
30
0
41
1
10
36.4398509115462
20
0.148342785744518
30
0
41
1
10
36.4436466252815
20
0.078425225470113
30
0
0
SPLINE
5
1AD
100
AcDbEntity
8
1
62
256
6
ByLayer
370
18
48
1
60
0
100
AcDbSpline
70
4
71
3
72
26
73
22
40
0
40
0
40
0
40
0
40
0.0625000000000002
40
0.0625000000000002
40
0.125000000000001
40
0.125000000000001
40
0.250000000000001
40
0.375000000000001
40
0.375000000000001
40
0.437500000000002
40
0.437500000000002
40
0.500000000000002
40
0.500000000000002
40
0.625000000000002
40
0.750000000000002
40
0.750000000000002
40
0.812500000000002
40
0.812500000000002
40
0.875000000000001
40
0.875000000000001
40
1
40
1
40
1
40
1
41
1
10
36.5061458147101
20
0.0156857087669096
30
0
41
1
10
36.5041647470713
20
0.0510373035668295
30
0
41
1
10
36.5021708892045
20
0.0865298299863468
30
0
41
1
10
36.4982131715506
20
0.156951752657335
30
0
41
1
10
36.4962434652238
20
0.19198538541778
30
0
41
1
10
36.4903671584223
20
0.296563531028596
30
0
41
1
10
36.4826231235059
20
0.434609914067977
30
0
41
1
10
36.4750284414598
20
0.569899571342972
30
0
41
1
10
36.4693340161065
20
0.670307306550313
30
0
41
1
10
36.4674331900275
20
0.703643243465791
30
0
41
1
10
36.4636274824274
20
0.769764723738149
30
0
41
1
10
36.461733942457
20
0.802352873077609
30
0
41
1
10
36.4560552106241
20
0.898728565929076
30
0
41
1
10
36.4484820457697
20
1.02353313928754
30
0
41
1
10
36.4408998458211
20
1.14108329963469
30
0
41
1
10
36.435191908698
20
1.22649003458403
30
0
41
1
10
36.4332855453718
20
1.2544987340512
30
0
41
1
10
36.4294603307903
20
1.30957845459338
30
0
41
1
10
36.4275375884787
20
1.33670027114553
30
0
41
1
10
36.4218055644268
20
1.41574736657864
30
0
41
1
10
36.4180143120235
20
1.46563236446872
30
0
41
1
10
36.4142250630912
20
1.51278083652213
30
0
0
SPLINE
5
1AE
100
AcDbEntity
8
1
62
256
6
ByLayer
370
18
48
1
60
0
100
AcDbSpline
70
4
71
3
72
39
73
35
40
0
40
0
40
0
40
0
40
0.0312499999999996
40
0.0312499999999996
40
0.0624999999999992
40
0.124999999999999
40
0.124999999999999
40
0.156249999999999
40
0.156249999999999
40
0.187499999999999
40
0.187499999999999
40
0.249999999999998
40
0.249999999999998
40
0.281249999999998
40
0.281249999999998
40
0.312499999999998
40
0.312499999999998
40
0.374999999999998
40
0.374999999999998
40
0.499999999999998
40
0.499999999999998
40
0.749999999999998
40
0.749999999999998
40
0.781249999999998
40
0.781249999999998
40
0.812499999999999
40
0.812499999999999
40
0.874999999999999
40
0.874999999999999
40
0.906249999999999
40
0.906249999999999
40
0.937499999999999
40
0.937499999999999
40
1
40
1
40
1
40
1
41
1
10
42.2
20
1.13368061711694
30
0
41
1
10
42.2
20
1.11827428208662
30
0
41
1
10
42.2
20
1.10293861296762
30
0
41
1
10
42.2
20
1.07274404392973
30
0
41
1
10
42.2
20
1.02801912869842
30
0
41
1
10
42.2
20
0.984951629684559
30
0
41
1
10
42.2
20
0.942998210433643
30
0
41
1
10
42.2
20
0.929199284428591
30
0
41
1
10
42.2
20
0.901980773699847
30
0
41
1
10
42.2
20
0.888507619072044
30
0
41
1
10
42.2
20
0.849162855979358
30
0
41
1
10
42.2
20
0.824339501229531
30
0
41
1
10
42.2000000000001
20
0.78908055353665
30
0
41
1
10
42.2
20
0.777667366157374
30
0
41
1
10
42.2
20
0.755579889880124
30
0
41
1
10
42.2
20
0.744901784222378
30
0
41
1
10
42.2
20
0.712922127497478
30
0
41
1
10
42.2
20
0.691626965289714
30
0
41
1
10
42.2
20
0.628019505119198
30
0
41
1
10
42.2
20
0.585902322833704
30
0
41
1
10
42.2
20
0.460412492619355
30
0
41
1
10
42.2
20
0.377860974469968
30
0
41
1
10
42.2
20
0.286414619219357
30
0
41
1
10
42.2
20
0.276274104695659
30
0
41
1
10
42.2
20
0.256032636841013
30
0
41
1
10
42.2
20
0.245839844531417
30
0
41
1
10
42.2
20
0.216426107034664
30
0
41
1
10
42.2
20
0.198255641420957
30
0
41
1
10
42.2
20
0.173098064001039
30
0
41
1
10
42.2000000000001
20
0.165063135943228
30
0
41
1
10
42.2000000000001
20
0.149722170071215
30
0
41
1
10
42.2
20
0.142401059397315
30
0
41
1
10
42.2
20
0.121812642388164
30
0
41
1
10
42.2
20
0.10983301600416
30
0
41
1
10
42.2
20
0.0995452382669839
30
0
0
SPLINE
5
1AF
100
AcDbEntity
8
1
62
256
6
ByLayer
370
18
48
1
60
0
100
AcDbSpline
70
4
71
3
72
18
73
14
40
0
40
0
40
0
40
0
40
0.124999999999988
40
0.124999999999988
40
0.187499999999982
40
0.187499999999982
40
0.249999999999976
40
0.249999999999976
40
0.499999999999984
40
0.499999999999984
40
0.749999999999992
40
0.749999999999992
40
1
40
1
40
1
40
1
41
1
10
41.6494891903185
20
1.67121666739422
30
0
41
1
10
41.6729243985828
20
1.64998629840804
30
0
41
1
10
41.6965170548906
20
1.62834781330426
30
0
41
1
10
41.7322004140137
20
1.5952533922777
30
0
41
1
10
41.7441693922417
20
1.58408210664061
30
0
41
1
10
41.7680819703561
20
1.56170144331898
30
0
41
1
10
41.7800044653422
20
1.55051934313468
30
0
41
1
10
41.8393704291622
20
1.49472452214354
30
0
41
1
10
41.8861806619383
20
1.45032191294359
30
0
41
1
10
41.9785197783354
20
1.36111622233975
30
0
41
1
10
42.0240376247633
20
1.31633240639826
30
0
41
1
10
42.1134199043566
20
1.22584865035637
30
0
41
1
10
42.1572975656667
20
1.18014492730541
30
0
41
1
10
42.2000000000001
20
1.13368061711685
30
0
0
SPLINE
5
1B0
100
AcDbEntity
8
1
62
256
6
ByLayer
370
18
48
1
60
0
100
AcDbSpline
70
4
71
3
72
8
73
4
40
0
40
0
40
0
40
0
40
1
40
1
40
1
40
1
41
1
10
41.6494891903185
20
1.67121666739419
30
0
41
1
10
41.6399361266086
20
1.654400678576
30
0
41
1
10
41.6303631942566
20
1.63746622004638
30
0
41
1
10
41.6207676918422
20
1.62041217317639
30
0
0
SPLINE
5
1B1
100
AcDbEntity
8
1
62
256
6
ByLayer
370
18
48
1
60
0
100
AcDbSpline
70
4
71
3
72
26
73
22
40
0
40
0
40
0
40
0
40
0.125000000000086
40
0.125000000000086
40
0.250000000000173
40
0.250000000000173
40
0.375000000000259
40
0.375000000000259
40
0.437500000000245
40
0.437500000000245
40
0.500000000000232
40
0.500000000000232
40
0.625000000000204
40
0.625000000000204
40
0.687500000000191
40
0.687500000000191
40
0.750000000000177
40
0.750000000000177
40
0.875000000000089
40
0.875000000000089
40
1
40
1
40
1
40
1
41
1
10
41.6207676918422
20
1.62041217317642
30
0
41
1
10
41.6157930366459
20
1.6115707390108
30
0
41
1
10
41.6100241218005
20
1.60369412618078
30
0
41
1
10
41.5972406971448
20
1.58943815722671
30
0
41
1
10
41.5901616638244
20
1.58303597059773
30
0
41
1
10
41.5752867864095
20
1.57198481953515
30
0
41
1
10
41.5674570482166
20
1.56728443846538
30
0
41
1
10
41.5551464361209
20
1.56145432742918
30
0
41
1
10
41.5509405321791
20
1.55971634102437
30
0
41
1
10
41.5424836100839
20
1.55672009670442
30
0
41
1
10
41.5382154435488
20
1.55545268744413
30
0
41
1
10
41.5252965246939
20
1.55235621435458
30
0
41
1
10
41.5165332831009
20
1.55121878842442
30
0
41
1
10
41.5031519876052
20
1.55116360991664
30
0
41
1
10
41.4986355199399
20
1.55142892478847
30
0
41
1
10
41.4897334094719
20
1.5525740158283
30
0
41
1
10
41.4853244894718
20
1.55345127261322
30
0
41
1
10
41.4722472908531
20
1.55710358665283
30
0
41
1
10
41.4636285382373
20
1.56096089199212
30
0
41
1
10
41.448018079021
20
1.57182387603387
30
0
41
1
10
41.4408519675973
20
1.57896340571654
30
0
41
1
10
41.4351702717444
20
1.58776017218517
30
0
0
SPLINE
5
1B2
100
AcDbEntity
8
1
62
256
6
ByLayer
370
18
48
1
60
0
100
AcDbSpline
70
4
71
3
72
8
73
4
40
0
40
0
40
0
40
0
40
1
40
1
40
1
40
1
41
1
10
41.4351702717419
20
1.58776017218875
30
0
41
1
10
41.3994988325066
20
1.64298898568273
30
0
41
1
10
41.3639717136099
20
1.6968252175829
30
0
41
1
10
41.3286598517506
20
1.74907518619065
30
0
0
SPLINE
5
1B3
100
AcDbEntity
8
1
62
256
6
ByLayer
370
18
48
1
60
0
100
AcDbSpline
70
4
71
3
72
11
73
7
40
0
40
0
40
0
40
0
40
0.5
40
0.75
40
0.75
40
1
40
1
40
1
40
1
41
1
10
41.3286598517506
20
1.74907518619065
30
0
41
1
10
41.2832375443748
20
1.75564663196658
30
0
41
1
10
41.2153947589475
20
1.76329576263947
30
0
41
1
10
41.1478238047029
20
1.76754384357326
30
0
41
1
10
41.1028204580147
20
1.76960938911495
30
0
41
1
10
41.0803339832974
20
1.77025768113953
30
0
41
1
10
41.0579846380443
20
1.77051750533982
30
0
0
SPLINE
5
1B4
100
AcDbEntity
8
1
62
256
6
ByLayer
370
18
48
1
60
0
100
AcDbSpline
70
4
71
3
72
8
73
4
40
0
40
0
40
0
40
0
40
1
40
1
40
1
40
1
41
1
10
34.615878020538
20
-1.73384009964388
30
0
41
1
10
34.4952014616947
20
-1.61664289388196
30
0
41
1
10
34.3728094627436
20
-1.49083782360415
30
0
41
1
10
34.2462909810881
20
-1.35762285057703
30
0
0
SPLINE
5
1B5
100
AcDbEntity
8
1
62
256
6
ByLayer
370
18
48
1
60
0
100
AcDbSpline
70
4
71
3
72
12
73
8
40
0
40
0
40
0
40
0
40
0.250000000000012
40
0.250000000000012
40
0.500000000000023
40
0.500000000000023
40
1
40
1
40
1
40
1
41
1
10
34.0273316097986
20
-1.12483855078278
30
0
41
1
10
34.0085738545209
20
-1.10477511815387
30
0
41
1
10
33.9892265187263
20
-1.08565307474996
30
0
41
1
10
33.9493971785867
20
-1.04926107317868
30
0
41
1
10
33.9289290383271
20
-1.03198347705774
30
0
41
1
10
33.8661206011734
20
-0.982767469824637
30
0
41
1
10
33.8224004944207
20
-0.953410089247683
30
0
41
1
10
33.7773316098004
20
-0.927396984736987
30
0
0
SPLINE
5
1B6
100
AcDbEntity
8
1
62
256
6
ByLayer
370
18
48
1
60
0
100
AcDbSpline
70
4
71
3
72
68
73
64
40
0
40
0
40
0
40
0
40
0.0378737650814226
40
0.0378737650814226
40
0.0757475301628453
40
0.0757475301628453
40
0.113621295244268
40
0.113621295244268
40
0.15149506032569
40
0.15149506032569
40
0.189368825407113
40
0.189368825407113
40
0.208305707947824
40
0.208305707947824
40
0.227242590488536
40
0.227242590488536
40
0.265116355569958
40
0.265116355569958
40
0.302990120651381
40
0.302990120651381
40
0.340863885732804
40
0.340863885732804
40
0.378737650814226
40
0.378737650814226
40
0.397674533354938
40
0.397674533354938
40
0.416611415895649
40
0.416611415895649
40
0.454485180977072
40
0.454485180977072
40
0.492358946058494
40
0.492358946058494
40
0.530232711139917
40
0.530232711139917
40
0.568106476221339
40
0.568106476221339
40
0.587043358762049
40
0.587043358762049
40
0.60598024130276
40
0.60598024130276
40
0.6817277714656
40
0.6817277714656
40
0.71960153654702
40
0.71960153654702
40
0.757475301628439
40
0.757475301628439
40
0.776412184169148
40
0.776412184169148
40
0.795349066709858
40
0.795349066709858
40
0.833222831791277
40
0.833222831791277
40
0.871096596872697
40
0.871096596872697
40
0.908970361954116
40
0.908970361954116
40
0.946844127035535
40
0.946844127035535
40
0.965781009576245
40
0.965781009576245
40
0.984717892116954
40
0.984717892116954
40
1
40
1
40
1
40
1
41
1
10
33.7773316097986
20
-0.927396984739829
30
0
41
1
10
33.7001500635067
20
-0.882848919108795
30
0
41
1
10
33.6233743032649
20
-0.836596841242965
30
0
41
1
10
33.4704760170296
20
-0.740926648153192
30
0
41
1
10
33.3943099371712
20
-0.691557387830329
30
0
41
1
10
33.242103161034
20
-0.590320523254945
30
0
41
1
10
33.1660039467756
20
-0.538529154997065
30
0
41
1
10
33.0137109813822
20
-0.432742806964882
30
0
41
1
10
32.9375485088738
20
-0.378703888916249
30
0
41
1
10
32.7847575465721
20
-0.268871784835682
30
0
41
1
10
32.7081252244492
20
-0.21308333712156
30
0
41
1
10
32.5924520275305
20
-0.128567462339873
30
0
41
1
10
32.5538760393343
20
-0.100322326134886
30
0
41
1
10
32.4770107882355
20
-0.0439569381591411
30
0
41
1
10
32.438670426476
20
-0.0157979475096397
30
0
41
1
10
32.3238862103766
20
0.0685563637639461
30
0
41
1
10
32.2476998798606
20
0.124657179135823
30
0
41
1
10
32.0954986727075
20
0.235905865022289
30
0
41
1
10
32.0194213379754
20
0.290969692052329
30
0
41
1
10
31.8671539092089
20
0.399768174683089
30
0
41
1
10
31.7910031686373
20
0.453554510541295
30
0
41
1
10
31.6382618305858
20
0.559343551068707
30
0
41
1
10
31.5616935018506
20
0.611375011614882
30
0
41
1
10
31.4461570407845
20
0.687602761728357
30
0
41
1
10
31.4075276752036
20
0.712682797548894
30
0
41
1
10
31.330592155353
20
0.76183367106421
30
0
41
1
10
31.2922282245547
20
0.785970246242812
30
0
41
1
10
31.1773822692571
20
0.857000399426852
30
0
41
1
10
31.101137323853
20
0.902503888914083
30
0
41
1
10
30.9488978627378
20
0.9894299139211
30
0
41
1
10
30.8728871377792
20
1.03083341794058
30
0
41
1
10
30.7206098780709
20
1.10907743379681
30
0
41
1
10
30.6444402303391
20
1.14601581614943
30
0
41
1
10
30.4917984127474
20
1.21523378420159
30
0
41
1
10
30.4152896537708
20
1.24747771002242
30
0
41
1
10
30.2998797148599
20
1.29192598541084
30
0
41
1
10
30.2612497007941
20
1.30610838731474
30
0
41
1
10
30.1842593990558
20
1.33292795996127
30
0
41
1
10
30.1458447699258
20
1.34558937472869
30
0
41
1
10
29.9542537263442
20
1.40525677295218
30
0
41
1
10
29.8023670069213
20
1.44121978155764
30
0
41
1
10
29.5740948069288
20
1.47676061738832
30
0
41
1
10
29.4979203390265
20
1.48554868713774
30
0
41
1
10
29.3453300275563
20
1.49692187406643
30
0
41
1
10
29.2688737690099
20
1.49949090592113
30
0
41
1
10
29.1535751241254
20
1.49853751291769
30
0
41
1
10
29.114963648264
20
1.49741494703611
30
0
41
1
10
29.0379031003558
20
1.49357435755638
30
0
41
1
10
28.9994634521833
20
1.49086126326938
30
0
41
1
10
28.8843922164241
20
1.48038282732412
30
0
41
1
10
28.8080596173956
20
1.47026622766612
30
0
41
1
10
28.6557145982879
20
1.44395934818579
30
0
41
1
10
28.5797029987125
20
1.42776857999337
30
0
41
1
10
28.4275545047969
20
1.38953549803691
30
0
41
1
10
28.3513870671372
20
1.36751772153804
30
0
41
1
10
28.1988356491787
20
1.31764923334782
30
0
41
1
10
28.1224239117026
20
1.28980480969764
30
0
41
1
10
28.0072365255823
20
1.24382145791734
30
0
41
1
10
27.96870271715
20
1.22777383366383
30
0
41
1
10
27.8915650904652
20
1.19438845400762
30
0
41
1
10
27.8530906457533
20
1.17710357152728
30
0
41
1
10
27.7837334271186
20
1.14481754981418
30
0
41
1
10
27.7528181906711
20
1.13001967082917
30
0
41
1
10
27.7219506971499
20
1.11485592710474
30
0
0
SPLINE
5
1B7
100
AcDbEntity
8
1
62
256
6
ByLayer
370
18
48
1
60
0
100
AcDbSpline
70
4
71
3
72
97
73
93
40
0
40
0
40
0
40
0
40
0.015972925695006
40
0.015972925695006
40
0.0335448377361629
40
0.0335448377361629
40
0.0511167497773198
40
0.0511167497773198
40
0.0862605738596336
40
0.0862605738596336
40
0.103832485900791
40
0.103832485900791
40
0.121404397941948
40
0.121404397941948
40
0.156548222024263
40
0.156548222024263
40
0.191692046106579
40
0.191692046106579
40
0.209263958147736
40
0.209263958147736
40
0.226835870188893
40
0.24440778223005
40
0.24440778223005
40
0.253193738250628
40
0.253193738250628
40
0.261979694271206
40
0.279551606312365
40
0.279551606312365
40
0.297123518353524
40
0.297123518353524
40
0.332267342435842
40
0.332267342435842
40
0.349839254477001
40
0.349839254477001
40
0.367411166518161
40
0.367411166518161
40
0.40255499060048
40
0.40255499060048
40
0.41134094662106
40
0.41134094662106
40
0.42012690264164
40
0.42012690264164
40
0.437698814682801
40
0.437698814682801
40
0.472842638765122
40
0.472842638765122
40
0.507986462847443
40
0.507986462847443
40
0.525558374888604
40
0.525558374888604
40
0.543130286929765
40
0.543130286929765
40
0.560702198970925
40
0.560702198970925
40
0.578274111012086
40
0.578274111012086
40
0.595846023053246
40
0.595846023053246
40
0.613417935094407
40
0.613417935094407
40
0.648561759176726
40
0.648561759176726
40
0.683705583259045
40
0.683705583259045
40
0.701277495300206
40
0.701277495300206
40
0.710063451320787
40
0.710063451320787
40
0.718849407341368
40
0.718849407341368
40
0.753993231423695
40
0.753993231423695
40
0.789137055506021
40
0.789137055506021
40
0.806708967547185
40
0.806708967547185
40
0.824280879588348
40
0.824280879588348
40
0.859424703670674
40
0.859424703670674
40
0.868210659691257
40
0.868210659691257
40
0.876996615711839
40
0.876996615711839
40
0.894568527753005
40
0.91214043979417
40
0.91214043979417
40
0.929712351835336
40
0.929712351835336
40
0.964856175917668
40
0.964856175917668
40
1
40
1
40
1
40
1
41
1
10
26.2253321113335
20
1.49894988437637
30
0
41
1
10
26.265670498006
20
1.49893639654664
30
0
41
1
10
26.3061419365118
20
1.49805251081722
30
0
41
1
10
26.3913570556882
20
1.49434926150141
30
0
41
1
10
26.436012332859
20
1.49134336919806
30
0
41
1
10
26.5250194330731
20
1.48320973521777
30
0
41
1
10
26.5694425727659
20
1.47808114925286
30
0
41
1
10
26.7026944755699
20
1.45955711050223
30
0
41
1
10
26.791484358795
20
1.44301842819999
30
0
41
1
10
26.9251548146541
20
1.41211850360415
30
0
41
1
10
26.9698367772658
20
1.40078665757852
30
0
41
1
10
27.0588328723354
20
1.37625229389695
30
0
41
1
10
27.103205745896
20
1.36303870021041
30
0
41
1
10
27.2359491405157
20
1.32058697185835
30
0
41
1
10
27.3238453179893
20
1.288451247355
30
0
41
1
10
27.4999350236965
20
1.21766524684742
30
0
41
1
10
27.588049918865
20
1.1789968367203
30
0
41
1
10
27.7201379016065
20
1.11591402062905
30
0
41
1
10
27.7641419668889
20
1.09402301714726
30
0
41
1
10
27.8523066507215
20
1.04868604586741
30
0
41
1
10
27.9406462929113
20
1.00181590671335
30
0
41
1
10
28.0294341880539
20
0.951953669858426
30
0
41
1
10
28.0962422863584
20
0.913471046515866
30
0
41
1
10
28.1185707049675
20
0.900448596935291
30
0
41
1
10
28.1631419598638
20
0.874141550423019
30
0
41
1
10
28.2298978753495
20
0.834271747887556
30
0
41
1
10
28.2963740984088
20
0.7932099912409
30
0
41
1
10
28.3847707415918
20
0.737421060138786
30
0
41
1
10
28.4288388227377
20
0.708992237715194
30
0
41
1
10
28.5609467878426
20
0.62247109533368
30
0
41
1
10
28.6489797961966
20
0.563262288061054
30
0
41
1
10
28.7810768209117
20
0.472330683365442
30
0
41
1
10
28.8251106518691
20
0.441657925044439
30
0
41
1
10
28.913181794403
20
0.379581864402979
30
0
41
1
10
28.9572102356839
20
0.348166065283493
30
0
41
1
10
29.0894668076358
20
0.253027761828463
30
0
41
1
10
29.1779255652453
20
0.188493101159452
30
0
41
1
10
29.2894364803617
20
0.107215487487594
30
0
41
1
10
29.3117760826231
20
0.090924480832058
30
0
41
1
10
29.3563399681925
20
0.0583983283547127
30
0
41
1
10
29.3785882654662
20
0.0421456623795109
30
0
41
1
10
29.4452215386476
20
-0.006597405215274
30
0
41
1
10
29.4894847315873
20
-0.0390870652063597
30
0
41
1
10
29.6219720249368
20
-0.136296275125545
30
0
41
1
10
29.7099579372213
20
-0.200666083164606
30
0
41
1
10
29.8859648053583
20
-0.32758245495657
30
0
41
1
10
29.9739490596362
20
-0.390182091184471
30
0
41
1
10
30.1060592762259
20
-0.482567443764424
30
0
41
1
10
30.150104206634
20
-0.513128362467484
30
0
41
1
10
30.2382729574412
20
-0.573691493131719
30
0
41
1
10
30.2824803059507
20
-0.603584552573807
30
0
41
1
10
30.3712491110436
20
-0.662454411656796
30
0
41
1
10
30.4157670908817
20
-0.691487461836289
30
0
41
1
10
30.5050696985875
20
-0.748743192579013
30
0
41
1
10
30.5495885543052
20
-0.776777316196615
30
0
41
1
10
30.6383546551864
20
-0.83160714337177
30
0
41
1
10
30.682609061701
20
-0.85840795175082
30
0
41
1
10
30.7708659956968
20
-0.910781869215157
30
0
41
1
10
30.8148656982413
20
-0.936355668364087
30
0
41
1
10
30.9468329875777
20
-1.01086336634682
30
0
41
1
10
31.0348323193696
20
-1.05753447156096
30
0
41
1
10
31.2109116346839
20
-1.14492616762794
30
0
41
1
10
31.298991108598
20
-1.1856440494758
30
0
41
1
10
31.4313253478337
20
-1.24199563942213
30
0
41
1
10
31.4755214572694
20
-1.25994847740935
30
0
41
1
10
31.5421165000511
20
-1.28549381518877
30
0
41
1
10
31.5643570291402
20
-1.2937847357328
30
0
41
1
10
31.6089145451161
20
-1.30992260465842
30
0
41
1
10
31.6312540037299
20
-1.31777714889478
30
0
41
1
10
31.7428263313463
20
-1.35585095576792
30
0
41
1
10
31.8314294543448
20
-1.38241747495738
30
0
41
1
10
32.0079260142501
20
-1.42757895592291
30
0
41
1
10
32.095802679651
20
-1.44616860502674
30
0
41
1
10
32.2278449859809
20
-1.46786894872773
30
0
41
1
10
32.2718750185259
20
-1.4740833513543
30
0
41
1
10
32.359936098164
20
-1.48448179132336
30
0
41
1
10
32.4039481063929
20
-1.48866829056439
30
0
41
1
10
32.5360701228434
20
-1.49812243500003
30
0
41
1
10
32.6243196270864
20
-1.50027151922683
30
0
41
1
10
32.7353677171816
20
-1.49764031777732
30
0
41
1
10
32.757613516763
20
-1.49684865022695
30
0
41
1
10
32.8021826781525
20
-1.49473170215995
30
0
41
1
10
32.8245213256482
20
-1.4934049249197
30
0
41
1
10
32.8914077839544
20
-1.48863879265315
30
0
41
1
10
32.9803874942947
20
-1.48018662401901
30
0
41
1
10
33.0689778116071
20
-1.46758900760338
30
0
41
1
10
33.1573536637917
20
-1.45290938835402
30
0
41
1
10
33.2014297770694
20
-1.44452229716694
30
0
41
1
10
33.3337866262845
20
-1.41639062210078
30
0
41
1
10
33.4222918163241
20
-1.39375275782288
30
0
41
1
10
33.5995226678808
20
-1.34062410111417
30
0
41
1
10
33.6881518616596
20
-1.31003992970406
30
0
41
1
10
33.7773316097986
20
-1.27565943854987
30
0
0
SPLINE
5
1B8
100
AcDbEntity
8
1
62
256
6
ByLayer
370
18
48
1
60
0
100
AcDbSpline
70
4
71
3
72
10
73
6
40
0
40
0
40
0
40
0
40
0.5
40
0.5
40
1
40
1
40
1
40
1
41
1
10
40.3057782249371
20
1.36702492244615
30
0
41
1
10
40.3467331014846
20
1.4127903034516
30
0
41
1
10
40.387375648746
20
1.45542709985796
30
0
41
1
10
40.4679959335659
20
1.53439539729425
30
0
41
1
10
40.5079115242886
20
1.57066241006365
30
0
41
1
10
40.5474947052768
20
1.60371257095849
30
0
0
SPLINE
5
1B9
100
AcDbEntity
8
1
62
256
6
ByLayer
370
18
48
1
60
0
100
AcDbSpline
70
4
71
3
72
8
73
4
40
0
40
0
40
0
40
0
40
1
40
1
40
1
40
1
41
1
10
40.5636434322568
20
1.59361735046642
30
0
41
1
10
40.5582593207502
20
1.59699975703668
30
0
41
1
10
40.5528764098275
20
1.60036482140447
30
0
41
1
10
40.5474947052768
20
1.60371257095852
30
0
0
SPLINE
5
1BA
100
AcDbEntity
8
1
62
256
6
ByLayer
370
18
48
1
60
0
100
AcDbSpline
70
4
71
3
72
10
73
6
40
0
40
0
40
0
40
0
40
0.5
40
0.5
40
1
40
1
40
1
40
1
41
1
10
41.162367211217
20
1.01004509860581
30
0
41
1
10
41.2297771858003
20
0.94307868962315
30
0
41
1
10
41.2973385255405
20
0.875983506509129
30
0
41
1
10
41.433048709848
20
0.741847083600049
30
0
41
1
10
41.5012136286239
20
0.674819891273359
30
0
41
1
10
41.5702163201337
20
0.608360807399549
30
0
0
SPLINE
5
1BB
100
AcDbEntity
8
1
62
256
6
ByLayer
370
18
48
1
60
0
100
AcDbSpline
70
4
71
3
72
8
73
4
40
0
40
0
40
0
40
0
40
1
40
1
40
1
40
1
41
1
10
41.5702163201334
20
0.608360807399578
30
0
41
1
10
41.5804559518814
20
0.591800380171009
30
0
41
1
10
41.5907239818911
20
0.575394499644631
30
0
41
1
10
41.601023185722
20
0.559145296960423
30
0
0
SPLINE
5
1BC
100
AcDbEntity
8
1
62
256
6
ByLayer
370
18
48
1
60
0
100
AcDbSpline
70
4
71
3
72
22
73
18
40
0
40
0
40
0
40
0
40
0.125
40
0.125
40
0.249999999999999
40
0.249999999999999
40
0.374999999999999
40
0.374999999999999
40
0.499999999999999
40
0.499999999999999
40
0.624999999999999
40
0.624999999999999
40
0.749999999999999
40
0.749999999999999
40
0.875
40
0.875
40
1
40
1
40
1
40
1
41
1
10
41.601023185722
20
0.559145296960423
30
0
41
1
10
41.6047539225727
20
0.553259259531217
30
0
41
1
10
41.6089345391701
20
0.54738797798683
30
0
41
1
10
41.618016932083
20
0.535677590635487
30
0
41
1
10
41.6229212330774
20
0.529838398098036
30
0
41
1
10
41.6333858347591
20
0.518189464482816
30
0
41
1
10
41.6388851780589
20
0.512451520991249
30
0
41
1
10
41.65018553437
20
0.501299820089116
30
0
41
1
10
41.6560138868483
20
0.495856270054503
30
0
41
1
10
41.6680043589597
20
0.485213190283247
30
0
41
1
10
41.6742084932032
20
0.479980714933902
30
0
41
1
10
41.6867366117874
20
0.469931037168067
30
0
41
1
10
41.6930356635168
20
0.465129671299934
30
0
41
1
10
41.7056903356452
20
0.455964448688206
30
0
41
1
10
41.7120460074244
20
0.451600290975705
30
0
41
1
10
41.7248052515897
20
0.443341624228623
30
0
41
1
10
41.7312257365991
20
0.439441681041188
30
0
41
1
10
41.7374478382109
20
0.435937061314832
30
0
0
SPLINE
5
1BD
100
AcDbEntity
8
1
62
256
6
ByLayer
370
18
48
1
60
0
100
AcDbSpline
70
4
71
3
72
22
73
18
40
0
40
0
40
0
40
0
40
0.125000000000009
40
0.125000000000009
40
0.250000000000018
40
0.250000000000018
40
0.375000000000027
40
0.375000000000027
40
0.500000000000036
40
0.500000000000036
40
0.750000000000053
40
0.750000000000053
40
0.875000000000044
40
0.875000000000044
40
0.937500000000022
40
0.937500000000022
40
1
40
1
40
1
40
1
41
1
10
42.2
20
0.0995452382669839
30
0
41
1
10
42.1787915824719
20
0.103453137592368
30
0
41
1
10
42.1578745327432
20
0.109145111381366
30
0
41
1
10
42.1164919329388
20
0.123558878265953
30
0
41
1
10
42.0960275977527
20
0.132290950681295
30
0
41
1
10
42.055439767243
20
0.152476143409047
30
0
41
1
10
42.0353069335412
20
0.163932525447109
30
0
41
1
10
41.9953184563704
20
0.189344213218618
30
0
41
1
10
41.975727879815
20
0.203129379955214
30
0
41
1
10
41.9179198241484
20
0.247338321705428
30
0
41
1
10
41.8806606410714
20
0.280604426155804
30
0
41
1
10
41.826033824066
20
0.335375917609269
30
0
41
1
10
41.8080378713794
20
0.354450584716261
30
0
41
1
10
41.7813064418167
20
0.384246797969581
30
0
41
1
10
41.7724263918124
20
0.394403908154118
30
0
41
1
10
41.754848863014
20
0.415016265798613
30
0
41
1
10
41.7461397751468
20
0.425451120332781
30
0
41
1
10
41.737447838211
20
0.435937061315457
30
0
0
SPLINE
5
1BE
100
AcDbEntity
8
1
62
256
6
ByLayer
370
18
48
1
60
0
100
AcDbSpline
70
4
71
3
72
8
73
4
40
0
40
0
40
0
40
0
40
1
40
1
40
1
40
1
41
1
10
36.4436466252721
20
0.0784252254679529
30
0
41
1
10
36.4644770330332
20
0.0575239967976984
30
0
41
1
10
36.4853085876041
20
0.0366093214308307
30
0
41
1
10
36.5061458147101
20
0.0156857087669096
30
0
0
SPLINE
5
1BF
100
AcDbEntity
8
1
62
256
6
ByLayer
370
18
48
1
60
0
100
AcDbSpline
70
4
71
3
72
8
73
4
40
0
40
0
40
0
40
0
40
1
40
1
40
1
40
1
41
1
10
35.7030292411192
20
0.800379046752198
30
0
41
1
10
35.7238958951816
20
0.781084101550931
30
0
41
1
10
35.7447642102975
20
0.761662692362449
30
0
41
1
10
35.7656394729827
20
0.742119607690199
30
0
0
SPLINE
5
1C0
100
AcDbEntity
8
1
62
256
6
ByLayer
370
18
48
1
60
0
100
AcDbSpline
70
4
71
3
72
10
73
6
40
0
40
0
40
0
40
0
40
0.5
40
0.5
40
1
40
1
40
1
40
1
41
1
10
34.4322407754233
20
1.56639593689613
30
0
41
1
10
34.3661709027065
20
1.56673107693624
30
0
41
1
10
34.2996210855036
20
1.56188158358472
30
0
41
1
10
34.1648873586185
20
1.54177421583108
30
0
41
1
10
34.0967076517035
20
1.52652017603464
30
0
41
1
10
34.0273316097966
20
1.5059092818077
30
0
0
SPLINE
5
1C1
100
AcDbEntity
8
1
62
256
6
ByLayer
370
18
48
1
60
0
100
AcDbSpline
70
4
71
3
72
12
73
8
40
0
40
0
40
0
40
0
40
0.25
40
0.25
40
0.5
40
0.5
40
1
40
1
40
1
40
1
41
1
10
34.0273316097986
20
1.50590928180827
30
0
41
1
10
34.0085738545211
20
1.50033654950286
30
0
41
1
10
33.9892265187246
20
1.49561241286409
30
0
41
1
10
33.9493971785853
20
1.48789571408676
30
0
41
1
10
33.9289290383258
20
1.48491856453256
30
0
41
1
10
33.8661206011726
20
1.47892262285566
30
0
41
1
10
33.8224004944203
20
1.47881157123783
30
0
41
1
10
33.7773316098004
20
1.48354625129539
30
0
0
SPLINE
5
1C2
100
AcDbEntity
8
1
62
256
6
ByLayer
370
18
48
1
60
0
100
AcDbSpline
70
4
71
3
72
24
73
20
40
0
40
0
40
0
40
0
40
0.128279162943062
40
0.128279162943062
40
0.256558325886125
40
0.256558325886125
40
0.384837488829187
40
0.384837488829187
40
0.513116651772249
40
0.513116651772249
40
0.641395814715312
40
0.641395814715312
40
0.705535396186847
40
0.705535396186847
40
0.769674977658382
40
0.769674977658382
40
0.897954140601452
40
0.897954140601452
40
1
40
1
40
1
40
1
41
1
10
33.7773316097986
20
1.48354625130094
30
0
41
1
10
33.7001500635067
20
1.49165450450343
30
0
41
1
10
33.6233743032649
20
1.49653351959381
30
0
41
1
10
33.4704760170295
20
1.49996870754384
30
0
41
1
10
33.3943099371712
20
1.49851510804314
30
0
41
1
10
33.2421031610341
20
1.48936762043147
30
0
41
1
10
33.1660039467756
20
1.48168877311574
30
0
41
1
10
33.0137109813822
20
1.46016918265298
30
0
41
1
10
32.9375485088739
20
1.44631192103918
30
0
41
1
10
32.7847575465722
20
1.41243895650899
30
0
41
1
10
32.7081252244492
20
1.39242356234098
30
0
41
1
10
32.5924520275305
20
1.3578613119202
30
0
41
1
10
32.5538760393343
20
1.34560972675726
30
0
41
1
10
32.4770107882355
20
1.31977901180468
30
0
41
1
10
32.438670426476
20
1.30618405662224
30
0
41
1
10
32.3238862103766
20
1.26340644434128
30
0
41
1
10
32.2476998798607
20
1.23221317433749
30
0
41
1
10
32.1110613735214
20
1.17179773714361
30
0
41
1
10
32.0505381956928
20
1.14351398050795
30
0
41
1
10
31.9899896473209
20
1.11375739961304
30
0
0
SPLINE
5
1C3
100
AcDbEntity
8
1
62
256
6
ByLayer
370
18
48
1
60
0
100
AcDbSpline
70
4
71
3
72
14
73
10
40
0
40
0
40
0
40
0
40
0.282382861381684
40
0.282382861381684
40
0.461787146036257
40
0.461787146036257
40
0.641191430690832
40
0.641191430690832
40
1
40
1
40
1
40
1
41
1
10
27.0798188687821
20
-1.49894984828129
30
0
41
1
10
27.0197574334942
20
-1.49895619890509
30
0
41
1
10
26.9595937663637
20
-1.49701125397945
30
0
41
1
10
26.8608556681597
20
-1.49058908692191
30
0
41
1
10
26.8224083351565
20
-1.48729426122301
30
0
41
1
10
26.7452705035684
20
-1.4790958223725
30
0
41
1
10
26.706696502659
20
-1.47420422294547
30
0
41
1
10
26.5911409462298
20
-1.45720059778603
30
0
41
1
10
26.5142537679159
20
-1.44274664664164
30
0
41
1
10
26.4373598622193
20
-1.42523094478639
30
0
0
SPLINE
5
1C4
100
AcDbEntity
8
1
62
256
6
ByLayer
370
18
48
1
60
0
100
AcDbSpline
70
4
71
3
72
8
73
4
40
0
40
0
40
0
40
0
40
1
40
1
40
1
40
1
41
1
10
25.2869935206441
20
-1.24688340439289
30
0
41
1
10
25.3316286898518
20
-1.22874505562547
30
0
41
1
10
25.3760976573148
20
-1.20973073896505
30
0
41
1
10
25.420469061025
20
-1.18990625626196
30
0
0
SPLINE
5
1C5
100
AcDbEntity
8
1
62
256
6
ByLayer
370
18
48
1
60
0
100
AcDbSpline
70
4
71
3
72
45
73
41
40
0
40
0
40
0
40
0
40
0.0267640651081038
40
0.0267640651081038
40
0.0673155623952592
40
0.0673155623952592
40
0.107867059682415
40
0.107867059682415
40
0.188970054256726
40
0.188970054256726
40
0.270073048831036
40
0.270073048831036
40
0.310624546118192
40
0.310624546118192
40
0.330900294761771
40
0.330900294761771
40
0.351176043405351
40
0.351176043405351
40
0.432279037979674
40
0.432279037979674
40
0.513382032553997
40
0.513382032553997
40
0.553933529841161
40
0.553933529841161
40
0.594485027128325
40
0.594485027128325
40
0.675588021702656
40
0.675588021702656
40
0.69586377034624
40
0.69586377034624
40
0.716139518989824
40
0.716139518989824
40
0.756691016276992
40
0.79724251356416
40
0.79724251356416
40
0.837794010851328
40
0.837794010851328
40
0.918897005425664
40
0.918897005425664
40
1
40
1
40
1
40
1
41
1
10
30.5059164061974
20
1.4989499850733
30
0
41
1
10
30.5353266527167
20
1.498956080982
30
0
41
1
10
30.5646787072906
20
1.4984993768756
30
0
41
1
10
30.6383546551864
20
1.49619794593144
30
0
41
1
10
30.682609061701
20
1.49375990404042
30
0
41
1
10
30.7708659956968
20
1.48679035914915
30
0
41
1
10
30.8148656982413
20
1.48225502936933
30
0
41
1
10
30.9468329875777
20
1.46558662094995
30
0
41
1
10
31.0348323193696
20
1.45043160589745
30
0
41
1
10
31.2109116346839
20
1.41216995710874
30
0
41
1
10
31.298991108598
20
1.38905878189408
30
0
41
1
10
31.4313253478337
20
1.34833238991987
30
0
41
1
10
31.4755214572694
20
1.33377028983333
30
0
41
1
10
31.5421165000511
20
1.31055366104894
30
0
41
1
10
31.5643570291402
20
1.30258121928637
30
0
41
1
10
31.6089145451161
20
1.28616186795117
30
0
41
1
10
31.6312540037299
20
1.27770615854823
30
0
41
1
10
31.7428263313463
20
1.23432357659723
30
0
41
1
10
31.8314294543448
20
1.19616328933603
30
0
41
1
10
32.0079260142501
20
1.11354114987367
30
0
41
1
10
32.095802679651
20
1.06905515272467
30
0
41
1
10
32.2278449859809
20
0.99838947220249
30
0
41
1
10
32.2718750185259
20
0.974159200233174
30
0
41
1
10
32.359936098164
20
0.924316083231389
30
0
41
1
10
32.4039481063929
20
0.89868161741893
30
0
41
1
10
32.5360701228434
20
0.819766969133866
30
0
41
1
10
32.6243196270864
20
0.764532009572918
30
0
41
1
10
32.7353677171816
20
0.692765012212163
30
0
41
1
10
32.757613516763
20
0.678274985292234
30
0
41
1
10
32.8021826781525
20
0.649026158887153
30
0
41
1
10
32.8245213256481
20
0.634257020102581
30
0
41
1
10
32.8914077839544
20
0.589717819742077
30
0
41
1
10
32.9803874942947
20
0.529625251468019
30
0
41
1
10
33.0689778116071
20
0.468148292983699
30
0
41
1
10
33.1573536637917
20
0.405952334317931
30
0
41
1
10
33.2014297770694
20
0.37448775172615
30
0
41
1
10
33.3337866262846
20
0.2796132688716
30
0
41
1
10
33.4222918163241
20
0.215859663381479
30
0
41
1
10
33.5995226678808
20
0.0869318934491616
30
0
41
1
10
33.6881518616596
20
0.0216165294463906
30
0
41
1
10
33.7773316097986
20
-0.0438286075309691
30
0
0
SPLINE
5
1C6
100
AcDbEntity
8
1
62
256
6
ByLayer
370
18
48
1
60
0
100
AcDbSpline
70
4
71
3
72
14
73
10
40
0
40
0
40
0
40
0
40
0.499999999999975
40
0.499999999999975
40
0.749999999999962
40
0.749999999999962
40
0.874999999999981
40
0.874999999999981
40
1
40
1
40
1
40
1
41
1
10
33.7773316097986
20
-0.0438286075309975
30
0
41
1
10
33.8199061030584
20
-0.0750721757320036
30
0
41
1
10
33.8622581633199
20
-0.105673280420149
30
0
41
1
10
33.924962556338
20
-0.151173671543177
30
0
41
1
10
33.9457310696782
20
-0.166265252995743
30
0
41
1
10
33.9766542406872
20
-0.188780258755997
30
0
41
1
10
33.9869339008357
20
-0.196272268406631
30
0
41
1
10
34.007273406784
20
-0.211093195313566
30
0
41
1
10
34.0173494817957
20
-0.218433779589617
30
0
41
1
10
34.0273316097986
20
-0.225686216688814
30
0
0
SPLINE
5
1C7
100
AcDbEntity
8
1
62
256
6
ByLayer
370
18
48
1
60
0
100
AcDbSpline
70
4
71
3
72
14
73
10
40
0
40
0
40
0
40
0
40
0.125
40
0.125
40
0.25
40
0.25
40
0.5
40
0.5
40
1
40
1
40
1
40
1
41
1
10
34.0273316097966
20
-0.225686216687364
30
0
41
1
10
34.049940442782
20
-0.242112487625207
30
0
41
1
10
34.0725543925795
20
-0.25862204950397
30
0
41
1
10
34.117453860428
20
-0.292322541673997
30
0
41
1
10
34.1397757440717
20
-0.309459566848119
30
0
41
1
10
34.2063675664342
20
-0.361735181809649
30
0
41
1
10
34.2502470924817
20
-0.397764995663067
30
0
41
1
10
34.3807898219493
20
-0.508851127268485
30
0
41
1
10
34.466326731055
20
-0.586950017322039
30
0
41
1
10
34.5510310167577
20
-0.668440811384102
30
0
0
SPLINE
5
1C8
100
AcDbEntity
8
1
62
256
6
ByLayer
370
18
48
1
60
0
100
AcDbSpline
70
4
71
3
72
8
73
4
40
0
40
0
40
0
40
0
40
1
40
1
40
1
40
1
41
1
10
35.1799040011516
20
-1.25225628769752
30
0
41
1
10
35.1590457000049
20
-1.23572709134385
30
0
41
1
10
35.1382001800006
20
-1.21900620450185
30
0
41
1
10
35.1173655824306
20
-1.20209515946451
30
0
0
SPLINE
5
1C9
100
AcDbEntity
8
1
62
256
6
ByLayer
370
18
48
1
60
0
100
AcDbSpline
70
4
71
3
72
8
73
4
40
0
40
0
40
0
40
0
40
1
40
1
40
1
40
1
41
1
10
35.9203551674178
20
-1.74560269357448
30
0
41
1
10
35.8995413842713
20
-1.73470634341834
30
0
41
1
10
35.8787394267397
20
-1.72355137061479
30
0
41
1
10
35.8579491611955
20
-1.71213926687668
30
0
0
SPLINE
5
1CA
100
AcDbEntity
8
1
62
256
6
ByLayer
370
18
48
1
60
0
100
AcDbSpline
70
4
71
3
72
8
73
4
40
0
40
0
40
0
40
0
40
1
40
1
40
1
40
1
41
1
10
36.6607913705383
20
-2.01182201756004
30
0
41
1
10
36.6399251216046
20
-2.00792133597784
30
0
41
1
10
36.6190696724797
20
-2.00370848956689
30
0
41
1
10
36.598215545846
20
-1.99918765856179
30
0
0
SPLINE
5
1CB
100
AcDbEntity
8
1
62
256
6
ByLayer
370
18
48
1
60
0
100
AcDbSpline
70
4
71
3
72
34
73
30
40
0
40
0
40
0
40
0
40
0.0001349064370274
40
0.0001349064370274
40
0.0371669469393598
40
0.0371669469393598
40
0.111231027944024
40
0.111231027944024
40
0.148263068446357
40
0.148263068446357
40
0.185295108948689
40
0.185295108948689
40
0.259359189953354
40
0.259359189953354
40
0.407487351962683
40
0.407487351962683
40
0.703743675981342
40
0.703743675981342
40
0.740775716483674
40
0.740775716483674
40
0.777807756986006
40
0.777807756986006
40
0.851871837990671
40
0.851871837990671
40
0.888903878493003
40
0.888903878493003
40
0.925935918995335
40
0.925935918995335
40
1
40
1
40
1
40
1
41
1
10
42.2000000000006
20
-0.634088536384753
30
0
41
1
10
42.2000000000001
20
-0.634087536284753
30
0
41
1
10
42.2000000000001
20
-0.634086536184753
30
0
41
1
10
42.2
20
-0.634053690847423
30
0
41
1
10
42.2
20
-0.634516999660207
30
0
41
1
10
42.2
20
-0.637379081456459
30
0
41
1
10
42.2000000000001
20
-0.641198155733747
30
0
41
1
10
42.2000000000001
20
-0.649611358772603
30
0
41
1
10
42.2
20
-0.652877381344666
30
0
41
1
10
42.2
20
-0.660413192275371
30
0
41
1
10
42.2
20
-0.664677866260917
30
0
41
1
10
42.2
20
-0.677546335744296
30
0
41
1
10
42.2
20
-0.68615877185735
30
0
41
1
10
42.2
20
-0.712373701730286
30
0
41
1
10
42.2
20
-0.730241263540421
30
0
41
1
10
42.2
20
-0.785014506266435
30
0
41
1
10
42.2
20
-0.823113086564916
30
0
41
1
10
42.2000000000001
20
-0.867676554756059
30
0
41
1
10
42.2
20
-0.872651658781052
30
0
41
1
10
42.2
20
-0.882648149188526
30
0
41
1
10
42.2
20
-0.887562027621954
30
0
41
1
10
42.2
20
-0.903664091704826
30
0
41
1
10
42.2
20
-0.916080812654229
30
0
41
1
10
42.2
20
-0.93715621462789
30
0
41
1
10
42.2
20
-0.944591187546905
30
0
41
1
10
42.2
20
-0.960311849276849
30
0
41
1
10
42.2
20
-0.968629358111286
30
0
41
1
10
42.2
20
-0.994595226712619
30
0
41
1
10
42.2
20
-1.01327227264602
30
0
41
1
10
42.2
20
-1.03327048855345
30
0
0
SPLINE
5
1CC
100
AcDbEntity
8
1
62
256
6
ByLayer
370
18
48
1
60
0
100
AcDbSpline
70
4
71
3
72
17
73
13
40
0
40
0
40
0
40
0
40
0.0625000000000003
40
0.0625000000000003
40
0.125000000000001
40
0.125000000000001
40
0.250000000000001
40
0.5
40
0.5
40
0.75
40
0.75
40
1
40
1
40
1
40
1
41
1
10
41.7407646227452
20
-0.62438511787397
30
0
41
1
10
41.7507961276547
20
-0.624952406052842
30
0
41
1
10
41.7608462642452
20
-0.625425050804949
30
0
41
1
10
41.780864981349
20
-0.626540813869156
30
0
41
1
10
41.7908422586707
20
-0.627156563739959
30
0
41
1
10
41.8206807849375
20
-0.629153114780848
30
0
41
1
10
41.8799861611965
20
-0.633722752784308
30
0
41
1
10
41.9382890466984
20
-0.639515477875136
30
0
41
1
10
42.0150495076459
20
-0.647760235780424
30
0
41
1
10
42.0529382061046
20
-0.652160614428226
30
0
41
1
10
42.1274901754966
20
-0.661236739750791
30
0
41
1
10
42.1641616712452
20
-0.665923341329346
30
0
41
1
10
42.2000000000002
20
-0.670648756095176
30
0
0
SPLINE
5
1CD
100
AcDbEntity
8
1
62
256
6
ByLayer
370
18
48
1
60
0
100
AcDbSpline
70
4
71
3
72
14
73
10
40
0
40
0
40
0
40
0
40
0.25
40
0.25
40
0.5
40
0.5
40
0.75
40
0.75
40
1
40
1
40
1
40
1
41
1
10
41.7407646227454
20
-0.624385117874567
30
0
41
1
10
41.7352384059234
20
-0.621519472235633
30
0
41
1
10
41.7296877213048
20
-0.618943420121923
30
0
41
1
10
41.7188234605914
20
-0.61460332865164
30
0
41
1
10
41.7135543709861
20
-0.612851475229149
30
0
41
1
10
41.7034078357628
20
-0.610313959096004
30
0
41
1
10
41.6984833948262
20
-0.609531710123917
30
0
41
1
10
41.6895546743721
20
-0.609214777744398
30
0
41
1
10
41.685506127148
20
-0.609657055947935
30
0
41
1
10
41.6819578624079
20
-0.610832123847899
30
0
0
SPLINE
5
1CE
100
AcDbEntity
8
1
62
256
6
ByLayer
370
18
48
1
60
0
100
AcDbSpline
70
4
71
3
72
8
73
4
40
0
40
0
40
0
40
0
40
1
40
1
40
1
40
1
41
1
10
41.6819578624079
20
-0.610832123847899
30
0
41
1
10
41.6755298854828
20
-0.612960857158328
30
0
41
1
10
41.6691076609756
20
-0.614986254806013
30
0
41
1
10
41.6626909127515
20
-0.616908425549099
30
0
0
SPLINE
5
1CF
100
AcDbEntity
8
1
62
256
6
ByLayer
370
18
48
1
60
0
100
AcDbSpline
70
4
71
3
72
8
73
4
40
0
40
0
40
0
40
0
40
1
40
1
40
1
40
1
41
1
10
41.6354113977473
20
-0.612877919232886
30
0
41
1
10
41.6444803615958
20
-0.614339811160335
30
0
41
1
10
41.6535730983049
20
-0.615683634855344
30
0
41
1
10
41.6626909127516
20
-0.616908425549468
30
0
0
SPLINE
5
1D0
100
AcDbEntity
8
1
62
256
6
ByLayer
370
18
48
1
60
0
100
AcDbSpline
70
4
71
3
72
8
73
4
40
0
40
0
40
0
40
0
40
1
40
1
40
1
40
1
41
1
10
41.6354113977473
20
-0.612877919232858
30
0
41
1
10
41.5073561585147
20
-0.544135653416305
30
0
41
1
10
41.3818056686614
20
-0.464984941265982
30
0
41
1
10
41.2574596026411
20
-0.376020291028112
30
0
0
SPLINE
5
1D1
100
AcDbEntity
8
1
62
256
6
ByLayer
370
18
48
1
60
0
100
AcDbSpline
70
4
71
3
72
8
73
4
40
0
40
0
40
0
40
0
40
1
40
1
40
1
40
1
41
1
10
41.2574596026409
20
-0.376020291028056
30
0
41
1
10
41.2143716442723
20
-0.306713661782027
30
0
41
1
10
41.1710181146569
20
-0.240702409746518
30
0
41
1
10
41.1272315629014
20
-0.17822856843722
30
0
0
SPLINE
5
1D2
100
AcDbEntity
8
1
62
256
6
ByLayer
370
18
48
1
60
0
100
AcDbSpline
70
4
71
3
72
8
73
4
40
0
40
0
40
0
40
0
40
1
40
1
40
1
40
1
41
1
10
39.8989422768437
20
0.86787950435729
30
0
41
1
10
39.9197699469426
20
0.848933245845274
30
0
41
1
10
39.9405899588031
20
0.829859622079567
30
0
41
1
10
39.9614066707233
20
0.810662829556435
30
0
0
SPLINE
5
1D3
100
AcDbEntity
8
1
62
256
6
ByLayer
370
18
48
1
60
0
100
AcDbSpline
70
4
71
3
72
8
73
4
40
0
40
0
40
0
40
0
40
1
40
1
40
1
40
1
41
1
10
38.4181687504801
20
1.88050936689487
30
0
41
1
10
38.4387945832381
20
1.87231516438828
30
0
41
1
10
38.4594112958512
20
1.86383527744584
30
0
41
1
10
38.4800234015617
20
1.85507196764388
30
0
0
SPLINE
5
1D4
100
AcDbEntity
8
1
62
256
6
ByLayer
370
18
48
1
60
0
100
AcDbSpline
70
4
71
3
72
8
73
4
40
0
40
0
40
0
40
0
40
1
40
1
40
1
40
1
41
1
10
37.6777722246433
20
2.04557250182151
30
0
41
1
10
37.6985643501208
20
2.04466492368186
30
0
41
1
10
37.7193484204803
20
2.04343868966771
30
0
41
1
10
37.7401279569942
20
2.04189454297787
30
0
0
SPLINE
5
1D5
100
AcDbEntity
8
1
62
256
6
ByLayer
370
18
48
1
60
0
100
AcDbSpline
70
4
71
3
72
56
73
52
40
0
40
0
40
0
40
0
40
0.0195849541572296
40
0.0195849541572296
40
0.0662713849116461
40
0.0662713849116461
40
0.112957815666063
40
0.112957815666063
40
0.159644246420479
40
0.159644246420479
40
0.206330677174895
40
0.206330677174895
40
0.229673892552102
40
0.229673892552102
40
0.253017107929309
40
0.253017107929309
40
0.346389969438145
40
0.346389969438145
40
0.393076400192563
40
0.393076400192563
40
0.43976283094698
40
0.43976283094698
40
0.463106046324189
40
0.463106046324189
40
0.486449261701398
40
0.486449261701398
40
0.533135692455816
40
0.533135692455816
40
0.579822123210234
40
0.579822123210234
40
0.626508553964652
40
0.626508553964652
40
0.67319498471907
40
0.67319498471907
40
0.696538200096278
40
0.696538200096278
40
0.719881415473487
40
0.719881415473487
40
0.766567846227905
40
0.766567846227905
40
0.813254276982323
40
0.813254276982323
40
0.859940707736741
40
0.859940707736741
40
0.906627138491159
40
0.906627138491159
40
0.929970353868369
40
0.929970353868369
40
0.953313569245579
40
0.953313569245579
40
1
40
1
40
1
40
1
41
1
10
31.3504879524662
20
-1.49894994015719
30
0
41
1
10
31.3182410821048
20
-1.49895689969352
30
0
41
1
10
31.2860648191413
20
-1.49840333685441
30
0
41
1
10
31.1773822692571
20
-1.49465009886191
30
0
41
1
10
31.101137323853
20
-1.48884910989821
30
0
41
1
10
30.9488978627378
20
-1.47106743631363
30
0
41
1
10
30.8728871377792
20
-1.45908800216941
30
0
41
1
10
30.7206098780709
20
-1.4291466837312
30
0
41
1
10
30.6444402303391
20
-1.41115495627415
30
0
41
1
10
30.4917984127474
20
-1.36913498108834
30
0
41
1
10
30.4152896537708
20
-1.34511983498496
30
0
41
1
10
30.2998797148599
20
-1.30469998902976
30
0
41
1
10
30.2612497007942
20
-1.29046942740615
30
0
41
1
10
30.1842593990558
20
-1.26078275802868
30
0
41
1
10
30.1458447699258
20
-1.24531043455178
30
0
41
1
10
29.9542537263442
20
-1.16477860606184
30
0
41
1
10
29.8023670069213
20
-1.09031304402254
30
0
41
1
10
29.5740948069288
20
-0.966122203720573
30
0
41
1
10
29.4979203390265
20
-0.922661468707048
30
0
41
1
10
29.3453300275563
20
-0.831642854473529
30
0
41
1
10
29.2688737690099
20
-0.784123224761572
30
0
41
1
10
29.1535751241254
20
-0.710193471240046
30
0
41
1
10
29.1149636482641
20
-0.68506586998646
30
0
41
1
10
29.0379031003558
20
-0.634245518745274
30
0
41
1
10
28.9994634521833
20
-0.608564809818546
30
0
41
1
10
28.8843922164241
20
-0.530749382362814
30
0
41
1
10
28.8080596173956
20
-0.477774091271243
30
0
41
1
10
28.6557145982878
20
-0.37022435821865
30
0
41
1
10
28.5797029987125
20
-0.315648781942002
30
0
41
1
10
28.4275545047969
20
-0.2055058731695
30
0
41
1
10
28.3513870671372
20
-0.149982015462172
30
0
41
1
10
28.1988356491786
20
-0.0380616723710148
30
0
41
1
10
28.1224239117026
20
0.0182984514385964
30
0
41
1
10
28.0072365255823
20
0.102946538753116
30
0
41
1
10
27.96870271715
20
0.131209573449553
30
0
41
1
10
27.8915650904652
20
0.18754610297924
30
0
41
1
10
27.8530906457532
20
0.215534305671895
30
0
41
1
10
27.7379432244204
20
0.29896297516342
30
0
41
1
10
27.6615437780456
20
0.353863576640151
30
0
41
1
10
27.5091177042766
20
0.461776839298295
30
0
41
1
10
27.4331010021428
20
0.514801416956601
30
0
41
1
10
27.2809740619803
20
0.618369056470442
30
0
41
1
10
27.2048216980251
20
0.668862732923799
30
0
41
1
10
27.0523077839719
20
0.76721910365012
30
0
41
1
10
26.9759349077736
20
0.815063949057247
30
0
41
1
10
26.8608556681597
20
0.884377799173592
30
0
41
1
10
26.8224083351565
20
0.907072493820777
30
0
41
1
10
26.7452705035684
20
0.951556578745908
30
0
41
1
10
26.706696502659
20
0.973279112230841
30
0
41
1
10
26.5911409462298
20
1.03676001127184
30
0
41
1
10
26.5142537679159
20
1.07689860988222
30
0
41
1
10
26.4373598622193
20
1.1147048808491
30
0
0
SPLINE
5
1D6
100
AcDbEntity
8
1
62
256
6
ByLayer
370
18
48
1
60
0
100
AcDbSpline
70
4
71
3
72
30
73
26
40
0
40
0
40
0
40
0
40
0.021458671473685
40
0.021458671473685
40
0.0981150306285237
40
0.0981150306285237
40
0.174771389783362
40
0.174771389783362
40
0.251427748938201
40
0.251427748938201
40
0.328084108093039
40
0.328084108093039
40
0.404740467247878
40
0.404740467247878
40
0.481396826402716
40
0.481396826402716
40
0.634709544712391
40
0.634709544712391
40
0.711365903867228
40
0.711365903867228
40
0.788022263022065
40
0.788022263022065
40
0.941334981331739
40
0.941334981331739
40
1
40
1
40
1
40
1
41
1
10
26.4375158389526
20
1.11452886358222
30
0
41
1
10
26.4325734423543
20
1.10876240761297
30
0
41
1
10
26.4273938055112
20
1.10274765013332
30
0
41
1
10
26.4021783098102
20
1.07364228582861
30
0
41
1
10
26.3784766444032
20
1.04668929568717
30
0
41
1
10
26.32488545498
20
0.98648084910738
30
0
41
1
10
26.2950298330777
20
0.953252006422247
30
0
41
1
10
26.228440023896
20
0.879770560328581
30
0
41
1
10
26.1926419592081
20
0.840552661867036
30
0
41
1
10
26.1164379509416
20
0.757657582508244
30
0
41
1
10
26.0752802617668
20
0.713171902784296
30
0
41
1
10
25.9920909587785
20
0.623882853948004
30
0
41
1
10
25.9488206343777
20
0.577746183488301
30
0
41
1
10
25.8662051788964
20
0.49037529233334
30
0
41
1
10
25.8258395337043
20
0.44789215583404
30
0
41
1
10
25.7059714306513
20
0.322011012833599
30
0
41
1
10
25.6308334093146
20
0.243625709904819
30
0
41
1
10
25.5252846726607
20
0.134275075225133
30
0
41
1
10
25.4911331047362
20
0.0990308084380445
30
0
41
1
10
25.4256780518833
20
0.0317454662622083
30
0
41
1
10
25.3966902773639
20
0.0022553944911863
30
0
41
1
10
25.3251271356928
20
-0.0691145461587439
30
0
41
1
10
25.2986789904479
20
-0.0933922765800617
30
0
41
1
10
25.2865894735359
20
-0.100843166617267
30
0
41
1
10
25.2857424091895
20
-0.100235476006588
30
0
41
1
10
25.2871748565659
20
-0.0971922651125965
30
0
0
SPLINE
5
1D7
100
AcDbEntity
8
1
62
256
6
ByLayer
370
18
48
1
60
0
100
AcDbSpline
70
4
71
3
72
61
73
57
40
0
40
0
40
0
40
0
40
0.057905552707783
40
0.057905552707783
40
0.115811105415566
40
0.115811105415566
40
0.144763881769458
40
0.144763881769458
40
0.173716658123349
40
0.202669434477241
40
0.202669434477241
40
0.231622210831132
40
0.231622210831132
40
0.260574987185024
40
0.260574987185024
40
0.289527763538915
40
0.289527763538915
40
0.347433316246701
40
0.347433316246701
40
0.376386092600594
40
0.376386092600594
40
0.405338868954487
40
0.405338868954487
40
0.46324442166227
40
0.46324442166227
40
0.521149974370053
40
0.521149974370053
40
0.550102750723943
40
0.550102750723943
40
0.579055527077833
40
0.608008303431724
40
0.608008303431724
40
0.622484691608667
40
0.622484691608667
40
0.636961079785611
40
0.665913856139501
40
0.665913856139501
40
0.694866632493391
40
0.694866632493391
40
0.752772185201171
40
0.752772185201171
40
0.781724961555061
40
0.781724961555061
40
0.810677737908951
40
0.810677737908951
40
0.868583290616731
40
0.868583290616731
40
0.883059678793677
40
0.883059678793677
40
0.897536066970623
40
0.897536066970623
40
0.926488843324512
40
0.926488843324512
40
0.984394396032289
40
0.984394396032289
40
1
40
1
40
1
40
1
41
1
10
25.2869935206441
20
-0.0970440081143806
30
0
41
1
10
25.3759081263579
20
-0.16200819455716
30
0
41
1
10
25.4641632129051
20
-0.226581944113946
30
0
41
1
10
25.6404394790606
20
-0.353487738743922
30
0
41
1
10
25.7284567064741
20
-0.41583282229351
30
0
41
1
10
25.8604785947093
20
-0.507471878936457
30
0
41
1
10
25.9044842988012
20
-0.537705883274128
30
0
41
1
10
25.9924977862997
20
-0.597536399726806
30
0
41
1
10
26.0805252969971
20
-0.656712809228793
30
0
41
1
10
26.1688749009806
20
-0.714193483758038
30
0
41
1
10
26.257568680722
20
-0.770596842879058
30
0
41
1
10
26.3020799758274
20
-0.798270627107371
30
0
41
1
10
26.3913570556882
20
-0.852646027929211
30
0
41
1
10
26.436012332859
20
-0.879309446577338
30
0
41
1
10
26.5250194330731
20
-0.93135337506348
30
0
41
1
10
26.5694425727659
20
-0.956744731190895
30
0
41
1
10
26.7026944755699
20
-1.03078827392062
30
0
41
1
10
26.791484358795
20
-1.07733241563201
30
0
41
1
10
26.9251548146541
20
-1.14238360500832
30
0
41
1
10
26.9698367772658
20
-1.1632984586065
30
0
41
1
10
27.0588328723354
20
-1.20327740813895
30
0
41
1
10
27.103205745896
20
-1.22237241406003
30
0
41
1
10
27.2359491405157
20
-1.27700589756429
30
0
41
1
10
27.3238453179893
20
-1.30994163231205
30
0
41
1
10
27.4999350236965
20
-1.36792832010846
30
0
41
1
10
27.588049918865
20
-1.39307578319125
30
0
41
1
10
27.7201379016065
20
-1.42511968440337
30
0
41
1
10
27.7641419668889
20
-1.43485239547618
30
0
41
1
10
27.8523066507215
20
-1.45230821349534
30
0
41
1
10
27.9406462413478
20
-1.46775209631383
30
0
41
1
10
28.0294341880539
20
-1.47910947651531
30
0
41
1
10
28.0962422863585
20
-1.48606344245323
30
0
41
1
10
28.1185707049675
20
-1.48812233071575
30
0
41
1
10
28.1631419598638
20
-1.49170127662163
30
0
41
1
10
28.2298978753495
20
-1.4962658901353
30
0
41
1
10
28.2963740984089
20
-1.49844032816256
30
0
41
1
10
28.3847707415918
20
-1.49923487865252
30
0
41
1
10
28.4288388227377
20
-1.49857714696932
30
0
41
1
10
28.5609467878426
20
-1.49346982899297
30
0
41
1
10
28.6489797961966
20
-1.48591325108492
30
0
41
1
10
28.7810768209117
20
-1.46847717869014
30
0
41
1
10
28.8251106518691
20
-1.46164448975429
30
0
41
1
10
28.9131817944031
20
-1.44591897935606
30
0
41
1
10
28.957210235684
20
-1.43702130560678
30
0
41
1
10
29.0894668076358
20
-1.40724761026939
30
0
41
1
10
29.1779255652453
20
-1.3833096429347
30
0
41
1
10
29.2894364803618
20
-1.3484886230865
30
0
41
1
10
29.3117760826231
20
-1.34127732755616
30
0
41
1
10
29.3563399681925
20
-1.32641904238034
30
0
41
1
10
29.3785882654662
20
-1.31876469904768
30
0
41
1
10
29.4452215386476
20
-1.29512260084104
30
0
41
1
10
29.4894847315873
20
-1.27844789356152
30
0
41
1
10
29.6219720249368
20
-1.22582360826621
30
0
41
1
10
29.7099579372213
20
-1.18732186298337
30
0
41
1
10
29.8216783841781
20
-1.13455292531648
30
0
41
1
10
29.8453940040231
20
-1.12312645216079
30
0
41
1
10
29.8691103527173
20
-1.11147744452234
30
0
0
SPLINE
5
1D8
100
AcDbEntity
8
1
62
256
6
ByLayer
370
18
48
1
60
0
100
AcDbSpline
70
4
71
3
72
8
73
4
40
0
40
0
40
0
40
0
40
1
40
1
40
1
40
1
41
1
10
34.9333252238072
20
2.04731984470169
30
0
41
1
10
34.9241381344292
20
2.04744507027203
30
0
41
1
10
34.9149503869082
20
2.04750766598858
30
0
41
1
10
34.9057610770214
20
2.04750764932419
30
0
0
SPLINE
5
1D9
100
AcDbEntity
8
1
62
256
6
ByLayer
370
18
48
1
60
0
100
AcDbSpline
70
4
71
3
72
8
73
4
40
0
40
0
40
0
40
0
40
1
40
1
40
1
40
1
41
1
10
37.8953733838146
20
0.215412992141324
30
0
41
1
10
37.8743945362969
20
0.236395269931336
30
0
41
1
10
37.8534235500132
20
0.257333750699957
30
0
41
1
10
37.832449727934
20
0.278217970935998
30
0
0
SPLINE
5
1DA
100
AcDbEntity
8
1
62
256
6
ByLayer
370
18
48
1
60
0
100
AcDbSpline
70
4
71
3
72
8
73
4
40
0
40
0
40
0
40
0
40
1
40
1
40
1
40
1
41
1
10
38.6356951726484
20
-0.521568586706053
30
0
41
1
10
38.6147716811442
20
-0.501272105440506
30
0
41
1
10
38.5938645143059
20
-0.480894400305658
30
0
41
1
10
38.5729713252599
20
-0.460437693118706
30
0
0
SPLINE
5
1DB
100
AcDbEntity
8
1
62
256
6
ByLayer
370
18
48
1
60
0
100
AcDbSpline
70
4
71
3
72
8
73
4
40
0
40
0
40
0
40
0
40
1
40
1
40
1
40
1
41
1
10
39.3760334420417
20
-1.1902846149126
30
0
41
1
10
39.3552292956198
20
-1.17333281552254
30
0
41
1
10
39.3344320519233
20
-1.15620442722457
30
0
41
1
10
39.3136408084165
20
-1.13890047202389
30
0
0
SPLINE
5
1DC
100
AcDbEntity
8
1
62
256
6
ByLayer
370
18
48
1
60
0
100
AcDbSpline
70
4
71
3
72
8
73
4
40
0
40
0
40
0
40
0
40
1
40
1
40
1
40
1
41
1
10
40.1158038195582
20
-1.70368201001571
30
0
41
1
10
40.0952486632141
20
-1.69223555478379
30
0
41
1
10
40.0746955935308
20
-1.68053752783925
30
0
41
1
10
40.0541379316854
20
-1.66859266866751
30
0
0
SPLINE
5
1DD
100
AcDbEntity
8
1
62
256
6
ByLayer
370
18
48
1
60
0
100
AcDbSpline
70
4
71
3
72
26
73
22
40
0
40
0
40
0
40
0
40
0.125
40
0.125
40
0.25
40
0.25
40
0.375
40
0.375
40
0.5
40
0.5
40
0.625
40
0.625
40
0.75
40
0.75
40
0.8125
40
0.8125
40
0.875
40
0.875
40
0.9375
40
0.9375
40
1
40
1
40
1
40
1
41
1
10
41.1072913374139
20
-1.64187969586052
30
0
41
1
10
41.1124253284576
20
-1.63405520008237
30
0
41
1
10
41.1184019308188
20
-1.62741772758812
30
0
41
1
10
41.1316380211391
20
-1.61592252329055
30
0
41
1
10
41.138982278666
20
-1.61105286598016
30
0
41
1
10
41.1542805657963
20
-1.60326512273872
30
0
41
1
10
41.1622751670257
20
-1.60029411258131
30
0
41
1
10
41.1788916572414
20
-1.59609952697414
30
0
41
1
10
41.1875694155664
20
-1.59488998773494
30
0
41
1
10
41.2049083671096
20
-1.59439019792654
30
0
41
1
10
41.2136379370851
20
-1.59506952957287
30
0
41
1
10
41.231190930458
20
-1.5985153316046
30
0
41
1
10
41.2400469466194
20
-1.60131854812181
30
0
41
1
10
41.2527512011031
20
-1.60725193322139
30
0
41
1
10
41.256912888559
20
-1.60952300763015
30
0
41
1
10
41.2650650624173
20
-1.61473914434791
30
0
41
1
10
41.2690663903308
20
-1.61769981109327
30
0
41
1
10
41.2766252244454
20
-1.62422137328576
30
0
41
1
10
41.2802124477981
20
-1.62779721176096
30
0
41
1
10
41.2869423720779
20
-1.63567804889166
30
0
41
1
10
41.290093415161
20
-1.6400051927786
30
0
41
1
10
41.2928916178979
20
-1.64464422273076
30
0
0
SPLINE
5
1DE
100
AcDbEntity
8
1
62
256
6
ByLayer
370
18
48
1
60
0
100
AcDbSpline
70
4
71
3
72
8
73
4
40
0
40
0
40
0
40
0
40
1
40
1
40
1
40
1
41
1
10
41.2928916178978
20
-1.64464422273079
30
0
41
1
10
41.3172782413415
20
-1.68507384389318
30
0
41
1
10
41.3415461330912
20
-1.72507073556451
30
0
41
1
10
41.3657066363159
20
-1.76460155723305
30
0
0
SPLINE
5
1DF
100
AcDbEntity
8
1
62
256
6
ByLayer
370
18
48
1
60
0
100
AcDbSpline
70
4
71
3
72
10
73
6
40
0
40
0
40
0
40
0
40
0.500000000000017
40
0.500000000000017
40
1
40
1
40
1
40
1
41
1
10
41.365706636316
20
-1.76460155723294
30
0
41
1
10
41.4189295967729
20
-1.74331796940558
30
0
41
1
10
41.4723346045373
20
-1.71988821412168
30
0
41
1
10
41.5800757244414
20
-1.66874276047483
30
0
41
1
10
41.6344068258318
20
-1.64103401974447
30
0
41
1
10
41.6892745576721
20
-1.6112798453679
30
0
0
SPLINE
5
1E0
100
AcDbEntity
8
1
62
256
6
ByLayer
370
18
48
1
60
0
100
AcDbSpline
70
4
71
3
72
24
73
20
40
0
40
0
40
0
40
0
40
0.125000000000018
40
0.125000000000018
40
0.250000000000036
40
0.250000000000036
40
0.312500000000045
40
0.312500000000045
40
0.375000000000054
40
0.375000000000054
40
0.500000000000037
40
0.500000000000037
40
0.750000000000002
40
0.750000000000002
40
0.812500000000002
40
0.812500000000002
40
0.875000000000001
40
0.875000000000001
40
1
40
1
40
1
40
1
41
1
10
42.2
20
-1.03327048855345
30
0
41
1
10
42.1763297770897
20
-1.05569777174881
30
0
41
1
10
42.1530220786838
20
-1.07874740221428
30
0
41
1
10
42.1069518883172
20
-1.12583304923925
30
0
41
1
10
42.0841910079541
20
-1.1498724388357
30
0
41
1
10
42.0503445424328
20
-1.18652812292041
30
0
41
1
10
42.039111653823
20
-1.19884641112984
30
0
41
1
10
42.0167273341511
20
-1.2236626088027
30
0
41
1
10
42.0055747116281
20
-1.23616288862445
30
0
41
1
10
41.9725565472184
20
-1.27351556511516
30
0
41
1
10
41.9510069117315
20
-1.2983527248094
30
0
41
1
10
41.887447760573
20
-1.37254740919929
30
0
41
1
10
41.8465190983437
20
-1.42158762174898
30
0
41
1
10
41.7964885967185
20
-1.48198243700614
30
0
41
1
10
41.7865389331935
20
-1.49401636864127
30
0
41
1
10
41.7667529696177
20
-1.51798272784492
30
0
41
1
10
41.7569610823254
20
-1.52987134763828
30
0
41
1
10
41.7277853509547
20
-1.5651957471182
30
0
41
1
10
41.7084780653929
20
-1.58840232133272
30
0
41
1
10
41.6892745576704
20
-1.611279845361
30
0
0
SPLINE
5
1E1
100
AcDbEntity
8
SK1
62
256
6
ByLayer
370
18
48
1
60
0
100
AcDbSpline
70
4
71
3
72
22
73
18
40
0
40
0
40
0
40
0
40
0.124791167421838
40
0.124791167421838
40
0.249582334843675
40
0.249582334843675
40
0.49916466968735
40
0.49916466968735
40
0.623955837109187
40
0.623955837109187
40
0.686351420820106
40
0.686351420820106
40
0.748747004531024
40
0.748747004531024
40
0.998329339374698
40
0.998329339374698
40
1
40
1
40
1
40
1
41
1
10
-20
20
1.69999999999996
30
0
41
1
10
-20.0312316853358
20
1.69999999999996
30
0
41
1
10
-20.0617192417948
20
1.69999999999996
30
0
41
1
10
-20.1208596891054
20
1.69999999999996
30
0
41
1
10
-20.1493656186911
20
1.69999999999996
30
0
41
1
10
-20.2310529984633
20
1.69999999999996
30
0
41
1
10
-20.2804608464447
20
1.69999999999996
30
0
41
1
10
-20.3435532811028
20
1.69999999999996
30
0
41
1
10
-20.3627338867565
20
1.69999999999996
30
0
41
1
10
-20.38816586535
20
1.69999999999996
30
0
41
1
10
-20.3960857212648
20
1.69999999999996
30
0
41
1
10
-20.4107049699779
20
1.69999999999996
30
0
41
1
10
-20.4174169984215
20
1.69999999999996
30
0
41
1
10
-20.4473858919688
20
1.69999999999996
30
0
41
1
10
-20.4599620558586
20
1.69999999999996
30
0
41
1
10
-20.4600011669711
20
1.69999999999996
30
0
41
1
10
-20.4599995831995
20
1.69999999999996
30
0
41
1
10
-20.4599985830995
20
1.69999999999996
30
0
0
SPLINE
5
1E2
100
AcDbEntity
8
SK1
62
256
6
ByLayer
370
18
48
1
60
0
100
AcDbSpline
70
4
71
3
72
22
73
18
40
0
40
0
40
0
40
0
40
0.0016706606630097
40
0.0016706606630097
40
0.251252995497257
40
0.251252995497257
40
0.313648579205819
40
0.313648579205819
40
0.37604416291438
40
0.37604416291438
40
0.500835330331504
40
0.500835330331504
40
0.750417665165752
40
0.750417665165752
40
0.875208832582876
40
0.875208832582876
40
1
40
1
40
1
40
1
41
1
10
-20.4599985830995
20
-1.70000000000002
30
0
41
1
10
-20.4599995831995
20
-1.70000000000002
30
0
41
1
10
-20.4600011669711
20
-1.70000000000002
30
0
41
1
10
-20.4599620558586
20
-1.70000000000002
30
0
41
1
10
-20.4473858919688
20
-1.70000000000002
30
0
41
1
10
-20.4174169984215
20
-1.70000000000002
30
0
41
1
10
-20.4107049699778
20
-1.70000000000002
30
0
41
1
10
-20.3960857212648
20
-1.70000000000002
30
0
41
1
10
-20.38816586535
20
-1.70000000000002
30
0
41
1
10
-20.3627338867565
20
-1.70000000000002
30
0
41
1
10
-20.3435532811027
20
-1.70000000000002
30
0
41
1
10
-20.2804608464446
20
-1.70000000000002
30
0
41
1
10
-20.2310529984632
20
-1.70000000000002
30
0
41
1
10
-20.149365618691
20
-1.70000000000002
30
0
41
1
10
-20.1208596891054
20
-1.70000000000002
30
0
41
1
10
-20.0617192417947
20
-1.70000000000002
30
0
41
1
10
-20.0312316853357
20
-1.70000000000002
30
0
41
1
10
-20
20
-1.70000000000002
30
0
0
SPLINE
5
1E3
100
AcDbEntity
8
SK1
62
256
6
ByLayer
370
18
48
1
60
0
100
AcDbSpline
70
4
71
3
72
36
73
32
40
0
40
0
40
0
40
0
40
0.125
40
0.125
40
0.1875
40
0.1875
40
0.21875
40
0.21875
40
0.25
40
0.25
40
0.375
40
0.375
40
0.40625
40
0.40625
40
0.4375
40
0.4375
40
0.5
40
0.5
40
0.625
40
0.625
40
0.65625
40
0.65625
40
0.6875
40
0.6875
40
0.75
40
0.75
40
0.875
40
0.875
40
0.9375
40
0.9375
40
1
40
1
40
1
40
1
41
1
10
-20
20
-1.33251641640922
30
0
41
1
10
-20.0619570033713
20
-1.23208453757155
30
0
41
1
10
-20.1208934451722
20
-1.12965097552558
30
0
41
1
10
-20.2025079673024
20
-0.971500902838301
30
0
41
1
10
-20.228570378338
20
-0.918027140039612
30
0
41
1
10
-20.2655373688126
20
-0.836407210974187
30
0
41
1
10
-20.2775195132155
20
-0.808927766947448
30
0
41
1
10
-20.3006145980522
20
-0.753621537637287
30
0
41
1
10
-20.3117094621023
20
-0.725840868162408
30
0
41
1
10
-20.3647255977526
20
-0.586244858368786
30
0
41
1
10
-20.3993082575669
20
-0.472361658462375
30
0
41
1
10
-20.4292131408545
20
-0.326253405457749
30
0
41
1
10
-20.434526040706
20
-0.296843505489079
30
0
41
1
10
-20.4437226189511
20
-0.237620982341923
30
0
41
1
10
-20.4476123873896
20
-0.207728264162228
30
0
41
1
10
-20.4569241252164
20
-0.118263345594499
30
0
41
1
10
-20.460018842259
20
-0.0587803152315871
30
0
41
1
10
-20.4599620558586
20
0.119187946780414
30
0
41
1
10
-20.4473858919688
20
0.237188039676823
30
0
41
1
10
-20.4174169984215
20
0.3839546979614
30
0
41
1
10
-20.4107049699778
20
0.413306545192626
30
0
41
1
10
-20.3960857212648
20
0.471362685163768
30
0
41
1
10
-20.38816586535
20
0.500139234671508
30
0
41
1
10
-20.3627338867565
20
0.585779561952279
30
0
41
1
10
-20.3435532811027
20
0.641955637443374
30
0
41
1
10
-20.2804608464447
20
0.808196053664091
30
0
41
1
10
-20.2310529984632
20
0.915995088215112
30
0
41
1
10
-20.149365618691
20
1.0745711851834
30
0
41
1
10
-20.1208596891054
20
1.12690362148609
30
0
41
1
10
-20.0617192417947
20
1.23069114925624
30
0
41
1
10
-20.0312316853357
20
1.28189006802472
30
0
41
1
10
-19.9999999999999
20
1.33251641640928
30
0
0
SPLINE
5
1E4
100
AcDbEntity
8
1
62
256
6
ByLayer
370
18
48
1
60
0
100
AcDbSpline
70
4
71
2
72
6
73
3
40
0
40
0
40
0
40
1
40
1
40
1
41
1
10
37.9773587927578
20
1.63416166691573
30
0
41
1
10
37.9053828774488
20
1.75761941064553
30
0
41
1
10
37.8336312898183
20
1.88121656136906
30
0
0
SPLINE
5
1E5
100
AcDbEntity
8
1
62
256
6
ByLayer
370
18
48
1
60
0
100
AcDbSpline
70
4
71
1
72
4
73
2
40
0
40
0
40
1
40
1
41
1
10
40.8027075615351
20
-1.98950876367979
30
0
41
1
10
40.9557063714987
20
-1.92835649742352
30
0
0
SPLINE
5
1E6
100
AcDbEntity
8
1
62
256
6
ByLayer
370
18
48
1
60
0
100
AcDbSpline
70
4
71
2
72
6
73
3
40
0
40
0
40
0
40
1
40
1
40
1
41
1
10
35.1664847296578
20
1.65167885786866
30
0
41
1
10
35.0569283986267
20
1.83864570798681
30
0
41
1
10
34.9474422144142
20
2.02634835982985
30
0
0
SPLINE
5
1E7
100
AcDbEntity
8
1
62
256
6
ByLayer
370
18
48
1
60
0
100
AcDbSpline
70
4
71
2
72
6
73
3
40
0
40
0
40
0
40
1
40
1
40
1
41
1
10
36.9299569408338
20
-1.62912134910505
30
0
41
1
10
36.9373485409015
20
-1.61114440680967
30
0
41
1
10
36.9555134844513
20
-1.60408504013148
30
0
0
SPLINE
5
1E8
100
AcDbEntity
8
1
62
256
6
ByLayer
370
18
48
1
60
0
100
AcDbSpline
70
4
71
2
72
6
73
3
40
0
40
0
40
0
40
1
40
1
40
1
41
1
10
36.9740005507637
20
-1.59994643886694
30
0
41
1
10
36.9813354850062
20
-1.59925874550621
30
0
41
1
10
36.9897658334404
20
-1.59968113160133
30
0
0
SPLINE
5
1E9
100
AcDbEntity
8
1
62
256
6
ByLayer
370
18
48
1
60
0
100
AcDbSpline
70
4
71
2
72
6
73
3
40
0
40
0
40
0
40
1
40
1
40
1
41
1
10
37.660669025944
20
2.03443903328355
30
0
41
1
10
37.5426255360332
20
1.83120942282449
30
0
41
1
10
37.4244941323099
20
1.6285841913155
30
0
0
SPLINE
5
1EA
100
AcDbEntity
8
1
62
256
6
ByLayer
370
18
48
1
60
0
100
AcDbSpline
70
4
71
2
72
6
73
3
40
0
40
0
40
0
40
1
40
1
40
1
41
1
10
40.9490387840122
20
-1.94058645738065
30
0
41
1
10
41.0373878486272
20
-1.78846261521195
30
0
41
1
10
41.1259485449652
20
-1.63641577548191
30
0
0
SPLINE
5
1EB
100
AcDbEntity
8
1
62
256
6
ByLayer
370
18
48
1
60
0
100
AcDbSpline
70
4
71
2
72
6
73
3
40
0
40
0
40
0
40
1
40
1
40
1
41
1
10
36.6890328571057
20
-2.0436299777796
30
0
41
1
10
36.8075734625195
20
-1.83949766168641
30
0
41
1
10
36.9266084094966
20
-1.63521282040006
30
0
0
SPLINE
5
1EC
100
AcDbEntity
8
1
62
256
6
ByLayer
370
18
48
1
60
0
100
AcDbSpline
70
4
71
3
72
11
73
7
40
0
40
0
40
0
40
0
40
0.245650546635213
40
0.500105185306751
40
0.754553352118782
40
1
40
1
40
1
40
1
41
1
10
38.1272132773701
20
1.63404604017387
30
0
41
1
10
38.1207853940728
20
1.62227410609839
30
0
41
1
10
38.1024307093316
20
1.60442306578784
30
0
41
1
10
38.0503241516216
20
1.58857997039635
30
0
41
1
10
37.9982237734402
20
1.60722834341612
30
0
41
1
10
37.9798424674859
20
1.62712233216484
30
0
41
1
10
37.973396167606
20
1.63991971950577
30
0
0
SPLINE
5
1ED
100
AcDbEntity
8
1
62
256
6
ByLayer
370
18
48
1
60
0
100
AcDbSpline
70
4
71
2
72
6
73
3
40
0
40
0
40
0
40
1
40
1
40
1
41
1
10
36.3789321424427
20
-1.63642945787325
30
0
41
1
10
36.4967571732075
20
-1.83913927448086
30
0
41
1
10
36.6144712344449
20
-2.04219633279288
30
0
0
SPLINE
5
1EE
100
AcDbEntity
8
1
62
256
6
ByLayer
370
18
48
1
60
0
100
AcDbSpline
70
4
71
2
72
6
73
3
40
0
40
0
40
0
40
1
40
1
40
1
41
1
10
40.576780812813
20
-1.6339573626343
30
0
41
1
10
40.6815145984163
20
-1.81403163591114
30
0
41
1
10
40.7861190341151
20
-1.99446947572198
30
0
0
SPLINE
5
1EF
100
AcDbEntity
8
1
62
256
6
ByLayer
370
18
48
1
60
0
100
AcDbSpline
70
4
71
3
72
11
73
7
40
0
40
0
40
0
40
0
40
0.247860288692751
40
0.500314044185128
40
0.752542085462561
40
1
40
1
40
1
40
1
41
1
10
36.2276886089137
20
-1.63322653411978
30
0
41
1
10
36.2334614129762
20
-1.6222691102133
30
0
41
1
10
36.2506241679277
20
-1.60552831191251
30
0
41
1
10
36.301575788436
20
-1.58836175611916
30
0
41
1
10
36.3525699179703
20
-1.60427118189295
30
0
41
1
10
36.3697213361031
20
-1.62014548306482
30
0
41
1
10
36.3754928230451
20
-1.63066083706624
30
0
0
SPLINE
5
1F0
100
AcDbEntity
8
1
62
256
6
ByLayer
370
18
48
1
60
0
100
AcDbSpline
70
4
71
3
72
11
73
7
40
0
40
0
40
0
40
0
40
0.250390558167042
40
0.504013050278242
40
0.755599118045927
40
1
40
1
40
1
40
1
41
1
10
40.4285108663291
20
-1.63133161583701
30
0
41
1
10
40.4342399297122
20
-1.62084222208173
30
0
41
1
10
40.4514010433077
20
-1.60507481406327
30
0
41
1
10
40.5023198781752
20
-1.58910350566757
30
0
41
1
10
40.5535128188148
20
-1.60603843361545
30
0
41
1
10
40.5708994593594
20
-1.62302884849097
30
0
41
1
10
40.5768470549644
20
-1.63407291183802
30
0
0
SPLINE
5
1F1
100
AcDbEntity
8
1
62
256
6
ByLayer
370
18
48
1
60
0
100
AcDbSpline
70
4
71
2
72
6
73
3
40
0
40
0
40
0
40
1
40
1
40
1
41
1
10
38.3640971201775
20
2.04214247761627
30
0
41
1
10
38.245777503192
20
1.83792662265722
30
0
41
1
10
38.1271301663042
20
1.6339012741839
30
0
0
SPLINE
5
1F2
100
AcDbEntity
8
1
62
256
6
ByLayer
370
18
48
1
60
0
100
AcDbSpline
70
4
71
2
72
6
73
3
40
0
40
0
40
0
40
1
40
1
40
1
41
1
10
38.6768218297142
20
1.63569212981503
30
0
41
1
10
38.5660524434697
20
1.8259229571581
30
0
41
1
10
38.4554543846655
20
2.01656597193548
30
0
0
SPLINE
5
1F3
100
AcDbEntity
8
1
62
256
6
ByLayer
370
18
48
1
60
0
100
AcDbSpline
70
4
71
2
72
6
73
3
40
0
40
0
40
0
40
1
40
1
40
1
41
1
10
34.4786475387037
20
1.6319840974673
30
0
41
1
10
34.4430557821746
20
1.69300786932322
30
0
41
1
10
34.4075133825785
20
1.75407954441044
30
0
0
SPLINE
5
1F4
100
AcDbEntity
8
1
62
256
6
ByLayer
370
18
48
1
60
0
100
AcDbSpline
70
4
71
3
72
11
73
7
40
0
40
0
40
0
40
0
40
0.243908335799821
40
0.497510820610356
40
0.752421711564645
40
1
40
1
40
1
40
1
41
1
10
38.8310133803982
20
1.63948260007808
30
0
41
1
10
38.8245588988652
20
1.62678709428036
30
0
41
1
10
38.8062029537482
20
1.60705568720053
30
0
41
1
10
38.7540578478919
20
1.5887307656574
30
0
41
1
10
38.7020823758398
20
1.60495806871373
30
0
41
1
10
38.683846430766
20
1.62277963825377
30
0
41
1
10
38.6775104671082
20
1.6345524498646
30
0
0
SPLINE
5
1F5
100
AcDbEntity
8
1
62
256
6
ByLayer
370
18
48
1
60
0
100
AcDbSpline
70
4
71
3
72
11
73
7
40
0
40
0
40
0
40
0
40
0.245686156940932
40
0.502569020127722
40
0.758390083563873
40
1
40
1
40
1
40
1
41
1
10
34.6345527150018
20
1.6424692354496
30
0
41
1
10
34.6277198161923
20
1.6286133689016
30
0
41
1
10
34.608587059294
20
1.60691146506048
30
0
41
1
10
34.555832257696
20
1.58746058072458
30
0
41
1
10
34.5030318866045
20
1.60321392672341
30
0
41
1
10
34.483673971683
20
1.62266938280135
30
0
41
1
10
34.4766634548508
20
1.6353311181021
30
0
0
SPLINE
5
1F6
100
AcDbEntity
8
1
62
256
6
ByLayer
370
18
48
1
60
0
100
AcDbSpline
70
4
71
2
72
6
73
3
40
0
40
0
40
0
40
1
40
1
40
1
41
1
10
35.9914437609264
20
-2.03927138091686
30
0
41
1
10
36.1094704564935
20
-1.83599602851621
30
0
41
1
10
36.2276837578734
20
-1.63323483250056
30
0
0
SPLINE
5
1F7
100
AcDbEntity
8
1
62
256
6
ByLayer
370
18
48
1
60
0
100
AcDbSpline
70
4
71
2
72
6
73
3
40
0
40
0
40
0
40
1
40
1
40
1
41
1
10
35.6770353084685
20
-1.63340975153747
30
0
41
1
10
35.7955463162754
20
-1.83711206039942
30
0
41
1
10
35.9137513559907
20
-2.04102225026745
30
0
0
SPLINE
5
1F8
100
AcDbEntity
8
1
62
256
6
ByLayer
370
18
48
1
60
0
100
AcDbSpline
70
4
71
2
72
6
73
3
40
0
40
0
40
0
40
1
40
1
40
1
41
1
10
35.6073354473953
20
-1.5996383838453
30
0
41
1
10
35.6581210213339
20
-1.59212335886437
30
0
41
1
10
35.676228874304
20
-1.63198558534853
30
0
0
SPLINE
5
1F9
100
AcDbEntity
8
1
62
256
6
ByLayer
370
18
48
1
60
0
100
AcDbSpline
70
4
71
2
72
6
73
3
40
0
40
0
40
0
40
1
40
1
40
1
41
1
10
40.1887294709214
20
-2.04402207332399
30
0
41
1
10
40.306908536638
20
-1.84025560851524
30
0
41
1
10
40.4252516409573
20
-1.63687840210304
30
0
0
SPLINE
5
1FA
100
AcDbEntity
8
1
62
256
6
ByLayer
370
18
48
1
60
0
100
AcDbSpline
70
4
71
2
72
6
73
3
40
0
40
0
40
0
40
1
40
1
40
1
41
1
10
39.8152204735138
20
-1.59969012831289
30
0
41
1
10
39.8615649455385
20
-1.59704081959737
30
0
41
1
10
39.8747489007845
20
-1.62940769231653
30
0
0
SPLINE
5
1FB
100
AcDbEntity
8
1
62
256
6
ByLayer
370
18
48
1
60
0
100
AcDbSpline
70
4
71
2
72
6
73
3
40
0
40
0
40
0
40
1
40
1
40
1
41
1
10
39.8771259153678
20
-1.63380960952384
30
0
41
1
10
39.9965029692573
20
-1.83910636577656
30
0
41
1
10
40.1152801400276
20
-2.04389690884088
30
0
0
SPLINE
5
1FC
100
AcDbEntity
8
1
62
256
6
ByLayer
370
18
48
1
60
0
100
AcDbSpline
70
4
71
1
72
4
73
2
40
0
40
0
40
1
40
1
41
1
10
38.9227945894952
20
1.79833773294175
30
0
41
1
10
38.8273885606398
20
1.63411174102879
30
0
0
SPLINE
5
1FD
100
AcDbEntity
8
1
62
256
6
ByLayer
370
18
48
1
60
0
100
AcDbSpline
70
4
71
2
72
6
73
3
40
0
40
0
40
0
40
1
40
1
40
1
41
1
10
39.3810387015674
20
1.62767999965732
30
0
41
1
10
39.2631737168114
20
1.8292919722804
30
0
41
1
10
39.145403036419
20
2.03162472865
30
0
0
SPLINE
5
1FE
100
AcDbEntity
8
1
62
256
6
ByLayer
370
18
48
1
60
0
100
AcDbSpline
70
4
71
2
72
6
73
3
40
0
40
0
40
0
40
1
40
1
40
1
41
1
10
41.1290702242881
20
-1.63101716597606
30
0
41
1
10
41.14853728137
20
-1.59199854750216
30
0
41
1
10
41.2000194826419
20
-1.60028471561029
30
0
0
SPLINE
5
1FF
100
AcDbEntity
8
1
62
256
6
ByLayer
370
18
48
1
60
0
100
AcDbSpline
70
4
71
3
72
8
73
4
40
0
40
0
40
0
40
0
40
1
40
1
40
1
40
1
41
1
10
41.9443906801797
20
0.220518765391375
30
0
41
1
10
41.9631739641964
20
0.20812938629939
30
0
41
1
10
41.9819607855773
20
0.195503640790548
30
0
41
1
10
42.0007525832033
20
0.182678509233483
30
0
0
LINE
5
7F
100
AcDbEntity
8
80
62
256
6
ByLayer
370
18
48
1
60
0
100
AcDbLine
10
0
20
0
30
0
11
-5
21
0
31
0
39
0
210
0
220
0
230
1
0
LINE
5
80
100
AcDbEntity
8
81
62
256
6
ByLayer
370
18
48
1
60
0
100
AcDbLine
10
42.2
20
0
30
0
11
47.2
21
0
31
0
39
0
210
0
220
0
230
1
0
LINE
5
81
100
AcDbEntity
8
4
62
256
6
ByLayer
370
18
48
0.05
60
0
100
AcDbLine
10
0
20
0
30
0
11
42.2
21
0
31
0
39
0
210
0
220
0
230
1
0
LINE
5
83
100
AcDbEntity
8
SK4
62
256
6
ByLayer
370
18
48
0.05
60
0
100
AcDbLine
10
-21
20
0
30
0
11
42.2
21
0
31
0
39
0
210
0
220
0
230
1
0
LINE
5
85
100
AcDbEntity
8
1
62
256
6
ByLayer
370
18
48
1
60
0
100
AcDbLine
10
0
20
2.25
30
0
11
0
21
-2.25
31
0
39
0
210
0
220
0
230
1
0
LINE
5
86
100
AcDbEntity
8
1
62
256
6
ByLayer
370
18
48
1
60
0
100
AcDbLine
10
36.929028
20
-1.630961
30
0
11
36.926517
21
-1.635358
31
0
39
0
210
0
220
0
230
1
0
LINE
5
87
100
AcDbEntity
8
1
62
256
6
ByLayer
370
13
48
1
60
0
100
AcDbLine
10
37.979772
20
1.629637
30
0
11
37.977448
21
1.634008
31
0
39
0
210
0
220
0
230
1
0
LINE
5
88
100
AcDbEntity
8
1
62
256
6
ByLayer
370
18
48
1
60
0
100
AcDbLine
10
37.977448
20
1.634008
30
0
11
37.97238
21
1.641059
31
0
39
0
210
0
220
0
230
1
0
LINE
5
89
100
AcDbEntity
8
1
62
256
6
ByLayer
370
18
48
1
60
0
100
AcDbLine
10
36.379085
20
-1.63665
30
0
11
36.376683
21
-1.632832
31
0
39
0
210
0
220
0
230
1
0
LINE
5
8A
100
AcDbEntity
8
1
62
256
6
ByLayer
370
18
48
1
60
0
100
AcDbLine
10
34.478572
20
1.632121
30
0
11
34.476265
21
1.635941
31
0
39
0
210
0
220
0
230
1
0
LINE
5
8B
100
AcDbEntity
8
1
62
256
6
ByLayer
370
18
48
1
60
0
100
AcDbLine
10
36.227594
20
-1.633387
30
0
11
36.225042
21
-1.637298
31
0
39
0
210
0
220
0
230
1
0
LINE
5
8C
100
AcDbEntity
8
1
62
256
6
ByLayer
370
18
48
1
60
0
100
AcDbLine
10
40.427404
20
-1.63337
30
0
11
40.425091
21
-1.637117
31
0
39
0
210
0
220
0
230
1
0
LINE
5
8D
100
AcDbEntity
8
1
62
256
6
ByLayer
370
18
48
1
60
0
100
AcDbLine
10
38.831923
20
1.640559
30
0
11
38.827326
21
1.634004
31
0
39
0
210
0
220
0
230
1
0
LINE
5
8E
100
AcDbEntity
8
1
62
256
6
ByLayer
370
18
48
1
60
0
100
AcDbLine
10
34.635045
20
1.642819
30
0
11
34.629483
21
1.63704
31
0
39
0
210
0
220
0
230
1
0
LINE
5
8F
100
AcDbEntity
8
1
62
256
6
ByLayer
370
18
48
1
60
0
100
AcDbLine
10
42.2
20
1.14
30
0
11
42.2
21
1.133681
31
0
39
0
210
0
220
0
230
1
0
LINE
5
90
100
AcDbEntity
8
1
62
256
6
ByLayer
370
18
48
1
60
0
100
AcDbLine
10
37.672929
20
2.047509
30
0
11
37.677772
21
2.045573
31
0
39
0
210
0
220
0
230
1
0
LINE
5
91
100
AcDbEntity
8
1
62
256
6
ByLayer
370
13
48
1
60
0
100
AcDbLine
10
34.027332
20
1.505909
30
0
11
34.027332
21
1.565937
31
0
39
0
210
0
220
0
230
1
0
LINE
5
92
100
AcDbEntity
8
1
62
256
6
ByLayer
370
13
48
1
60
0
100
AcDbLine
10
33.777332
20
1.49895
30
0
11
33.777332
21
1.483546
31
0
39
0
210
0
220
0
230
1
0
LINE
5
93
100
AcDbEntity
8
1
62
256
6
ByLayer
370
13
48
1
60
0
100
AcDbLine
10
21.043744
20
-1.49895
30
0
11
21.043744
21
1.49895
31
0
39
0
210
0
220
0
230
1
0
LINE
5
94
100
AcDbEntity
8
1
62
256
6
ByLayer
370
13
48
1
60
0
100
AcDbLine
10
33.777332
20
-0.927397
30
0
11
33.777332
21
-0.043829
31
0
39
0
210
0
220
0
230
1
0
LINE
5
95
100
AcDbEntity
8
1
62
256
6
ByLayer
370
18
48
1
60
0
100
AcDbLine
10
42.2
20
0.099545
30
0
11
42.2
21
-0.670649
31
0
39
0
210
0
220
0
230
1
0
LINE
5
96
100
AcDbEntity
8
1
62
256
6
ByLayer
370
13
48
1
60
0
100
AcDbLine
10
34.027332
20
-0.225686
30
0
11
34.027332
21
-1.124839
31
0
39
0
210
0
220
0
230
1
0
LINE
5
97
100
AcDbEntity
8
1
62
256
6
ByLayer
370
13
48
1
60
0
100
AcDbLine
10
20.95692
20
1.506546
30
0
11
20.95692
21
-1.506546
31
0
39
0
210
0
220
0
230
1
0
LINE
5
98
100
AcDbEntity
8
1
62
256
6
ByLayer
370
18
48
1
60
0
100
AcDbLine
10
16.740584
20
2.25
30
0
11
16.740584
21
-2.25
31
0
39
0
210
0
220
0
230
1
0
LINE
5
99
100
AcDbEntity
8
SK1
62
256
6
ByLayer
370
18
48
1
60
0
100
AcDbLine
10
-21
20
1.16
30
0
11
-21
21
-1.16
31
0
39
0
210
0
220
0
230
1
0
LINE
5
9B
100
AcDbEntity
8
SK1
62
256
6
ByLayer
370
18
48
1
60
0
100
AcDbLine
10
-15
20
1.332516
30
0
11
-15
21
-1.332516
31
0
39
0
210
0
220
0
230
1
0
LINE
5
9C
100
AcDbEntity
8
SK1
62
256
6
ByLayer
370
18
48
1
60
0
100
AcDbLine
10
-15
20
1.7
30
0
11
-14.54
21
2.16
31
0
39
0
210
0
220
0
230
1
0
LINE
5
9D
100
AcDbEntity
8
SK1
62
256
6
ByLayer
370
18
48
1
60
0
100
AcDbLine
10
-20
20
1.7
30
0
11
-15
21
1.7
31
0
39
0
210
0
220
0
230
1
0
LINE
5
9E
100
AcDbEntity
8
SK1
62
256
6
ByLayer
370
18
48
1
60
0
100
AcDbLine
10
-20
20
1.332516
30
0
11
-20
21
1.7
31
0
39
0
210
0
220
0
230
1
0
LINE
5
9F
100
AcDbEntity
8
SK1
62
256
6
ByLayer
370
18
48
1
60
0
100
AcDbLine
10
-15
20
1.332516
30
0
11
-20
21
1.332516
31
0
39
0
210
0
220
0
230
1
0
LINE
5
A0
100
AcDbEntity
8
SK1
62
256
6
ByLayer
370
18
48
1
60
0
100
AcDbLine
10
-20
20
-1.332516
30
0
11
-15
21
-1.332516
31
0
39
0
210
0
220
0
230
1
0
LINE
5
A1
100
AcDbEntity
8
SK1
62
256
6
ByLayer
370
18
48
1
60
0
100
AcDbLine
10
-20
20
-1.7
30
0
11
-20
21
-1.332516
31
0
39
0
210
0
220
0
230
1
0
LINE
5
A2
100
AcDbEntity
8
SK1
62
256
6
ByLayer
370
18
48
1
60
0
100
AcDbLine
10
-15
20
-1.7
30
0
11
-20
21
-1.7
31
0
39
0
210
0
220
0
230
1
0
LINE
5
A3
100
AcDbEntity
8
SK1
62
256
6
ByLayer
370
18
48
1
60
0
100
AcDbLine
10
-15
20
-1.7
30
0
11
-14.54
21
-2.16
31
0
39
0
210
0
220
0
230
1
0
LINE
5
A4
100
AcDbEntity
8
SK1
62
256
6
ByLayer
370
18
48
1
60
0
100
AcDbLine
10
0
20
2.25
30
0
11
0
21
-2.25
31
0
39
0
210
0
220
0
230
1
0
LINE
5
A5
100
AcDbEntity
8
SK1
62
256
6
ByLayer
370
18
48
1
60
0
100
AcDbLine
10
-14.4
20
2.16
30
0
11
-14.4
21
-2.16
31
0
39
0
210
0
220
0
230
1
0
LINE
5
A6
100
AcDbEntity
8
SK1
62
256
6
ByLayer
370
18
48
1
60
0
100
AcDbLine
10
-14.31
20
-2.25
30
0
11
-14.31
21
2.25
31
0
39
0
210
0
220
0
230
1
0
LINE
5
A7
100
AcDbEntity
8
1
62
256
6
ByLayer
370
18
48
1
60
0
100
AcDbLine
10
16.740584
20
2.25
30
0
11
0
21
2.25
31
0
39
0
210
0
220
0
230
1
0
LINE
5
A8
100
AcDbEntity
8
1
62
256
6
ByLayer
370
18
48
1
60
0
100
AcDbLine
10
0
20
-2.25
30
0
11
16.740584
21
-2.25
31
0
39
0
210
0
220
0
230
1
0
LINE
5
A9
100
AcDbEntity
8
1
62
256
6
ByLayer
370
18
48
1
60
0
100
AcDbLine
10
42.2
20
1.14
30
0
11
42.033535
21
1.306465
31
0
39
0
210
0
220
0
230
1
0
LINE
5
AA
100
AcDbEntity
8
1
62
256
6
ByLayer
370
18
48
1
60
0
100
AcDbLine
10
37.73185
20
2.047508
30
0
11
37.672896
21
2.047508
31
0
39
0
210
0
220
0
230
1
0
LINE
5
AB
100
AcDbEntity
8
1
62
256
6
ByLayer
370
18
48
1
60
0
100
AcDbLine
10
36.622666
20
-2.047508
30
0
11
36.68166
21
-2.047508
31
0
39
0
210
0
220
0
230
1
0
LINE
5
AC
100
AcDbEntity
8
1
62
256
6
ByLayer
370
18
48
1
60
0
100
AcDbLine
10
38.431766
20
2.047508
30
0
11
38.372532
21
2.047508
31
0
39
0
210
0
220
0
230
1
0
LINE
5
AD
100
AcDbEntity
8
1
62
256
6
ByLayer
370
18
48
1
60
0
100
AcDbLine
10
34.378486
20
1.768677
30
0
11
34.027332
21
1.565937
31
0
39
0
210
0
220
0
230
1
0
LINE
5
AE
100
AcDbEntity
8
1
62
256
6
ByLayer
370
18
48
1
60
0
100
AcDbLine
10
35.922768
20
-2.047508
30
0
11
35.98152
21
-2.047508
31
0
39
0
210
0
220
0
230
1
0
LINE
5
AF
100
AcDbEntity
8
1
62
256
6
ByLayer
370
18
48
1
60
0
100
AcDbLine
10
40.122526
20
-2.047508
30
0
11
40.181672
21
-2.047508
31
0
39
0
210
0
220
0
230
1
0
LINE
5
B0
100
AcDbEntity
8
1
62
256
6
ByLayer
370
18
48
1
60
0
100
AcDbLine
10
39.132148
20
2.047508
30
0
11
39.072419
21
2.047508
31
0
39
0
210
0
220
0
230
1
0
LINE
5
B1
100
AcDbEntity
8
1
62
256
6
ByLayer
370
18
48
1
60
0
100
AcDbLine
10
21.043744
20
-1.49895
30
0
11
24.401202
21
-1.49895
31
0
39
0
210
0
220
0
230
1
0
LINE
5
B2
100
AcDbEntity
8
1
62
256
6
ByLayer
370
18
48
1
60
0
100
AcDbLine
10
27.079782
20
-1.49895
30
0
11
28.36536
21
-1.49895
31
0
39
0
210
0
220
0
230
1
0
LINE
5
B3
100
AcDbEntity
8
1
62
256
6
ByLayer
370
18
48
1
60
0
100
AcDbLine
10
31.350401
20
-1.49895
30
0
11
32.64756
21
-1.49895
31
0
39
0
210
0
220
0
230
1
0
LINE
5
B4
100
AcDbEntity
8
1
62
256
6
ByLayer
370
18
48
1
60
0
100
AcDbLine
10
33.777332
20
1.49895
30
0
11
33.484826
21
1.49895
31
0
39
0
210
0
220
0
230
1
0
LINE
5
B5
100
AcDbEntity
8
1
62
256
6
ByLayer
370
18
48
1
60
0
100
AcDbLine
10
30.506118
20
1.49895
30
0
11
29.214528
21
1.49895
31
0
39
0
210
0
220
0
230
1
0
LINE
5
B6
100
AcDbEntity
8
1
62
256
6
ByLayer
370
18
48
1
60
0
100
AcDbLine
10
26.225276
20
1.49895
30
0
11
21.043744
21
1.49895
31
0
39
0
210
0
220
0
230
1
0
LINE
5
B7
100
AcDbEntity
8
1
62
256
6
ByLayer
370
18
48
1
60
0
100
AcDbLine
10
34.905757
20
2.047508
30
0
11
34.872796
21
2.047508
31
0
39
0
210
0
220
0
230
1
0
LINE
5
B8
100
AcDbEntity
8
1
62
256
6
ByLayer
370
18
48
1
60
0
100
AcDbLine
10
20.95692
20
1.506546
30
0
11
16.740584
21
2.25
31
0
39
0
210
0
220
0
230
1
0
LINE
5
B9
100
AcDbEntity
8
1
62
256
6
ByLayer
370
18
48
1
60
0
100
AcDbLine
10
16.740584
20
-2.25
30
0
11
20.95692
21
-1.506546
31
0
39
0
210
0
220
0
230
1
0
LINE
5
BA
100
AcDbEntity
8
SK1
62
256
6
ByLayer
370
18
48
1
60
0
100
AcDbLine
10
-21
20
-1.16
30
0
11
-20.46
21
-1.7
31
0
39
0
210
0
220
0
230
1
0
LINE
5
BB
100
AcDbEntity
8
SK1
62
256
6
ByLayer
370
18
48
1
60
0
100
AcDbLine
10
-20.46
20
1.7
30
0
11
-21
21
1.16
31
0
39
0
210
0
220
0
230
1
0
LINE
5
BC
100
AcDbEntity
8
SK1
62
256
6
ByLayer
370
18
48
1
60
0
100
AcDbLine
10
-14.4
20
2.16
30
0
11
-14.54
21
2.16
31
0
39
0
210
0
220
0
230
1
0
LINE
5
BD
100
AcDbEntity
8
SK1
62
256
6
ByLayer
370
18
48
1
60
0
100
AcDbLine
10
-14.54
20
-2.16
30
0
11
-14.4
21
-2.16
31
0
39
0
210
0
220
0
230
1
0
LINE
5
BE
100
AcDbEntity
8
SK1
62
256
6
ByLayer
370
18
48
1
60
0
100
AcDbLine
10
0
20
2.25
30
0
11
-14.31
21
2.25
31
0
39
0
210
0
220
0
230
1
0
LINE
5
BF
100
AcDbEntity
8
SK1
62
256
6
ByLayer
370
18
48
1
60
0
100
AcDbLine
10
-14.31
20
-2.25
30
0
11
0
21
-2.25
31
0
39
0
210
0
220
0
230
1
0
LINE
5
C0
100
AcDbEntity
8
SK1
62
256
6
ByLayer
370
18
48
1
60
0
100
AcDbLine
10
-14.4
20
-2.16
30
0
11
-14.31
21
-2.25
31
0
39
0
210
0
220
0
230
1
0
LINE
5
C1
100
AcDbEntity
8
SK1
62
256
6
ByLayer
370
18
48
1
60
0
100
AcDbLine
10
-14.31
20
2.25
30
0
11
-14.4
21
2.16
31
0
39
0
210
0
220
0
230
1
0
LINE
5
C2
100
AcDbEntity
8
SK2
62
256
6
ByLayer
370
18
48
1
60
0
100
AcDbLine
10
9.215292
20
18.86497
30
0
11
9.215292
21
-9.75
31
0
39
0
210
0
220
0
230
1
0
LINE
5
C4
100
AcDbEntity
8
1
62
256
6
ByLayer
370
18
48
1
60
1
100
AcDbLine
10
9.215292
20
2.25
30
0
11
8.754508
21
5.749998
31
0
39
0
210
0
220
0
230
1
0
LINE
5
C5
100
AcDbEntity
8
1
62
256
6
ByLayer
370
18
48
1
60
1
100
AcDbLine
10
8.754508
20
5.749998
30
0
11
9.676076
21
5.750002
31
0
39
0
210
0
220
0
230
1
0
LINE
5
C6
100
AcDbEntity
8
1
62
256
6
ByLayer
370
18
48
1
60
1
100
AcDbLine
10
9.676076
20
5.750002
30
0
11
9.215292
21
2.25
31
0
39
0
210
0
220
0
230
1
0
LINE
5
C7
100
AcDbEntity
8
1
62
256
6
ByLayer
370
18
48
1
60
1
100
AcDbLine
10
9.215292
20
-2.25
30
0
11
9.676076
21
-5.749998
31
0
39
0
210
0
220
0
230
1
0
LINE
5
C8
100
AcDbEntity
8
1
62
256
6
ByLayer
370
18
48
1
60
1
100
AcDbLine
10
9.676076
20
-5.749998
30
0
11
8.754508
21
-5.750002
31
0
39
0
210
0
220
0
230
1
0
LINE
5
C9
100
AcDbEntity
8
1
62
256
6
ByLayer
370
18
48
1
60
1
100
AcDbLine
10
8.754508
20
-5.750002
30
0
11
9.215292
21
-2.25
31
0
39
0
210
0
220
0
230
1
0
LINE
5
CA
100
AcDbEntity
8
2
62
256
6
ByLayer
370
18
48
1
60
0
100
AcDbLine
10
42
20
-39.547508
30
0
11
-21
21
-39.547508
31
0
39
0
210
0
220
0
230
1
0
LINE
5
CC
100
AcDbEntity
8
2
62
256
6
ByLayer
370
18
48
1
60
0
100
AcDbLine
10
-21
20
-2.7475
30
0
11
-21
21
-41.547508
31
0
39
0
210
0
220
0
230
1
0
LINE
5
CD
100
AcDbEntity
8
2
62
256
6
ByLayer
370
18
48
1
60
0
100
AcDbLine
10
42
20
-3.635008
30
0
11
42
21
-41.547508
31
0
39
0
210
0
220
0
230
1
0
LINE
5
CE
100
AcDbEntity
8
1
62
256
6
ByLayer
370
18
48
1
60
1
100
AcDbLine
10
-21
20
-39.547508
30
0
11
-17.500002
21
-39.086724
31
0
39
0
210
0
220
0
230
1
0
LINE
5
CF
100
AcDbEntity
8
1
62
256
6
ByLayer
370
18
48
1
60
1
100
AcDbLine
10
-17.500002
20
-39.086724
30
0
11
-17.499998
21
-40.008291
31
0
39
0
210
0
220
0
230
1
0
LINE
5
D0
100
AcDbEntity
8
1
62
256
6
ByLayer
370
18
48
1
60
1
100
AcDbLine
10
-17.499998
20
-40.008291
30
0
11
-21
21
-39.547508
31
0
39
0
210
0
220
0
230
1
0
LINE
5
D1
100
AcDbEntity
8
1
62
256
6
ByLayer
370
18
48
1
60
1
100
AcDbLine
10
42
20
-39.547508
30
0
11
38.500002
21
-40.008291
31
0
39
0
210
0
220
0
230
1
0
LINE
5
D2
100
AcDbEntity
8
1
62
256
6
ByLayer
370
18
48
1
60
1
100
AcDbLine
10
38.500002
20
-40.008291
30
0
11
38.499998
21
-39.086724
31
0
39
0
210
0
220
0
230
1
0
LINE
5
D3
100
AcDbEntity
8
1
62
256
6
ByLayer
370
18
48
1
60
1
100
AcDbLine
10
38.499998
20
-39.086724
30
0
11
42
21
-39.547508
31
0
39
0
210
0
220
0
230
1
0
LINE
5
204
100
AcDbEntity
8
1
62
256
6
ByLayer
370
18
48
1
60
1
100
AcDbLine
10
9.215292
20
2.25
30
0
11
8.754508
21
5.749998
31
0
39
0
210
0
220
0
230
1
0
LINE
5
205
100
AcDbEntity
8
1
62
256
6
ByLayer
370
18
48
1
60
1
100
AcDbLine
10
8.754508
20
5.749998
30
0
11
9.676076
21
5.750002
31
0
39
0
210
0
220
0
230
1
0
LINE
5
206
100
AcDbEntity
8
1
62
256
6
ByLayer
370
18
48
1
60
1
100
AcDbLine
10
9.676076
20
5.750002
30
0
11
9.215292
21
2.25
31
0
39
0
210
0
220
0
230
1
0
LINE
5
208
100
AcDbEntity
8
1
62
256
6
ByLayer
370
18
48
1
60
1
100
AcDbLine
10
9.215292
20
-2.25
30
0
11
9.676076
21
-5.749998
31
0
39
0
210
0
220
0
230
1
0
LINE
5
209
100
AcDbEntity
8
1
62
256
6
ByLayer
370
18
48
1
60
1
100
AcDbLine
10
9.676076
20
-5.749998
30
0
11
8.754508
21
-5.750002
31
0
39
0
210
0
220
0
230
1
0
LINE
5
20A
100
AcDbEntity
8
1
62
256
6
ByLayer
370
18
48
1
60
1
100
AcDbLine
10
8.754508
20
-5.750002
30
0
11
9.215292
21
-2.25
31
0
39
0
210
0
220
0
230
1
0
LINE
5
20D
100
AcDbEntity
8
1
62
256
6
ByLayer
370
18
48
1
60
1
100
AcDbLine
10
-21
20
-39.547508
30
0
11
-17.500002
21
-39.086724
31
0
39
0
210
0
220
0
230
1
0
LINE
5
20E
100
AcDbEntity
8
1
62
256
6
ByLayer
370
18
48
1
60
1
100
AcDbLine
10
-17.500002
20
-39.086724
30
0
11
-17.499998
21
-40.008291
31
0
39
0
210
0
220
0
230
1
0
LINE
5
20F
100
AcDbEntity
8
1
62
256
6
ByLayer
370
18
48
1
60
1
100
AcDbLine
10
-17.499998
20
-40.008291
30
0
11
-21
21
-39.547508
31
0
39
0
210
0
220
0
230
1
0
LINE
5
211
100
AcDbEntity
8
1
62
256
6
ByLayer
370
18
48
1
60
1
100
AcDbLine
10
42
20
-39.547508
30
0
11
38.500002
21
-40.008291
31
0
39
0
210
0
220
0
230
1
0
LINE
5
212
100
AcDbEntity
8
1
62
256
6
ByLayer
370
18
48
1
60
1
100
AcDbLine
10
38.500002
20
-40.008291
30
0
11
38.499998
21
-39.086724
31
0
39
0
210
0
220
0
230
1
0
LINE
5
213
100
AcDbEntity
8
1
62
256
6
ByLayer
370
18
48
1
60
1
100
AcDbLine
10
38.499998
20
-39.086724
30
0
11
42
21
-39.547508
31
0
39
0
210
0
220
0
230
1
0
MTEXT
5
200
100
AcDbEntity
8
SK2
62
256
6
ByLayer
370
18
48
1
60
0
100
AcDbMText
10
7.874177
20
7.908437
30
0
210
0
220
0
230
1
1
%%c
40
3
41
0
44
1.084337
50
90
71
7
72
5
7
iso_b_vert
0
MTEXT
5
203
100
AcDbEntity
8
SK2
62
256
6
ByLayer
370
18
48
1
60
0
100
AcDbMText
10
7.874177
20
13.885
30
0
210
0
220
0
230
1
1
\W0.7610;4.5
40
3
41
0
44
1.084337
50
90
71
7
72
5
7
iso_b_vert
0
MTEXT
5
20C
100
AcDbEntity
8
2
62
256
6
ByLayer
370
18
48
1
60
0
100
AcDbMText
10
8.867172
20
-38.662393
30
0
210
0
220
0
230
1
1
\W0.6740;63
40
3
41
0
44
1.084337
50
0
71
7
72
5
7
iso_b_vert
0
MTEXT
5
215
100
AcDbEntity
8
SK6
62
256
6
ByLayer
370
18
48
1
60
0
100
AcDbMText
10
-9.185305
20
-82.114886
30
0
210
0
220
0
230
1
1
\W0.7472;T300-XM102DA-M4     C145
40
3
41
0
44
1.084337
50
0
71
7
72
5
7
iso_b_vert
0
HATCH
5
207
100
AcDbEntity
8
SK2
62
256
6
ByLayer
370
13
48
1
60
0
100
AcDbHatch
10
0
20
0
30
0
210
0
220
0
230
1
2
ANSI31
70
0
71
0
91
1
92
5
93
3
72
1
10
9.21529189468808
20
2.25000000000003
11
8.7545081531353
21
5.74999830744684
72
1
10
8.7545081531353
20
5.74999830744684
11
9.67607563624085
21
5.75000169255321
72
1
10
9.67607563624085
20
5.75000169255321
11
9.21529189468808
21
2.25000000000003
97
0
75
0
76
1
52
0
41
0.0062
77
0
78
1
53
45
43
0
44
0
45
-0.0139193969876572
46
0.0139193969876572
79
0
47
0
98
1
10
0
20
0
0
HATCH
5
20B
100
AcDbEntity
8
SK2
62
256
6
ByLayer
370
13
48
1
60
0
100
AcDbHatch
10
0
20
0
30
0
210
0
220
0
230
1
2
ANSI31
70
0
71
0
91
1
92
5
93
3
72
1
10
9.21529189468808
20
-2.24999999999997
11
9.67607563624085
21
-5.74999830744679
72
1
10
9.67607563624085
20
-5.74999830744679
11
8.7545081531353
21
-5.75000169255316
72
1
10
8.7545081531353
20
-5.75000169255316
11
9.21529189468808
21
-2.24999999999997
97
0
75
0
76
1
52
0
41
0.0062
77
0
78
1
53
45
43
0
44
0
45
-0.0139193969876572
46
0.0139193969876572
79
0
47
0
98
1
10
0
20
0
0
HATCH
5
210
100
AcDbEntity
8
2
62
256
6
ByLayer
370
13
48
1
60
0
100
AcDbHatch
10
0
20
0
30
0
210
0
220
0
230
1
2
ANSI31
70
0
71
0
91
1
92
5
93
3
72
1
10
-21
20
-39.5475076550227
11
-17.5000016925532
21
-39.08672391347
72
1
10
-17.5000016925532
20
-39.08672391347
11
-17.4999983074468
21
-40.0082913965755
72
1
10
-17.4999983074468
20
-40.0082913965755
11
-21
21
-39.5475076550227
97
0
75
0
76
1
52
0
41
0.0062
77
0
78
1
53
45
43
0
44
0
45
-0.0139193969876572
46
0.0139193969876572
79
0
47
0
98
1
10
0
20
0
0
HATCH
5
214
100
AcDbEntity
8
2
62
256
6
ByLayer
370
13
48
1
60
0
100
AcDbHatch
10
0
20
0
30
0
210
0
220
0
230
1
2
ANSI31
70
0
71
0
91
1
92
5
93
3
72
1
10
42
20
-39.5475076550227
11
38.5000016925532
21
-40.0082913965755
72
1
10
38.5000016925532
20
-40.0082913965755
11
38.4999983074468
21
-39.08672391347
72
1
10
38.4999983074468
20
-39.08672391347
11
42
21
-39.5475076550227
97
0
75
0
76
1
52
0
41
0.0062
77
0
78
1
53
45
43
0
44
0
45
-0.0139193969876572
46
0.0139193969876572
79
0
47
0
98
1
10
0
20
0
0
DIMENSION
5
218
100
AcDbEntity
8
2
62
256
6
ByLayer
370
18
48
1
60
0
100
AcDbDimension
2
_U0
10
60.712492
20
-2.047508
30
0
11
60.712492
21
19.547508
31
0
70
32
71
1
72
1
41
1
210
0
220
0
230
1
3
Standard
100
AcDbAlignedDimension
13
42
23
2.047508
33
0
14
42
24
-2.047508
34
0
50
90
100
AcDbRotatedDimension
1001
ACAD
1000
DSTYLE
1002
{
1070
   371
1070
    13
1070
   372
1070
    13
1070
     3
1000

1070
   170
1070
     0
1070
   144
1040
1.0
1070
   277
1070
     2
1070
   284
1070
     8
1070
   278
1070
    46
1070
   146
1040
1.166667
1070
   345
1005
16
1070
   347
1005
16
1070
   346
1005
16
1070
   344
1005
0
1070
   343
1005
0
1070
   172
1070
     1
1070
    76
1070
     0
1070
    75
1070
     0
1070
   282
1070
     0
1070
   281
1070
     0
1070
    71
1070
     0
1070
    74
1070
     0
1070
   279
1070
     0
1070
   173
1070
     1
1070
   340
1005
201
1070
   271
1070
     3
1070
   272
1070
     3
1070
    77
1070
     1
1070
    73
1070
     0
1070
   171
1070
     3
1070
   274
1070
     4
1070
   177
1070
     2
1070
   176
1070
     2
1070
   178
1070
     2
1070
    78
1070
     8
1070
    48
1040
-0.1
1070
    41
1040
3.5
1070
   147
1040
1.5
1070
    42
1040
1.5875
1070
    44
1040
2.0
1070
   140
1040
3.0
1002
}
1001
ACAD_DSTYLE_DIM_LINETYPE
1070
   380
1005
16
1001
ACAD_DSTYLE_DIM_EXT1_LINETYPE
1070
   381
1005
16
1001
ACAD_DSTYLE_DIM_EXT2_LINETYPE
1070
   382
1005
16
0
DIMENSION
5
233
100
AcDbEntity
8
SK2
62
256
6
ByLayer
370
18
48
1
60
0
100
AcDbDimension
2
_U1
10
40.78
20
11.145629
30
0
11
41.39
21
11.145629
31
0
70
32
71
1
72
1
41
1
210
0
220
0
230
1
3
Standard
100
AcDbAlignedDimension
13
42
23
2.047508
33
0
14
40.78
24
0
34
0
50
0
100
AcDbRotatedDimension
1001
ACAD
1000
DSTYLE
1002
{
1070
   371
1070
    13
1070
   372
1070
    13
1070
   170
1070
     0
1070
   144
1040
1.0
1070
   277
1070
     2
1070
   284
1070
     8
1070
   278
1070
    46
1070
   146
1040
1.166667
1070
   345
1005
16
1070
   347
1005
16
1070
   346
1005
16
1070
   344
1005
0
1070
   343
1005
0
1070
   172
1070
     1
1070
    76
1070
     0
1070
    75
1070
     0
1070
   282
1070
     0
1070
   281
1070
     0
1070
    71
1070
     0
1070
    74
1070
     0
1070
   279
1070
     0
1070
   173
1070
     1
1070
   340
1005
201
1070
   271
1070
     3
1070
   272
1070
     3
1070
    77
1070
     1
1070
    73
1070
     1
1070
   171
1070
     3
1070
   274
1070
     4
1070
   177
1070
     2
1070
   176
1070
     2
1070
   178
1070
     2
1070
    78
1070
     8
1070
    48
1040
-0.1
1070
    41
1040
3.5
1070
   147
1040
1.5
1070
    42
1040
1.5875
1070
    44
1040
2.0
1070
   140
1040
3.0
1002
}
1001
ACAD_DSTYLE_DIM_LINETYPE
1070
   380
1005
16
1001
ACAD_DSTYLE_DIM_EXT1_LINETYPE
1070
   381
1005
16
1001
ACAD_DSTYLE_DIM_EXT2_LINETYPE
1070
   382
1005
16
0
DIMENSION
5
24D
100
AcDbEntity
8
SK2
62
256
6
ByLayer
370
18
48
1
60
0
100
AcDbDimension
2
_U2
10
35
20
-9.047508
30
0
11
54.5
21
-9.047508
31
0
70
32
71
1
72
1
41
1
210
0
220
0
230
1
3
Standard
100
AcDbAlignedDimension
13
42
23
-2.047508
33
0
14
35
24
-2.047508
34
0
50
0
100
AcDbRotatedDimension
1001
ACAD
1000
DSTYLE
1002
{
1070
   371
1070
    13
1070
   372
1070
    13
1070
   170
1070
     0
1070
   144
1040
1.0
1070
   277
1070
     2
1070
   284
1070
     8
1070
   278
1070
    46
1070
   146
1040
0.833333
1070
   345
1005
16
1070
   347
1005
16
1070
   346
1005
16
1070
   344
1005
0
1070
   343
1005
0
1070
   172
1070
     1
1070
    76
1070
     0
1070
    75
1070
     0
1070
   282
1070
     0
1070
   281
1070
     0
1070
    47
1040
0.5
1070
    72
1070
     0
1070
    71
1070
     1
1070
    74
1070
     0
1070
   279
1070
     0
1070
   173
1070
     1
1070
   340
1005
201
1070
   271
1070
     1
1070
   272
1070
     3
1070
    77
1070
     1
1070
    73
1070
     1
1070
   171
1070
     3
1070
   274
1070
     4
1070
   177
1070
     2
1070
   176
1070
     2
1070
   178
1070
     2
1070
    78
1070
     8
1070
    48
1040
0.5
1070
    41
1040
3.5
1070
   147
1040
1.5
1070
    42
1040
1.5875
1070
    44
1040
2.0
1070
   140
1040
3.0
1002
}
1001
ACAD_DSTYLE_DIM_LINETYPE
1070
   380
1005
16
1001
ACAD_DSTYLE_DIM_EXT1_LINETYPE
1070
   381
1005
16
1001
ACAD_DSTYLE_DIM_EXT2_LINETYPE
1070
   382
1005
16
0
DIMENSION
5
268
100
AcDbEntity
8
SK2
62
256
6
ByLayer
370
18
48
1
60
0
100
AcDbDimension
2
_U3
10
21
20
-31.547508
30
0
11
31.5
21
-31.547508
31
0
70
32
71
1
72
1
41
1
210
0
220
0
230
1
3
Standard
100
AcDbAlignedDimension
13
42
23
-2.047508
33
0
14
21
24
-1.49895
34
0
50
0
100
AcDbRotatedDimension
1001
ACAD
1000
DSTYLE
1002
{
1070
   371
1070
    13
1070
   372
1070
    13
1070
   170
1070
     0
1070
   144
1040
1.0
1070
   277
1070
     2
1070
   284
1070
     8
1070
   278
1070
    46
1070
   146
1040
1.166667
1070
   345
1005
16
1070
   347
1005
16
1070
   346
1005
16
1070
   344
1005
0
1070
   343
1005
0
1070
   172
1070
     1
1070
    76
1070
     0
1070
    75
1070
     0
1070
   282
1070
     0
1070
   281
1070
     0
1070
    71
1070
     0
1070
    74
1070
     0
1070
   279
1070
     0
1070
   173
1070
     1
1070
   340
1005
201
1070
   271
1070
     1
1070
   272
1070
     3
1070
    77
1070
     1
1070
    73
1070
     1
1070
   171
1070
     3
1070
   274
1070
     4
1070
   177
1070
     2
1070
   176
1070
     2
1070
   178
1070
     2
1070
    78
1070
     8
1070
    48
1040
-0.1
1070
    41
1040
3.5
1070
   147
1040
1.5
1070
    42
1040
1.5875
1070
    44
1040
2.0
1070
   140
1040
3.0
1002
}
1001
ACAD_DSTYLE_DIM_LINETYPE
1070
   380
1005
16
1001
ACAD_DSTYLE_DIM_EXT1_LINETYPE
1070
   381
1005
16
1001
ACAD_DSTYLE_DIM_EXT2_LINETYPE
1070
   382
1005
16
0
DIMENSION
5
280
100
AcDbEntity
8
2
62
256
6
ByLayer
370
18
48
1
60
0
100
AcDbDimension
2
_U4
10
24.15
20
-20.547508
30
0
11
33.075
21
-20.547508
31
0
70
32
71
1
72
1
41
1
210
0
220
0
230
1
3
Standard
100
AcDbAlignedDimension
13
42
23
-2.047508
33
0
14
24.15
24
0
34
0
50
0
100
AcDbRotatedDimension
1001
ACAD
1000
DSTYLE
1002
{
1070
   371
1070
    13
1070
   372
1070
    13
1070
   170
1070
     0
1070
   144
1040
1.0
1070
   277
1070
     2
1070
   284
1070
     8
1070
   278
1070
    46
1070
   146
1040
1.166667
1070
   345
1005
16
1070
   347
1005
16
1070
   346
1005
16
1070
   344
1005
0
1070
   343
1005
0
1070
   172
1070
     1
1070
    76
1070
     0
1070
    75
1070
     0
1070
   282
1070
     0
1070
   281
1070
     0
1070
    71
1070
     0
1070
    74
1070
     0
1070
   279
1070
     0
1070
   173
1070
     1
1070
   340
1005
201
1070
   271
1070
     1
1070
   272
1070
     3
1070
    77
1070
     1
1070
    73
1070
     1
1070
   171
1070
     3
1070
   274
1070
     4
1070
   177
1070
     2
1070
   176
1070
     2
1070
   178
1070
     2
1070
    78
1070
     8
1070
    48
1040
-0.1
1070
    41
1040
3.5
1070
   147
1040
1.5
1070
    42
1040
1.5875
1070
    44
1040
2.0
1070
   140
1040
3.0
1002
}
1001
ACAD_DSTYLE_DIM_LINETYPE
1070
   380
1005
16
1001
ACAD_DSTYLE_DIM_EXT1_LINETYPE
1070
   381
1005
16
1001
ACAD_DSTYLE_DIM_EXT2_LINETYPE
1070
   382
1005
16
0
ENDSEC
0
SECTION
2
OBJECTS
0
DICTIONARY
5
308
330
0
100
AcDbDictionary
280
0
281
1
3
ACAD_GROUP
350
309
3
ACAD_MLINESTYLE
350
30a
0
DICTIONARY
5
309
330
0
100
AcDbDictionary
280
0
281
1
0
DICTIONARY
5
30a
330
0
100
AcDbDictionary
280
0
281
1
3
Standard
350
18
0
MLINESTYLE
5
18
330
30a
100
AcDbMlineStyle
2
Standard
70
0
3

62
256
51
90
52
90
71
2
49
-0.5
62
256
6
ByLayer
49
0.5
62
256
6
ByLayer
0
RASTERVARIABLES
5
2f6
330

100
AcDbRasterVariables
90
0
70
1
71
1
72
1
0
ENDSEC
0
EOF
