0
SECTION
2
HEADER
9
$ACADVER
1
AC1015
9
$DWGCODEPAGE
3
ANSI_1252
9
$HANDSEED
5
2f0
9
$ANGBASE
50
0
9
$ANGDIR
70
0
9
$ATTMODE
70
1
9
$AUNITS
70
0
9
$AUPREC
70
0
9
$CECOLOR
62
256
9
$CELTSCALE
40
1
9
$CELTYPE
6
ByLayer
9
$CELWEIGHT
370
18
9
$CLAYER
8
0
9
$CMLJUST
70
0
9
$CMLSCALE
40
1
9
$CMLSTYLE
2
Standard
9
$DIMSTYLE
2
Standard
9
$TEXTSIZE
40
0.2
9
$TEXTSTYLE
7
Standard
9
$LUNITS
70
2
9
$LUPREC
70
4
9
$EXTNAMES
290
1
9
$INSUNITS
70
4
9
$LTSCALE
40
1
9
$LWDISPLAY
290
1
9
$PDMODE
70
0
9
$PDSIZE
40
0
9
$PLINEGEN
70
0
0
ENDSEC
0
SECTION
2
CLASSES
0
CLASS
1
RASTERVARIABLES
2
AcDbRasterVariables
3
ISM
90
0
280
0
281
0
0
ENDSEC
0
SECTION
2
TABLES
0
TABLE
2
VPORT
5
2e6
100
AcDbSymbolTable
0
VPORT
5
1
100
AcDbSymbolTableRecord
100
AcDbViewportTableRecord
2
*Active
70
0
10
0
20
0
11
1
21
1
12
-1
22
1
13
0
23
0
14
0.5
24
0.5
15
10
25
10
16
0
26
0
36
1
17
0
27
0
37
0
0
ENDTAB
0
TABLE
2
LTYPE
5
2e7
100
AcDbSymbolTable
0
LTYPE
5
14
100
AcDbSymbolTableRecord
100
AcDbLinetypeTableRecord
70
0
2
ByBlock
3

72
65
73
0
40
0
0
LTYPE
5
15
100
AcDbSymbolTableRecord
100
AcDbLinetypeTableRecord
70
0
2
ByLayer
3

72
65
73
0
40
0
0
LTYPE
5
16
100
AcDbSymbolTableRecord
100
AcDbLinetypeTableRecord
70
0
2
Continuous
3
Solid line
72
65
73
0
40
0
0
LTYPE
5
6E
100
AcDbSymbolTableRecord
100
AcDbLinetypeTableRecord
70
0
2
CENTER
3
____ _ ____ _ ____ _ ____
72
65
73
4
40
47.5
49
22
74
0
49
-8.5
74
0
49
8.5
74
0
49
-8.5
74
0
0
LTYPE
5
6F
100
AcDbSymbolTableRecord
100
AcDbLinetypeTableRecord
70
0
2
DASHED
3
__ __ __ __ __ __ __ __ __
72
65
73
2
40
25.72
49
12.86
74
0
49
-12.86
74
0
0
ENDTAB
0
TABLE
2
LAYER
5
2e8
100
AcDbSymbolTable
0
LAYER
5
10
100
AcDbSymbolTableRecord
100
AcDbLayerTableRecord
2
0
70
0
62
7
6
Continuous
290
1
370
-3
390
0
0
LAYER
5
71
100
AcDbSymbolTableRecord
100
AcDbLayerTableRecord
2
80
70
0
62
-6
6
Continuous
290
1
370
-3
390
0
0
LAYER
5
73
100
AcDbSymbolTableRecord
100
AcDbLayerTableRecord
2
81
70
0
62
-3
6
Continuous
290
1
370
-3
390
0
0
LAYER
5
75
100
AcDbSymbolTableRecord
100
AcDbLayerTableRecord
2
1
70
0
62
4
6
Continuous
290
1
370
-3
390
0
0
LAYER
5
81
100
AcDbSymbolTableRecord
100
AcDbLayerTableRecord
2
4
70
0
62
-2
6
CENTER
290
1
370
-3
390
0
0
LAYER
5
C3
100
AcDbSymbolTableRecord
100
AcDbLayerTableRecord
2
2
70
0
62
7
6
Continuous
290
1
370
-3
390
0
0
LAYER
5
1F6
100
AcDbSymbolTableRecord
100
AcDbLayerTableRecord
2
Defpoints
70
0
62
7
6
Continuous
290
0
370
-3
390
0
0
LAYER
5
2d2
100
AcDbSymbolTableRecord
100
AcDbLayerTableRecord
2
SK4
70
0
62
2
6
CENTER
290
1
370
-3
390
0
0
LAYER
5
2d3
100
AcDbSymbolTableRecord
100
AcDbLayerTableRecord
2
SK1
70
0
62
4
6
Continuous
290
1
370
-3
390
0
0
LAYER
5
2d4
100
AcDbSymbolTableRecord
100
AcDbLayerTableRecord
2
SK2
70
0
62
7
6
Continuous
290
1
370
-3
390
0
0
LAYER
5
2d5
100
AcDbSymbolTableRecord
100
AcDbLayerTableRecord
2
SK6
70
0
62
5
6
Continuous
290
1
370
-3
390
0
0
ENDTAB
0
TABLE
2
STYLE
5
2e9
100
AcDbSymbolTable
0
STYLE
5
11
100
AcDbSymbolTableRecord
100
AcDbTextStyleTableRecord
2
Standard
3
txt
70
0
71
0
40
0
41
1
42
0
50
0
0
STYLE
5
1DC
100
AcDbSymbolTableRecord
100
AcDbTextStyleTableRecord
2
iso_b_vert
3
simplex.shx
70
0
71
0
40
0
41
1
42
0
50
0
0
STYLE
5
1DD
100
AcDbSymbolTableRecord
100
AcDbTextStyleTableRecord
2
DWGDirectTextStyle
3
simplex
70
0
71
0
40
0
41
1
42
0
50
0
0
ENDTAB
0
TABLE
2
DIMSTYLE
5
2ea
100
AcDbSymbolTable
100
AcDbDimStyleTable
0
DIMSTYLE
105
27
100
AcDbSymbolTableRecord
100
AcDbDimStyleTableRecord
2
Standard
70
0
3
<>
41
0.18
42
0.0625
44
0.18
140
0.18
147
0.09
73
0
74
0
77
1
271
2
275
0
278
52
280
0
340
11
0
ENDTAB
0
TABLE
2
VIEW
5
2eb
100
AcDbSymbolTable
0
ENDTAB
0
TABLE
2
UCS
5
2ec
100
AcDbSymbolTable
0
ENDTAB
0
TABLE
2
APPID
5
2ed
100
AcDbSymbolTable
0
APPID
5
12
100
AcDbSymbolTableRecord
100
AcDbRegAppTableRecord
2
ACAD
70
0
0
APPID
5
1F2
100
AcDbSymbolTableRecord
100
AcDbRegAppTableRecord
2
ACAD_DSTYLE_DIMBREAK
70
0
0
APPID
5
291
100
AcDbSymbolTableRecord
100
AcDbRegAppTableRecord
2
ACAD_DSTYLE_DIM_LINETYPE
70
0
0
APPID
5
292
100
AcDbSymbolTableRecord
100
AcDbRegAppTableRecord
2
ACAD_DSTYLE_DIM_EXT1_LINETYPE
70
0
0
APPID
5
293
100
AcDbSymbolTableRecord
100
AcDbRegAppTableRecord
2
ACAD_DSTYLE_DIM_EXT2_LINETYPE
70
0
0
APPID
5
2CE
100
AcDbSymbolTableRecord
100
AcDbRegAppTableRecord
2
ACAD_MLEADERVER
70
0
0
ENDTAB
0
TABLE
2
BLOCK_RECORD
5
2ee
100
AcDbSymbolTable
0
BLOCK_RECORD
5
1F
100
AcDbSymbolTableRecord
100
AcDbBlockTableRecord
2
*Model_Space
340
0
70
0
0
BLOCK_RECORD
5
1B
100
AcDbSymbolTableRecord
100
AcDbBlockTableRecord
2
*Paper_Space
340
0
70
0
0
BLOCK_RECORD
5
23
100
AcDbSymbolTableRecord
100
AcDbBlockTableRecord
2
*Paper_Space0
340
0
70
0
0
BLOCK_RECORD
5
1F7
100
AcDbSymbolTableRecord
100
AcDbBlockTableRecord
2
*D1
340
0
70
0
0
BLOCK_RECORD
5
205
100
AcDbSymbolTableRecord
100
AcDbBlockTableRecord
2
_U0
340
0
70
0
0
BLOCK_RECORD
5
211
100
AcDbSymbolTableRecord
100
AcDbBlockTableRecord
2
*D3
340
0
70
0
0
BLOCK_RECORD
5
21E
100
AcDbSymbolTableRecord
100
AcDbBlockTableRecord
2
_U1
340
0
70
0
0
BLOCK_RECORD
5
22B
100
AcDbSymbolTableRecord
100
AcDbBlockTableRecord
2
*D5
340
0
70
0
0
BLOCK_RECORD
5
239
100
AcDbSymbolTableRecord
100
AcDbBlockTableRecord
2
_U2
340
0
70
0
0
BLOCK_RECORD
5
246
100
AcDbSymbolTableRecord
100
AcDbBlockTableRecord
2
*D7
340
0
70
0
0
BLOCK_RECORD
5
252
100
AcDbSymbolTableRecord
100
AcDbBlockTableRecord
2
_U3
340
0
70
0
0
BLOCK_RECORD
5
25E
100
AcDbSymbolTableRecord
100
AcDbBlockTableRecord
2
*D9
340
0
70
0
0
BLOCK_RECORD
5
26A
100
AcDbSymbolTableRecord
100
AcDbBlockTableRecord
2
_U4
340
0
70
0
0
ENDTAB
0
ENDSEC
0
SECTION
2
BLOCKS
0
BLOCK
5
20
100
AcDbEntity
8
0
100
AcDbBlockBegin
2
*Model_Space
70
0
10
0
20
0
30
0
3
*Model_Space
0
ENDBLK
5
21
100
AcDbEntity
8
0
100
AcDbBlockEnd
0
BLOCK
5
1C
100
AcDbEntity
8
0
100
AcDbBlockBegin
2
*Paper_Space
70
0
10
0
20
0
30
0
3
*Paper_Space
0
ENDBLK
5
1D
100
AcDbEntity
8
0
100
AcDbBlockEnd
0
BLOCK
5
24
100
AcDbEntity
8
0
100
AcDbBlockBegin
2
*Paper_Space0
70
0
10
0
20
0
30
0
3
*Paper_Space0
0
ENDBLK
5
25
100
AcDbEntity
8
0
100
AcDbBlockEnd
0
BLOCK
5
1F8
100
AcDbEntity
8
0
100
AcDbBlockBegin
2
*D1
70
1
10
0
20
0
30
0
3
*D1
0
LINE
5
1FA
100
AcDbEntity
8
0
62
256
6
ByLayer
370
-2
48
1
60
0
100
AcDbLine
10
68.5875
20
4.064208
30
0
11
88.5
21
4.064208
31
0
39
0
210
0
220
0
230
1
0
LINE
5
1FB
100
AcDbEntity
8
0
62
256
6
ByLayer
370
-2
48
1
60
0
100
AcDbLine
10
68.5875
20
-4.064208
30
0
11
88.5
21
-4.064208
31
0
39
0
210
0
220
0
230
1
0
LINE
5
1FC
100
AcDbEntity
8
0
62
256
6
ByLayer
370
-2
48
1
60
0
100
AcDbLine
10
86.5
20
4.064208
30
0
11
86.5
21
32.064208
31
0
39
0
210
0
220
0
230
1
0
LINE
5
1FD
100
AcDbEntity
8
0
62
256
6
ByLayer
370
-2
48
1
60
0
100
AcDbLine
10
86.5
20
7.564208
30
0
11
86.5
21
11.064208
31
0
39
0
210
0
220
0
230
1
0
LINE
5
1FE
100
AcDbEntity
8
0
62
256
6
ByLayer
370
-2
48
1
60
0
100
AcDbLine
10
86.5
20
-7.564208
30
0
11
86.5
21
-11.064208
31
0
39
0
210
0
220
0
230
1
0
SOLID
5
1FF
100
AcDbEntity
8
0
62
256
6
ByLayer
370
-1
48
1
60
0
100
AcDbTrace
10
85.916667
20
7.564208
30
0
11
87.083333
21
7.564208
31
0
12
86.5
22
4.064208
32
0
13
86.5
23
4.064208
33
0
39
0
210
0
220
0
230
1
0
SOLID
5
200
100
AcDbEntity
8
0
62
256
6
ByLayer
370
-1
48
1
60
0
100
AcDbTrace
10
87.083333
20
-7.564208
30
0
11
85.916667
21
-7.564208
31
0
12
86.5
22
-4.064208
32
0
13
86.5
23
-4.064208
33
0
39
0
210
0
220
0
230
1
0
MTEXT
5
201
100
AcDbEntity
8
0
62
256
6
ByLayer
370
18
48
1
60
0
100
AcDbMText
10
80.5
20
21.564208
30
0
210
0
220
0
230
1
1
\A1;8.128
40
3
41
0
44
1
50
90
71
5
72
5
7
iso_b_vert
0
POINT
5
202
100
AcDbEntity
8
Defpoints
62
0
6
ByLayer
370
-1
48
1
60
0
100
AcDbPoint
10
67
20
4.064208
30
0
39
0
210
0
220
0
230
1
50
360
0
POINT
5
203
100
AcDbEntity
8
Defpoints
62
0
6
ByLayer
370
-1
48
1
60
0
100
AcDbPoint
10
67
20
-4.064208
30
0
39
0
210
0
220
0
230
1
50
360
0
POINT
5
204
100
AcDbEntity
8
Defpoints
62
0
6
ByLayer
370
-1
48
1
60
0
100
AcDbPoint
10
86.5
20
-4.064208
30
0
39
0
210
0
220
0
230
1
50
360
0
ENDBLK
5
1F9
100
AcDbEntity
8
0
100
AcDbBlockEnd
0
BLOCK
5
20C
100
AcDbEntity
8
0
100
AcDbBlockBegin
2
_U0
70
0
10
0
20
0
30
0
3
_U0
0
MTEXT
5
206
100
AcDbEntity
8
2
62
256
6
ByLayer
370
18
48
1
60
0
100
AcDbMText
10
85.908886
20
14.199208
30
0
210
0
220
0
230
1
1
\W0.7203;M8
40
3
41
0
44
1.084337
50
90
71
7
72
5
7
iso_b_vert
0
LINE
5
207
100
AcDbEntity
8
2
62
256
6
ByLayer
370
13
48
1
60
0
100
AcDbLine
10
68.5875
20
4.064208
30
0
11
88.5
21
4.064208
31
0
39
0
210
0
220
0
230
1
0
LINE
5
208
100
AcDbEntity
8
2
62
256
6
ByLayer
370
13
48
1
60
0
100
AcDbLine
10
68.5875
20
-4.064208
30
0
11
88.5
21
-4.064208
31
0
39
0
210
0
220
0
230
1
0
LINE
5
209
100
AcDbEntity
8
2
62
256
6
ByLayer
370
13
48
1
60
0
100
AcDbLine
10
86.5
20
-4.064208
30
0
11
86.5
21
18.319008
31
0
39
0
210
0
220
0
230
1
0
SOLID
5
20A
100
AcDbEntity
8
2
62
256
6
ByLayer
370
18
48
1
60
0
100
AcDbTrace
10
86.5
20
4.064208
30
0
11
86.960784
21
0.56421
31
0
12
86.039216
22
0.564207
32
0
13
86.039216
23
0.564207
33
0
39
0
210
0
220
0
230
1
0
SOLID
5
20B
100
AcDbEntity
8
2
62
256
6
ByLayer
370
18
48
1
60
0
100
AcDbTrace
10
86.5
20
-4.064208
30
0
11
86.039216
21
-0.56421
31
0
12
86.960784
22
-0.564207
32
0
13
86.960784
23
-0.564207
33
0
39
0
210
0
220
0
230
1
0
ENDBLK
5
20D
100
AcDbEntity
8
0
100
AcDbBlockEnd
0
BLOCK
5
212
100
AcDbEntity
8
0
100
AcDbBlockBegin
2
*D3
70
1
10
0
20
0
30
0
3
*D3
0
LINE
5
214
100
AcDbEntity
8
0
62
256
6
ByLayer
370
-2
48
1
60
0
100
AcDbLine
10
67
20
5.651708
30
0
11
67
21
15.4486
31
0
39
0
210
0
220
0
230
1
0
LINE
5
215
100
AcDbEntity
8
0
62
256
6
ByLayer
370
-2
48
1
60
0
100
AcDbLine
10
63.56
20
1.5875
30
0
11
63.56
21
15.4486
31
0
39
0
210
0
220
0
230
1
0
LINE
5
216
100
AcDbEntity
8
0
62
256
6
ByLayer
370
-2
48
1
60
0
100
AcDbLine
10
70.5
20
13.4486
30
0
11
74
21
13.4486
31
0
39
0
210
0
220
0
230
1
0
LINE
5
217
100
AcDbEntity
8
0
62
256
6
ByLayer
370
-2
48
1
60
0
100
AcDbLine
10
60.06
20
13.4486
30
0
11
56.56
21
13.4486
31
0
39
0
210
0
220
0
230
1
0
SOLID
5
218
100
AcDbEntity
8
0
62
256
6
ByLayer
370
-1
48
1
60
0
100
AcDbTrace
10
70.5
20
14.031933
30
0
11
70.5
21
12.865267
31
0
12
67
22
13.4486
32
0
13
67
23
13.4486
33
0
39
0
210
0
220
0
230
1
0
SOLID
5
219
100
AcDbEntity
8
0
62
256
6
ByLayer
370
-1
48
1
60
0
100
AcDbTrace
10
60.06
20
12.865267
30
0
11
60.06
21
14.031933
31
0
12
63.56
22
13.4486
32
0
13
63.56
23
13.4486
33
0
39
0
210
0
220
0
230
1
0
MTEXT
5
21A
100
AcDbEntity
8
0
62
256
6
ByLayer
370
18
48
1
60
0
100
AcDbMText
10
65.28
20
19.4486
30
0
210
0
220
0
230
1
1
\A1;3.44
40
3
41
0
44
1
50
0
71
5
72
5
7
iso_b_vert
0
POINT
5
21B
100
AcDbEntity
8
Defpoints
62
0
6
ByLayer
370
-1
48
1
60
0
100
AcDbPoint
10
67
20
4.064208
30
0
39
0
210
0
220
0
230
1
50
360
0
POINT
5
21C
100
AcDbEntity
8
Defpoints
62
0
6
ByLayer
370
-1
48
1
60
0
100
AcDbPoint
10
63.56
20
0
30
0
39
0
210
0
220
0
230
1
50
360
0
POINT
5
21D
100
AcDbEntity
8
Defpoints
62
0
6
ByLayer
370
-1
48
1
60
0
100
AcDbPoint
10
63.56
20
13.4486
30
0
39
0
210
0
220
0
230
1
50
360
0
ENDBLK
5
213
100
AcDbEntity
8
0
100
AcDbBlockEnd
0
BLOCK
5
226
100
AcDbEntity
8
0
100
AcDbBlockBegin
2
_U1
70
0
10
0
20
0
30
0
3
_U1
0
MTEXT
5
21F
100
AcDbEntity
8
SK2
62
256
6
ByLayer
370
18
48
1
60
0
100
AcDbMText
10
61.629158
20
14.231234
30
0
210
0
220
0
230
1
1
\W0.6474;'C'
40
3.5
41
0
44
1.084337
50
0
71
7
72
5
7
iso_b_vert
0
MTEXT
5
220
100
AcDbEntity
8
SK2
62
256
6
ByLayer
370
18
48
1
60
0
100
AcDbMText
10
61.602658
20
21.333715
30
0
210
0
220
0
230
1
1
\W0.7865;3.44
40
3
41
0
44
1.084337
50
0
71
7
72
5
7
iso_b_vert
0
LINE
5
221
100
AcDbEntity
8
SK2
62
256
6
ByLayer
370
13
48
1
60
0
100
AcDbLine
10
67
20
5.651708
30
0
11
67
21
15.4486
31
0
39
0
210
0
220
0
230
1
0
LINE
5
222
100
AcDbEntity
8
SK2
62
256
6
ByLayer
370
13
48
1
60
0
100
AcDbLine
10
63.56
20
1.5875
30
0
11
63.56
21
15.4486
31
0
39
0
210
0
220
0
230
1
0
LINE
5
223
100
AcDbEntity
8
SK2
62
256
6
ByLayer
370
13
48
1
60
0
100
AcDbLine
10
74.5
20
13.4486
30
0
11
56.06
21
13.4486
31
0
39
0
210
0
220
0
230
1
0
SOLID
5
224
100
AcDbEntity
8
SK2
62
256
6
ByLayer
370
18
48
1
60
0
100
AcDbTrace
10
67
20
13.4486
30
0
11
70.499998
21
13.909384
31
0
12
70.500002
22
12.987816
32
0
13
70.500002
23
12.987816
33
0
39
0
210
0
220
0
230
1
0
SOLID
5
225
100
AcDbEntity
8
SK2
62
256
6
ByLayer
370
18
48
1
60
0
100
AcDbTrace
10
63.56
20
13.4486
30
0
11
60.060002
21
12.987816
31
0
12
60.059998
22
13.909384
32
0
13
60.059998
23
13.909384
33
0
39
0
210
0
220
0
230
1
0
ENDBLK
5
227
100
AcDbEntity
8
0
100
AcDbBlockEnd
0
BLOCK
5
22C
100
AcDbEntity
8
0
100
AcDbBlockBegin
2
*D5
70
1
10
0
20
0
30
0
3
*D5
0
LINE
5
22E
100
AcDbEntity
8
0
62
256
6
ByLayer
370
-2
48
1
60
0
100
AcDbLine
10
67
20
-5.651708
30
0
11
67
21
-13.064208
31
0
39
0
210
0
220
0
230
1
0
LINE
5
22F
100
AcDbEntity
8
0
62
256
6
ByLayer
370
-2
48
1
60
0
100
AcDbLine
10
55
20
-5.651708
30
0
11
55
21
-13.064208
31
0
39
0
210
0
220
0
230
1
0
LINE
5
230
100
AcDbEntity
8
0
62
256
6
ByLayer
370
-2
48
1
60
0
100
AcDbLine
10
67
20
-11.064208
30
0
11
87.428571
21
-11.064208
31
0
39
0
210
0
220
0
230
1
0
LINE
5
231
100
AcDbEntity
8
0
62
256
6
ByLayer
370
-2
48
1
60
0
100
AcDbLine
10
70.5
20
-11.064208
30
0
11
74
21
-11.064208
31
0
39
0
210
0
220
0
230
1
0
LINE
5
232
100
AcDbEntity
8
0
62
256
6
ByLayer
370
-2
48
1
60
0
100
AcDbLine
10
51.5
20
-11.064208
30
0
11
48
21
-11.064208
31
0
39
0
210
0
220
0
230
1
0
SOLID
5
233
100
AcDbEntity
8
0
62
256
6
ByLayer
370
-1
48
1
60
0
100
AcDbTrace
10
70.5
20
-10.480875
30
0
11
70.5
21
-11.647542
31
0
12
67
22
-11.064208
32
0
13
67
23
-11.064208
33
0
39
0
210
0
220
0
230
1
0
SOLID
5
234
100
AcDbEntity
8
0
62
256
6
ByLayer
370
-1
48
1
60
0
100
AcDbTrace
10
51.5
20
-11.647542
30
0
11
51.5
21
-10.480875
31
0
12
55
22
-11.064208
32
0
13
55
23
-11.064208
33
0
39
0
210
0
220
0
230
1
0
MTEXT
5
235
100
AcDbEntity
8
0
62
256
6
ByLayer
370
18
48
1
60
0
100
AcDbMText
10
80.714286
20
-5.064208
30
0
210
0
220
0
230
1
1
\A1;12
40
3
41
0
44
1
50
0
71
5
72
5
7
iso_b_vert
0
POINT
5
236
100
AcDbEntity
8
Defpoints
62
0
6
ByLayer
370
-1
48
1
60
0
100
AcDbPoint
10
67
20
-4.064208
30
0
39
0
210
0
220
0
230
1
50
360
0
POINT
5
237
100
AcDbEntity
8
Defpoints
62
0
6
ByLayer
370
-1
48
1
60
0
100
AcDbPoint
10
55
20
-4.064208
30
0
39
0
210
0
220
0
230
1
50
360
0
POINT
5
238
100
AcDbEntity
8
Defpoints
62
0
6
ByLayer
370
-1
48
1
60
0
100
AcDbPoint
10
55
20
-11.064208
30
0
39
0
210
0
220
0
230
1
50
360
0
ENDBLK
5
22D
100
AcDbEntity
8
0
100
AcDbBlockEnd
0
BLOCK
5
241
100
AcDbEntity
8
0
100
AcDbBlockBegin
2
_U2
70
0
10
0
20
0
30
0
3
_U2
0
MTEXT
5
23A
100
AcDbEntity
8
SK2
62
256
6
ByLayer
370
18
48
1
60
0
100
AcDbMText
10
73.159
20
-10.179094
30
0
210
0
220
0
230
1
1
\W0.5321;12
40
3
41
0
44
1.084337
50
0
71
7
72
5
7
iso_b_vert
0
MTEXT
5
23B
100
AcDbEntity
8
SK2
62
256
6
ByLayer
370
18
48
1
60
0
100
AcDbMText
10
78.466271
20
-9.826613
30
0
210
0
220
0
230
1
1
\W0.8315;\W0.4158;%%p\W0.8315;0.5
40
2.5
41
0
44
1.084337
50
0
71
7
72
5
7
iso_b_vert
0
LINE
5
23C
100
AcDbEntity
8
SK2
62
256
6
ByLayer
370
13
48
1
60
0
100
AcDbLine
10
67
20
-5.651708
30
0
11
67
21
-13.064208
31
0
39
0
210
0
220
0
230
1
0
LINE
5
23D
100
AcDbEntity
8
SK2
62
256
6
ByLayer
370
13
48
1
60
0
100
AcDbLine
10
55
20
-5.651708
30
0
11
55
21
-13.064208
31
0
39
0
210
0
220
0
230
1
0
LINE
5
23E
100
AcDbEntity
8
SK2
62
256
6
ByLayer
370
13
48
1
60
0
100
AcDbLine
10
55
20
-11.064208
30
0
11
85.583008
21
-11.064208
31
0
39
0
210
0
220
0
230
1
0
SOLID
5
23F
100
AcDbEntity
8
SK2
62
256
6
ByLayer
370
18
48
1
60
0
100
AcDbTrace
10
67
20
-11.064208
30
0
11
63.500002
21
-11.524992
31
0
12
63.499998
22
-10.603425
32
0
13
63.499998
23
-10.603425
33
0
39
0
210
0
220
0
230
1
0
SOLID
5
240
100
AcDbEntity
8
SK2
62
256
6
ByLayer
370
18
48
1
60
0
100
AcDbTrace
10
55
20
-11.064208
30
0
11
58.499998
21
-10.603425
31
0
12
58.500002
22
-11.524992
32
0
13
58.500002
23
-11.524992
33
0
39
0
210
0
220
0
230
1
0
ENDBLK
5
242
100
AcDbEntity
8
0
100
AcDbBlockEnd
0
BLOCK
5
247
100
AcDbEntity
8
0
100
AcDbBlockBegin
2
*D7
70
1
10
0
20
0
30
0
3
*D7
0
LINE
5
249
100
AcDbEntity
8
0
62
256
6
ByLayer
370
-2
48
1
60
0
100
AcDbLine
10
67
20
-5.651708
30
0
11
67
21
-35.564208
31
0
39
0
210
0
220
0
230
1
0
LINE
5
24A
100
AcDbEntity
8
0
62
256
6
ByLayer
370
-2
48
1
60
0
100
AcDbLine
10
24
20
-4.4375
30
0
11
24
21
-35.564208
31
0
39
0
210
0
220
0
230
1
0
LINE
5
24B
100
AcDbEntity
8
0
62
256
6
ByLayer
370
-2
48
1
60
0
100
AcDbLine
10
63.5
20
-33.564208
30
0
11
27.5
21
-33.564208
31
0
39
0
210
0
220
0
230
1
0
SOLID
5
24C
100
AcDbEntity
8
0
62
256
6
ByLayer
370
-1
48
1
60
0
100
AcDbTrace
10
63.5
20
-34.147542
30
0
11
63.5
21
-32.980875
31
0
12
67
22
-33.564208
32
0
13
67
23
-33.564208
33
0
39
0
210
0
220
0
230
1
0
SOLID
5
24D
100
AcDbEntity
8
0
62
256
6
ByLayer
370
-1
48
1
60
0
100
AcDbTrace
10
27.5
20
-32.980875
30
0
11
27.5
21
-34.147542
31
0
12
24
22
-33.564208
32
0
13
24
23
-33.564208
33
0
39
0
210
0
220
0
230
1
0
MTEXT
5
24E
100
AcDbEntity
8
0
62
256
6
ByLayer
370
18
48
1
60
0
100
AcDbMText
10
45.5
20
-27.564208
30
0
210
0
220
0
230
1
1
\A1;43
40
3
41
0
44
1
50
0
71
5
72
5
7
iso_b_vert
0
POINT
5
24F
100
AcDbEntity
8
Defpoints
62
0
6
ByLayer
370
-1
48
1
60
0
100
AcDbPoint
10
67
20
-4.064208
30
0
39
0
210
0
220
0
230
1
50
360
0
POINT
5
250
100
AcDbEntity
8
Defpoints
62
0
6
ByLayer
370
-1
48
1
60
0
100
AcDbPoint
10
24
20
-2.85
30
0
39
0
210
0
220
0
230
1
50
360
0
POINT
5
251
100
AcDbEntity
8
Defpoints
62
0
6
ByLayer
370
-1
48
1
60
0
100
AcDbPoint
10
24
20
-33.564208
30
0
39
0
210
0
220
0
230
1
50
360
0
ENDBLK
5
248
100
AcDbEntity
8
0
100
AcDbBlockEnd
0
BLOCK
5
259
100
AcDbEntity
8
0
100
AcDbBlockBegin
2
_U3
70
0
10
0
20
0
30
0
3
_U3
0
MTEXT
5
253
100
AcDbEntity
8
SK2
62
256
6
ByLayer
370
18
48
1
60
0
100
AcDbMText
10
43.709229
20
-32.679094
30
0
210
0
220
0
230
1
1
\W0.7361;43
40
3
41
0
44
1.084337
50
0
71
7
72
5
7
iso_b_vert
0
LINE
5
254
100
AcDbEntity
8
SK2
62
256
6
ByLayer
370
13
48
1
60
0
100
AcDbLine
10
67
20
-5.651708
30
0
11
67
21
-35.564208
31
0
39
0
210
0
220
0
230
1
0
LINE
5
255
100
AcDbEntity
8
SK2
62
256
6
ByLayer
370
13
48
1
60
0
100
AcDbLine
10
24
20
-4.4375
30
0
11
24
21
-35.564208
31
0
39
0
210
0
220
0
230
1
0
LINE
5
256
100
AcDbEntity
8
SK2
62
256
6
ByLayer
370
13
48
1
60
0
100
AcDbLine
10
67
20
-33.564208
30
0
11
24
21
-33.564208
31
0
39
0
210
0
220
0
230
1
0
SOLID
5
257
100
AcDbEntity
8
SK2
62
256
6
ByLayer
370
18
48
1
60
0
100
AcDbTrace
10
67
20
-33.564208
30
0
11
63.500002
21
-34.024992
31
0
12
63.499998
22
-33.103425
32
0
13
63.499998
23
-33.103425
33
0
39
0
210
0
220
0
230
1
0
SOLID
5
258
100
AcDbEntity
8
SK2
62
256
6
ByLayer
370
18
48
1
60
0
100
AcDbTrace
10
24
20
-33.564208
30
0
11
27.499998
21
-33.103425
31
0
12
27.500002
22
-34.024992
32
0
13
27.500002
23
-34.024992
33
0
39
0
210
0
220
0
230
1
0
ENDBLK
5
25A
100
AcDbEntity
8
0
100
AcDbBlockEnd
0
BLOCK
5
25F
100
AcDbEntity
8
0
100
AcDbBlockBegin
2
*D9
70
1
10
0
20
0
30
0
3
*D9
0
LINE
5
261
100
AcDbEntity
8
0
62
256
6
ByLayer
370
-2
48
1
60
0
100
AcDbLine
10
67
20
-5.651708
30
0
11
67
21
-24.564208
31
0
39
0
210
0
220
0
230
1
0
LINE
5
262
100
AcDbEntity
8
0
62
256
6
ByLayer
370
-2
48
1
60
0
100
AcDbLine
10
30.45
20
-1.5875
30
0
11
30.45
21
-24.564208
31
0
39
0
210
0
220
0
230
1
0
LINE
5
263
100
AcDbEntity
8
0
62
256
6
ByLayer
370
-2
48
1
60
0
100
AcDbLine
10
63.5
20
-22.564208
30
0
11
33.95
21
-22.564208
31
0
39
0
210
0
220
0
230
1
0
SOLID
5
264
100
AcDbEntity
8
0
62
256
6
ByLayer
370
-1
48
1
60
0
100
AcDbTrace
10
63.5
20
-23.147542
30
0
11
63.5
21
-21.980875
31
0
12
67
22
-22.564208
32
0
13
67
23
-22.564208
33
0
39
0
210
0
220
0
230
1
0
SOLID
5
265
100
AcDbEntity
8
0
62
256
6
ByLayer
370
-1
48
1
60
0
100
AcDbTrace
10
33.95
20
-21.980875
30
0
11
33.95
21
-23.147542
31
0
12
30.45
22
-22.564208
32
0
13
30.45
23
-22.564208
33
0
39
0
210
0
220
0
230
1
0
MTEXT
5
266
100
AcDbEntity
8
0
62
256
6
ByLayer
370
18
48
1
60
0
100
AcDbMText
10
48.725
20
-16.564208
30
0
210
0
220
0
230
1
1
\A1;36.6
40
3
41
0
44
1
50
0
71
5
72
5
7
iso_b_vert
0
POINT
5
267
100
AcDbEntity
8
Defpoints
62
0
6
ByLayer
370
-1
48
1
60
0
100
AcDbPoint
10
67
20
-4.064208
30
0
39
0
210
0
220
0
230
1
50
360
0
POINT
5
268
100
AcDbEntity
8
Defpoints
62
0
6
ByLayer
370
-1
48
1
60
0
100
AcDbPoint
10
30.45
20
0
30
0
39
0
210
0
220
0
230
1
50
360
0
POINT
5
269
100
AcDbEntity
8
Defpoints
62
0
6
ByLayer
370
-1
48
1
60
0
100
AcDbPoint
10
30.45
20
-22.564208
30
0
39
0
210
0
220
0
230
1
50
360
0
ENDBLK
5
260
100
AcDbEntity
8
0
100
AcDbBlockEnd
0
BLOCK
5
271
100
AcDbEntity
8
0
100
AcDbBlockBegin
2
_U4
70
0
10
0
20
0
30
0
3
_U4
0
MTEXT
5
26B
100
AcDbEntity
8
2
62
256
6
ByLayer
370
18
48
1
60
0
100
AcDbMText
10
45.363544
20
-21.679094
30
0
210
0
220
0
230
1
1
\W0.7346;36.6
40
3
41
0
44
1.084337
50
0
71
7
72
5
7
iso_b_vert
0
LINE
5
26C
100
AcDbEntity
8
2
62
256
6
ByLayer
370
13
48
1
60
0
100
AcDbLine
10
67
20
-5.651708
30
0
11
67
21
-24.564208
31
0
39
0
210
0
220
0
230
1
0
LINE
5
26D
100
AcDbEntity
8
2
62
256
6
ByLayer
370
13
48
1
60
0
100
AcDbLine
10
30.45
20
-1.5875
30
0
11
30.45
21
-24.564208
31
0
39
0
210
0
220
0
230
1
0
LINE
5
26E
100
AcDbEntity
8
2
62
256
6
ByLayer
370
13
48
1
60
0
100
AcDbLine
10
67
20
-22.564208
30
0
11
30.45
21
-22.564208
31
0
39
0
210
0
220
0
230
1
0
SOLID
5
26F
100
AcDbEntity
8
2
62
256
6
ByLayer
370
18
48
1
60
0
100
AcDbTrace
10
67
20
-22.564208
30
0
11
63.500002
21
-23.024992
31
0
12
63.499998
22
-22.103425
32
0
13
63.499998
23
-22.103425
33
0
39
0
210
0
220
0
230
1
0
SOLID
5
270
100
AcDbEntity
8
2
62
256
6
ByLayer
370
18
48
1
60
0
100
AcDbTrace
10
30.45
20
-22.564208
30
0
11
33.949998
21
-22.103425
31
0
12
33.950002
22
-23.024992
32
0
13
33.950002
23
-23.024992
33
0
39
0
210
0
220
0
230
1
0
ENDBLK
5
272
100
AcDbEntity
8
0
100
AcDbBlockEnd
0
ENDSEC
0
SECTION
2
ENTITIES
0
ARC
5
CC
100
AcDbEntity
8
SK1
62
256
6
ByLayer
370
18
48
1
60
0
100
AcDbCircle
39
0
10
-17.45
20
0
30
0
40
2.87999999999977
210
0
220
0
230
1
100
AcDbArc
50
328.287282
51
31.712718
0
ARC
5
CD
100
AcDbEntity
8
1
62
256
6
ByLayer
370
18
48
1
60
0
100
AcDbCircle
39
0
10
53.62059
20
-3.85
30
0
40
1
210
0
220
0
230
1
100
AcDbArc
50
32.183585
51
74.850072
0
ARC
5
CE
100
AcDbEntity
8
1
62
256
6
ByLayer
370
18
48
1
60
0
100
AcDbCircle
39
0
10
24.554527
20
-3.95
30
0
40
1.1
210
0
220
0
230
1
100
AcDbArc
50
90
51
120.272641
0
ARC
5
CF
100
AcDbEntity
8
1
62
256
6
ByLayer
370
18
48
1
60
0
100
AcDbCircle
39
0
10
24.554527
20
3.95
30
0
40
1.1
210
0
220
0
230
1
100
AcDbArc
50
239.727359
51
270
0
POINT
5
70
100
AcDbEntity
8
80
62
256
6
ByLayer
370
18
48
1
60
0
100
AcDbPoint
10
0
20
0
30
0
39
0
210
0
220
0
230
1
50
360
0
POINT
5
72
100
AcDbEntity
8
81
62
256
6
ByLayer
370
18
48
1
60
0
100
AcDbPoint
10
68.55
20
0
30
0
39
0
210
0
220
0
230
1
50
360
0
POINT
5
74
100
AcDbEntity
8
1
62
256
6
ByLayer
370
18
48
1
60
1
100
AcDbPoint
10
67
20
4.064208
30
0
39
0
210
0
220
0
230
1
50
360
0
POINT
5
76
100
AcDbEntity
8
1
62
256
6
ByLayer
370
18
48
1
60
1
100
AcDbPoint
10
67
20
-4.064208
30
0
39
0
210
0
220
0
230
1
50
360
0
POINT
5
77
100
AcDbEntity
8
1
62
256
6
ByLayer
370
18
48
1
60
1
100
AcDbPoint
10
67
20
4.064208
30
0
39
0
210
0
220
0
230
1
50
360
0
POINT
5
78
100
AcDbEntity
8
1
62
256
6
ByLayer
370
18
48
1
60
1
100
AcDbPoint
10
63.56
20
0
30
0
39
0
210
0
220
0
230
1
50
360
0
POINT
5
79
100
AcDbEntity
8
1
62
256
6
ByLayer
370
18
48
1
60
1
100
AcDbPoint
10
67
20
-4.064208
30
0
39
0
210
0
220
0
230
1
50
360
0
POINT
5
7A
100
AcDbEntity
8
1
62
256
6
ByLayer
370
18
48
1
60
1
100
AcDbPoint
10
55
20
-4.064208
30
0
39
0
210
0
220
0
230
1
50
360
0
POINT
5
7B
100
AcDbEntity
8
1
62
256
6
ByLayer
370
18
48
1
60
1
100
AcDbPoint
10
67
20
-4.064208
30
0
39
0
210
0
220
0
230
1
50
360
0
POINT
5
7C
100
AcDbEntity
8
1
62
256
6
ByLayer
370
18
48
1
60
1
100
AcDbPoint
10
24
20
-2.85
30
0
39
0
210
0
220
0
230
1
50
360
0
POINT
5
7D
100
AcDbEntity
8
1
62
256
6
ByLayer
370
18
48
1
60
1
100
AcDbPoint
10
67
20
-4.064208
30
0
39
0
210
0
220
0
230
1
50
360
0
POINT
5
7E
100
AcDbEntity
8
1
62
256
6
ByLayer
370
18
48
1
60
1
100
AcDbPoint
10
30.45
20
0
30
0
39
0
210
0
220
0
230
1
50
360
0
SPLINE
5
D0
100
AcDbEntity
8
1
62
256
6
ByLayer
370
18
48
1
60
0
100
AcDbSpline
70
4
71
3
72
9
73
5
40
0
40
0
40
0
40
0
40
0.860933635225591
40
1
40
1
40
1
40
1
41
1.04
10
65.4638091607309
20
-3.31611519480504
30
0
41
1.04
10
65.4608185477705
20
-3.32391788854823
30
0
41
1.04
10
65.4573500745837
20
-3.33162512079412
30
0
41
1.04
10
65.4538871864148
20
-3.33774452620737
30
0
41
1.04
10
65.4534057248037
20
-3.33856492635417
30
0
0
SPLINE
5
D1
100
AcDbEntity
8
1
62
256
6
ByLayer
370
13
48
1
60
0
100
AcDbSpline
70
4
71
3
72
9
73
5
40
0
40
0
40
0
40
0
40
0.700080219670239
40
1
40
1
40
1
40
1
41
1
10
57.6019957837016
20
3.33999246662435
30
0
41
1
10
57.6005568446359
20
3.33768861993943
30
0
41
1
10
57.5985038600276
20
3.33402368828376
30
0
41
1
10
57.5964543331612
20
3.32982663623099
30
0
41
1
10
57.5958399475398
20
3.32852023187226
30
0
0
SPLINE
5
D2
100
AcDbEntity
8
1
62
256
6
ByLayer
370
18
48
1
60
0
100
AcDbSpline
70
4
71
3
72
8
73
4
40
0
40
0
40
0
40
0
40
1
40
1
40
1
40
1
41
1
10
57.5958396032909
20
3.32851949987031
30
0
41
1
10
57.5943331553235
20
3.32531620654638
30
0
41
1
10
57.5928285592375
20
3.32182658454951
30
0
41
1
10
57.5913257707468
20
3.31805416884734
30
0
0
SPLINE
5
D3
100
AcDbEntity
8
1
62
256
6
ByLayer
370
18
48
1
60
0
100
AcDbSpline
70
4
71
3
72
8
73
4
40
0
40
0
40
0
40
0
40
1
40
1
40
1
40
1
41
1
10
65.3629181140538
20
-3.49422290760438
30
0
41
1
10
65.3596512284724
20
-3.49986139281142
30
0
41
1
10
65.3563623963788
20
-3.50423081493651
30
0
41
1
10
65.3530615054339
20
-3.50732090792906
30
0
0
SPLINE
5
D4
100
AcDbEntity
8
1
62
256
6
ByLayer
370
13
48
1
60
0
100
AcDbSpline
70
4
71
3
72
8
73
4
40
0
40
0
40
0
40
0
40
1
40
1
40
1
40
1
41
1.04
10
56.7025687599606
20
-3.33904951325393
30
0
41
1.04
10
56.6971751704914
20
-3.34805817498369
30
0
41
1.04
10
56.6917676030006
20
-3.35341413534444
30
0
41
1.04
10
56.6863425406095
20
-3.35502627514932
30
0
0
SPLINE
5
D5
100
AcDbEntity
8
1
62
256
6
ByLayer
370
18
48
1
60
0
100
AcDbSpline
70
4
71
3
72
8
73
4
40
0
40
0
40
0
40
0
40
1
40
1
40
1
40
1
41
1
10
64.6677474703772
20
-3.66744525771381
30
0
41
1
10
64.6697443199472
20
-3.67204193560846
30
0
41
1
10
64.6717377208348
20
-3.67606054167336
30
0
41
1
10
64.6737292277626
20
-3.67950389577024
30
0
0
SPLINE
5
D6
100
AcDbEntity
8
1
62
256
6
ByLayer
370
13
48
1
60
0
100
AcDbSpline
70
4
71
3
72
8
73
4
40
0
40
0
40
0
40
0
40
1
40
1
40
1
40
1
41
1.04
10
58.5873027042883
20
3.31903267551326
30
0
41
1.04
10
58.5843836500592
20
3.32619823215096
30
0
41
1.04
10
58.5814731048974
20
3.3322731798353
30
0
41
1.04
10
58.5785709372154
20
3.33727473402669
30
0
0
SPLINE
5
D7
100
AcDbEntity
8
1
62
256
6
ByLayer
370
18
48
1
60
0
100
AcDbSpline
70
4
71
3
72
8
73
4
40
0
40
0
40
0
40
0
40
1
40
1
40
1
40
1
41
1.04
10
58.5785710032657
20
3.33727462019651
30
0
41
1.04
10
58.5758500434917
20
3.34196389834009
30
0
41
1.04
10
58.5731364476983
20
3.34570964105403
30
0
41
1.04
10
58.5704301074396
20
3.34852603621619
30
0
0
SPLINE
5
D8
100
AcDbEntity
8
1
62
256
6
ByLayer
370
18
48
1
60
0
100
AcDbSpline
70
4
71
3
72
8
73
4
40
0
40
0
40
0
40
0
40
1
40
1
40
1
40
1
41
1
10
64.4818293526417
20
-3.34733591579305
30
0
41
1
10
64.4798283040128
20
-3.34490799376547
30
0
41
1
10
64.4778285692001
20
-3.34196580670698
30
0
41
1
10
64.4758300287968
20
-3.33851445269212
30
0
0
SPLINE
5
D9
100
AcDbEntity
8
1
62
256
6
ByLayer
370
13
48
1
60
0
100
AcDbSpline
70
4
71
3
72
8
73
4
40
0
40
0
40
0
40
0
40
1
40
1
40
1
40
1
41
1
10
64.4758300287969
20
-3.33851445269232
30
0
41
1
10
64.4720755719667
20
-3.33203074106271
30
0
41
1
10
64.4683253303698
20
-3.3237501101205
30
0
41
1
10
64.4645785123598
20
-3.31370635924509
30
0
0
SPLINE
5
DA
100
AcDbEntity
8
1
62
256
6
ByLayer
370
18
48
1
60
0
100
AcDbSpline
70
4
71
3
72
8
73
4
40
0
40
0
40
0
40
0
40
1
40
1
40
1
40
1
41
1
10
55.7350935958485
20
-3.34998927579207
30
0
41
1
10
55.7322967224452
20
-3.34734505668862
30
0
41
1
10
55.7294947930702
20
-3.34371076640903
30
0
41
1
10
55.7266881459718
20
-3.33907753164411
30
0
0
SPLINE
5
DB
100
AcDbEntity
8
1
62
256
6
ByLayer
370
13
48
1
60
0
100
AcDbSpline
70
4
71
3
72
9
73
5
40
0
40
0
40
0
40
0
40
0.153372785223223
40
1
40
1
40
1
40
1
41
1
10
55.7266886640936
20
-3.33907838695239
30
0
41
1
10
55.7253926509484
20
-3.33693897474282
30
0
41
1
10
55.7169360065932
20
-3.3216010867111
30
0
41
1
10
55.7084380137648
20
-3.2971710695648
30
0
41
1
10
55.7012282702517
20
-3.27003720556974
30
0
0
SPLINE
5
DC
100
AcDbEntity
8
1
62
256
6
ByLayer
370
13
48
1
60
0
100
AcDbSpline
70
4
71
3
72
9
73
5
40
0
40
0
40
0
40
0
40
0.261704207732899
40
1
40
1
40
1
40
1
41
1.04
10
64.2027300867554
20
-3.33865124050434
30
0
41
1.04
10
64.1968037991801
20
-3.3487940912116
30
0
41
1.04
10
64.1741953226159
20
-3.37056495850903
30
0
41
1.04
10
64.1517907607542
20
-3.32582177342111
30
0
41
1.04
10
64.1352926626063
20
-3.25940453704149
30
0
0
SPLINE
5
DD
100
AcDbEntity
8
1
62
256
6
ByLayer
370
13
48
1
60
0
100
AcDbSpline
70
4
71
3
72
8
73
4
40
0
40
0
40
0
40
0
40
1
40
1
40
1
40
1
41
1
10
58.9165938085389
20
3.26844290921662
30
0
41
1
10
58.8948237255405
20
3.35132476359826
30
0
41
1
10
58.8735301383988
20
3.37309625002035
30
0
41
1
10
58.8526603319418
20
3.34071523231992
30
0
0
SPLINE
5
DE
100
AcDbEntity
8
1
62
256
6
ByLayer
370
18
48
1
60
0
100
AcDbSpline
70
4
71
3
72
17
73
13
40
0
40
0
40
0
40
0
40
0.158304513867839
40
0.158304513867839
40
0.438869675911893
40
0.438869675911893
40
0.509010966422906
40
0.509010966422906
40
0.57915225693392
40
0.719434837955946
40
0.719434837955946
40
1
40
1
40
1
40
1
41
1
10
63.8529547166168
20
-3.93059579632552
30
0
41
1
10
63.8491415317518
20
-3.93165768996059
30
0
41
1
10
63.845314112873
20
-3.93055199051102
30
0
41
1
10
63.8346436354769
20
-3.92145964241047
30
0
41
1
10
63.8277825676016
20
-3.9088105389267
30
0
41
1
10
63.819140093993
20
-3.88423941375774
30
0
41
1
10
63.8174061658766
20
-3.8788802320756
30
0
41
1
10
63.8139442254414
20
-3.86733174506392
30
0
41
1
10
63.8087558014168
20
-3.84875420092709
30
0
41
1
10
63.8035696614919
20
-3.82646024617282
30
0
41
1
10
63.7931563560274
20
-3.77702735210895
30
0
41
1
10
63.786141402998
20
-3.73765834580797
30
0
41
1
10
63.7791347698351
20
-3.69165509776607
30
0
0
SPLINE
5
DF
100
AcDbEntity
8
1
62
256
6
ByLayer
370
18
48
1
60
0
100
AcDbSpline
70
4
71
3
72
17
73
13
40
0
40
0
40
0
40
0
40
0.31114996262329
40
0.31114996262329
40
0.622299925246581
40
0.622299925246581
40
0.777874906558226
40
0.777874906558226
40
0.855662397214049
40
0.855662397214049
40
0.933449887869872
40
1
40
1
40
1
40
1
41
1
10
63.5351370384737
20
-3.65929535755905
30
0
41
1
10
63.5418732256484
20
-3.71404703577818
30
0
41
1
10
63.5485286713988
20
-3.7621597744353
30
0
41
1
10
63.5618016713739
20
-3.84536669144072
30
0
41
1
10
63.5684476109249
20
-3.88050655912446
30
0
41
1
10
63.5785046364162
20
-3.9233185577522
30
0
41
1
10
63.5818663050499
20
-3.93592699267862
30
0
41
1
10
63.5869219199168
20
-3.95226757564277
30
0
41
1
10
63.5886080854249
20
-3.9572799307717
30
0
41
1
10
63.591965715824
20
-3.96638673402748
30
0
41
1
10
63.5950718760488
20
-3.97399779048121
30
0
41
1
10
63.5981619815304
20
-3.98007042484278
30
0
41
1
10
63.5995839083592
20
-3.98254460399809
30
0
0
SPLINE
5
E0
100
AcDbEntity
8
1
62
256
6
ByLayer
370
13
48
1
60
0
100
AcDbSpline
70
4
71
3
72
9
73
5
40
0
40
0
40
0
40
0
40
0.527805343758832
40
1
40
1
40
1
40
1
41
1.04
10
55.4533759397947
20
-3.33799154057044
30
0
41
1.04
10
55.4392964259174
20
-3.3620015734795
30
0
41
1.04
10
55.4123097227365
20
-3.36018670263157
30
0
41
1.04
10
55.38489554504
20
-3.26431962712199
30
0
41
1.04
10
55.3719391859662
20
-3.19844155903418
30
0
0
SPLINE
5
E1
100
AcDbEntity
8
1
62
256
6
ByLayer
370
13
48
1
60
0
100
AcDbSpline
70
4
71
3
72
8
73
4
40
0
40
0
40
0
40
0
40
1
40
1
40
1
40
1
41
1.04
10
59.9019101047967
20
2.98896032851264
30
0
41
1.04
10
59.8776575281886
20
3.17494897048535
30
0
41
1.04
10
59.8533149687797
20
3.29477554771914
30
0
41
1.04
10
59.8285154910808
20
3.33754493416762
30
0
0
SPLINE
5
E2
100
AcDbEntity
8
1
62
256
6
ByLayer
370
13
48
1
60
0
100
AcDbSpline
70
4
71
3
72
8
73
4
40
0
40
0
40
0
40
0
40
1
40
1
40
1
40
1
41
1
10
63.2260452758848
20
-3.33839395072951
30
0
41
1
10
63.2002074063208
20
-3.29378573180324
30
0
41
1
10
63.1749384593527
20
-3.16581166395784
30
0
41
1
10
63.1500221315247
20
-2.97089281586685
30
0
0
SPLINE
5
E3
100
AcDbEntity
8
1
62
256
6
ByLayer
370
18
48
1
60
0
100
AcDbSpline
70
4
71
3
72
8
73
4
40
0
40
0
40
0
40
0
40
1
40
1
40
1
40
1
41
1.04
10
62.9483794421304
20
-3.34609779578167
30
0
41
1.04
10
62.9455291374208
20
-3.34978760773785
30
0
41
1.04
10
62.9426865847885
20
-3.35241959123013
30
0
41
1.04
10
62.9398515114268
20
-3.35401430013878
30
0
0
SPLINE
5
E4
100
AcDbEntity
8
1
62
256
6
ByLayer
370
13
48
1
60
0
100
AcDbSpline
70
4
71
3
72
8
73
4
40
0
40
0
40
0
40
0
40
1
40
1
40
1
40
1
41
1.04
10
62.9398523829909
20
-3.3540138098574
30
0
41
1.04
10
62.8988933066077
20
-3.37705606229138
30
0
41
1.04
10
62.8594953351935
20
-3.18359434907022
30
0
41
1.04
10
62.8208358247544
20
-2.83560854265361
30
0
0
SPLINE
5
E5
100
AcDbEntity
8
1
62
256
6
ByLayer
370
13
48
1
60
0
100
AcDbSpline
70
4
71
3
72
9
73
5
40
0
40
0
40
0
40
0
40
0.997231823869742
40
1
40
1
40
1
40
1
41
1
10
60.2311852379401
20
2.8554419183408
30
0
41
1
10
60.1925791506398
20
3.19775349077548
30
0
41
1
10
60.153857312498
20
3.37860528976839
30
0
41
1
10
60.1136345159398
20
3.35273046926213
30
0
41
1
10
60.1135231606271
20
3.3526572584355
30
0
0
SPLINE
5
E6
100
AcDbEntity
8
1
62
256
6
ByLayer
370
18
48
1
60
0
100
AcDbSpline
70
4
71
3
72
8
73
4
40
0
40
0
40
0
40
0
40
1
40
1
40
1
40
1
41
1
10
60.1135238666342
20
3.35265772258055
30
0
41
1
10
60.1107068589342
20
3.35080584252049
30
0
41
1
10
60.1078824742409
20
3.34793977239119
30
0
41
1
10
60.105050295872
20
3.3440488021534
30
0
0
SPLINE
5
E7
100
AcDbEntity
8
1
62
256
6
ByLayer
370
18
48
1
60
0
100
AcDbSpline
70
4
71
3
72
8
73
4
40
0
40
0
40
0
40
0
40
1
40
1
40
1
40
1
41
1
10
61.9741606909245
20
-3.33453494937666
30
0
41
1
10
61.9704636816646
20
-3.32749678564372
30
0
41
1
10
61.9667638145467
20
-3.31874786135953
30
0
41
1
10
61.9630672722399
20
-3.30834137787639
30
0
0
SPLINE
5
E8
100
AcDbEntity
8
1
62
256
6
ByLayer
370
13
48
1
60
0
100
AcDbSpline
70
4
71
3
72
9
73
5
40
0
40
0
40
0
40
0
40
0.178123424725477
40
1
40
1
40
1
40
1
41
1
10
61.9630672722399
20
-3.30834137787639
30
0
41
1
10
61.9551693290123
20
-3.28610713600196
30
0
41
1
10
61.9109148149246
20
-3.11880220276456
30
0
41
1
10
61.8690392603349
20
-2.72936530028301
30
0
41
1
10
61.8354092656233
20
-2.31876704083351
30
0
0
SPLINE
5
E9
100
AcDbEntity
8
1
62
256
6
ByLayer
370
13
48
1
60
0
100
AcDbSpline
70
4
71
3
72
9
73
5
40
0
40
0
40
0
40
0
40
0.658901376287563
40
1
40
1
40
1
40
1
41
1.04
10
61.21645558368
20
2.34615455683175
30
0
41
1.04
10
61.188952717549
20
2.67671217923095
30
0
41
1.04
10
61.1468949583298
20
3.08094566507512
30
0
41
1.04
10
61.1057429839696
20
3.26739666003113
30
0
41
1.04
10
61.0918155680631
20
3.30676572547633
30
0
0
SPLINE
5
EA
100
AcDbEntity
8
1
62
256
6
ByLayer
370
18
48
1
60
0
100
AcDbSpline
70
4
71
3
72
9
73
5
40
0
40
0
40
0
40
0
40
0.607221131072636
40
1
40
1
40
1
40
1
41
1.04
10
61.0918155754331
20
3.30676570464308
30
0
41
1.04
10
61.0893932953776
20
3.31361284147847
30
0
41
1.04
10
61.0854096249757
20
3.3236820499565
30
0
41
1.04
10
61.0814349931189
20
3.33177938657477
30
0
41
1.04
10
61.0798750588555
20
3.33465528082757
30
0
0
SPLINE
5
EB
100
AcDbEntity
8
1
62
256
6
ByLayer
370
18
48
1
60
0
100
AcDbSpline
70
4
71
3
72
11
73
7
40
0
40
0
40
0
40
0
40
0.0796723395548312
40
0.462794733167766
40
0.912282933753108
40
1
40
1
40
1
40
1
41
1
10
67
20
0.147244440353603
30
0
41
1
10
67
20
0.098138142541444
30
0
41
1
10
67
20
-0.187830928396437
30
0
41
1
10
67
20
-0.755206992059982
30
0
41
1
10
67
20
-1.28720651708198
30
0
41
1
10
67
20
-1.56488832752626
30
0
41
1
10
67
20
-1.60929363106678
30
0
0
SPLINE
5
EC
100
AcDbEntity
8
1
62
256
6
ByLayer
370
13
48
1
60
0
100
AcDbSpline
70
4
71
3
72
9
73
5
40
0
40
0
40
0
40
0
40
0.1765003321561
40
1
40
1
40
1
40
1
41
1.04
10
61.6546895005473
20
-3.32063589675952
30
0
41
1.04
10
61.6455447324708
20
-3.29845451735515
30
0
41
1.04
10
61.5937762941436
20
-3.11469349331948
30
0
41
1.04
10
61.5452535213737
20
-2.62712353116989
30
0
41
1.04
10
61.5061810023844
20
-2.11464017835877
30
0
0
SPLINE
5
ED
100
AcDbEntity
8
1
62
256
6
ByLayer
370
13
48
1
60
0
100
AcDbSpline
70
4
71
3
72
10
73
6
40
0
40
0
40
0
40
0
40
0.0076043059772241
40
0.668577714755942
40
1
40
1
40
1
40
1
41
1
10
61.5458091215188
20
2.14352951913747
30
0
41
1
10
61.5454323638054
20
2.14840807889155
30
0
41
1
10
61.5123020963458
20
2.57636691751475
30
0
41
1
10
61.4620336322222
20
3.08807938347096
30
0
41
1
10
61.4134146451838
20
3.29064139825445
30
0
41
1
10
61.3973254355294
20
3.32602055064322
30
0
0
SPLINE
5
EE
100
AcDbEntity
8
1
62
256
6
ByLayer
370
13
48
1
60
0
100
AcDbSpline
70
4
71
3
72
9
73
5
40
0
40
0
40
0
40
0
40
0.400366014755068
40
1
40
1
40
1
40
1
41
1
10
60.6693198768364
20
-3.10819520324156
30
0
41
1
10
60.6479721786704
20
-2.97219323342037
30
0
41
1
10
60.5963403048931
20
-2.50916375687527
30
0
41
1
10
60.5488283156418
20
-1.85166264421605
30
0
41
1
10
60.5210808391261
20
-1.42750603859696
30
0
0
SPLINE
5
EF
100
AcDbEntity
8
1
62
256
6
ByLayer
370
13
48
1
60
0
100
AcDbSpline
70
4
71
3
72
9
73
5
40
0
40
0
40
0
40
0
40
0.107024510282261
40
1
40
1
40
1
40
1
41
1.04
10
62.5310746939239
20
1.45867907044236
30
0
41
1.04
10
62.5258420029404
20
1.53818836951134
30
0
41
1.04
10
62.4768911948509
20
2.26772207296633
30
0
41
1.04
10
62.4276685434503
20
2.84397195801101
30
0
41
1.04
10
62.3826784153935
20
3.1224575931092
30
0
0
SPLINE
5
F0
100
AcDbEntity
8
1
62
256
6
ByLayer
370
18
48
1
60
0
100
AcDbSpline
70
4
71
3
72
10
73
6
40
0
40
0
40
0
40
0
40
0.374597469272567
40
0.750933394517642
40
1
40
1
40
1
40
1
41
1
10
66.5000000459377
20
-1.61302597248945
30
0
41
1
10
66.5000000537438
20
-1.36901861253764
30
0
41
1
10
66.4999999966142
20
-0.843400662728669
30
0
41
1
10
66.4999998913771
20
-0.094412866236695
30
0
41
1
10
66.4999998744116
20
0.37060957214922
30
0
41
1
10
66.4999998717392
20
0.552582924826339
30
0
0
SPLINE
5
F1
100
AcDbEntity
8
1
62
256
6
ByLayer
370
18
48
1
60
0
100
AcDbSpline
70
4
71
3
72
26
73
22
40
0
40
0
40
0
40
0
40
0.125
40
0.125
40
0.25
40
0.25
40
0.3125
40
0.3125
40
0.374999999999999
40
0.374999999999999
40
0.499999999999999
40
0.499999999999999
40
0.624999999999999
40
0.624999999999999
40
0.749999999999999
40
0.749999999999999
40
0.8125
40
0.8125
40
0.875
40
0.875
40
1
40
1
40
1
40
1
41
1
10
65.4231288474348
20
1.52782248526427
30
0
41
1
10
65.429321934243
20
1.42705691848567
30
0
41
1
10
65.435466791793
20
1.32452979325907
30
0
41
1
10
65.4478378909257
20
1.11607593620752
30
0
41
1
10
65.4540708573851
20
1.01014914319009
30
0
41
1
10
65.4635660317781
20
0.848709750085334
30
0
41
1
10
65.4667512874613
20
0.794470935509025
30
0
41
1
10
65.473153454905
20
0.685130856222287
30
0
41
1
10
65.4763762794455
20
0.629926917483715
30
0
41
1
10
65.4859903395628
20
0.464544566353027
30
0
41
1
10
65.4923506605934
20
0.354186128475106
30
0
41
1
10
65.5049226344837
20
0.133262737145742
30
0
41
1
10
65.5111279338305
20
0.0226972120966025
30
0
41
1
10
65.5233903437479
20
-0.198643158033946
30
0
41
1
10
65.5294654307852
20
-0.309416394553551
30
0
41
1
10
65.538660585611
20
-0.475724000081726
30
0
41
1
10
65.5417464514186
20
-0.531309066384182
30
0
41
1
10
65.5479262825624
20
-0.641674267450327
30
0
41
1
10
65.5510236473295
20
-0.696496538076531
30
0
41
1
10
65.5603650967747
20
-0.859890431624308
30
0
41
1
10
65.5666415803694
20
-0.96739016840246
30
0
41
1
10
65.5729599819279
20
-1.07346820163568
30
0
0
SPLINE
5
F2
100
AcDbEntity
8
1
62
256
6
ByLayer
370
13
48
1
60
0
100
AcDbSpline
70
4
71
3
72
10
73
6
40
0
40
0
40
0
40
0
40
0.105910544243036
40
0.761597549651602
40
1
40
1
40
1
40
1
41
1
10
65.4897323269269
20
-0.93243596171169
30
0
41
1
10
65.4844955042413
20
-0.847514304188678
30
0
41
1
10
65.4468099377105
20
-0.229644487497495
30
0
41
1
10
65.3968451666478
20
0.634923055129093
30
0
41
1
10
65.3525574512605
20
1.33195178799286
30
0
41
1
10
65.3407414692742
20
1.50999038100605
30
0
0
SPLINE
5
F3
100
AcDbEntity
8
1
62
256
6
ByLayer
370
13
48
1
60
0
100
AcDbSpline
70
4
71
3
72
9
73
5
40
0
40
0
40
0
40
0
40
0.646290905513817
40
1
40
1
40
1
40
1
41
1.04
10
65.160453280339
20
-0.667655539011738
30
0
41
1.04
10
65.1284385797781
20
-0.138510352581743
30
0
41
1.04
10
65.0785041929663
20
0.724814623286298
30
0
41
1.04
10
65.0290511732874
20
1.49478224692431
30
0
41
1.04
10
65.0115073265926
20
1.74754075630701
30
0
0
SPLINE
5
F4
100
AcDbEntity
8
1
62
256
6
ByLayer
370
13
48
1
60
0
100
AcDbSpline
70
4
71
3
72
9
73
5
40
0
40
0
40
0
40
0
40
0.223842903160974
40
1
40
1
40
1
40
1
41
1
10
62.8604083618663
20
1.20771300884152
30
0
41
1
10
62.8494613850785
20
1.380051393674
30
0
41
1
10
62.8003659901386
20
2.12848908150377
30
0
41
1
10
62.750996900358
20
2.72119001982546
30
0
41
1
10
62.7119703909064
20
3.01212813179424
30
0
0
SPLINE
5
F5
100
AcDbEntity
8
1
62
256
6
ByLayer
370
18
48
1
60
0
100
AcDbSpline
70
4
71
3
72
27
73
23
40
0
40
0
40
0
40
0
40
0.125000000000001
40
0.125000000000001
40
0.250000000000002
40
0.250000000000002
40
0.375000000000003
40
0.375000000000003
40
0.406250000000003
40
0.406250000000003
40
0.437500000000003
40
0.500000000000002
40
0.500000000000002
40
0.625000000000002
40
0.625000000000002
40
0.750000000000001
40
0.750000000000001
40
0.812500000000001
40
0.812500000000001
40
0.875000000000001
40
0.875000000000001
40
1
40
1
40
1
40
1
41
1
10
64.9881811798412
20
-0.652430785429686
30
0
41
1
10
64.9813320741794
20
-0.534443347543373
30
0
41
1
10
64.9744383729822
20
-0.416206332331455
30
0
41
1
10
64.9607534571797
20
-0.179229394879201
30
0
41
1
10
64.9539665452933
20
-0.0604889013557681
30
0
41
1
10
64.940660540619
20
0.177516847634621
30
0
41
1
10
64.9341208348846
20
0.296779419483158
30
0
41
1
10
64.9259474878386
20
0.446177297759675
30
0
41
1
10
64.9243110117444
20
0.476105204746574
30
0
41
1
10
64.9210508721511
20
0.535685954083732
30
0
41
1
10
64.916174980888
20
0.624733975372266
30
0
41
1
10
64.9113237123017
20
0.712826371597629
30
0
41
1
10
64.9016059129104
20
0.887761162971742
30
0
41
1
10
64.895096619719
20
1.00272186399425
30
0
41
1
10
64.8818351386173
20
1.2293469820892
30
0
41
1
10
64.8751044881287
20
1.34101121042653
30
0
41
1
10
64.8649326595225
20
1.5059530766612
30
0
41
1
10
64.861530416309
20
1.56050660925871
30
0
41
1
10
64.8547144193456
20
1.66873438360454
30
0
41
1
10
64.8513172505078
20
1.72214464947868
30
0
41
1
10
64.8411975446761
20
1.87975039899905
30
0
41
1
10
64.8345365704048
20
1.98155111511031
30
0
41
1
10
64.8279266684281
20
2.0801013278429
30
0
0
SPLINE
5
F6
100
AcDbEntity
8
1
62
256
6
ByLayer
370
18
48
1
60
0
100
AcDbSpline
70
4
71
3
72
28
73
24
40
0
40
0
40
0
40
0
40
0.125
40
0.125
40
0.250000000000001
40
0.250000000000001
40
0.312500000000001
40
0.343750000000001
40
0.343750000000001
40
0.375000000000001
40
0.375000000000001
40
0.500000000000001
40
0.500000000000001
40
0.625000000000001
40
0.625000000000001
40
0.75
40
0.75
40
0.78125
40
0.78125
40
0.8125
40
0.875
40
0.875
40
1
40
1
40
1
40
1
41
1
10
64.2904763259477
20
2.5696716273203
30
0
41
1
10
64.2970486731672
20
2.47652246349173
30
0
41
1
10
64.3035751389154
20
2.3796657789579
30
0
41
1
10
64.3165617946424
20
2.17854702898057
30
0
41
1
10
64.3230295986941
20
2.07428442403435
30
0
41
1
10
64.3327339873116
20
1.9122478785707
30
0
41
1
10
64.3375873774094
20
1.8298173874104
30
0
41
1
10
64.342456170648
20
1.74523681851659
30
0
41
1
10
64.345707447824
20
1.6883672860987
30
0
41
1
10
64.3473355271733
20
1.65969497277834
30
0
41
1
10
64.3554479366822
20
1.51595219142385
30
0
41
1
10
64.3618870757641
20
1.39908990649934
30
0
41
1
10
64.3748096336722
20
1.16179612670703
30
0
41
1
10
64.3812926433481
20
1.04136431862017
30
0
41
1
10
64.3943751846749
20
0.796952190525673
30
0
41
1
10
64.4009743099629
20
0.672972192263472
30
0
41
1
10
64.4093056409482
20
0.515703345276563
30
0
41
1
10
64.4109776451487
20
0.484101550132152
30
0
41
1
10
64.4143209089139
20
0.420825462344112
30
0
41
1
10
64.419328996856
20
0.32590974632032
30
0
41
1
10
64.4243146334044
20
0.230989192298893
30
0
41
1
10
64.4342466170468
20
0.0411411573843452
30
0
41
1
10
64.440796331839
20
-0.0854344562343385
30
0
41
1
10
64.4473216867509
20
-0.212017871105189
30
0
0
SPLINE
5
F7
100
AcDbEntity
8
1
62
256
6
ByLayer
370
13
48
1
60
0
100
AcDbSpline
70
4
71
3
72
9
73
5
40
0
40
0
40
0
40
0
40
0.797076737045183
40
1
40
1
40
1
40
1
41
1
10
64.1749704226204
20
0.146159622579518
30
0
41
1
10
64.1362859175898
20
0.79870502572976
30
0
41
1
10
64.0878433192832
20
1.60580172343373
30
0
41
1
10
64.036870101795
20
2.25975401695658
30
0
41
1
10
64.026410401712
20
2.3839904153096
30
0
0
SPLINE
5
F8
100
AcDbEntity
8
1
62
256
6
ByLayer
370
13
48
1
60
0
100
AcDbSpline
70
4
71
3
72
10
73
6
40
0
40
0
40
0
40
0
40
0.287115789963855
40
0.965669374967547
40
1
40
1
40
1
40
1
41
1.04
10
60.3400103539762
20
-2.99482522583921
30
0
41
1.04
10
60.3247124088527
20
-2.87830377270368
30
0
41
1.04
10
60.2744612171673
20
-2.40661583869652
30
0
41
1.04
10
60.2265356205882
20
-1.72272447168121
30
0
41
1.04
10
60.1932921859392
20
-1.19963331378935
30
0
41
1.04
10
60.1916933403036
20
-1.17436628368112
30
0
0
SPLINE
5
F9
100
AcDbEntity
8
1
62
256
6
ByLayer
370
13
48
1
60
0
100
AcDbSpline
70
4
71
3
72
9
73
5
40
0
40
0
40
0
40
0
40
0.53855699733821
40
1
40
1
40
1
40
1
41
1
10
59.3547361879081
20
-2.54252777259413
30
0
41
1
10
59.3282437212339
20
-2.25045933497736
30
0
41
1
10
59.2790335448185
20
-1.58307107534878
30
0
41
1
10
59.2295091880195
20
-0.769889036338128
30
0
41
1
10
59.2065599883952
20
-0.385565670298092
30
0
0
SPLINE
5
FA
100
AcDbEntity
8
1
62
256
6
ByLayer
370
13
48
1
60
0
100
AcDbSpline
70
4
71
3
72
9
73
5
40
0
40
0
40
0
40
0
40
0.683954099215451
40
1
40
1
40
1
40
1
41
1.04
10
63.8457127415963
20
0.41768285955503
30
0
41
1.04
10
63.8127315892505
20
0.970150836909712
30
0
41
1.04
10
63.7643231831357
20
1.75527866266075
30
0
41
1.04
10
63.7134186441686
20
2.3908745661903
30
0
41
1.04
10
63.6970373072998
20
2.56880336497251
30
0
0
SPLINE
5
FB
100
AcDbEntity
8
1
62
256
6
ByLayer
370
18
48
1
60
0
100
AcDbSpline
70
4
71
3
72
28
73
24
40
0
40
0
40
0
40
0
40
0.125000000000001
40
0.125000000000001
40
0.250000000000002
40
0.250000000000002
40
0.281250000000001
40
0.281250000000001
40
0.312500000000001
40
0.375000000000001
40
0.375000000000001
40
0.5
40
0.5
40
0.624999999999999
40
0.624999999999999
40
0.656249999999999
40
0.656249999999999
40
0.687499999999998
40
0.687499999999998
40
0.749999999999999
40
0.749999999999999
40
0.874999999999999
40
1
40
1
40
1
40
1
41
1
10
63.1368092579193
20
3.50169607989434
30
0
41
1
10
63.1437994315476
20
3.43073113964277
30
0
41
1
10
63.1507231653761
20
3.35377528973026
30
0
41
1
10
63.164452459443
20
3.18790204060068
30
0
41
1
10
63.1712574016139
20
3.09898549812641
30
0
41
1
10
63.1797445641149
20
2.98013518297461
30
0
41
1
10
63.1814436083315
20
2.95594463819737
30
0
41
1
10
63.1848302559022
20
2.90695908434085
30
0
41
1
10
63.1898889445281
20
2.83263835041063
30
0
41
1
10
63.1948957485199
20
2.75582220910849
30
0
41
1
10
63.2048777226434
20
2.59892085175378
30
0
41
1
10
63.2114879265576
20
2.48996953697684
30
0
41
1
10
63.2248712637746
20
2.26346417789051
30
0
41
1
10
63.2316510043947
20
2.14591063962311
30
0
41
1
10
63.2404137703723
20
1.99348283974916
30
0
41
1
10
63.2421786057461
20
1.96272220325019
30
0
41
1
10
63.2457285060158
20
1.90064477404684
30
0
41
1
10
63.2475157925704
20
1.86928877082934
30
0
41
1
10
63.2528859463025
20
1.77466078732269
30
0
41
1
10
63.2564664283381
20
1.71101300716111
30
0
41
1
10
63.2671692761577
20
1.51841654008459
30
0
41
1
10
63.2813280595676
20
1.25722131284607
30
0
41
1
10
63.2950622263428
20
0.987377153384386
30
0
41
1
10
63.3018510242727
20
0.850264661124385
30
0
0
SPLINE
5
FC
100
AcDbEntity
8
1
62
256
6
ByLayer
370
18
48
1
60
0
100
AcDbSpline
70
4
71
3
72
32
73
28
40
0
40
0
40
0
40
0
40
0.0312499999999995
40
0.0312499999999995
40
0.0624999999999991
40
0.124999999999998
40
0.124999999999998
40
0.249999999999997
40
0.374999999999996
40
0.374999999999996
40
0.406249999999995
40
0.406249999999995
40
0.437499999999995
40
0.437499999999995
40
0.499999999999995
40
0.499999999999995
40
0.624999999999996
40
0.624999999999996
40
0.749999999999998
40
0.749999999999998
40
0.812499999999998
40
0.812499999999998
40
0.843749999999999
40
0.843749999999999
40
0.874999999999999
40
0.874999999999999
40
1
40
1
40
1
40
1
41
1
10
63.4247795734964
20
0.729186793983473
30
0
41
1
10
63.423063943447
20
0.763932154808401
30
0
41
1
10
63.4213448707605
20
0.798667210138689
30
0
41
1
10
63.4179184358123
20
0.867709081666277
30
0
41
1
10
63.4127887254517
20
0.970784152410403
30
0
41
1
10
63.4076812002031
20
1.07241259122043
30
0
41
1
10
63.3974760427056
20
1.27376946205777
30
0
41
1
10
63.383895108191
20
1.53718820661416
30
0
41
1
10
63.3701694158621
20
1.79055452163448
30
0
41
1
10
63.3614948497388
20
1.94568527163119
30
0
41
1
10
63.3597551914978
20
1.97654985148594
30
0
41
1
10
63.3562653706256
20
2.03795212609444
30
0
41
1
10
63.3545143439637
20
2.06850390014478
30
0
41
1
10
63.3492750690683
20
2.15913303958013
30
0
41
1
10
63.3457905123181
20
2.21836221900642
30
0
41
1
10
63.3353562008939
20
2.39254907056531
30
0
41
1
10
63.3284239057375
20
2.50401515569095
30
0
41
1
10
63.3146373679951
20
2.71777316212382
30
0
41
1
10
63.3077845244921
20
2.82006512055111
30
0
41
1
10
63.2975230678059
20
2.9665054501767
30
0
41
1
10
63.2941048450097
20
3.01415030962551
30
0
41
1
10
63.2889699350565
20
3.08382799520982
30
0
41
1
10
63.287255482925
20
3.10677460579362
30
0
41
1
10
63.2838413258438
20
3.15180822099762
30
0
41
1
10
63.2821394194566
20
3.1739256668439
30
0
41
1
10
63.2736497279847
20
3.28253793020247
30
0
41
1
10
63.266921517503
20
3.36312391724735
30
0
41
1
10
63.2601775334473
20
3.43755275555452
30
0
0
SPLINE
5
FD
100
AcDbEntity
8
1
62
256
6
ByLayer
370
18
48
1
60
0
100
AcDbSpline
70
4
71
3
72
28
73
24
40
0
40
0
40
0
40
0
40
0.116331559189192
40
0.116331559189192
40
0.263609632657661
40
0.263609632657661
40
0.337248669391895
40
0.337248669391895
40
0.410887706126129
40
0.410887706126129
40
0.558165779594597
40
0.558165779594597
40
0.631804816328831
40
0.631804816328831
40
0.705443853063064
40
0.705443853063064
40
0.779082889797298
40
0.779082889797298
40
0.852721926531532
40
0.852721926531532
40
0.926360963265766
40
0.926360963265766
40
1
40
1
40
1
40
1
41
1
10
61.9461386043274
20
-3.30261203716319
30
0
41
1
10
61.9367708101964
20
-3.29393948695295
30
0
41
1
10
61.9267158224931
20
-3.2861638811078
30
0
41
1
10
61.9030400554773
20
-3.27081880096498
30
0
41
1
10
61.8891210930115
20
-3.26376746206353
30
0
41
1
10
61.8672520383288
20
-3.25543467167518
30
0
41
1
10
61.8597922120029
20
-3.25303904178412
30
0
41
1
10
61.8447976535183
20
-3.24909838016873
30
0
41
1
10
61.8372314862332
20
-3.24754004420029
30
0
41
1
10
61.814333343645
20
-3.24412479162521
30
0
41
1
10
61.7988047675944
20
-3.2435027110364
30
0
41
1
10
61.7750977106641
20
-3.24551420260443
30
0
41
1
10
61.7671170707412
20
-3.24669059180988
30
0
41
1
10
61.7513896288292
20
-3.25009721087471
30
0
41
1
10
61.7435977279359
20
-3.25232825174052
30
0
41
1
10
61.7281826629308
20
-3.25797097193546
30
0
41
1
10
61.720540597282
20
-3.26139096990968
30
0
41
1
10
61.7055426022652
20
-3.26959412632263
30
0
41
1
10
61.6983168078515
20
-3.2743036304233
30
0
41
1
10
61.6844821007545
20
-3.28508610132596
30
0
41
1
10
61.6778468713225
20
-3.29118420903626
30
0
41
1
10
61.6654313086766
20
-3.30490986243476
30
0
41
1
10
61.6597582661306
20
-3.31241087968033
30
0
41
1
10
61.6546895005473
20
-3.32063589675951
30
0
0
SPLINE
5
FE
100
AcDbEntity
8
1
62
256
6
ByLayer
370
18
48
1
60
0
100
AcDbSpline
70
4
71
3
72
12
73
8
40
0
40
0
40
0
40
0
40
0.5
40
0.5
40
0.75
40
0.75
40
1
40
1
40
1
40
1
41
1
10
61.6546895005473
20
-3.32063589675951
30
0
41
1
10
61.5835577731861
20
-3.43606038479481
30
0
41
1
10
61.5127954445813
20
-3.54932485761276
30
0
41
1
10
61.4073529200798
20
-3.7154861381068
30
0
41
1
10
61.3723189490969
20
-3.77025449245866
30
0
41
1
10
61.3025561823428
20
-3.8783804388994
30
0
41
1
10
61.2678112925988
20
-3.93176346654897
30
0
41
1
10
61.2331814203136
20
-3.9844708825602
30
0
0
SPLINE
5
FF
100
AcDbEntity
8
1
62
256
6
ByLayer
370
18
48
1
60
0
100
AcDbSpline
70
4
71
3
72
8
73
4
40
0
40
0
40
0
40
0
40
1
40
1
40
1
40
1
41
1
10
61.1096925438764
20
-3.95816938767226
30
0
41
1
10
61.150849834344
20
-3.96755154614664
30
0
41
1
10
61.1920095304929
20
-3.97631956609499
30
0
41
1
10
61.2331814203136
20
-3.98447088256015
30
0
0
SPLINE
5
100
100
AcDbEntity
8
1
62
256
6
ByLayer
370
18
48
1
60
0
100
AcDbSpline
70
4
71
3
72
10
73
6
40
0
40
0
40
0
40
0
40
0.5
40
0.5
40
1
40
1
40
1
40
1
41
1
10
61.1096925438765
20
-3.9581693876722
30
0
41
1
10
61.0372848766052
20
-3.82167708810994
30
0
41
1
10
60.9644739325975
20
-3.68243311793006
30
0
41
1
10
60.8175927804182
20
-3.3985775736073
30
0
41
1
10
60.7437760751851
20
-3.25445635782634
30
0
41
1
10
60.6693198768364
20
-3.10819520324154
30
0
0
SPLINE
5
101
100
AcDbEntity
8
1
62
256
6
ByLayer
370
18
48
1
60
0
100
AcDbSpline
70
4
71
3
72
30
73
26
40
0
40
0
40
0
40
0
40
0.124999999999995
40
0.124999999999995
40
0.24999999999999
40
0.24999999999999
40
0.374999999999986
40
0.374999999999986
40
0.437500000000014
40
0.437500000000014
40
0.500000000000043
40
0.500000000000043
40
0.625000000000032
40
0.625000000000032
40
0.687500000000027
40
0.687500000000027
40
0.750000000000022
40
0.750000000000022
40
0.812500000000016
40
0.812500000000016
40
0.875000000000011
40
0.875000000000011
40
0.937500000000005
40
0.937500000000005
40
1
40
1
40
1
40
1
41
1
10
60.6693198768359
20
-3.10819520324065
30
0
41
1
10
60.6604809499481
20
-3.09083208666229
30
0
41
1
10
60.6502229691934
20
-3.07500744471724
30
0
41
1
10
60.6274910085927
20
-3.04573606020313
30
0
41
1
10
60.6149009966739
20
-3.03223124874921
30
0
41
1
10
60.5884607500214
20
-3.00820784858945
30
0
41
1
10
60.5745494048171
20
-2.99758536258491
30
0
41
1
10
60.5526901998914
20
-2.98369053370055
30
0
41
1
10
60.5452327795978
20
-2.97940509711427
30
0
41
1
10
60.5302417380038
20
-2.97167735654008
30
0
41
1
10
60.522676762468
20
-2.9682137550522
30
0
41
1
10
60.4997801300956
20
-2.95904315054119
30
0
41
1
10
60.4842497976939
20
-2.95453249986036
30
0
41
1
10
60.46053466584
20
-2.95060134211471
30
0
41
1
10
60.4525473633992
20
-2.94977573913891
30
0
41
1
10
60.4368053133037
20
-2.94923047480796
30
0
41
1
10
60.4290056329867
20
-2.94950021664033
30
0
41
1
10
60.4135744041423
20
-2.95124989019516
30
0
41
1
10
60.405924699103
20
-2.95273316500527
30
0
41
1
10
60.3909082356091
20
-2.95711549574071
30
0
41
1
10
60.3836739850665
20
-2.95997355228244
30
0
41
1
10
60.3698245943596
20
-2.96718200241602
30
0
41
1
10
60.3631833499037
20
-2.9715504275506
30
0
41
1
10
60.3507575163352
20
-2.98200011374149
30
0
41
1
10
60.3450810427056
20
-2.98798271182315
30
0
41
1
10
60.3400103539762
20
-2.99482522583921
30
0
0
SPLINE
5
102
100
AcDbEntity
8
1
62
256
6
ByLayer
370
18
48
1
60
0
100
AcDbSpline
70
4
71
3
72
12
73
8
40
0
40
0
40
0
40
0
40
0.500000000000012
40
0.500000000000012
40
0.750000000000006
40
0.750000000000006
40
1
40
1
40
1
40
1
41
1
10
60.3400103539762
20
-2.99482522583921
30
0
41
1
10
60.2688622134504
20
-3.09083430364674
30
0
41
1
10
60.1980823015294
20
-3.18272744960768
30
0
41
1
10
60.0926169077931
20
-3.31416396234928
30
0
41
1
10
60.0575755638693
20
-3.35691321690123
30
0
41
1
10
59.9877999121369
20
-3.44018164609426
30
0
41
1
10
59.9530490356552
20
-3.48072160705988
30
0
41
1
10
59.9184127663738
20
-3.52018576332992
30
0
0
SPLINE
5
103
100
AcDbEntity
8
1
62
256
6
ByLayer
370
18
48
1
60
0
100
AcDbSpline
70
4
71
3
72
8
73
4
40
0
40
0
40
0
40
0
40
1
40
1
40
1
40
1
41
1
10
59.7951586490796
20
-3.45670390028974
30
0
41
1
10
59.8362376384498
20
-3.47840012394872
30
0
41
1
10
59.8773192764659
20
-3.49956245888734
30
0
41
1
10
59.9184127663738
20
-3.52018576332986
30
0
0
SPLINE
5
104
100
AcDbEntity
8
1
62
256
6
ByLayer
370
18
48
1
60
0
100
AcDbSpline
70
4
71
3
72
10
73
6
40
0
40
0
40
0
40
0
40
0.5
40
0.5
40
1
40
1
40
1
40
1
41
1
10
59.7951586490796
20
-3.45670390028974
30
0
41
1
10
59.7227707120078
20
-3.30498110655248
30
0
41
1
10
59.6499482705728
20
-3.15272417616313
30
0
41
1
10
59.503041436331
20
-2.8473945430718
30
0
41
1
10
59.4292047028231
20
-2.69484440651541
30
0
41
1
10
59.354736188802
20
-2.54252778244941
30
0
0
SPLINE
5
105
100
AcDbEntity
8
1
62
256
6
ByLayer
370
18
48
1
60
0
100
AcDbSpline
70
4
71
3
72
8
73
4
40
0
40
0
40
0
40
0
40
1
40
1
40
1
40
1
41
1
10
32.3982393268642
20
-2.66261340684457
30
0
41
1
10
32.3974035008623
20
-2.67404735598601
30
0
41
1
10
32.3966464029174
20
-2.68550456776927
30
0
41
1
10
32.3959670682764
20
-2.69698009520923
30
0
0
SPLINE
5
106
100
AcDbEntity
8
1
62
256
6
ByLayer
370
18
48
1
60
0
100
AcDbSpline
70
4
71
3
72
10
73
6
40
0
40
0
40
0
40
0
40
0.5
40
0.5
40
1
40
1
40
1
40
1
41
1
10
54.9342303784342
20
-3.66639377507371
30
0
41
1
10
55.0059410996955
20
-3.59995276018731
30
0
41
1
10
55.0781138595426
20
-3.52800022922611
30
0
41
1
10
55.2241248312
20
-3.37179506371018
30
0
41
1
10
55.297657496314
20
-3.28791694652671
30
0
41
1
10
55.3719391859662
20
-3.19844155903417
30
0
0
SPLINE
5
107
100
AcDbEntity
8
1
62
256
6
ByLayer
370
18
48
1
60
0
100
AcDbSpline
70
4
71
3
72
30
73
26
40
0
40
0
40
0
40
0
40
0.125000000000007
40
0.125000000000007
40
0.250000000000014
40
0.250000000000014
40
0.375000000000021
40
0.375000000000021
40
0.437499999999992
40
0.437499999999992
40
0.499999999999962
40
0.499999999999962
40
0.624999999999972
40
0.624999999999972
40
0.687499999999977
40
0.687499999999977
40
0.749999999999981
40
0.749999999999981
40
0.812499999999986
40
0.812499999999986
40
0.874999999999991
40
0.874999999999991
40
0.937499999999995
40
0.937499999999995
40
1
40
1
40
1
40
1
41
1
10
55.3719391859662
20
-3.19844155903417
30
0
41
1
10
55.381084138671
20
-3.18742608280181
30
0
41
1
10
55.3917359860068
20
-3.17868359611168
30
0
41
1
10
55.4153140073449
20
-3.16457220168039
30
0
41
1
10
55.4283931095903
20
-3.15921552234647
30
0
41
1
10
55.4556032946676
20
-3.15191287792649
30
0
41
1
10
55.4698106362071
20
-3.14989332204161
30
0
41
1
10
55.491940013675
20
-3.14917662015557
30
0
41
1
10
55.4994765574109
20
-3.14932937784019
30
0
41
1
10
55.5147282643374
20
-3.1504363488994
30
0
41
1
10
55.5223833997826
20
-3.15138382344748
30
0
41
1
10
55.545424787866
20
-3.15540195996834
30
0
41
1
10
55.5608862182057
20
-3.15962867426614
30
0
41
1
10
55.5841982450462
20
-3.16858302484252
30
0
41
1
10
55.592032942464
20
-3.17203129373138
30
0
41
1
10
55.6074924154851
20
-3.17980220753765
30
0
41
1
10
55.615108180398
20
-3.18411380524225
30
0
41
1
10
55.6300859816489
20
-3.1936634251424
30
0
41
1
10
55.6374483070942
20
-3.19890042652472
30
0
41
1
10
55.6518764994629
20
-3.21043878892854
30
0
41
1
10
55.6589578729272
20
-3.21676664749336
30
0
41
1
10
55.6723458813298
20
-3.23027276373949
30
0
41
1
10
55.6787052043171
20
-3.23748678038649
30
0
41
1
10
55.6906475678162
20
-3.25298316313982
30
0
41
1
10
55.6962469958733
20
-3.26130704497447
30
0
41
1
10
55.7012282702518
20
-3.27003720557022
30
0
0
SPLINE
5
108
100
AcDbEntity
8
1
62
256
6
ByLayer
370
18
48
1
60
0
100
AcDbSpline
70
4
71
3
72
12
73
8
40
0
40
0
40
0
40
0
40
0.25
40
0.25
40
0.5
40
0.5
40
1
40
1
40
1
40
1
41
1
10
55.7012282702517
20
-3.27003720556982
30
0
41
1
10
55.7371263279265
20
-3.33295199097628
30
0
41
1
10
55.7728722722472
20
-3.39574998084876
30
0
41
1
10
55.8441117730119
20
-3.5210958365555
30
0
41
1
10
55.879619668077
20
-3.58366880042118
30
0
41
1
10
55.9857259801646
20
-3.77078919800041
30
0
41
1
10
56.0558982684326
20
-3.89472314583136
30
0
41
1
10
56.1254866736554
20
-4.01741587175755
30
0
0
SPLINE
5
109
100
AcDbEntity
8
1
62
256
6
ByLayer
370
18
48
1
60
0
100
AcDbSpline
70
4
71
3
72
10
73
6
40
0
40
0
40
0
40
0
40
0.5
40
0.5
40
1
40
1
40
1
40
1
41
1
10
56.2492632538955
20
-4.03426367416392
30
0
41
1
10
56.3209672673454
20
-3.92925273206129
30
0
41
1
10
56.3931581050323
20
-3.82003312800583
30
0
41
1
10
56.5389389675988
20
-3.59323010683769
30
0
41
1
10
56.6122936137313
20
-3.47600986594267
30
0
41
1
10
56.6863425406095
20
-3.35502627514933
30
0
0
SPLINE
5
10A
100
AcDbEntity
8
1
62
256
6
ByLayer
370
18
48
1
60
0
100
AcDbSpline
70
4
71
3
72
30
73
26
40
0
40
0
40
0
40
0
40
0.124999999999925
40
0.124999999999925
40
0.24999999999985
40
0.24999999999985
40
0.374999999999776
40
0.374999999999776
40
0.437499999999771
40
0.437499999999771
40
0.499999999999766
40
0.499999999999766
40
0.624999999999824
40
0.624999999999824
40
0.687499999999853
40
0.687499999999853
40
0.749999999999883
40
0.749999999999883
40
0.812499999999912
40
0.812499999999912
40
0.874999999999941
40
0.874999999999941
40
0.937499999999971
40
0.937499999999971
40
1
40
1
40
1
40
1
41
1
10
56.6863425406095
20
-3.35502627514933
30
0
41
1
10
56.6955075047316
20
-3.34005225303005
30
0
41
1
10
56.7061821695814
20
-3.32722107837677
30
0
41
1
10
56.7298009855802
20
-3.30474195012761
30
0
41
1
10
56.7428967261139
20
-3.29506690108633
30
0
41
1
10
56.7701209655594
20
-3.27926696820026
30
0
41
1
10
56.7843281226315
20
-3.27303601970627
30
0
41
1
10
56.8064477793666
20
-3.26603529005041
30
0
41
1
10
56.8139792529811
20
-3.26409294416786
30
0
41
1
10
56.8292198291134
20
-3.26104429252928
30
0
41
1
10
56.8368691769974
20
-3.25994730982268
30
0
41
1
10
56.8598943713141
20
-3.25792699144128
30
0
41
1
10
56.8753471451149
20
-3.25825345444699
30
0
41
1
10
56.8986479334131
20
-3.26155019857219
30
0
41
1
10
56.9064785159607
20
-3.26313462012817
30
0
41
1
10
56.9219389036196
20
-3.2673085718846
30
0
41
1
10
56.9295559456875
20
-3.26988781719461
30
0
41
1
10
56.9445375091221
20
-3.27611356205
30
0
41
1
10
56.9519023194914
20
-3.27975889025507
30
0
41
1
10
56.9663363453531
20
-3.28827311524205
30
0
41
1
10
56.9734243223677
20
-3.29316828149993
30
0
41
1
10
56.9868278366915
20
-3.30408235782895
30
0
41
1
10
56.9931952415714
20
-3.31012467272214
30
0
41
1
10
57.0051538491482
20
-3.32356610631049
30
0
41
1
10
57.0107633818112
20
-3.3310074570912
30
0
41
1
10
57.0157547728257
20
-3.33905681517325
30
0
0
SPLINE
5
10B
100
AcDbEntity
8
1
62
256
6
ByLayer
370
18
48
1
60
0
100
AcDbSpline
70
4
71
3
72
10
73
6
40
0
40
0
40
0
40
0
40
0.5
40
0.5
40
1
40
1
40
1
40
1
41
1
10
57.0157547728256
20
-3.33905681517342
30
0
41
1
10
57.0876247686993
20
-3.45495783964881
30
0
41
1
10
57.1588615599039
20
-3.5683178946849
30
0
41
1
10
57.3004942290339
20
-3.79009879321276
30
0
41
1
10
57.3706429457119
20
-3.89812686295889
30
0
41
1
10
57.4403102395777
20
-4.0032948437007
30
0
0
SPLINE
5
10C
100
AcDbEntity
8
1
62
256
6
ByLayer
370
18
48
1
60
0
100
AcDbSpline
70
4
71
3
72
8
73
4
40
0
40
0
40
0
40
0
40
1
40
1
40
1
40
1
41
1
10
57.5642401127894
20
-3.98006401531322
30
0
41
1
10
57.5228886726117
20
-3.98842907212102
30
0
41
1
10
57.4815801233804
20
-3.99617248882336
30
0
41
1
10
57.4403102395777
20
-4.00329484370062
30
0
0
SPLINE
5
10D
100
AcDbEntity
8
1
62
256
6
ByLayer
370
18
48
1
60
0
100
AcDbSpline
70
4
71
3
72
10
73
6
40
0
40
0
40
0
40
0
40
0.5
40
0.5
40
1
40
1
40
1
40
1
41
1
10
57.5642401127894
20
-3.98006401531322
30
0
41
1
10
57.6358421913315
20
-3.84819438030772
30
0
41
1
10
57.707934382507
20
-3.71392024695081
30
0
41
1
10
57.8535555534096
20
-3.44079521886243
30
0
41
1
10
57.9268458032989
20
-3.30240846688659
30
0
41
1
10
58.0008496951354
20
-3.1623240278594
30
0
0
SPLINE
5
10E
100
AcDbEntity
8
1
62
256
6
ByLayer
370
18
48
1
60
0
100
AcDbSpline
70
4
71
3
72
32
73
28
40
0
40
0
40
0
40
0
40
0.125000000000091
40
0.125000000000091
40
0.18750000000011
40
0.18750000000011
40
0.250000000000129
40
0.250000000000129
40
0.375000000000107
40
0.375000000000107
40
0.437500000000096
40
0.437500000000096
40
0.500000000000086
40
0.500000000000086
40
0.625000000000065
40
0.625000000000065
40
0.687500000000054
40
0.687500000000054
40
0.750000000000043
40
0.750000000000043
40
0.812500000000033
40
0.812500000000033
40
0.875000000000022
40
0.875000000000022
40
0.937500000000011
40
0.937500000000011
40
1
40
1
40
1
40
1
41
1
10
58.0008496951355
20
-3.1623240278594
30
0
41
1
10
58.0100028790082
20
-3.14499766033606
30
0
41
1
10
58.0206680151776
20
-3.12943424795085
30
0
41
1
10
58.0383767359733
20
-3.10806581846475
30
0
41
1
10
58.0445719529537
20
-3.10128114817354
30
0
41
1
10
58.0575143864396
20
-3.08835095245533
30
0
41
1
10
58.064192475507
20
-3.08227734202853
30
0
41
1
10
58.0846293776484
20
-3.0652681117366
30
0
41
1
10
58.0988546137018
20
-3.05545998380245
30
0
41
1
10
58.1210056737931
20
-3.04289285186348
30
0
41
1
10
58.1285502040566
20
-3.03905480395491
30
0
41
1
10
58.1438071353211
20
-3.03217111654396
30
0
41
1
10
58.1514638074252
20
-3.02914772430395
30
0
41
1
10
58.1745064211973
20
-3.02131611072681
30
0
41
1
10
58.1899641478599
20
-3.01772614650514
30
0
41
1
10
58.2132633962041
20
-3.01505172915046
30
0
41
1
10
58.2210926421704
20
-3.0146186958529
30
0
41
1
10
58.2365270081656
20
-3.01477738937928
30
0
41
1
10
58.2441300549765
20
-3.01536192247531
30
0
41
1
10
58.2590825323916
20
-3.01762314042583
30
0
41
1
10
58.2664322494707
20
-3.01929862653739
30
0
41
1
10
58.280835932544
20
-3.02389953331235
30
0
41
1
10
58.28790361812
20
-3.02684368645666
30
0
41
1
10
58.3012678919402
20
-3.03399892470523
30
0
41
1
10
58.3076171147615
20
-3.03822037252712
30
0
41
1
10
58.3195434108946
20
-3.04815653474409
30
0
41
1
10
58.3251370907359
20
-3.0539055899651
30
0
41
1
10
58.3301154875138
20
-3.06039079250377
30
0
0
SPLINE
5
10F
100
AcDbEntity
8
1
62
256
6
ByLayer
370
18
48
1
60
0
100
AcDbSpline
70
4
71
3
72
12
73
8
40
0
40
0
40
0
40
0
40
0.249999999999994
40
0.249999999999994
40
0.499999999999989
40
0.499999999999989
40
1
40
1
40
1
40
1
41
1
10
58.3301154875137
20
-3.06039079250445
30
0
41
1
10
58.3661396031969
20
-3.10731828681711
30
0
41
1
10
58.4020002185486
20
-3.15313309719474
30
0
41
1
10
58.4734451792889
20
-3.24255815035528
30
0
41
1
10
58.5090454089194
20
-3.28618615586507
30
0
41
1
10
58.6153690521833
20
-3.41370056560291
30
0
41
1
10
58.6856560024988
20
-3.49429658151524
30
0
41
1
10
58.7553644280425
20
-3.57049556403675
30
0
0
SPLINE
5
110
100
AcDbEntity
8
1
62
256
6
ByLayer
370
18
48
1
60
0
100
AcDbSpline
70
4
71
3
72
8
73
4
40
0
40
0
40
0
40
0
40
1
40
1
40
1
40
1
41
1
10
58.8784080356394
20
-3.50964502632198
30
0
41
1
10
58.8373366908468
20
-3.53047660228376
30
0
41
1
10
58.7963243239633
20
-3.55076118467594
30
0
41
1
10
58.7553644280423
20
-3.57049556403629
30
0
0
SPLINE
5
111
100
AcDbEntity
8
1
62
256
6
ByLayer
370
18
48
1
60
0
100
AcDbSpline
70
4
71
3
72
10
73
6
40
0
40
0
40
0
40
0
40
0.5
40
0.5
40
1
40
1
40
1
40
1
41
1
10
58.8784080356394
20
-3.50964502632198
30
0
41
1
10
58.9499706669506
20
-3.36462629303364
30
0
41
1
10
59.0220925397253
20
-3.21935797955459
30
0
41
1
10
59.1678840616473
20
-2.92862295633427
30
0
41
1
10
59.2413019979682
20
-2.78366927787084
30
0
41
1
10
59.3154561894839
20
-2.63923727606522
30
0
0
SPLINE
5
112
100
AcDbEntity
8
1
62
256
6
ByLayer
370
18
48
1
60
0
100
AcDbSpline
70
4
71
3
72
12
73
8
40
0
40
0
40
0
40
0
40
0.568345978328884
40
0.568345978328884
40
0.85251896749344
40
0.85251896749344
40
1
40
1
40
1
40
1
41
1
10
59.315456189484
20
-2.63923727606522
30
0
41
1
10
59.3246123864887
20
-2.62140351865673
30
0
41
1
10
59.3352814267319
20
-2.60478263733424
30
0
41
1
10
59.3529965763397
20
-2.58121936980257
30
0
41
1
10
59.3591940694681
20
-2.57359878562778
30
0
41
1
10
59.3690275263037
20
-2.56235878048886
30
0
41
1
10
59.3724434837977
20
-2.5585994810894
30
0
41
1
10
59.3759050819812
20
-2.55492556518175
30
0
0
SPLINE
5
113
100
AcDbEntity
8
1
62
256
6
ByLayer
370
18
48
1
60
0
100
AcDbSpline
70
4
71
3
72
10
73
6
40
0
40
0
40
0
40
0
40
0.5
40
0.5
40
1
40
1
40
1
40
1
41
1
10
64.026410401712
20
2.3839904153096
30
0
41
1
10
64.0708630683432
20
2.4192271884273
30
0
41
1
10
64.1150626381168
20
2.45226433650143
30
0
41
1
10
64.2030637377935
20
2.51411961458001
30
0
41
1
10
64.2468966999198
20
2.54296028108092
30
0
41
1
10
64.2904763259477
20
2.56967162732027
30
0
0
SPLINE
5
114
100
AcDbEntity
8
1
62
256
6
ByLayer
370
18
48
1
60
0
100
AcDbSpline
70
4
71
3
72
8
73
4
40
0
40
0
40
0
40
0
40
1
40
1
40
1
40
1
41
1
10
64.2904763259477
20
2.56967162732036
30
0
41
1
10
64.4687794854483
20
2.40960907573972
30
0
41
1
10
64.6477125528282
20
2.2461628190845
30
0
41
1
10
64.827926668428
20
2.08010132784278
30
0
0
SPLINE
5
115
100
AcDbEntity
8
1
62
256
6
ByLayer
370
18
48
1
60
0
100
AcDbSpline
70
4
71
3
72
8
73
4
40
0
40
0
40
0
40
0
40
1
40
1
40
1
40
1
41
1
10
64.8279266684281
20
2.08010132784276
30
0
41
1
10
64.8887069190062
20
1.96728368574938
30
0
41
1
10
64.9498607314987
20
1.85641347828957
30
0
41
1
10
65.0115073265926
20
1.74754075630702
30
0
0
SPLINE
5
116
100
AcDbEntity
8
1
62
256
6
ByLayer
370
18
48
1
60
0
100
AcDbSpline
70
4
71
3
72
32
73
28
40
0
40
0
40
0
40
0
40
0.125000000000079
40
0.125000000000079
40
0.187500000000092
40
0.187500000000092
40
0.250000000000106
40
0.250000000000106
40
0.375000000000133
40
0.375000000000133
40
0.437500000000147
40
0.437500000000147
40
0.500000000000161
40
0.500000000000161
40
0.625000000000119
40
0.625000000000119
40
0.687500000000099
40
0.687500000000099
40
0.750000000000079
40
0.750000000000079
40
0.81250000000006
40
0.81250000000006
40
0.87500000000004
40
0.87500000000004
40
0.93750000000002
40
0.93750000000002
40
1
40
1
40
1
40
1
41
1
10
65.0115073265926
20
1.74754075630702
30
0
41
1
10
65.0206958758646
20
1.7313130576191
30
0
41
1
10
65.0314070656764
20
1.71553725098448
30
0
41
1
10
65.0491908946939
20
1.69239647960421
30
0
41
1
10
65.05541227188
20
1.68477190567302
30
0
41
1
10
65.0684085304022
20
1.6696902165705
30
0
41
1
10
65.0751146680726
20
1.66231490371879
30
0
41
1
10
65.0956269829111
20
1.64082150721811
30
0
41
1
10
65.1098955055963
20
1.62724350120917
30
0
41
1
10
65.1320980732379
20
1.60789741064519
30
0
41
1
10
65.1396605949124
20
1.60159949827673
30
0
41
1
10
65.1549310755478
20
1.58945002926529
30
0
41
1
10
65.1625920709278
20
1.58363365443196
30
0
41
1
10
65.1856401845227
20
1.56693900789938
30
0
41
1
10
65.2010916918211
20
1.55680316223456
30
0
41
1
10
65.224365325589
20
1.54320813503617
30
0
41
1
10
65.232181722602
20
1.53892718487813
30
0
41
1
10
65.2475620253334
20
1.53110960424425
30
0
41
1
10
65.2551369672146
20
1.5275627296009
30
0
41
1
10
65.2700312423117
20
1.5212459038089
30
0
41
1
10
65.2773508592208
20
1.51847511864094
30
0
41
1
10
65.2916925258466
20
1.51381787961841
30
0
41
1
10
65.2987249604988
20
1.51193623810286
30
0
41
1
10
65.3120229445704
20
1.50930272388521
30
0
41
1
10
65.3183408069436
20
1.50853026172618
30
0
41
1
10
65.3302095392719
20
1.50824637501495
30
0
41
1
10
65.3357791869297
20
1.50874600503244
30
0
41
1
10
65.3407414692742
20
1.50999038100477
30
0
0
SPLINE
5
117
100
AcDbEntity
8
1
62
256
6
ByLayer
370
18
48
1
60
0
100
AcDbSpline
70
4
71
3
72
8
73
4
40
0
40
0
40
0
40
0
40
1
40
1
40
1
40
1
41
1
10
65.3407414692741
20
1.50999038100602
30
0
41
1
10
65.3682975898594
20
1.51690054289645
30
0
41
1
10
65.3957559349383
20
1.52283956586248
30
0
41
1
10
65.4231288474348
20
1.52782248526424
30
0
0
SPLINE
5
118
100
AcDbEntity
8
1
62
256
6
ByLayer
370
18
48
1
60
0
100
AcDbSpline
70
4
71
3
72
16
73
12
40
0
40
0
40
0
40
0
40
0.249999999999989
40
0.249999999999989
40
0.374999999999984
40
0.374999999999984
40
0.499999999999979
40
0.499999999999979
40
0.749999999999989
40
0.749999999999989
40
1
40
1
40
1
40
1
41
1
10
65.4231288474348
20
1.52782248526427
30
0
41
1
10
65.5106408719765
20
1.44626742456896
30
0
41
1
10
65.5985619743219
20
1.36425672331754
30
0
41
1
10
65.7314705690952
20
1.24094218693969
30
0
41
1
10
65.7759647711685
20
1.19980554751498
30
0
41
1
10
65.8654299078226
20
1.1175582562089
30
0
41
1
10
65.9103165555269
20
1.07650200842113
30
0
41
1
10
66.0451365081525
20
0.953803355661478
30
0
41
1
10
66.1353613031094
20
0.872529199084084
30
0
41
1
10
66.3167540509094
20
0.711310307811118
30
0
41
1
10
66.4079005722201
20
0.631341465916279
30
0
41
1
10
66.4999998717392
20
0.552582924826368
30
0
0
SPLINE
5
119
100
AcDbEntity
8
1
62
256
6
ByLayer
370
18
48
1
60
0
100
AcDbSpline
70
4
71
3
72
12
73
8
40
0
40
0
40
0
40
0
40
0.5
40
0.5
40
0.75
40
0.75
40
1
40
1
40
1
40
1
41
1
10
66.4999998717392
20
0.552582924826368
30
0
41
1
10
66.578536868223
20
0.468463643952248
30
0
41
1
10
66.6590561264659
20
0.391638835494604
30
0
41
1
10
66.7842361821459
20
0.2890847349897
30
0
41
1
10
66.8265132978109
20
0.257170536178307
30
0
41
1
10
66.9124070193326
20
0.198251193470725
30
0
41
1
10
66.9558709092335
20
0.171347681257203
30
0
41
1
10
67
20
0.147244440353603
30
0
0
SPLINE
5
11A
100
AcDbEntity
8
1
62
256
6
ByLayer
370
18
48
1
60
0
100
AcDbSpline
70
4
71
3
72
27
73
23
40
0
40
0
40
0
40
0
40
0.124999999999998
40
0.124999999999998
40
0.156249999999998
40
0.156249999999998
40
0.187499999999998
40
0.249999999999997
40
0.312499999999997
40
0.312499999999997
40
0.343749999999997
40
0.343749999999997
40
0.374999999999997
40
0.374999999999997
40
0.499999999999998
40
0.499999999999998
40
0.562499999999998
40
0.562499999999998
40
0.624999999999999
40
0.749999999999999
40
0.749999999999999
40
1
40
1
40
1
40
1
41
1
10
67
20
0.147244440353603
30
0
41
1
10
67
20
0.156550572750831
30
0
41
1
10
67
20
0.171257670165005
30
0
41
1
10
67
20
0.196645820158949
30
0
41
1
10
67
20
0.202073326191538
30
0
41
1
10
67
20
0.213547605571762
30
0
41
1
10
67
20
0.231717953770215
30
0
41
1
10
67
20
0.266694123413316
30
0
41
1
10
67.0000000000001
20
0.299555136019535
30
0
41
1
10
67
20
0.326020311013963
30
0
41
1
10
67
20
0.335157564791274
30
0
41
1
10
67
20
0.353538157820623
30
0
41
1
10
67
20
0.362840112691799
30
0
41
1
10
67
20
0.409999479754447
30
0
41
1
10
67
20
0.449668955434959
30
0
41
1
10
67
20
0.512131789796513
30
0
41
1
10
67
20
0.533457977793262
30
0
41
1
10
67
20
0.576866304099582
30
0
41
1
10
66.9999999999999
20
0.643193560009536
30
0
41
1
10
67
20
0.713111094521082
30
0
41
1
10
67
20
0.857670541279333
30
0
41
1
10
67
20
0.960354933009995
30
0
41
1
10
67
20
1.06927522354644
30
0
0
SPLINE
5
11B
100
AcDbEntity
8
1
62
256
6
ByLayer
370
18
48
1
60
0
100
AcDbSpline
70
4
71
3
72
11
73
7
40
0
40
0
40
0
40
0
40
0.251860466888482
40
0.502408149524172
40
0.751751574866727
40
1
40
1
40
1
40
1
41
1
10
67
20
1.1100213149025
30
0
41
1
10
67.0001033450448
20
1.10658182565069
30
0
41
1
10
67.0003094964643
20
1.09972077496005
30
0
41
1
10
67.0003876722608
20
1.08949340919923
30
0
41
1
10
67.0003106471576
20
1.07934436239842
30
0
41
1
10
67.0001033970278
20
1.07262667551839
30
0
41
1
10
67.0000000000001
20
1.06927522354647
30
0
0
SPLINE
5
11C
100
AcDbEntity
8
1
62
256
6
ByLayer
370
18
48
1
60
0
100
AcDbSpline
70
4
71
3
72
25
73
21
40
0
40
0
40
0
40
0
40
0.249999999999999
40
0.249999999999999
40
0.374999999999998
40
0.374999999999998
40
0.499999999999998
40
0.499999999999998
40
0.531249999999998
40
0.531249999999998
40
0.562499999999998
40
0.593749999999998
40
0.593749999999998
40
0.624999999999998
40
0.624999999999998
40
0.749999999999999
40
0.749999999999999
40
0.874999999999999
40
0.874999999999999
40
1
40
1
40
1
40
1
41
1
10
67
20
1.11002131491617
30
0
41
1
10
67
20
1.22017191064884
30
0
41
1
10
67
20
1.33656913663134
30
0
41
1
10
67
20
1.52084781997993
30
0
41
1
10
67
20
1.58353150963399
30
0
41
1
10
67.0000000000001
20
1.71115865549794
30
0
41
1
10
67
20
1.77615602030357
30
0
41
1
10
67.0000000000001
20
1.85884664655302
30
0
41
1
10
67
20
1.87543204617313
30
0
41
1
10
67
20
1.90907152183263
30
0
41
1
10
66.9999999999999
20
1.94312634130262
30
0
41
1
10
67.0000000000001
20
1.97801533025529
30
0
41
1
10
67
20
2.01332593432662
30
0
41
1
10
67
20
2.03116740827434
30
0
41
1
10
67
20
2.1207197128613
30
0
41
1
10
67
20
2.19396616806745
30
0
41
1
10
67
20
2.34360782985863
30
0
41
1
10
67
20
2.42006685719218
30
0
41
1
10
67.0000000000001
20
2.57602285426842
30
0
41
1
10
67
20
2.65357646559596
30
0
41
1
10
67
20
2.73072306371785
30
0
0
SPLINE
5
11D
100
AcDbEntity
8
1
62
256
6
ByLayer
370
18
48
1
60
0
100
AcDbSpline
70
4
71
3
72
12
73
8
40
0
40
0
40
0
40
0
40
0.5
40
0.5
40
0.75
40
0.75
40
1
40
1
40
1
40
1
41
1
10
67
20
2.73072306371788
30
0
41
1
10
66.9187804206193
20
2.81651236930276
30
0
41
1
10
66.8364559020798
20
2.90155386228602
30
0
41
1
10
66.7114106308931
20
3.0286533960919
30
0
41
1
10
66.6694751224916
20
3.07093623041936
30
0
41
1
10
66.5851083847565
20
3.15544785235275
30
0
41
1
10
66.5426913071883
20
3.19766136344265
30
0
41
1
10
66.500000045938
20
3.23993746817754
30
0
0
SPLINE
5
11E
100
AcDbEntity
8
1
62
256
6
ByLayer
370
18
48
1
60
0
100
AcDbSpline
70
4
71
3
72
8
73
4
40
0
40
0
40
0
40
0
40
1
40
1
40
1
40
1
41
1
10
66.5000000459376
20
3.23993746817692
30
0
41
1
10
66.4335304404165
20
3.25767895548003
30
0
41
1
10
66.3672862460718
20
3.27427795811178
30
0
41
1
10
66.3014460295202
20
3.28966590781462
30
0
0
SPLINE
5
11F
100
AcDbEntity
8
1
62
256
6
ByLayer
370
18
48
1
60
0
100
AcDbSpline
70
4
71
3
72
27
73
23
40
0
40
0
40
0
40
0
40
0.24999999999996
40
0.24999999999996
40
0.312499999999993
40
0.312499999999993
40
0.375000000000025
40
0.375000000000025
40
0.500000000000001
40
0.500000000000001
40
0.562499999999989
40
0.562499999999989
40
0.624999999999977
40
0.624999999999977
40
0.750000000000041
40
0.750000000000041
40
0.812500000000031
40
0.812500000000031
40
0.875000000000021
40
0.93750000000001
40
0.93750000000001
40
1
40
1
40
1
40
1
41
1
10
66.3014460295198
20
3.28966590781573
30
0
41
1
10
66.2815347024961
20
3.27700214317699
30
0
41
1
10
66.2601209286992
20
3.2678639840463
30
0
41
1
10
66.2315716721878
20
3.26083423780034
30
0
41
1
10
66.2257800110242
20
3.25965936580369
30
0
41
1
10
66.2141839016288
20
3.25780738064475
30
0
41
1
10
66.2083592176258
20
3.25712490017523
30
0
41
1
10
66.1908089519994
20
3.25582142304302
30
0
41
1
10
66.1790077732639
20
3.25593648765093
30
0
41
1
10
66.1611584458904
20
3.25776157016583
30
0
41
1
10
66.1551839286367
20
3.25864709394284
30
0
41
1
10
66.1431842980591
20
3.2610306485152
30
0
41
1
10
66.1371306785543
20
3.26253873031604
30
0
41
1
10
66.1192037969289
20
3.26800730570977
30
0
41
1
10
66.1075105109056
20
3.27289386168391
30
0
41
1
10
66.0904612407736
20
3.28248613720243
30
0
41
1
10
66.0848265396471
20
3.28609076082839
30
0
41
1
10
66.0739538705876
20
3.29403928676407
30
0
41
1
10
66.0634807915278
20
3.3027109842605
30
0
41
1
10
66.0538841348739
20
3.31296504654131
30
0
41
1
10
66.044791247503
20
3.32412940966793
30
0
41
1
10
66.0405525100923
20
3.3301038674841
30
0
41
1
10
66.0366920535407
20
3.33645152597364
30
0
0
SPLINE
5
120
100
AcDbEntity
8
1
62
256
6
ByLayer
370
18
48
1
60
0
100
AcDbSpline
70
4
71
3
72
8
73
4
40
0
40
0
40
0
40
0
40
1
40
1
40
1
40
1
41
1
10
66.0366920535341
20
3.33645152598689
30
0
41
1
10
66.0346414780826
20
3.33982323928086
30
0
41
1
10
66.0325912325988
20
3.34319329989958
30
0
41
1
10
66.0305413142754
20
3.34656170744631
30
0
0
SPLINE
5
121
100
AcDbEntity
8
1
62
256
6
ByLayer
370
18
48
1
60
0
100
AcDbSpline
70
4
71
3
72
10
73
6
40
0
40
0
40
0
40
0
40
0.5
40
0.5
40
1
40
1
40
1
40
1
41
1
10
66.0305413142754
20
3.34656170744631
30
0
41
1
10
65.8893791314661
20
3.37279628457202
30
0
41
1
10
65.7495722211639
20
3.3933559029854
30
0
41
1
10
65.472060476263
20
3.42278243335616
30
0
41
1
10
65.3344532860213
20
3.43158315718296
30
0
41
1
10
65.197657146483
20
3.43422206097191
30
0
0
SPLINE
5
122
100
AcDbEntity
8
1
62
256
6
ByLayer
370
18
48
1
60
0
100
AcDbSpline
70
4
71
3
72
8
73
4
40
0
40
0
40
0
40
0
40
1
40
1
40
1
40
1
41
1
10
65.197657146483
20
3.43422206097202
30
0
41
1
10
65.1491446829776
20
3.34121574250744
30
0
41
1
10
65.1004342649805
20
3.24716442256693
30
0
41
1
10
65.0514591203086
20
3.15208354332913
30
0
0
SPLINE
5
123
100
AcDbEntity
8
1
62
256
6
ByLayer
370
18
48
1
60
0
100
AcDbSpline
70
4
71
3
72
28
73
24
40
0
40
0
40
0
40
0
40
0.124999999999974
40
0.124999999999974
40
0.249999999999948
40
0.249999999999948
40
0.374999999999922
40
0.374999999999922
40
0.499999999999896
40
0.499999999999896
40
0.62499999999987
40
0.62499999999987
40
0.687499999999892
40
0.687499999999892
40
0.749999999999913
40
0.749999999999913
40
0.812499999999935
40
0.812499999999935
40
0.874999999999957
40
0.874999999999957
40
0.937499999999978
40
0.937499999999978
40
1
40
1
40
1
40
1
41
1
10
65.0514591203086
20
3.15208354332913
30
0
41
1
10
65.0426011951934
20
3.13488667104178
30
0
41
1
10
65.0323187514713
20
3.11927963864696
30
0
41
1
10
65.009532851588
20
3.09051935789705
30
0
41
1
10
64.9969031575772
20
3.07730535423264
30
0
41
1
10
64.9704767730157
20
3.05398500121575
30
0
41
1
10
64.9566102161174
20
3.04376319662759
30
0
41
1
10
64.9276497415578
20
3.02609007479819
30
0
41
1
10
64.9124173692655
20
3.01860643313319
30
0
41
1
10
64.881766715942
20
3.00713768897248
30
0
41
1
10
64.8662643457884
20
3.00306661599734
30
0
41
1
10
64.8427588658461
20
2.99979193270565
30
0
41
1
10
64.8348813575589
20
2.99917694717456
30
0
41
1
10
64.8190377674774
20
2.99904302473283
30
0
41
1
10
64.8111624703493
20
2.99952965892283
30
0
41
1
10
64.7957098142435
20
3.00170927683115
30
0
41
1
10
64.7881043432116
20
3.00340028943316
30
0
41
1
10
64.7731802614701
20
3.00817244092195
30
0
41
1
10
64.7658236154644
20
3.01128379652235
30
0
41
1
10
64.7519207934451
20
3.0189425330455
30
0
41
1
10
64.7453229501629
20
3.02349583830954
30
0
41
1
10
64.7329529219213
20
3.03429170252969
30
0
41
1
10
64.7271943756885
20
3.04054749034211
30
0
41
1
10
64.7221153240309
20
3.04759029298685
30
0
0
SPLINE
5
124
100
AcDbEntity
8
1
62
256
6
ByLayer
370
18
48
1
60
0
100
AcDbSpline
70
4
71
3
72
8
73
4
40
0
40
0
40
0
40
0
40
1
40
1
40
1
40
1
41
1
10
64.7221153240244
20
3.04759029300339
30
0
41
1
10
64.6361838626318
20
3.16674606547741
30
0
41
1
10
64.5507677158523
20
3.28035509884273
30
0
41
1
10
64.4660436694292
20
3.3880291926794
30
0
0
SPLINE
5
125
100
AcDbEntity
8
1
62
256
6
ByLayer
370
18
48
1
60
0
100
AcDbSpline
70
4
71
3
72
8
73
4
40
0
40
0
40
0
40
0
40
1
40
1
40
1
40
1
41
1
10
64.4660436694292
20
3.38802919267937
30
0
41
1
10
64.3330527094736
20
3.36832463422954
30
0
41
1
10
64.201771486133
20
3.34251566335649
30
0
41
1
10
64.0718334552106
20
3.31071787821577
30
0
0
SPLINE
5
126
100
AcDbEntity
8
1
62
256
6
ByLayer
370
18
48
1
60
0
100
AcDbSpline
70
4
71
3
72
12
73
8
40
0
40
0
40
0
40
0
40
0.250000000000006
40
0.250000000000006
40
0.500000000000011
40
0.500000000000011
40
1
40
1
40
1
40
1
41
1
10
64.0718334552109
20
3.31071787821529
30
0
41
1
10
64.0442530688357
20
3.25331342923806
30
0
41
1
10
64.0165904353404
20
3.19580409001483
30
0
41
1
10
63.9610712637468
20
3.08058515496879
30
0
41
1
10
63.933215314955
20
3.02287701002189
30
0
41
1
10
63.8494694210811
20
2.84979269527773
30
0
41
1
10
63.7933451853282
20
2.73435085744768
30
0
41
1
10
63.7368391316318
20
2.61889780135914
30
0
0
SPLINE
5
127
100
AcDbEntity
8
1
62
256
6
ByLayer
370
18
48
1
60
0
100
AcDbSpline
70
4
71
3
72
8
73
4
40
0
40
0
40
0
40
0
40
1
40
1
40
1
40
1
41
1
10
63.7368391316318
20
2.61889780135914
30
0
41
1
10
63.7287081387349
20
2.60228457290705
30
0
41
1
10
63.7193751053136
20
2.58663090530743
30
0
41
1
10
63.7090825082809
20
2.57174046200282
30
0
0
SPLINE
5
128
100
AcDbEntity
8
1
62
256
6
ByLayer
370
18
48
1
60
0
100
AcDbSpline
70
4
71
3
72
30
73
26
40
0
40
0
40
0
40
0
40
0.0182020697877882
40
0.0182020697877882
40
0.0937249874964507
40
0.0937249874964507
40
0.244770822913774
40
0.244770822913774
40
0.320293740622397
40
0.320293740622397
40
0.395816658331019
40
0.395816658331019
40
0.546862493748265
40
0.546862493748265
40
0.622385411456887
40
0.622385411456887
40
0.69790832916551
40
0.69790832916551
40
0.773431246874132
40
0.773431246874132
40
0.848954164582755
40
0.848954164582755
40
0.924477082291377
40
0.924477082291377
40
1
40
1
40
1
40
1
41
1
10
61.1137479585749
20
3.29793145450719
30
0
41
1
10
61.1152773001482
20
3.29667693617085
30
0
41
1
10
61.1168229300373
20
3.2954449259685
30
0
41
1
10
61.1248642910021
20
3.28921543082737
30
0
41
1
10
61.1315528015092
20
3.2846333727008
30
0
41
1
10
61.1520162081154
20
3.27219773711752
30
0
41
1
10
61.1662570876567
20
3.26558098933319
30
0
41
1
10
61.1884289823377
20
3.2580100430545
30
0
41
1
10
61.1959815850422
20
3.25587781862441
30
0
41
1
10
61.2112452251191
20
3.25245831030824
30
0
41
1
10
61.2189044921123
20
3.2511794890458
30
0
41
1
10
61.2419526967456
20
3.24862227949833
30
0
41
1
10
61.257411285813
20
3.24860206588269
30
0
41
1
10
61.2807068789184
20
3.2513873388684
30
0
41
1
10
61.2885337702745
20
3.25280266733867
30
0
41
1
10
61.3039470169026
20
3.25663353627994
30
0
41
1
10
61.3115387812998
20
3.25904270389452
30
0
41
1
10
61.326467150633
20
3.2649300533993
30
0
41
1
10
61.3338040418224
20
3.26840707293789
30
0
41
1
10
61.3481803617576
20
3.27658531244902
30
0
41
1
10
61.3552302155403
20
3.28130717442042
30
0
41
1
10
61.3685587296772
20
3.29187861135915
30
0
41
1
10
61.3748902261918
20
3.29775190215864
30
0
41
1
10
61.3867823231161
20
3.31085900895843
30
0
41
1
10
61.3923597666942
20
3.31813253805004
30
0
41
1
10
61.3973254355295
20
3.32602055064299
30
0
0
SPLINE
5
129
100
AcDbEntity
8
1
62
256
6
ByLayer
370
18
48
1
60
0
100
AcDbSpline
70
4
71
3
72
12
73
8
40
0
40
0
40
0
40
0
40
0.25
40
0.25
40
0.5
40
0.5
40
1
40
1
40
1
40
1
41
1
10
61.3973254355294
20
3.32602055064322
30
0
41
1
10
61.4332655552227
20
3.38311177563898
30
0
41
1
10
61.4690462221301
20
3.43951972693759
30
0
41
1
10
61.5403405882471
20
3.55098013658312
30
0
41
1
10
61.5758700065361
20
3.60605721542416
30
0
41
1
10
61.6820010145869
20
3.76905556913599
30
0
41
1
10
61.7521580531419
20
3.87476174040518
30
0
41
1
10
61.8216922894191
20
3.97714140687859
30
0
0
SPLINE
5
12A
100
AcDbEntity
8
1
62
256
6
ByLayer
370
18
48
1
60
0
100
AcDbSpline
70
4
71
3
72
8
73
4
40
0
40
0
40
0
40
0
40
1
40
1
40
1
40
1
41
1
10
61.9457804965298
20
3.94955963528227
30
0
41
1
10
61.9044794814137
20
3.959381441179
30
0
41
1
10
61.8631117215415
20
3.96857379356445
30
0
41
1
10
61.8216922894191
20
3.97714140687856
30
0
0
SPLINE
5
12B
100
AcDbEntity
8
1
62
256
6
ByLayer
370
18
48
1
60
0
100
AcDbSpline
70
4
71
3
72
10
73
6
40
0
40
0
40
0
40
0
40
0.5
40
0.5
40
1
40
1
40
1
40
1
41
1
10
61.9457804965286
20
3.94955963526914
30
0
41
1
10
62.0174189779978
20
3.81568487262373
30
0
41
1
10
62.0894866986169
20
3.67972952980185
30
0
41
1
10
62.2351883855193
20
3.40349413823083
30
0
41
1
10
62.3085511473032
20
3.26373327705827
30
0
41
1
10
62.3826784153935
20
3.12245759310923
30
0
0
SPLINE
5
12C
100
AcDbEntity
8
1
62
256
6
ByLayer
370
18
48
1
60
0
100
AcDbSpline
70
4
71
3
72
32
73
28
40
0
40
0
40
0
40
0
40
0.125000000000018
40
0.125000000000018
40
0.187500000000053
40
0.187500000000053
40
0.250000000000088
40
0.250000000000088
40
0.37500000000016
40
0.37500000000016
40
0.437500000000163
40
0.437500000000163
40
0.500000000000167
40
0.500000000000167
40
0.625000000000176
40
0.625000000000176
40
0.687500000000147
40
0.687500000000147
40
0.750000000000117
40
0.750000000000117
40
0.812500000000088
40
0.812500000000088
40
0.875000000000059
40
0.875000000000059
40
0.937500000000029
40
0.937500000000029
40
1
40
1
40
1
40
1
41
1
10
62.3826784153935
20
3.1224575931092
30
0
41
1
10
62.3918482154626
20
3.10498130118864
30
0
41
1
10
62.4025323283105
20
3.08922871690464
30
0
41
1
10
62.4202682425367
20
3.06752678024637
30
0
41
1
10
62.4264724045236
20
3.06062252725062
30
0
41
1
10
62.4394323256275
20
3.04743661874656
30
0
41
1
10
62.446118840417
20
3.04122828786109
30
0
41
1
10
62.4665778908499
20
3.02380002414753
30
0
41
1
10
62.4808147791575
20
3.01369059865888
30
0
41
1
10
62.5029792024643
20
3.0006366808384
30
0
41
1
10
62.510528117596
20
2.99662970490095
30
0
41
1
10
62.5257889654033
20
2.98939950419253
30
0
41
1
10
62.5334470235759
20
2.98619884372496
30
0
41
1
10
62.5564921280587
20
2.97782283133668
30
0
41
1
10
62.5719493729923
20
2.97385343951171
30
0
41
1
10
62.5952435736124
20
2.97057892394295
30
0
41
1
10
62.603070242554
20
2.96993954077283
30
0
41
1
10
62.6184932657434
20
2.96967956832944
30
0
41
1
10
62.6260901506591
20
2.97005178612417
30
0
41
1
10
62.6410289937978
20
2.97188098437761
30
0
41
1
10
62.6483712359419
20
2.97333678741424
30
0
41
1
10
62.6627582527586
20
2.97748842018774
30
0
41
1
10
62.6698170722716
20
2.98020244174208
30
0
41
1
10
62.6831634737869
20
2.98689857528765
30
0
41
1
10
62.6895034255913
20
2.99088945568278
30
0
41
1
10
62.7014109851577
20
3.00035928658778
30
0
41
1
10
62.706996939614
20
3.00587281684861
30
0
41
1
10
62.7119703909065
20
3.01212813179328
30
0
0
SPLINE
5
12D
100
AcDbEntity
8
1
62
256
6
ByLayer
370
18
48
1
60
0
100
AcDbSpline
70
4
71
3
72
10
73
6
40
0
40
0
40
0
40
0
40
0.5
40
0.5
40
1
40
1
40
1
40
1
41
1
10
62.7119703909064
20
3.01212813179393
30
0
41
1
10
62.7838823159201
20
3.10257472768433
30
0
41
1
10
62.855201654259
20
3.18860781369071
30
0
41
1
10
62.9968752336752
20
3.35196142577564
30
0
41
1
10
63.0671367705788
20
3.42915758538427
30
0
41
1
10
63.1368092579193
20
3.50169607989432
30
0
0
SPLINE
5
12E
100
AcDbEntity
8
1
62
256
6
ByLayer
370
18
48
1
60
0
100
AcDbSpline
70
4
71
3
72
8
73
4
40
0
40
0
40
0
40
0
40
1
40
1
40
1
40
1
41
1
10
63.2601775334471
20
3.43755275555452
30
0
41
1
10
63.2191321022697
20
3.45943285835355
30
0
41
1
10
63.1780100101537
20
3.48081568421125
30
0
41
1
10
63.1368092579193
20
3.50169607989434
30
0
0
SPLINE
5
12F
100
AcDbEntity
8
1
62
256
6
ByLayer
370
18
48
1
60
0
100
AcDbSpline
70
4
71
3
72
10
73
6
40
0
40
0
40
0
40
0
40
0.5
40
0.5
40
1
40
1
40
1
40
1
41
1
10
63.2601775334472
20
3.43755275555469
30
0
41
1
10
63.3318166264124
20
3.29232891762291
30
0
41
1
10
63.4039550610459
20
3.14710300471313
30
0
41
1
10
63.5496615305014
20
2.8569535007862
30
0
41
1
10
63.6229964981955
20
2.71250655472105
30
0
41
1
10
63.6970373073002
20
2.56880336496906
30
0
0
SPLINE
5
130
100
AcDbEntity
8
1
62
256
6
ByLayer
370
18
48
1
60
0
100
AcDbSpline
70
4
71
3
72
30
73
26
40
0
40
0
40
0
40
0
40
0.12499999999995
40
0.12499999999995
40
0.249999999999899
40
0.249999999999899
40
0.374999999999849
40
0.374999999999849
40
0.437499999999857
40
0.437499999999857
40
0.499999999999864
40
0.499999999999864
40
0.624999999999947
40
0.624999999999947
40
0.687499999999956
40
0.687499999999956
40
0.749999999999965
40
0.749999999999965
40
0.812499999999974
40
0.812499999999974
40
0.874999999999982
40
0.874999999999982
40
0.937499999999991
40
0.937499999999991
40
1
40
1
40
1
40
1
41
1
10
63.6970373073002
20
2.56880336496906
30
0
41
1
10
63.7062315877554
20
2.55095851096399
30
0
41
1
10
63.7169453853796
20
2.53426800084645
30
0
41
1
10
63.7406521626487
20
2.50261526606255
30
0
41
1
10
63.7537999756123
20
2.48755136527959
30
0
41
1
10
63.7811187944889
20
2.46007722991422
30
0
41
1
10
63.7953692440849
20
2.44753208349189
30
0
41
1
10
63.8175413495657
20
2.43036214756444
30
0
41
1
10
63.8250915897444
20
2.42489979502804
30
0
41
1
10
63.8403464724944
20
2.41462037064991
30
0
41
1
10
63.8480003470243
20
2.40983480702314
30
0
41
1
10
63.8710304139998
20
2.39652139878373
30
0
41
1
10
63.8864746648978
20
2.38902018139066
30
0
41
1
10
63.9097479036364
20
2.38003156578671
30
0
41
1
10
63.9175667239524
20
2.37740567973799
30
0
41
1
10
63.9329721307919
20
2.37308078172046
30
0
41
1
10
63.9405610004258
20
2.37137498904806
30
0
41
1
10
63.955485302804
20
2.36894734308939
30
0
41
1
10
63.9628210214708
20
2.36822442941241
30
0
41
1
10
63.9771964557405
20
2.36790123974967
30
0
41
1
10
63.9842513571587
20
2.36831246401491
30
0
41
1
10
63.9975938165711
20
2.3704055760177
30
0
41
1
10
64.0039332297226
20
2.3720808649395
30
0
41
1
10
64.0158422429147
20
2.37688773196189
30
0
41
1
10
64.0214316450468
20
2.38004385074197
30
0
41
1
10
64.0264104017121
20
2.38399041530866
30
0
0
SPLINE
5
131
100
AcDbEntity
8
1
62
256
6
ByLayer
370
18
48
1
60
0
100
AcDbSpline
70
4
71
3
72
8
73
4
40
0
40
0
40
0
40
0
40
1
40
1
40
1
40
1
41
1
10
65.160453280339
20
-0.667655539011776
30
0
41
1
10
65.1027788351547
20
-0.666870227206431
30
0
41
1
10
65.0453359517021
20
-0.661729042725284
30
0
41
1
10
64.9881811798412
20
-0.652430785429715
30
0
0
SPLINE
5
132
100
AcDbEntity
8
1
62
256
6
ByLayer
370
18
48
1
60
0
100
AcDbSpline
70
4
71
3
72
12
73
8
40
0
40
0
40
0
40
0
40
0.500000000000022
40
0.500000000000022
40
0.750000000000011
40
0.750000000000011
40
1
40
1
40
1
40
1
41
1
10
64.9881811798412
20
-0.652430785429715
30
0
41
1
10
64.8976719897587
20
-0.582628711017264
30
0
41
1
10
64.8074202671954
20
-0.510972463142735
30
0
41
1
10
64.6722578012115
20
-0.400829070407497
30
0
41
1
10
64.6272395495438
20
-0.363671201332522
30
0
41
1
10
64.5372468198967
20
-0.28848602800349
30
0
41
1
10
64.4922255857532
20
-0.250418637955448
30
0
41
1
10
64.4473216867509
20
-0.212017871105189
30
0
0
SPLINE
5
133
100
AcDbEntity
8
1
62
256
6
ByLayer
370
18
48
1
60
0
100
AcDbSpline
70
4
71
3
72
10
73
6
40
0
40
0
40
0
40
0
40
0.5
40
0.5
40
1
40
1
40
1
40
1
41
1
10
64.4473216867509
20
-0.212017871105218
30
0
41
1
10
64.4023250364326
20
-0.148057164697235
30
0
41
1
10
64.3570966035644
20
-0.0860932464848929
30
0
41
1
10
64.2663390525786
20
0.0333539834488192
30
0
41
1
10
64.2207768091527
20
0.0908859860327027
30
0
41
1
10
64.1749704226199
20
0.146159622589636
30
0
0
SPLINE
5
134
100
AcDbEntity
8
1
62
256
6
ByLayer
370
18
48
1
60
0
100
AcDbSpline
70
4
71
3
72
30
73
26
40
0
40
0
40
0
40
0
40
0.124999999999994
40
0.124999999999994
40
0.249999999999988
40
0.249999999999988
40
0.374999999999982
40
0.374999999999982
40
0.437500000000011
40
0.437500000000011
40
0.50000000000004
40
0.50000000000004
40
0.62500000000003
40
0.62500000000003
40
0.687500000000025
40
0.687500000000025
40
0.75000000000002
40
0.75000000000002
40
0.812500000000015
40
0.812500000000015
40
0.87500000000001
40
0.87500000000001
40
0.937500000000005
40
0.937500000000005
40
1
40
1
40
1
40
1
41
1
10
64.1749704226198
20
0.146159622589494
30
0
41
1
10
64.1661310528671
20
0.156825910591891
30
0
41
1
10
64.1558719578487
20
0.168113275346883
30
0
41
1
10
64.1331361500924
20
0.191614191847123
30
0
41
1
10
64.120543028293
20
0.203925739750929
30
0
41
1
10
64.0940961763362
20
0.228663358361814
30
0
41
1
10
64.080181500536
20
0.241159360004161
30
0
41
1
10
64.0583177211314
20
0.260121468688396
30
0
41
1
10
64.0508591058783
20
0.266481140859696
30
0
41
1
10
64.0358662040929
20
0.279064106167539
30
0
41
1
10
64.0283005202528
20
0.285314927611523
30
0
41
1
10
64.005402604513
20
0.30395656711039
30
0
41
1
10
63.9898725218469
20
0.316237552589939
30
0
41
1
10
63.9661603815407
20
0.334465500912899
30
0
41
1
10
63.9581759805581
20
0.340515352084225
30
0
41
1
10
63.9424407711615
20
0.352265211442841
30
0
41
1
10
63.9346449087875
20
0.358000351068142
30
0
41
1
10
63.9192221565338
20
0.369169299217106
30
0
41
1
10
63.9115766253934
20
0.374616411141687
30
0
41
1
10
63.8965712910569
20
0.385108126365964
30
0
41
1
10
63.8893425619631
20
0.390061540009214
30
0
41
1
10
63.8755038086329
20
0.399319467536571
30
0
41
1
10
63.8688675582804
20
0.403641036128647
30
0
41
1
10
63.8564517096866
20
0.411433731745348
30
0
41
1
10
63.8507796636128
20
0.414838543296469
30
0
41
1
10
63.8457127415962
20
0.417682859555043
30
0
0
SPLINE
5
135
100
AcDbEntity
8
1
62
256
6
ByLayer
370
18
48
1
60
0
100
AcDbSpline
70
4
71
3
72
12
73
8
40
0
40
0
40
0
40
0
40
0.499999999999999
40
0.499999999999999
40
0.75
40
0.75
40
1
40
1
40
1
40
1
41
1
10
63.8457127415963
20
0.417682859555072
30
0
41
1
10
63.7746826603247
20
0.457555589853655
30
0
41
1
10
63.7040173874463
20
0.503786795146937
30
0
41
1
10
63.5987194074222
20
0.58195011755879
30
0
41
1
10
63.5637327453292
20
0.609473535852629
30
0
41
1
10
63.4940638943168
20
0.66726923073827
30
0
41
1
10
63.4593651676671
20
0.697553520759584
30
0
41
1
10
63.4247795734964
20
0.729186793983473
30
0
0
SPLINE
5
136
100
AcDbEntity
8
1
62
256
6
ByLayer
370
18
48
1
60
0
100
AcDbSpline
70
4
71
3
72
8
73
4
40
0
40
0
40
0
40
0
40
1
40
1
40
1
40
1
41
1
10
63.3018510242727
20
0.850264661124385
30
0
41
1
10
63.3428386011992
20
0.8100172675762
30
0
41
1
10
63.3838118244521
20
0.769655026800365
30
0
41
1
10
63.4247795734964
20
0.729186793983473
30
0
0
SPLINE
5
137
100
AcDbEntity
8
1
62
256
6
ByLayer
370
18
48
1
60
0
100
AcDbSpline
70
4
71
3
72
28
73
24
40
0
40
0
40
0
40
0
40
0.125
40
0.125
40
0.250000000000001
40
0.250000000000001
40
0.375000000000001
40
0.375000000000001
40
0.500000000000001
40
0.500000000000001
40
0.625000000000002
40
0.625000000000002
40
0.687500000000001
40
0.687500000000001
40
0.750000000000001
40
0.750000000000001
40
0.812500000000001
40
0.812500000000001
40
0.875000000000001
40
0.875000000000001
40
0.9375
40
0.9375
40
1
40
1
40
1
40
1
41
1
10
62.8604083618663
20
1.20771300884158
30
0
41
1
10
62.8515397712259
20
1.21317748527414
30
0
41
1
10
62.8412448760532
20
1.21983543212224
30
0
41
1
10
62.8184331597151
20
1.23495769098568
30
0
41
1
10
62.8057891540046
20
1.24351430546307
30
0
41
1
10
62.7793372678162
20
1.26170707244913
30
0
41
1
10
62.7654595209445
20
1.27138819618082
30
0
41
1
10
62.7364803174308
20
1.29191924015336
30
0
41
1
10
62.7212415561931
20
1.3028710543015
30
0
41
1
10
62.690586390614
20
1.3253182152304
30
0
41
1
10
62.6750840295924
20
1.33687018449609
30
0
41
1
10
62.6515826587953
20
1.35482268730459
30
0
41
1
10
62.643707211018
20
1.36091202247303
30
0
41
1
10
62.6278694018141
20
1.37334422466529
30
0
41
1
10
62.6200052089087
20
1.37961087650785
30
0
41
1
10
62.60456895102
20
1.39213569619551
30
0
41
1
10
62.5969720248811
20
1.39841306023064
30
0
41
1
10
62.5820657941422
20
1.4110114783289
30
0
41
1
10
62.574719506934
20
1.41736740350177
30
0
41
1
10
62.5608374641535
20
1.42973215861252
30
0
41
1
10
62.5542496575647
20
1.43578303163858
30
0
41
1
10
62.5418985703342
20
1.44757895348556
30
0
41
1
10
62.5361478638281
20
1.45331715997034
30
0
41
1
10
62.53107469393
20
1.45867907044783
30
0
0
SPLINE
5
138
100
AcDbEntity
8
1
62
256
6
ByLayer
370
18
48
1
60
0
100
AcDbSpline
70
4
71
3
72
12
73
8
40
0
40
0
40
0
40
0
40
0.5
40
0.5
40
0.75
40
0.75
40
1
40
1
40
1
40
1
41
1
10
62.5310746939238
20
1.45867907044237
30
0
41
1
10
62.4601722393716
20
1.53361695377802
30
0
41
1
10
62.3896306419386
20
1.61377182938475
30
0
41
1
10
62.2845010236665
20
1.74108394836548
30
0
41
1
10
62.2495678697933
20
1.78470620351101
30
0
41
1
10
62.1800030808475
20
1.87411952963544
30
0
41
1
10
62.1453552108522
20
1.91993063411596
30
0
41
1
10
62.1108198371228
20
1.96682516030754
30
0
0
SPLINE
5
139
100
AcDbEntity
8
1
62
256
6
ByLayer
370
18
48
1
60
0
100
AcDbSpline
70
4
71
3
72
10
73
6
40
0
40
0
40
0
40
0
40
0.5
40
0.5
40
1
40
1
40
1
40
1
41
1
10
61.9860573976143
20
2.07554425170414
30
0
41
1
10
61.9136819741126
20
2.10116218592358
30
0
41
1
10
61.8408607799012
20
2.11972957692052
30
0
41
1
10
61.6939813156705
20
2.14252383860253
30
0
41
1
10
61.6201771117116
20
2.14670474985311
30
0
41
1
10
61.5458091215188
20
2.14352951913733
30
0
0
SPLINE
5
13A
100
AcDbEntity
8
1
62
256
6
ByLayer
370
18
48
1
60
0
100
AcDbSpline
70
4
71
3
72
28
73
24
40
0
40
0
40
0
40
0
40
0.125
40
0.125
40
0.25
40
0.25
40
0.375
40
0.375
40
0.5
40
0.5
40
0.625
40
0.625
40
0.6875
40
0.6875
40
0.75
40
0.75
40
0.8125
40
0.8125
40
0.875
40
0.875
40
0.9375
40
0.9375
40
1
40
1
40
1
40
1
41
1
10
61.5458091215188
20
2.14352951913722
30
0
41
1
10
61.5369510188898
20
2.14315131179993
30
0
41
1
10
61.5266684276004
20
2.14440314351828
30
0
41
1
10
61.5038840409109
20
2.14938932761504
30
0
41
1
10
61.49125630449
20
2.15319028259282
30
0
41
1
10
61.4648347515125
20
2.16280416115862
30
0
41
1
10
61.4509710387794
20
2.16862240996792
30
0
41
1
10
61.4220172737373
20
2.18224814384374
30
0
41
1
10
61.4067879892678
20
2.19014218405215
30
0
41
1
10
61.376140605641
20
2.20757152384093
30
0
41
1
10
61.3606399383327
20
2.21713039741891
30
0
41
1
10
61.3371370185239
20
2.23296800462771
30
0
41
1
10
61.329260363531
20
2.23849957585298
30
0
41
1
10
61.3134184487307
20
2.25015412026255
30
0
41
1
10
61.3055384021752
20
2.25621699525305
30
0
41
1
10
61.2900810600954
20
2.26871467784829
30
0
41
1
10
61.2824733720406
20
2.27517094513789
30
0
41
1
10
61.2675451184968
20
2.28857157261388
30
0
41
1
10
61.2601852336252
20
2.29556045187636
30
0
41
1
10
61.2462752864584
20
2.30967437769897
30
0
41
1
10
61.23967433971
20
2.31683972781858
30
0
41
1
10
61.2272989708475
20
2.33142395752623
30
0
41
1
10
61.221537152617
20
2.33884099991664
30
0
41
1
10
61.2164555836863
20
2.34615455683181
30
0
0
SPLINE
5
13B
100
AcDbEntity
8
1
62
256
6
ByLayer
370
18
48
1
60
0
100
AcDbSpline
70
4
71
3
72
12
73
8
40
0
40
0
40
0
40
0
40
0.499999999999988
40
0.499999999999988
40
0.749999999999994
40
0.749999999999994
40
1
40
1
40
1
40
1
41
1
10
61.2164555836801
20
2.34615455683175
30
0
41
1
10
61.1453576009852
20
2.44848105287124
30
0
41
1
10
61.074614929055
20
2.55452645930288
30
0
41
1
10
60.9691793953471
20
2.71830795773167
30
0
41
1
10
60.9341440278979
20
2.77369272195597
30
0
41
1
10
60.8643730341418
20
2.88580560223443
30
0
41
1
10
60.829621337076
20
2.94255854398091
30
0
41
1
10
60.7949828162866
20
2.99998740014158
30
0
0
SPLINE
5
13C
100
AcDbEntity
8
1
62
256
6
ByLayer
370
18
48
1
60
0
100
AcDbSpline
70
4
71
3
72
10
73
6
40
0
40
0
40
0
40
0
40
0.5
40
0.5
40
1
40
1
40
1
40
1
41
1
10
60.6717487241186
20
3.0821095485841
30
0
41
1
10
60.599354042676
20
3.05821209004526
30
0
41
1
10
60.526545615041
20
3.02748967129153
30
0
41
1
10
60.3796024048178
20
2.95193124197942
30
0
41
1
10
60.3057124965174
20
2.90717683482813
30
0
41
1
10
60.2311852386548
20
2.85544191200324
30
0
0
SPLINE
5
13D
100
AcDbEntity
8
1
62
256
6
ByLayer
370
18
48
1
60
0
100
AcDbSpline
70
4
71
3
72
30
73
26
40
0
40
0
40
0
40
0
40
0.12499999999996
40
0.12499999999996
40
0.24999999999992
40
0.24999999999992
40
0.37499999999988
40
0.37499999999988
40
0.437499999999892
40
0.437499999999892
40
0.499999999999904
40
0.499999999999904
40
0.624999999999928
40
0.624999999999928
40
0.68749999999994
40
0.68749999999994
40
0.749999999999952
40
0.749999999999952
40
0.812499999999964
40
0.812499999999964
40
0.874999999999976
40
0.874999999999976
40
0.937499999999988
40
0.937499999999988
40
1
40
1
40
1
40
1
41
1
10
60.2311852386547
20
2.85544191200333
30
0
41
1
10
60.2223352369021
20
2.84929846635941
30
0
41
1
10
60.2120609974685
20
2.8450483624739
30
0
41
1
10
60.1892900814102
20
2.83944739793191
30
0
41
1
10
60.1766761853193
20
2.83812956576887
30
0
41
1
10
60.1501907038953
20
2.83823354628146
30
0
41
1
10
60.136257864369
20
2.83962367592926
30
0
41
1
10
60.1143712849933
20
2.84369875642344
30
0
41
1
10
60.106907937874
20
2.84539630824739
30
0
41
1
10
60.0919074801434
20
2.84941807179433
30
0
41
1
10
60.0843389263009
20
2.85174725904045
30
0
41
1
10
60.0614354438472
20
2.85971570914524
30
0
41
1
10
60.0459057067527
20
2.86631581484014
30
0
41
1
10
60.0222013954598
20
2.87854532328294
30
0
41
1
10
60.0142266299111
20
2.88302313066757
30
0
41
1
10
59.9985114384303
20
2.89264926680656
30
0
41
1
10
59.9907259007069
20
2.89781879179961
30
0
41
1
10
59.975324060707
20
2.90896165579437
30
0
41
1
10
59.9676874958214
20
2.91495089964639
30
0
41
1
10
59.9527071698201
20
2.92781963096311
30
0
41
1
10
59.9454898044228
20
2.93458854037166
30
0
41
1
10
59.9316711270324
20
2.94888026405962
30
0
41
1
10
59.925043612347
20
2.95643372311145
30
0
41
1
10
59.9126419637345
20
2.97231481956712
30
0
41
1
10
59.906974554852
20
2.98049991861137
30
0
41
1
10
59.9019101004747
20
2.98896036165672
30
0
0
SPLINE
5
13E
100
AcDbEntity
8
1
62
256
6
ByLayer
370
18
48
1
60
0
100
AcDbSpline
70
4
71
3
72
12
73
8
40
0
40
0
40
0
40
0
40
0.5
40
0.5
40
0.75
40
0.75
40
1
40
1
40
1
40
1
41
1
10
59.9019101004747
20
2.98896036165672
30
0
41
1
10
59.830902333244
20
3.10758265059215
30
0
41
1
10
59.760262567588
20
3.22803946204729
30
0
41
1
10
59.6549912474603
20
3.41061543169261
30
0
41
1
10
59.6200120037525
20
3.47179497815361
30
0
41
1
10
59.550353471144
20
3.5945499355129
30
0
41
1
10
59.5156580776699
20
3.65615317147447
30
0
41
1
10
59.4810747565548
20
3.71796699048491
30
0
0
SPLINE
5
13F
100
AcDbEntity
8
1
62
256
6
ByLayer
370
18
48
1
60
0
100
AcDbSpline
70
4
71
3
72
10
73
6
40
0
40
0
40
0
40
0
40
0.5
40
0.5
40
1
40
1
40
1
40
1
41
1
10
59.3572413650852
20
3.76645507659273
30
0
41
1
10
59.2848201898791
20
3.69525991715025
30
0
41
1
10
59.2119645131899
20
3.61816293784531
30
0
41
1
10
59.0649764932429
20
3.45194927015308
30
0
41
1
10
58.9911019149591
20
3.36311539340173
30
0
41
1
10
58.9165938085389
20
3.26844290921659
30
0
0
SPLINE
5
140
100
AcDbEntity
8
1
62
256
6
ByLayer
370
18
48
1
60
0
100
AcDbSpline
70
4
71
3
72
30
73
26
40
0
40
0
40
0
40
0
40
0.125000000000039
40
0.125000000000039
40
0.250000000000078
40
0.250000000000078
40
0.375000000000117
40
0.375000000000117
40
0.437500000000105
40
0.437500000000105
40
0.500000000000093
40
0.500000000000093
40
0.625000000000069
40
0.625000000000069
40
0.687500000000058
40
0.687500000000058
40
0.750000000000046
40
0.750000000000046
40
0.812500000000035
40
0.812500000000035
40
0.875000000000023
40
0.875000000000023
40
0.937500000000012
40
0.937500000000012
40
1
40
1
40
1
40
1
41
1
10
58.916593808539
20
3.26844290921591
30
0
41
1
10
58.9077486591196
20
3.25720396745837
30
0
41
1
10
58.8974824012421
20
3.24792657776521
30
0
41
1
10
58.8747323922071
20
3.23238055663856
30
0
41
1
10
58.8621321604458
20
3.22611254098709
30
0
41
1
10
58.8356734819914
20
3.21670897892383
30
0
41
1
10
58.8217538072435
20
3.21350989407861
30
0
41
1
10
58.7998845723991
20
3.21093440155056
30
0
41
1
10
58.7924254880636
20
3.21045478603736
30
0
41
1
10
58.7774320494705
20
3.21027500565765
30
0
41
1
10
58.7698663196831
20
3.21056998047905
30
0
41
1
10
58.7469689653107
20
3.21263579028616
30
0
41
1
10
58.731440210969
20
3.21556376208542
30
0
41
1
10
58.7077315033559
20
3.22273629413505
30
0
41
1
10
58.6997499810388
20
3.22560658165176
30
0
41
1
10
58.6840200553733
20
3.23226237537125
30
0
41
1
10
58.6762266032426
20
3.23605874045279
30
0
41
1
10
58.6608080513958
20
3.24470314664933
30
0
41
1
10
58.6531639171892
20
3.24956317644151
30
0
41
1
10
58.6381624120839
20
3.26048136829991
30
0
41
1
10
58.6309349332439
20
3.26644273039767
30
0
41
1
10
58.6170974866837
20
3.27949376984407
30
0
41
1
10
58.6104613460056
20
3.2866124363571
30
0
41
1
10
58.598044493998
20
3.30208019272678
30
0
41
1
10
58.5923712534768
20
3.3102881520482
30
0
41
1
10
58.5873027042884
20
3.31903267551326
30
0
0
SPLINE
5
141
100
AcDbEntity
8
1
62
256
6
ByLayer
370
18
48
1
60
0
100
AcDbSpline
70
4
71
3
72
12
73
8
40
0
40
0
40
0
40
0
40
0.500000000000013
40
0.500000000000013
40
0.750000000000006
40
0.750000000000006
40
1
40
1
40
1
40
1
41
1
10
58.5873027042884
20
3.31903267551326
30
0
41
1
10
58.5162113171524
20
3.44168321709097
30
0
41
1
10
58.4454834944538
20
3.56405158316693
30
0
41
1
10
58.3400975173442
20
3.74644549870322
30
0
41
1
10
58.3050823283919
20
3.80705601855618
30
0
41
1
10
58.2353580158796
20
3.92767957954561
30
0
41
1
10
58.2006322509847
20
3.98772140492716
30
0
41
1
10
58.1660202729219
20
4.04748907709674
30
0
0
SPLINE
5
142
100
AcDbEntity
8
1
62
256
6
ByLayer
370
18
48
1
60
0
100
AcDbSpline
70
4
71
3
72
10
73
6
40
0
40
0
40
0
40
0
40
0.5
40
0.5
40
1
40
1
40
1
40
1
41
1
10
58.0428790265071
20
4.05681842774814
30
0
41
1
10
57.9704369339085
20
3.9459876170329
30
0
41
1
10
57.8975417654417
20
3.83074189436411
30
0
41
1
10
57.7504611622686
20
3.59140488755267
30
0
41
1
10
57.676527501354
20
3.46772450465454
30
0
41
1
10
57.6019957837016
20
3.33999246662435
30
0
0
SPLINE
5
143
100
AcDbEntity
8
1
62
256
6
ByLayer
370
18
48
1
60
0
100
AcDbSpline
70
4
71
3
72
28
73
24
40
0
40
0
40
0
40
0
40
0.125
40
0.125
40
0.25
40
0.25
40
0.375000000000001
40
0.375000000000001
40
0.500000000000001
40
0.500000000000001
40
0.625000000000001
40
0.625000000000001
40
0.687500000000001
40
0.687500000000001
40
0.750000000000001
40
0.750000000000001
40
0.8125
40
0.8125
40
0.875
40
0.875
40
0.9375
40
0.9375
40
1
40
1
40
1
40
1
41
1
10
57.6019957837015
20
3.33999246662429
30
0
41
1
10
57.5931272774123
20
3.32479367048376
30
0
41
1
10
57.5828322459327
20
3.31143455151769
30
0
41
1
10
57.5600216109196
20
3.28754181524479
30
0
41
1
10
57.5473791634442
20
3.27697277567467
30
0
41
1
10
57.5209318742439
20
3.25910468073153
30
0
41
1
10
57.5070569781145
20
3.2517056335424
30
0
41
1
10
57.4780847425987
20
3.23987208670582
30
0
41
1
10
57.4628494090824
20
3.23543258383816
30
0
41
1
10
57.4321980208882
20
3.23005967065924
30
0
41
1
10
57.4166975620447
20
3.22905751490717
30
0
41
1
10
57.3931989434797
20
3.23043738091806
30
0
41
1
10
57.385324394667
20
3.23138253956239
30
0
41
1
10
57.3694882998509
20
3.234391390832
30
0
41
1
10
57.3616188500322
20
3.23644232865794
30
0
41
1
10
57.3461772030405
20
3.24170122054338
30
0
41
1
10
57.3385776133885
20
3.24491265442288
30
0
41
1
10
57.3236662017467
20
3.25268299943159
30
0
41
1
10
57.3163160146683
20
3.25728014661485
30
0
41
1
10
57.3024253536784
20
3.26776769914304
30
0
41
1
10
57.2958336398318
20
3.27367407766036
30
0
41
1
10
57.283475598591
20
3.28703211550456
30
0
41
1
10
57.2777208415186
20
3.29449683281345
30
0
41
1
10
57.272644502194
20
3.30262350921342
30
0
0
SPLINE
5
144
100
AcDbEntity
8
1
62
256
6
ByLayer
370
18
48
1
60
0
100
AcDbSpline
70
4
71
3
72
12
73
8
40
0
40
0
40
0
40
0
40
0.499999999999989
40
0.499999999999989
40
0.749999999999994
40
0.749999999999994
40
1
40
1
40
1
40
1
41
1
10
57.2726445021881
20
3.30262350922672
30
0
41
1
10
57.2016472058932
20
3.41628258823738
30
0
41
1
10
57.1310088941065
20
3.52759327608311
30
0
41
1
10
57.0257351556304
20
3.69050070476274
30
0
41
1
10
56.9907544023237
20
3.74413060714693
30
0
41
1
10
56.9210954397787
20
3.84986117728815
30
0
41
1
10
56.8864008877356
20
3.90198730543398
30
0
41
1
10
56.8518201346005
20
3.95337407812039
30
0
0
SPLINE
5
145
100
AcDbEntity
8
1
62
256
6
ByLayer
370
18
48
1
60
0
100
AcDbSpline
70
4
71
3
72
8
73
4
40
0
40
0
40
0
40
0
40
1
40
1
40
1
40
1
41
1
10
56.7281238394423
20
3.92270844199817
30
0
41
1
10
56.7693707599841
20
3.93354573034011
30
0
41
1
10
56.8105993906184
20
3.94376821286139
30
0
41
1
10
56.8518201346005
20
3.95337407812031
30
0
0
SPLINE
5
146
100
AcDbEntity
8
1
62
256
6
ByLayer
370
18
48
1
60
0
100
AcDbSpline
70
4
71
3
72
10
73
6
40
0
40
0
40
0
40
0
40
0.5
40
0.5
40
1
40
1
40
1
40
1
41
1
10
56.7281238394424
20
3.92270844199817
30
0
41
1
10
56.6557222377509
20
3.78396593174853
30
0
41
1
10
56.5828558465
20
3.64270783088188
30
0
41
1
10
56.4358188393418
20
3.35532793439609
30
0
41
1
10
56.3619025991402
20
3.2097095840042
30
0
41
1
10
56.2873751408298
20
3.06223112056585
30
0
0
SPLINE
5
147
100
AcDbEntity
8
1
62
256
6
ByLayer
370
18
48
1
60
0
100
AcDbSpline
70
4
71
3
72
28
73
24
40
0
40
0
40
0
40
0
40
0.124999999999974
40
0.124999999999974
40
0.249999999999948
40
0.249999999999948
40
0.374999999999923
40
0.374999999999923
40
0.499999999999897
40
0.499999999999897
40
0.624999999999871
40
0.624999999999871
40
0.687499999999892
40
0.687499999999892
40
0.749999999999914
40
0.749999999999914
40
0.812499999999936
40
0.812499999999936
40
0.874999999999957
40
0.874999999999957
40
0.937499999999978
40
0.937499999999978
40
1
40
1
40
1
40
1
41
1
10
56.2873751408298
20
3.06223112056583
30
0
41
1
10
56.2785033045203
20
3.04467511078804
30
0
41
1
10
56.2682030427457
20
3.02863062235798
30
0
41
1
10
56.2453788041433
20
2.99887360085168
30
0
41
1
10
56.2327273393626
20
2.98509348401905
30
0
41
1
10
56.2062622972607
20
2.96056976699251
30
0
41
1
10
56.1923786305875
20
2.94970743982904
30
0
41
1
10
56.1633902231794
20
2.93067174833388
30
0
41
1
10
56.1481488549228
20
2.92246043017673
30
0
41
1
10
56.1174931724539
20
2.90949185314506
30
0
41
1
10
56.101992148736
20
2.90464402803957
30
0
41
1
10
56.078495378164
20
2.90015100936549
30
0
41
1
10
56.0706218927987
20
2.89912095473105
30
0
41
1
10
56.0547888843591
20
2.89813488150244
30
0
41
1
10
56.0469301636133
20
2.89818915599105
30
0
41
1
10
56.0315020668383
20
2.89949698061147
30
0
41
1
10
56.0239091359987
20
2.90074745893423
30
0
41
1
10
56.0090105848587
20
2.90462671933068
30
0
41
1
10
56.0016682285788
20
2.9072826700922
30
0
41
1
10
55.9877927179987
20
2.91404390143899
30
0
41
1
10
55.9812075270192
20
2.91815255285738
30
0
41
1
10
55.9688601859947
20
2.92806818106843
30
0
41
1
10
55.9631100840443
20
2.93389004019883
30
0
41
1
10
55.9580365425183
20
2.94052125983427
30
0
0
SPLINE
5
148
100
AcDbEntity
8
1
62
256
6
ByLayer
370
18
48
1
60
0
100
AcDbSpline
70
4
71
3
72
12
73
8
40
0
40
0
40
0
40
0
40
0.500000000000012
40
0.500000000000012
40
0.750000000000006
40
0.750000000000006
40
1
40
1
40
1
40
1
41
1
10
55.9580365425122
20
2.94052125985019
30
0
41
1
10
55.8870427060477
20
3.0333116154757
30
0
41
1
10
55.8164150903976
20
3.12192947792636
30
0
41
1
10
55.7111590671467
20
3.24834967834658
30
0
41
1
10
55.6761845595679
20
3.28940756553533
30
0
41
1
10
55.6065353452625
20
3.36924768670994
30
0
41
1
10
55.571844626363
20
3.40804931974088
30
0
41
1
10
55.5372663801416
20
3.44574269090333
30
0
0
SPLINE
5
149
100
AcDbEntity
8
1
62
256
6
ByLayer
370
18
48
1
60
0
100
AcDbSpline
70
4
71
3
72
8
73
4
40
0
40
0
40
0
40
0
40
1
40
1
40
1
40
1
41
1
10
55.4132920716018
20
3.3780896959218
30
0
41
1
10
55.4546285682936
20
3.40118029180621
30
0
41
1
10
55.495950070363
20
3.42373275922827
30
0
41
1
10
55.5372663801417
20
3.44574269090327
30
0
0
SPLINE
5
14A
100
AcDbEntity
8
1
62
256
6
ByLayer
370
18
48
1
60
0
100
AcDbSpline
70
4
71
3
72
10
73
6
40
0
40
0
40
0
40
0
40
0.581057800822531
40
0.581057800822531
40
1
40
1
40
1
40
1
41
1
10
55.4132920716018
20
3.3780896959218
30
0
41
1
10
55.3409414123661
20
3.22574120211945
30
0
41
1
10
55.2681505359912
20
3.0731120831318
30
0
41
1
10
55.1417052935143
20
2.81020567614189
30
0
41
1
10
55.0885058017713
20
2.70027481421994
30
0
41
1
10
55.0349884370172
20
2.59060227407198
30
0
0
SPLINE
5
14B
100
AcDbEntity
8
1
62
256
6
ByLayer
370
18
48
1
60
0
100
AcDbSpline
70
4
71
3
72
32
73
28
40
0
40
0
40
0
40
0
40
0.125000000000121
40
0.125000000000121
40
0.187500000000155
40
0.187500000000155
40
0.25000000000019
40
0.25000000000019
40
0.375000000000257
40
0.375000000000257
40
0.437500000000259
40
0.437500000000259
40
0.50000000000026
40
0.50000000000026
40
0.625000000000195
40
0.625000000000195
40
0.687500000000163
40
0.687500000000163
40
0.75000000000013
40
0.75000000000013
40
0.812500000000098
40
0.812500000000098
40
0.875000000000065
40
0.875000000000065
40
0.937500000000033
40
0.937500000000033
40
1
40
1
40
1
40
1
41
1
10
58.877286514309
20
-0.114156844865732
30
0
41
1
10
58.8864419579399
20
-0.123723622843158
30
0
41
1
10
58.8971078087206
20
-0.134142367642824
30
0
41
1
10
58.9148152535731
20
-0.150695823481271
30
0
41
1
10
58.9210096936231
20
-0.156372569210504
30
0
41
1
10
58.9339501401274
20
-0.168026598986813
30
0
41
1
10
58.9406271160095
20
-0.173941303408782
30
0
41
1
10
58.9610604428281
20
-0.191789158039711
30
0
41
1
10
58.9752832040823
20
-0.203885678931812
30
0
41
1
10
58.9974321570208
20
-0.222345653352761
30
0
41
1
10
59.0049762136822
20
-0.228571716711713
30
0
41
1
10
59.0202331596485
20
-0.241054562228498
30
0
41
1
10
59.0278901385417
20
-0.247266027493424
30
0
41
1
10
59.050934658735
20
-0.265825339297237
30
0
41
1
10
59.0663950112447
20
-0.278098786874068
30
0
41
1
10
59.0896999091212
20
-0.296403391455982
30
0
41
1
10
59.0975314130211
20
-0.302521215817507
30
0
41
1
10
59.1129703685896
20
-0.31452478077415
30
0
41
1
10
59.1205755774193
20
-0.320409252293871
30
0
41
1
10
59.135531780864
20
-0.331932757122018
30
0
41
1
10
59.1428830633074
20
-0.337572044858547
30
0
41
1
10
59.1572888327646
20
-0.348576623459934
30
0
41
1
10
59.1643571179769
20
-0.353952037671263
30
0
41
1
10
59.1777209444021
20
-0.364066962794084
30
0
41
1
10
59.1840691545237
20
-0.368846955993348
30
0
41
1
10
59.1959918606193
20
-0.37776527191221
30
0
41
1
10
59.2015834425254
20
-0.38191616734008
30
0
41
1
10
59.2065599883954
20
-0.385565670299769
30
0
0
SPLINE
5
14C
100
AcDbEntity
8
1
62
256
6
ByLayer
370
18
48
1
60
0
100
AcDbSpline
70
4
71
3
72
12
73
8
40
0
40
0
40
0
40
0
40
0.25
40
0.25
40
0.500000000000001
40
0.500000000000001
40
1
40
1
40
1
40
1
41
1
10
59.2065599883952
20
-0.385565670298092
30
0
41
1
10
59.2425214918756
20
-0.411937699576583
30
0
41
1
10
59.2783263941263
20
-0.43977449665951
30
0
41
1
10
59.3496761667896
20
-0.498271731386353
30
0
41
1
10
59.3852345240963
20
-0.528942574930937
30
0
41
1
10
59.4914936348243
20
-0.624994534306239
30
0
41
1
10
59.5617540260978
20
-0.69440121960352
30
0
41
1
10
59.6314205291623
20
-0.768822066049239
30
0
0
SPLINE
5
14D
100
AcDbEntity
8
1
62
256
6
ByLayer
370
18
48
1
60
0
100
AcDbSpline
70
4
71
3
72
10
73
6
40
0
40
0
40
0
40
0
40
0.5
40
0.5
40
1
40
1
40
1
40
1
41
1
10
59.7542862805
20
-0.888943373548329
30
0
41
1
10
59.8260227668049
20
-0.949184656082821
30
0
41
1
10
59.8982619050257
20
-1.00325278154733
30
0
41
1
10
60.0441589506326
20
-1.09866906524451
30
0
41
1
10
60.1175810597504
20
-1.13983384561064
30
0
41
1
10
60.1916933403035
20
-1.17436628368137
30
0
0
SPLINE
5
14E
100
AcDbEntity
8
1
62
256
6
ByLayer
370
18
48
1
60
0
100
AcDbSpline
70
4
71
3
72
30
73
26
40
0
40
0
40
0
40
0
40
0.125000000000008
40
0.125000000000008
40
0.250000000000015
40
0.250000000000015
40
0.375000000000023
40
0.375000000000023
40
0.437500000000027
40
0.437500000000027
40
0.500000000000032
40
0.500000000000032
40
0.624999999999973
40
0.624999999999973
40
0.687499999999978
40
0.687499999999978
40
0.749999999999982
40
0.749999999999982
40
0.812499999999987
40
0.812499999999987
40
0.874999999999991
40
0.874999999999991
40
0.937499999999996
40
0.937499999999996
40
1
40
1
40
1
40
1
41
1
10
60.1916933403035
20
-1.17436628368117
30
0
41
1
10
60.2008826129861
20
-1.17864800308661
30
0
41
1
10
60.2115891290645
20
-1.18443352857341
30
0
41
1
10
60.2352787981542
20
-1.19820737958395
30
0
41
1
10
60.2484156674622
20
-1.20630626944015
30
0
41
1
10
60.2757144607079
20
-1.22387768620246
30
0
41
1
10
60.2899562013872
20
-1.23339214205606
30
0
41
1
10
60.3121158997886
20
-1.24872377505011
30
0
41
1
10
60.3196610067392
20
-1.254030634424
30
0
41
1
10
60.3349104677282
20
-1.26494165767721
30
0
41
1
10
60.34256167879
20
-1.27050715392536
30
0
41
1
10
60.365584004107
20
-1.2875416354936
30
0
41
1
10
60.3810230279722
20
-1.2993425578359
30
0
41
1
10
60.404291284521
20
-1.31783710526594
30
0
41
1
10
60.412109181108
20
-1.32417180492735
30
0
41
1
10
60.4275236632612
20
-1.3369387259589
30
0
41
1
10
60.4351181994553
20
-1.34336728612976
30
0
41
1
10
60.4500564539911
20
-1.35632990022719
30
0
41
1
10
60.4574003791932
20
-1.36286392753411
30
0
41
1
10
60.4717942432232
20
-1.37606071992283
30
0
41
1
10
60.4788597957189
20
-1.38274215508332
30
0
41
1
10
60.492222931241
20
-1.39585913903218
30
0
41
1
10
60.498572541997
20
-1.40234045507876
30
0
41
1
10
60.5105005448713
20
-1.41512604023589
30
0
41
1
10
60.5160975725662
20
-1.42145689110367
30
0
41
1
10
60.5210808391263
20
-1.42750603859872
30
0
0
SPLINE
5
14F
100
AcDbEntity
8
1
62
256
6
ByLayer
370
18
48
1
60
0
100
AcDbSpline
70
4
71
3
72
10
73
6
40
0
40
0
40
0
40
0
40
0.5
40
0.5
40
1
40
1
40
1
40
1
41
1
10
60.521080839126
20
-1.42750603859699
30
0
41
1
10
60.5928784337913
20
-1.51466056558976
30
0
41
1
10
60.6640430444507
20
-1.6064279152321
30
0
41
1
10
60.8055086730629
20
-1.79866594199072
30
0
41
1
10
60.875566166688
20
-1.89881047842337
30
0
41
1
10
60.9451391004723
20
-2.00275735039011
30
0
0
SPLINE
5
150
100
AcDbEntity
8
1
62
256
6
ByLayer
370
18
48
1
60
0
100
AcDbSpline
70
4
71
3
72
10
73
6
40
0
40
0
40
0
40
0
40
0.5
40
0.5
40
1
40
1
40
1
40
1
41
1
10
61.0692430553972
20
-2.1098188439698
30
0
41
1
10
61.1408532400428
20
-2.12411804179712
30
0
41
1
10
61.2129843478725
20
-2.13172745298371
30
0
41
1
10
61.3587270416091
20
-2.13337340163488
30
0
41
1
10
61.4320978439985
20
-2.12738858686586
30
0
41
1
10
61.5061810023834
20
-2.11464017834652
30
0
0
SPLINE
5
151
100
AcDbEntity
8
1
62
256
6
ByLayer
370
18
48
1
60
0
100
AcDbSpline
70
4
71
3
72
32
73
28
40
0
40
0
40
0
40
0
40
0.124999999999978
40
0.124999999999978
40
0.187499999999942
40
0.187499999999942
40
0.249999999999906
40
0.249999999999906
40
0.374999999999833
40
0.374999999999833
40
0.437499999999829
40
0.437499999999829
40
0.499999999999825
40
0.499999999999825
40
0.624999999999817
40
0.624999999999817
40
0.687499999999847
40
0.687499999999847
40
0.749999999999878
40
0.749999999999878
40
0.812499999999908
40
0.812499999999908
40
0.874999999999939
40
0.874999999999939
40
0.937499999999969
40
0.937499999999969
40
1
40
1
40
1
40
1
41
1
10
61.5061810023834
20
-2.11464017834649
30
0
41
1
10
61.5153534318626
20
-2.11306176456574
30
0
41
1
10
61.5260435012159
20
-2.11346062677396
30
0
41
1
10
61.5437925013818
20
-2.11624437777161
30
0
41
1
10
61.550001693619
20
-2.1175469264131
30
0
41
1
10
61.5629727716629
20
-2.12086055635177
30
0
41
1
10
61.5696657830005
20
-2.1228555187181
30
0
41
1
10
61.5901424470319
20
-2.12971860688975
30
0
41
1
10
61.604390163538
20
-2.13547087035332
30
0
41
1
10
61.6265675391806
20
-2.14578380129612
30
0
41
1
10
61.6341213389738
20
-2.14951907046162
30
0
41
1
10
61.6493844180904
20
-2.15752102727083
30
0
41
1
10
61.65704282789
20
-2.16175948710574
30
0
41
1
10
61.6800866755641
20
-2.17519077350596
30
0
41
1
10
61.6955399762162
20
-2.18508734519253
30
0
41
1
10
61.7188239019698
20
-2.20155401010189
30
0
41
1
10
61.7266460051908
20
-2.20735079567035
30
0
41
1
10
61.7420499140062
20
-2.21935492441585
30
0
41
1
10
61.7496371909836
20
-2.22556225136975
30
0
41
1
10
61.7645571101129
20
-2.23842792612612
30
0
41
1
10
61.771890037413
20
-2.24508577443157
30
0
41
1
10
61.7862591822765
20
-2.25892331091791
30
0
41
1
10
61.7933072173306
20
-2.26612298734906
30
0
41
1
10
61.8066344290561
20
-2.28069588401607
30
0
41
1
10
61.8129660929652
20
-2.28811593284067
30
0
41
1
10
61.8248600483255
20
-2.3032657177433
30
0
41
1
10
61.83044013399
20
-2.31103078122797
30
0
41
1
10
61.8354092656225
20
-2.31876704082356
30
0
0
SPLINE
5
152
100
AcDbEntity
8
1
62
256
6
ByLayer
370
18
48
1
60
0
100
AcDbSpline
70
4
71
3
72
12
73
8
40
0
40
0
40
0
40
0
40
0.249999999999994
40
0.249999999999994
40
0.499999999999988
40
0.499999999999988
40
1
40
1
40
1
40
1
41
1
10
61.8354092656224
20
-2.31876704082239
30
0
41
1
10
61.8714014907402
20
-2.37480202188658
30
0
41
1
10
61.9072304311445
20
-2.43163421084375
30
0
41
1
10
61.9786097424166
20
-2.54686003103501
30
0
41
1
10
62.0141739801493
20
-2.60529280584743
30
0
41
1
10
62.1203785205326
20
-2.78257557590518
30
0
41
1
10
62.1905866096707
20
-2.90337574672901
30
0
41
1
10
62.2602122743038
20
-3.02618700462313
30
0
0
SPLINE
5
153
100
AcDbEntity
8
1
62
256
6
ByLayer
370
18
48
1
60
0
100
AcDbSpline
70
4
71
3
72
10
73
6
40
0
40
0
40
0
40
0
40
0.5
40
0.5
40
1
40
1
40
1
40
1
41
1
10
62.3842805688105
20
-3.1082129849255
30
0
41
1
10
62.4557995198737
20
-3.07576864819734
30
0
41
1
10
62.5278654482456
20
-3.03680733731952
30
0
41
1
10
62.6734968919061
20
-2.94577666975346
30
0
41
1
10
62.7468054672043
20
-2.89385106191949
30
0
41
1
10
62.8208358247544
20
-2.8356085426536
30
0
0
SPLINE
5
154
100
AcDbEntity
8
1
62
256
6
ByLayer
370
18
48
1
60
0
100
AcDbSpline
70
4
71
3
72
32
73
28
40
0
40
0
40
0
40
0
40
0.125000000000072
40
0.125000000000072
40
0.187500000000082
40
0.187500000000082
40
0.250000000000092
40
0.250000000000092
40
0.375000000000111
40
0.375000000000111
40
0.437500000000121
40
0.437500000000121
40
0.50000000000013
40
0.50000000000013
40
0.625000000000149
40
0.625000000000149
40
0.687500000000124
40
0.687500000000124
40
0.750000000000099
40
0.750000000000099
40
0.812500000000075
40
0.812500000000075
40
0.87500000000005
40
0.87500000000005
40
0.937500000000025
40
0.937500000000025
40
1
40
1
40
1
40
1
41
1
10
62.8208358247544
20
-2.8356085426536
30
0
41
1
10
62.8300005249762
20
-2.82839832178081
30
0
41
1
10
62.840681199385
20
-2.82343757333044
30
0
41
1
10
62.8584154417137
20
-2.81848973993652
30
0
41
1
10
62.864619606336
20
-2.81726762729448
30
0
41
1
10
62.8775807321983
20
-2.81563080455373
30
0
41
1
10
62.8842700409071
20
-2.81522694710941
30
0
41
1
10
62.9047351617123
20
-2.81516017714048
30
0
41
1
10
62.9189764021556
20
-2.81661722386252
30
0
41
1
10
62.9411473119811
20
-2.82093515749509
30
0
41
1
10
62.948699203907
20
-2.82274138580871
30
0
41
1
10
62.9639615179777
20
-2.82706787284951
30
0
41
1
10
62.9716199815426
20
-2.82957107419716
30
0
41
1
10
62.9946653615317
20
-2.8380977476574
30
0
41
1
10
63.0101215203851
20
-2.84512123620402
30
0
41
1
10
63.0334125917506
20
-2.8579287493597
30
0
41
1
10
63.0412377910473
20
-2.86261046910755
30
0
41
1
10
63.0566486761372
20
-2.87266390283233
30
0
41
1
10
63.0642393119365
20
-2.87803274838723
30
0
41
1
10
63.0791655250752
20
-2.88951604611634
30
0
41
1
10
63.0865013884423
20
-2.89562968140362
30
0
41
1
10
63.1008757558496
20
-2.9087147412138
30
0
41
1
10
63.1079253304806
20
-2.91570822805446
30
0
41
1
10
63.1212537017748
20
-2.93026655433994
30
0
41
1
10
63.1275852228586
20
-2.93787423046837
30
0
41
1
10
63.1394775537895
20
-2.9538505817599
30
0
41
1
10
63.1450555913959
20
-2.96225982534276
30
0
41
1
10
63.1500221315248
20
-2.97089281586742
30
0
0
SPLINE
5
155
100
AcDbEntity
8
1
62
256
6
ByLayer
370
18
48
1
60
0
100
AcDbSpline
70
4
71
3
72
10
73
6
40
0
40
0
40
0
40
0
40
0.5
40
0.5
40
1
40
1
40
1
40
1
41
1
10
63.1500221315247
20
-2.97089281586665
30
0
41
1
10
63.2151389583974
20
-3.08408085719879
30
0
41
1
10
63.2797530311635
20
-3.19822418714955
30
0
41
1
10
63.408189415795
20
-3.42804045023027
30
0
41
1
10
63.4719233204925
20
-3.54356056799506
30
0
41
1
10
63.5351370384737
20
-3.65929535755905
30
0
0
SPLINE
5
156
100
AcDbEntity
8
1
62
256
6
ByLayer
370
18
48
1
60
0
100
AcDbSpline
70
4
71
3
72
8
73
4
40
0
40
0
40
0
40
0
40
1
40
1
40
1
40
1
41
1
10
63.5351370384737
20
-3.65929535755905
30
0
41
1
10
63.6161355442382
20
-3.67282864580102
30
0
41
1
10
63.6974514153786
20
-3.68362206624343
30
0
41
1
10
63.7791347698351
20
-3.69165509776624
30
0
0
SPLINE
5
157
100
AcDbEntity
8
1
62
256
6
ByLayer
370
18
48
1
60
0
100
AcDbSpline
70
4
71
3
72
12
73
8
40
0
40
0
40
0
40
0
40
0.25
40
0.25
40
0.500000000000001
40
0.500000000000001
40
1
40
1
40
1
40
1
41
1
10
63.7791347698348
20
-3.6916550977665
30
0
41
1
10
63.8083758034623
20
-3.6591713757451
30
0
41
1
10
63.8377098508856
20
-3.6258257812392
30
0
41
1
10
63.8966237962082
20
-3.55731316616709
30
0
41
1
10
63.9262181579783
20
-3.52212385583076
30
0
41
1
10
64.0152660981925
20
-3.41397655336724
30
0
41
1
10
64.0750251297838
20
-3.33840137148121
30
0
41
1
10
64.1352926626062
20
-3.25940453704121
30
0
0
SPLINE
5
158
100
AcDbEntity
8
1
62
256
6
ByLayer
370
18
48
1
60
0
100
AcDbSpline
70
4
71
3
72
32
73
28
40
0
40
0
40
0
40
0
40
0.12499999999989
40
0.12499999999989
40
0.187499999999861
40
0.187499999999861
40
0.249999999999832
40
0.249999999999832
40
0.374999999999835
40
0.374999999999835
40
0.437499999999804
40
0.437499999999804
40
0.499999999999773
40
0.499999999999773
40
0.624999999999779
40
0.624999999999779
40
0.687499999999816
40
0.687499999999816
40
0.749999999999853
40
0.749999999999853
40
0.81249999999989
40
0.81249999999989
40
0.874999999999926
40
0.874999999999926
40
0.937499999999963
40
0.937499999999963
40
1
40
1
40
1
40
1
41
1
10
64.1352926626062
20
-3.25940453704121
30
0
41
1
10
64.1444793348428
20
-3.24736292870358
30
0
41
1
10
64.15518468843
20
-3.23762936065452
30
0
41
1
10
64.1729545692893
20
-3.22558669296922
30
0
41
1
10
64.1791704586907
20
-3.22201063783498
30
0
41
1
10
64.1921542918825
20
-3.21568575336301
30
0
41
1
10
64.1988527736528
20
-3.21297350318053
30
0
41
1
10
64.219344282859
20
-3.20613156585378
30
0
41
1
10
64.2335995118503
20
-3.20324487736892
30
0
41
1
10
64.255785260223
20
-3.20127573855987
30
0
41
1
10
64.2633416120918
20
-3.2010181908224
30
0
41
1
10
64.2786073569896
20
-3.20132371150925
30
0
41
1
10
64.2862667826031
20
-3.20188282781027
30
0
41
1
10
64.3093127819249
20
-3.20476981859622
30
0
41
1
10
64.3247663879559
20
-3.20828731398473
30
0
41
1
10
64.3480483003395
20
-3.21624021865253
30
0
41
1
10
64.3558691415271
20
-3.21936376537352
30
0
41
1
10
64.3712685855434
20
-3.22650185339151
30
0
41
1
10
64.3788533511239
20
-3.23051198573054
30
0
41
1
10
64.3937673960679
20
-3.23948959615967
30
0
41
1
10
64.4010969610685
20
-3.24445603772668
30
0
41
1
10
64.4154581503497
20
-3.25548687944055
30
0
41
1
10
64.4225025157128
20
-3.26157514579643
30
0
41
1
10
64.4358220883019
20
-3.27465592460669
30
0
41
1
10
64.4421495268686
20
-3.28168235923383
30
0
41
1
10
64.4540344081627
20
-3.29686054713466
30
0
41
1
10
64.4596110795702
20
-3.30505699457075
30
0
41
1
10
64.4645785123599
20
-3.31370635924529
30
0
0
SPLINE
5
159
100
AcDbEntity
8
1
62
256
6
ByLayer
370
18
48
1
60
0
100
AcDbSpline
70
4
71
3
72
8
73
4
40
0
40
0
40
0
40
0
40
1
40
1
40
1
40
1
41
1
10
64.4645785123598
20
-3.31370635924509
30
0
41
1
10
64.5328223939415
20
-3.43253357716688
30
0
41
1
10
64.6004832579523
20
-3.55045921756877
30
0
41
1
10
64.6677474703772
20
-3.66744525771384
30
0
0
SPLINE
5
15A
100
AcDbEntity
8
1
62
256
6
ByLayer
370
18
48
1
60
0
100
AcDbSpline
70
4
71
3
72
8
73
4
40
0
40
0
40
0
40
0
40
1
40
1
40
1
40
1
41
1
10
64.6677474703772
20
-3.66744525771381
30
0
41
1
10
64.8940966986746
20
-3.6339519174972
30
0
41
1
10
65.1221977787998
20
-3.5802661185692
30
0
41
1
10
65.3530615054339
20
-3.50732090792906
30
0
0
SPLINE
5
15B
100
AcDbEntity
8
1
62
256
6
ByLayer
370
18
48
1
60
0
100
AcDbSpline
70
4
71
3
72
8
73
4
40
0
40
0
40
0
40
0
40
1
40
1
40
1
40
1
41
1
10
65.353061505434
20
-3.50732090792903
30
0
41
1
10
65.3851484440047
20
-3.45361949038986
30
0
41
1
10
65.4173440294996
20
-3.39928833402217
30
0
41
1
10
65.4496658623277
20
-3.3443269509967
30
0
0
SPLINE
5
15C
100
AcDbEntity
8
1
62
256
6
ByLayer
370
18
48
1
60
0
100
AcDbSpline
70
4
71
3
72
30
73
26
40
0
40
0
40
0
40
0
40
0.125000000000041
40
0.125000000000041
40
0.250000000000082
40
0.250000000000082
40
0.375000000000123
40
0.375000000000123
40
0.437500000000111
40
0.437500000000111
40
0.500000000000098
40
0.500000000000098
40
0.625000000000074
40
0.625000000000074
40
0.687500000000061
40
0.687500000000061
40
0.750000000000049
40
0.750000000000049
40
0.812500000000037
40
0.812500000000037
40
0.875000000000025
40
0.875000000000025
40
0.937500000000012
40
0.937500000000012
40
1
40
1
40
1
40
1
41
1
10
65.4496658623277
20
-3.3443269509967
30
0
41
1
10
65.4588753715197
20
-3.32866672019006
30
0
41
1
10
65.4696085221803
20
-3.31512706386982
30
0
41
1
10
65.4933555845129
20
-3.29118335852624
30
0
41
1
10
65.5065253464851
20
-3.2807438725676
30
0
41
1
10
65.5338819769383
20
-3.26343268001852
30
0
41
1
10
65.5481487894432
20
-3.2564481687846
30
0
41
1
10
65.5703403903625
20
-3.24830895331363
30
0
41
1
10
65.5778965694671
20
-3.24598386452257
30
0
41
1
10
65.5931585737723
20
-3.24217402740484
30
0
41
1
10
65.6008148957947
20
-3.24069846109759
30
0
41
1
10
65.6238479876865
20
-3.23754437183808
30
0
41
1
10
65.6392881106188
20
-3.23711755478996
30
0
41
1
10
65.6625432892642
20
-3.2392705318924
30
0
41
1
10
65.6703538554436
20
-3.24046985503622
30
0
41
1
10
65.6857381517379
20
-3.24386867046354
30
0
41
1
10
65.6933159124572
20
-3.24606157094402
30
0
41
1
10
65.7082174864054
20
-3.25151643934495
30
0
41
1
10
65.7155415850221
20
-3.25477725143915
30
0
41
1
10
65.729893747431
20
-3.26252364029267
30
0
41
1
10
65.7369376232089
20
-3.26703250731455
30
0
41
1
10
65.7502603050951
20
-3.27719893727004
30
0
41
1
10
65.7565905885337
20
-3.28287752631465
30
0
41
1
10
65.7684830831231
20
-3.29561446949617
30
0
41
1
10
65.7740660346253
20
-3.30271588220322
30
0
41
1
10
65.779040594159
20
-3.31045606194152
30
0
0
SPLINE
5
15D
100
AcDbEntity
8
1
62
256
6
ByLayer
370
18
48
1
60
0
100
AcDbSpline
70
4
71
3
72
8
73
4
40
0
40
0
40
0
40
0
40
1
40
1
40
1
40
1
41
1
10
65.7790405941589
20
-3.31045606194172
30
0
41
1
10
65.7861786027156
20
-3.32156246620281
30
0
41
1
10
65.7933102647271
20
-3.33263936572246
30
0
41
1
10
65.8004358018078
20
-3.34368686439714
30
0
0
SPLINE
5
15E
100
AcDbEntity
8
1
62
256
6
ByLayer
370
18
48
1
60
0
100
AcDbSpline
70
4
71
3
72
13
73
9
40
0
40
0
40
0
40
0
40
0.125
40
0.125
40
0.25
40
0.5
40
0.5
40
1
40
1
40
1
40
1
41
1
10
65.8004358018078
20
-3.34368686439711
30
0
41
1
10
65.8291871281126
20
-3.33181010269399
30
0
41
1
10
65.8580482994657
20
-3.31964232829202
30
0
41
1
10
65.9158142736303
20
-3.29480555046561
30
0
41
1
10
66.0025640053547
20
-3.25678343945214
30
0
41
1
10
66.0896413491364
20
-3.216501262702
30
0
41
1
10
66.2643354130867
20
-3.13301927964113
30
0
41
1
10
66.3813999838771
20
-3.07345208496534
30
0
41
1
10
66.4999998717392
20
-3.01030371130062
30
0
0
SPLINE
5
15F
100
AcDbEntity
8
1
62
256
6
ByLayer
370
18
48
1
60
0
100
AcDbSpline
70
4
71
3
72
12
73
8
40
0
40
0
40
0
40
0
40
0.500000000000001
40
0.500000000000001
40
0.75
40
0.75
40
1
40
1
40
1
40
1
41
1
10
66.4999998717392
20
-3.01030371130062
30
0
41
1
10
66.5785368682229
20
-2.91300049340163
30
0
41
1
10
66.6590561264659
20
-2.81433430681324
30
0
41
1
10
66.7842361821459
20
-2.66516286719133
30
0
41
1
10
66.8265132978109
20
-2.61546623505282
30
0
41
1
10
66.9124070193326
20
-2.51634351807613
30
0
41
1
10
66.9558709092335
20
-2.46709242410145
30
0
41
1
10
67
20
-2.4182713060745
30
0
0
SPLINE
5
160
100
AcDbEntity
8
1
62
256
6
ByLayer
370
18
48
1
60
0
100
AcDbSpline
70
4
71
3
72
30
73
26
40
0
40
0
40
0
40
0
40
0.151765328490071
40
0.151765328490071
40
0.227647992735107
40
0.227647992735107
40
0.265589324857625
40
0.265589324857625
40
0.303530656980142
40
0.303530656980142
40
0.379413321225178
40
0.379413321225178
40
0.417354653347695
40
0.417354653347695
40
0.455295985470212
40
0.455295985470212
40
0.607061313960281
40
0.607061313960281
40
0.758826642450349
40
0.758826642450349
40
0.834709306695384
40
0.834709306695384
40
0.910591970940418
40
0.910591970940418
40
1
40
1
40
1
40
1
41
1
10
67
20
-2.4182713060745
30
0
41
1
10
67
20
-2.35621983066224
30
0
41
1
10
67
20
-2.29770483232147
30
0
41
1
10
67
20
-2.21521486979122
30
0
41
1
10
67
20
-2.18860977364744
30
0
41
1
10
67
20
-2.15007497509657
30
0
41
1
10
67
20
-2.1374583222659
30
0
41
1
10
67
20
-2.11268765609719
30
0
41
1
10
67
20
-2.10055426077207
30
0
41
1
10
67
20
-2.06514699970461
30
0
41
1
10
67
20
-2.04276737410564
30
0
41
1
10
67
20
-2.01098854881206
30
0
41
1
10
67
20
-2.00071484147179
30
0
41
1
10
67
20
-1.98027711803721
30
0
41
1
10
67
20
-1.97016547504219
30
0
41
1
10
67
20
-1.92024390704717
30
0
41
1
10
67
20
-1.88220034771606
30
0
41
1
10
67
20
-1.80989569527387
30
0
41
1
10
67
20
-1.77563632429499
30
0
41
1
10
67
20
-1.72708957495277
30
0
41
1
10
67
20
-1.71138160090501
30
0
41
1
10
67.0000000000001
20
-1.68092111294661
30
0
41
1
10
67.0000000000001
20
-1.66615789927258
30
0
41
1
10
67.0000000000001
20
-1.63510425119725
30
0
41
1
10
67
20
-1.61905801972364
30
0
41
1
10
67
20
-1.60375330608127
30
0
0
SPLINE
5
161
100
AcDbEntity
8
1
62
256
6
ByLayer
370
18
48
1
60
0
100
AcDbSpline
70
4
71
3
72
12
73
8
40
0
40
0
40
0
40
0
40
0.499999999999983
40
0.499999999999983
40
0.749999999999992
40
0.749999999999992
40
1
40
1
40
1
40
1
41
1
10
67
20
-1.60929363106882
30
0
41
1
10
66.9187804206194
20
-1.60865993528802
30
0
41
1
10
66.8364559020798
20
-1.60812880232896
30
0
41
1
10
66.7114106308931
20
-1.60865544503412
30
0
41
1
10
66.6694751224915
20
-1.60904611098013
30
0
41
1
10
66.5851083847565
20
-1.61046998149371
30
0
41
1
10
66.5426913071883
20
-1.61146508051169
30
0
41
1
10
66.500000045938
20
-1.61302597249019
30
0
0
SPLINE
5
162
100
AcDbEntity
8
1
62
256
6
ByLayer
370
18
48
1
60
0
100
AcDbSpline
70
4
71
3
72
15
73
11
40
0
40
0
40
0
40
0
40
0.125
40
0.125
40
0.25
40
0.5
40
0.5
40
0.75
40
0.75
40
1
40
1
40
1
40
1
41
1
10
66.5000000459377
20
-1.61302597248948
30
0
41
1
10
66.4605142599723
20
-1.59338729342244
30
0
41
1
10
66.421096048974
20
-1.57344719205526
30
0
41
1
10
66.3425217139357
20
-1.53280759298914
30
0
41
1
10
66.2250565936187
20
-1.47070355596094
30
0
41
1
10
66.1086793204542
20
-1.40526993550643
30
0
41
1
10
65.9543402995699
20
-1.31519348852461
30
0
41
1
10
65.877589176717
20
-1.2687354225549
30
0
41
1
10
65.7247758606626
20
-1.17311891527612
30
0
41
1
10
65.6486996208286
20
-1.12398034907389
30
0
41
1
10
65.5729599819279
20
-1.07346820163568
30
0
0
SPLINE
5
163
100
AcDbEntity
8
1
62
256
6
ByLayer
370
18
48
1
60
0
100
AcDbSpline
70
4
71
3
72
8
73
4
40
0
40
0
40
0
40
0
40
1
40
1
40
1
40
1
41
1
10
65.5729599819279
20
-1.07346820163568
30
0
41
1
10
65.5452970471617
20
-1.02587025445627
30
0
41
1
10
65.5175580753186
20
-0.9788566322392
30
0
41
1
10
65.4897323269269
20
-0.93243596171169
30
0
0
SPLINE
5
164
100
AcDbEntity
8
1
62
256
6
ByLayer
370
18
48
1
60
0
100
AcDbSpline
70
4
71
3
72
30
73
26
40
0
40
0
40
0
40
0
40
0.124999999999966
40
0.124999999999966
40
0.249999999999931
40
0.249999999999931
40
0.374999999999897
40
0.374999999999897
40
0.43749999999988
40
0.43749999999988
40
0.499999999999863
40
0.499999999999863
40
0.624999999999897
40
0.624999999999897
40
0.687499999999914
40
0.687499999999914
40
0.749999999999931
40
0.749999999999931
40
0.812499999999948
40
0.812499999999948
40
0.874999999999966
40
0.874999999999966
40
0.937499999999983
40
0.937499999999983
40
1
40
1
40
1
40
1
41
1
10
65.4897323269269
20
-0.93243596171169
30
0
41
1
10
65.4808842255325
20
-0.91767500025108
30
0
41
1
10
65.4706126625377
20
-0.90291924667963
30
0
41
1
10
65.4478483231986
20
-0.873442272553007
30
0
41
1
10
65.4352386506517
20
-0.85861940854025
30
0
41
1
10
65.4087618752935
20
-0.829889681119084
30
0
41
1
10
65.3948336013117
20
-0.815889232049528
30
0
41
1
10
65.3729546008976
20
-0.79539441313085
30
0
41
1
10
65.3654932158109
20
-0.788648442831629
30
0
41
1
10
65.3504963637267
20
-0.775553457670298
30
0
41
1
10
65.3429295192079
20
-0.769174384093134
30
0
41
1
10
65.3200307780557
20
-0.75053921089085
30
0
41
1
10
65.3045037465508
20
-0.73877620794164
30
0
41
1
10
65.2808021914622
20
-0.722243962477137
30
0
41
1
10
65.2728255443809
20
-0.716919830091342
30
0
41
1
10
65.2571057273182
20
-0.706932815015421
30
0
41
1
10
65.2493175667871
20
-0.7022371882328
30
0
41
1
10
65.2339098679498
20
-0.693502533116884
30
0
41
1
10
65.2262709224924
20
-0.689453176193069
30
0
41
1
10
65.2112813659992
20
-0.682167025664313
30
0
41
1
10
65.2040593236877
20
-0.678991455410255
30
0
41
1
10
65.1902314156044
20
-0.67368418783613
30
0
41
1
10
65.1835989824025
20
-0.671544245488263
30
0
41
1
10
65.1711897460138
20
-0.668553393864755
30
0
41
1
10
65.1655195173294
20
-0.667724522349261
30
0
41
1
10
65.160453280339
20
-0.667655539011747
30
0
0
SPLINE
5
165
100
AcDbEntity
8
1
62
256
6
ByLayer
370
18
48
1
60
0
100
AcDbSpline
70
4
71
3
72
8
73
4
40
0
40
0
40
0
40
0
40
1
40
1
40
1
40
1
41
1
10
58.0307524451929
20
4.06421172379811
30
0
41
1
10
58.034816935035
20
4.06420542006424
30
0
41
1
10
58.038859846793
20
4.06173467371215
30
0
41
1
10
58.0428790265071
20
4.05681842774817
30
0
0
SPLINE
5
166
100
AcDbEntity
8
1
62
256
6
ByLayer
370
18
48
1
60
0
100
AcDbSpline
70
4
71
3
72
8
73
4
40
0
40
0
40
0
40
0
40
1
40
1
40
1
40
1
41
1
10
58.1660202729219
20
4.04748907709666
30
0
41
1
10
58.1599532823787
20
4.0586644733863
30
0
41
1
10
58.153934207598
20
4.06421771691723
30
0
41
1
10
58.147943945349
20
4.06420895749477
30
0
0
SPLINE
5
167
100
AcDbEntity
8
1
62
256
6
ByLayer
370
18
48
1
60
0
100
AcDbSpline
70
4
71
3
72
9
73
5
40
0
40
0
40
0
40
0
40
0.152458897760313
40
1
40
1
40
1
40
1
41
1
10
56.2733425389542
20
-4.06420970619172
30
0
41
1
10
56.2721269895801
20
-4.06420998867677
30
0
41
1
10
56.2641506160694
20
-4.06268894004197
30
0
41
1
10
56.2561360821528
20
-4.05121616514063
30
0
41
1
10
56.2492632538955
20
-4.03426367416395
30
0
0
SPLINE
5
168
100
AcDbEntity
8
1
62
256
6
ByLayer
370
18
48
1
60
0
100
AcDbSpline
70
4
71
3
72
12
73
8
40
0
40
0
40
0
40
0
40
0.339964576616525
40
0.339964576616525
40
0.679929153233049
40
0.679929153233049
40
1
40
1
40
1
40
1
41
1
10
56.1254866736552
20
-4.01741587175721
30
0
41
1
10
56.128952341668
20
-4.02809712341286
30
0
41
1
10
56.1323997713215
20
-4.03692470678533
30
0
41
1
10
56.1392541360646
20
-4.05091691501983
30
0
41
1
10
56.1426609507318
20
-4.05608786338738
30
0
41
1
10
56.1492371705307
20
-4.06263418498972
30
0
41
1
10
56.1524073465625
20
-4.06421704307525
30
0
41
1
10
56.1555671481115
20
-4.06421182569136
30
0
0
SPLINE
5
169
100
AcDbEntity
8
1
62
256
6
ByLayer
370
18
48
1
60
0
100
AcDbSpline
70
4
71
3
72
20
73
16
40
0
40
0
40
0
40
0
40
0.0608473535755401
40
0.0608473535755401
40
0.195012017350463
40
0.195012017350463
40
0.463341344900308
40
0.463341344900308
40
0.731670672450153
40
0.731670672450153
40
0.865835336225077
40
0.865835336225077
40
0.932917668112538
40
0.932917668112538
40
1
40
1
40
1
40
1
41
1
10
59.2808684744012
20
4.06420828754503
30
0
41
1
10
59.2824402481371
20
4.06420549729037
30
0
41
1
10
59.2840142259217
20
4.06382572275564
30
0
41
1
10
59.2890471062429
20
4.06139783689756
30
0
41
1
10
59.2924856915198
20
4.0579008903413
30
0
41
1
10
59.3027500957916
20
4.04204581603497
30
0
41
1
10
59.3095242888726
20
4.02433738989211
30
0
41
1
10
59.3230605286095
20
3.97490276987105
30
0
41
1
10
59.3298234330783
20
3.94317640542016
30
0
41
1
10
59.3400531625105
20
3.88493187180413
30
0
41
1
10
59.343478165464
20
3.86373776243408
30
0
41
1
10
59.3486357244776
20
3.82922692664374
30
0
41
1
10
59.3503600587121
20
3.81725663351986
30
0
41
1
10
59.3538070472939
20
3.7924580983059
30
0
41
1
10
59.3555262446674
20
3.77965574527374
30
0
41
1
10
59.3572413650852
20
3.76645507659273
30
0
0
SPLINE
5
16A
100
AcDbEntity
8
1
62
256
6
ByLayer
370
18
48
1
60
0
100
AcDbSpline
70
4
71
3
72
18
73
14
40
0
40
0
40
0
40
0
40
0.248238756947937
40
0.248238756947937
40
0.310298446184922
40
0.310298446184922
40
0.372358135421906
40
0.496477513895876
40
0.496477513895876
40
0.744716270843816
40
0.992955027791756
40
0.992955027791756
40
1
40
1
40
1
40
1
41
1
10
59.4810747565548
20
3.71796699048482
30
0
41
1
10
59.4742399826636
20
3.77427603502099
30
0
41
1
10
59.4673842692132
20
3.82420218520511
30
0
41
1
10
59.4587390921162
20
3.87835907990743
30
0
41
1
10
59.4570056991183
20
3.88877830712477
30
0
41
1
10
59.4535502378083
20
3.90866684782483
30
0
41
1
10
59.4483764561647
20
3.93712342985398
30
0
41
1
10
59.4432245741846
20
3.96149926664373
30
0
41
1
10
59.4329339418773
20
4.0048944528871
30
0
41
1
10
59.4192474493672
20
4.04849779653708
30
0
41
1
10
59.4054766630157
20
4.06379565025458
30
0
41
1
10
59.3983474156753
20
4.06420337780526
30
0
41
1
10
59.3981506354889
20
4.06420877356473
30
0
41
1
10
59.3979538180247
20
4.06420830564147
30
0
0
SPLINE
5
16B
100
AcDbEntity
8
1
62
256
6
ByLayer
370
18
48
1
60
0
100
AcDbSpline
70
4
71
3
72
22
73
18
40
0
40
0
40
0
40
0
40
0.0165412871461384
40
0.0165412871461384
40
0.0743917996669534
40
0.0743917996669534
40
0.305793849750214
40
0.305793849750214
40
0.537195899833474
40
0.537195899833474
40
0.652896924875104
40
0.652896924875104
40
0.710747437395919
40
0.710747437395919
40
0.768597949916735
40
0.768597949916735
40
1
40
1
40
1
40
1
41
1
10
55.0230254765171
20
-4.0642081207383
30
0
41
1
10
55.0225284476343
20
-4.06420823972701
30
0
41
1
10
55.0220317265097
20
-4.06417088084214
30
0
41
1
10
55.0198002011386
20
-4.06383398246803
30
0
41
1
10
55.0180715821352
20
-4.06311448527438
30
0
41
1
10
55.0094577977946
20
-4.0572556660901
30
0
41
1
10
55.0026585561874
20
-4.04535073831363
30
0
41
1
10
54.9890842484225
20
-4.00747152857744
30
0
41
1
10
54.9823295788857
20
-3.98149642560136
30
0
41
1
10
54.9721706404633
20
-3.93191614198025
30
0
41
1
10
54.9687785914996
20
-3.91361634695358
30
0
41
1
10
54.9636611351683
20
-3.88346712228139
30
0
41
1
10
54.961950339904
20
-3.87296723070838
30
0
41
1
10
54.9585143569245
20
-3.85105764323276
30
0
41
1
10
54.9567868736782
20
-3.83963206134547
30
0
41
1
10
54.9481295274218
20
-3.78039999173765
30
0
41
1
10
54.9411508285914
20
-3.72652968974506
30
0
41
1
10
54.9342303784341
20
-3.66639377507377
30
0
0
SPLINE
5
16C
100
AcDbEntity
8
1
62
256
6
ByLayer
370
18
48
1
60
0
100
AcDbSpline
70
4
71
3
72
8
73
4
40
0
40
0
40
0
40
0
40
1
40
1
40
1
40
1
41
1
10
54.4866153305848
20
-3.34826264720638
30
0
41
1
10
54.4875190754857
20
-3.34978772127536
30
0
41
1
10
54.4885601537897
20
-3.35156282431484
30
0
41
1
10
54.4896560613329
20
-3.35345942503906
30
0
0
SPLINE
5
16D
100
AcDbEntity
8
1
62
256
6
ByLayer
370
18
48
1
60
0
100
AcDbSpline
70
4
71
3
72
8
73
4
40
0
40
0
40
0
40
0
40
1
40
1
40
1
40
1
41
1
10
54.4896560613331
20
-3.35345942503906
30
0
41
1
10
54.6260893713486
20
-3.58957379088326
30
0
41
1
10
54.7625264904604
20
-3.82572284643371
30
0
41
1
10
54.8989637028918
20
-4.06190255180874
30
0
0
SPLINE
5
16E
100
AcDbEntity
8
1
62
256
6
ByLayer
370
18
48
1
60
0
100
AcDbSpline
70
4
71
3
72
16
73
12
40
0
40
0
40
0
40
0
40
0.289788910763184
40
0.289788910763184
40
0.644894455381588
40
0.644894455381588
40
0.822447227690791
40
0.822447227690791
40
0.911223613845396
40
0.911223613845396
40
1
40
1
40
1
40
1
41
1
10
54.4667727815811
20
-3.31710725020616
30
0
41
1
10
54.4678658812645
20
-3.31884278207423
30
0
41
1
10
54.4690526530958
20
-3.32068449088155
30
0
41
1
10
54.4720210868042
20
-3.32523154692231
30
0
41
1
10
54.4738455457929
20
-3.3279832950258
30
0
41
1
10
54.4773499420489
20
-3.33335730268143
30
0
41
1
10
54.4786408527497
20
-3.33534701715985
30
0
41
1
10
54.4810412094604
20
-3.33913513211067
30
0
41
1
10
54.481923904665
20
-3.34054005379366
30
0
41
1
10
54.4839991462619
20
-3.34390323422696
30
0
41
1
10
54.4851459429636
20
-3.34578304819976
30
0
41
1
10
54.4866153305847
20
-3.34826264720616
30
0
0
SPLINE
5
16F
100
AcDbEntity
8
1
62
256
6
ByLayer
370
18
48
1
60
0
100
AcDbSpline
70
4
71
3
72
25
73
21
40
0
40
0
40
0
40
0
40
0.114224950687721
40
0.114224950687721
40
0.2618541255731
40
0.2618541255731
40
0.298761419294446
40
0.298761419294446
40
0.335668713015791
40
0.409483300458481
40
0.409483300458481
40
0.55711247534386
40
0.55711247534386
40
0.70474165022924
40
0.70474165022924
40
0.77855623767193
40
0.77855623767193
40
0.85237082511462
40
0.85237082511462
40
1
40
1
40
1
40
1
41
1
10
62.5235439966377
20
-4.06421005598054
30
0
41
1
10
62.5181753785883
20
-4.06420043215826
30
0
41
1
10
62.5127848300158
20
-4.05989405941688
30
0
41
1
10
62.5003930200886
20
-4.04019205474464
30
0
41
1
10
62.4933827476695
20
-4.02192276507182
30
0
41
1
10
62.4846012217079
20
-3.98986631492068
30
0
41
1
10
62.4828421876654
20
-3.98298555876735
30
0
41
1
10
62.4793298419656
20
-3.96832089030883
30
0
41
1
10
62.4740815134452
20
-3.94502033283697
30
0
41
1
10
62.4688923214403
20
-3.91785858138061
30
0
41
1
10
62.4585846910993
20
-3.85847691123263
30
0
41
1
10
62.4518094316182
20
-3.81215799261574
30
0
41
1
10
62.4383639219278
20
-3.70620618046215
30
0
41
1
10
62.4316945634653
20
-3.64657355624294
30
0
41
1
10
62.4216448690928
20
-3.54693199568303
30
0
41
1
10
62.4182847564421
20
-3.51199536519596
30
0
41
1
10
62.4115247937395
20
-3.43872559820053
30
0
41
1
10
62.4081509111731
20
-3.4006768758455
30
0
41
1
10
62.39799342533
20
-3.28238363002862
30
0
41
1
10
62.3911616856455
20
-3.19800331864471
30
0
41
1
10
62.3842805688018
20
-3.10821298493721
30
0
0
SPLINE
5
170
100
AcDbEntity
8
1
62
256
6
ByLayer
370
18
48
1
60
0
100
AcDbSpline
70
4
71
3
72
29
73
25
40
0
40
0
40
0
40
0
40
0.141470194231474
40
0.282940388462948
40
0.282940388462948
40
0.318307937020816
40
0.318307937020816
40
0.353675485578684
40
0.353675485578684
40
0.424410582694419
40
0.424410582694419
40
0.56588077692589
40
0.56588077692589
40
0.70735097115736
40
0.70735097115736
40
0.778086068273096
40
0.778086068273096
40
0.813453616830963
40
0.813453616830963
40
0.84882116538883
40
0.84882116538883
40
0.990291359620301
40
0.990291359620301
40
1
40
1
40
1
40
1
41
1
10
62.2602122743038
20
-3.02618700462313
30
0
41
1
10
62.266998267487
20
-3.11950260348274
30
0
41
1
10
62.2804885328173
20
-3.29473848857165
30
0
41
1
10
62.2940631005424
20
-3.44731693208743
30
0
41
1
10
62.3026523435412
20
-3.53541064667306
30
0
41
1
10
62.3043754318709
20
-3.55266506773211
30
0
41
1
10
62.3078339412367
20
-3.58643672066339
30
0
41
1
10
62.309568765067
20
-3.60294649312283
30
0
41
1
10
62.3147635452902
20
-3.65108045316285
30
0
41
1
10
62.3182240437181
20
-3.68141030265127
30
0
41
1
10
62.3286126062705
20
-3.76722304772551
30
0
41
1
10
62.3355500389057
20
-3.81754261033765
30
0
41
1
10
62.3494789526787
20
-3.90460348215891
30
0
41
1
10
62.3564875909943
20
-3.94134489331066
30
0
41
1
10
62.3668422180622
20
-3.98609743733553
30
0
41
1
10
62.3702682701851
20
-3.99928488502064
30
0
41
1
10
62.3753730106487
20
-4.01641574385624
30
0
41
1
10
62.3770695087243
20
-4.02168350497067
30
0
41
1
10
62.3804359029265
20
-4.03127267853444
30
0
41
1
10
62.3821083175281
20
-4.03560302406302
30
0
41
1
10
62.3904331157366
20
-4.05495849142716
30
0
41
1
10
62.3969866009909
20
-4.06311309929058
30
0
41
1
10
62.4041574592105
20
-4.0641735704626
30
0
41
1
10
62.404618472348
20
-4.06420794161224
30
0
41
1
10
62.4050799846205
20
-4.06420856084242
30
0
0
SPLINE
5
171
100
AcDbEntity
8
1
62
256
6
ByLayer
370
18
48
1
60
0
100
AcDbSpline
70
4
71
3
72
27
73
23
40
0
40
0
40
0
40
0
40
0.126559520747811
40
0.126559520747811
40
0.19934622735216
40
0.19934622735216
40
0.235739580654334
40
0.235739580654334
40
0.272132933956508
40
0.272132933956508
40
0.417706347165207
40
0.563279760373905
40
0.563279760373905
40
0.636066466978255
40
0.636066466978255
40
0.67245982028043
40
0.67245982028043
40
0.708853173582605
40
0.708853173582605
40
0.854426586791303
40
0.854426586791303
40
1
40
1
40
1
40
1
41
1
10
60.5306778141751
20
4.06420907167947
30
0
41
1
10
60.5365602148956
20
4.06420555250369
30
0
41
1
10
60.5424545852296
20
4.05878580387301
30
0
41
1
10
60.5517985684106
20
4.04159081475748
30
0
41
1
10
60.5552226397993
20
4.03349073974073
30
0
41
1
10
60.5603836535792
20
4.01855086356414
30
0
41
1
10
60.5621089907013
20
4.01310130872213
30
0
41
1
10
60.5655487783752
20
4.00133430127718
30
0
41
1
10
60.567265692221
20
3.99501033990305
30
0
41
1
10
60.5758378117643
20
3.96121228808718
30
0
41
1
10
60.5894739527977
20
3.89323067428242
30
0
41
1
10
60.6030708163402
20
3.79808139645195
30
0
41
1
10
60.6133076899303
20
3.71644517182682
30
0
41
1
10
60.6167266573736
20
3.68751737973318
30
0
41
1
10
60.621873592342
20
3.64150997060136
30
0
41
1
10
60.6235923321899
20
3.62573798866674
30
0
41
1
10
60.6270376026762
20
3.59331182283549
30
0
41
1
10
60.6287657488492
20
3.57664066678808
30
0
41
1
10
60.6373811601581
20
3.49154546660927
30
0
41
1
10
60.6442266172788
20
3.41760571670619
30
0
41
1
10
60.6579394863254
20
3.25837290060963
30
0
41
1
10
60.6648074446578
20
3.17307886128435
30
0
41
1
10
60.6717487241186
20
3.0821095485841
30
0
0
SPLINE
5
172
100
AcDbEntity
8
1
62
256
6
ByLayer
370
18
48
1
60
0
100
AcDbSpline
70
4
71
3
72
27
73
23
40
0
40
0
40
0
40
0
40
0.13955045768501
40
0.27910091537002
40
0.27910091537002
40
0.348876144212525
40
0.383763758633777
40
0.383763758633777
40
0.418651373055029
40
0.418651373055029
40
0.558201830740039
40
0.558201830740039
40
0.697752288425048
40
0.697752288425048
40
0.837302746110057
40
0.837302746110057
40
0.872190360531309
40
0.872190360531309
40
0.907077974952561
40
0.976853203795066
40
0.976853203795066
40
1
40
1
40
1
40
1
41
1
10
60.7949828162866
20
2.99998740014155
30
0
41
1
10
60.7879143797049
20
3.09482679780905
30
0
41
1
10
60.7740505781631
20
3.27245058499835
30
0
41
1
10
60.7607269139078
20
3.42656628741312
30
0
41
1
10
60.750795992385
20
3.53327623796005
30
0
41
1
10
60.7458438481508
20
3.58440763715888
30
0
41
1
10
60.7408644966991
20
3.63215133453875
30
0
41
1
10
60.737532050691
20
3.6632188326976
30
0
41
1
10
60.7358571167976
20
3.6783921794115
30
0
41
1
10
60.7274624869246
20
3.75206553289121
30
0
41
1
10
60.7206523223228
20
3.80383468884023
30
0
41
1
10
60.7067972225741
20
3.89352244735716
30
0
41
1
10
60.69979266948
20
3.93144049362684
30
0
41
1
10
60.6858086351181
20
3.99345966700716
30
0
41
1
10
60.6788336154826
20
4.01756177364814
30
0
41
1
10
60.6701753697282
20
4.03879343177235
30
0
41
1
10
60.668443442894
20
4.04259753089798
30
0
41
1
10
60.6649888823607
20
4.0492846559552
30
0
41
1
10
60.6598298390238
20
4.05791968924311
30
0
41
1
10
60.6547226595723
20
4.06242028441551
30
0
41
1
10
60.6502021108934
20
4.06401136304459
30
0
41
1
10
60.6490771330525
20
4.06420937755138
30
0
41
1
10
60.6479528785507
20
4.06420942524522
30
0
0
SPLINE
5
173
100
AcDbEntity
8
1
62
256
6
ByLayer
370
18
48
1
60
0
100
AcDbSpline
70
4
71
3
72
98
73
94
40
0
40
0
40
0
40
0
40
0.0625000000000108
40
0.0625000000000108
40
0.125000000000022
40
0.125000000000022
40
0.156250000000026
40
0.156250000000026
40
0.171875000000028
40
0.171875000000028
40
0.18750000000003
40
0.18750000000003
40
0.250000000000036
40
0.250000000000036
40
0.26562500000004
40
0.26562500000004
40
0.281250000000043
40
0.281250000000043
40
0.31250000000005
40
0.31250000000005
40
0.328125000000053
40
0.328125000000053
40
0.343750000000057
40
0.343750000000057
40
0.375000000000064
40
0.375000000000064
40
0.406250000000071
40
0.406250000000071
40
0.421875000000074
40
0.421875000000074
40
0.429687500000075
40
0.429687500000075
40
0.437500000000075
40
0.437500000000075
40
0.468750000000077
40
0.468750000000077
40
0.484375000000079
40
0.484375000000079
40
0.500000000000081
40
0.500000000000081
40
0.515625000000083
40
0.515625000000083
40
0.531250000000085
40
0.531250000000085
40
0.535156250000085
40
0.535156250000085
40
0.539062500000085
40
0.539062500000085
40
0.546875000000084
40
0.546875000000084
40
0.562500000000083
40
0.562500000000083
40
0.566406250000082
40
0.566406250000082
40
0.570312500000082
40
0.570312500000082
40
0.578125000000081
40
0.578125000000081
40
0.593750000000079
40
0.593750000000079
40
0.601562500000078
40
0.601562500000078
40
0.609375000000076
40
0.609375000000076
40
0.625000000000074
40
0.625000000000074
40
0.632812500000072
40
0.632812500000072
40
0.640625000000071
40
0.640625000000071
40
0.656250000000067
40
0.656250000000067
40
0.671875000000064
40
0.671875000000064
40
0.679687500000063
40
0.679687500000063
40
0.687500000000061
40
0.687500000000061
40
0.718750000000054
40
0.718750000000054
40
0.750000000000048
40
0.750000000000048
40
0.781250000000041
40
0.781250000000041
40
0.796875000000038
40
0.796875000000038
40
0.812500000000035
40
0.812500000000035
40
0.875000000000023
40
0.875000000000023
40
0.937500000000012
40
0.937500000000012
40
1
40
1
40
1
40
1
41
1
10
34.5951082677439
20
2.5479842107116
30
0
41
1
10
34.4580766317413
20
2.59172359703143
30
0
41
1
10
34.3186285141474
20
2.62870693053043
30
0
41
1
10
34.033148802523
20
2.69090511021742
30
0
41
1
10
33.8870598542024
20
2.71607923205005
30
0
41
1
10
33.6613155536618
20
2.74651815527523
30
0
41
1
10
33.584969856804
20
2.75545138114441
30
0
41
1
10
33.4686569400925
20
2.76727400383248
30
0
41
1
10
33.4295865527404
20
2.77095171791575
30
0
41
1
10
33.3507915270589
20
2.77780881506661
30
0
41
1
10
33.3111793848436
20
2.78097876301337
30
0
41
1
10
33.1126624624687
20
2.79559143200072
30
0
41
1
10
32.9517645643663
20
2.80343242444636
30
0
41
1
10
32.7473650089447
20
2.80978878363553
30
0
41
1
10
32.7063198304026
20
2.81088409275384
30
0
41
1
10
32.6238747992474
20
2.81273840356269
30
0
41
1
10
32.5824849100214
20
2.81350623653447
30
0
41
1
10
32.4578921991007
20
2.81543488621773
30
0
41
1
10
32.3742443280224
20
2.816205867826
30
0
41
1
10
32.2480992336382
20
2.81682481043802
30
0
41
1
10
32.2059120222124
20
2.81694553351184
30
0
41
1
10
32.1218091689633
20
2.81697233951482
30
0
41
1
10
32.0798369458001
20
2.81688248114358
30
0
41
1
10
31.9541720378587
20
2.81628060908696
30
0
41
1
10
31.8707309391115
20
2.81544087254943
30
0
41
1
10
31.7046054934814
20
2.81266184533104
30
0
41
1
10
31.6219202967949
20
2.81072692902612
30
0
41
1
10
31.4985736169797
20
2.80663918265486
30
0
41
1
10
31.4575720620184
20
2.80507677177479
30
0
41
1
10
31.3962613674078
20
2.8023585620227
30
0
41
1
10
31.3758564627492
20
2.80138981267149
30
0
41
1
10
31.3351148590587
20
2.79931090751231
30
0
41
1
10
31.3147593037072
20
2.7981994918303
30
0
41
1
10
31.2136774104765
20
2.79227305643883
30
0
41
1
10
31.1346723193067
20
2.7863736200386
30
0
41
1
10
31.0197618509319
20
2.77466782028139
30
0
41
1
10
30.9820567253049
20
2.77028637176676
30
0
41
1
10
30.9080694920287
20
2.76024790915116
30
0
41
1
10
30.8722326668739
20
2.75464313802908
30
0
41
1
10
30.8034102949436
20
2.74199063379561
30
0
41
1
10
30.7703835818855
20
2.73493975394629
30
0
41
1
10
30.7075331452634
20
2.71896619963894
30
0
41
1
10
30.677701548842
20
2.71004835742977
30
0
41
1
10
30.6428056740315
20
2.69735348255389
30
0
41
1
10
30.6359471422197
20
2.69473638922003
30
0
41
1
10
30.622482399701
20
2.68933434611387
30
0
41
1
10
30.6158611085272
20
2.68654238256764
30
0
41
1
10
30.5965494261697
20
2.67796568832341
30
0
41
1
10
30.5843883525778
20
2.67197436931633
30
0
41
1
10
30.5500932536597
20
2.65311047638872
30
0
41
1
10
30.5301383305025
20
2.63935235082082
30
0
41
1
10
30.5091288433949
20
2.62038776313722
30
0
41
1
10
30.5051221872351
20
2.61650662361438
30
0
41
1
10
30.4975072064091
20
2.60855983481406
30
0
41
1
10
30.4938906724441
20
2.60448361249601
30
0
41
1
10
30.4837244474851
20
2.59205832142632
30
0
41
1
10
30.4778542566334
20
2.58351729092027
30
0
41
1
10
30.462842694333
20
2.55710516713512
30
0
41
1
10
30.4562963773709
20
2.53844531527963
30
0
41
1
10
30.4512559958214
20
2.50880786121496
30
0
41
1
10
30.4503651053974
20
2.49863148048854
30
0
41
1
10
30.4499289025357
20
2.47783653427319
30
0
41
1
10
30.4504312742367
20
2.46727874660891
30
0
41
1
10
30.4541541986052
20
2.4351445922797
30
0
41
1
10
30.4596039590317
20
2.41310876754039
30
0
41
1
10
30.4721257897056
20
2.37918984357737
30
0
41
1
10
30.4770228158623
20
2.36773412660753
30
0
41
1
10
30.4881974161842
20
2.34455873310358
30
0
41
1
10
30.4944205249186
20
2.33295719216292
30
0
41
1
10
30.514756792769
20
2.29809154933511
30
0
41
1
10
30.5305027897709
20
2.27475977243216
30
0
41
1
10
30.5652762818726
20
2.22779671050606
30
0
41
1
10
30.5843114586317
20
2.2041663789837
30
0
41
1
10
30.6148049348464
20
2.16843798515248
30
0
41
1
10
30.6252951677342
20
2.15648162362092
30
0
41
1
10
30.6468606748437
20
2.13246754999915
30
0
41
1
10
30.6579448119233
20
2.12040117616851
30
0
41
1
10
30.7143390795815
20
2.06016653486819
30
0
41
1
10
30.7627622728316
20
2.01198101488521
30
0
41
1
10
30.8638629322202
20
1.91497818855439
30
0
41
1
10
30.9165651835375
20
1.86616606244542
30
0
41
1
10
31.0250088668242
20
1.76756787500432
30
0
41
1
10
31.080762407885
20
1.71778532366997
30
0
41
1
10
31.1661300356392
20
1.64221785535497
30
0
41
1
10
31.1949128662825
20
1.61685019628484
30
0
41
1
10
31.252748491369
20
1.56601497245836
30
0
41
1
10
31.2818168548993
20
1.54053349652841
30
0
41
1
10
31.427791389675
20
1.41274493149973
30
0
41
1
10
31.5465312130354
20
1.30926361212599
30
0
41
1
10
31.7861287736133
20
1.09882105695516
30
0
41
1
10
31.907008797026
20
0.99186804310321
30
0
41
1
10
32.1502945691741
20
0.774106632486564
30
0
41
1
10
32.2727045435616
20
0.663295845441667
30
0
41
1
10
32.3959670704351
20
0.550618534672964
30
0
0
SPLINE
5
174
100
AcDbEntity
8
1
62
256
6
ByLayer
370
18
48
1
60
0
100
AcDbSpline
70
4
71
3
72
32
73
28
40
0
40
0
40
0
40
0
40
0.125
40
0.125
40
0.15625
40
0.15625
40
0.1875
40
0.1875
40
0.25
40
0.25
40
0.375000000000001
40
0.375000000000001
40
0.500000000000002
40
0.500000000000002
40
0.562500000000002
40
0.562500000000002
40
0.593750000000002
40
0.593750000000002
40
0.625000000000002
40
0.625000000000002
40
0.750000000000001
40
0.875000000000001
40
0.875000000000001
40
0.9375
40
0.96875
40
0.96875
40
1
40
1
40
1
40
1
41
1
10
61.2331814203136
20
-3.98447088256015
30
0
41
1
10
61.2264442451714
20
-3.9570073115591
30
0
41
1
10
61.2198288654496
20
-3.92249884042627
30
0
41
1
10
61.2114098984103
20
-3.87034241386465
30
0
41
1
10
61.2097202048565
20
-3.85945893243516
30
0
41
1
10
61.2063272463709
20
-3.8367774132808
30
0
41
1
10
61.2046222731983
20
-3.82496613952975
30
0
41
1
10
61.1995136058215
20
-3.7883555122248
30
0
41
1
10
61.1961078663125
20
-3.76232885029407
30
0
41
1
10
61.1858790967469
20
-3.67948769652793
30
0
41
1
10
61.1790436336445
20
-3.61792447233751
30
0
41
1
10
61.165311972138
20
-3.48232966563063
30
0
41
1
10
61.158416849783
20
-3.40829805769033
30
0
41
1
10
61.1480210226087
20
-3.28775122925737
30
0
41
1
10
61.1445469146914
20
-3.24598261280761
30
0
41
1
10
61.1393205899138
20
-3.18090202649194
30
0
41
1
10
61.1375736493096
20
-3.1587734657021
30
0
41
1
10
61.1340925077531
20
-3.11393435615517
30
0
41
1
10
61.1323568788093
20
-3.09120704313446
30
0
41
1
10
61.1237018096622
20
-2.97604899914194
30
0
41
1
10
61.110003758081
20
-2.78208387751246
30
0
41
1
10
61.096481552618
20
-2.5691687480568
30
0
41
1
10
61.0863181063859
20
-2.4023278253795
30
0
41
1
10
61.0812302076275
20
-2.31711526736134
30
0
41
1
10
61.0761086035937
20
-2.22917312314701
30
0
41
1
10
61.0726833272839
20
-2.16993146524624
30
0
41
1
10
61.0709626479533
20
-2.13995941027301
30
0
41
1
10
61.0692430553902
20
-2.10981884397467
30
0
0
SPLINE
5
175
100
AcDbEntity
8
1
62
256
6
ByLayer
370
18
48
1
60
0
100
AcDbSpline
70
4
71
3
72
33
73
29
40
0
40
0
40
0
40
0
40
0.0625000000000004
40
0.0625000000000004
40
0.0937500000000006
40
0.0937500000000006
40
0.125000000000001
40
0.125000000000001
40
0.25
40
0.25
40
0.374999999999998
40
0.374999999999998
40
0.499999999999997
40
0.499999999999997
40
0.531249999999997
40
0.531249999999997
40
0.562499999999998
40
0.624999999999998
40
0.624999999999998
40
0.749999999999999
40
0.749999999999999
40
0.874999999999999
40
0.874999999999999
40
0.906249999999999
40
0.906249999999999
40
0.937499999999999
40
0.937499999999999
40
1
40
1
40
1
40
1
41
1
10
60.9451391004723
20
-2.00275735039011
30
0
41
1
10
60.9485358569654
20
-2.06350366123354
30
0
41
1
10
60.9519444404135
20
-2.12348352280057
30
0
41
1
10
60.9570853036292
20
-2.21228486101498
30
0
41
1
10
60.9588035944726
20
-2.24169046442884
30
0
41
1
10
60.9622512523818
20
-2.30010760315042
30
0
41
1
10
60.9639829692902
20
-2.32915763147835
30
0
41
1
10
60.9726287703324
20
-2.47267099491666
30
0
41
1
10
60.9795265710337
20
-2.58229306404186
30
0
41
1
10
60.9933603524965
20
-2.791494172494
30
0
41
1
10
61.0002970107148
20
-2.89107230504399
30
0
41
1
10
61.0142262838737
20
-3.08019263062727
30
0
41
1
10
61.0212183699203
20
-3.16973570256235
30
0
41
1
10
61.0299556838437
20
-3.27519595365698
30
0
41
1
10
61.0317056961751
20
-3.29599345131484
30
0
41
1
10
61.0351900167327
20
-3.33674798672681
30
0
41
1
10
61.0403936060115
20
-3.39662924174596
30
0
41
1
10
61.0455317553542
20
-3.45280453743567
30
0
41
1
10
61.0557384525804
20
-3.560295656226
30
0
41
1
10
61.062448523439
20
-3.62548968583263
30
0
41
1
10
61.0758292268861
20
-3.74306206194038
30
0
41
1
10
61.0825011075243
20
-3.79544079379954
30
0
41
1
10
61.09093450619
20
-3.85272209670992
30
0
41
1
10
61.0926259041117
20
-3.86376771688353
30
0
41
1
10
61.0960211436195
20
-3.88502883715924
30
0
41
1
10
61.0977273864707
20
-3.89525780231847
30
0
41
1
10
61.1028503046746
20
-3.92457670355995
30
0
41
1
10
61.1062662081634
20
-3.94227661490467
30
0
41
1
10
61.1096925438765
20
-3.95816938767226
30
0
0
SPLINE
5
176
100
AcDbEntity
8
1
62
256
6
ByLayer
370
18
48
1
60
0
100
AcDbSpline
70
4
71
3
72
31
73
27
40
0
40
0
40
0
40
0
40
0.0624999999999993
40
0.0624999999999993
40
0.124999999999999
40
0.124999999999999
40
0.249999999999997
40
0.249999999999997
40
0.374999999999996
40
0.374999999999996
40
0.499999999999995
40
0.499999999999995
40
0.531249999999995
40
0.531249999999995
40
0.562499999999995
40
0.624999999999995
40
0.624999999999995
40
0.749999999999997
40
0.749999999999997
40
0.874999999999998
40
0.874999999999998
40
0.906249999999998
40
0.906249999999998
40
0.937499999999999
40
0.937499999999999
40
1
40
1
40
1
40
1
41
1
10
61.821692289419
20
3.97714140687856
30
0
41
1
10
61.8250319107167
20
3.96273744915732
30
0
41
1
10
61.8283735685004
20
3.94653342473481
30
0
41
1
10
61.835099836386
20
3.910460215574
30
0
41
1
10
61.8384927971432
20
3.890531768888
30
0
41
1
10
61.8486911667496
20
3.82585263308584
30
0
41
1
10
61.8555798191252
20
3.77611140135107
30
0
41
1
10
61.8696107966286
20
3.66376504069538
30
0
41
1
10
61.8766946150198
20
3.60115808130993
30
0
41
1
10
61.8907671003859
20
3.46302883220889
30
0
41
1
10
61.8977559562813
20
3.38750776334175
30
0
41
1
10
61.90640969141
20
3.28474168778976
30
0
41
1
10
61.9081324194326
20
3.26382032691413
30
0
41
1
10
61.9115539454001
20
3.22136341675005
30
0
41
1
10
61.9166549964799
20
3.15670330425999
30
0
41
1
10
61.9216720667111
20
3.08915153798904
30
0
41
1
10
61.931635281338
20
2.95024947144978
30
0
41
1
10
61.9381772671105
20
2.85259292454961
30
0
41
1
10
61.9514107771557
20
2.64723357512685
30
0
41
1
10
61.9581489547282
20
2.53953314240187
30
0
41
1
10
61.9667960721838
20
2.39846562035223
30
0
41
1
10
61.9685350555021
20
2.36992912389104
30
0
41
1
10
61.9720310071009
20
2.31220243183606
30
0
41
1
10
61.9737853057153
20
2.28305577246695
30
0
41
1
10
61.9790436502122
20
2.19512906346753
30
0
41
1
10
61.982551522461
20
2.13572329562115
30
0
41
1
10
61.9860573976143
20
2.07554425170409
30
0
0
SPLINE
5
177
100
AcDbEntity
8
1
62
256
6
ByLayer
370
18
48
1
60
0
100
AcDbSpline
70
4
71
3
72
26
73
22
40
0
40
0
40
0
40
0
40
0.125
40
0.125
40
0.1875
40
0.1875
40
0.25
40
0.25
40
0.375
40
0.5
40
0.5
40
0.5625
40
0.59375
40
0.59375
40
0.625
40
0.625
40
0.75
40
0.75
40
0.875
40
0.875
40
1
40
1
40
1
40
1
41
1
10
62.1108198371229
20
1.96682516030796
30
0
41
1
10
62.1040996198954
20
2.08889316559345
30
0
41
1
10
62.0971947509503
20
2.20756718716353
30
0
41
1
10
62.0866580613717
20
2.38039052394404
30
0
41
1
10
62.0831172178292
20
2.43713202326512
30
0
41
1
10
62.0759932070752
20
2.54884422509059
30
0
41
1
10
62.0724393870076
20
2.60335478841057
30
0
41
1
10
62.0618278165869
20
2.76278012079618
30
0
41
1
10
62.0478081722855
20
2.96456210478883
30
0
41
1
10
62.034075709764
20
3.14520930001967
30
0
41
1
10
62.0238367671564
20
3.27267537866317
30
0
41
1
10
62.0187315164874
20
3.33439963713005
30
0
41
1
10
62.0136307757182
20
3.39305565822255
30
0
41
1
10
62.0102288572238
20
3.43146893317015
30
0
41
1
10
62.0085320347384
20
3.45027522953157
30
0
41
1
10
62.0000817921372
20
3.54210578489187
30
0
41
1
10
61.9934109340481
20
3.60877265782577
30
0
41
1
10
61.9800559106866
20
3.72889672589906
30
0
41
1
10
61.9733713679829
20
3.78235296758632
30
0
41
1
10
61.9597748127984
20
3.87601234124384
30
0
41
1
10
61.9528318782911
20
3.91621654941446
30
0
41
1
10
61.9457804965209
20
3.94955963528153
30
0
0
SPLINE
5
178
100
AcDbEntity
8
1
62
256
6
ByLayer
370
18
48
1
60
0
100
AcDbSpline
70
4
71
3
72
98
73
94
40
0
40
0
40
0
40
0
40
0.0624999999999795
40
0.0624999999999795
40
0.124999999999959
40
0.124999999999959
40
0.15624999999995
40
0.15624999999995
40
0.171874999999946
40
0.171874999999946
40
0.187499999999941
40
0.187499999999941
40
0.249999999999926
40
0.249999999999926
40
0.265624999999924
40
0.265624999999924
40
0.281249999999922
40
0.281249999999922
40
0.312499999999918
40
0.312499999999918
40
0.328124999999918
40
0.328124999999918
40
0.343749999999917
40
0.343749999999917
40
0.374999999999916
40
0.374999999999916
40
0.406249999999915
40
0.406249999999915
40
0.421874999999914
40
0.421874999999914
40
0.429687499999912
40
0.429687499999912
40
0.437499999999911
40
0.437499999999911
40
0.468749999999912
40
0.468749999999912
40
0.484374999999911
40
0.484374999999911
40
0.499999999999911
40
0.499999999999911
40
0.51562499999991
40
0.51562499999991
40
0.531249999999909
40
0.531249999999909
40
0.53515624999991
40
0.53515624999991
40
0.539062499999912
40
0.539062499999912
40
0.546874999999914
40
0.546874999999914
40
0.562499999999917
40
0.562499999999917
40
0.566406249999917
40
0.566406249999917
40
0.570312499999917
40
0.570312499999917
40
0.578124999999919
40
0.578124999999919
40
0.593749999999921
40
0.593749999999921
40
0.601562499999923
40
0.601562499999923
40
0.609374999999924
40
0.609374999999924
40
0.624999999999926
40
0.624999999999926
40
0.632812499999928
40
0.632812499999928
40
0.640624999999929
40
0.640624999999929
40
0.656249999999932
40
0.656249999999932
40
0.671874999999935
40
0.671874999999935
40
0.679687499999936
40
0.679687499999936
40
0.687499999999938
40
0.687499999999938
40
0.718749999999943
40
0.718749999999943
40
0.749999999999949
40
0.749999999999949
40
0.781249999999955
40
0.781249999999955
40
0.796874999999958
40
0.796874999999958
40
0.812499999999961
40
0.812499999999961
40
0.874999999999974
40
0.874999999999974
40
0.937499999999987
40
0.937499999999987
40
1
40
1
40
1
40
1
41
1
10
34.5951082677439
20
-2.37975308607147
30
0
41
1
10
34.4580766317414
20
-2.32603189588988
30
0
41
1
10
34.3186285141474
20
-2.27086911873906
30
0
41
1
10
34.0331488025231
20
-2.16201214029454
30
0
41
1
10
33.8870598542024
20
-2.10838097312825
30
0
41
1
10
33.6613155536618
20
-2.03306321836624
30
0
41
1
10
33.584969856804
20
-2.00881099525429
30
0
41
1
10
33.4686569400925
20
-1.97415830981131
30
0
41
1
10
33.4295865527404
20
-1.9628953785429
30
0
41
1
10
33.3507915270588
20
-1.94106109640578
30
0
41
1
10
33.3111793848437
20
-1.93051953135887
30
0
41
1
10
33.1126624624687
20
-1.88009435476795
30
0
41
1
10
32.9517645643663
20
-1.84682414355731
30
0
41
1
10
32.7473650089447
20
-1.81809190705999
30
0
41
1
10
32.7063198304027
20
-1.81299226699917
30
0
41
1
10
32.6238747992474
20
-1.80420864721671
30
0
41
1
10
32.5824849100214
20
-1.80048448806915
30
0
41
1
10
32.4578921991007
20
-1.79101810371122
30
0
41
1
10
32.3742443280223
20
-1.78707373197452
30
0
41
1
10
32.2480992336381
20
-1.78391188763189
30
0
41
1
10
32.2059120222124
20
-1.78329059152611
30
0
41
1
10
32.1218091689633
20
-1.78315286783851
30
0
41
1
10
32.0798369458
20
-1.78361601886181
30
0
41
1
10
31.9541720378586
20
-1.78669392418166
30
0
41
1
10
31.8707309391115
20
-1.79099877530541
30
0
41
1
10
31.7046054934814
20
-1.80461822242648
30
0
41
1
10
31.6219202967949
20
-1.81392923278275
30
0
41
1
10
31.4985736169796
20
-1.83227759752691
30
0
41
1
10
31.4575720620184
20
-1.83912622887314
30
0
41
1
10
31.3962613674078
20
-1.8506053555445
30
0
41
1
10
31.3758564627491
20
-1.85463300817628
30
0
41
1
10
31.3351148590587
20
-1.86311234983086
30
0
41
1
10
31.3147593037072
20
-1.86756885533222
30
0
41
1
10
31.2136774104765
20
-1.8908496171035
30
0
41
1
10
31.1346723193067
20
-1.91269552096182
30
0
41
1
10
31.0197618509319
20
-1.95126613675691
30
0
41
1
10
30.9820567253049
20
-1.96508509531284
30
0
41
1
10
30.9080694920287
20
-1.99491754963836
30
0
41
1
10
30.8722326668739
20
-2.01077178514095
30
0
41
1
10
30.8034102949435
20
-2.04435912113848
30
0
41
1
10
30.7703835818855
20
-2.06210624222666
30
0
41
1
10
30.7075331452635
20
-2.09965765837657
30
0
41
1
10
30.677701548842
20
-2.11945707305421
30
0
41
1
10
30.6428056740315
20
-2.14563049254289
30
0
41
1
10
30.6359471422197
20
-2.15093686687314
30
0
41
1
10
30.622482399701
20
-2.1616961490987
30
0
41
1
10
30.6158611085273
20
-2.16716233711065
30
0
41
1
10
30.5965494261698
20
-2.18365214619999
30
0
41
1
10
30.5843883525778
20
-2.19478090499174
30
0
41
1
10
30.5500932536597
20
-2.22853988731245
30
0
41
1
10
30.5301383305025
20
-2.2515418853022
30
0
41
1
10
30.509128843395
20
-2.2808235088828
30
0
41
1
10
30.5051221872351
20
-2.28670564108688
30
0
41
1
10
30.497507206409
20
-2.29851873951287
30
0
41
1
10
30.4938906724441
20
-2.30446465201206
30
0
41
1
10
30.483724447485
20
-2.32223939127482
30
0
41
1
10
30.4778542566334
20
-2.33400141909863
30
0
41
1
10
30.462842694333
20
-2.36898811463595
30
0
41
1
10
30.4562963773708
20
-2.39191298621046
30
0
41
1
10
30.4512559958214
20
-2.42556642834029
30
0
41
1
10
30.4503651053975
20
-2.4366853392452
30
0
41
1
10
30.4499289025358
20
-2.45853320766648
30
0
41
1
10
30.4504312742368
20
-2.46920056922332
30
0
41
1
10
30.4541541986053
20
-2.50044689128299
30
0
41
1
10
30.4596039590317
20
-2.52026977543679
30
0
41
1
10
30.4721257897056
20
-2.54856149955484
30
0
41
1
10
30.4770228158624
20
-2.5577555152303
30
0
41
1
10
30.4881974161843
20
-2.57565971746678
30
0
41
1
10
30.4944205249186
20
-2.58427936593617
30
0
41
1
10
30.5147567927691
20
-2.60923764444067
30
0
41
1
10
30.530502789771
20
-2.62468474666747
30
0
41
1
10
30.5652762818726
20
-2.653595119919
30
0
41
1
10
30.5843114586317
20
-2.66705569138733
30
0
41
1
10
30.6148049348465
20
-2.68594900376831
30
0
41
1
10
30.6252951677343
20
-2.69202967552471
30
0
41
1
10
30.6468606748438
20
-2.70378098120759
30
0
41
1
10
30.6579448119233
20
-2.70945483122245
30
0
41
1
10
30.7143390795815
20
-2.73669016340239
30
0
41
1
10
30.7627622728316
20
-2.75504240436268
30
0
41
1
10
30.8638629322202
20
-2.78638962310163
30
0
41
1
10
30.9165651835376
20
-2.79936648766915
30
0
41
1
10
31.0250088668243
20
-2.82072059746613
30
0
41
1
10
31.080762407885
20
-2.82909044058121
30
0
41
1
10
31.1661300356392
20
-2.83851788768646
30
0
41
1
10
31.1949128662825
20
-2.84113896396485
30
0
41
1
10
31.2527484913691
20
-2.84535491276859
30
0
41
1
10
31.2818168548993
20
-2.84695287222669
30
0
41
1
10
31.427791389675
20
-2.8525118799819
30
0
41
1
10
31.5465312130354
20
-2.84925119641201
30
0
41
1
10
31.7861287736133
20
-2.82897778710753
30
0
41
1
10
31.907008797026
20
-2.81193459882184
30
0
41
1
10
32.1502945691742
20
-2.76450563464385
30
0
41
1
10
32.2727045435616
20
-2.73410402071289
30
0
41
1
10
32.3959670704351
20
-2.69698005874389
30
0
0
SPLINE
5
179
100
AcDbEntity
8
1
62
256
6
ByLayer
370
18
48
1
60
0
100
AcDbSpline
70
4
71
3
72
27
73
23
40
0
40
0
40
0
40
0
40
0.124999999999999
40
0.124999999999999
40
0.187499999999999
40
0.218749999999999
40
0.218749999999999
40
0.249999999999999
40
0.249999999999999
40
0.374999999999998
40
0.374999999999998
40
0.499999999999997
40
0.624999999999996
40
0.624999999999996
40
0.656249999999996
40
0.656249999999996
40
0.687499999999997
40
0.687499999999997
40
0.749999999999997
40
0.749999999999997
40
0.874999999999999
40
1
40
1
40
1
40
1
41
1
10
54.7818006690433
20
0.894754547368876
30
0
41
1
10
54.7787048514527
20
1.0128416486364
30
0
41
1
10
54.775555042831
20
1.12923860750328
30
0
41
1
10
54.7707329735785
20
1.30126363014952
30
0
41
1
10
54.7683010561167
20
1.38663422238361
30
0
41
1
10
54.7658428713263
20
1.47102914669884
30
0
41
1
10
54.7641986461993
20
1.52707334704306
30
0
41
1
10
54.7633726907463
20
1.55502373488645
30
0
41
1
10
54.7592496224512
20
1.6935719651587
30
0
41
1
10
54.7559676338235
20
1.80078221937424
30
0
41
1
10
54.7494450403902
20
2.00818837406175
30
0
41
1
10
54.7429637607842
20
2.20857837144487
30
0
41
1
10
54.7365330318378
20
2.39496278035023
30
0
41
1
10
54.732503792606
20
2.50694211076791
30
0
41
1
10
54.7316973790343
20
2.52911184778611
30
0
41
1
10
54.7300825120888
20
2.57299328958641
30
0
41
1
10
54.7292729738159
20
2.59473337176229
30
0
41
1
10
54.7268516011344
20
2.65894497753357
30
0
41
1
10
54.7252450711419
20
2.70046478568571
30
0
41
1
10
54.7204354434898
20
2.82121996063191
30
0
41
1
10
54.7140498341097
20
2.97210118423303
30
0
41
1
10
54.707562307477
20
3.10288472177956
30
0
41
1
10
54.7042502801859
20
3.16313740050796
30
0
0
SPLINE
5
17A
100
AcDbEntity
8
1
62
256
6
ByLayer
370
13
48
1
60
0
100
AcDbSpline
70
4
71
3
72
9
73
5
40
0
40
0
40
0
40
0
40
0.110681897450564
40
1
40
1
40
1
40
1
41
1.04
10
55.0815896233925
20
0.652867274794908
30
0
41
1.04
10
55.0761549264423
20
0.742728543571949
30
0
41
1.04
10
55.0270485816076
20
1.5480363269682
30
0
41
1.04
10
54.9780716657959
20
2.26638182175127
30
0
41
1.04
10
54.9336503809515
20
2.70875834761335
30
0
0
SPLINE
5
17B
100
AcDbEntity
8
1
62
256
6
ByLayer
370
13
48
1
60
0
100
AcDbSpline
70
4
71
3
72
9
73
5
40
0
40
0
40
0
40
0
40
0.441394295198709
40
1
40
1
40
1
40
1
41
1
10
56.7255329553386
20
-0.700956656959534
30
0
41
1
10
56.7036818293263
20
-0.340563330326603
30
0
41
1
10
56.6544689513501
20
0.499766998019908
30
0
41
1
10
56.6049854286774
20
1.30743429484582
30
0
41
1
10
56.5774258781396
20
1.70789312630623
30
0
0
SPLINE
5
17C
100
AcDbEntity
8
1
62
256
6
ByLayer
370
13
48
1
60
0
100
AcDbSpline
70
4
71
3
72
9
73
5
40
0
40
0
40
0
40
0
40
0.330481079983751
40
1
40
1
40
1
40
1
41
1
10
58.0401617846215
20
-1.71172060868437
30
0
41
1
10
58.0244768685879
20
-1.48447127543167
30
0
41
1
10
57.9759721258096
20
-0.733261600501464
30
0
41
1
10
57.9263211148126
20
0.132686379922205
30
0
41
1
10
57.8919886091282
20
0.698024099485195
30
0
0
SPLINE
5
17D
100
AcDbEntity
8
1
62
256
6
ByLayer
370
18
48
1
60
0
100
AcDbSpline
70
4
71
3
72
33
73
29
40
0
40
0
40
0
40
0
40
0.125
40
0.125
40
0.15625
40
0.15625
40
0.1875
40
0.1875
40
0.249999999999999
40
0.249999999999999
40
0.374999999999999
40
0.374999999999999
40
0.499999999999998
40
0.499999999999998
40
0.562499999999998
40
0.562499999999998
40
0.593749999999998
40
0.593749999999998
40
0.624999999999998
40
0.624999999999998
40
0.749999999999999
40
0.749999999999999
40
0.875
40
0.875
40
0.9375
40
0.96875
40
0.96875
40
1
40
1
40
1
40
1
41
1
10
58.3165138874509
20
0.54558439964589
30
0
41
1
10
58.323410579667
20
0.40747798754154
30
0
41
1
10
58.3302907334656
20
0.268174984612841
30
0
41
1
10
58.3388914206609
20
0.0925115419910014
30
0
41
1
10
58.3406117041323
20
0.0573019276199602
30
0
41
1
10
58.3440536468918
20
-0.0132729166688819
30
0
41
1
10
58.3457737348372
20
-0.0486061037336754
30
0
41
1
10
58.3509082713369
20
-0.15422674228995
30
0
41
1
10
58.3543063265219
20
-0.224329088408837
30
0
41
1
10
58.3644475144677
20
-0.433718626506277
30
0
41
1
10
58.3711352686684
20
-0.572090814756024
30
0
41
1
10
58.3845320271315
20
-0.846419791467468
30
0
41
1
10
58.3912401041491
20
-0.982376633973701
30
0
41
1
10
58.4015082909847
20
-1.18445929198674
30
0
41
1
10
58.4049712773753
20
-1.25151053877832
30
0
41
1
10
58.4102101019465
20
-1.35161393783397
30
0
41
1
10
58.4119632677702
20
-1.38489873974092
30
0
41
1
10
58.4154600228282
20
-1.45091937221738
30
0
41
1
10
58.4172061916125
20
-1.48370468584059
30
0
41
1
10
58.4259205634423
20
-1.64651859445149
30
0
41
1
10
58.4328301100934
20
-1.77321869781139
30
0
41
1
10
58.4465317016454
20
-2.01967636104689
30
0
41
1
10
58.4533364736961
20
-2.13943304763586
30
0
41
1
10
58.4635935587842
20
-2.31380727855921
30
0
41
1
10
58.4687315344844
20
-2.39967677136522
30
0
41
1
10
58.4738941151072
20
-2.48353627140031
30
0
41
1
10
58.4773423402606
20
-2.5389904201387
30
0
41
1
10
58.479070624624
20
-2.56650494528057
30
0
41
1
10
58.480792586326
20
-2.59363290553441
30
0
0
SPLINE
5
17E
100
AcDbEntity
8
1
62
256
6
ByLayer
370
13
48
1
60
0
100
AcDbSpline
70
4
71
3
72
9
73
5
40
0
40
0
40
0
40
0
40
0.227171926969179
40
1
40
1
40
1
40
1
41
1
10
55.4108851759961
20
0.383468320771698
30
0
41
1
10
55.3997265674887
20
0.570374606556896
30
0
41
1
10
55.3505572907746
20
1.38586173393526
30
0
41
1
10
55.3015177597526
20
2.11271758835886
30
0
41
1
10
55.2630591978657
20
2.53767423599476
30
0
0
SPLINE
5
17F
100
AcDbEntity
8
1
62
256
6
ByLayer
370
18
48
1
60
0
100
AcDbSpline
70
4
71
3
72
28
73
24
40
0
40
0
40
0
40
0
40
0.125
40
0.125
40
0.25
40
0.25
40
0.375
40
0.375
40
0.40625
40
0.40625
40
0.4375
40
0.5
40
0.5
40
0.625000000000001
40
0.750000000000001
40
0.750000000000001
40
0.781250000000001
40
0.781250000000001
40
0.812500000000001
40
0.812500000000001
40
0.875000000000001
40
0.875000000000001
40
1
40
1
40
1
40
1
41
1
10
57.0022035425101
20
1.79878873134496
30
0
41
1
10
57.0092434339068
20
1.67245560948078
30
0
41
1
10
57.0161645390068
20
1.54391443323848
30
0
41
1
10
57.0298006837951
20
1.28255725660892
30
0
41
1
10
57.0365158197777
20
1.14974085872842
30
0
41
1
10
57.0498843251196
20
0.879840233315548
30
0
41
1
10
57.0565372594456
20
0.742756313370506
30
0
41
1
10
57.064977932646
20
0.568656665128515
30
0
41
1
10
57.0666750030496
20
0.533649777582269
30
0
41
1
10
57.0700705271961
20
0.463708733014926
30
0
41
1
10
57.0751691258527
20
0.358846564177412
30
0
41
1
10
57.080280903671
20
0.254130663092411
30
0
41
1
10
57.0905175248958
20
0.04489045480139
30
0
41
1
10
57.1041989491868
20
-0.233586657604633
30
0
41
1
10
57.1179512521525
20
-0.511053094038431
30
0
41
1
10
57.1265948218354
20
-0.684145244827818
30
0
41
1
10
57.128326054385
20
-0.718747410565612
30
0
41
1
10
57.1317946191827
20
-0.787918810766911
30
0
41
1
10
57.1335345139997
20
-0.822538825735705
30
0
41
1
10
57.1387428021251
20
-0.925904798718591
30
0
41
1
10
57.1421988238958
20
-0.994139523552974
30
0
41
1
10
57.1525348781308
20
-1.19685735978041
30
0
41
1
10
57.1593825736843
20
-1.32935931567306
30
0
41
1
10
57.1662364410239
20
-1.45926206950281
30
0
0
SPLINE
5
180
100
AcDbEntity
8
1
62
256
6
ByLayer
370
13
48
1
60
0
100
AcDbSpline
70
4
71
3
72
10
73
6
40
0
40
0
40
0
40
0
40
0.325516531152
40
0.991306754879405
40
1
40
1
40
1
40
1
41
1.04
10
56.3962575049811
20
-0.432511694885262
30
0
41
1.04
10
56.3801774502332
20
-0.163589904948061
30
0
41
1.04
10
56.331342936509
20
0.665979573551103
30
0
41
1.04
10
56.2818116246869
20
1.47201149990475
30
0
41
1.04
10
56.2485702763795
20
1.93088337701116
30
0
41
1.04
10
56.2481418648334
20
1.93678348145744
30
0
0
SPLINE
5
181
100
AcDbEntity
8
1
62
256
6
ByLayer
370
18
48
1
60
0
100
AcDbSpline
70
4
71
3
72
33
73
29
40
0
40
0
40
0
40
0
40
0.0625000000000005
40
0.0625000000000005
40
0.0937500000000004
40
0.0937500000000004
40
0.125
40
0.125
40
0.25
40
0.25
40
0.375
40
0.375
40
0.437499999999999
40
0.437499999999999
40
0.468749999999999
40
0.468749999999999
40
0.499999999999999
40
0.499999999999999
40
0.624999999999999
40
0.624999999999999
40
0.75
40
0.75
40
0.875
40
0.875
40
0.90625
40
0.90625
40
0.9375
40
1
40
1
40
1
40
1
41
1
10
55.9754413407811
20
-0.296304880517141
30
0
41
1
10
55.9720340576926
20
-0.226512940841928
30
0
41
1
10
55.9686135121734
20
-0.156385115992549
30
0
41
1
10
55.9634497427012
20
-0.0506791152178323
30
0
41
1
10
55.9617266110599
20
-0.0154327350714425
30
0
41
1
10
55.9582856922215
20
0.0548497076436831
30
0
41
1
10
55.9565661631216
20
0.0899214336737089
30
0
41
1
10
55.9479671678357
20
0.264935899814162
30
0
41
1
10
55.9410752602721
20
0.403848497886287
30
0
41
1
10
55.9271627347746
20
0.679517426103388
30
0
41
1
10
55.9201713444854
20
0.816275165083795
30
0
41
1
10
55.9097169775177
20
1.01978413766901
30
0
41
1
10
55.9062367552535
20
1.08734861346778
30
0
41
1
10
55.9010257372748
20
1.18828057384997
30
0
41
1
10
55.8992902254909
20
1.22185539619153
30
0
41
1
10
55.89582187761
20
1.28886506177201
30
0
41
1
10
55.8940905711391
20
1.32227018650477
30
0
41
1
10
55.8854885434583
20
1.48798292058757
30
0
41
1
10
55.8787472596791
20
1.6171002435355
30
0
41
1
10
55.8654091924115
20
1.86862853482478
30
0
41
1
10
55.858812527129
20
1.99103895427825
30
0
41
1
10
55.8455206405851
20
2.22913098434165
30
0
41
1
10
55.8388003290821
20
2.34481221810293
30
0
41
1
10
55.8302034593637
20
2.48506062379786
30
0
41
1
10
55.8284757481249
20
2.51289436669555
30
0
41
1
10
55.8250252938885
20
2.56779882669372
30
0
41
1
10
55.8198493911647
20
2.64913571596955
30
0
41
1
10
55.8146762024062
20
2.727448820218
30
0
41
1
10
55.811229379208
20
2.77833449948548
30
0
0
SPLINE
5
182
100
AcDbEntity
8
1
62
256
6
ByLayer
370
18
48
1
60
0
100
AcDbSpline
70
4
71
3
72
24
73
20
40
0
40
0
40
0
40
0
40
0.125000000000001
40
0.125000000000001
40
0.187500000000001
40
0.187500000000001
40
0.218750000000001
40
0.218750000000001
40
0.250000000000001
40
0.250000000000001
40
0.375000000000001
40
0.500000000000001
40
0.500000000000001
40
0.625000000000001
40
0.625000000000001
40
0.75
40
0.75
40
0.875
40
1
40
1
40
1
40
1
41
1
10
55.6874493991633
20
2.86734639219304
30
0
41
1
10
55.6943771944219
20
2.76870097094459
30
0
41
1
10
55.7012652338776
20
2.6650650469243
30
0
41
1
10
55.7115537354091
20
2.50202514803561
30
0
41
1
10
55.7149764379314
20
2.44641172675142
30
0
41
1
10
55.7201070090357
20
2.36105561412842
30
0
41
1
10
55.7218182435829
20
2.33225365270036
30
0
41
1
10
55.7252340706077
20
2.27411751515592
30
0
41
1
10
55.7269346658465
20
2.2448520756972
30
0
41
1
10
55.7354061050132
20
2.09754991390633
30
0
41
1
10
55.7487544476957
20
1.8556428248491
30
0
41
1
10
55.7620168838268
20
1.60163363050444
30
0
41
1
10
55.7754583509998
20
1.3415552029266
30
0
41
1
10
55.7822790299599
20
1.20843216268116
30
0
41
1
10
55.796340240062
20
0.936105860248148
30
0
41
1
10
55.8034243402562
20
0.799208498049438
30
0
41
1
10
55.8175139547148
20
0.523988661328673
30
0
41
1
10
55.8315257482504
20
0.247343339029697
30
0
41
1
10
55.8452585262572
20
-0.0321477247044299
30
0
41
1
10
55.8520883225022
20
-0.172623192637701
30
0
0
SPLINE
5
183
100
AcDbEntity
8
1
62
256
6
ByLayer
370
18
48
1
60
0
100
AcDbSpline
70
4
71
3
72
28
73
24
40
0
40
0
40
0
40
0
40
0.125000000000001
40
0.125000000000001
40
0.250000000000002
40
0.250000000000002
40
0.281250000000002
40
0.281250000000002
40
0.312500000000002
40
0.312500000000002
40
0.375000000000002
40
0.375000000000002
40
0.500000000000001
40
0.625000000000001
40
0.625000000000001
40
0.687500000000001
40
0.687500000000001
40
0.718750000000001
40
0.718750000000001
40
0.750000000000001
40
0.750000000000001
40
0.875
40
1
40
1
40
1
40
1
41
1
10
57.2898182816902
20
-1.57444353675129
30
0
41
1
10
57.2830678691786
20
-1.4456686741174
30
0
41
1
10
57.2763595364097
20
-1.31462080528914
30
0
41
1
10
57.2627128542805
20
-1.04802974295069
30
0
41
1
10
57.2557950781796
20
-0.912485880475316
30
0
41
1
10
57.2470851399356
20
-0.740174971027386
30
0
41
1
10
57.2453397901888
20
-0.705568375772316
30
0
41
1
10
57.2418428614171
20
-0.636063105910409
30
0
41
1
10
57.2400890927956
20
-0.601120534557055
30
0
41
1
10
57.2348468471031
20
-0.496412666312779
30
0
41
1
10
57.2313710266006
20
-0.426638086665747
30
0
41
1
10
57.2209965647727
20
-0.217404629145278
30
0
41
1
10
57.2073090535341
20
0.0613332340551551
30
0
41
1
10
57.1937738284588
20
0.339592204334679
30
0
41
1
10
57.1835944081983
20
0.548099847732971
30
0
41
1
10
57.1801962950143
20
0.617571222906008
30
0
41
1
10
57.1750787646661
20
0.721729966234221
30
0
41
1
10
57.1733670401356
20
0.756491461451759
30
0
41
1
10
57.1699510591486
20
0.825662976043816
30
0
41
1
10
57.168246104108
20
0.860087464125712
30
0
41
1
10
57.1597309791204
20
1.03141246370208
30
0
41
1
10
57.1461666809968
20
1.30044199318542
30
0
41
1
10
57.1324717313264
20
1.55953161292354
30
0
41
1
10
57.1255513787385
20
1.68657313196317
30
0
0
SPLINE
5
184
100
AcDbEntity
8
1
62
256
6
ByLayer
370
13
48
1
60
0
100
AcDbSpline
70
4
71
3
72
9
73
5
40
0
40
0
40
0
40
0
40
0.212248704696744
40
1
40
1
40
1
40
1
41
1.04
10
57.7108104267075
20
-1.47116775158874
30
0
41
1.04
10
57.7006900701033
20
-1.31796131884827
30
0
41
1.04
10
57.6525030491419
20
-0.561678787665471
30
0
41
1.04
10
57.6031912194082
20
0.308657212149026
30
0
41
1.04
10
57.5627350310787
20
0.960925137096096
30
0
0
SPLINE
5
185
100
AcDbEntity
8
1
62
256
6
ByLayer
370
18
48
1
60
0
100
AcDbSpline
70
4
71
3
72
28
73
24
40
0
40
0
40
0
40
0
40
0.125
40
0.125
40
0.249999999999999
40
0.249999999999999
40
0.312499999999999
40
0.343749999999999
40
0.343749999999999
40
0.374999999999998
40
0.374999999999998
40
0.499999999999998
40
0.499999999999998
40
0.624999999999998
40
0.624999999999998
40
0.749999999999998
40
0.749999999999998
40
0.781249999999998
40
0.781249999999998
40
0.812499999999998
40
0.874999999999998
40
0.874999999999998
40
1
40
1
40
1
40
1
41
1
10
59.9184127663739
20
-3.52018576332989
30
0
41
1
10
59.9115093140455
20
-3.44999115469128
30
0
41
1
10
59.9047259299954
20
-3.37394246228234
30
0
41
1
10
59.8912839027751
20
-3.2103834303245
30
0
41
1
10
59.8846190232795
20
-3.122872886209
30
0
41
1
10
59.8745439243329
20
-2.98292241309713
30
0
41
1
10
59.8694893087382
20
-2.9107717244662
30
0
41
1
10
59.8643914372065
20
-2.835300804166
30
0
41
1
10
59.8609816461102
20
-2.78423968348034
30
0
41
1
10
59.8592739188187
20
-2.75837672554528
30
0
41
1
10
59.8507515572676
20
-2.62792323136495
30
0
41
1
10
59.8439522667817
20
-2.51944737754582
30
0
41
1
10
59.8303288415374
20
-2.29451390556878
30
0
41
1
10
59.8235060394021
20
-2.17805564679665
30
0
41
1
10
59.8097872832553
20
-1.9371403952409
30
0
41
1
10
59.8028926965348
20
-1.81268412500952
30
0
41
1
10
59.7941806265322
20
-1.65194240715817
30
0
41
1
10
59.7924349049743
20
-1.61956223734546
30
0
41
1
10
59.7889523355559
20
-1.55465911517143
30
0
41
1
10
59.7837342000561
20
-1.45695728249316
30
0
41
1
10
59.7785281621809
20
-1.35822610235704
30
0
41
1
10
59.7681262253889
20
-1.15941225622149
30
0
41
1
10
59.7612051025642
20
-1.02507123168127
30
0
41
1
10
59.7542862804931
20
-0.888943373551712
30
0
0
SPLINE
5
186
100
AcDbEntity
8
1
62
256
6
ByLayer
370
18
48
1
60
0
100
AcDbSpline
70
4
71
3
72
22
73
18
40
0
40
0
40
0
40
0
40
0.124999999999999
40
0.249999999999998
40
0.249999999999998
40
0.312499999999998
40
0.312499999999998
40
0.374999999999998
40
0.374999999999998
40
0.499999999999998
40
0.624999999999999
40
0.624999999999999
40
0.749999999999999
40
0.749999999999999
40
0.875
40
0.875
40
1
40
1
40
1
40
1
41
1
10
59.6314205291621
20
-0.76882206604941
30
0
41
1
10
59.6382007915903
20
-0.90660376522132
30
0
41
1
10
59.6515379384337
20
-1.17780647923075
30
0
41
1
10
59.6647692299133
20
-1.44043774328821
30
0
41
1
10
59.6748391735863
20
-1.6341478936302
30
0
41
1
10
59.6782208631053
20
-1.698172979041
30
0
41
1
10
59.6850735261204
20
-1.82511138973501
30
0
41
1
10
59.6885549930053
20
-1.88814562680295
30
0
41
1
10
59.6990022791759
20
-2.07346007610732
30
0
41
1
10
59.7129953088559
20
-2.3117151203781
30
0
41
1
10
59.7269039767498
20
-2.53280240423606
30
0
41
1
10
59.7407493640668
20
-2.74527091806379
30
0
41
1
10
59.7476400437819
20
-2.84719670395168
30
0
41
1
10
59.7614271014507
20
-3.04210895115432
30
0
41
1
10
59.7682050801077
20
-3.13340799227817
30
0
41
1
10
59.7816889349591
20
-3.3040115468248
30
0
41
1
10
59.7884124008903
20
-3.38333446133348
30
0
41
1
10
59.7951586490796
20
-3.45670390028974
30
0
0
SPLINE
5
187
100
AcDbEntity
8
1
62
256
6
ByLayer
370
18
48
1
60
0
100
AcDbSpline
70
4
71
3
72
29
73
25
40
0
40
0
40
0
40
0
40
0.0624999999999997
40
0.0937499999999997
40
0.0937499999999997
40
0.125
40
0.125
40
0.249999999999999
40
0.249999999999999
40
0.374999999999999
40
0.374999999999999
40
0.499999999999998
40
0.499999999999998
40
0.531249999999998
40
0.531249999999998
40
0.562499999999998
40
0.624999999999998
40
0.624999999999998
40
0.749999999999999
40
0.874999999999999
40
0.874999999999999
40
0.9375
40
0.9375
40
1
40
1
40
1
40
1
41
1
10
58.6041657288948
20
-2.68782931171364
30
0
41
1
10
58.6008041188727
20
-2.63548546210089
30
0
41
1
10
58.5957707890791
20
-2.55504515883737
30
0
41
1
10
58.5907291953916
20
-2.471675235482
30
0
41
1
10
58.5873631692619
20
-2.41543695647349
30
0
41
1
10
58.5856756409289
20
-2.3869535161522
30
0
41
1
10
58.5772421924105
20
-2.24329549659484
30
0
41
1
10
58.5705506307367
20
-2.12510110013338
30
0
41
1
10
58.5570277206678
20
-1.88241138822428
30
0
41
1
10
58.5501633277843
20
-1.75791694580354
30
0
41
1
10
58.5362179010336
20
-1.5026481610966
30
0
41
1
10
58.5291631243842
20
-1.37187311485033
30
0
41
1
10
58.5203083851377
20
-1.20435916147164
30
0
41
1
10
58.5185339788233
20
-1.17062600225779
30
0
41
1
10
58.5149883078312
20
-1.10287025892919
30
0
41
1
10
58.5096884918619
20
-1.00107192066693
30
0
41
1
10
58.5044469421926
20
-0.8987855504989
30
0
41
1
10
58.4940399773058
20
-0.693573556026905
30
0
41
1
10
58.4803718001737
20
-0.418255915300534
30
0
41
1
10
58.4669832630666
20
-0.139579454215209
30
0
41
1
10
58.4569388269844
20
0.070708183719546
30
0
41
1
10
58.4535888675034
20
0.141032910611273
30
0
41
1
10
58.4468643719854
20
0.282057510579136
30
0
41
1
10
58.4435180558822
20
0.352163039377814
30
0
41
1
10
58.4401733071594
20
0.421870061572548
30
0
0
SPLINE
5
188
100
AcDbEntity
8
1
62
256
6
ByLayer
370
13
48
1
60
0
100
AcDbSpline
70
4
71
3
72
9
73
5
40
0
40
0
40
0
40
0
40
0.422689003930906
40
1
40
1
40
1
40
1
41
1.04
10
59.0254258975556
20
-2.35572651512467
30
0
41
1.04
10
59.0046605921875
20
-2.10621429519103
30
0
41
1.04
10
58.9554938317203
20
-1.42553308272731
30
0
41
1.04
10
58.9060139174654
20
-0.598046405333063
30
0
41
1.04
10
58.877286514309
20
-0.114156844865713
30
0
0
SPLINE
5
189
100
AcDbEntity
8
1
62
256
6
ByLayer
370
18
48
1
60
0
100
AcDbSpline
70
4
71
3
72
28
73
24
40
0
40
0
40
0
40
0
40
0.125000000000001
40
0.125000000000001
40
0.250000000000002
40
0.250000000000002
40
0.375000000000003
40
0.375000000000003
40
0.500000000000003
40
0.500000000000003
40
0.625000000000004
40
0.625000000000004
40
0.687500000000003
40
0.687500000000003
40
0.750000000000003
40
0.750000000000003
40
0.812500000000002
40
0.812500000000002
40
0.875000000000001
40
0.875000000000001
40
0.937500000000001
40
0.937500000000001
40
1
40
1
40
1
40
1
41
1
10
59.3547361888003
20
-2.54252778244674
30
0
41
1
10
59.3458780278654
20
-2.52440945167598
30
0
41
1
10
59.3355953994348
20
-2.50736870444567
30
0
41
1
10
59.3128092528998
20
-2.47496183991416
30
0
41
1
10
59.3001792592298
20
-2.45950601541261
30
0
41
1
10
59.2737521237064
20
-2.43114105385206
30
0
41
1
10
59.2598851051201
20
-2.41810735905395
30
0
41
1
10
59.2309229159069
20
-2.39423789854101
30
0
41
1
10
59.2156896797215
20
-2.38333593557442
30
0
41
1
10
59.1850390100011
20
-2.36463603835637
30
0
41
1
10
59.1695365887248
20
-2.35673707773989
30
0
41
1
10
59.1460311287412
20
-2.34733558514185
30
0
41
1
10
59.1381536454089
20
-2.34461351623878
30
0
41
1
10
59.1223102140493
20
-2.34011208263362
30
0
41
1
10
59.1144385619935
20
-2.33836350777781
30
0
41
1
10
59.0989905021067
20
-2.33600537357498
30
0
41
1
10
59.091387403044
20
-2.33538675255767
30
0
41
1
10
59.0764683013283
20
-2.33544157745089
30
0
41
1
10
59.0691147921816
20
-2.33613084790358
30
0
41
1
10
59.0552185639981
20
-2.33898086741934
30
0
41
1
10
59.0486239159572
20
-2.34113262069437
30
0
41
1
10
59.0362598278925
20
-2.34713073452491
30
0
41
1
10
59.0305035559852
20
-2.35099246736732
30
0
41
1
10
59.0254258975291
20
-2.35572651471227
30
0
0
SPLINE
5
18A
100
AcDbEntity
8
1
62
256
6
ByLayer
370
18
48
1
60
0
100
AcDbSpline
70
4
71
3
72
12
73
8
40
0
40
0
40
0
40
0
40
0.5
40
0.5
40
0.75
40
0.75
40
1
40
1
40
1
40
1
41
1
10
59.0254258975226
20
-2.3557265147295
30
0
41
1
10
58.9543402466726
20
-2.42200171612092
30
0
41
1
10
58.8836189971227
20
-2.48285087694381
30
0
41
1
10
58.7782347343325
20
-2.56591942078225
30
0
41
1
10
58.7432196799345
20
-2.59224204996767
30
0
41
1
10
58.6734970747782
20
-2.64209948002764
30
0
41
1
10
58.6387731622585
20
-2.66564793010812
30
0
41
1
10
58.6041657288947
20
-2.68782931171367
30
0
0
SPLINE
5
18B
100
AcDbEntity
8
1
62
256
6
ByLayer
370
18
48
1
60
0
100
AcDbSpline
70
4
71
3
72
8
73
4
40
0
40
0
40
0
40
0
40
1
40
1
40
1
40
1
41
1
10
58.480792586326
20
-2.59363290553438
30
0
41
1
10
58.5219145496423
20
-2.62543306412863
30
0
41
1
10
58.5630356118607
20
-2.65683455516549
30
0
41
1
10
58.6041657288948
20
-2.68782931171364
30
0
0
SPLINE
5
18C
100
AcDbEntity
8
1
62
256
6
ByLayer
370
18
48
1
60
0
100
AcDbSpline
70
4
71
3
72
10
73
6
40
0
40
0
40
0
40
0
40
0.5
40
0.5
40
1
40
1
40
1
40
1
41
1
10
58.480792586326
20
-2.59363290553441
30
0
41
1
10
58.4084158383294
20
-2.44268801460683
30
0
41
1
10
58.335572816154
20
-2.29349393962346
30
0
41
1
10
58.1885767676202
20
-1.99891680724167
30
0
41
1
10
58.1146787669413
20
-1.85404308073433
30
0
41
1
10
58.0401617846215
20
-1.71172060868437
30
0
0
SPLINE
5
18D
100
AcDbEntity
8
1
62
256
6
ByLayer
370
18
48
1
60
0
100
AcDbSpline
70
4
71
3
72
28
73
24
40
0
40
0
40
0
40
0
40
0.124999999999974
40
0.124999999999974
40
0.249999999999949
40
0.249999999999949
40
0.374999999999923
40
0.374999999999923
40
0.499999999999897
40
0.499999999999897
40
0.624999999999872
40
0.624999999999872
40
0.687499999999893
40
0.687499999999893
40
0.749999999999915
40
0.749999999999915
40
0.812499999999936
40
0.812499999999936
40
0.874999999999957
40
0.874999999999957
40
0.937499999999979
40
0.937499999999979
40
1
40
1
40
1
40
1
41
1
10
58.0401617846211
20
-1.71172060868352
30
0
41
1
10
58.0312939422462
20
-1.69478362050634
30
0
41
1
10
58.0209988273859
20
-1.67834218314096
30
0
41
1
10
57.9981852082088
20
-1.64624440667114
30
0
41
1
10
57.9855395522343
20
-1.63048182375403
30
0
41
1
10
57.9590840764091
20
-1.60071470641199
30
0
41
1
10
57.945204190385
20
-1.58659100841621
30
0
41
1
10
57.9162206331836
20
-1.55977816483303
30
0
41
1
10
57.9009800481336
20
-1.54700031776068
30
0
41
1
10
57.8703231897789
20
-1.52384294692416
30
0
41
1
10
57.8548203827363
20
-1.51335934121084
30
0
41
1
10
57.8313188764911
20
-1.49945546451653
30
0
41
1
10
57.8234434675006
20
-1.49512734089072
30
0
41
1
10
57.8076058180479
20
-1.48716835026497
30
0
41
1
10
57.7997435556371
20
-1.48359046807639
30
0
41
1
10
57.7843091032787
20
-1.47738120918342
30
0
41
1
10
57.7767128815976
20
-1.47473667059469
30
0
41
1
10
57.7618075031034
20
-1.47050538615974
30
0
41
1
10
57.7544616426685
20
-1.46891998000049
30
0
41
1
10
57.740579593784
20
-1.4670885208705
30
0
41
1
10
57.7339912447794
20
-1.46682078326612
30
0
41
1
10
57.7216379320434
20
-1.46779666872547
30
0
41
1
10
57.7158856359407
20
-1.46905559068861
30
0
41
1
10
57.7108104267137
20
-1.47116775157272
30
0
0
SPLINE
5
18E
100
AcDbEntity
8
1
62
256
6
ByLayer
370
18
48
1
60
0
100
AcDbSpline
70
4
71
3
72
12
73
8
40
0
40
0
40
0
40
0
40
0.500000000000001
40
0.500000000000001
40
0.75
40
0.75
40
1
40
1
40
1
40
1
41
1
10
57.7108104267074
20
-1.47116775158875
30
0
41
1
10
57.6397729288072
20
-1.50073158191356
30
0
41
1
10
57.5691034552939
20
-1.52400123058806
30
0
41
1
10
57.4637908989558
20
-1.54973989378911
30
0
41
1
10
57.4287986972376
20
-1.55679047491398
30
0
41
1
10
57.3591165065019
20
-1.56786763952709
30
0
41
1
10
57.3244105205717
20
-1.57189842233572
30
0
41
1
10
57.2898182816902
20
-1.57444353675132
30
0
0
SPLINE
5
18F
100
AcDbEntity
8
1
62
256
6
ByLayer
370
18
48
1
60
0
100
AcDbSpline
70
4
71
3
72
8
73
4
40
0
40
0
40
0
40
0
40
1
40
1
40
1
40
1
41
1
10
57.1662364410239
20
-1.45926206950281
30
0
41
1
10
57.2074250233409
20
-1.4978848809728
30
0
41
1
10
57.2486156794038
20
-1.53628181716823
30
0
41
1
10
57.2898182816902
20
-1.57444353675129
30
0
0
SPLINE
5
190
100
AcDbEntity
8
1
62
256
6
ByLayer
370
18
48
1
60
0
100
AcDbSpline
70
4
71
3
72
10
73
6
40
0
40
0
40
0
40
0
40
0.5
40
0.5
40
1
40
1
40
1
40
1
41
1
10
57.1662364410239
20
-1.45926206950281
30
0
41
1
10
57.0938428664706
20
-1.32473663331265
30
0
41
1
10
57.0210167125822
20
-1.19399213675325
30
0
41
1
10
56.8740283041036
20
-0.940591124122875
30
0
41
1
10
56.8001132821928
20
-0.818414640013884
30
0
41
1
10
56.7255329553385
20
-0.700956656959534
30
0
0
SPLINE
5
191
100
AcDbEntity
8
1
62
256
6
ByLayer
370
18
48
1
60
0
100
AcDbSpline
70
4
71
3
72
28
73
24
40
0
40
0
40
0
40
0
40
0.125
40
0.125
40
0.25
40
0.25
40
0.375
40
0.375
40
0.5
40
0.5
40
0.625
40
0.625
40
0.6875
40
0.6875
40
0.75
40
0.75
40
0.8125
40
0.8125
40
0.875
40
0.875
40
0.9375
40
0.9375
40
1
40
1
40
1
40
1
41
1
10
56.7255329553381
20
-0.700956656958823
30
0
41
1
10
56.7166693058345
20
-0.686997125845181
30
0
41
1
10
56.7063773367579
20
-0.672899243888594
30
0
41
1
10
56.6835659387561
20
-0.644517709257656
30
0
41
1
10
56.6709183966039
20
-0.630121938682635
30
0
41
1
10
56.6444551966854
20
-0.602113215808828
30
0
41
1
10
56.6305703329236
20
-0.588400163131354
30
0
41
1
10
56.6015754062309
20
-0.561496073408563
30
0
41
1
10
56.5863289073799
20
-0.548202937913231
30
0
41
1
10
56.5556649206552
20
-0.523061848060024
30
0
41
1
10
56.5401594902886
20
-0.51111746603118
30
0
41
1
10
56.5166564951052
20
-0.494209231255525
30
0
41
1
10
56.5087809983607
20
-0.488742796619846
30
0
41
1
10
56.4929442038023
20
-0.47818989398877
30
0
41
1
10
56.4850901681039
20
-0.473176268999509
30
0
41
1
10
56.4696669187577
20
-0.463802281000795
30
0
41
1
10
56.462076805634
20
-0.459427391410145
30
0
41
1
10
56.4471846576693
20
-0.45139122102492
30
0
41
1
10
56.4398473708517
20
-0.447717564337381
30
0
41
1
10
56.4259838488599
20
-0.441436919872984
30
0
41
1
10
56.4194047330262
20
-0.438797517117109
30
0
41
1
10
56.4070691884712
20
-0.434686498740518
30
0
41
1
10
56.4013256966359
20
-0.43322831407022
30
0
41
1
10
56.3962575049873
20
-0.432511694872062
30
0
0
SPLINE
5
192
100
AcDbEntity
8
1
62
256
6
ByLayer
370
18
48
1
60
0
100
AcDbSpline
70
4
71
3
72
12
73
8
40
0
40
0
40
0
40
0
40
0.5
40
0.5
40
0.75
40
0.75
40
1
40
1
40
1
40
1
41
1
10
56.3962575049811
20
-0.432511694885307
30
0
41
1
10
56.325244499066
20
-0.422470779537008
30
0
41
1
10
56.2546045264356
20
-0.405817760353727
30
0
41
1
10
56.1493385990026
20
-0.371554971163732
30
0
41
1
10
56.114362141831
20
-0.358583911256147
30
0
41
1
10
56.0447107723979
20
-0.329666979837981
30
0
41
1
10
56.0100197394329
20
-0.313716141718487
30
0
41
1
10
55.9754413407811
20
-0.296304880517141
30
0
0
SPLINE
5
193
100
AcDbEntity
8
1
62
256
6
ByLayer
370
18
48
1
60
0
100
AcDbSpline
70
4
71
3
72
8
73
4
40
0
40
0
40
0
40
0
40
1
40
1
40
1
40
1
41
1
10
55.8520883225021
20
-0.172623192637701
30
0
41
1
10
55.8932003984184
20
-0.213879502755248
30
0
41
1
10
55.934314900586
20
-0.255109901692322
30
0
41
1
10
55.9754413407811
20
-0.296304880517141
30
0
0
SPLINE
5
194
100
AcDbEntity
8
1
62
256
6
ByLayer
370
18
48
1
60
0
100
AcDbSpline
70
4
71
3
72
10
73
6
40
0
40
0
40
0
40
0
40
0.5
40
0.5
40
1
40
1
40
1
40
1
41
1
10
55.8520883225022
20
-0.172623192637786
30
0
41
1
10
55.7796273610617
20
-0.0686185989350463
30
0
41
1
10
55.7067114411951
20
0.0299681474277236
30
0
41
1
10
55.5595407095923
20
0.215819667251566
30
0
41
1
10
55.4855384311896
20
0.302766448972164
30
0
41
1
10
55.4108851759961
20
0.383468320770561
30
0
0
SPLINE
5
195
100
AcDbEntity
8
1
62
256
6
ByLayer
370
18
48
1
60
0
100
AcDbSpline
70
4
71
3
72
28
73
24
40
0
40
0
40
0
40
0
40
0.125
40
0.125
40
0.249999999999999
40
0.249999999999999
40
0.374999999999999
40
0.374999999999999
40
0.499999999999999
40
0.499999999999999
40
0.624999999999999
40
0.624999999999999
40
0.687499999999999
40
0.687499999999999
40
0.749999999999999
40
0.749999999999999
40
0.812499999999999
40
0.812499999999999
40
0.875
40
0.875
40
0.9375
40
0.9375
40
1
40
1
40
1
40
1
41
1
10
55.4108851759954
20
0.38346832077093
30
0
41
1
10
55.4020185544116
20
0.393053340961757
30
0
41
1
10
55.3917252130366
20
0.403399790119948
30
0
41
1
10
55.3689148811565
20
0.425232909426626
30
0
41
1
10
55.3562700654157
20
0.436824944605036
30
0
41
1
10
55.329814303139
20
0.460279921154552
30
0
41
1
10
55.3159339243844
20
0.472214845604867
30
0
41
1
10
55.2869476361202
20
0.496526139121158
30
0
41
1
10
55.2717047578616
20
0.509008839262179
30
0
41
1
10
55.2410438548244
20
0.53362654470385
30
0
41
1
10
55.2255388104429
20
0.545838955503029
30
0
41
1
10
55.202034195677
20
0.56405809010559
30
0
41
1
10
55.1941577923913
20
0.570114449331868
30
0
41
1
10
55.1783184446092
20
0.582200350526136
30
0
41
1
10
55.1704589944073
20
0.588150700987228
30
0
41
1
10
55.1550285443721
20
0.59974715441831
30
0
41
1
10
55.1474348815366
20
0.605410642775098
30
0
41
1
10
55.1325360913763
20
0.616435544397433
30
0
41
1
10
55.1251949330808
20
0.621822676078665
30
0
41
1
10
55.1113245418404
20
0.631905420012288
30
0
41
1
10
55.1047427573995
20
0.636640593691169
30
0
41
1
10
55.0924036369043
20
0.645398660096646
30
0
41
1
10
55.0866585265876
20
0.649411715455528
30
0
41
1
10
55.0815896233986
20
0.652867274803896
30
0
0
SPLINE
5
196
100
AcDbEntity
8
1
62
256
6
ByLayer
370
18
48
1
60
0
100
AcDbSpline
70
4
71
3
72
10
73
6
40
0
40
0
40
0
40
0
40
0.5
40
0.5
40
1
40
1
40
1
40
1
41
1
10
55.0815896233925
20
0.652867274794914
30
0
41
1
10
55.03120200814
20
0.687217387319805
30
0
41
1
10
54.9810018379933
20
0.724628515106957
30
0
41
1
10
54.8810404629474
20
0.805387212994475
30
0
41
1
10
54.8312745423409
20
0.848718608123761
30
0
41
1
10
54.7818006690433
20
0.894754547368791
30
0
0
SPLINE
5
197
100
AcDbEntity
8
1
62
256
6
ByLayer
370
18
48
1
60
0
100
AcDbSpline
70
4
71
3
72
8
73
4
40
0
40
0
40
0
40
0
40
1
40
1
40
1
40
1
41
1
10
54.7818006690433
20
0.894754547368734
30
0
41
1
10
54.6841308334104
20
0.985070382081574
30
0
41
1
10
54.5858790643526
20
1.0625895054348
30
0
41
1
10
54.4866153305848
20
1.12678059932105
30
0
0
SPLINE
5
198
100
AcDbEntity
8
1
62
256
6
ByLayer
370
18
48
1
60
0
100
AcDbSpline
70
4
71
3
72
26
73
22
40
0
40
0
40
0
40
0
40
0.124999999999979
40
0.124999999999979
40
0.187499999999969
40
0.187499999999969
40
0.249999999999958
40
0.249999999999958
40
0.374999999999956
40
0.374999999999956
40
0.437499999999955
40
0.437499999999955
40
0.499999999999954
40
0.499999999999954
40
0.749999999999951
40
0.749999999999951
40
0.812499999999963
40
0.812499999999963
40
0.874999999999975
40
0.874999999999975
40
1
40
1
40
1
40
1
41
1
10
54.4866153305848
20
1.12678059932102
30
0
41
1
10
54.4640263455876
20
1.14138826721455
30
0
41
1
10
54.4393706527143
20
1.15706854699417
30
0
41
1
10
54.3996404218024
20
1.18180053940355
30
0
41
1
10
54.385959748568
20
1.19029869405747
30
0
41
1
10
54.3575015787985
20
1.20717219906578
30
0
41
1
10
54.3427299854029
20
1.21557397706317
30
0
41
1
10
54.2968517994468
20
1.2408621046722
30
0
41
1
10
54.2641708741524
20
1.25780217543917
30
0
41
1
10
54.2121354894954
20
1.28383183571051
30
0
41
1
10
54.1942857544587
20
1.29261239948909
30
0
41
1
10
54.1579684556299
20
1.31029281720635
30
0
41
1
10
54.1394590037054
20
1.31921382877957
30
0
41
1
10
54.0452900701594
20
1.36441711460586
30
0
41
1
10
53.9647898595954
20
1.40251117049223
30
0
41
1
10
53.8595763590077
20
1.45545408161314
30
0
41
1
10
53.8383026978425
20
1.46630798501076
30
0
41
1
10
53.7953330053119
20
1.48861614385291
30
0
41
1
10
53.7736514821316
20
1.5000637293229
30
0
41
1
10
53.7084417227418
20
1.53518056023645
30
0
41
1
10
53.6646207018571
20
1.5596923043492
30
0
41
1
10
53.6205899268004
20
1.58549913208893
30
0
0
SPLINE
5
199
100
AcDbEntity
8
1
62
256
6
ByLayer
370
18
48
1
60
0
100
AcDbSpline
70
4
71
3
72
45
73
41
40
0
40
0
40
0
40
0
40
0.0431890826110481
40
0.0431890826110481
40
0.0863781652220962
40
0.0863781652220962
40
0.172756330444188
40
0.172756330444188
40
0.259134495666281
40
0.259134495666281
40
0.302323578277327
40
0.302323578277327
40
0.345512660888373
40
0.345512660888373
40
0.431890826110461
40
0.431890826110461
40
0.518268991332549
40
0.518268991332549
40
0.561458073943595
40
0.561458073943595
40
0.583052615249118
40
0.583052615249118
40
0.604647156554641
40
0.604647156554641
40
0.647836239165683
40
0.669430780471204
40
0.669430780471204
40
0.691025321776725
40
0.691025321776725
40
0.777403486998821
40
0.777403486998821
40
0.820592569609871
40
0.820592569609871
40
0.863781652220921
40
0.863781652220921
40
0.950159817443021
40
0.950159817443021
40
0.993348900054073
40
0.993348900054073
40
1
40
1
40
1
40
1
41
1
10
53.6205899268004
20
1.58549913208896
30
0
41
1
10
53.5205756242259
20
1.64411840178673
30
0
41
1
10
53.4208504059908
20
1.70098469592199
30
0
41
1
10
53.2217237637808
20
1.81102630302112
30
0
41
1
10
53.12237100293
20
1.86426325997473
30
0
41
1
10
52.8251331000348
20
2.01889493780712
30
0
41
1
10
52.6280195153344
20
2.11512836388124
30
0
41
1
10
52.2339187577427
20
2.29189246148425
30
0
41
1
10
52.0369082789743
20
2.37240274613023
30
0
41
1
10
51.7399966568242
20
2.48009017208852
30
0
41
1
10
51.6407951889267
20
2.5138095104584
30
0
41
1
10
51.4416867929932
20
2.57670537736655
30
0
41
1
10
51.3417457651345
20
2.60589634711158
30
0
41
1
10
51.0414252124164
20
2.68672086436175
30
0
41
1
10
50.8429471428183
20
2.73076202014295
30
0
41
1
10
50.4475137289108
20
2.79866641541796
30
0
41
1
10
50.2505520210333
20
2.82252288327007
30
0
41
1
10
49.9546971854489
20
2.84303132748408
30
0
41
1
10
49.8560056810245
20
2.84732402430129
30
0
41
1
10
49.7076700545543
20
2.8499625246798
30
0
41
1
10
49.6581683123489
20
2.85020974685497
30
0
41
1
10
49.559157023417
20
2.84943718836089
30
0
41
1
10
49.509646170518
20
2.8484161436779
30
0
41
1
10
49.3610353104798
20
2.84343124972199
30
0
41
1
10
49.2122740814688
20
2.83460246214875
30
0
41
1
10
49.0630187015259
20
2.81991576005802
30
0
41
1
10
48.9633747169389
20
2.80881420587153
30
0
41
1
10
48.9134538558373
20
2.80260416772623
30
0
41
1
10
48.6637326738379
20
2.76829994063488
30
0
41
1
10
48.4654691773195
20
2.73069408763084
30
0
41
1
10
48.1685607401401
20
2.66030468844633
30
0
41
1
10
48.0697184722673
20
2.63449228548555
30
0
41
1
10
47.8719441743082
20
2.5784368303803
30
0
41
1
10
47.7731083193211
20
2.54814589066154
30
0
41
1
10
47.477044494913
20
2.45026733086794
30
0
41
1
10
47.2799946968138
20
2.37581588710091
30
0
41
1
10
46.9833931498095
20
2.25120292783788
30
0
41
1
10
46.88435159109
20
2.20751474441511
30
0
41
1
10
46.7697130892693
20
2.1547154029569
30
0
41
1
10
46.754406646779
20
2.14761987041572
30
0
41
1
10
46.7390921260751
20
2.14047540949724
30
0
0
SPLINE
5
19A
100
AcDbEntity
8
1
62
256
6
ByLayer
370
18
48
1
60
0
100
AcDbSpline
70
4
71
3
72
20
73
16
40
0
40
0
40
0
40
0
40
0.116830570345482
40
0.116830570345482
40
0.242997631724697
40
0.242997631724697
40
0.495331754483131
40
0.495331754483131
40
0.55841528517274
40
0.55841528517274
40
0.621498815862349
40
0.621498815862349
40
0.747665877241566
40
0.747665877241566
40
1
40
1
40
1
40
1
41
1
10
36.950571122511
20
-2.84999996193318
30
0
41
1
10
36.8579745315864
20
-2.85000574814046
30
0
41
1
10
36.7656931127798
20
-2.84777133051969
30
0
41
1
10
36.5743462663023
20
-2.83852715784982
30
0
41
1
10
36.4753005717837
20
-2.83114992092584
30
0
41
1
10
36.1786898653167
20
-2.80143148773672
30
0
41
1
10
35.981651556995
20
-2.77149290498932
30
0
41
1
10
35.7349747043207
20
-2.72205567660796
30
0
41
1
10
35.6856221142082
20
-2.71156753503101
30
0
41
1
10
35.5868339207132
20
-2.68941771801983
30
0
41
1
10
35.5373782317304
20
-2.67776688105153
30
0
41
1
10
35.3890387188898
20
-2.64098494075483
30
0
41
1
10
35.2901686503318
20
-2.61402504598857
30
0
41
1
10
34.9932520146617
20
-2.52590270985982
30
0
41
1
10
34.7949034011954
20
-2.45748344637926
30
0
41
1
10
34.5951002568622
20
-2.37974516169166
30
0
0
SPLINE
5
19B
100
AcDbEntity
8
1
62
256
6
ByLayer
370
18
48
1
60
0
100
AcDbSpline
70
4
71
3
72
20
73
16
40
0
40
0
40
0
40
0
40
0.339040477540606
40
0.339040477540606
40
0.423800596925754
40
0.423800596925754
40
0.508560716310902
40
0.508560716310902
40
0.678080955081199
40
0.678080955081199
40
0.76284107446635
40
0.76284107446635
40
0.847601193851502
40
0.847601193851502
40
1
40
1
40
1
40
1
41
1
10
32.3959805178157
20
-2.69695509769562
30
0
41
1
10
32.6184243667546
20
-2.64636150777173
30
0
41
1
10
32.8409091778003
20
-2.58402694621401
30
0
41
1
10
33.1195284478054
20
-2.49195165561915
30
0
41
1
10
33.1752767626666
20
-2.47282499400839
30
0
41
1
10
33.2868217198636
20
-2.43313927200359
30
0
41
1
10
33.3426658789457
20
-2.41255978998655
30
0
41
1
10
33.5099009474314
20
-2.34879478994219
30
0
41
1
10
33.6208521303253
20
-2.30366138454255
30
0
41
1
10
33.7865367874918
20
-2.23209001994951
30
0
41
1
10
33.8415681343756
20
-2.20751889843592
30
0
41
1
10
33.9516142142586
20
-2.15729521655655
30
0
41
1
10
34.0066453841046
20
-2.13166070958613
30
0
41
1
10
34.1606308974955
20
-2.05848637310731
30
0
41
1
10
34.2595735238489
20
-2.00977321415198
30
0
41
1
10
34.3585433407221
20
-1.95943692125212
30
0
0
SPLINE
5
19C
100
AcDbEntity
8
1
62
256
6
ByLayer
370
18
48
1
60
0
100
AcDbSpline
70
4
71
3
72
77
73
73
40
0
40
0
40
0
40
0
40
0.0192762935500575
40
0.0192762935500575
40
0.0530943523931598
40
0.0530943523931598
40
0.070003381814711
40
0.070003381814711
40
0.0869124112362621
40
0.0869124112362621
40
0.120730470079364
40
0.120730470079364
40
0.154548528922467
40
0.154548528922467
40
0.188366587765569
40
0.188366587765569
40
0.222184646608671
40
0.222184646608671
40
0.239093676030221
40
0.239093676030221
40
0.256002705451771
40
0.256002705451771
40
0.323638823137967
40
0.323638823137967
40
0.357456881981067
40
0.357456881981067
40
0.391274940824166
40
0.391274940824166
40
0.408183970245717
40
0.408183970245717
40
0.425092999667269
40
0.425092999667269
40
0.458911058510369
40
0.458911058510369
40
0.492729117353468
40
0.492729117353468
40
0.526547176196568
40
0.526547176196568
40
0.560365235039667
40
0.560365235039667
40
0.594183293882767
40
0.594183293882767
40
0.611092323304319
40
0.611092323304319
40
0.62800135272587
40
0.644910382147421
40
0.644910382147421
40
0.661819411568972
40
0.661819411568972
40
0.695637470412075
40
0.695637470412075
40
0.729455529255178
40
0.729455529255178
40
0.76327358809828
40
0.76327358809828
40
0.780182617519831
40
0.780182617519831
40
0.797091646941383
40
0.797091646941383
40
0.86472776462759
40
0.86472776462759
40
0.881636794049141
40
0.881636794049141
40
0.898545823470692
40
0.898545823470692
40
0.932363882313795
40
0.932363882313795
40
0.966181941156899
40
0.966181941156899
40
0.98309097057845
40
0.98309097057845
40
1
40
1
40
1
40
1
41
1
10
43.815325584093
20
2.85000064992738
30
0
41
1
10
43.8781560698149
20
2.84998889235158
30
0
41
1
10
43.9409326411956
20
2.8489614934573
30
0
41
1
10
44.1137074166295
20
2.8433332576549
30
0
41
1
10
44.2236105416353
20
2.83662545133987
30
0
41
1
10
44.3881511028684
20
2.8217645454682
30
0
41
1
10
44.4429468415605
20
2.81600775169846
30
0
41
1
10
44.5526286825647
20
2.80291454502887
30
0
41
1
10
44.6075625143346
20
2.79559122123126
30
0
41
1
10
44.7727103106874
20
2.77133312609561
30
0
41
1
10
44.8831839806237
20
2.75208799397669
30
0
41
1
10
45.1049667201532
20
2.70749932732471
30
0
41
1
10
45.2162879972363
20
2.68216199377116
30
0
41
1
10
45.4398421350283
20
2.62534551184029
30
0
41
1
10
45.5512223751625
20
2.59407747302842
30
0
41
1
10
45.7730738360914
20
2.52590912371488
30
0
41
1
10
45.8835741054416
20
2.48901278499565
30
0
41
1
10
46.0486617707279
20
2.42940937605545
30
0
41
1
10
46.1035781437818
20
2.40882853378329
30
0
41
1
10
46.2132533729291
20
2.36628367122614
30
0
41
1
10
46.268028399043
20
2.34433075143752
30
0
41
1
10
46.5423200395079
20
2.23179425459398
30
0
41
1
10
46.7622510636678
20
2.13227018916902
30
0
41
1
10
47.0933965057013
20
1.96954569879432
30
0
41
1
10
47.2039796797679
20
1.91304958266744
30
0
41
1
10
47.4256198066132
20
1.79556256146782
30
0
41
1
10
47.5366766696172
20
1.73457382026726
30
0
41
1
10
47.7035886779761
20
1.63956530662961
30
0
41
1
10
47.7593406134958
20
1.6072724917023
30
0
41
1
10
47.8703630685569
20
1.54175961914004
30
0
41
1
10
47.9256841377594
20
1.50850792396352
30
0
41
1
10
48.0914245408478
20
1.40770676973895
30
0
41
1
10
48.2017954295438
20
1.33933670574325
30
0
41
1
10
48.4223424445843
20
1.20039467965955
30
0
41
1
10
48.532569366865
20
1.12988848316414
30
0
41
1
10
48.7530549629882
20
0.98702071707109
30
0
41
1
10
48.8632761455574
20
0.914609801574244
30
0
41
1
10
49.0836150803829
20
0.767758436298635
30
0
41
1
10
49.1937569214977
20
0.693350523668471
30
0
41
1
10
49.4140420182137
20
0.54262337356397
30
0
41
1
10
49.52418935224
20
0.466310790795461
30
0
41
1
10
49.6893677109592
20
0.350297905288301
30
0
41
1
10
49.7444071942848
20
0.311349408329704
30
0
41
1
10
49.8548003857545
20
0.233410064294446
30
0
41
1
10
49.965469613169
20
0.155374389422718
30
0
41
1
10
50.0767117456051
20
0.0771794788131785
30
0
41
1
10
50.1882478762292
20
-0.0010845080024922
30
0
41
1
10
50.2439556532566
20
-0.0401053575976107
30
0
41
1
10
50.4108364056596
20
-0.156797067196265
30
0
41
1
10
50.5218004548966
20
-0.234109917554861
30
0
41
1
10
50.7432526938261
20
-0.387660141436783
30
0
41
1
10
50.8537408181841
20
-0.463898208036227
30
0
41
1
10
51.0742158195259
20
-0.61534474721492
30
0
41
1
10
51.1842029088208
20
-0.69055231666826
30
0
41
1
10
51.3488680776223
20
-0.802487490144529
30
0
41
1
10
51.4036986173203
20
-0.83966022808039
30
0
41
1
10
51.5132980851548
20
-0.913647842981362
30
0
41
1
10
51.5681118547032
20
-0.950400656934477
30
0
41
1
10
51.8426531887063
20
-1.13241536673738
30
0
41
1
10
52.0633687818546
20
-1.27303103225646
30
0
41
1
10
52.3412736779302
20
-1.44168545338016
30
0
41
1
10
52.396951950583
20
-1.47506407290112
30
0
41
1
10
52.5085126652553
20
-1.54110035702732
30
0
41
1
10
52.5644270108664
20
-1.57377570122398
30
0
41
1
10
52.7318571721521
20
-1.67034892885616
30
0
41
1
10
52.8432409833019
20
-1.73291517437275
30
0
41
1
10
53.0655198061087
20
-1.85439758631622
30
0
41
1
10
53.1763458264674
20
-1.91338142050722
30
0
41
1
10
53.3426224950153
20
-1.99861978288155
30
0
41
1
10
53.3980745171434
20
-2.02647263542053
30
0
41
1
10
53.5091924014534
20
-2.08090153970522
30
0
41
1
10
53.5648456192762
20
-2.10749121314603
30
0
41
1
10
53.6205899268004
20
-2.13346246873724
30
0
0
SPLINE
5
19D
100
AcDbEntity
8
1
62
256
6
ByLayer
370
18
48
1
60
0
100
AcDbSpline
70
4
71
3
72
28
73
24
40
0
40
0
40
0
40
0
40
0.124999999999983
40
0.124999999999983
40
0.249999999999967
40
0.249999999999967
40
0.37499999999995
40
0.37499999999995
40
0.437499999999955
40
0.437499999999955
40
0.49999999999996
40
0.49999999999996
40
0.62499999999997
40
0.62499999999997
40
0.74999999999998
40
0.74999999999998
40
0.812499999999985
40
0.812499999999985
40
0.87499999999999
40
0.87499999999999
40
0.937499999999995
40
0.937499999999995
40
1
40
1
40
1
40
1
41
1
10
53.6205899268004
20
-2.13346246873726
30
0
41
1
10
53.6620885107619
20
-2.15279664613775
30
0
41
1
10
53.7032950522859
20
-2.173651565195
30
0
41
1
10
53.7849465103038
20
-2.21848996701655
30
0
41
1
10
53.8253931878556
20
-2.24247073809846
30
0
41
1
10
53.9054136687854
20
-2.29368711741927
30
0
41
1
10
53.9449879019569
20
-2.32092049880876
30
0
41
1
10
54.0036342469291
20
-2.36439200197299
30
0
41
1
10
54.0231066175361
20
-2.37935503141074
30
0
41
1
10
54.0615679904683
20
-2.41001296881126
30
0
41
1
10
54.0805467430997
20
-2.42569670889426
30
0
41
1
10
54.136718534061
20
-2.47383629853459
30
0
41
1
10
54.1731494015093
20
-2.50737453031357
30
0
41
1
10
54.2438869791311
20
-2.57758896239301
30
0
41
1
10
54.2781954736485
20
-2.61426068250515
30
0
41
1
10
54.3279177433245
20
-2.67199139920388
30
0
41
1
10
54.3441138249884
20
-2.69159549450043
30
0
41
1
10
54.3754584157719
20
-2.73122439990686
30
0
41
1
10
54.3906477064425
20
-2.751294863884
30
0
41
1
10
54.420031907998
20
-2.79193460896258
30
0
41
1
10
54.4342020740062
20
-2.81253251441214
30
0
41
1
10
54.461324891322
20
-2.85445191324743
30
0
41
1
10
54.4742903352538
20
-2.8757583070628
30
0
41
1
10
54.4866153305849
20
-2.89743815828552
30
0
0
SPLINE
5
19E
100
AcDbEntity
8
1
62
256
6
ByLayer
370
18
48
1
60
0
100
AcDbSpline
70
4
71
3
72
10
73
6
40
0
40
0
40
0
40
0
40
0.5
40
0.5
40
1
40
1
40
1
40
1
41
1
10
54.4866153305848
20
-2.89743815828547
30
0
41
1
10
54.5566512921885
20
-3.02063246278769
30
0
41
1
10
54.6258900944856
20
-3.14511467257856
30
0
41
1
10
54.7632133246597
20
-3.39634109743972
30
0
41
1
10
54.8312916967489
20
-3.52309283567263
30
0
41
1
10
54.8989637028918
20
-3.6508883754484
30
0
0
SPLINE
5
19F
100
AcDbEntity
8
1
62
256
6
ByLayer
370
18
48
1
60
0
100
AcDbSpline
70
4
71
3
72
8
73
4
40
0
40
0
40
0
40
0
40
1
40
1
40
1
40
1
41
1
10
54.9342303784343
20
-3.66639377507377
30
0
41
1
10
54.9224786459637
20
-3.66127094932105
30
0
41
1
10
54.9107231885227
20
-3.65610241728578
30
0
41
1
10
54.8989637028903
20
-3.65088837544769
30
0
0
SPLINE
5
1A0
100
AcDbEntity
8
1
62
256
6
ByLayer
370
18
48
1
60
0
100
AcDbSpline
70
4
71
3
72
8
73
4
40
0
40
0
40
0
40
0
40
1
40
1
40
1
40
1
41
1
10
56.2492632538955
20
-4.03426367416395
30
0
41
1
10
56.2079873877958
20
-4.0292643455077
30
0
41
1
10
56.1667288896174
20
-4.023647223539
30
0
41
1
10
56.1254866736552
20
-4.01741587175724
30
0
0
SPLINE
5
1A1
100
AcDbEntity
8
1
62
256
6
ByLayer
370
18
48
1
60
0
100
AcDbSpline
70
4
71
3
72
12
73
8
40
0
40
0
40
0
40
0
40
0.0901329756408212
40
0.0901329756408212
40
0.545066487820411
40
0.545066487820411
40
1
40
1
40
1
40
1
41
1
10
53.88365508072
20
-2.88522137620836
30
0
41
1
10
53.8759851130928
20
-2.88312861939753
30
0
41
1
10
53.8682843339604
20
-2.88110899292482
30
0
41
1
10
53.8215353112394
20
-2.86934140228567
30
0
41
1
10
53.7816614759751
20
-2.86139319040569
30
0
41
1
10
53.7014995551739
20
-2.84955073449382
30
0
41
1
10
53.6611339328014
20
-2.84562557805404
30
0
41
1
10
53.6205899268004
20
-2.84372966751025
30
0
0
SPLINE
5
1A2
100
AcDbEntity
8
1
62
256
6
ByLayer
370
18
48
1
60
0
100
AcDbSpline
70
4
71
3
72
83
73
79
40
0
40
0
40
0
40
0
40
0.0193502196075823
40
0.0193502196075823
40
0.0387004392151647
40
0.0387004392151647
40
0.0774008784303311
40
0.0774008784303311
40
0.116101317645498
40
0.116101317645498
40
0.135451537253081
40
0.135451537253081
40
0.154801756860664
40
0.154801756860664
40
0.193502196075829
40
0.193502196075829
40
0.232202635290993
40
0.232202635290993
40
0.251552854898574
40
0.251552854898574
40
0.261227964702365
40
0.261227964702365
40
0.270903074506156
40
0.270903074506156
40
0.290253294113737
40
0.299928403917528
40
0.299928403917528
40
0.309603513721319
40
0.309603513721319
40
0.348303952936487
40
0.348303952936487
40
0.367654172544071
40
0.367654172544071
40
0.387004392151655
40
0.387004392151655
40
0.425704831366823
40
0.425704831366823
40
0.445055050974408
40
0.445055050974408
40
0.464405270581993
40
0.464405270581993
40
0.483755490189577
40
0.483755490189577
40
0.503105709797163
40
0.503105709797163
40
0.541806149012332
40
0.541806149012332
40
0.580506588227502
40
0.580506588227502
40
0.599856807835087
40
0.599856807835087
40
0.619207027442672
40
0.619207027442672
40
0.65790746665784
40
0.65790746665784
40
0.696607905873008
40
0.696607905873008
40
0.715958125480591
40
0.715958125480591
40
0.735308345088174
40
0.735308345088174
40
0.774008784303341
40
0.774008784303341
40
0.812709223518507
40
0.812709223518507
40
0.83205944312609
40
0.83205944312609
40
0.851409662733673
40
0.851409662733673
40
0.890110101948839
40
0.890110101948839
40
0.928810541164005
40
0.928810541164005
40
0.948160760771588
40
0.948160760771588
40
0.96751098037917
40
0.96751098037917
40
1
40
1
40
1
40
1
41
1
10
53.6205899268004
20
-2.84372966751025
30
0
41
1
10
53.5205756242258
20
-2.83905281908108
30
0
41
1
10
53.4208504059908
20
-2.83178565404381
30
0
41
1
10
53.2217237637808
20
-2.81225714687895
30
0
41
1
10
53.12237100293
20
-2.79999193189286
30
0
41
1
10
52.8251331000348
20
-2.75571874215581
30
0
41
1
10
52.6280195153344
20
-2.71621256850003
30
0
41
1
10
52.2339187577427
20
-2.6179727847659
30
0
41
1
10
52.0369082789743
20
-2.55925209724612
30
0
41
1
10
51.7399966568242
20
-2.45758077325107
30
0
41
1
10
51.6407951889268
20
-2.42142637358379
30
0
41
1
10
51.4416867929932
20
-2.34475286828203
30
0
41
1
10
51.3417457651344
20
-2.30423077957002
30
0
41
1
10
51.0414252124164
20
-2.17575336334224
30
0
41
1
10
50.8429471428183
20
-2.08214045760889
30
0
41
1
10
50.4475137289108
20
-1.88114202356266
30
0
41
1
10
50.2505520210333
20
-1.7737604837443
30
0
41
1
10
49.954697185449
20
-1.60422153276375
30
0
41
1
10
49.8560056810245
20
-1.54630461959383
30
0
41
1
10
49.7076700545543
20
-1.45756809804797
30
0
41
1
10
49.6581683123489
20
-1.42768826304538
30
0
41
1
10
49.559157023417
20
-1.36719332241483
30
0
41
1
10
49.509646170518
20
-1.336579109502
30
0
41
1
10
49.3610353104798
20
-1.24370447652186
30
0
41
1
10
49.2122740814688
20
-1.14875782741959
30
0
41
1
10
49.0630187015259
20
-1.05098543398046
30
0
41
1
10
48.9633747169389
20
-0.985209112648931
30
0
41
1
10
48.9134538558373
20
-0.95200426487358
30
0
41
1
10
48.6637326738379
20
-0.784784044641071
30
0
41
1
10
48.4654691773195
20
-0.64845071073421
30
0
41
1
10
48.1685607401401
20
-0.442681232518055
30
0
41
1
10
48.0697184722674
20
-0.373814084735926
30
0
41
1
10
47.8719441743082
20
-0.236021432859161
30
0
41
1
10
47.773108319321
20
-0.166958377122171
30
0
41
1
10
47.477044494913
20
0.0411485362511144
30
0
41
1
10
47.2799946968138
20
0.180729913277503
30
0
41
1
10
46.9833931498095
20
0.389194443396406
30
0
41
1
10
46.8843515910899
20
0.458526578218852
30
0
41
1
10
46.6856712704519
20
0.5965214628674
30
0
41
1
10
46.5859895249417
20
0.665216487517824
30
0
41
1
10
46.3859553354175
20
0.801444720993743
30
0
41
1
10
46.2862364341229
20
0.868559539209372
30
0
41
1
10
46.0870536362016
20
1.00039041452717
30
0
41
1
10
45.9877271236633
20
1.06530152147002
30
0
41
1
10
45.6906202854091
20
1.25714991885138
30
0
41
1
10
45.4935814874269
20
1.38100898019553
30
0
41
1
10
45.0995546320433
20
1.61805148666733
30
0
41
1
10
44.9025784896343
20
1.7312474683888
30
0
41
1
10
44.6055721959588
20
1.89116440366013
30
0
41
1
10
44.5062883554324
20
1.94279998797663
30
0
41
1
10
44.3070664755158
20
2.04262443392878
30
0
41
1
10
44.2071853217764
20
2.09093236338865
30
0
41
1
10
43.9070032940229
20
2.23068417788602
30
0
41
1
10
43.7085715661459
20
2.31560496603271
30
0
41
1
10
43.3131239649396
20
2.46764824174127
30
0
41
1
10
43.116136676098
20
2.5347903373372
30
0
41
1
10
42.8202406177774
20
2.62137357384108
30
0
41
1
10
42.7215150689088
20
2.64786917019364
30
0
41
1
10
42.5237108851544
20
2.69607736297363
30
0
41
1
10
42.4247596810673
20
2.71785599509101
30
0
41
1
10
42.1276901953027
20
2.77606683526477
30
0
41
1
10
41.9292539474501
20
2.80531271632648
30
0
41
1
10
41.5295645480803
20
2.84321888781687
30
0
41
1
10
41.3311798648058
20
2.85160055894741
30
0
41
1
10
41.0341744985319
20
2.84882251463321
30
0
41
1
10
40.9352170933169
20
2.8453479904147
30
0
41
1
10
40.7374555413647
20
2.83338158580381
30
0
41
1
10
40.638688764846
20
2.82488342482108
30
0
41
1
10
40.3427002969845
20
2.79180842107962
30
0
41
1
10
40.1456815543898
20
2.75964839519187
30
0
41
1
10
39.7502340016154
20
2.67538244313349
30
0
41
1
10
39.5518012188706
20
2.62328008725686
30
0
41
1
10
39.2515903478541
20
2.53063172242787
30
0
41
1
10
39.1517631562495
20
2.4975632091402
30
0
41
1
10
38.9525719990238
20
2.42726159635677
30
0
41
1
10
38.8532959210164
20
2.38994808647942
30
0
41
1
10
38.5880223741535
20
2.2843481030981
30
0
41
1
10
38.4224712365307
20
2.2122403012167
30
0
41
1
10
38.2570368013402
20
2.13474260331927
30
0
0
SPLINE
5
1A3
100
AcDbEntity
8
1
62
256
6
ByLayer
370
18
48
1
60
0
100
AcDbSpline
70
4
71
3
72
119
73
115
40
0
40
0
40
0
40
0
40
0.0045284100039665
40
0.0045284100039665
40
0.0151088529770855
40
0.0151088529770855
40
0.0256892959502045
40
0.0256892959502045
40
0.0362697389233235
40
0.0362697389233235
40
0.0468501818964425
40
0.0680110678426796
40
0.0680110678426796
40
0.110332839735154
40
0.110332839735154
40
0.120913282708272
40
0.120913282708272
40
0.131493725681391
40
0.131493725681391
40
0.152654611627627
40
0.152654611627627
40
0.173815497573863
40
0.173815497573863
40
0.184395940546982
40
0.184395940546982
40
0.194976383520101
40
0.194976383520101
40
0.216137269466338
40
0.216137269466338
40
0.237298155412575
40
0.237298155412575
40
0.247878598385694
40
0.247878598385694
40
0.258459041358813
40
0.279619927305051
40
0.279619927305051
40
0.300780813251289
40
0.300780813251289
40
0.321941699197527
40
0.321941699197527
40
0.332522142170647
40
0.332522142170647
40
0.343102585143767
40
0.343102585143767
40
0.364263471090005
40
0.364263471090005
40
0.406585242982479
40
0.406585242982479
40
0.448907014874953
40
0.448907014874953
40
0.459487457848072
40
0.459487457848072
40
0.470067900821192
40
0.470067900821192
40
0.48064834379431
40
0.48064834379431
40
0.49122878676743
40
0.49122878676743
40
0.512389672713668
40
0.512389672713668
40
0.533550558659906
40
0.533550558659906
40
0.554711444606144
40
0.554711444606144
40
0.575872330552382
40
0.575872330552382
40
0.586452773525501
40
0.586452773525501
40
0.59703321649862
40
0.59703321649862
40
0.618194102444858
40
0.618194102444858
40
0.639354988391096
40
0.639354988391096
40
0.660515874337334
40
0.660515874337334
40
0.681676760283572
40
0.681676760283572
40
0.692257203256692
40
0.692257203256692
40
0.702837646229812
40
0.702837646229812
40
0.745159418122293
40
0.745159418122293
40
0.766320304068533
40
0.766320304068533
40
0.787481190014773
40
0.787481190014773
40
0.798061632987894
40
0.798061632987894
40
0.808642075961014
40
0.808642075961014
40
0.829802961907256
40
0.829802961907256
40
0.850963847853498
40
0.850963847853498
40
0.872124733799739
40
0.872124733799739
40
0.893285619745981
40
0.893285619745981
40
0.914446505692223
40
0.914446505692223
40
0.925026948665342
40
0.925026948665342
40
0.935607391638462
40
0.946187834611582
40
0.946187834611582
40
0.956768277584702
40
0.956768277584702
40
0.977929163530944
40
0.977929163530944
40
0.999090049477185
40
0.999090049477185
40
1
40
1
40
1
40
1
41
1
10
35.3137961735281
20
2.85000054079612
30
0
41
1
10
35.3374498799254
20
2.85000353932352
30
0
41
1
10
35.3611068915974
20
2.84986086462092
30
0
41
1
10
35.4400475818064
20
2.84889560163825
30
0
41
1
10
35.4953419472103
20
2.84741775760068
30
0
41
1
10
35.6059574667059
20
2.84281714400407
30
0
41
1
10
35.6613046759885
20
2.83969252885993
30
0
41
1
10
35.7724642823293
20
2.83183554281973
30
0
41
1
10
35.8281079105407
20
2.82710325689109
30
0
41
1
10
35.9391698062583
20
2.81608754514752
30
0
41
1
10
36.1055954602288
20
2.79722716486262
30
0
41
1
10
36.2715843080178
20
2.77150715039622
30
0
41
1
10
36.6030647501722
20
2.71115769210121
30
0
41
1
10
36.8234269834057
20
2.65910996753161
30
0
41
1
10
37.098266117433
20
2.5793046340824
30
0
41
1
10
37.1532063247145
20
2.56260431464878
30
0
41
1
10
37.263028500805
20
2.52770599233347
30
0
41
1
10
37.3178724349121
20
2.50948173786037
30
0
41
1
10
37.4824412563064
20
2.45260868977746
30
0
41
1
10
37.5925525353902
20
2.41201453738364
30
0
41
1
10
37.8136445212377
20
2.3255852144901
30
0
41
1
10
37.9246324756478
20
2.27975650772356
30
0
41
1
10
38.0918176610449
20
2.20710412163354
30
0
41
1
10
38.1477306427622
20
2.18219944728179
30
0
41
1
10
38.2593005609878
20
2.13130805083873
30
0
41
1
10
38.3149873282298
20
2.10531139286962
30
0
41
1
10
38.4817695027851
20
2.02569894045749
30
0
41
1
10
38.5925902148552
20
1.97046668184541
30
0
41
1
10
38.8134921466176
20
1.85570607679389
30
0
41
1
10
38.9235592105878
20
1.79616101311655
30
0
41
1
10
39.0881645530802
20
1.70365519934714
30
0
41
1
10
39.1429451216652
20
1.67228080492183
30
0
41
1
10
39.2525833849424
20
1.60874998347009
30
0
41
1
10
39.4171438242772
20
1.5122690533284
30
0
41
1
10
39.5820819599626
20
1.41235968660871
30
0
41
1
10
39.8024601193545
20
1.27629264236785
30
0
41
1
10
39.9128759851733
20
1.20682763834634
30
0
41
1
10
40.1342581651347
20
1.06515071042671
30
0
41
1
10
40.2452235802831
20
0.992938797679045
30
0
41
1
10
40.4120883145308
20
0.882512810782458
30
0
41
1
10
40.4677797602308
20
0.84535285894259
30
0
41
1
10
40.5792999277321
20
0.770310133010156
30
0
41
1
10
40.6349576074707
20
0.732542068172847
30
0
41
1
10
40.8013769456141
20
0.618620561736975
30
0
41
1
10
40.9116556049771
20
0.541746069032286
30
0
41
1
10
41.2421441407023
20
0.310735135974426
30
0
41
1
10
41.4623857700824
20
0.156757741304404
30
0
41
1
10
41.9030205482761
20
-0.150689202177062
30
0
41
1
10
42.1234941935138
20
-0.304042765777268
30
0
41
1
10
42.3992125632817
20
-0.495367028764463
30
0
41
1
10
42.454362690434
20
-0.533613237269378
30
0
41
1
10
42.5646781360557
20
-0.610064708373756
30
0
41
1
10
42.6198371718599
20
-0.648278994922663
30
0
41
1
10
42.7303229941461
20
-0.724446718617259
30
0
41
1
10
42.785684339719
20
-0.762350443453244
30
0
41
1
10
42.8967362804544
20
-0.837664750376291
30
0
41
1
10
42.9524849403456
20
-0.875135824784962
30
0
41
1
10
43.1194365961859
20
-0.986319066054705
30
0
41
1
10
43.2304906172043
20
-1.05889728893894
30
0
41
1
10
43.4521071328496
20
-1.20107699427297
30
0
41
1
10
43.5626601833749
20
-1.2706891404149
30
0
41
1
10
43.7834124142971
20
-1.40680006430529
30
0
41
1
10
43.8936121613391
20
-1.47329921446149
30
0
41
1
10
44.1137074166295
20
-1.60312192016758
30
0
41
1
10
44.2236105416353
20
-1.66643823372721
30
0
41
1
10
44.3881511028684
20
-1.75907718257517
30
0
41
1
10
44.4429468415606
20
-1.78956414856765
30
0
41
1
10
44.5526286825647
20
-1.84952593341981
30
0
41
1
10
44.6075625143347
20
-1.87894823286928
30
0
41
1
10
44.7727103106874
20
-1.96547837772186
30
0
41
1
10
44.8831839806237
20
-2.02094561507136
30
0
41
1
10
45.1049667201532
20
-2.1273612498936
30
0
41
1
10
45.2162879972363
20
-2.17829783794448
30
0
41
1
10
45.4398421350283
20
-2.2755317628212
30
0
41
1
10
45.5512223751625
20
-2.32146898274991
30
0
41
1
10
45.7730738360913
20
-2.40804106754516
30
0
41
1
10
45.8835741054416
20
-2.44867249974527
30
0
41
1
10
46.0486617707279
20
-2.50562875118453
30
0
41
1
10
46.1035781437817
20
-2.5239490204614
30
0
41
1
10
46.2132533729291
20
-2.55920118579431
30
0
41
1
10
46.268028399043
20
-2.57612040585948
30
0
41
1
10
46.5423200395079
20
-2.65676425200917
30
0
41
1
10
46.7622510636678
20
-2.70922572141183
30
0
41
1
10
47.0933965057013
20
-2.76998804292171
30
0
41
1
10
47.203979679768
20
-2.78724703529318
30
0
41
1
10
47.4256198066133
20
-2.8156783790495
30
0
41
1
10
47.5366766696172
20
-2.82685343964533
30
0
41
1
10
47.7035886779761
20
-2.83891381255998
30
0
41
1
10
47.7593406134959
20
-2.84215031405225
30
0
41
1
10
47.8703630685569
20
-2.84699787239373
30
0
41
1
10
47.9256841377594
20
-2.848611701929
30
0
41
1
10
48.0914245408478
20
-2.85100779927794
30
0
41
1
10
48.2017954295438
20
-2.84935277381132
30
0
41
1
10
48.4223424445843
20
-2.83976889331592
30
0
41
1
10
48.532569366865
20
-2.83184265914616
30
0
41
1
10
48.7530549629881
20
-2.80989914323882
30
0
41
1
10
48.8632761455573
20
-2.79587733812082
30
0
41
1
10
49.0836150803829
20
-2.7617384652722
30
0
41
1
10
49.1937569214977
20
-2.74162697509181
30
0
41
1
10
49.4140420182137
20
-2.69525781369683
30
0
41
1
10
49.52418935224
20
-2.66900476822036
30
0
41
1
10
49.6893677109591
20
-2.6248400359718
30
0
41
1
10
49.7444071942848
20
-2.60930887315521
30
0
41
1
10
49.8548003857545
20
-2.57681972097822
30
0
41
1
10
49.9654696130191
20
-2.54288723439376
30
0
41
1
10
50.0767117456052
20
-2.50608972632457
30
0
41
1
10
50.1882478762291
20
-2.46786265753261
30
0
41
1
10
50.2439556532566
20
-2.44810539739825
30
0
41
1
10
50.4108364056597
20
-2.38695711727692
30
0
41
1
10
50.5218004548966
20
-2.3436854704203
30
0
41
1
10
50.743252693826
20
-2.25231766829233
30
0
41
1
10
50.8537408181841
20
-2.20422294560336
30
0
41
1
10
50.9687187003127
20
-2.1515440468898
30
0
41
1
10
50.9734586187269
20
-2.14936770460813
30
0
41
1
10
50.9781980772861
20
-2.1471869000936
30
0
0
SPLINE
5
1A4
100
AcDbEntity
8
1
62
256
6
ByLayer
370
18
48
1
60
0
100
AcDbSpline
70
4
71
3
72
10
73
6
40
0
40
0
40
0
40
0
40
0.5
40
0.5
40
1
40
1
40
1
40
1
41
1
10
63.3018510242727
20
0.850264661124356
30
0
41
1
10
63.2293655872608
20
0.922905363485512
30
0
41
1
10
63.1564076881603
20
0.98920055521117
30
0
41
1
10
63.0091472528017
20
1.10869608848378
30
0
41
1
10
62.9350949897419
20
1.16169404885042
30
0
41
1
10
62.8604083618663
20
1.20771300884155
30
0
0
SPLINE
5
1A5
100
AcDbEntity
8
1
62
256
6
ByLayer
370
18
48
1
60
0
100
AcDbSpline
70
4
71
3
72
8
73
4
40
0
40
0
40
0
40
0
40
1
40
1
40
1
40
1
41
1
10
61.9860573976143
20
2.07554425170409
30
0
41
1
10
62.0276599759423
20
2.03961911425713
30
0
41
1
10
62.0692430315228
20
2.00337545965186
30
0
41
1
10
62.1108198371229
20
1.96682516030748
30
0
0
SPLINE
5
1A6
100
AcDbEntity
8
1
62
256
6
ByLayer
370
18
48
1
60
0
100
AcDbSpline
70
4
71
3
72
8
73
4
40
0
40
0
40
0
40
0
40
1
40
1
40
1
40
1
41
1
10
60.6717487241186
20
3.08210954858407
30
0
41
1
10
60.7128388058212
20
3.05519987592882
30
0
41
1
10
60.7539135066041
20
3.02782338140807
30
0
41
1
10
60.7949828162866
20
2.99998740014155
30
0
0
SPLINE
5
1A7
100
AcDbEntity
8
1
62
256
6
ByLayer
370
18
48
1
60
0
100
AcDbSpline
70
4
71
3
72
8
73
4
40
0
40
0
40
0
40
0
40
1
40
1
40
1
40
1
41
1
10
59.3572413650853
20
3.76645507659273
30
0
41
1
10
59.3985309425267
20
3.75087302717071
30
0
41
1
10
59.4398054857233
20
3.73470875360164
30
0
41
1
10
59.4810747565548
20
3.71796699048482
30
0
0
SPLINE
5
1A8
100
AcDbEntity
8
1
62
256
6
ByLayer
370
18
48
1
60
0
100
AcDbSpline
70
4
71
3
72
8
73
4
40
0
40
0
40
0
40
0
40
1
40
1
40
1
40
1
41
1
10
58.0428790265071
20
4.05681842774817
30
0
41
1
10
58.0839373147673
20
4.05433325644691
30
0
41
1
10
58.124981650887
20
4.0512229223034
30
0
41
1
10
58.1660202729219
20
4.04748907709666
30
0
0
SPLINE
5
1A9
100
AcDbEntity
8
1
62
256
6
ByLayer
370
18
48
1
60
0
100
AcDbSpline
70
4
71
3
72
60
73
56
40
0
40
0
40
0
40
0
40
0.0113421312675813
40
0.0113421312675813
40
0.0662675684193834
40
0.0662675684193834
40
0.0937302869952831
40
0.0937302869952831
40
0.121193005571183
40
0.121193005571183
40
0.17611844272298
40
0.17611844272298
40
0.231043879874777
40
0.231043879874777
40
0.258506598450675
40
0.258506598450675
40
0.285969317026574
40
0.285969317026574
40
0.340894754178373
40
0.340894754178373
40
0.395820191330172
40
0.395820191330172
40
0.423282909906073
40
0.423282909906073
40
0.450745628481974
40
0.450745628481974
40
0.505671065633776
40
0.505671065633776
40
0.560596502785578
40
0.560596502785578
40
0.58805922136148
40
0.58805922136148
40
0.615521939937382
40
0.615521939937382
40
0.670447377089186
40
0.670447377089186
40
0.725372814240991
40
0.725372814240991
40
0.752835532816892
40
0.752835532816892
40
0.780298251392794
40
0.780298251392794
40
0.807760969968695
40
0.807760969968695
40
0.835223688544597
40
0.835223688544597
40
0.8901491256964
40
0.8901491256964
40
0.90388048498435
40
0.90388048498435
40
0.917611844272301
40
0.917611844272301
40
0.945074562848201
40
0.945074562848201
40
1
40
1
40
1
40
1
41
1
10
45.4186302982163
20
-2.84999864889679
30
0
41
1
10
45.3779358916477
20
-2.84999421789101
30
0
41
1
10
45.3372514347655
20
-2.84955395470078
30
0
41
1
10
45.0995546320433
20
-2.84443125248296
30
0
41
1
10
44.9025784896343
20
-2.82994411461996
30
0
41
1
10
44.6055721959588
20
-2.79305239776986
30
0
41
1
10
44.5062883554324
20
-2.77824162455528
30
0
41
1
10
44.3070664755158
20
-2.74360562673792
30
0
41
1
10
44.2071853217764
20
-2.72373808167433
30
0
41
1
10
43.9070032940229
20
-2.65637803912236
30
0
41
1
10
43.7085715661459
20
-2.60175839747504
30
0
41
1
10
43.3131239649396
20
-2.47461522666168
30
0
41
1
10
43.116136676098
20
-2.40207009659724
30
0
41
1
10
42.8202406177775
20
-2.28114872484835
30
0
41
1
10
42.7215150689088
20
-2.23884827676446
30
0
41
1
10
42.5237108851544
20
-2.15044167231699
30
0
41
1
10
42.4247596810673
20
-2.1042200451117
30
0
41
1
10
42.1276901953027
20
-1.9594608140923
30
0
41
1
10
41.9292539474501
20
-1.85490251707463
30
0
41
1
10
41.5295645480803
20
-1.63123036964922
30
0
41
1
10
41.3311798648058
20
-1.513742811637
30
0
41
1
10
41.0341744985319
20
-1.33125944552171
30
0
41
1
10
40.9352170933169
20
-1.26945746105829
30
0
41
1
10
40.7374555413647
20
-1.14385240085397
30
0
41
1
10
40.6386887648459
20
-1.07999989391502
30
0
41
1
10
40.3427002969845
20
-0.885317638824574
30
0
41
1
10
40.1456815543898
20
-0.751499666383353
30
0
41
1
10
39.7502340016154
20
-0.478457404397517
30
0
41
1
10
39.5518012188707
20
-0.339239415300028
30
0
41
1
10
39.2515903478541
20
-0.128423600438026
30
0
41
1
10
39.1517631562495
20
-0.0583345781315643
30
0
41
1
10
38.9525719990238
20
0.0812944767440911
30
0
41
1
10
38.8532959210164
20
0.150994044279742
30
0
41
1
10
38.5562370831004
20
0.359479278141151
30
0
41
1
10
38.3591950715034
20
0.497605385031221
30
0
41
1
10
37.9651242440112
20
0.769306705634733
30
0
41
1
10
37.7681020499444
20
0.902890845615161
30
0
41
1
10
37.4710670932925
20
1.09776208153201
30
0
41
1
10
37.3717633491568
20
1.16174666024224
30
0
41
1
10
37.1725772028231
20
1.28777366926053
30
0
41
1
10
37.0728277325718
20
1.34999215278904
30
0
41
1
10
36.8727256464119
20
1.47242138955079
30
0
41
1
10
36.7730450696848
20
1.53223146502035
30
0
41
1
10
36.5743462663023
20
1.64870095863762
30
0
41
1
10
36.4753005717836
20
1.70537357431562
30
0
41
1
10
36.1786898653167
20
1.8703153448877
30
0
41
1
10
35.981651556995
20
1.97350075054808
30
0
41
1
10
35.7349747043206
20
2.09286689711573
30
0
41
1
10
35.6856221142082
20
2.11626159799013
30
0
41
1
10
35.5868339207131
20
2.16205190627937
30
0
41
1
10
35.5373782317303
20
2.1844296143544
30
0
41
1
10
35.3890387188898
20
2.25020943973121
30
0
41
1
10
35.2901686503318
20
2.29224079175154
30
0
41
1
10
34.9932520146617
20
2.4124366374119
30
0
41
1
10
34.7949034011953
20
2.48469786337475
30
0
41
1
10
34.5951002568622
20
2.54799066262439
30
0
0
SPLINE
5
1AA
100
AcDbEntity
8
1
62
256
6
ByLayer
370
18
48
1
60
0
100
AcDbSpline
70
4
71
3
72
32
73
28
40
0
40
0
40
0
40
0
40
0.0410678056079149
40
0.0410678056079149
40
0.170838838837733
40
0.170838838837733
40
0.300609872067552
40
0.300609872067552
40
0.365495388682459
40
0.365495388682459
40
0.430380905297366
40
0.430380905297366
40
0.560151938527181
40
0.560151938527181
40
0.625037455142087
40
0.625037455142087
40
0.689922971756993
40
0.689922971756993
40
0.754808488371899
40
0.754808488371899
40
0.819694004986805
40
0.819694004986805
40
0.884579521601711
40
0.884579521601711
40
0.949465038216616
40
0.949465038216616
40
1
40
1
40
1
40
1
41
1
10
34.5951082666345
20
2.54798420885007
30
0
41
1
10
34.5743481143884
20
2.51315132039804
30
0
41
1
10
34.5520358694936
20
2.47708039420044
30
0
41
1
10
34.4528563637305
20
2.32230517333042
30
0
41
1
10
34.3651804889411
20
2.19754149988103
30
0
41
1
10
34.160906364479
20
1.93114852458103
30
0
41
1
10
34.0472821608743
20
1.79366276512644
30
0
41
1
10
33.8657900278507
20
1.59251152892327
30
0
41
1
10
33.8049276982829
20
1.52755452843715
30
0
41
1
10
33.6828012651505
20
1.39994515542676
30
0
41
1
10
33.6214953914617
20
1.33753238177334
30
0
41
1
10
33.4367710391318
20
1.15492157638948
30
0
41
1
10
33.3173519018556
20
1.04403815381585
30
0
41
1
10
33.1454872427601
20
0.895899454130557
30
0
41
1
10
33.089397689812
20
0.849593109991702
30
0
41
1
10
32.983100225254
20
0.765909948041781
30
0
41
1
10
32.9324101983197
20
0.728112140240682
30
0
41
1
10
32.8357543554917
20
0.660286320201152
30
0
41
1
10
32.7894965691773
20
0.63009289367784
30
0
41
1
10
32.7034483536658
20
0.578420486324404
30
0
41
1
10
32.6635863342354
20
0.556854932033133
30
0
41
1
10
32.5895431164455
20
0.521396219828631
30
0
41
1
10
32.554593431064
20
0.506465159652606
30
0
41
1
10
32.4945254019142
20
0.489881040639347
30
0
41
1
10
32.4703322195546
20
0.488449486857633
30
0
41
1
10
32.4361619586986
20
0.496106868079266
30
0
41
1
10
32.424182502036
20
0.503024315447448
30
0
41
1
10
32.4149967366175
20
0.513047821246516
30
0
0
SPLINE
5
1AB
100
AcDbEntity
8
1
62
256
6
ByLayer
370
18
48
1
60
0
100
AcDbSpline
70
4
71
3
72
73
73
69
40
0
40
0
40
0
40
0
40
0.0656534130950208
40
0.0656534130950208
40
0.0820667663687749
40
0.0820667663687749
40
0.0984801196425291
40
0.0984801196425291
40
0.131306826190037
40
0.131306826190037
40
0.147720179463792
40
0.147720179463792
40
0.164133532737546
40
0.164133532737546
40
0.196960239285054
40
0.196960239285054
40
0.262613652380069
40
0.262613652380069
40
0.295440358927577
40
0.295440358927577
40
0.311853712201332
40
0.311853712201332
40
0.328267065475086
40
0.328267065475086
40
0.34468041874884
40
0.34468041874884
40
0.361093772022595
40
0.361093772022595
40
0.393920478570104
40
0.393920478570104
40
0.459573891665123
40
0.459573891665123
40
0.475987244938878
40
0.475987244938878
40
0.492400598212633
40
0.492400598212633
40
0.525227304760143
40
0.525227304760143
40
0.558054011307652
40
0.558054011307652
40
0.574467364581407
40
0.574467364581407
40
0.590880717855161
40
0.590880717855161
40
0.623707424402669
40
0.623707424402669
40
0.656534130950177
40
0.656534130950177
40
0.672947484223931
40
0.672947484223931
40
0.689360837497684
40
0.72218754404519
40
0.72218754404519
40
0.755014250592695
40
0.755014250592695
40
0.787840957140201
40
0.787840957140201
40
0.804254310413952
40
0.804254310413952
40
0.820667663687704
40
0.820667663687704
40
0.853494370235204
40
0.853494370235204
40
0.919147783330204
40
0.919147783330204
40
0.984801196425204
40
0.984801196425204
40
1
40
1
40
1
40
1
41
1
10
32.3959805178157
20
0.550542776601446
30
0
41
1
10
32.6184243667546
20
0.396994295221702
30
0
41
1
10
32.8409091778003
20
0.242187663207943
30
0
41
1
10
33.1195284478054
20
0.047792853784955
30
0
41
1
10
33.1752767626665
20
0.0088675125725217
30
0
41
1
10
33.2868217198636
20
-0.0690777648524374
30
0
41
1
10
33.3426658789457
20
-0.108134876676871
30
0
41
1
10
33.5099009474315
20
-0.225183351100554
30
0
41
1
10
33.6208521303253
20
-0.302922064792824
30
0
41
1
10
33.7865367874918
20
-0.418995286213317
30
0
41
1
10
33.8415681343755
20
-0.457702588028098
30
0
41
1
10
33.9516142142586
20
-0.53460267312289
30
0
41
1
10
34.0066453841046
20
-0.572773106807801
30
0
41
1
10
34.1717477154113
20
-0.686482682619555
30
0
41
1
10
34.2818050768685
20
-0.761252745017657
30
0
41
1
10
34.6120930899947
20
-0.982311578095732
30
0
41
1
10
34.8325104931974
20
-1.12526972521056
30
0
41
1
10
35.1637100057144
20
-1.33274792457888
30
0
41
1
10
35.2742055806402
20
-1.40074375955726
30
0
41
1
10
35.4400475818064
20
-1.50100006247979
30
0
41
1
10
35.4953419472103
20
-1.534132267822
30
0
41
1
10
35.6059574667059
20
-1.59981051673719
30
0
41
1
10
35.6613046759885
20
-1.63232279868717
30
0
41
1
10
35.7724642823293
20
-1.69621603268575
30
0
41
1
10
35.8281079105407
20
-1.72761776232767
30
0
41
1
10
35.9391698062583
20
-1.78917414245206
30
0
41
1
10
35.9946449171613
20
-1.81935322270584
30
0
41
1
10
36.1609250761585
20
-1.90810310200601
30
0
41
1
10
36.2715843080178
20
-1.96489020407188
30
0
41
1
10
36.6030647501721
20
-2.1282013736313
30
0
41
1
10
36.8234269834058
20
-2.22767918937461
30
0
41
1
10
37.098266117433
20
-2.34007344415176
30
0
41
1
10
37.1532063247145
20
-2.36194877231304
30
0
41
1
10
37.263028500805
20
-2.40447982989457
30
0
41
1
10
37.3178724349121
20
-2.42516450302691
30
0
41
1
10
37.4824412563064
20
-2.48526013128233
30
0
41
1
10
37.5925525353902
20
-2.52245878621628
30
0
41
1
10
37.8136445212377
20
-2.59112914042402
30
0
41
1
10
37.9246324756478
20
-2.62259659168174
30
0
41
1
10
38.0918176610449
20
-2.6654515581431
30
0
41
1
10
38.1477306427622
20
-2.67902780501595
30
0
41
1
10
38.2593005609878
20
-2.70460366062161
30
0
41
1
10
38.3149873282298
20
-2.71661230038063
30
0
41
1
10
38.4817695027851
20
-2.75031813298847
30
0
41
1
10
38.5925902148552
20
-2.76969834951547
30
0
41
1
10
38.8134921466176
20
-2.80232250800742
30
0
41
1
10
38.9235592105878
20
-2.81556836043885
30
0
41
1
10
39.0881645530802
20
-2.83076085674486
30
0
41
1
10
39.1429451216652
20
-2.83504371821277
30
0
41
1
10
39.2525833849424
20
-2.8420082761167
30
0
41
1
10
39.4171438242772
20
-2.85006105479147
30
0
41
1
10
39.5820819599626
20
-2.85100382327119
30
0
41
1
10
39.8024601193546
20
-2.84600674172393
30
0
41
1
10
39.9128759851733
20
-2.84038157434171
30
0
41
1
10
40.1342581651347
20
-2.82286789596648
30
0
41
1
10
40.2452235802831
20
-2.81098146090741
30
0
41
1
10
40.4120883145308
20
-2.78835834681939
30
0
41
1
10
40.4677797602309
20
-2.78001752545799
30
0
41
1
10
40.5792999277322
20
-2.76170505738597
30
0
41
1
10
40.6349576074708
20
-2.75176079275974
30
0
41
1
10
40.8013769456142
20
-2.7195915197114
30
0
41
1
10
40.9116556049771
20
-2.69498669803386
30
0
41
1
10
41.2421441407023
20
-2.61254732962521
30
0
41
1
10
41.4623857700823
20
-2.54640813654788
30
0
41
1
10
41.9030205482761
20
-2.39296813693156
30
0
41
1
10
42.1234941935139
20
-2.30573731099093
30
0
41
1
10
42.3951320605665
20
-2.18496609896613
30
0
41
1
10
42.4462007652959
20
-2.16167864688691
30
0
41
1
10
42.4972759106623
20
-2.13779673745145
30
0
0
SPLINE
5
1AC
100
AcDbEntity
8
1
62
256
6
ByLayer
370
18
48
1
60
0
100
AcDbSpline
70
4
71
3
72
18
73
14
40
0
40
0
40
0
40
0
40
0.106002531664496
40
0.106002531664496
40
0.233716455712439
40
0.233716455712439
40
0.489144303808301
40
0.489144303808301
40
0.744572151904161
40
0.744572151904161
40
0.872286075952083
40
0.872286075952083
40
1
40
1
40
1
40
1
41
1
10
52.3140474900406
20
2.85000001183749
30
0
41
1
10
52.3602072629419
20
2.84999839790936
30
0
41
1
10
52.4064346223782
20
2.84945064248799
30
0
41
1
10
52.5085126652553
20
2.84702986589599
30
0
41
1
10
52.5644270108664
20
2.84490542420397
30
0
41
1
10
52.7318571721521
20
2.83614449120111
30
0
41
1
10
52.8432409833019
20
2.82712347450837
30
0
41
1
10
53.0655198061087
20
2.80266251362434
30
0
41
1
10
53.1763458264674
20
2.7871940055112
30
0
41
1
10
53.3426224950153
20
2.75918883256352
30
0
41
1
10
53.3980745171434
20
2.74906088358506
30
0
41
1
10
53.5091924014534
20
2.72728716281279
30
0
41
1
10
53.5648456192763
20
2.7156379924231
30
0
41
1
10
53.6205899268004
20
2.70323006445292
30
0
0
SPLINE
5
1AD
100
AcDbEntity
8
1
62
256
6
ByLayer
370
18
48
1
60
0
100
AcDbSpline
70
4
71
3
72
28
73
24
40
0
40
0
40
0
40
0
40
0.125000000000016
40
0.125000000000016
40
0.250000000000033
40
0.250000000000033
40
0.375000000000049
40
0.375000000000049
40
0.437500000000044
40
0.437500000000044
40
0.500000000000039
40
0.500000000000039
40
0.62500000000003
40
0.62500000000003
40
0.75000000000002
40
0.75000000000002
40
0.812500000000015
40
0.812500000000015
40
0.87500000000001
40
0.87500000000001
40
0.937500000000005
40
0.937500000000005
40
1
40
1
40
1
40
1
41
1
10
53.6205899268004
20
2.70323006445292
30
0
41
1
10
53.6620885107619
20
2.69399304163338
30
0
41
1
10
53.7032950522859
20
2.68681144660866
30
0
41
1
10
53.7849465103038
20
2.67635089540204
30
0
41
1
10
53.8253931878556
20
2.67307078774493
30
0
41
1
10
53.9054136687854
20
2.67040756737444
30
0
41
1
10
53.9449879019569
20
2.67102144921961
30
0
41
1
10
54.003634246929
20
2.6750565830304
30
0
41
1
10
54.0231066175361
20
2.67692897477048
30
0
41
1
10
54.0615679904682
20
2.6817513203402
30
0
41
1
10
54.0805467430998
20
2.68469692813559
30
0
41
1
10
54.136718534061
20
2.6952079627799
30
0
41
1
10
54.1731494015093
20
2.70443052660735
30
0
41
1
10
54.2438869791311
20
2.72803198641563
30
0
41
1
10
54.2781954736485
20
2.74239837844138
30
0
41
1
10
54.3279177433245
20
2.76884638837896
30
0
41
1
10
54.3441138249884
20
2.77844597647766
30
0
41
1
10
54.3754584157719
20
2.7992180944438
30
0
41
1
10
54.3906477064425
20
2.81041158450697
30
0
41
1
10
54.420031907998
20
2.83466582028086
30
0
41
1
10
54.4342020740062
20
2.84765538061706
30
0
41
1
10
54.4613248913219
20
2.87510185803021
30
0
41
1
10
54.4742903352538
20
2.8895977634609
30
0
41
1
10
54.4866153305848
20
2.90491758524806
30
0
0
SPLINE
5
1AE
100
AcDbEntity
8
1
62
256
6
ByLayer
370
18
48
1
60
0
100
AcDbSpline
70
4
71
3
72
8
73
4
40
0
40
0
40
0
40
0
40
1
40
1
40
1
40
1
41
1
10
54.4866153305848
20
2.90491758524803
30
0
41
1
10
54.5598711954754
20
2.9959737491524
30
0
41
1
10
54.6323354282975
20
3.08200471017045
30
0
41
1
10
54.7042502801836
20
3.16313740051049
30
0
0
SPLINE
5
1AF
100
AcDbEntity
8
1
62
256
6
ByLayer
370
18
48
1
60
0
100
AcDbSpline
70
4
71
3
72
10
73
6
40
0
40
0
40
0
40
0
40
0.5
40
0.5
40
1
40
1
40
1
40
1
41
1
10
54.7042502801933
20
3.16313740049719
30
0
41
1
10
54.7421748726611
20
3.08740610273259
30
0
41
1
10
54.7802709857446
20
3.01158488875043
30
0
41
1
10
54.8567346322972
20
2.86007513381807
30
0
41
1
10
54.8951050625272
20
2.7843784942211
30
0
41
1
10
54.9336503809515
20
2.70875834761338
30
0
0
SPLINE
5
1B0
100
AcDbEntity
8
1
62
256
6
ByLayer
370
18
48
1
60
0
100
AcDbSpline
70
4
71
3
72
28
73
24
40
0
40
0
40
0
40
0
40
0.125
40
0.125
40
0.25
40
0.25
40
0.374999999999999
40
0.374999999999999
40
0.499999999999999
40
0.499999999999999
40
0.624999999999999
40
0.624999999999999
40
0.687499999999999
40
0.687499999999999
40
0.749999999999999
40
0.749999999999999
40
0.812499999999999
40
0.812499999999999
40
0.875
40
0.875
40
0.9375
40
0.9375
40
1
40
1
40
1
40
1
41
1
10
54.9336503809515
20
2.70875834761336
30
0
41
1
10
54.9428067019852
20
2.69079501594939
30
0
41
1
10
54.9534698441355
20
2.67410996310431
30
0
41
1
10
54.9770628041576
20
2.6426556087481
30
0
41
1
10
54.9901433814847
20
2.62779234328579
30
0
41
1
10
55.0173414760802
20
2.60085802355249
30
0
41
1
10
55.0315369119446
20
2.58865294330528
30
0
41
1
10
55.0610103394052
20
2.56658584861492
30
0
41
1
10
55.0763789509889
20
2.55670236625568
30
0
41
1
10
55.1070799698493
20
2.540055559432
30
0
41
1
10
55.1225352066606
20
2.53317978052249
30
0
41
1
10
55.1458429113365
20
2.5252594214337
30
0
41
1
10
55.1536759147586
20
2.52301342456903
30
0
41
1
10
55.1691508218768
20
2.51948061313098
30
0
41
1
10
55.176775144814
20
2.51819205101657
30
0
41
1
10
55.1917712526379
20
2.5166455362623
30
0
41
1
10
55.1991433273122
20
2.51638645984889
30
0
41
1
10
55.2135917718482
20
2.51704538543959
30
0
41
1
10
55.220688017281
20
2.51797726129502
30
0
41
1
10
55.2341066136842
20
2.52114633664021
30
0
41
1
10
55.240480772821
20
2.52337965821036
30
0
41
1
10
55.2524510108827
20
2.52934916295976
30
0
41
1
10
55.2580651183422
20
2.53311267108148
30
0
41
1
10
55.2630591978667
20
2.53767423598384
30
0
0
SPLINE
5
1B1
100
AcDbEntity
8
1
62
256
6
ByLayer
370
18
48
1
60
0
100
AcDbSpline
70
4
71
3
72
10
73
6
40
0
40
0
40
0
40
0
40
0.5
40
0.5
40
1
40
1
40
1
40
1
41
1
10
55.2630591978664
20
2.53767423598555
30
0
41
1
10
55.3348742170686
20
2.60326968144258
30
0
41
1
10
55.4061048965187
20
2.66343334188829
30
0
41
1
10
55.5476244004812
20
2.77334644350881
30
0
41
1
10
55.6178210474409
20
2.82299910044568
30
0
41
1
10
55.6874493991634
20
2.86734639219341
30
0
0
SPLINE
5
1B2
100
AcDbEntity
8
1
62
256
6
ByLayer
370
18
48
1
60
0
100
AcDbSpline
70
4
71
3
72
8
73
4
40
0
40
0
40
0
40
0
40
1
40
1
40
1
40
1
41
1
10
55.811229379208
20
2.77833449948545
30
0
41
1
10
55.7699451836957
20
2.80843925796864
30
0
41
1
10
55.7286866764056
20
2.83811100396767
30
0
41
1
10
55.6874493991631
20
2.86734639219307
30
0
0
SPLINE
5
1B3
100
AcDbEntity
8
1
62
256
6
ByLayer
370
18
48
1
60
0
100
AcDbSpline
70
4
71
3
72
10
73
6
40
0
40
0
40
0
40
0
40
0.5
40
0.5
40
1
40
1
40
1
40
1
41
1
10
55.811229379208
20
2.7783344994856
30
0
41
1
10
55.8828553968866
20
2.63429771713757
30
0
41
1
10
55.9550028895469
20
2.49191997227379
30
0
41
1
10
56.1007493222312
20
2.21082566457491
30
0
41
1
10
56.1741050358085
20
2.07259748263198
30
0
41
1
10
56.2481418648334
20
1.93678348145747
30
0
0
SPLINE
5
1B4
100
AcDbEntity
8
1
62
256
6
ByLayer
370
18
48
1
60
0
100
AcDbSpline
70
4
71
3
72
30
73
26
40
0
40
0
40
0
40
0
40
0.12499999999996
40
0.12499999999996
40
0.24999999999992
40
0.24999999999992
40
0.37499999999988
40
0.37499999999988
40
0.437499999999892
40
0.437499999999892
40
0.499999999999904
40
0.499999999999904
40
0.624999999999929
40
0.624999999999929
40
0.68749999999994
40
0.68749999999994
40
0.749999999999952
40
0.749999999999952
40
0.812499999999964
40
0.812499999999964
40
0.874999999999976
40
0.874999999999976
40
0.937499999999988
40
0.937499999999988
40
1
40
1
40
1
40
1
41
1
10
56.2481418648334
20
1.93678348145747
30
0
41
1
10
56.2572931532456
20
1.9199962539177
30
0
41
1
10
56.2679552415018
20
1.90381749445916
30
0
41
1
10
56.291558433279
20
1.87239008322442
30
0
41
1
10
56.3046529826882
20
1.85702274813048
30
0
41
1
10
56.3318906963774
20
1.82824254596196
30
0
41
1
10
56.3461104713105
20
1.81470341750742
30
0
41
1
10
56.3682538287323
20
1.79556284124206
30
0
41
1
10
56.3757950238986
20
1.78936160556918
30
0
41
1
10
56.3910499433131
20
1.77743916610049
30
0
41
1
10
56.398705812952
20
1.77176115671071
30
0
41
1
10
56.4217466166902
20
1.75555724268435
30
0
41
1
10
56.4372039440428
20
1.74584812697117
30
0
41
1
10
56.4605041235291
20
1.73306696785542
30
0
41
1
10
56.4683338757036
20
1.72908737113906
30
0
41
1
10
56.4837767537722
20
1.72191599863436
30
0
41
1
10
56.491384136808
20
1.71872215934585
30
0
41
1
10
56.506345378325
20
1.71317722795493
30
0
41
1
10
56.5136995238978
20
1.71082521501995
30
0
41
1
10
56.5281120579807
20
1.70708225215748
30
0
41
1
10
56.5351854491359
20
1.70569684852836
30
0
41
1
10
56.5485602455416
20
1.70411873179614
30
0
41
1
10
56.5549141964945
20
1.70390802856733
30
0
41
1
10
56.5668485828698
20
1.70482807441658
30
0
41
1
10
56.5724455534806
20
1.70597334166368
30
0
41
1
10
56.5774258781397
20
1.70789312630461
30
0
0
SPLINE
5
1B5
100
AcDbEntity
8
1
62
256
6
ByLayer
370
18
48
1
60
0
100
AcDbSpline
70
4
71
3
72
14
73
10
40
0
40
0
40
0
40
0
40
0.25
40
0.25
40
0.5
40
0.5
40
0.75
40
0.75
40
1
40
1
40
1
40
1
41
1
10
56.5774258781396
20
1.70789312630623
30
0
41
1
10
56.6133963546032
20
1.72175880233499
30
0
41
1
10
56.6492073720363
20
1.73399665105657
30
0
41
1
10
56.7205625203533
20
1.75528132753297
30
0
41
1
10
56.7561220077293
20
1.76432525537271
30
0
41
1
10
56.8269203889539
20
1.77926508625083
30
0
41
1
10
56.8621770357105
20
1.78519559770925
30
0
41
1
10
56.9324125334507
20
1.79417906247849
30
0
41
1
10
56.9673748012072
20
1.79720915947161
30
0
41
1
10
57.0022035425102
20
1.79878873134547
30
0
0
SPLINE
5
1B6
100
AcDbEntity
8
1
62
256
6
ByLayer
370
18
48
1
60
0
100
AcDbSpline
70
4
71
3
72
8
73
4
40
0
40
0
40
0
40
0
40
1
40
1
40
1
40
1
41
1
10
57.1255513787384
20
1.6865731319632
30
0
41
1
10
57.0843963054985
20
1.72423405565641
30
0
41
1
10
57.0432827795973
20
1.76164165206566
30
0
41
1
10
57.0022035425101
20
1.79878873134496
30
0
0
SPLINE
5
1B7
100
AcDbEntity
8
1
62
256
6
ByLayer
370
18
48
1
60
0
100
AcDbSpline
70
4
71
3
72
10
73
6
40
0
40
0
40
0
40
0
40
0.5
40
0.5
40
1
40
1
40
1
40
1
41
1
10
57.1255513787384
20
1.68657313196326
30
0
41
1
10
57.1971631354262
20
1.55772506231864
30
0
41
1
10
57.2693171276711
20
1.4326070485138
30
0
41
1
10
57.4151522019785
20
1.19019959791953
30
0
41
1
10
57.4885798659934
20
1.07335450484001
30
0
41
1
10
57.5627350310786
20
0.960925137096069
30
0
0
SPLINE
5
1B8
100
AcDbEntity
8
1
62
256
6
ByLayer
370
18
48
1
60
0
100
AcDbSpline
70
4
71
3
72
32
73
28
40
0
40
0
40
0
40
0
40
0.125000000000026
40
0.125000000000026
40
0.187500000000038
40
0.187500000000038
40
0.250000000000051
40
0.250000000000051
40
0.375000000000076
40
0.375000000000076
40
0.437500000000089
40
0.437500000000089
40
0.500000000000102
40
0.500000000000102
40
0.625000000000128
40
0.625000000000128
40
0.687500000000107
40
0.687500000000107
40
0.750000000000085
40
0.750000000000085
40
0.812500000000064
40
0.812500000000064
40
0.875000000000043
40
0.875000000000043
40
0.937500000000021
40
0.937500000000021
40
1
40
1
40
1
40
1
41
1
10
57.5627350310786
20
0.960925137096098
30
0
41
1
10
57.5718854069042
20
0.947051916430951
30
0
41
1
10
57.5825463923282
20
0.933053234627408
30
0
41
1
10
57.6002477036281
20
0.911937599767441
30
0
41
1
10
57.6064402693581
20
0.904878437039628
30
0
41
1
10
57.619377308796
20
0.8907208182994
30
0
41
1
10
57.6260540834517
20
0.88369781089699
30
0
41
1
10
57.6464854853934
20
0.862949256571312
30
0
41
1
10
57.6607074138108
20
0.849463146357323
30
0
41
1
10
57.6828555852447
20
0.829686891940582
30
0
41
1
10
57.6903991902984
20
0.823151309911594
30
0
41
1
10
57.7056569175126
20
0.810318533194561
30
0
41
1
10
57.7133142742922
20
0.804067768920874
30
0
41
1
10
57.7363599494849
20
0.785794356740183
30
0
41
1
10
57.7518210786072
20
0.774243170174287
30
0
41
1
10
57.7751277151813
20
0.757915704286887
30
0
41
1
10
57.7829599756214
20
0.752613408169992
30
0
41
1
10
57.7984007149319
20
0.742548896641694
30
0
41
1
10
57.806006761984
20
0.737785452644289
30
0
41
1
10
57.8209646326326
20
0.728832953162339
30
0
41
1
10
57.8283167440623
20
0.724643279952232
30
0
41
1
10
57.8427242631115
20
0.716915635093812
30
0
41
1
10
57.8497925396335
20
0.713375947413454
30
0
41
1
10
57.8631556326094
20
0.707259286306709
30
0
41
1
10
57.8695033485547
20
0.704651583684296
30
0
41
1
10
57.8814248280902
20
0.700479560021535
30
0
41
1
10
57.8870146289495
20
0.698916694731423
30
0
41
1
10
57.8919886091283
20
0.698024099483348
30
0
0
SPLINE
5
1B9
100
AcDbEntity
8
1
62
256
6
ByLayer
370
18
48
1
60
0
100
AcDbSpline
70
4
71
3
72
12
73
8
40
0
40
0
40
0
40
0
40
0.249999999999994
40
0.249999999999994
40
0.499999999999988
40
0.499999999999988
40
1
40
1
40
1
40
1
41
1
10
57.8919886091282
20
0.698024099485195
30
0
41
1
10
57.9279262088641
20
0.691574992412313
30
0
41
1
10
57.9637095213338
20
0.683513823376899
30
0
41
1
10
58.0350182742986
20
0.664244401118083
30
0
41
1
10
58.0705594818776
20
0.653031847517184
30
0
41
1
10
58.1767338643957
20
0.61479546493635
30
0
41
1
10
58.2469332937133
20
0.583166974064028
30
0
41
1
10
58.3165138874511
20
0.545584399646231
30
0
0
SPLINE
5
1BA
100
AcDbEntity
8
1
62
256
6
ByLayer
370
18
48
1
60
0
100
AcDbSpline
70
4
71
3
72
8
73
4
40
0
40
0
40
0
40
0
40
1
40
1
40
1
40
1
41
1
10
58.4401733071667
20
0.421870061572605
30
0
41
1
10
58.3989873005484
20
0.463238811649404
30
0
41
1
10
58.3577666218477
20
0.504475805297801
30
0
41
1
10
58.3165138874508
20
0.54558439964589
30
0
0
SPLINE
5
1BB
100
AcDbEntity
8
1
62
256
6
ByLayer
370
18
48
1
60
0
100
AcDbSpline
70
4
71
3
72
10
73
6
40
0
40
0
40
0
40
0
40
0.5
40
0.5
40
1
40
1
40
1
40
1
41
1
10
58.4401733071661
20
0.421870061570274
30
0
41
1
10
58.511770182722
20
0.321521512159791
30
0
41
1
10
58.5838285349481
20
0.226213382350096
30
0
41
1
10
58.7295974478227
20
0.0469973293515977
30
0
41
1
10
58.8030479190889
20
-0.0365828695938148
30
0
41
1
10
58.877286514309
20
-0.114156844865704
30
0
0
SPLINE
5
1BC
100
AcDbEntity
8
1
62
256
6
ByLayer
370
18
48
1
60
0
100
AcDbSpline
70
4
71
3
72
8
73
4
40
0
40
0
40
0
40
0
40
1
40
1
40
1
40
1
41
1
10
59.7542862805006
20
-0.888943373549864
30
0
41
1
10
59.7133294606751
20
-0.849010082791438
30
0
41
1
10
59.6723745250045
20
-0.808969237753843
30
0
41
1
10
59.6314205291621
20
-0.76882206604941
30
0
0
SPLINE
5
1BD
100
AcDbEntity
8
1
62
256
6
ByLayer
370
18
48
1
60
0
100
AcDbSpline
70
4
71
3
72
8
73
4
40
0
40
0
40
0
40
0
40
1
40
1
40
1
40
1
41
1
10
61.0692430553978
20
-2.10981884397506
30
0
41
1
10
61.0278484306416
20
-2.07445585679986
30
0
41
1
10
60.9864821713799
20
-2.03876726758017
30
0
41
1
10
60.9451391004723
20
-2.00275735039014
30
0
0
SPLINE
5
1BE
100
AcDbEntity
8
1
62
256
6
ByLayer
370
18
48
1
60
0
100
AcDbSpline
70
4
71
3
72
8
73
4
40
0
40
0
40
0
40
0
40
1
40
1
40
1
40
1
41
1
10
62.3842805688111
20
-3.10821298493605
30
0
41
1
10
62.3428796695254
20
-3.08136958844219
30
0
41
1
10
62.3015259231613
20
-3.0540265453038
30
0
41
1
10
62.2602122743038
20
-3.02618700462313
30
0
0
SPLINE
5
1BF
100
AcDbEntity
8
SK1
62
256
6
ByLayer
370
18
48
1
60
0
100
AcDbSpline
70
4
71
3
72
21
73
17
40
0
40
0
40
0
40
0
40
0.0625083665283741
40
0.0625083665283741
40
0.125016733056748
40
0.250033466113497
40
0.250033466113497
40
0.500066932226994
40
0.500066932226994
40
0.625083665283742
40
0.625083665283742
40
0.687592031812116
40
0.687592031812116
40
0.750100398340491
40
0.750100398340491
40
1
40
1
40
1
40
1
41
1
10
-21.8
20
2.44999999999996
30
0
41
1
10
-21.8154733279925
20
2.44999999999996
30
0
41
1
10
-21.8307096280931
20
2.44999999999996
30
0
41
1
10
-21.8605639312295
20
2.44999999999996
30
0
41
1
10
-21.9044573975318
20
2.44999999999996
30
0
41
1
10
-21.9455032950744
20
2.44999999999996
30
0
41
1
10
-22.023239706673
20
2.44999999999996
30
0
41
1
10
-22.069282775014
20
2.44999999999996
30
0
41
1
10
-22.1269777966548
20
2.44999999999996
30
0
41
1
10
-22.1443078965696
20
2.44999999999996
30
0
41
1
10
-22.1670590256911
20
2.44999999999996
30
0
41
1
10
-22.1741017176099
20
2.44999999999996
30
0
41
1
10
-22.1870361885368
20
2.44999999999996
30
0
41
1
10
-22.1929343442876
20
2.44999999999996
30
0
41
1
10
-22.2192896072158
20
2.44999999999996
30
0
41
1
10
-22.230001997619
20
2.44999999999996
30
0
41
1
10
-22.2299999986401
20
2.44999999999996
30
0
0
SPLINE
5
1C0
100
AcDbEntity
8
SK1
62
256
6
ByLayer
370
18
48
1
60
0
100
AcDbSpline
70
4
71
3
72
21
73
17
40
0
40
0
40
0
40
0
40
0.249899949950174
40
0.249899949950174
40
0.312408287454326
40
0.312408287454326
40
0.374916624958478
40
0.374916624958478
40
0.499933299966782
40
0.499933299966782
40
0.749966649983391
40
0.749966649983391
40
0.874983324991696
40
0.937491662495848
40
0.937491662495848
40
1
40
1
40
1
40
1
41
1
10
-22.2299999998556
20
-2.45000000000002
30
0
41
1
10
-22.2300010373236
20
-2.45000000000002
30
0
41
1
10
-22.2192896463871
20
-2.45000000000002
30
0
41
1
10
-22.1929343442876
20
-2.45000000000002
30
0
41
1
10
-22.1870361885367
20
-2.45000000000002
30
0
41
1
10
-22.1741017176099
20
-2.45000000000002
30
0
41
1
10
-22.1670590256911
20
-2.45000000000002
30
0
41
1
10
-22.1443078965696
20
-2.45000000000002
30
0
41
1
10
-22.1269777966548
20
-2.45000000000002
30
0
41
1
10
-22.069282775014
20
-2.45000000000002
30
0
41
1
10
-22.023239706673
20
-2.45000000000002
30
0
41
1
10
-21.9455032950744
20
-2.45000000000002
30
0
41
1
10
-21.9044573975318
20
-2.45000000000002
30
0
41
1
10
-21.8605639312295
20
-2.45000000000002
30
0
41
1
10
-21.8307096280931
20
-2.45000000000002
30
0
41
1
10
-21.8154733279924
20
-2.45000000000002
30
0
41
1
10
-21.8
20
-2.45000000000002
30
0
0
SPLINE
5
1C1
100
AcDbEntity
8
SK1
62
256
6
ByLayer
370
18
48
1
60
0
100
AcDbSpline
70
4
71
3
72
32
73
28
40
0
40
0
40
0
40
0
40
0.125
40
0.125
40
0.25
40
0.25
40
0.3125
40
0.34375
40
0.34375
40
0.375
40
0.375
40
0.500000000000001
40
0.500000000000001
40
0.625000000000001
40
0.625000000000001
40
0.656250000000001
40
0.656250000000001
40
0.687500000000001
40
0.687500000000001
40
0.750000000000001
40
0.750000000000001
40
0.875
40
0.875
40
0.9375
40
0.96875
40
0.96875
40
1
40
1
40
1
40
1
41
1
10
-21.8
20
-1.51390224255073
30
0
41
1
10
-21.8618517752036
20
-1.3962373712138
30
0
41
1
10
-21.9193810798706
20
-1.27694295462507
30
0
41
1
10
-22.0229957025461
20
-1.03403980768567
30
0
41
1
10
-22.0690841404615
20
-0.910432253521066
30
0
41
1
10
-22.1268927062016
20
-0.720751808400337
30
0
41
1
10
-22.1529551945169
20
-0.624840246478783
30
0
41
1
10
-22.1741482130911
20
-0.527092923913358
30
0
41
1
10
-22.1871218171797
20
-0.46149258592817
30
0
41
1
10
-22.1930186805296
20
-0.428522929846565
30
0
41
1
10
-22.2192526664106
20
-0.263951753006779
30
0
41
1
10
-22.2299875079255
20
-0.132161485734144
30
0
41
1
10
-22.2300124701471
20
0.131697924908593
30
0
41
1
10
-22.2193009002469
20
0.263767090264082
30
0
41
1
10
-22.1929343442876
20
0.42902230649824
30
0
41
1
10
-22.1870361885368
20
0.461946667616303
30
0
41
1
10
-22.1741017176099
20
0.527306704055519
30
0
41
1
10
-22.1670590256911
20
0.559783127436503
30
0
41
1
10
-22.1443078965696
20
0.656638165967706
30
0
41
1
10
-22.1269777966548
20
0.720443041515097
30
0
41
1
10
-22.069282775014
20
0.909839353959995
30
0
41
1
10
-22.023239706673
20
1.03342187891835
30
0
41
1
10
-21.9455032950744
20
1.21572760524552
30
0
41
1
10
-21.9044573975318
20
1.30611000733447
30
0
41
1
10
-21.8605639312295
20
1.39548494778731
30
0
41
1
10
-21.8307096280931
20
1.45485879626094
30
0
41
1
10
-21.8154733279925
20
1.4844662701571
30
0
41
1
10
-21.8
20
1.51390224255064
30
0
0
SPLINE
5
1C2
100
AcDbEntity
8
1
62
256
6
ByLayer
370
18
48
1
60
0
100
AcDbSpline
70
4
71
2
72
6
73
3
40
0
40
0
40
0
40
1
40
1
40
1
41
1
10
65.3617397919667
20
-3.4962574717793
30
0
41
1
10
65.4076511844855
20
-3.41724623689018
30
0
41
1
10
65.453586258004
20
-3.33825587603047
30
0
0
SPLINE
5
1C3
100
AcDbEntity
8
1
62
256
6
ByLayer
370
18
48
1
60
0
100
AcDbSpline
70
4
71
2
72
6
73
3
40
0
40
0
40
0
40
1
40
1
40
1
41
1
10
58.0093967766541
20
4.04006421306229
30
0
41
1
10
57.8054049244995
20
3.6886009893079
30
0
41
1
10
57.6013163033216
20
3.33788572378003
30
0
0
SPLINE
5
1C4
100
AcDbEntity
8
1
62
256
6
ByLayer
370
18
48
1
60
0
100
AcDbSpline
70
4
71
1
72
4
73
2
40
0
40
0
40
1
40
1
41
1
10
67
20
2.73710379909119
30
0
41
1
10
66.5000000472359
20
3.23663903430929
30
0
0
SPLINE
5
1C5
100
AcDbEntity
8
1
62
256
6
ByLayer
370
18
48
1
60
0
100
AcDbSpline
70
4
71
1
72
4
73
2
40
0
40
0
40
1
40
1
41
1
10
64.7048040138886
20
-3.68852615088164
30
0
41
1
10
65.3536928336938
20
-3.50682359095291
30
0
0
SPLINE
5
1C6
100
AcDbEntity
8
1
62
256
6
ByLayer
370
18
48
1
60
0
100
AcDbSpline
70
4
71
2
72
6
73
3
40
0
40
0
40
0
40
1
40
1
40
1
41
1
10
58.5785174262042
20
3.33736683413162
30
0
41
1
10
58.37017818439
20
3.69553672744857
30
0
41
1
10
58.162297236734
20
4.0539768443229
30
0
0
SPLINE
5
1C7
100
AcDbEntity
8
1
62
256
6
ByLayer
370
18
48
1
60
0
100
AcDbSpline
70
4
71
2
72
6
73
3
40
0
40
0
40
0
40
1
40
1
40
1
41
1
10
56.2879064030833
20
-4.05313516886716
30
0
41
1
10
56.4952145154896
20
-3.69565779765625
30
0
41
1
10
56.7027228660548
20
-3.33879111671277
30
0
0
SPLINE
5
1C8
100
AcDbEntity
8
1
62
256
6
ByLayer
370
18
48
1
60
0
100
AcDbSpline
70
4
71
2
72
6
73
3
40
0
40
0
40
0
40
1
40
1
40
1
41
1
10
64.475890834661
20
-3.33861930285826
30
0
41
1
10
64.5754980040245
20
-3.51011806751603
30
0
41
1
10
64.6750258501881
20
-3.68173751631863
30
0
0
SPLINE
5
1C9
100
AcDbEntity
8
1
62
256
6
ByLayer
370
18
48
1
60
0
100
AcDbSpline
70
4
71
3
72
11
73
7
40
0
40
0
40
0
40
0
40
0.248510595678415
40
0.500215188930228
40
0.755284966285788
40
1
40
1
40
1
40
1
41
1
10
58.8506194986022
20
3.33737403468393
30
0
41
1
10
58.8448600938461
20
3.3225001352487
30
0
41
1
10
58.8207605573217
20
3.29796031648564
30
0
41
1
10
58.7427738865132
20
3.2565254332531
30
0
41
1
10
58.6340496087849
20
3.27348946741222
30
0
41
1
10
58.5901531269768
20
3.31750643707153
30
0
41
1
10
58.5715154918615
20
3.34734709427718
30
0
0
SPLINE
5
1CA
100
AcDbEntity
8
1
62
256
6
ByLayer
370
18
48
1
60
0
100
AcDbSpline
70
4
71
3
72
11
73
7
40
0
40
0
40
0
40
0
40
0.246257837383325
40
0.497271173256789
40
0.752764451356818
40
1
40
1
40
1
40
1
41
1
10
64.2029666392135
20
-3.33824402875175
30
0
41
1
10
64.2087836722957
20
-3.32349110312362
30
0
41
1
10
64.232821838309
20
-3.29899248937005
30
0
41
1
10
64.3105906717537
20
-3.25751408706378
30
0
41
1
10
64.4190909137453
20
-3.27404113606895
30
0
41
1
10
64.4623922822597
20
-3.31669926639537
30
0
41
1
10
64.4806789206259
20
-3.34588325564815
30
0
0
SPLINE
5
1CB
100
AcDbEntity
8
1
62
256
6
ByLayer
370
18
48
1
60
0
100
AcDbSpline
70
4
71
3
72
11
73
7
40
0
40
0
40
0
40
0
40
0.231848482669014
40
0.479404590218433
40
0.737858889826033
40
1
40
1
40
1
40
1
41
1
10
55.4535090245548
20
-3.33776383691549
30
0
41
1
10
55.4631729225632
20
-3.31916160513529
30
0
41
1
10
55.4925917859838
20
-3.28919816019285
30
0
41
1
10
55.5798199614413
20
-3.2550478371785
30
0
41
1
10
55.6782678020313
20
-3.28133247564043
30
0
41
1
10
55.7132186671563
20
-3.31467429042473
30
0
41
1
10
55.725882956734
20
-3.33772112748272
30
0
0
SPLINE
5
1CC
100
AcDbEntity
8
1
62
256
6
ByLayer
370
18
48
1
60
0
100
AcDbSpline
70
4
71
2
72
6
73
3
40
0
40
0
40
0
40
1
40
1
40
1
41
1
10
63.8639786675879
20
-3.92203414318689
30
0
41
1
10
64.0332643192088
20
-3.63012512049531
30
0
41
1
10
64.202888648056
20
-3.33837880584363
30
0
0
SPLINE
5
1CD
100
AcDbEntity
8
1
62
256
6
ByLayer
370
18
48
1
60
0
100
AcDbSpline
70
4
71
2
72
6
73
3
40
0
40
0
40
0
40
1
40
1
40
1
41
1
10
59.2663520363754
20
4.05397805238323
30
0
41
1
10
59.0586742413868
20
3.69555115260505
30
0
41
1
10
58.8506202856523
20
3.3373753905621
30
0
0
SPLINE
5
1CE
100
AcDbEntity
8
1
62
256
6
ByLayer
370
18
48
1
60
0
100
AcDbSpline
70
4
71
1
72
4
73
2
40
0
40
0
40
1
40
1
41
1
10
63.6187205682813
20
-3.99626074683087
30
0
41
1
10
63.8530091848037
20
-3.93057865694703
30
0
0
SPLINE
5
1CF
100
AcDbEntity
8
1
62
256
6
ByLayer
370
18
48
1
60
0
100
AcDbSpline
70
4
71
2
72
6
73
3
40
0
40
0
40
0
40
1
40
1
40
1
41
1
10
63.2259900343799
20
-3.3382984495978
30
0
41
1
10
63.4146553624741
20
-3.66326188325596
30
0
41
1
10
63.6029812180846
20
-3.98840886001477
30
0
0
SPLINE
5
1D0
100
AcDbEntity
8
1
62
256
6
ByLayer
370
18
48
1
60
0
100
AcDbSpline
70
4
71
2
72
6
73
3
40
0
40
0
40
0
40
1
40
1
40
1
41
1
10
59.8285482952085
20
3.33748831449259
30
0
41
1
10
59.6201783616787
20
3.69575456317099
30
0
41
1
10
59.4122565541996
20
4.05431603187677
30
0
0
SPLINE
5
1D1
100
AcDbEntity
8
1
62
256
6
ByLayer
370
18
48
1
60
0
100
AcDbSpline
70
4
71
2
72
6
73
3
40
0
40
0
40
0
40
1
40
1
40
1
41
1
10
55.0373491964161
20
-4.05434436680474
30
0
41
1
10
55.245213855524
20
-3.69589720672997
30
0
41
1
10
55.4535130787315
20
-3.33775687674668
30
0
0
SPLINE
5
1D2
100
AcDbEntity
8
1
62
256
6
ByLayer
370
18
48
1
60
0
100
AcDbSpline
70
4
71
3
72
11
73
7
40
0
40
0
40
0
40
0
40
0.257353580016536
40
0.515488170301233
40
0.763371699781072
40
1
40
1
40
1
40
1
41
1
10
60.1035175429268
20
3.34184406302398
30
0
41
1
10
60.086228980665
20
3.31374162041013
30
0
41
1
10
60.0444635727146
20
3.27372913072207
30
0
41
1
10
59.9367125854053
20
3.25675718369158
30
0
41
1
10
59.8588452385004
20
3.29780197338414
30
0
41
1
10
59.8346732839387
20
3.3228380373007
30
0
41
1
10
59.8284294979887
20
3.33769292656982
30
0
0
SPLINE
5
1D3
100
AcDbEntity
8
1
62
256
6
ByLayer
370
18
48
1
60
0
100
AcDbSpline
70
4
71
3
72
11
73
7
40
0
40
0
40
0
40
0
40
0.251569936848567
40
0.508062402568492
40
0.757570484001914
40
1
40
1
40
1
40
1
41
1
10
62.9498098918138
20
-3.34415805149649
30
0
41
1
10
62.9676518396408
20
-3.31552066134793
30
0
41
1
10
63.0102429952098
20
-3.27417567803164
30
0
41
1
10
63.1183753763481
20
-3.25755553926646
30
0
41
1
10
63.1961524700385
20
-3.29901687225092
30
0
41
1
10
63.2201276704686
20
-3.32365866514417
30
0
41
1
10
63.226051358796
20
-3.33840445111392
30
0
0
SPLINE
5
1D4
100
AcDbEntity
8
1
62
256
6
ByLayer
370
18
48
1
60
0
100
AcDbSpline
70
4
71
2
72
6
73
3
40
0
40
0
40
0
40
1
40
1
40
1
41
1
10
61.1132743049621
20
3.29810918055398
30
0
41
1
10
61.0977105793876
20
3.30929732986792
30
0
41
1
10
61.0934309752633
20
3.30619586557205
30
0
0
SPLINE
5
1D5
100
AcDbEntity
8
1
62
256
6
ByLayer
370
18
48
1
60
0
100
AcDbSpline
70
4
71
2
72
6
73
3
40
0
40
0
40
0
40
1
40
1
40
1
41
1
10
61.946870642042
20
-3.30270534314821
30
0
41
1
10
61.9536559965605
20
-3.3076804764535
30
0
41
1
10
61.9564189654327
20
-3.30470516369996
30
0
0
SPLINE
5
1D6
100
AcDbEntity
8
1
62
256
6
ByLayer
370
18
48
1
60
0
100
AcDbSpline
70
4
71
2
72
6
73
3
40
0
40
0
40
0
40
1
40
1
40
1
41
1
10
61.974109523581
20
-3.33443743091033
30
0
41
1
10
62.1813446118757
20
-3.6910669658661
30
0
41
1
10
62.3884341152749
20
-4.04834208494555
30
0
0
SPLINE
5
1D7
100
AcDbEntity
8
1
62
256
6
ByLayer
370
18
48
1
60
0
100
AcDbSpline
70
4
71
2
72
6
73
3
40
0
40
0
40
0
40
1
40
1
40
1
41
1
10
55.7350711356182
20
-3.34996802026885
30
0
41
1
10
55.9419922022033
20
-3.70703599580472
30
0
41
1
10
56.1488069129774
20
-4.06429227637747
30
0
0
SPLINE
5
1D8
100
AcDbEntity
8
1
62
256
6
ByLayer
370
18
48
1
60
0
100
AcDbSpline
70
4
71
2
72
6
73
3
40
0
40
0
40
0
40
1
40
1
40
1
41
1
10
62.5258500109588
20
-4.06879529026364
30
0
41
1
10
62.7328289622055
20
-3.71133782957276
30
0
41
1
10
62.9398989889868
20
-3.35398749777002
30
0
0
SPLINE
5
1D9
100
AcDbEntity
8
1
62
256
6
ByLayer
370
18
48
1
60
0
100
AcDbSpline
70
4
71
2
72
6
73
3
40
0
40
0
40
0
40
1
40
1
40
1
41
1
10
60.5268672367258
20
4.06655293807316
30
0
41
1
10
60.320210095159
20
3.70954689416615
30
0
41
1
10
60.1134628265852
20
3.3526174373367
30
0
0
SPLINE
5
1DA
100
AcDbEntity
8
1
62
256
6
ByLayer
370
18
48
1
60
0
100
AcDbSpline
70
4
71
2
72
6
73
3
40
0
40
0
40
0
40
1
40
1
40
1
41
1
10
61.0799252219371
20
3.33456269598105
30
0
41
1
10
60.8722071496799
20
3.69145866704221
30
0
41
1
10
60.6646535193835
20
4.04909303538653
30
0
0
LINE
5
7F
100
AcDbEntity
8
80
62
256
6
ByLayer
370
18
48
1
60
0
100
AcDbLine
10
0
20
0
30
0
11
-5
21
0
31
0
39
0
210
0
220
0
230
1
0
LINE
5
80
100
AcDbEntity
8
4
62
256
6
ByLayer
370
18
48
0.05
60
0
100
AcDbLine
10
0
20
0
30
0
11
68.55
21
0
31
0
39
0
210
0
220
0
230
1
0
LINE
5
82
100
AcDbEntity
8
81
62
256
6
ByLayer
370
18
48
1
60
0
100
AcDbLine
10
68.55
20
0
30
0
11
73.55
21
0
31
0
39
0
210
0
220
0
230
1
0
LINE
5
83
100
AcDbEntity
8
SK4
62
256
6
ByLayer
370
18
48
0.05
60
0
100
AcDbLine
10
-23
20
0
30
0
11
68.55
21
0
31
0
39
0
210
0
220
0
230
1
0
LINE
5
85
100
AcDbEntity
8
1
62
256
6
ByLayer
370
18
48
1
60
0
100
AcDbLine
10
0
20
3
30
0
11
0
21
-3
31
0
39
0
210
0
220
0
230
1
0
LINE
5
86
100
AcDbEntity
8
1
62
256
6
ByLayer
370
13
48
1
60
0
100
AcDbLine
10
65.453406
20
-3.338565
30
0
11
65.449666
21
-3.344327
31
0
39
0
210
0
220
0
230
1
0
LINE
5
87
100
AcDbEntity
8
1
62
256
6
ByLayer
370
18
48
1
60
0
100
AcDbLine
10
66.5
20
3.239937
30
0
11
66.5
21
3.236657
31
0
39
0
210
0
220
0
230
1
0
LINE
5
88
100
AcDbEntity
8
1
62
256
6
ByLayer
370
18
48
1
60
0
100
AcDbLine
10
58.85266
20
3.340715
30
0
11
58.850744
21
3.337588
31
0
39
0
210
0
220
0
230
1
0
LINE
5
89
100
AcDbEntity
8
1
62
256
6
ByLayer
370
18
48
1
60
0
100
AcDbLine
10
59.828515
20
3.337545
30
0
11
59.825885
21
3.34179
31
0
39
0
210
0
220
0
230
1
0
LINE
5
8A
100
AcDbEntity
8
1
62
256
6
ByLayer
370
18
48
1
60
0
100
AcDbLine
10
63.22856
20
-3.34247
30
0
11
63.226045
21
-3.338394
31
0
39
0
210
0
220
0
230
1
0
LINE
5
8B
100
AcDbEntity
8
1
62
256
6
ByLayer
370
18
48
1
60
0
100
AcDbLine
10
54.898964
20
-4.061903
30
0
11
54.905727
21
-4.064208
31
0
39
0
210
0
220
0
230
1
0
LINE
5
8C
100
AcDbEntity
8
1
62
256
6
ByLayer
370
18
48
1
60
0
100
AcDbLine
10
54.898964
20
-3.650888
30
0
11
54.898964
21
-4.061903
31
0
39
0
210
0
220
0
230
1
0
LINE
5
8D
100
AcDbEntity
8
1
62
256
6
ByLayer
370
13
48
1
60
0
100
AcDbLine
10
54.486615
20
-2.897438
30
0
11
54.486615
21
-3.348263
31
0
39
0
210
0
220
0
230
1
0
LINE
5
8E
100
AcDbEntity
8
1
62
256
6
ByLayer
370
13
48
1
60
0
100
AcDbLine
10
53.62059
20
-2.84373
30
0
11
53.62059
21
-2.133462
31
0
39
0
210
0
220
0
230
1
0
LINE
5
8F
100
AcDbEntity
8
1
62
256
6
ByLayer
370
13
48
1
60
0
100
AcDbLine
10
24.554527
20
-2.85
30
0
11
24.554527
21
2.85
31
0
39
0
210
0
220
0
230
1
0
LINE
5
90
100
AcDbEntity
8
1
62
256
6
ByLayer
370
18
48
1
60
0
100
AcDbLine
10
24
20
3
30
0
11
24
21
-3
31
0
39
0
210
0
220
0
230
1
0
LINE
5
91
100
AcDbEntity
8
1
62
256
6
ByLayer
370
13
48
1
60
0
100
AcDbLine
10
53.62059
20
1.585499
30
0
11
53.62059
21
2.70323
31
0
39
0
210
0
220
0
230
1
0
LINE
5
92
100
AcDbEntity
8
1
62
256
6
ByLayer
370
13
48
1
60
0
100
AcDbLine
10
54.486615
20
2.904918
30
0
11
54.486615
21
1.126781
31
0
39
0
210
0
220
0
230
1
0
LINE
5
93
100
AcDbEntity
8
SK1
62
256
6
ByLayer
370
18
48
1
60
0
100
AcDbLine
10
-23
20
1.68
30
0
11
-23
21
-1.68
31
0
39
0
210
0
220
0
230
1
0
LINE
5
95
100
AcDbEntity
8
SK1
62
256
6
ByLayer
370
18
48
1
60
0
100
AcDbLine
10
-15
20
2.45
30
0
11
-14.57
21
2.88
31
0
39
0
210
0
220
0
230
1
0
LINE
5
96
100
AcDbEntity
8
SK1
62
256
6
ByLayer
370
18
48
1
60
0
100
AcDbLine
10
-21.8
20
2.45
30
0
11
-15
21
2.45
31
0
39
0
210
0
220
0
230
1
0
LINE
5
97
100
AcDbEntity
8
SK1
62
256
6
ByLayer
370
18
48
1
60
0
100
AcDbLine
10
-21.8
20
1.513902
30
0
11
-21.8
21
2.45
31
0
39
0
210
0
220
0
230
1
0
LINE
5
98
100
AcDbEntity
8
SK1
62
256
6
ByLayer
370
18
48
1
60
0
100
AcDbLine
10
-15
20
1.513902
30
0
11
-21.8
21
1.513902
31
0
39
0
210
0
220
0
230
1
0
LINE
5
99
100
AcDbEntity
8
SK1
62
256
6
ByLayer
370
18
48
1
60
0
100
AcDbLine
10
-21.8
20
-1.513902
30
0
11
-15
21
-1.513902
31
0
39
0
210
0
220
0
230
1
0
LINE
5
9A
100
AcDbEntity
8
SK1
62
256
6
ByLayer
370
18
48
1
60
0
100
AcDbLine
10
-21.8
20
-2.45
30
0
11
-21.8
21
-1.513902
31
0
39
0
210
0
220
0
230
1
0
LINE
5
9B
100
AcDbEntity
8
SK1
62
256
6
ByLayer
370
18
48
1
60
0
100
AcDbLine
10
-15
20
-2.45
30
0
11
-21.8
21
-2.45
31
0
39
0
210
0
220
0
230
1
0
LINE
5
9C
100
AcDbEntity
8
SK1
62
256
6
ByLayer
370
18
48
1
60
0
100
AcDbLine
10
-15
20
-2.45
30
0
11
-14.57
21
-2.88
31
0
39
0
210
0
220
0
230
1
0
LINE
5
9D
100
AcDbEntity
8
SK1
62
256
6
ByLayer
370
18
48
1
60
0
100
AcDbLine
10
-15
20
1.513902
30
0
11
-15
21
-1.513902
31
0
39
0
210
0
220
0
230
1
0
LINE
5
9E
100
AcDbEntity
8
SK1
62
256
6
ByLayer
370
18
48
1
60
0
100
AcDbLine
10
-14.2
20
2.88
30
0
11
-14.2
21
-2.88
31
0
39
0
210
0
220
0
230
1
0
LINE
5
9F
100
AcDbEntity
8
SK1
62
256
6
ByLayer
370
18
48
1
60
0
100
AcDbLine
10
0
20
3
30
0
11
0
21
-3
31
0
39
0
210
0
220
0
230
1
0
LINE
5
A0
100
AcDbEntity
8
SK1
62
256
6
ByLayer
370
18
48
1
60
0
100
AcDbLine
10
-14.08
20
-3
30
0
11
-14.08
21
3
31
0
39
0
210
0
220
0
230
1
0
LINE
5
A1
100
AcDbEntity
8
1
62
256
6
ByLayer
370
18
48
1
60
0
100
AcDbLine
10
24
20
3
30
0
11
0
21
3
31
0
39
0
210
0
220
0
230
1
0
LINE
5
A2
100
AcDbEntity
8
1
62
256
6
ByLayer
370
18
48
1
60
0
100
AcDbLine
10
0
20
-3
30
0
11
24
21
-3
31
0
39
0
210
0
220
0
230
1
0
LINE
5
A3
100
AcDbEntity
8
1
62
256
6
ByLayer
370
18
48
1
60
0
100
AcDbLine
10
57.577319
20
3.304124
30
0
11
57.576351
21
3.304124
31
0
39
0
210
0
220
0
230
1
0
LINE
5
A4
100
AcDbEntity
8
1
62
256
6
ByLayer
370
18
48
1
60
0
100
AcDbLine
10
58.147985
20
4.064208
30
0
11
58.03068
21
4.064208
31
0
39
0
210
0
220
0
230
1
0
LINE
5
A5
100
AcDbEntity
8
1
62
256
6
ByLayer
370
18
48
1
60
0
100
AcDbLine
10
56.155525
20
-4.064208
30
0
11
56.273327
21
-4.064208
31
0
39
0
210
0
220
0
230
1
0
LINE
5
A6
100
AcDbEntity
8
1
62
256
6
ByLayer
370
18
48
1
60
0
100
AcDbLine
10
68.55
20
0
30
0
11
67
21
1.55
31
0
39
0
210
0
220
0
230
1
0
LINE
5
A7
100
AcDbEntity
8
1
62
256
6
ByLayer
370
18
48
1
60
0
100
AcDbLine
10
67
20
-1.55
30
0
11
68.55
21
0
31
0
39
0
210
0
220
0
230
1
0
LINE
5
A8
100
AcDbEntity
8
1
62
256
6
ByLayer
370
18
48
1
60
0
100
AcDbLine
10
59.397966
20
4.064208
30
0
11
59.280835
21
4.064208
31
0
39
0
210
0
220
0
230
1
0
LINE
5
A9
100
AcDbEntity
8
1
62
256
6
ByLayer
370
18
48
1
60
0
100
AcDbLine
10
54.905712
20
-4.064208
30
0
11
55.023027
21
-4.064208
31
0
39
0
210
0
220
0
230
1
0
LINE
5
AA
100
AcDbEntity
8
1
62
256
6
ByLayer
370
18
48
1
60
0
100
AcDbLine
10
62.405167
20
-4.064208
30
0
11
62.523476
21
-4.064208
31
0
39
0
210
0
220
0
230
1
0
LINE
5
AB
100
AcDbEntity
8
1
62
256
6
ByLayer
370
18
48
1
60
0
100
AcDbLine
10
60.647971
20
4.064208
30
0
11
60.530672
21
4.064208
31
0
39
0
210
0
220
0
230
1
0
LINE
5
AC
100
AcDbEntity
8
1
62
256
6
ByLayer
370
18
48
1
60
0
100
AcDbLine
10
24.554527
20
-2.85
30
0
11
31.421817
21
-2.85
31
0
39
0
210
0
220
0
230
1
0
LINE
5
AD
100
AcDbEntity
8
1
62
256
6
ByLayer
370
18
48
1
60
0
100
AcDbLine
10
36.950355
20
-2.85
30
0
11
39.561406
21
-2.85
31
0
39
0
210
0
220
0
230
1
0
LINE
5
AE
100
AcDbEntity
8
1
62
256
6
ByLayer
370
18
48
1
60
0
100
AcDbLine
10
45.419269
20
-2.85
30
0
11
48.063298
21
-2.85
31
0
39
0
210
0
220
0
230
1
0
LINE
5
AF
100
AcDbEntity
8
1
62
256
6
ByLayer
370
18
48
1
60
0
100
AcDbLine
10
52.314271
20
2.85
30
0
11
49.653635
21
2.85
31
0
39
0
210
0
220
0
230
1
0
LINE
5
B0
100
AcDbEntity
8
1
62
256
6
ByLayer
370
18
48
1
60
0
100
AcDbLine
10
43.814764
20
2.85
30
0
11
41.185331
21
2.85
31
0
39
0
210
0
220
0
230
1
0
LINE
5
B1
100
AcDbEntity
8
1
62
256
6
ByLayer
370
18
48
1
60
0
100
AcDbLine
10
35.313279
20
2.85
30
0
11
24.554527
21
2.85
31
0
39
0
210
0
220
0
230
1
0
LINE
5
B2
100
AcDbEntity
8
SK1
62
256
6
ByLayer
370
18
48
1
60
0
100
AcDbLine
10
-23
20
-1.68
30
0
11
-22.23
21
-2.45
31
0
39
0
210
0
220
0
230
1
0
LINE
5
B3
100
AcDbEntity
8
SK1
62
256
6
ByLayer
370
18
48
1
60
0
100
AcDbLine
10
-22.23
20
2.45
30
0
11
-23
21
1.68
31
0
39
0
210
0
220
0
230
1
0
LINE
5
B4
100
AcDbEntity
8
SK1
62
256
6
ByLayer
370
18
48
1
60
0
100
AcDbLine
10
-14.2
20
2.88
30
0
11
-14.57
21
2.88
31
0
39
0
210
0
220
0
230
1
0
LINE
5
B5
100
AcDbEntity
8
SK1
62
256
6
ByLayer
370
18
48
1
60
0
100
AcDbLine
10
-14.57
20
-2.88
30
0
11
-14.2
21
-2.88
31
0
39
0
210
0
220
0
230
1
0
LINE
5
B6
100
AcDbEntity
8
SK1
62
256
6
ByLayer
370
18
48
1
60
0
100
AcDbLine
10
-14.2
20
-2.88
30
0
11
-14.08
21
-3
31
0
39
0
210
0
220
0
230
1
0
LINE
5
B7
100
AcDbEntity
8
SK1
62
256
6
ByLayer
370
18
48
1
60
0
100
AcDbLine
10
-14.08
20
3
30
0
11
-14.2
21
2.88
31
0
39
0
210
0
220
0
230
1
0
LINE
5
B8
100
AcDbEntity
8
SK1
62
256
6
ByLayer
370
18
48
1
60
0
100
AcDbLine
10
0
20
3
30
0
11
-14.08
21
3
31
0
39
0
210
0
220
0
230
1
0
LINE
5
B9
100
AcDbEntity
8
SK1
62
256
6
ByLayer
370
18
48
1
60
0
100
AcDbLine
10
-14.08
20
-3
30
0
11
0
21
-3
31
0
39
0
210
0
220
0
230
1
0
LINE
5
BA
100
AcDbEntity
8
SK2
62
256
6
ByLayer
370
18
48
1
60
0
100
AcDbLine
10
12.96
20
15.841828
30
0
11
12.96
21
-10.5
31
0
39
0
210
0
220
0
230
1
0
LINE
5
BC
100
AcDbEntity
8
1
62
256
6
ByLayer
370
18
48
1
60
1
100
AcDbLine
10
12.96
20
3
30
0
11
12.499216
21
6.499998
31
0
39
0
210
0
220
0
230
1
0
LINE
5
BD
100
AcDbEntity
8
1
62
256
6
ByLayer
370
18
48
1
60
1
100
AcDbLine
10
12.499216
20
6.499998
30
0
11
13.420784
21
6.500002
31
0
39
0
210
0
220
0
230
1
0
LINE
5
BE
100
AcDbEntity
8
1
62
256
6
ByLayer
370
18
48
1
60
1
100
AcDbLine
10
13.420784
20
6.500002
30
0
11
12.96
21
3
31
0
39
0
210
0
220
0
230
1
0
LINE
5
BF
100
AcDbEntity
8
1
62
256
6
ByLayer
370
18
48
1
60
1
100
AcDbLine
10
12.96
20
-3
30
0
11
13.420784
21
-6.499998
31
0
39
0
210
0
220
0
230
1
0
LINE
5
C0
100
AcDbEntity
8
1
62
256
6
ByLayer
370
18
48
1
60
1
100
AcDbLine
10
13.420784
20
-6.499998
30
0
11
12.499216
21
-6.500002
31
0
39
0
210
0
220
0
230
1
0
LINE
5
C1
100
AcDbEntity
8
1
62
256
6
ByLayer
370
18
48
1
60
1
100
AcDbLine
10
12.499216
20
-6.500002
30
0
11
12.96
21
-3
31
0
39
0
210
0
220
0
230
1
0
LINE
5
C2
100
AcDbEntity
8
2
62
256
6
ByLayer
370
18
48
1
60
0
100
AcDbLine
10
67
20
-41.564208
30
0
11
-23
21
-41.564208
31
0
39
0
210
0
220
0
230
1
0
LINE
5
C4
100
AcDbEntity
8
2
62
256
6
ByLayer
370
18
48
1
60
0
100
AcDbLine
10
-23
20
-3.2675
30
0
11
-23
21
-43.564208
31
0
39
0
210
0
220
0
230
1
0
LINE
5
C5
100
AcDbEntity
8
2
62
256
6
ByLayer
370
18
48
1
60
0
100
AcDbLine
10
67
20
-5.651708
30
0
11
67
21
-43.564208
31
0
39
0
210
0
220
0
230
1
0
LINE
5
C6
100
AcDbEntity
8
1
62
256
6
ByLayer
370
18
48
1
60
1
100
AcDbLine
10
-23
20
-41.564208
30
0
11
-19.500002
21
-41.103425
31
0
39
0
210
0
220
0
230
1
0
LINE
5
C7
100
AcDbEntity
8
1
62
256
6
ByLayer
370
18
48
1
60
1
100
AcDbLine
10
-19.500002
20
-41.103425
30
0
11
-19.499998
21
-42.024992
31
0
39
0
210
0
220
0
230
1
0
LINE
5
C8
100
AcDbEntity
8
1
62
256
6
ByLayer
370
18
48
1
60
1
100
AcDbLine
10
-19.499998
20
-42.024992
30
0
11
-23
21
-41.564208
31
0
39
0
210
0
220
0
230
1
0
LINE
5
C9
100
AcDbEntity
8
1
62
256
6
ByLayer
370
18
48
1
60
1
100
AcDbLine
10
67
20
-41.564208
30
0
11
63.500002
21
-42.024992
31
0
39
0
210
0
220
0
230
1
0
LINE
5
CA
100
AcDbEntity
8
1
62
256
6
ByLayer
370
18
48
1
60
1
100
AcDbLine
10
63.500002
20
-42.024992
30
0
11
63.499998
21
-41.103425
31
0
39
0
210
0
220
0
230
1
0
LINE
5
CB
100
AcDbEntity
8
1
62
256
6
ByLayer
370
18
48
1
60
1
100
AcDbLine
10
63.499998
20
-41.103425
30
0
11
67
21
-41.564208
31
0
39
0
210
0
220
0
230
1
0
LINE
5
1DF
100
AcDbEntity
8
1
62
256
6
ByLayer
370
18
48
1
60
1
100
AcDbLine
10
12.96
20
3
30
0
11
12.499216
21
6.499998
31
0
39
0
210
0
220
0
230
1
0
LINE
5
1E0
100
AcDbEntity
8
1
62
256
6
ByLayer
370
18
48
1
60
1
100
AcDbLine
10
12.499216
20
6.499998
30
0
11
13.420784
21
6.500002
31
0
39
0
210
0
220
0
230
1
0
LINE
5
1E1
100
AcDbEntity
8
1
62
256
6
ByLayer
370
18
48
1
60
1
100
AcDbLine
10
13.420784
20
6.500002
30
0
11
12.96
21
3
31
0
39
0
210
0
220
0
230
1
0
LINE
5
1E3
100
AcDbEntity
8
1
62
256
6
ByLayer
370
18
48
1
60
1
100
AcDbLine
10
12.96
20
-3
30
0
11
13.420784
21
-6.499998
31
0
39
0
210
0
220
0
230
1
0
LINE
5
1E4
100
AcDbEntity
8
1
62
256
6
ByLayer
370
18
48
1
60
1
100
AcDbLine
10
13.420784
20
-6.499998
30
0
11
12.499216
21
-6.500002
31
0
39
0
210
0
220
0
230
1
0
LINE
5
1E5
100
AcDbEntity
8
1
62
256
6
ByLayer
370
18
48
1
60
1
100
AcDbLine
10
12.499216
20
-6.500002
30
0
11
12.96
21
-3
31
0
39
0
210
0
220
0
230
1
0
LINE
5
1E8
100
AcDbEntity
8
1
62
256
6
ByLayer
370
18
48
1
60
1
100
AcDbLine
10
-23
20
-41.564208
30
0
11
-19.500002
21
-41.103425
31
0
39
0
210
0
220
0
230
1
0
LINE
5
1E9
100
AcDbEntity
8
1
62
256
6
ByLayer
370
18
48
1
60
1
100
AcDbLine
10
-19.500002
20
-41.103425
30
0
11
-19.499998
21
-42.024992
31
0
39
0
210
0
220
0
230
1
0
LINE
5
1EA
100
AcDbEntity
8
1
62
256
6
ByLayer
370
18
48
1
60
1
100
AcDbLine
10
-19.499998
20
-42.024992
30
0
11
-23
21
-41.564208
31
0
39
0
210
0
220
0
230
1
0
LINE
5
1EC
100
AcDbEntity
8
1
62
256
6
ByLayer
370
18
48
1
60
1
100
AcDbLine
10
67
20
-41.564208
30
0
11
63.500002
21
-42.024992
31
0
39
0
210
0
220
0
230
1
0
LINE
5
1ED
100
AcDbEntity
8
1
62
256
6
ByLayer
370
18
48
1
60
1
100
AcDbLine
10
63.500002
20
-42.024992
30
0
11
63.499998
21
-41.103425
31
0
39
0
210
0
220
0
230
1
0
LINE
5
1EE
100
AcDbEntity
8
1
62
256
6
ByLayer
370
18
48
1
60
1
100
AcDbLine
10
63.499998
20
-41.103425
30
0
11
67
21
-41.564208
31
0
39
0
210
0
220
0
230
1
0
MTEXT
5
1DB
100
AcDbEntity
8
SK2
62
256
6
ByLayer
370
18
48
1
60
0
100
AcDbMText
10
11.618886
20
8.658437
30
0
210
0
220
0
230
1
1
%%c
40
3
41
0
44
1.084337
50
90
71
7
72
5
7
iso_b_vert
0
MTEXT
5
1DE
100
AcDbEntity
8
SK2
62
256
6
ByLayer
370
18
48
1
60
0
100
AcDbMText
10
11.618886
20
14.635
30
0
210
0
220
0
230
1
1
\W0.5404;6
40
3
41
0
44
1.084337
50
90
71
7
72
5
7
iso_b_vert
0
MTEXT
5
1E7
100
AcDbEntity
8
2
62
256
6
ByLayer
370
18
48
1
60
0
100
AcDbMText
10
20.367172
20
-40.679094
30
0
210
0
220
0
230
1
1
\W0.6740;90
40
3
41
0
44
1.084337
50
0
71
7
72
5
7
iso_b_vert
0
MTEXT
5
1F0
100
AcDbEntity
8
SK6
62
256
6
ByLayer
370
18
48
1
60
0
100
AcDbMText
10
3.879413
20
-82.114886
30
0
210
0
220
0
230
1
1
\W0.7320;T300-XM101DA-M8     C145
40
3
41
0
44
1.084337
50
0
71
7
72
5
7
iso_b_vert
0
HATCH
5
1E2
100
AcDbEntity
8
SK2
62
256
6
ByLayer
370
13
48
1
60
0
100
AcDbHatch
10
0
20
0
30
0
210
0
220
0
230
1
2
ANSI31
70
0
71
0
91
1
92
5
93
3
72
1
10
12.96
20
3.00000000000003
11
12.4992162584472
21
6.49999830744684
72
1
10
12.4992162584472
20
6.49999830744684
11
13.4207837415528
21
6.50000169255321
72
1
10
13.4207837415528
20
6.50000169255321
11
12.96
21
3.00000000000003
97
0
75
0
76
1
52
0
41
0.0062
77
0
78
1
53
45
43
0
44
0
45
-0.0139193969876572
46
0.0139193969876572
79
0
47
0
98
1
10
0
20
0
0
HATCH
5
1E6
100
AcDbEntity
8
SK2
62
256
6
ByLayer
370
13
48
1
60
0
100
AcDbHatch
10
0
20
0
30
0
210
0
220
0
230
1
2
ANSI31
70
0
71
0
91
1
92
5
93
3
72
1
10
12.96
20
-2.99999999999997
11
13.4207837415528
21
-6.49999830744679
72
1
10
13.4207837415528
20
-6.49999830744679
11
12.4992162584472
21
-6.50000169255316
72
1
10
12.4992162584472
20
-6.50000169255316
11
12.96
21
-2.99999999999997
97
0
75
0
76
1
52
0
41
0.0062
77
0
78
1
53
45
43
0
44
0
45
-0.0139193969876572
46
0.0139193969876572
79
0
47
0
98
1
10
0
20
0
0
HATCH
5
1EB
100
AcDbEntity
8
2
62
256
6
ByLayer
370
13
48
1
60
0
100
AcDbHatch
10
0
20
0
30
0
210
0
220
0
230
1
2
ANSI31
70
0
71
0
91
1
92
5
93
3
72
1
10
-23
20
-41.5642083312539
11
-19.5000016925532
21
-41.1034245897011
72
1
10
-19.5000016925532
20
-41.1034245897011
11
-19.4999983074468
21
-42.0249920728067
72
1
10
-19.4999983074468
20
-42.0249920728067
11
-23
21
-41.5642083312539
97
0
75
0
76
1
52
0
41
0.0062
77
0
78
1
53
45
43
0
44
0
45
-0.0139193969876572
46
0.0139193969876572
79
0
47
0
98
1
10
0
20
0
0
HATCH
5
1EF
100
AcDbEntity
8
2
62
256
6
ByLayer
370
13
48
1
60
0
100
AcDbHatch
10
0
20
0
30
0
210
0
220
0
230
1
2
ANSI31
70
0
71
0
91
1
92
5
93
3
72
1
10
67
20
-41.5642083312539
11
63.5000016925532
21
-42.0249920728067
72
1
10
63.5000016925532
20
-42.0249920728067
11
63.4999983074468
21
-41.1034245897011
72
1
10
63.4999983074468
20
-41.1034245897011
11
67
21
-41.5642083312539
97
0
75
0
76
1
52
0
41
0.0062
77
0
78
1
53
45
43
0
44
0
45
-0.0139193969876572
46
0.0139193969876572
79
0
47
0
98
1
10
0
20
0
0
DIMENSION
5
1F3
100
AcDbEntity
8
2
62
256
6
ByLayer
370
18
48
1
60
0
100
AcDbDimension
2
_U0
10
86.5
20
-4.064208
30
0
11
86.5
21
21.564208
31
0
70
32
71
1
72
1
41
1
210
0
220
0
230
1
3
Standard
100
AcDbAlignedDimension
13
67
23
4.064208
33
0
14
67
24
-4.064208
34
0
50
90
100
AcDbRotatedDimension
1001
ACAD
1000
DSTYLE
1002
{
1070
   371
1070
    13
1070
   372
1070
    13
1070
     3
1000

1070
   170
1070
     0
1070
   144
1040
1.0
1070
   277
1070
     2
1070
   284
1070
     8
1070
   278
1070
    46
1070
   146
1040
1.166667
1070
   345
1005
16
1070
   347
1005
16
1070
   346
1005
16
1070
   344
1005
0
1070
   343
1005
0
1070
   172
1070
     1
1070
    76
1070
     0
1070
    75
1070
     0
1070
   282
1070
     0
1070
   281
1070
     0
1070
    71
1070
     0
1070
    74
1070
     0
1070
   279
1070
     0
1070
   173
1070
     1
1070
   340
1005
1DC
1070
   271
1070
     3
1070
   272
1070
     3
1070
    77
1070
     1
1070
    73
1070
     0
1070
   171
1070
     3
1070
   274
1070
     4
1070
   177
1070
     2
1070
   176
1070
     2
1070
   178
1070
     2
1070
    78
1070
     8
1070
    48
1040
-0.1
1070
    41
1040
3.5
1070
   147
1040
1.5
1070
    42
1040
1.5875
1070
    44
1040
2.0
1070
   140
1040
3.0
1002
}
1001
ACAD_DSTYLE_DIM_LINETYPE
1070
   380
1005
16
1001
ACAD_DSTYLE_DIM_EXT1_LINETYPE
1070
   381
1005
16
1001
ACAD_DSTYLE_DIM_EXT2_LINETYPE
1070
   382
1005
16
0
DIMENSION
5
20E
100
AcDbEntity
8
SK2
62
256
6
ByLayer
370
18
48
1
60
0
100
AcDbDimension
2
_U1
10
63.56
20
13.4486
30
0
11
65.28
21
13.4486
31
0
70
32
71
1
72
1
41
1
210
0
220
0
230
1
3
Standard
100
AcDbAlignedDimension
13
67
23
4.064208
33
0
14
63.56
24
0
34
0
50
0
100
AcDbRotatedDimension
1001
ACAD
1000
DSTYLE
1002
{
1070
   371
1070
    13
1070
   372
1070
    13
1070
   170
1070
     0
1070
   144
1040
1.0
1070
   277
1070
     2
1070
   284
1070
     8
1070
   278
1070
    46
1070
   146
1040
1.166667
1070
   345
1005
16
1070
   347
1005
16
1070
   346
1005
16
1070
   344
1005
0
1070
   343
1005
0
1070
   172
1070
     1
1070
    76
1070
     0
1070
    75
1070
     0
1070
   282
1070
     0
1070
   281
1070
     0
1070
    71
1070
     0
1070
    74
1070
     0
1070
   279
1070
     0
1070
   173
1070
     1
1070
   340
1005
1DC
1070
   271
1070
     3
1070
   272
1070
     3
1070
    77
1070
     1
1070
    73
1070
     1
1070
   171
1070
     3
1070
   274
1070
     4
1070
   177
1070
     2
1070
   176
1070
     2
1070
   178
1070
     2
1070
    78
1070
     8
1070
    48
1040
-0.1
1070
    41
1040
3.5
1070
   147
1040
1.5
1070
    42
1040
1.5875
1070
    44
1040
2.0
1070
   140
1040
3.0
1002
}
1001
ACAD_DSTYLE_DIM_LINETYPE
1070
   380
1005
16
1001
ACAD_DSTYLE_DIM_EXT1_LINETYPE
1070
   381
1005
16
1001
ACAD_DSTYLE_DIM_EXT2_LINETYPE
1070
   382
1005
16
0
DIMENSION
5
228
100
AcDbEntity
8
SK2
62
256
6
ByLayer
370
18
48
1
60
0
100
AcDbDimension
2
_U2
10
55
20
-11.064208
30
0
11
80.714286
21
-11.064208
31
0
70
32
71
1
72
1
41
1
210
0
220
0
230
1
3
Standard
100
AcDbAlignedDimension
13
67
23
-4.064208
33
0
14
55
24
-4.064208
34
0
50
0
100
AcDbRotatedDimension
1001
ACAD
1000
DSTYLE
1002
{
1070
   371
1070
    13
1070
   372
1070
    13
1070
   170
1070
     0
1070
   144
1040
1.0
1070
   277
1070
     2
1070
   284
1070
     8
1070
   278
1070
    46
1070
   146
1040
0.833333
1070
   345
1005
16
1070
   347
1005
16
1070
   346
1005
16
1070
   344
1005
0
1070
   343
1005
0
1070
   172
1070
     1
1070
    76
1070
     0
1070
    75
1070
     0
1070
   282
1070
     0
1070
   281
1070
     0
1070
    47
1040
0.5
1070
    72
1070
     0
1070
    71
1070
     1
1070
    74
1070
     0
1070
   279
1070
     0
1070
   173
1070
     1
1070
   340
1005
1DC
1070
   271
1070
     1
1070
   272
1070
     3
1070
    77
1070
     1
1070
    73
1070
     1
1070
   171
1070
     3
1070
   274
1070
     4
1070
   177
1070
     2
1070
   176
1070
     2
1070
   178
1070
     2
1070
    78
1070
     8
1070
    48
1040
0.5
1070
    41
1040
3.5
1070
   147
1040
1.5
1070
    42
1040
1.5875
1070
    44
1040
2.0
1070
   140
1040
3.0
1002
}
1001
ACAD_DSTYLE_DIM_LINETYPE
1070
   380
1005
16
1001
ACAD_DSTYLE_DIM_EXT1_LINETYPE
1070
   381
1005
16
1001
ACAD_DSTYLE_DIM_EXT2_LINETYPE
1070
   382
1005
16
0
DIMENSION
5
243
100
AcDbEntity
8
SK2
62
256
6
ByLayer
370
18
48
1
60
0
100
AcDbDimension
2
_U3
10
24
20
-33.564208
30
0
11
45.5
21
-33.564208
31
0
70
32
71
1
72
1
41
1
210
0
220
0
230
1
3
Standard
100
AcDbAlignedDimension
13
67
23
-4.064208
33
0
14
24
24
-2.85
34
0
50
0
100
AcDbRotatedDimension
1001
ACAD
1000
DSTYLE
1002
{
1070
   371
1070
    13
1070
   372
1070
    13
1070
   170
1070
     0
1070
   144
1040
1.0
1070
   277
1070
     2
1070
   284
1070
     8
1070
   278
1070
    46
1070
   146
1040
1.166667
1070
   345
1005
16
1070
   347
1005
16
1070
   346
1005
16
1070
   344
1005
0
1070
   343
1005
0
1070
   172
1070
     1
1070
    76
1070
     0
1070
    75
1070
     0
1070
   282
1070
     0
1070
   281
1070
     0
1070
    71
1070
     0
1070
    74
1070
     0
1070
   279
1070
     0
1070
   173
1070
     1
1070
   340
1005
1DC
1070
   271
1070
     1
1070
   272
1070
     3
1070
    77
1070
     1
1070
    73
1070
     1
1070
   171
1070
     3
1070
   274
1070
     4
1070
   177
1070
     2
1070
   176
1070
     2
1070
   178
1070
     2
1070
    78
1070
     8
1070
    48
1040
-0.1
1070
    41
1040
3.5
1070
   147
1040
1.5
1070
    42
1040
1.5875
1070
    44
1040
2.0
1070
   140
1040
3.0
1002
}
1001
ACAD_DSTYLE_DIM_LINETYPE
1070
   380
1005
16
1001
ACAD_DSTYLE_DIM_EXT1_LINETYPE
1070
   381
1005
16
1001
ACAD_DSTYLE_DIM_EXT2_LINETYPE
1070
   382
1005
16
0
DIMENSION
5
25B
100
AcDbEntity
8
2
62
256
6
ByLayer
370
18
48
1
60
0
100
AcDbDimension
2
_U4
10
30.45
20
-22.564208
30
0
11
48.725
21
-22.564208
31
0
70
32
71
1
72
1
41
1
210
0
220
0
230
1
3
Standard
100
AcDbAlignedDimension
13
67
23
-4.064208
33
0
14
30.45
24
0
34
0
50
0
100
AcDbRotatedDimension
1001
ACAD
1000
DSTYLE
1002
{
1070
   371
1070
    13
1070
   372
1070
    13
1070
   170
1070
     0
1070
   144
1040
1.0
1070
   277
1070
     2
1070
   284
1070
     8
1070
   278
1070
    46
1070
   146
1040
1.166667
1070
   345
1005
16
1070
   347
1005
16
1070
   346
1005
16
1070
   344
1005
0
1070
   343
1005
0
1070
   172
1070
     1
1070
    76
1070
     0
1070
    75
1070
     0
1070
   282
1070
     0
1070
   281
1070
     0
1070
    71
1070
     0
1070
    74
1070
     0
1070
   279
1070
     0
1070
   173
1070
     1
1070
   340
1005
1DC
1070
   271
1070
     1
1070
   272
1070
     3
1070
    77
1070
     1
1070
    73
1070
     1
1070
   171
1070
     3
1070
   274
1070
     4
1070
   177
1070
     2
1070
   176
1070
     2
1070
   178
1070
     2
1070
    78
1070
     8
1070
    48
1040
-0.1
1070
    41
1040
3.5
1070
   147
1040
1.5
1070
    42
1040
1.5875
1070
    44
1040
2.0
1070
   140
1040
3.0
1002
}
1001
ACAD_DSTYLE_DIM_LINETYPE
1070
   380
1005
16
1001
ACAD_DSTYLE_DIM_EXT1_LINETYPE
1070
   381
1005
16
1001
ACAD_DSTYLE_DIM_EXT2_LINETYPE
1070
   382
1005
16
0
ENDSEC
0
SECTION
2
OBJECTS
0
DICTIONARY
5
2e3
330
0
100
AcDbDictionary
280
0
281
1
3
ACAD_GROUP
350
2e4
3
ACAD_MLINESTYLE
350
2e5
0
DICTIONARY
5
2e4
330
0
100
AcDbDictionary
280
0
281
1
0
DICTIONARY
5
2e5
330
0
100
AcDbDictionary
280
0
281
1
3
Standard
350
18
0
MLINESTYLE
5
18
330
2e5
100
AcDbMlineStyle
2
Standard
70
0
3

62
256
51
90
52
90
71
2
49
-0.5
62
256
6
ByLayer
49
0.5
62
256
6
ByLayer
0
RASTERVARIABLES
5
2d1
330

100
AcDbRasterVariables
90
0
70
1
71
1
72
1
0
ENDSEC
0
EOF
