0
SECTION
2
HEADER
9
$ACADVER
1
AC1015
9
$DWGCODEPAGE
3
ANSI_1252
9
$HANDSEED
5
2f7
9
$ANGBASE
50
0
9
$ANGDIR
70
0
9
$ATTMODE
70
1
9
$AUNITS
70
0
9
$AUPREC
70
0
9
$CECOLOR
62
256
9
$CELTSCALE
40
1
9
$CELTYPE
6
ByLayer
9
$CELWEIGHT
370
18
9
$CLAYER
8
0
9
$CMLJUST
70
0
9
$CMLSCALE
40
1
9
$CMLSTYLE
2
Standard
9
$DIMSTYLE
2
Standard
9
$TEXTSIZE
40
0.2
9
$TEXTSTYLE
7
Standard
9
$LUNITS
70
2
9
$LUPREC
70
4
9
$EXTNAMES
290
1
9
$INSUNITS
70
4
9
$LTSCALE
40
1
9
$LWDISPLAY
290
1
9
$PDMODE
70
0
9
$PDSIZE
40
0
9
$PLINEGEN
70
0
0
ENDSEC
0
SECTION
2
CLASSES
0
CLASS
1
RASTERVARIABLES
2
AcDbRasterVariables
3
ISM
90
0
280
0
281
0
0
ENDSEC
0
SECTION
2
TABLES
0
TABLE
2
VPORT
5
2ed
100
AcDbSymbolTable
0
VPORT
5
1
100
AcDbSymbolTableRecord
100
AcDbViewportTableRecord
2
*Active
70
0
10
0
20
0
11
1
21
1
12
-1
22
1
13
0
23
0
14
0.5
24
0.5
15
10
25
10
16
0
26
0
36
1
17
0
27
0
37
0
0
ENDTAB
0
TABLE
2
LTYPE
5
2ee
100
AcDbSymbolTable
0
LTYPE
5
14
100
AcDbSymbolTableRecord
100
AcDbLinetypeTableRecord
70
0
2
ByBlock
3

72
65
73
0
40
0
0
LTYPE
5
15
100
AcDbSymbolTableRecord
100
AcDbLinetypeTableRecord
70
0
2
ByLayer
3

72
65
73
0
40
0
0
LTYPE
5
16
100
AcDbSymbolTableRecord
100
AcDbLinetypeTableRecord
70
0
2
Continuous
3
Solid line
72
65
73
0
40
0
0
LTYPE
5
6E
100
AcDbSymbolTableRecord
100
AcDbLinetypeTableRecord
70
0
2
CENTER
3
____ _ ____ _ ____ _ ____
72
65
73
4
40
47.5
49
22
74
0
49
-8.5
74
0
49
8.5
74
0
49
-8.5
74
0
0
LTYPE
5
6F
100
AcDbSymbolTableRecord
100
AcDbLinetypeTableRecord
70
0
2
DASHED
3
__ __ __ __ __ __ __ __ __
72
65
73
2
40
25.72
49
12.86
74
0
49
-12.86
74
0
0
ENDTAB
0
TABLE
2
LAYER
5
2ef
100
AcDbSymbolTable
0
LAYER
5
10
100
AcDbSymbolTableRecord
100
AcDbLayerTableRecord
2
0
70
0
62
7
6
Continuous
290
1
370
-3
390
0
0
LAYER
5
71
100
AcDbSymbolTableRecord
100
AcDbLayerTableRecord
2
81
70
0
62
-3
6
Continuous
290
1
370
-3
390
0
0
LAYER
5
73
100
AcDbSymbolTableRecord
100
AcDbLayerTableRecord
2
80
70
0
62
-6
6
Continuous
290
1
370
-3
390
0
0
LAYER
5
75
100
AcDbSymbolTableRecord
100
AcDbLayerTableRecord
2
1
70
0
62
4
6
Continuous
290
1
370
-3
390
0
0
LAYER
5
81
100
AcDbSymbolTableRecord
100
AcDbLayerTableRecord
2
4
70
0
62
-2
6
CENTER
290
1
370
-3
390
0
0
LAYER
5
BF
100
AcDbSymbolTableRecord
100
AcDbLayerTableRecord
2
2
70
0
62
7
6
Continuous
290
1
370
-3
390
0
0
LAYER
5
1FF
100
AcDbSymbolTableRecord
100
AcDbLayerTableRecord
2
Defpoints
70
0
62
7
6
Continuous
290
0
370
-3
390
0
0
LAYER
5
2d9
100
AcDbSymbolTableRecord
100
AcDbLayerTableRecord
2
SK4
70
0
62
2
6
CENTER
290
1
370
-3
390
0
0
LAYER
5
2da
100
AcDbSymbolTableRecord
100
AcDbLayerTableRecord
2
SK1
70
0
62
4
6
Continuous
290
1
370
-3
390
0
0
LAYER
5
2db
100
AcDbSymbolTableRecord
100
AcDbLayerTableRecord
2
SK2
70
0
62
7
6
Continuous
290
1
370
-3
390
0
0
LAYER
5
2dc
100
AcDbSymbolTableRecord
100
AcDbLayerTableRecord
2
SK6
70
0
62
5
6
Continuous
290
1
370
-3
390
0
0
ENDTAB
0
TABLE
2
STYLE
5
2f0
100
AcDbSymbolTable
0
STYLE
5
11
100
AcDbSymbolTableRecord
100
AcDbTextStyleTableRecord
2
Standard
3
txt
70
0
71
0
40
0
41
1
42
0
50
0
0
STYLE
5
1E5
100
AcDbSymbolTableRecord
100
AcDbTextStyleTableRecord
2
iso_b_vert
3
simplex.shx
70
0
71
0
40
0
41
1
42
0
50
0
0
STYLE
5
1E6
100
AcDbSymbolTableRecord
100
AcDbTextStyleTableRecord
2
DWGDirectTextStyle
3
simplex
70
0
71
0
40
0
41
1
42
0
50
0
0
ENDTAB
0
TABLE
2
DIMSTYLE
5
2f1
100
AcDbSymbolTable
100
AcDbDimStyleTable
0
DIMSTYLE
105
27
100
AcDbSymbolTableRecord
100
AcDbDimStyleTableRecord
2
Standard
70
0
3
<>
41
0.18
42
0.0625
44
0.18
140
0.18
147
0.09
73
0
74
0
77
1
271
2
275
0
278
52
280
0
340
11
0
ENDTAB
0
TABLE
2
VIEW
5
2f2
100
AcDbSymbolTable
0
ENDTAB
0
TABLE
2
UCS
5
2f3
100
AcDbSymbolTable
0
ENDTAB
0
TABLE
2
APPID
5
2f4
100
AcDbSymbolTable
0
APPID
5
12
100
AcDbSymbolTableRecord
100
AcDbRegAppTableRecord
2
ACAD
70
0
0
APPID
5
1FB
100
AcDbSymbolTableRecord
100
AcDbRegAppTableRecord
2
ACAD_DSTYLE_DIMBREAK
70
0
0
APPID
5
298
100
AcDbSymbolTableRecord
100
AcDbRegAppTableRecord
2
ACAD_DSTYLE_DIM_LINETYPE
70
0
0
APPID
5
299
100
AcDbSymbolTableRecord
100
AcDbRegAppTableRecord
2
ACAD_DSTYLE_DIM_EXT1_LINETYPE
70
0
0
APPID
5
29A
100
AcDbSymbolTableRecord
100
AcDbRegAppTableRecord
2
ACAD_DSTYLE_DIM_EXT2_LINETYPE
70
0
0
APPID
5
2D5
100
AcDbSymbolTableRecord
100
AcDbRegAppTableRecord
2
ACAD_MLEADERVER
70
0
0
ENDTAB
0
TABLE
2
BLOCK_RECORD
5
2f5
100
AcDbSymbolTable
0
BLOCK_RECORD
5
1F
100
AcDbSymbolTableRecord
100
AcDbBlockTableRecord
2
*Model_Space
340
0
70
0
0
BLOCK_RECORD
5
1B
100
AcDbSymbolTableRecord
100
AcDbBlockTableRecord
2
*Paper_Space
340
0
70
0
0
BLOCK_RECORD
5
23
100
AcDbSymbolTableRecord
100
AcDbBlockTableRecord
2
*Paper_Space0
340
0
70
0
0
BLOCK_RECORD
5
200
100
AcDbSymbolTableRecord
100
AcDbBlockTableRecord
2
*D1
340
0
70
0
0
BLOCK_RECORD
5
20E
100
AcDbSymbolTableRecord
100
AcDbBlockTableRecord
2
_U0
340
0
70
0
0
BLOCK_RECORD
5
21A
100
AcDbSymbolTableRecord
100
AcDbBlockTableRecord
2
*D3
340
0
70
0
0
BLOCK_RECORD
5
227
100
AcDbSymbolTableRecord
100
AcDbBlockTableRecord
2
_U1
340
0
70
0
0
BLOCK_RECORD
5
234
100
AcDbSymbolTableRecord
100
AcDbBlockTableRecord
2
*D5
340
0
70
0
0
BLOCK_RECORD
5
240
100
AcDbSymbolTableRecord
100
AcDbBlockTableRecord
2
_U2
340
0
70
0
0
BLOCK_RECORD
5
24D
100
AcDbSymbolTableRecord
100
AcDbBlockTableRecord
2
*D7
340
0
70
0
0
BLOCK_RECORD
5
259
100
AcDbSymbolTableRecord
100
AcDbBlockTableRecord
2
_U3
340
0
70
0
0
BLOCK_RECORD
5
265
100
AcDbSymbolTableRecord
100
AcDbBlockTableRecord
2
*D9
340
0
70
0
0
BLOCK_RECORD
5
271
100
AcDbSymbolTableRecord
100
AcDbBlockTableRecord
2
_U4
340
0
70
0
0
ENDTAB
0
ENDSEC
0
SECTION
2
BLOCKS
0
BLOCK
5
20
100
AcDbEntity
8
0
100
AcDbBlockBegin
2
*Model_Space
70
0
10
0
20
0
30
0
3
*Model_Space
0
ENDBLK
5
21
100
AcDbEntity
8
0
100
AcDbBlockEnd
0
BLOCK
5
1C
100
AcDbEntity
8
0
100
AcDbBlockBegin
2
*Paper_Space
70
0
10
0
20
0
30
0
3
*Paper_Space
0
ENDBLK
5
1D
100
AcDbEntity
8
0
100
AcDbBlockEnd
0
BLOCK
5
24
100
AcDbEntity
8
0
100
AcDbBlockBegin
2
*Paper_Space0
70
0
10
0
20
0
30
0
3
*Paper_Space0
0
ENDBLK
5
25
100
AcDbEntity
8
0
100
AcDbBlockEnd
0
BLOCK
5
201
100
AcDbEntity
8
0
100
AcDbBlockBegin
2
*D1
70
1
10
0
20
0
30
0
3
*D1
0
LINE
5
203
100
AcDbEntity
8
0
62
256
6
ByLayer
370
-2
48
1
60
0
100
AcDbLine
10
82.5875
20
7.081949
30
0
11
102.5
21
7.081949
31
0
39
0
210
0
220
0
230
1
0
LINE
5
204
100
AcDbEntity
8
0
62
256
6
ByLayer
370
-2
48
1
60
0
100
AcDbLine
10
82.5875
20
-7.081949
30
0
11
102.5
21
-7.081949
31
0
39
0
210
0
220
0
230
1
0
LINE
5
205
100
AcDbEntity
8
0
62
256
6
ByLayer
370
-2
48
1
60
0
100
AcDbLine
10
100.5
20
7.081949
30
0
11
100.5
21
37.653377
31
0
39
0
210
0
220
0
230
1
0
LINE
5
206
100
AcDbEntity
8
0
62
256
6
ByLayer
370
-2
48
1
60
0
100
AcDbLine
10
100.5
20
10.581949
30
0
11
100.5
21
14.081949
31
0
39
0
210
0
220
0
230
1
0
LINE
5
207
100
AcDbEntity
8
0
62
256
6
ByLayer
370
-2
48
1
60
0
100
AcDbLine
10
100.5
20
-10.581949
30
0
11
100.5
21
-14.081949
31
0
39
0
210
0
220
0
230
1
0
SOLID
5
208
100
AcDbEntity
8
0
62
256
6
ByLayer
370
-1
48
1
60
0
100
AcDbTrace
10
99.916667
20
10.581949
30
0
11
101.083333
21
10.581949
31
0
12
100.5
22
7.081949
32
0
13
100.5
23
7.081949
33
0
39
0
210
0
220
0
230
1
0
SOLID
5
209
100
AcDbEntity
8
0
62
256
6
ByLayer
370
-1
48
1
60
0
100
AcDbTrace
10
101.083333
20
-10.581949
30
0
11
99.916667
21
-10.581949
31
0
12
100.5
22
-7.081949
32
0
13
100.5
23
-7.081949
33
0
39
0
210
0
220
0
230
1
0
MTEXT
5
20A
100
AcDbEntity
8
0
62
256
6
ByLayer
370
18
48
1
60
0
100
AcDbMText
10
94.5
20
25.867663
30
0
210
0
220
0
230
1
1
\A1;14.164
40
3
41
0
44
1
50
90
71
5
72
5
7
iso_b_vert
0
POINT
5
20B
100
AcDbEntity
8
Defpoints
62
0
6
ByLayer
370
-1
48
1
60
0
100
AcDbPoint
10
81
20
7.081949
30
0
39
0
210
0
220
0
230
1
50
360
0
POINT
5
20C
100
AcDbEntity
8
Defpoints
62
0
6
ByLayer
370
-1
48
1
60
0
100
AcDbPoint
10
81
20
-7.081949
30
0
39
0
210
0
220
0
230
1
50
360
0
POINT
5
20D
100
AcDbEntity
8
Defpoints
62
0
6
ByLayer
370
-1
48
1
60
0
100
AcDbPoint
10
100.5
20
-7.081949
30
0
39
0
210
0
220
0
230
1
50
360
0
ENDBLK
5
202
100
AcDbEntity
8
0
100
AcDbBlockEnd
0
BLOCK
5
215
100
AcDbEntity
8
0
100
AcDbBlockBegin
2
_U0
70
0
10
0
20
0
30
0
3
_U0
0
MTEXT
5
20F
100
AcDbEntity
8
2
62
256
6
ByLayer
370
18
48
1
60
0
100
AcDbMText
10
99.908886
20
17.216949
30
0
210
0
220
0
230
1
1
\W0.6827;M14
40
3
41
0
44
1.084337
50
90
71
7
72
5
7
iso_b_vert
0
LINE
5
210
100
AcDbEntity
8
2
62
256
6
ByLayer
370
13
48
1
60
0
100
AcDbLine
10
82.5875
20
7.081949
30
0
11
102.5
21
7.081949
31
0
39
0
210
0
220
0
230
1
0
LINE
5
211
100
AcDbEntity
8
2
62
256
6
ByLayer
370
13
48
1
60
0
100
AcDbLine
10
82.5875
20
-7.081949
30
0
11
102.5
21
-7.081949
31
0
39
0
210
0
220
0
230
1
0
LINE
5
212
100
AcDbEntity
8
2
62
256
6
ByLayer
370
13
48
1
60
0
100
AcDbLine
10
100.5
20
-7.081949
30
0
11
100.5
21
23.144577
31
0
39
0
210
0
220
0
230
1
0
SOLID
5
213
100
AcDbEntity
8
2
62
256
6
ByLayer
370
18
48
1
60
0
100
AcDbTrace
10
100.5
20
7.081949
30
0
11
100.960784
21
3.581951
31
0
12
100.039216
22
3.581947
32
0
13
100.039216
23
3.581947
33
0
39
0
210
0
220
0
230
1
0
SOLID
5
214
100
AcDbEntity
8
2
62
256
6
ByLayer
370
18
48
1
60
0
100
AcDbTrace
10
100.5
20
-7.081949
30
0
11
100.039216
21
-3.581951
31
0
12
100.960784
22
-3.581947
32
0
13
100.960784
23
-3.581947
33
0
39
0
210
0
220
0
230
1
0
ENDBLK
5
216
100
AcDbEntity
8
0
100
AcDbBlockEnd
0
BLOCK
5
21B
100
AcDbEntity
8
0
100
AcDbBlockBegin
2
*D3
70
1
10
0
20
0
30
0
3
*D3
0
LINE
5
21D
100
AcDbEntity
8
0
62
256
6
ByLayer
370
-2
48
1
60
0
100
AcDbLine
10
81
20
8.669449
30
0
11
81
21
19.65512
31
0
39
0
210
0
220
0
230
1
0
LINE
5
21E
100
AcDbEntity
8
0
62
256
6
ByLayer
370
-2
48
1
60
0
100
AcDbLine
10
75.5
20
1.5875
30
0
11
75.5
21
19.65512
31
0
39
0
210
0
220
0
230
1
0
LINE
5
21F
100
AcDbEntity
8
0
62
256
6
ByLayer
370
-2
48
1
60
0
100
AcDbLine
10
84.5
20
17.65512
30
0
11
88
21
17.65512
31
0
39
0
210
0
220
0
230
1
0
LINE
5
220
100
AcDbEntity
8
0
62
256
6
ByLayer
370
-2
48
1
60
0
100
AcDbLine
10
72
20
17.65512
30
0
11
68.5
21
17.65512
31
0
39
0
210
0
220
0
230
1
0
SOLID
5
221
100
AcDbEntity
8
0
62
256
6
ByLayer
370
-1
48
1
60
0
100
AcDbTrace
10
84.5
20
18.238454
30
0
11
84.5
21
17.071787
31
0
12
81
22
17.65512
32
0
13
81
23
17.65512
33
0
39
0
210
0
220
0
230
1
0
SOLID
5
222
100
AcDbEntity
8
0
62
256
6
ByLayer
370
-1
48
1
60
0
100
AcDbTrace
10
72
20
17.071787
30
0
11
72
21
18.238454
31
0
12
75.5
22
17.65512
32
0
13
75.5
23
17.65512
33
0
39
0
210
0
220
0
230
1
0
MTEXT
5
223
100
AcDbEntity
8
0
62
256
6
ByLayer
370
18
48
1
60
0
100
AcDbMText
10
78.25
20
23.65512
30
0
210
0
220
0
230
1
1
\A1;5.5
40
3
41
0
44
1
50
0
71
5
72
5
7
iso_b_vert
0
POINT
5
224
100
AcDbEntity
8
Defpoints
62
0
6
ByLayer
370
-1
48
1
60
0
100
AcDbPoint
10
81
20
7.081949
30
0
39
0
210
0
220
0
230
1
50
360
0
POINT
5
225
100
AcDbEntity
8
Defpoints
62
0
6
ByLayer
370
-1
48
1
60
0
100
AcDbPoint
10
75.5
20
0
30
0
39
0
210
0
220
0
230
1
50
360
0
POINT
5
226
100
AcDbEntity
8
Defpoints
62
0
6
ByLayer
370
-1
48
1
60
0
100
AcDbPoint
10
75.5
20
17.65512
30
0
39
0
210
0
220
0
230
1
50
360
0
ENDBLK
5
21C
100
AcDbEntity
8
0
100
AcDbBlockEnd
0
BLOCK
5
22F
100
AcDbEntity
8
0
100
AcDbBlockBegin
2
_U1
70
0
10
0
20
0
30
0
3
_U1
0
MTEXT
5
228
100
AcDbEntity
8
SK2
62
256
6
ByLayer
370
18
48
1
60
0
100
AcDbMText
10
76.035958
20
18.437754
30
0
210
0
220
0
230
1
1
\W0.6474;'C'
40
3.5
41
0
44
1.084337
50
0
71
7
72
5
7
iso_b_vert
0
MTEXT
5
229
100
AcDbEntity
8
SK2
62
256
6
ByLayer
370
18
48
1
60
0
100
AcDbMText
10
76.009458
20
25.540235
30
0
210
0
220
0
230
1
1
\W0.7121;5.5
40
3
41
0
44
1.084337
50
0
71
7
72
5
7
iso_b_vert
0
LINE
5
22A
100
AcDbEntity
8
SK2
62
256
6
ByLayer
370
13
48
1
60
0
100
AcDbLine
10
81
20
8.669449
30
0
11
81
21
19.65512
31
0
39
0
210
0
220
0
230
1
0
LINE
5
22B
100
AcDbEntity
8
SK2
62
256
6
ByLayer
370
13
48
1
60
0
100
AcDbLine
10
75.5
20
1.5875
30
0
11
75.5
21
19.65512
31
0
39
0
210
0
220
0
230
1
0
LINE
5
22C
100
AcDbEntity
8
SK2
62
256
6
ByLayer
370
13
48
1
60
0
100
AcDbLine
10
88.5
20
17.65512
30
0
11
68
21
17.65512
31
0
39
0
210
0
220
0
230
1
0
SOLID
5
22D
100
AcDbEntity
8
SK2
62
256
6
ByLayer
370
18
48
1
60
0
100
AcDbTrace
10
81
20
17.65512
30
0
11
84.499998
21
18.115904
31
0
12
84.500002
22
17.194337
32
0
13
84.500002
23
17.194337
33
0
39
0
210
0
220
0
230
1
0
SOLID
5
22E
100
AcDbEntity
8
SK2
62
256
6
ByLayer
370
18
48
1
60
0
100
AcDbTrace
10
75.5
20
17.65512
30
0
11
72.000002
21
17.194337
31
0
12
71.999998
22
18.115904
32
0
13
71.999998
23
18.115904
33
0
39
0
210
0
220
0
230
1
0
ENDBLK
5
230
100
AcDbEntity
8
0
100
AcDbBlockEnd
0
BLOCK
5
235
100
AcDbEntity
8
0
100
AcDbBlockBegin
2
*D5
70
1
10
0
20
0
30
0
3
*D5
0
LINE
5
237
100
AcDbEntity
8
0
62
256
6
ByLayer
370
-2
48
1
60
0
100
AcDbLine
10
81
20
-8.669449
30
0
11
81
21
-16.081949
31
0
39
0
210
0
220
0
230
1
0
LINE
5
238
100
AcDbEntity
8
0
62
256
6
ByLayer
370
-2
48
1
60
0
100
AcDbLine
10
61
20
-8.669449
30
0
11
61
21
-16.081949
31
0
39
0
210
0
220
0
230
1
0
LINE
5
239
100
AcDbEntity
8
0
62
256
6
ByLayer
370
-2
48
1
60
0
100
AcDbLine
10
77.5
20
-14.081949
30
0
11
64.5
21
-14.081949
31
0
39
0
210
0
220
0
230
1
0
SOLID
5
23A
100
AcDbEntity
8
0
62
256
6
ByLayer
370
-1
48
1
60
0
100
AcDbTrace
10
77.5
20
-14.665282
30
0
11
77.5
21
-13.498616
31
0
12
81
22
-14.081949
32
0
13
81
23
-14.081949
33
0
39
0
210
0
220
0
230
1
0
SOLID
5
23B
100
AcDbEntity
8
0
62
256
6
ByLayer
370
-1
48
1
60
0
100
AcDbTrace
10
64.5
20
-13.498616
30
0
11
64.5
21
-14.665282
31
0
12
61
22
-14.081949
32
0
13
61
23
-14.081949
33
0
39
0
210
0
220
0
230
1
0
MTEXT
5
23C
100
AcDbEntity
8
0
62
256
6
ByLayer
370
18
48
1
60
0
100
AcDbMText
10
71.47619
20
-8.081949
30
0
210
0
220
0
230
1
1
\A1;20
40
3
41
0
44
1
50
0
71
5
72
5
7
iso_b_vert
0
POINT
5
23D
100
AcDbEntity
8
Defpoints
62
0
6
ByLayer
370
-1
48
1
60
0
100
AcDbPoint
10
81
20
-7.081949
30
0
39
0
210
0
220
0
230
1
50
360
0
POINT
5
23E
100
AcDbEntity
8
Defpoints
62
0
6
ByLayer
370
-1
48
1
60
0
100
AcDbPoint
10
61
20
-7.081949
30
0
39
0
210
0
220
0
230
1
50
360
0
POINT
5
23F
100
AcDbEntity
8
Defpoints
62
0
6
ByLayer
370
-1
48
1
60
0
100
AcDbPoint
10
61
20
-14.081949
30
0
39
0
210
0
220
0
230
1
50
360
0
ENDBLK
5
236
100
AcDbEntity
8
0
100
AcDbBlockEnd
0
BLOCK
5
248
100
AcDbEntity
8
0
100
AcDbBlockBegin
2
_U2
70
0
10
0
20
0
30
0
3
_U2
0
MTEXT
5
241
100
AcDbEntity
8
SK2
62
256
6
ByLayer
370
18
48
1
60
0
100
AcDbMText
10
64.968744
20
-13.196834
30
0
210
0
220
0
230
1
1
\W0.6740;20
40
3
41
0
44
1.084337
50
0
71
7
72
5
7
iso_b_vert
0
MTEXT
5
242
100
AcDbEntity
8
SK2
62
256
6
ByLayer
370
18
48
1
60
0
100
AcDbMText
10
71.0259
20
-12.844354
30
0
210
0
220
0
230
1
1
\W0.8315;\W0.4158;%%p\W0.8315;0.5
40
2.5
41
0
44
1.084337
50
0
71
7
72
5
7
iso_b_vert
0
LINE
5
243
100
AcDbEntity
8
SK2
62
256
6
ByLayer
370
13
48
1
60
0
100
AcDbLine
10
81
20
-8.669449
30
0
11
81
21
-16.081949
31
0
39
0
210
0
220
0
230
1
0
LINE
5
244
100
AcDbEntity
8
SK2
62
256
6
ByLayer
370
13
48
1
60
0
100
AcDbLine
10
61
20
-8.669449
30
0
11
61
21
-16.081949
31
0
39
0
210
0
220
0
230
1
0
LINE
5
245
100
AcDbEntity
8
SK2
62
256
6
ByLayer
370
13
48
1
60
0
100
AcDbLine
10
81
20
-14.081949
30
0
11
61
21
-14.081949
31
0
39
0
210
0
220
0
230
1
0
SOLID
5
246
100
AcDbEntity
8
SK2
62
256
6
ByLayer
370
18
48
1
60
0
100
AcDbTrace
10
81
20
-14.081949
30
0
11
77.500002
21
-14.542733
31
0
12
77.499998
22
-13.621165
32
0
13
77.499998
23
-13.621165
33
0
39
0
210
0
220
0
230
1
0
SOLID
5
247
100
AcDbEntity
8
SK2
62
256
6
ByLayer
370
18
48
1
60
0
100
AcDbTrace
10
61
20
-14.081949
30
0
11
64.499998
21
-13.621165
31
0
12
64.500002
22
-14.542733
32
0
13
64.500002
23
-14.542733
33
0
39
0
210
0
220
0
230
1
0
ENDBLK
5
249
100
AcDbEntity
8
0
100
AcDbBlockEnd
0
BLOCK
5
24E
100
AcDbEntity
8
0
100
AcDbBlockBegin
2
*D7
70
1
10
0
20
0
30
0
3
*D7
0
LINE
5
250
100
AcDbEntity
8
0
62
256
6
ByLayer
370
-2
48
1
60
0
100
AcDbLine
10
81
20
-8.669449
30
0
11
81
21
-38.581949
31
0
39
0
210
0
220
0
230
1
0
LINE
5
251
100
AcDbEntity
8
0
62
256
6
ByLayer
370
-2
48
1
60
0
100
AcDbLine
10
21
20
-6.9375
30
0
11
21
21
-38.581949
31
0
39
0
210
0
220
0
230
1
0
LINE
5
252
100
AcDbEntity
8
0
62
256
6
ByLayer
370
-2
48
1
60
0
100
AcDbLine
10
77.5
20
-36.581949
30
0
11
24.5
21
-36.581949
31
0
39
0
210
0
220
0
230
1
0
SOLID
5
253
100
AcDbEntity
8
0
62
256
6
ByLayer
370
-1
48
1
60
0
100
AcDbTrace
10
77.5
20
-37.165282
30
0
11
77.5
21
-35.998616
31
0
12
81
22
-36.581949
32
0
13
81
23
-36.581949
33
0
39
0
210
0
220
0
230
1
0
SOLID
5
254
100
AcDbEntity
8
0
62
256
6
ByLayer
370
-1
48
1
60
0
100
AcDbTrace
10
24.5
20
-35.998616
30
0
11
24.5
21
-37.165282
31
0
12
21
22
-36.581949
32
0
13
21
23
-36.581949
33
0
39
0
210
0
220
0
230
1
0
MTEXT
5
255
100
AcDbEntity
8
0
62
256
6
ByLayer
370
18
48
1
60
0
100
AcDbMText
10
51
20
-30.581949
30
0
210
0
220
0
230
1
1
\A1;60
40
3
41
0
44
1
50
0
71
5
72
5
7
iso_b_vert
0
POINT
5
256
100
AcDbEntity
8
Defpoints
62
0
6
ByLayer
370
-1
48
1
60
0
100
AcDbPoint
10
81
20
-7.081949
30
0
39
0
210
0
220
0
230
1
50
360
0
POINT
5
257
100
AcDbEntity
8
Defpoints
62
0
6
ByLayer
370
-1
48
1
60
0
100
AcDbPoint
10
21
20
-5.35
30
0
39
0
210
0
220
0
230
1
50
360
0
POINT
5
258
100
AcDbEntity
8
Defpoints
62
0
6
ByLayer
370
-1
48
1
60
0
100
AcDbPoint
10
21
20
-36.581949
30
0
39
0
210
0
220
0
230
1
50
360
0
ENDBLK
5
24F
100
AcDbEntity
8
0
100
AcDbBlockEnd
0
BLOCK
5
260
100
AcDbEntity
8
0
100
AcDbBlockBegin
2
_U3
70
0
10
0
20
0
30
0
3
_U3
0
MTEXT
5
25A
100
AcDbEntity
8
SK2
62
256
6
ByLayer
370
18
48
1
60
0
100
AcDbMText
10
49.367172
20
-35.696834
30
0
210
0
220
0
230
1
1
\W0.6740;60
40
3
41
0
44
1.084337
50
0
71
7
72
5
7
iso_b_vert
0
LINE
5
25B
100
AcDbEntity
8
SK2
62
256
6
ByLayer
370
13
48
1
60
0
100
AcDbLine
10
81
20
-8.669449
30
0
11
81
21
-38.581949
31
0
39
0
210
0
220
0
230
1
0
LINE
5
25C
100
AcDbEntity
8
SK2
62
256
6
ByLayer
370
13
48
1
60
0
100
AcDbLine
10
21
20
-6.9375
30
0
11
21
21
-38.581949
31
0
39
0
210
0
220
0
230
1
0
LINE
5
25D
100
AcDbEntity
8
SK2
62
256
6
ByLayer
370
13
48
1
60
0
100
AcDbLine
10
81
20
-36.581949
30
0
11
21
21
-36.581949
31
0
39
0
210
0
220
0
230
1
0
SOLID
5
25E
100
AcDbEntity
8
SK2
62
256
6
ByLayer
370
18
48
1
60
0
100
AcDbTrace
10
81
20
-36.581949
30
0
11
77.500002
21
-37.042733
31
0
12
77.499998
22
-36.121165
32
0
13
77.499998
23
-36.121165
33
0
39
0
210
0
220
0
230
1
0
SOLID
5
25F
100
AcDbEntity
8
SK2
62
256
6
ByLayer
370
18
48
1
60
0
100
AcDbTrace
10
21
20
-36.581949
30
0
11
24.499998
21
-36.121165
31
0
12
24.500002
22
-37.042733
32
0
13
24.500002
23
-37.042733
33
0
39
0
210
0
220
0
230
1
0
ENDBLK
5
261
100
AcDbEntity
8
0
100
AcDbBlockEnd
0
BLOCK
5
266
100
AcDbEntity
8
0
100
AcDbBlockBegin
2
*D9
70
1
10
0
20
0
30
0
3
*D9
0
LINE
5
268
100
AcDbEntity
8
0
62
256
6
ByLayer
370
-2
48
1
60
0
100
AcDbLine
10
81
20
-8.669449
30
0
11
81
21
-27.581949
31
0
39
0
210
0
220
0
230
1
0
LINE
5
269
100
AcDbEntity
8
0
62
256
6
ByLayer
370
-2
48
1
60
0
100
AcDbLine
10
30
20
-1.5875
30
0
11
30
21
-27.581949
31
0
39
0
210
0
220
0
230
1
0
LINE
5
26A
100
AcDbEntity
8
0
62
256
6
ByLayer
370
-2
48
1
60
0
100
AcDbLine
10
77.5
20
-25.581949
30
0
11
33.5
21
-25.581949
31
0
39
0
210
0
220
0
230
1
0
SOLID
5
26B
100
AcDbEntity
8
0
62
256
6
ByLayer
370
-1
48
1
60
0
100
AcDbTrace
10
77.5
20
-26.165282
30
0
11
77.5
21
-24.998616
31
0
12
81
22
-25.581949
32
0
13
81
23
-25.581949
33
0
39
0
210
0
220
0
230
1
0
SOLID
5
26C
100
AcDbEntity
8
0
62
256
6
ByLayer
370
-1
48
1
60
0
100
AcDbTrace
10
33.5
20
-24.998616
30
0
11
33.5
21
-26.165282
31
0
12
30
22
-25.581949
32
0
13
30
23
-25.581949
33
0
39
0
210
0
220
0
230
1
0
MTEXT
5
26D
100
AcDbEntity
8
0
62
256
6
ByLayer
370
18
48
1
60
0
100
AcDbMText
10
55.5
20
-19.581949
30
0
210
0
220
0
230
1
1
\A1;51
40
3
41
0
44
1
50
0
71
5
72
5
7
iso_b_vert
0
POINT
5
26E
100
AcDbEntity
8
Defpoints
62
0
6
ByLayer
370
-1
48
1
60
0
100
AcDbPoint
10
81
20
-7.081949
30
0
39
0
210
0
220
0
230
1
50
360
0
POINT
5
26F
100
AcDbEntity
8
Defpoints
62
0
6
ByLayer
370
-1
48
1
60
0
100
AcDbPoint
10
30
20
0
30
0
39
0
210
0
220
0
230
1
50
360
0
POINT
5
270
100
AcDbEntity
8
Defpoints
62
0
6
ByLayer
370
-1
48
1
60
0
100
AcDbPoint
10
30
20
-25.581949
30
0
39
0
210
0
220
0
230
1
50
360
0
ENDBLK
5
267
100
AcDbEntity
8
0
100
AcDbBlockEnd
0
BLOCK
5
278
100
AcDbEntity
8
0
100
AcDbBlockBegin
2
_U4
70
0
10
0
20
0
30
0
3
_U4
0
MTEXT
5
272
100
AcDbEntity
8
2
62
256
6
ByLayer
370
18
48
1
60
0
100
AcDbMText
10
54.242115
20
-24.696834
30
0
210
0
220
0
230
1
1
\W0.6351;51
40
3
41
0
44
1.084337
50
0
71
7
72
5
7
iso_b_vert
0
LINE
5
273
100
AcDbEntity
8
2
62
256
6
ByLayer
370
13
48
1
60
0
100
AcDbLine
10
81
20
-8.669449
30
0
11
81
21
-27.581949
31
0
39
0
210
0
220
0
230
1
0
LINE
5
274
100
AcDbEntity
8
2
62
256
6
ByLayer
370
13
48
1
60
0
100
AcDbLine
10
30
20
-1.5875
30
0
11
30
21
-27.581949
31
0
39
0
210
0
220
0
230
1
0
LINE
5
275
100
AcDbEntity
8
2
62
256
6
ByLayer
370
13
48
1
60
0
100
AcDbLine
10
81
20
-25.581949
30
0
11
30
21
-25.581949
31
0
39
0
210
0
220
0
230
1
0
SOLID
5
276
100
AcDbEntity
8
2
62
256
6
ByLayer
370
18
48
1
60
0
100
AcDbTrace
10
81
20
-25.581949
30
0
11
77.500002
21
-26.042733
31
0
12
77.499998
22
-25.121165
32
0
13
77.499998
23
-25.121165
33
0
39
0
210
0
220
0
230
1
0
SOLID
5
277
100
AcDbEntity
8
2
62
256
6
ByLayer
370
18
48
1
60
0
100
AcDbTrace
10
30
20
-25.581949
30
0
11
33.499998
21
-25.121165
31
0
12
33.500002
22
-26.042733
32
0
13
33.500002
23
-26.042733
33
0
39
0
210
0
220
0
230
1
0
ENDBLK
5
279
100
AcDbEntity
8
0
100
AcDbBlockEnd
0
ENDSEC
0
SECTION
2
ENTITIES
0
ARC
5
C8
100
AcDbEntity
8
SK1
62
256
6
ByLayer
370
18
48
1
60
0
100
AcDbCircle
39
0
10
-21.5
20
0
30
0
40
5.28000000000077
210
0
220
0
230
1
100
AcDbArc
50
328.459731
51
31.540269
0
ARC
5
C9
100
AcDbEntity
8
1
62
256
6
ByLayer
370
18
48
1
60
0
100
AcDbCircle
39
0
10
59.076298
20
-6.75
30
0
40
1.4
210
0
220
0
230
1
100
AcDbArc
50
30
51
90
0
ARC
5
CA
100
AcDbEntity
8
1
62
256
6
ByLayer
370
18
48
1
60
0
100
AcDbCircle
39
0
10
21.653835
20
-6.85
30
0
40
1.5
210
0
220
0
230
1
100
AcDbArc
50
90
51
115.841933
0
ARC
5
CB
100
AcDbEntity
8
1
62
256
6
ByLayer
370
18
48
1
60
0
100
AcDbCircle
39
0
10
21.653835
20
6.85
30
0
40
1.5
210
0
220
0
230
1
100
AcDbArc
50
244.158067
51
270
0
POINT
5
70
100
AcDbEntity
8
81
62
256
6
ByLayer
370
18
48
1
60
0
100
AcDbPoint
10
81
20
0
30
0
39
0
210
0
220
0
230
1
50
360
0
POINT
5
72
100
AcDbEntity
8
80
62
256
6
ByLayer
370
18
48
1
60
0
100
AcDbPoint
10
0
20
0
30
0
39
0
210
0
220
0
230
1
50
360
0
POINT
5
74
100
AcDbEntity
8
1
62
256
6
ByLayer
370
18
48
1
60
1
100
AcDbPoint
10
81
20
7.081949
30
0
39
0
210
0
220
0
230
1
50
360
0
POINT
5
76
100
AcDbEntity
8
1
62
256
6
ByLayer
370
18
48
1
60
1
100
AcDbPoint
10
81
20
-7.081949
30
0
39
0
210
0
220
0
230
1
50
360
0
POINT
5
77
100
AcDbEntity
8
1
62
256
6
ByLayer
370
18
48
1
60
1
100
AcDbPoint
10
81
20
7.081949
30
0
39
0
210
0
220
0
230
1
50
360
0
POINT
5
78
100
AcDbEntity
8
1
62
256
6
ByLayer
370
18
48
1
60
1
100
AcDbPoint
10
75.5
20
0
30
0
39
0
210
0
220
0
230
1
50
360
0
POINT
5
79
100
AcDbEntity
8
1
62
256
6
ByLayer
370
18
48
1
60
1
100
AcDbPoint
10
81
20
-7.081949
30
0
39
0
210
0
220
0
230
1
50
360
0
POINT
5
7A
100
AcDbEntity
8
1
62
256
6
ByLayer
370
18
48
1
60
1
100
AcDbPoint
10
61
20
-7.081949
30
0
39
0
210
0
220
0
230
1
50
360
0
POINT
5
7B
100
AcDbEntity
8
1
62
256
6
ByLayer
370
18
48
1
60
1
100
AcDbPoint
10
81
20
-7.081949
30
0
39
0
210
0
220
0
230
1
50
360
0
POINT
5
7C
100
AcDbEntity
8
1
62
256
6
ByLayer
370
18
48
1
60
1
100
AcDbPoint
10
21
20
-5.35
30
0
39
0
210
0
220
0
230
1
50
360
0
POINT
5
7D
100
AcDbEntity
8
1
62
256
6
ByLayer
370
18
48
1
60
1
100
AcDbPoint
10
81
20
-7.081949
30
0
39
0
210
0
220
0
230
1
50
360
0
POINT
5
7E
100
AcDbEntity
8
1
62
256
6
ByLayer
370
18
48
1
60
1
100
AcDbPoint
10
30
20
0
30
0
39
0
210
0
220
0
230
1
50
360
0
SPLINE
5
CC
100
AcDbEntity
8
1
62
256
6
ByLayer
370
18
48
1
60
0
100
AcDbSpline
70
4
71
3
72
10
73
6
40
0
40
0
40
0
40
0
40
0.483136003273294
40
0.483136003273294
40
1
40
1
40
1
40
1
41
1
10
79.906936946089
20
5.85505789450903
30
0
41
1
10
79.9115514539313
20
5.86795309205331
30
0
41
1
10
79.9161824698397
20
5.87902290448815
30
0
41
1
10
79.9257449084232
20
5.89797188712382
30
0
41
1
10
79.9306820333921
20
5.90559998914441
30
0
41
1
10
79.9356175839555
20
5.91105803836598
30
0
0
SPLINE
5
CD
100
AcDbEntity
8
1
62
256
6
ByLayer
370
18
48
1
60
0
100
AcDbSpline
70
4
71
3
72
8
73
4
40
0
40
0
40
0
40
0
40
1
40
1
40
1
40
1
41
1
10
64.6037751932766
20
7.06004596479872
30
0
41
1
10
64.6088660614283
20
7.06884763717022
30
0
41
1
10
64.61395186431
20
7.07501413987433
30
0
41
1
10
64.6190324920887
20
7.07851718902873
30
0
0
SPLINE
5
CE
100
AcDbEntity
8
1
62
256
6
ByLayer
370
18
48
1
60
0
100
AcDbSpline
70
4
71
3
72
9
73
5
40
0
40
0
40
0
40
0
40
0.257768959222716
40
1
40
1
40
1
40
1
41
1.04
10
65.4940623548903
20
5.95180751871835
30
0
41
1.04
10
65.4927362329997
20
5.95301315626438
30
0
41
1.04
10
65.4875986203004
20
5.95707963120192
30
0
41
1.04
10
65.4824900686914
20
5.95877450345008
30
0
41
1.04
10
65.4787140033484
20
5.9587595426057
30
0
0
SPLINE
5
CF
100
AcDbEntity
8
1
62
256
6
ByLayer
370
18
48
1
60
0
100
AcDbSpline
70
4
71
3
72
8
73
4
40
0
40
0
40
0
40
0
40
1
40
1
40
1
40
1
41
1
10
77.2759480486372
20
-6.4919079361845
30
0
41
1
10
77.2783767294001
20
-6.49723300779419
30
0
41
1
10
77.2808029323549
20
-6.50198962115022
30
0
41
1
10
77.2832262491549
20
-6.50617786882799
30
0
0
SPLINE
5
D0
100
AcDbEntity
8
1
62
256
6
ByLayer
370
13
48
1
60
0
100
AcDbSpline
70
4
71
3
72
9
73
5
40
0
40
0
40
0
40
0
40
0.986614636633097
40
1
40
1
40
1
40
1
41
1.04
10
62.5063637727312
20
-5.93670413806907
30
0
41
1.04
10
62.493806336878
20
-5.95647079595137
30
0
41
1.04
10
62.480915345798
20
-5.96274257468837
30
0
41
1.04
10
62.4678352830861
20
-5.95402744493374
30
0
41
1.04
10
62.4676601677385
20
-5.95390810110188
30
0
0
SPLINE
5
D1
100
AcDbEntity
8
1
62
256
6
ByLayer
370
13
48
1
60
0
100
AcDbSpline
70
4
71
3
72
8
73
4
40
0
40
0
40
0
40
0
40
1
40
1
40
1
40
1
41
1
10
76.9505845182948
20
-5.93261177991215
30
0
41
1
10
76.9455026505325
20
-5.923846139094
30
0
41
1
10
76.9404125736368
20
-5.91282086819544
30
0
41
1
10
76.9353137808921
20
-5.89952377287614
30
0
0
SPLINE
5
D2
100
AcDbEntity
8
1
62
256
6
ByLayer
370
13
48
1
60
0
100
AcDbSpline
70
4
71
3
72
9
73
5
40
0
40
0
40
0
40
0
40
0.408961178850324
40
1
40
1
40
1
40
1
41
1
10
66.0178396808537
20
5.91569510463532
30
0
41
1
10
66.008356874568
20
5.93689366947658
30
0
41
1
10
65.9852961019629
20
5.96966262480396
30
0
41
1
10
65.9628106271831
20
5.95553002358346
30
0
41
1
10
65.9497062537325
20
5.93229100280959
30
0
0
SPLINE
5
D3
100
AcDbEntity
8
1
62
256
6
ByLayer
370
18
48
1
60
0
100
AcDbSpline
70
4
71
3
72
8
73
4
40
0
40
0
40
0
40
0
40
1
40
1
40
1
40
1
41
1
10
60.9578440948347
20
-5.94427271103831
30
0
41
1
10
60.9546636689281
20
-5.94013613262794
30
0
41
1
10
60.9514852319234
20
-5.93510860314973
30
0
41
1
10
60.9483086466116
20
-5.92919750572261
30
0
0
SPLINE
5
D4
100
AcDbEntity
8
1
62
256
6
ByLayer
370
13
48
1
60
0
100
AcDbSpline
70
4
71
3
72
8
73
4
40
0
40
0
40
0
40
0
40
1
40
1
40
1
40
1
41
1
10
60.9483086466115
20
-5.9291975057223
30
0
41
1
10
60.932116698064
20
-5.89906698001391
30
0
41
1
10
60.9159728607161
20
-5.84597934843725
30
0
41
1
10
60.8998589627816
20
-5.77091242362059
30
0
0
SPLINE
5
D5
100
AcDbEntity
8
1
62
256
6
ByLayer
370
13
48
1
60
0
100
AcDbSpline
70
4
71
3
72
9
73
5
40
0
40
0
40
0
40
0
40
0.296023379843878
40
1
40
1
40
1
40
1
41
1.04
10
60.5060018194088
20
-5.93725762880066
30
0
41
1.04
10
60.4931021041236
20
-5.95758038327336
30
0
41
1.04
10
60.4495707021894
20
-5.97705286123124
30
0
41
1.04
10
60.4064331100631
20
-5.82955659117668
30
0
41
1.04
10
60.3761391093111
20
-5.64941210980356
30
0
0
SPLINE
5
D6
100
AcDbEntity
8
1
62
256
6
ByLayer
370
13
48
1
60
0
100
AcDbSpline
70
4
71
3
72
8
73
4
40
0
40
0
40
0
40
0
40
1
40
1
40
1
40
1
41
1.04
10
76.5051930444013
20
-5.93860098854627
30
0
41
1.04
10
76.4742576533108
20
-5.98533114482034
30
0
41
1.04
10
76.4430801017937
20
-5.94828366528524
30
0
41
1.04
10
76.4115425544051
20
-5.82450968191713
30
0
0
SPLINE
5
D7
100
AcDbEntity
8
1
62
256
6
ByLayer
370
13
48
1
60
0
100
AcDbSpline
70
4
71
3
72
9
73
5
40
0
40
0
40
0
40
0
40
0.175013353126346
40
1
40
1
40
1
40
1
41
1.04
10
67.5858004155984
20
5.62709602127435
30
0
41
1.04
10
67.5814141667715
20
5.65408714184723
30
0
41
1.04
10
67.5563640259906
20
5.79907253751298
30
0
41
1.04
10
67.5313893607052
20
5.8904726807162
30
0
41
1.04
10
67.5108215124042
20
5.92887478634748
30
0
0
SPLINE
5
D8
100
AcDbEntity
8
1
62
256
6
ByLayer
370
18
48
1
60
0
100
AcDbSpline
70
4
71
3
72
17
73
13
40
0
40
0
40
0
40
0
40
0.0590070470456064
40
0.0590070470456064
40
0.215839205871339
40
0.294255285284205
40
0.294255285284205
40
0.372671364697071
40
0.372671364697071
40
0.686335682348535
40
0.686335682348535
40
1
40
1
40
1
40
1
41
1
10
75.9467015295551
20
-6.8850548973268
30
0
41
1
10
75.9446594710338
20
-6.88557513700144
30
0
41
1
10
75.9426202810272
20
-6.88567871506905
30
0
41
1
10
75.935170729313
20
-6.88453303322945
30
0
41
1
10
75.9270750735544
20
-6.87886358329044
30
0
41
1
10
75.9189699677259
20
-6.86651861739966
30
0
41
1
10
75.9135571057512
20
-6.85679755613802
30
0
41
1
10
75.9108427365972
20
-6.85118346766765
30
0
41
1
10
75.8972715452391
20
-6.81947169798278
30
0
41
1
10
75.8863925223324
20
-6.78265614944857
30
0
41
1
10
75.8647050689304
20
-6.68612117310079
30
0
41
1
10
75.8539104137044
20
-6.62637728873892
30
0
41
1
10
75.8431069233054
20
-6.55494605822196
30
0
0
SPLINE
5
D9
100
AcDbEntity
8
1
62
256
6
ByLayer
370
18
48
1
60
0
100
AcDbSpline
70
4
71
3
72
16
73
12
40
0
40
0
40
0
40
0
40
0.353699910760969
40
0.353699910760969
40
0.707399821521939
40
0.707399821521939
40
0.795824799212181
40
0.795824799212181
40
0.884249776902423
40
0.884249776902423
40
1
40
1
40
1
40
1
41
1
10
75.4551703549128
20
-6.51829098501031
30
0
41
1
10
75.4658977400764
20
-6.60319760313138
30
0
41
1
10
75.4765782891324
20
-6.67649468888214
30
0
41
1
10
75.497891099403
20
-6.80003690975079
30
0
41
1
10
75.5085242486885
20
-6.85028345768922
30
0
41
1
10
75.5219546872276
20
-6.89855329223843
30
0
41
1
10
75.524648340962
20
-6.9074795226214
30
0
41
1
10
75.5300574112876
20
-6.92386980040652
30
0
41
1
10
75.5327750935855
20
-6.93133646894975
30
0
41
1
10
75.53904028625
20
-6.94678850003567
30
0
41
1
10
75.5425903086014
20
-6.95424154280781
30
0
41
1
10
75.5461351538223
20
-6.96039646913943
30
0
0
SPLINE
5
DA
100
AcDbEntity
8
1
62
256
6
ByLayer
370
13
48
1
60
0
100
AcDbSpline
70
4
71
3
72
9
73
5
40
0
40
0
40
0
40
0
40
0.934904075979631
40
1
40
1
40
1
40
1
41
1
10
74.9520255047179
20
-5.9354621669784
30
0
41
1
10
74.9181353910589
20
-5.87995038700038
30
0
41
1
10
74.8821305902439
20
-5.71340644598655
30
0
41
1
10
74.8460503831457
20
-5.43935689199742
30
0
41
1
10
74.8437016428488
20
-5.42107126665323
30
0
0
SPLINE
5
DB
100
AcDbEntity
8
1
62
256
6
ByLayer
370
13
48
1
60
0
100
AcDbSpline
70
4
71
3
72
9
73
5
40
0
40
0
40
0
40
0
40
0.235531166690322
40
1
40
1
40
1
40
1
41
1
10
68.1096045494465
20
5.4713093827587
30
0
41
1
10
68.0971035826158
20
5.56395137777841
30
0
41
1
10
68.0440905738036
20
5.90317879456939
30
0
41
1
10
67.9914148882121
20
6.00260707289817
30
0
41
1
10
67.9512269813111
20
5.93470016929558
30
0
0
SPLINE
5
DC
100
AcDbEntity
8
1
62
256
6
ByLayer
370
13
48
1
60
0
100
AcDbSpline
70
4
71
3
72
9
73
5
40
0
40
0
40
0
40
0
40
0.623985186862638
40
1
40
1
40
1
40
1
41
1.04
10
69.6775978092804
20
4.83769411081047
30
0
41
1.04
10
69.6432405680284
20
5.21318358855902
30
0
41
1.04
10
69.5877712617048
20
5.68269802522556
30
0
41
1.04
10
69.5310929467685
20
5.89303757141263
30
0
41
1.04
10
69.5096278652806
20
5.93155242300724
30
0
0
SPLINE
5
DD
100
AcDbEntity
8
1
62
256
6
ByLayer
370
18
48
1
60
0
100
AcDbSpline
70
4
71
3
72
8
73
4
40
0
40
0
40
0
40
0
40
1
40
1
40
1
40
1
41
1.04
10
74.5109252918675
20
-5.92898213765711
30
0
41
1.04
10
74.5077289436795
20
-5.93489730757169
30
0
41
1.04
10
74.5045254162437
20
-5.93992201215417
30
0
41
1.04
10
74.5013172445536
20
-5.94405188604721
30
0
0
SPLINE
5
DE
100
AcDbEntity
8
1
62
256
6
ByLayer
370
13
48
1
60
0
100
AcDbSpline
70
4
71
3
72
10
73
6
40
0
40
0
40
0
40
0
40
0.15103626040487
40
0.826983833000553
40
1
40
1
40
1
40
1
41
1.04
10
74.5013172445536
20
-5.94405188604732
30
0
41
1.04
10
74.4921522794847
20
-5.95584992980073
30
0
41
1.04
10
74.4417629075255
20
-5.98046337877546
30
0
41
1.04
10
74.3815999174838
20
-5.74179533543053
30
0
41
1.04
10
74.3303718011713
20
-5.32229475491375
30
0
41
1.04
10
74.3199476109949
20
-5.22861612087236
30
0
0
SPLINE
5
DF
100
AcDbEntity
8
1
62
256
6
ByLayer
370
18
48
1
60
0
100
AcDbSpline
70
4
71
3
72
8
73
4
40
0
40
0
40
0
40
0
40
1
40
1
40
1
40
1
41
1
10
72.9544785089431
20
-5.93958015486442
30
0
41
1
10
72.9500010315135
20
-5.93286979552815
30
0
41
1
10
72.9455203085612
20
-5.92439237561385
30
0
41
1
10
72.9410364798965
20
-5.91414227070655
30
0
0
SPLINE
5
E0
100
AcDbEntity
8
1
62
256
6
ByLayer
370
13
48
1
60
0
100
AcDbSpline
70
4
71
3
72
10
73
6
40
0
40
0
40
0
40
0
40
0.0508457163143965
40
0.700605713122097
40
1
40
1
40
1
40
1
41
1
10
72.9410364798965
20
-5.91414227070658
30
0
41
1
10
72.9378627500997
20
-5.906887073018
30
0
41
1
10
72.8941103258041
20
-5.79467983342357
30
0
41
1
10
72.8312526706979
20
-5.39330274785223
30
0
41
1
10
72.7711205079523
20
-4.72951322269711
30
0
41
1
10
72.7521427823805
20
-4.49628139718817
30
0
0
SPLINE
5
E1
100
AcDbEntity
8
1
62
256
6
ByLayer
370
13
48
1
60
0
100
AcDbSpline
70
4
71
3
72
11
73
7
40
0
40
0
40
0
40
0
40
0.0264750486210419
40
0.57963640013133
40
0.939917516992569
40
1
40
1
40
1
40
1
41
1
10
70.2013912314304
20
4.57424586205943
30
0
41
1
10
70.1994577460209
20
4.59746858274315
30
0
41
1
10
70.1571095069621
20
5.10050250261929
30
0
41
1
10
70.0879041438671
20
5.71925145797482
30
0
41
1
10
70.0143204528919
20
5.95128535278999
30
0
41
1
10
69.9822191596459
20
5.95925067741024
30
0
41
1
10
69.9776253608365
20
5.95851665067329
30
0
0
SPLINE
5
E2
100
AcDbEntity
8
1
62
256
6
ByLayer
370
18
48
1
60
0
100
AcDbSpline
70
4
71
3
72
8
73
4
40
0
40
0
40
0
40
0
40
1
40
1
40
1
40
1
41
1
10
69.9776248047235
20
5.95851656180483
30
0
41
1
10
69.9728809532868
20
5.95775840271074
30
0
41
1
10
69.968131164683
20
5.95500340978307
30
0
41
1
10
69.9633766911031
20
5.95026431985355
30
0
0
SPLINE
5
E3
100
AcDbEntity
8
1
62
256
6
ByLayer
370
13
48
1
60
0
100
AcDbSpline
70
4
71
3
72
9
73
5
40
0
40
0
40
0
40
0
40
0.476375049770572
40
1
40
1
40
1
40
1
41
1.04
10
71.7693211957138
20
3.64931171961928
30
0
41
1.04
10
71.7317199259633
20
4.20537726900944
30
0
41
1.04
10
71.6523983412119
20
5.21695560271434
30
0
41
1.04
10
71.5730847933009
20
5.75105352224174
30
0
41
1.04
10
71.5312204881388
20
5.87903867094665
30
0
0
SPLINE
5
E4
100
AcDbEntity
8
1
62
256
6
ByLayer
370
13
48
1
60
0
100
AcDbSpline
70
4
71
3
72
10
73
6
40
0
40
0
40
0
40
0
40
0.146408969214333
40
0.661429777797306
40
1
40
1
40
1
40
1
41
1.04
10
72.4665691412439
20
-5.95393454127288
30
0
41
1.04
10
72.4550706053598
20
-5.94541015590827
30
0
41
1.04
10
72.4030232654283
20
-5.85426672952841
30
0
41
1.04
10
72.3237207941302
20
-5.35389953091464
30
0
41
1.04
10
72.2554231894769
20
-4.56184092243377
30
0
41
1.04
10
72.2283448949926
20
-4.20265926276707
30
0
0
SPLINE
5
E5
100
AcDbEntity
8
1
62
256
6
ByLayer
370
13
48
1
60
0
100
AcDbSpline
70
4
71
3
72
10
73
6
40
0
40
0
40
0
40
0
40
0.206802244873674
40
0.894398705566426
40
1
40
1
40
1
40
1
41
1
10
70.8986032935056
20
-5.76489973877148
30
0
41
1
10
70.8819808337518
20
-5.68636593670888
30
0
41
1
10
70.8104081440624
20
-5.24654246248889
30
0
41
1
10
70.7314945859385
20
-4.2980340293054
30
0
41
1
10
70.6689336871679
20
-3.33465158673766
30
0
41
1
10
70.6606025656985
20
-3.20304850585578
30
0
0
SPLINE
5
E6
100
AcDbEntity
8
1
62
256
6
ByLayer
370
18
48
1
60
0
100
AcDbSpline
70
4
71
3
72
11
73
7
40
0
40
0
40
0
40
0
40
0.138958373822281
40
0.521696301158399
40
0.970701641181371
40
1
40
1
40
1
40
1
41
1
10
80.9999999999999
20
0.489110280330607
30
0
41
1
10
81
20
0.326616298462682
30
0
41
1
10
81
20
-0.287099971954405
30
0
41
1
10
81
20
-1.43585367579021
30
0
41
1
10
80.9999999999999
20
-2.3816443605366
30
0
41
1
10
81
20
-2.85682425213568
30
0
41
1
10
81
20
-2.88573873530461
30
0
0
SPLINE
5
E7
100
AcDbEntity
8
1
62
256
6
ByLayer
370
18
48
1
60
0
100
AcDbSpline
70
4
71
3
72
10
73
6
40
0
40
0
40
0
40
0
40
0.371803171915274
40
0.742622575672844
40
1
40
1
40
1
40
1
41
1
10
80.4000000634126
20
-2.89966945887966
30
0
41
1
10
80.4000000746146
20
-2.46022915070728
30
0
41
1
10
80.4000000101645
20
-1.51568171396391
30
0
41
1
10
80.3999999447557
20
-0.153162568427092
30
0
41
1
10
80.3999999250329
20
0.697252808924929
30
0
41
1
10
80.3999999201232
20
1.03914483804465
30
0
0
SPLINE
5
E8
100
AcDbEntity
8
1
62
256
6
ByLayer
370
18
48
1
60
0
100
AcDbSpline
70
4
71
3
72
40
73
36
40
0
40
0
40
0
40
0
40
0.0624999999999999
40
0.0624999999999999
40
0.125
40
0.125
40
0.15625
40
0.15625
40
0.1875
40
0.25
40
0.25
40
0.3125
40
0.3125
40
0.375
40
0.4375
40
0.4375
40
0.5
40
0.5
40
0.5625
40
0.5625
40
0.59375
40
0.59375
40
0.625
40
0.625
40
0.6875
40
0.6875
40
0.75
40
0.75
40
0.8125
40
0.8125
40
0.875
40
0.875
40
0.9375
40
0.9375
40
1
40
1
40
1
40
1
41
1
10
80.1401928058562
20
1.26380335701705
30
0
41
1
10
80.1447059070408
20
1.17638305751066
30
0
41
1
10
80.1493157880325
20
1.08851825493721
30
0
41
1
10
80.1586878980449
20
0.912221747280995
30
0
41
1
10
80.1634516699095
20
0.823754142340078
30
0
41
1
10
80.1706571466754
20
0.690571485106261
30
0
41
1
10
80.1730704680865
20
0.646062034000778
30
0
41
1
10
80.1778894186278
20
0.557129070586399
30
0
41
1
10
80.18510805362
20
0.423816846161742
30
0
41
1
10
80.1922307385396
20
0.290759748619365
30
0
41
1
10
80.2014968476482
20
0.113565635296595
30
0
41
1
10
80.2060059767222
20
0.0250758034064518
30
0
41
1
10
80.2146544951071
20
-0.151697966721713
30
0
41
1
10
80.2229899852737
20
-0.328262804062035
30
0
41
1
10
80.2311163653118
20
-0.504388132361015
30
0
41
1
10
80.2393421390576
20
-0.680281248081315
30
0
41
1
10
80.243526340801
20
-0.768110324573769
30
0
41
1
10
80.2520098390013
20
-0.943533836399979
30
0
41
1
10
80.2563007746242
20
-1.03112880965117
30
0
41
1
10
80.2627228416911
20
-1.16234901349745
30
0
41
1
10
80.264860894843
20
-1.20606037053054
30
0
41
1
10
80.2691138871488
20
-1.29342613556221
30
0
41
1
10
80.2712294936804
20
-1.33709469330353
30
0
41
1
10
80.2774929371985
20
-1.46763249233632
30
0
41
1
10
80.28153941832
20
-1.55419210884023
30
0
41
1
10
80.2893902429366
20
-1.72614426128027
30
0
41
1
10
80.293213341163
20
-1.81149870524877
30
0
41
1
10
80.3009469092081
20
-1.98093634027723
30
0
41
1
10
80.3048737846468
20
-2.06502602582503
30
0
41
1
10
80.3131475205754
20
-2.23159546983331
30
0
41
1
10
80.3174778971813
20
-2.31411337448847
30
0
41
1
10
80.3265024153353
20
-2.47738891732354
30
0
41
1
10
80.3311967409551
20
-2.55815522658887
30
0
41
1
10
80.340768062777
20
-2.71773113588296
30
0
41
1
10
80.345648072135
20
-2.79661145706601
30
0
41
1
10
80.350462778489
20
-2.87439975999317
30
0
0
SPLINE
5
E9
100
AcDbEntity
8
1
62
256
6
ByLayer
370
13
48
1
60
0
100
AcDbSpline
70
4
71
3
72
10
73
6
40
0
40
0
40
0
40
0
40
0.063329150593542
40
0.578227847566328
40
1
40
1
40
1
40
1
41
1
10
72.2931508057575
20
3.29993889945658
30
0
41
1
10
72.2881547107355
20
3.37781472719391
30
0
41
1
10
72.2425064953733
20
4.0781124266212
30
0
41
1
10
72.1630474223853
20
5.10568490490488
30
0
41
1
10
72.0886274415155
20
5.64667297456677
30
0
41
1
10
72.0549419055331
20
5.79402380771469
30
0
0
SPLINE
5
EA
100
AcDbEntity
8
1
62
256
6
ByLayer
370
13
48
1
60
0
100
AcDbSpline
70
4
71
3
72
9
73
5
40
0
40
0
40
0
40
0
40
0.159983872687406
40
1
40
1
40
1
40
1
41
1.04
10
73.8610774190523
20
2.15955575267438
30
0
41
1.04
10
73.847334305447
20
2.39985438575973
30
0
41
1.04
10
73.762884021735
20
3.83927683642097
30
0
41
1.04
10
73.6856865349646
20
4.84755138489913
30
0
41
1.04
10
73.6228624840462
20
5.36157205413139
30
0
0
SPLINE
5
EB
100
AcDbEntity
8
1
62
256
6
ByLayer
370
18
48
1
60
0
100
AcDbSpline
70
4
71
3
72
34
73
30
40
0
40
0
40
0
40
0
40
0.0625000000000002
40
0.0625000000000002
40
0.125
40
0.187500000000001
40
0.187500000000001
40
0.250000000000001
40
0.250000000000001
40
0.312500000000001
40
0.312500000000001
40
0.375000000000001
40
0.375000000000001
40
0.437500000000001
40
0.468750000000001
40
0.468750000000001
40
0.500000000000001
40
0.500000000000001
40
0.625000000000001
40
0.625000000000001
40
0.6875
40
0.6875
40
0.75
40
0.75
40
0.875
40
0.875
40
0.9375
40
0.9375
40
1
40
1
40
1
40
1
41
1
10
80.2899067586876
20
-2.84316343733192
30
0
41
1
10
80.2848662233366
20
-2.76363192191491
30
0
41
1
10
80.2798390493197
20
-2.68280036955855
30
0
41
1
10
80.2696078866552
20
-2.52001658001058
30
0
41
1
10
80.2591847522015
20
-2.35592167666403
30
0
41
1
10
80.2480823412631
20
-2.18929711930514
30
0
41
1
10
80.2366483060185
20
-2.02142032823005
30
0
41
1
10
80.2307573544974
20
-1.93685698571298
30
0
41
1
10
80.2189686227966
20
-1.76643441063243
30
0
41
1
10
80.2130729485122
20
-1.68057488299201
30
0
41
1
10
80.2015082524215
20
-1.50751633471131
30
0
41
1
10
80.1958622272231
20
-1.4203126805227
30
0
41
1
10
80.1847389367154
20
-1.24456193920207
30
0
41
1
10
80.1765042009404
20
-1.11174494297376
30
0
41
1
10
80.168253401559
20
-0.977428052294556
30
0
41
1
10
80.1627326738994
20
-0.887548920122953
30
0
41
1
10
80.1599586771698
20
-0.842387407829079
30
0
41
1
10
80.1460624854739
20
-0.616779280036923
30
0
41
1
10
80.1346841330094
20
-0.436474365095734
30
0
41
1
10
80.1180691950784
20
-0.166238671254575
30
0
41
1
10
80.1126161861909
20
-0.0761966266750562
30
0
41
1
10
80.10205535343
20
0.103823492677776
30
0
41
1
10
80.0969369287653
20
0.193801030952443
30
0
41
1
10
80.0817891176711
20
0.463621998088769
30
0
41
1
10
80.0719531986944
20
0.643353360943166
30
0
41
1
10
80.0567855916975
20
0.912680655983422
30
0
41
1
10
80.0516643920293
20
1.00241157573643
30
0
41
1
10
80.0412126806432
20
1.1817780394538
30
0
41
1
10
80.035904539565
20
1.27102243953482
30
0
41
1
10
80.0305085006893
20
1.35974306536616
30
0
0
SPLINE
5
EC
100
AcDbEntity
8
1
62
256
6
ByLayer
370
18
48
1
60
0
100
AcDbSpline
70
4
71
3
72
26
73
22
40
0
40
0
40
0
40
0
40
0.125
40
0.125
40
0.25
40
0.25
40
0.375
40
0.375
40
0.4375
40
0.4375
40
0.499999999999999
40
0.499999999999999
40
0.749999999999999
40
0.749999999999999
40
0.812499999999999
40
0.812499999999999
40
0.843749999999999
40
0.843749999999999
40
0.874999999999999
40
0.874999999999999
40
1
40
1
40
1
40
1
41
1
10
78.4898031606642
20
2.74709123443429
30
0
41
1
10
78.4998543632271
20
2.56766765132983
30
0
41
1
10
78.5097473206479
20
2.38502712737343
30
0
41
1
10
78.5296180835322
20
2.01347314223253
30
0
41
1
10
78.5396293561587
20
1.82456757478079
30
0
41
1
10
78.5598261045598
20
1.44053025358102
30
0
41
1
10
78.5700094815105
20
1.24539916602313
30
0
41
1
10
78.5854135235916
20
0.947880578228506
30
0
41
1
10
78.5905313198273
20
0.84864317897808
30
0
41
1
10
78.600724389074
20
0.650239288933903
30
0
41
1
10
78.6058013231076
20
0.551039816338971
30
0
41
1
10
78.6310977090447
20
0.0550551596006699
30
0
41
1
10
78.6509718272789
20
-0.341696049703728
30
0
41
1
10
78.6762675146261
20
-0.837542663251583
30
0
41
1
10
78.6813478918738
20
-0.936707421296177
30
0
41
1
10
78.689007044924
20
-1.08544726518389
30
0
41
1
10
78.6915611586661
20
-1.13492265994344
30
0
41
1
10
78.6966625571478
20
-1.23348612204649
30
0
41
1
10
78.699211300534
20
-1.28260255124661
30
0
41
1
10
78.7119449495754
20
-1.52736145326372
30
0
41
1
10
78.7220844476666
20
-1.72053412672272
30
0
41
1
10
78.7322191661371
20
-1.91108336819545
30
0
0
SPLINE
5
ED
100
AcDbEntity
8
1
62
256
6
ByLayer
370
13
48
1
60
0
100
AcDbSpline
70
4
71
3
72
10
73
6
40
0
40
0
40
0
40
0
40
0.364525166928315
40
0.850171716034954
40
1
40
1
40
1
40
1
41
1
10
78.5684559058089
20
-1.63476121025297
30
0
41
1
10
78.5408038328147
20
-1.13708102763548
30
0
41
1
10
78.4753851516323
20
0.0820921875805425
30
0
41
1
10
78.3949243992616
20
1.59617400990265
30
0
41
1
10
78.3421946873361
20
2.50115890085689
30
0
41
1
10
78.3296980664067
20
2.70939816528497
30
0
0
SPLINE
5
EE
100
AcDbEntity
8
1
62
256
6
ByLayer
370
13
48
1
60
0
100
AcDbSpline
70
4
71
3
72
10
73
6
40
0
40
0
40
0
40
0
40
0.105705453174508
40
0.792104899293511
40
1
40
1
40
1
40
1
41
1.04
10
70.374818213805
20
-5.6415108191083
30
0
41
1.04
10
70.3663411771782
20
-5.59051338995308
30
0
41
1.04
10
70.3029431981052
20
-5.16404994605521
30
0
41
1.04
10
70.2238920950525
20
-4.2188743895377
30
0
41
1.04
10
70.1532392956539
20
-3.10299638077013
30
0
41
1.04
10
70.1367959540369
20
-2.83199430022843
30
0
0
SPLINE
5
EF
100
AcDbEntity
8
1
62
256
6
ByLayer
370
13
48
1
60
0
100
AcDbSpline
70
4
71
3
72
10
73
6
40
0
40
0
40
0
40
0
40
0.349693330927419
40
0.86000851855773
40
1
40
1
40
1
40
1
41
1
10
68.806847257117
20
-5.09879248805481
30
0
41
1
10
68.7801154561623
20
-4.83985793006437
30
0
41
1
10
68.7135015736856
20
-4.06271120546171
30
0
41
1
10
68.6329582735756
20
-2.78200777342033
30
0
41
1
10
68.5803587081338
20
-1.849875999251
30
0
41
1
10
68.569018360103
20
-1.64572511200305
30
0
0
SPLINE
5
F0
100
AcDbEntity
8
1
62
256
6
ByLayer
370
13
48
1
60
0
100
AcDbSpline
70
4
71
3
72
10
73
6
40
0
40
0
40
0
40
0
40
0.260659029773856
40
0.751209272823006
40
1
40
1
40
1
40
1
41
1.04
10
78.0446187534453
20
-1.21691625518407
30
0
41
1.04
10
78.0248698989737
20
-0.855333171267083
30
0
41
1.04
10
77.9673166458639
20
0.218029162658831
30
0
41
1.04
10
77.8876602298607
20
1.71797041214986
30
0
41
1.04
10
77.8266458491985
20
2.7525000554986
30
0
41
1.04
10
77.8059831373236
20
3.08348253749026
30
0
0
SPLINE
5
F1
100
AcDbEntity
8
1
62
256
6
ByLayer
370
18
48
1
60
0
100
AcDbSpline
70
4
71
3
72
30
73
26
40
0
40
0
40
0
40
0
40
0.125
40
0.125
40
0.25
40
0.25
40
0.3125
40
0.3125
40
0.34375
40
0.34375
40
0.375000000000001
40
0.375000000000001
40
0.5
40
0.5
40
0.625
40
0.625
40
0.75
40
0.75
40
0.78125
40
0.78125
40
0.8125
40
0.8125
40
0.875
40
0.875
40
1
40
1
40
1
40
1
41
1
10
77.7415987866227
20
-1.19413345229867
30
0
41
1
10
77.7310422613419
20
-0.985506350094425
30
0
41
1
10
77.7205121266634
20
-0.776145741496464
30
0
41
1
10
77.6993993642814
20
-0.355988105784661
30
0
41
1
10
77.6888113151834
20
-0.145191176873368
30
0
41
1
10
77.6729967992243
20
0.172115542180109
30
0
41
1
10
77.6677370700046
20
0.278069584881621
30
0
41
1
10
77.6598472375085
20
0.437279234084798
30
0
41
1
10
77.6572171986442
20
0.490395571284267
30
0
41
1
10
77.6519533564392
20
0.596721595183823
30
0
41
1
10
77.6493159376574
20
0.650004214820939
30
0
41
1
10
77.6361693824205
20
0.915446730207464
30
0
41
1
10
77.6257665016876
20
1.12500328964666
30
0
41
1
10
77.6049268831189
20
1.53872573855477
30
0
41
1
10
77.5944888346262
20
1.74289106360715
30
0
41
1
10
77.5733496510503
20
2.14582045649169
30
0
41
1
10
77.562597736387
20
2.34458594386302
30
0
41
1
10
77.5491034661018
20
2.58952374834618
30
0
41
1
10
77.5464038058764
20
2.63833495821299
30
0
41
1
10
77.5410067585495
20
2.73560036683901
30
0
41
1
10
77.5383094140039
20
2.78405333401665
30
0
41
1
10
77.5302637216514
20
2.92815814101709
30
0
41
1
10
77.5249491798826
20
3.0227983364266
30
0
41
1
10
77.50914175362
20
3.30249301399508
30
0
41
1
10
77.4987975320531
20
3.48332656983646
30
0
41
1
10
77.4884574155121
20
3.65863431282199
30
0
0
SPLINE
5
F2
100
AcDbEntity
8
1
62
256
6
ByLayer
370
18
48
1
60
0
100
AcDbSpline
70
4
71
3
72
28
73
24
40
0
40
0
40
0
40
0
40
0.125
40
0.125
40
0.249999999999999
40
0.249999999999999
40
0.312499999999999
40
0.312499999999999
40
0.343749999999999
40
0.343749999999999
40
0.374999999999999
40
0.499999999999999
40
0.499999999999999
40
0.624999999999999
40
0.624999999999999
40
0.749999999999999
40
0.749999999999999
40
0.781249999999999
40
0.781249999999999
40
0.8125
40
0.875
40
0.875
40
1
40
1
40
1
40
1
41
1
10
76.6689974830418
20
4.39444792107957
30
0
41
1
10
76.6794370342266
20
4.22709395992973
30
0
41
1
10
76.689831928508
20
4.05330003589739
30
0
41
1
10
76.7107513734464
20
3.69313497640525
30
0
41
1
10
76.7212310709995
20
3.50671830034608
30
0
41
1
10
76.7369518142451
20
3.21729254047546
30
0
41
1
10
76.7421935933326
20
3.11918173260344
30
0
41
1
10
76.7500677087534
20
2.96950415239206
30
0
41
1
10
76.7526977290205
20
2.91912833586284
30
0
41
1
10
76.7579372428234
20
2.81805515228032
30
0
41
1
10
76.7709977276392
20
2.56436038680204
30
0
41
1
10
76.783889461854
20
2.30566955196747
30
0
41
1
10
76.8046726364445
20
1.88561032294734
30
0
41
1
10
76.8151285860582
20
1.67250625242977
30
0
41
1
10
76.8362128272503
20
1.24016592423547
30
0
41
1
10
76.8468408177083
20
1.02093037663158
30
0
41
1
10
76.8602306299125
20
0.742907928063971
30
0
41
1
10
76.862908149849
20
0.687219516032116
30
0
41
1
10
76.8682483307704
20
0.575953132722333
30
0
41
1
10
76.8762425005261
20
0.409089948066594
30
0
41
1
10
76.8841853130432
20
0.242335171589502
30
0
41
1
10
76.8999905711668
20
-0.0910306974286073
30
0
41
1
10
76.9103946966899
20
-0.313083873764469
30
0
41
1
10
76.9208136992493
20
-0.53494045253791
30
0
0
SPLINE
5
F3
100
AcDbEntity
8
1
62
256
6
ByLayer
370
13
48
1
60
0
100
AcDbSpline
70
4
71
3
72
9
73
5
40
0
40
0
40
0
40
0
40
0.430068625670302
40
1
40
1
40
1
40
1
41
1
10
76.4766575965739
20
0.0618207487617326
30
0
41
1
10
76.4423943983921
20
0.70269614172642
30
0
41
1
10
76.3631379430624
20
2.18275615457273
30
0
41
1
10
76.2840245325088
20
3.48170001133931
30
0
41
1
10
76.2381702081576
20
4.103887852779
30
0
0
SPLINE
5
F4
100
AcDbEntity
8
1
62
256
6
ByLayer
370
18
48
1
60
0
100
AcDbSpline
70
4
71
3
72
30
73
26
40
0
40
0
40
0
40
0
40
0.125
40
0.125
40
0.1875
40
0.1875
40
0.21875
40
0.21875
40
0.25
40
0.25
40
0.375
40
0.375
40
0.5
40
0.5
40
0.5625
40
0.5625
40
0.59375
40
0.59375
40
0.625
40
0.625
40
0.75
40
0.75
40
0.875
40
0.875
40
1
40
1
40
1
40
1
41
1
10
67.6183916104747
20
-5.57362081089082
30
0
41
1
10
67.6076374139441
20
-5.42505374098386
30
0
41
1
10
67.5968529899482
20
-5.26684768570709
30
0
41
1
10
67.5804261508843
20
-5.01486028049976
30
0
41
1
10
67.5749024973597
20
-4.92841361068145
30
0
41
1
10
67.5665570911934
20
-4.79499369268561
30
0
41
1
10
67.563762593469
20
-4.7498300142073
30
0
41
1
10
67.5581888144662
20
-4.65868872011959
30
0
41
1
10
67.5554080556686
20
-4.61268909880013
30
0
41
1
10
67.5415441453887
20
-4.3805699128215
30
0
41
1
10
67.530593584547
20
-4.18810376570647
30
0
41
1
10
67.5089899353753
20
-3.78996290165762
30
0
41
1
10
67.4983353787697
20
-3.58428746972541
30
0
41
1
10
67.4823621375031
20
-3.26581110917473
30
0
41
1
10
67.477036966461
20
-3.15798869287275
30
0
41
1
10
67.4690017942601
20
-2.99372380732436
30
0
41
1
10
67.4663153632642
20
-2.93854676243581
30
0
41
1
10
67.4609170203842
20
-2.82733996705454
30
0
41
1
10
67.4582015130346
20
-2.77123673877688
30
0
41
1
10
67.4445786423437
20
-2.48947956743209
30
0
41
1
10
67.4335987366221
20
-2.26116722790954
30
0
41
1
10
67.4116378667209
20
-1.79892065286524
30
0
41
1
10
67.4006564950927
20
-1.56498585217909
30
0
41
1
10
67.3787347963476
20
-1.09150746300727
30
0
41
1
10
67.3677943510268
20
-0.851964242020784
30
0
41
1
10
67.3568400836663
20
-0.60953702411382
30
0
0
SPLINE
5
F5
100
AcDbEntity
8
1
62
256
6
ByLayer
370
13
48
1
60
0
100
AcDbSpline
70
4
71
3
72
10
73
6
40
0
40
0
40
0
40
0
40
0.245589978767025
40
0.758777575114587
40
1
40
1
40
1
40
1
41
1.04
10
68.2830571875425
20
-4.86335619713498
30
0
41
1.04
10
68.264233823353
20
-4.65990153204472
30
0
41
1.04
10
68.2055044819659
20
-3.94667883161542
30
0
41
1.04
10
68.1254121009478
20
-2.67664023615251
30
0
41
1.04
10
68.064694427043
20
-1.58517654993379
30
0
41
1.04
10
68.0452147393544
20
-1.22812465389087
30
0
0
SPLINE
5
F6
100
AcDbEntity
8
1
62
256
6
ByLayer
370
18
48
1
60
0
100
AcDbSpline
70
4
71
3
72
34
73
30
40
0
40
0
40
0
40
0
40
0.0625000000000002
40
0.0625000000000002
40
0.0937500000000003
40
0.0937500000000003
40
0.125
40
0.125
40
0.25
40
0.25
40
0.375000000000001
40
0.375000000000001
40
0.500000000000001
40
0.500000000000001
40
0.53125
40
0.53125
40
0.5625
40
0.5625
40
0.625
40
0.625
40
0.75
40
0.75
40
0.875
40
0.875
40
0.90625
40
0.90625
40
0.9375
40
0.9375
40
1
40
1
40
1
40
1
41
1
10
74.8164214604546
20
5.88547201458431
30
0
41
1
10
74.8218254089871
20
5.81825906064114
30
0
41
1
10
74.8272372416561
20
5.74833853772159
30
0
41
1
10
74.8353836996181
20
5.63932963907524
30
0
41
1
10
74.8381039927121
20
5.60230497013507
30
0
41
1
10
74.8435572252442
20
5.52686338026223
30
0
41
1
10
74.8462921221688
20
5.48841684155286
30
0
41
1
10
74.8599273463254
20
5.29379738430879
30
0
41
1
10
74.87077102624
20
5.12968535599401
30
0
41
1
10
74.8924961351573
20
4.78515947149751
30
0
41
1
10
74.9033788092337
20
4.60474431676985
30
0
41
1
10
74.9252758130241
20
4.22761537714933
30
0
41
1
10
74.9362916056191
20
4.03090305757141
30
0
41
1
10
74.9501303861099
20
3.77450161231653
30
0
41
1
10
74.9529051538591
20
3.72262000444368
30
0
41
1
10
74.958431838152
20
3.61830514528438
30
0
41
1
10
74.961185189805
20
3.56584681199905
30
0
41
1
10
74.969411803918
20
3.40757909840428
30
0
41
1
10
74.9748475479055
20
3.30087744835703
30
0
41
1
10
74.9910472989259
20
2.9772627095596
30
0
41
1
10
75.0017090406833
20
2.75684895853169
30
0
41
1
10
75.0230523527118
20
2.30677834339173
30
0
41
1
10
75.0337362668187
20
2.07712189690616
30
0
41
1
10
75.0472712394456
20
1.78415323577119
30
0
41
1
10
75.0499870625461
20
1.72526385421523
30
0
41
1
10
75.0554396387604
20
1.60688767322981
30
0
41
1
10
75.0581799861336
20
1.54732272699474
30
0
41
1
10
75.0664096633591
20
1.36830726277611
30
0
41
1
10
75.0718955324431
20
1.24880845401188
30
0
41
1
10
75.0773867164048
20
1.12915802504367
30
0
0
SPLINE
5
F7
100
AcDbEntity
8
1
62
256
6
ByLayer
370
13
48
1
60
0
100
AcDbSpline
70
4
71
3
72
9
73
5
40
0
40
0
40
0
40
0
40
0.256822075203409
40
1
40
1
40
1
40
1
41
1
10
74.3848580417191
20
1.75320307403345
30
0
41
1
10
74.3626499180096
20
2.15099164542212
30
0
41
1
10
74.2787108179262
20
3.60733937247258
30
0
41
1
10
74.2018235520987
20
4.64268973000176
30
0
41
1
10
74.1465229178889
20
5.16110510938532
30
0
0
SPLINE
5
F8
100
AcDbEntity
8
1
62
256
6
ByLayer
370
13
48
1
60
0
100
AcDbSpline
70
4
71
3
72
9
73
5
40
0
40
0
40
0
40
0
40
0.328709621471901
40
1
40
1
40
1
40
1
41
1.04
10
75.952817210164
20
0.491670581095878
30
0
41
1.04
10
75.9267340656584
20
0.977992875692762
30
0
41
1.04
10
75.8476348538337
20
2.43829949978089
30
0
41
1.04
10
75.7686776241232
20
3.72016958084558
30
0
41
1.04
10
75.7144197176296
20
4.40381650025218
30
0
0
SPLINE
5
F9
100
AcDbEntity
8
1
62
256
6
ByLayer
370
18
48
1
60
0
100
AcDbSpline
70
4
71
3
72
29
73
25
40
0
40
0
40
0
40
0
40
0.125000000000001
40
0.125000000000001
40
0.250000000000003
40
0.250000000000003
40
0.312500000000003
40
0.312500000000003
40
0.343750000000003
40
0.343750000000003
40
0.375000000000003
40
0.375000000000003
40
0.500000000000003
40
0.500000000000003
40
0.625000000000003
40
0.625000000000003
40
0.750000000000003
40
0.750000000000003
40
0.781250000000002
40
0.781250000000002
40
0.812500000000002
40
0.875000000000001
40
0.875000000000001
40
1
40
1
40
1
40
1
41
1
10
75.2878431521605
20
0.925846941703469
30
0
41
1
10
75.2770017711218
20
1.16664108119721
30
0
41
1
10
75.266271741001
20
1.40434069686415
30
0
41
1
10
75.2448107727996
20
1.87366769226637
30
0
41
1
10
75.2340773433056
20
2.10529479261135
30
0
41
1
10
75.2177587204942
20
2.44812259027714
30
0
41
1
10
75.2122868412523
20
2.56162841978352
30
0
41
1
10
75.2040339079044
20
2.73071206189553
30
0
41
1
10
75.2012753769774
20
2.78687732309246
30
0
41
1
10
75.1957433437574
20
2.89881133043281
30
0
41
1
10
75.1929734965474
20
2.95450511734072
30
0
41
1
10
75.1791650320322
20
3.23041721923048
30
0
41
1
10
75.1681954007082
20
3.44411356890686
30
0
41
1
10
75.1463651942091
20
3.8578527764293
30
0
41
1
10
75.13550438109
20
4.05789457681033
30
0
41
1
10
75.1137880073009
20
4.44429538989417
30
0
41
1
10
75.1029321938908
20
4.63065564955929
30
0
41
1
10
75.0892690179575
20
4.85476185170702
30
0
41
1
10
75.08653083519
20
4.89915003344751
30
0
41
1
10
75.0810741481969
20
4.98652146273491
30
0
41
1
10
75.0729067054661
20
5.11566841819723
30
0
41
1
10
75.0647792398686
20
5.23915070332518
30
0
41
1
10
75.04854516143
20
5.4786786489916
30
0
41
1
10
75.0377490087038
20
5.62846745235055
30
0
41
1
10
75.0269040582807
20
5.76843105911155
30
0
0
SPLINE
5
FA
100
AcDbEntity
8
1
62
256
6
ByLayer
370
18
48
1
60
0
100
AcDbSpline
70
4
71
3
72
8
73
4
40
0
40
0
40
0
40
0
40
1
40
1
40
1
40
1
41
1
10
76.2381702081576
20
4.103887852779
30
0
41
1
10
76.3830196335154
20
4.21371212371045
30
0
41
1
10
76.5266764431914
20
4.31057920032035
30
0
41
1
10
76.6689974830417
20
4.39444792107955
30
0
0
SPLINE
5
FB
100
AcDbEntity
8
1
62
256
6
ByLayer
370
18
48
1
60
0
100
AcDbSpline
70
4
71
3
72
10
73
6
40
0
40
0
40
0
40
0
40
0.5
40
0.5
40
1
40
1
40
1
40
1
41
1
10
76.6689974830417
20
4.39444792107957
30
0
41
1
10
76.8055583977178
20
4.27379869127617
30
0
41
1
10
76.9420125347522
20
4.1520271787079
30
0
41
1
10
77.2149634210971
20
3.90655651002138
30
0
41
1
10
77.3515223352955
20
3.78291146808465
30
0
41
1
10
77.4884574155121
20
3.65863431282216
30
0
0
SPLINE
5
FC
100
AcDbEntity
8
1
62
256
6
ByLayer
370
18
48
1
60
0
100
AcDbSpline
70
4
71
3
72
8
73
4
40
0
40
0
40
0
40
0
40
1
40
1
40
1
40
1
41
1
10
77.4884574155121
20
3.65863431282216
30
0
41
1
10
77.5935711231998
20
3.46341534640095
30
0
41
1
10
77.6993410886553
20
3.27166562630319
30
0
41
1
10
77.8059831373236
20
3.08348253749026
30
0
0
SPLINE
5
FD
100
AcDbEntity
8
1
62
256
6
ByLayer
370
18
48
1
60
0
100
AcDbSpline
70
4
71
3
72
34
73
30
40
0
40
0
40
0
40
0
40
0.124999999999999
40
0.124999999999999
40
0.187499999999999
40
0.187499999999999
40
0.249999999999998
40
0.249999999999998
40
0.374999999999998
40
0.374999999999998
40
0.437499999999998
40
0.437499999999998
40
0.499999999999998
40
0.499999999999998
40
0.624999999999997
40
0.624999999999997
40
0.687499999999997
40
0.687499999999997
40
0.749999999999997
40
0.749999999999997
40
0.812499999999997
40
0.812499999999997
40
0.874999999999997
40
0.874999999999997
40
0.937499999999997
40
0.937499999999997
40
0.968749999999999
40
0.968749999999999
40
1
40
1
40
1
40
1
41
1
10
77.8059831373236
20
3.08348253749026
30
0
41
1
10
77.8205207381221
20
3.05782914226421
30
0
41
1
10
77.8375162453316
20
3.03280576764064
30
0
41
1
10
77.8658315434175
20
2.99601330560373
30
0
41
1
10
77.8757995561646
20
2.98382058727347
30
0
41
1
10
77.8964202488854
20
2.95993925996214
30
0
41
1
10
77.9070132044681
20
2.94831260665188
30
0
41
1
10
77.9395570404326
20
2.91428334816749
30
0
41
1
10
77.9622639826817
20
2.89272140989507
30
0
41
1
10
77.9977258547919
20
2.86194241678319
30
0
41
1
10
78.0098157642053
20
2.8519238618297
30
0
41
1
10
78.0340191619902
20
2.8327720090557
30
0
41
1
10
78.0461826286067
20
2.82359286381376
30
0
41
1
10
78.0828424719743
20
2.7972279015579
30
0
41
1
10
78.1075061371374
20
2.78119476736586
30
0
41
1
10
78.1448124152344
20
2.75970431719577
30
0
41
1
10
78.1571918222905
20
2.75303818562546
30
0
41
1
10
78.1815614217442
20
2.7408834152948
30
0
41
1
10
78.193591222021
20
2.73537122434772
30
0
41
1
10
78.217301300286
20
2.72557584149769
30
0
41
1
10
78.2289820335454
20
2.72129107465699
30
0
41
1
10
78.2519294525919
20
2.71414118892099
30
0
41
1
10
78.2629652426172
20
2.71134925241043
30
0
41
1
10
78.284046166616
20
2.70748895776293
30
0
41
1
10
78.2940965902631
20
2.70641658727411
30
0
41
1
10
78.3083046347778
20
2.70632774186285
30
0
41
1
10
78.3128891558023
20
2.7065554604419
30
0
41
1
10
78.321611391356
20
2.70755739042582
30
0
41
1
10
78.3257656706688
20
2.70833093457523
30
0
41
1
10
78.3296980664068
20
2.70939816528482
30
0
0
SPLINE
5
FE
100
AcDbEntity
8
1
62
256
6
ByLayer
370
18
48
1
60
0
100
AcDbSpline
70
4
71
3
72
8
73
4
40
0
40
0
40
0
40
0
40
1
40
1
40
1
40
1
41
1
10
78.3296980664068
20
2.70939816528497
30
0
41
1
10
78.3832351927156
20
2.72392784874188
30
0
41
1
10
78.4366096935133
20
2.73647894650037
30
0
41
1
10
78.4898031606642
20
2.74709123443429
30
0
0
SPLINE
5
FF
100
AcDbEntity
8
1
62
256
6
ByLayer
370
18
48
1
60
0
100
AcDbSpline
70
4
71
3
72
14
73
10
40
0
40
0
40
0
40
0
40
0.5
40
0.5
40
0.75
40
0.75
40
0.875
40
0.875
40
1
40
1
40
1
40
1
41
1
10
78.4898031606642
20
2.74709123443429
30
0
41
1
10
78.742004983851
20
2.51732464478118
30
0
41
1
10
78.9959894915564
20
2.28615590881097
30
0
41
1
10
79.3806422908127
20
1.93839100216673
30
0
41
1
10
79.5093656783265
20
1.82219820875505
30
0
41
1
10
79.7040026219414
20
1.64828023772421
30
0
41
1
10
79.7691696922097
20
1.59031626415455
30
0
41
1
10
79.899680233341
20
1.47476863115395
30
0
41
1
10
79.9650389532606
20
1.41716623741257
30
0
41
1
10
80.0305085006929
20
1.35974306536607
30
0
0
SPLINE
5
100
100
AcDbEntity
8
1
62
256
6
ByLayer
370
18
48
1
60
0
100
AcDbSpline
70
4
71
3
72
12
73
8
40
0
40
0
40
0
40
0
40
0.249999999999947
40
0.249999999999947
40
0.499999999999893
40
0.499999999999893
40
1
40
1
40
1
40
1
41
1
10
80.0305085006929
20
1.35974306536605
30
0
41
1
10
80.0391627357541
20
1.35147270976739
30
0
41
1
10
80.0479789147735
20
1.34324215918153
30
0
41
1
10
80.0659292543766
20
1.32685615326875
30
0
41
1
10
80.0750933719099
20
1.31867528230549
30
0
41
1
10
80.1027058350352
20
1.29454985762445
30
0
41
1
10
80.1213448182799
20
1.27894941018096
30
0
41
1
10
80.1401928058559
20
1.26380335701705
30
0
0
SPLINE
5
101
100
AcDbEntity
8
1
62
256
6
ByLayer
370
18
48
1
60
0
100
AcDbSpline
70
4
71
3
72
8
73
4
40
0
40
0
40
0
40
0
40
1
40
1
40
1
40
1
41
1
10
80.140192805856
20
1.26380335701705
30
0
41
1
10
80.2265170602149
20
1.18850686405469
30
0
41
1
10
80.3130665845675
20
1.11355934359304
30
0
41
1
10
80.3999999201232
20
1.03914483804465
30
0
0
SPLINE
5
102
100
AcDbEntity
8
1
62
256
6
ByLayer
370
18
48
1
60
0
100
AcDbSpline
70
4
71
3
72
12
73
8
40
0
40
0
40
0
40
0
40
0.25
40
0.25
40
0.5
40
0.5
40
1
40
1
40
1
40
1
41
1
10
80.3999999201233
20
1.03914483804468
30
0
41
1
10
80.4479252079548
20
0.986763280478471
30
0
41
1
10
80.496312659766
20
0.935885563165698
30
0
41
1
10
80.5941470880381
20
0.837270240189412
30
0
41
1
10
80.6436240302492
20
0.789505401801819
30
0
41
1
10
80.7936493031805
20
0.65136701548704
30
0
41
1
10
80.8957412718078
20
0.566196823802841
30
0
41
1
10
81.0000000000001
20
0.489110280330607
30
0
0
SPLINE
5
103
100
AcDbEntity
8
1
62
256
6
ByLayer
370
18
48
1
60
0
100
AcDbSpline
70
4
71
3
72
60
73
56
40
0
40
0
40
0
40
0
40
0.0207129343487375
40
0.0207129343487375
40
0.0365078870205322
40
0.0365078870205322
40
0.0444053633564296
40
0.0444053633564296
40
0.052302839692327
40
0.115482650379505
40
0.115482650379505
40
0.1312776030513
40
0.1312776030513
40
0.147072555723094
40
0.147072555723094
40
0.178662461066683
40
0.178662461066683
40
0.241842271753861
40
0.241842271753861
40
0.257637224425656
40
0.257637224425656
40
0.27343217709745
40
0.305022082441039
40
0.305022082441039
40
0.368201893128218
40
0.368201893128218
40
0.494561514502575
40
0.494561514502575
40
0.526151419846164
40
0.526151419846164
40
0.557741325189753
40
0.557741325189753
40
0.620921135876932
40
0.620921135876932
40
0.747280757251288
40
0.747280757251288
40
0.778870662594877
40
0.778870662594877
40
0.794665615266672
40
0.794665615266672
40
0.810460567938467
40
0.810460567938467
40
0.842050473282056
40
0.842050473282056
40
0.873640378625646
40
0.873640378625646
40
0.905230283969235
40
0.905230283969235
40
0.92102523664103
40
0.92102523664103
40
0.928922712976927
40
0.928922712976927
40
0.936820189312824
40
0.936820189312824
40
1
40
1
40
1
40
1
41
1
10
81
20
0.48742441911611
30
0
41
1
10
81
20
0.487037707664712
30
0
41
1
10
81
20
0.487960705323388
30
0
41
1
10
80.9999999999999
20
0.491979481777577
30
0
41
1
10
80.9999999999999
20
0.494509370313779
30
0
41
1
10
80.9999999999999
20
0.499519566192788
30
0
41
1
10
80.9999999999999
20
0.501393062107752
30
0
41
1
10
81
20
0.505520063207115
30
0
41
1
10
81
20
0.525826123743997
30
0
41
1
10
81
20
0.561535853588566
30
0
41
1
10
81
20
0.61558134016741
30
0
41
1
10
81.0000000000001
20
0.626973583325679
30
0
41
1
10
81.0000000000001
20
0.650273186433537
30
0
41
1
10
81.0000000000001
20
0.662269165760733
30
0
41
1
10
81.0000000000001
20
0.699346554196808
30
0
41
1
10
81
20
0.72549697188424
30
0
41
1
10
81
20
0.808239052969498
30
0
41
1
10
81.0000000000001
20
0.869126169066192
30
0
41
1
10
81
20
0.952516378950264
30
0
41
1
10
81
20
0.969573954932798
30
0
41
1
10
81
20
1.00435344563994
30
0
41
1
10
80.9999999999999
20
1.05745800749716
30
0
41
1
10
81
20
1.11334339151003
30
0
41
1
10
81
20
1.2287841895093
30
0
41
1
10
81
20
1.310647280506
30
0
41
1
10
81
20
1.57058303093646
30
0
41
1
10
81
20
1.76295407668869
30
0
41
1
10
81
20
2.02786244064475
30
0
41
1
10
81
20
2.08206838925963
30
0
41
1
10
80.9999999999999
20
2.19297497479658
30
0
41
1
10
81
20
2.24938147010218
30
0
41
1
10
81.0000000000001
20
2.42109604418871
30
0
41
1
10
81
20
2.53904009506303
30
0
41
1
10
81.0000000000001
20
2.90295125842059
30
0
41
1
10
81
20
3.15897584901305
30
0
41
1
10
81
20
3.49599850573733
30
0
41
1
10
81.0000000000001
20
3.56425536720334
30
0
41
1
10
81.0000000000001
20
3.66793864283497
30
0
41
1
10
81
20
3.70269278113739
30
0
41
1
10
81
20
3.77274002669932
30
0
41
1
10
81.0000000000001
20
3.80826002646234
30
0
41
1
10
81.0000000000001
20
3.91526797917774
30
0
41
1
10
81.0000000000001
20
3.98746861625119
30
0
41
1
10
81.0000000000001
20
4.13352841276821
30
0
41
1
10
81
20
4.20739484850176
30
0
41
1
10
81.0000000000001
20
4.35679417075343
30
0
41
1
10
81.0000000000001
20
4.43232229166154
30
0
41
1
10
81
20
4.54688211468908
30
0
41
1
10
81
20
4.58528068861895
30
0
41
1
10
81
20
4.64320490342456
30
0
41
1
10
80.9999999999999
20
4.66259193403172
30
0
41
1
10
81
20
4.70130918448959
30
0
41
1
10
81.0000000000001
20
4.72064668459694
30
0
41
1
10
81.0000000000001
20
4.89449659680628
30
0
41
1
10
81.0000000000001
20
5.04770774279183
30
0
41
1
10
81.0000000000001
20
5.19962744918988
30
0
0
SPLINE
5
104
100
AcDbEntity
8
1
62
256
6
ByLayer
370
18
48
1
60
0
100
AcDbSpline
70
4
71
3
72
14
73
10
40
0
40
0
40
0
40
0
40
0.499999999999985
40
0.499999999999985
40
0.749999999999994
40
0.749999999999994
40
0.874999999999997
40
0.874999999999997
40
1
40
1
40
1
40
1
41
1
10
80.9999999999999
20
5.19962744918988
30
0
41
1
10
80.9016802598699
20
5.30087909790626
30
0
41
1
10
80.8025118970851
20
5.4017883983615
30
0
41
1
10
80.6524951379212
20
5.5530324997504
30
0
41
1
10
80.6022814462892
20
5.60342496794294
30
0
41
1
10
80.5266559483534
20
5.67902378877375
30
0
41
1
10
80.5013991631085
20
5.70422245861289
30
0
41
1
10
80.4507777302436
20
5.75463781837664
30
0
41
1
10
80.4253837162997
20
5.77988561876643
30
0
41
1
10
80.4000000634126
20
5.80507889601483
30
0
0
SPLINE
5
105
100
AcDbEntity
8
1
62
256
6
ByLayer
370
18
48
1
60
0
100
AcDbSpline
70
4
71
3
72
8
73
4
40
0
40
0
40
0
40
0
40
1
40
1
40
1
40
1
41
1
10
80.4000000634126
20
5.80507889601469
30
0
41
1
10
80.2441238698925
20
5.84406189584263
30
0
41
1
10
80.0893706434186
20
5.87939733987403
30
0
41
1
10
79.9356175839555
20
5.91105803836598
30
0
0
SPLINE
5
106
100
AcDbEntity
8
1
62
256
6
ByLayer
370
18
48
1
60
0
100
AcDbSpline
70
4
71
3
72
32
73
28
40
0
40
0
40
0
40
0
40
0.124999999999964
40
0.124999999999964
40
0.249999999999928
40
0.249999999999928
40
0.312499999999931
40
0.312499999999931
40
0.374999999999934
40
0.374999999999934
40
0.499999999999985
40
0.499999999999985
40
0.562499999999987
40
0.562499999999987
40
0.624999999999989
40
0.624999999999989
40
0.749999999999993
40
0.749999999999993
40
0.812499999999995
40
0.812499999999995
40
0.874999999999997
40
0.874999999999997
40
0.906249999999997
40
0.906249999999997
40
0.937499999999998
40
0.937499999999998
40
1
40
1
40
1
40
1
41
1
10
79.9356175839555
20
5.91105803836601
30
0
41
1
10
79.9203022833589
20
5.89227661323991
30
0
41
1
10
79.9033317330239
20
5.87563627140543
30
0
41
1
10
79.8664417411017
20
5.84615045128928
30
0
41
1
10
79.8469190471911
20
5.83363569866759
30
0
41
1
10
79.8163031750608
20
5.81797048405761
30
0
41
1
10
79.8058672163348
20
5.81326720600805
30
0
41
1
10
79.7845374010991
20
5.80490413554548
30
0
41
1
10
79.7736020186725
20
5.80123545638887
30
0
41
1
10
79.7405782537896
20
5.79198238281205
30
0
41
1
10
79.7181851198902
20
5.78807584857299
30
0
41
1
10
79.684054223616
20
5.78577347406465
30
0
41
1
10
79.6725863510422
20
5.7856038109696
30
0
41
1
10
79.6494630499961
20
5.78656033620737
30
0
41
1
10
79.6377587649571
20
5.78769393580765
30
0
41
1
10
79.6026870711327
20
5.7932366485997
30
0
41
1
10
79.5796661790044
20
5.79967194558972
30
0
41
1
10
79.5458482248903
20
5.81432855064972
30
0
41
1
10
79.5346187076237
20
5.82010987141894
30
0
41
1
10
79.5129475619497
20
5.83337393174097
30
0
41
1
10
79.5024917015423
20
5.8408457488795
30
0
41
1
10
79.4874518098846
20
5.85346897071574
30
0
41
1
10
79.4825462501321
20
5.85791357716829
30
0
41
1
10
79.472969740082
20
5.86731772220102
30
0
41
1
10
79.4682821584095
20
5.87229812419235
30
0
41
1
10
79.4547999731967
20
5.88786475154996
30
0
41
1
10
79.4465415451789
20
5.89909888691219
30
0
41
1
10
79.439100028872
20
5.91129460197999
30
0
0
SPLINE
5
107
100
AcDbEntity
8
1
62
256
6
ByLayer
370
18
48
1
60
0
100
AcDbSpline
70
4
71
3
72
8
73
4
40
0
40
0
40
0
40
0
40
1
40
1
40
1
40
1
41
1
10
79.439100028872
20
5.91129460197999
30
0
41
1
10
79.4189126721326
20
5.94437915633841
30
0
41
1
10
79.3987441916872
20
5.97736741713894
30
0
41
1
10
79.3785936016515
20
6.0102597321092
30
0
0
SPLINE
5
108
100
AcDbEntity
8
1
62
256
6
ByLayer
370
18
48
1
60
0
100
AcDbSpline
70
4
71
3
72
8
73
4
40
0
40
0
40
0
40
0
40
1
40
1
40
1
40
1
41
1
10
79.3785936016515
20
6.01025973210923
30
0
41
1
10
78.955982444972
20
6.0735097555727
30
0
41
1
10
78.5402841950402
20
6.10765537063565
30
0
41
1
10
78.1280979789331
20
6.11116558311815
30
0
0
SPLINE
5
109
100
AcDbEntity
8
1
62
256
6
ByLayer
370
18
48
1
60
0
100
AcDbSpline
70
4
71
3
72
8
73
4
40
0
40
0
40
0
40
0
40
1
40
1
40
1
40
1
41
1
10
78.1280979789331
20
6.11116558311812
30
0
41
1
10
78.0427674038239
20
5.94724625906451
30
0
41
1
10
77.957103415621
20
5.781520683976
30
0
41
1
10
77.871013486539
20
5.61402799616144
30
0
0
SPLINE
5
10A
100
AcDbEntity
8
1
62
256
6
ByLayer
370
18
48
1
60
0
100
AcDbSpline
70
4
71
3
72
36
73
32
40
0
40
0
40
0
40
0
40
0.125000000000032
40
0.125000000000032
40
0.187500000000033
40
0.187500000000033
40
0.250000000000033
40
0.250000000000033
40
0.375000000000034
40
0.375000000000034
40
0.437500000000034
40
0.437500000000034
40
0.500000000000035
40
0.500000000000035
40
0.625000000000034
40
0.625000000000034
40
0.687500000000056
40
0.687500000000056
40
0.750000000000078
40
0.750000000000078
40
0.781250000000068
40
0.781250000000068
40
0.812500000000058
40
0.812500000000058
40
0.875000000000077
40
0.875000000000077
40
0.906250000000066
40
0.906250000000066
40
0.937500000000055
40
0.937500000000055
40
1
40
1
40
1
40
1
41
1
10
77.871013486539
20
5.61402799616144
30
0
41
1
10
77.8569850058554
20
5.58673481610302
30
0
41
1
10
77.8406839979564
20
5.56198674298739
30
0
41
1
10
77.8135632684935
20
5.52782581828009
30
0
41
1
10
77.8040686680919
20
5.51694343789802
30
0
41
1
10
77.7842100907846
20
5.49614332824135
30
0
41
1
10
77.7739328206775
20
5.48632023945621
30
0
41
1
10
77.7423270940306
20
5.45865219603422
30
0
41
1
10
77.7201504230887
20
5.44249752828077
30
0
41
1
10
77.6852962183682
20
5.42163018766516
30
0
41
1
10
77.6734081757855
20
5.41524822183709
30
0
41
1
10
77.6495151774073
20
5.40385452262254
30
0
41
1
10
77.6374592690516
20
5.39881020194233
30
0
41
1
10
77.6009731195275
20
5.38566550508841
30
0
41
1
10
77.5762296470965
20
5.37951400837349
30
0
41
1
10
77.5384440577974
20
5.37490780482699
30
0
41
1
10
77.5257536354671
20
5.37416659753697
30
0
41
1
10
77.5007436104578
20
5.37444715576319
30
0
41
1
10
77.488352452021
20
5.37545657398351
30
0
41
1
10
77.46996514404
20
5.37842610342392
30
0
41
1
10
77.4638694051094
20
5.37965944590678
30
0
41
1
10
77.4517514512365
20
5.3826530720917
30
0
41
1
10
77.4457090466457
20
5.38442045851787
30
0
41
1
10
77.4278567857231
20
5.39053984982147
30
0
41
1
10
77.4163887346643
20
5.39567129468836
30
0
41
1
10
77.3999199257872
20
5.40513297208258
30
0
41
1
10
77.3945530531406
20
5.40858223714588
30
0
41
1
10
77.3840869603098
20
5.4161234709984
30
0
41
1
10
77.3789676296903
20
5.42023394925147
30
0
41
1
10
77.3642116814788
20
5.43349468587027
30
0
41
1
10
77.3552195963662
20
5.44350642410035
30
0
41
1
10
77.3471797357614
20
5.45484319610341
30
0
0
SPLINE
5
10B
100
AcDbEntity
8
1
62
256
6
ByLayer
370
18
48
1
60
0
100
AcDbSpline
70
4
71
3
72
10
73
6
40
0
40
0
40
0
40
0
40
0.5
40
0.5
40
1
40
1
40
1
40
1
41
1
10
77.3471797357614
20
5.45484319610341
30
0
41
1
10
77.2759064258804
20
5.55534360323026
30
0
41
1
10
77.2048534017482
20
5.65370244864161
30
0
41
1
10
77.0631743310464
20
5.8461624037657
30
0
41
1
10
76.9925767925634
20
5.94022299374814
30
0
41
1
10
76.9222619092614
20
6.032021703776
30
0
0
SPLINE
5
10C
100
AcDbEntity
8
1
62
256
6
ByLayer
370
18
48
1
60
0
100
AcDbSpline
70
4
71
3
72
12
73
8
40
0
40
0
40
0
40
0
40
0.250000000000009
40
0.250000000000009
40
0.500000000000019
40
0.500000000000019
40
1
40
1
40
1
40
1
41
1
10
76.9222619092614
20
6.03202170377597
30
0
41
1
10
76.8715285188447
20
6.02482340043088
30
0
41
1
10
76.8208097444084
20
6.01712317726719
30
0
41
1
10
76.7193881016782
20
6.00071004852191
30
0
41
1
10
76.6687294959988
20
5.99200364442311
30
0
41
1
10
76.5172226992312
20
5.96444548288108
30
0
41
1
10
76.4167111054362
20
5.94413449676264
30
0
41
1
10
76.3166407589429
20
5.92189539041428
30
0
0
SPLINE
5
10D
100
AcDbEntity
8
1
62
256
6
ByLayer
370
18
48
1
60
0
100
AcDbSpline
70
4
71
3
72
12
73
8
40
0
40
0
40
0
40
0
40
0.250000000000003
40
0.250000000000003
40
0.500000000000006
40
0.500000000000006
40
1
40
1
40
1
40
1
41
1
10
76.316640758943
20
5.92189539041425
30
0
41
1
10
76.2722956733103
20
5.83014003795094
30
0
41
1
10
76.2278422506524
20
5.73819589709279
30
0
41
1
10
76.1386880306223
20
5.55393921584164
30
0
41
1
10
76.0939900817515
20
5.46163194430281
30
0
41
1
10
75.95967890836
20
5.18459141181629
30
0
41
1
10
75.8697759676297
20
4.99960394759202
30
0
41
1
10
75.7793992355936
20
4.81437687399549
30
0
0
SPLINE
5
10E
100
AcDbEntity
8
1
62
256
6
ByLayer
370
18
48
1
60
0
100
AcDbSpline
70
4
71
3
72
14
73
10
40
0
40
0
40
0
40
0
40
0.342495142123952
40
0.342495142123952
40
0.513742713185971
40
0.513742713185971
40
0.684990284247989
40
0.684990284247989
40
1
40
1
40
1
40
1
41
1
10
75.7793992355936
20
4.8143768739954
30
0
41
1
10
75.7653663185017
20
4.78561641642642
30
0
41
1
10
75.7490589666808
20
4.75877325129099
30
0
41
1
10
75.7219274313408
20
4.72074914229242
30
0
41
1
10
75.7124290886946
20
4.70845603178952
30
0
41
1
10
75.6925629785902
20
4.68459949238365
30
0
41
1
10
75.6822818984828
20
4.67314380892432
30
0
41
1
10
75.6523572751573
20
4.64207289058817
30
0
41
1
10
75.6320363917292
20
4.62357934298623
30
0
41
1
10
75.6108170778367
20
4.60668164201292
30
0
0
SPLINE
5
10F
100
AcDbEntity
8
1
62
256
6
ByLayer
370
18
48
1
60
0
100
AcDbSpline
70
4
71
3
72
10
73
6
40
0
40
0
40
0
40
0
40
0.5
40
0.5
40
1
40
1
40
1
40
1
41
1
10
69.9633766911036
20
5.95026431985403
30
0
41
1
10
70.0765320404531
20
6.1434614386169
30
0
41
1
10
70.1889585823546
20
6.33471386044007
30
0
41
1
10
70.4122007505371
20
6.71211424681539
30
0
41
1
10
70.5230007171317
20
6.89822621579194
30
0
41
1
10
70.6329734344482
20
7.08127501989929
30
0
0
SPLINE
5
110
100
AcDbEntity
8
1
62
256
6
ByLayer
370
18
48
1
60
0
100
AcDbSpline
70
4
71
3
72
8
73
4
40
0
40
0
40
0
40
0
40
1
40
1
40
1
40
1
41
1
10
70.8435521359128
20
7.07543540857765
30
0
41
1
10
70.7734353798614
20
7.07837450120905
30
0
41
1
10
70.7032195555344
20
7.08032620239598
30
0
41
1
10
70.6329734344482
20
7.08127501989929
30
0
0
SPLINE
5
111
100
AcDbEntity
8
1
62
256
6
ByLayer
370
18
48
1
60
0
100
AcDbSpline
70
4
71
3
72
10
73
6
40
0
40
0
40
0
40
0
40
0.243212330835539
40
0.243212330835539
40
1
40
1
40
1
40
1
41
1
10
71.0745287694647
20
6.68130253342699
30
0
41
1
10
71.1111854826019
20
6.6180624894715
30
0
41
1
10
71.1479402136431
20
6.55434208345253
30
0
41
1
10
71.2994633277391
20
6.29045558230595
30
0
41
1
10
71.4148507416681
20
6.08669783954315
30
0
41
1
10
71.5312204881387
20
5.87903867094678
30
0
0
SPLINE
5
112
100
AcDbEntity
8
1
62
256
6
ByLayer
370
18
48
1
60
0
100
AcDbSpline
70
4
71
3
72
34
73
30
40
0
40
0
40
0
40
0
40
0.125000000000019
40
0.125000000000019
40
0.187500000000012
40
0.187500000000012
40
0.250000000000005
40
0.250000000000005
40
0.374999999999991
40
0.374999999999991
40
0.437500000000005
40
0.437500000000005
40
0.500000000000018
40
0.500000000000018
40
0.625000000000045
40
0.625000000000045
40
0.687500000000038
40
0.687500000000038
40
0.75000000000003
40
0.75000000000003
40
0.812500000000023
40
0.812500000000023
40
0.875000000000015
40
0.875000000000015
40
0.937500000000007
40
0.937500000000007
40
0.968750000000004
40
0.968750000000004
40
1
40
1
40
1
40
1
41
1
10
71.531220488139
20
5.87903867094658
30
0
41
1
10
71.5457316690298
20
5.8531437983485
30
0
41
1
10
71.5626935086886
20
5.83036392261113
30
0
41
1
10
71.5909544112675
20
5.79974308875976
30
0
41
1
10
71.6009037350227
20
5.7901018811724
30
0
41
1
10
71.6214835155076
20
5.77217315737252
30
0
41
1
10
71.6320570656418
20
5.76392439211159
30
0
41
1
10
71.6645461943667
20
5.74113098882807
30
0
41
1
10
71.6872212920555
20
5.72851407007207
30
0
41
1
10
71.7226439711152
20
5.71327435414801
30
0
41
1
10
71.7347244258524
20
5.70881062675841
30
0
41
1
10
71.7589148283396
20
5.70129443907578
30
0
41
1
10
71.7710735356615
20
5.69821695357041
30
0
41
1
10
71.807724502926
20
5.6910226537392
30
0
41
1
10
71.8323893375269
20
5.68890803398568
30
0
41
1
10
71.8697104642665
20
5.69030743988293
30
0
41
1
10
71.8821113855966
20
5.69154798716883
30
0
41
1
10
71.9065152691537
20
5.6956342340664
30
0
41
1
10
71.9185635646687
20
5.69848017215651
30
0
41
1
10
71.9423134194852
20
5.70593241607386
30
0
41
1
10
71.9540154351814
20
5.71053643210755
30
0
41
1
10
71.9770083370096
20
5.72179098222108
30
0
41
1
10
71.9880702242725
20
5.72833215913948
30
0
41
1
10
72.009198843161
20
5.74340678321119
30
0
41
1
10
72.0192726137543
20
5.75193960770414
30
0
41
1
10
72.0335138207599
20
5.76650429360348
30
0
41
1
10
72.0381064601566
20
5.77165049805822
30
0
41
1
10
72.0468434160833
20
5.78243463942596
30
0
41
1
10
72.0510041097199
20
5.78808845353245
30
0
41
1
10
72.0549419055332
20
5.79402380771472
30
0
0
SPLINE
5
113
100
AcDbEntity
8
1
62
256
6
ByLayer
370
18
48
1
60
0
100
AcDbSpline
70
4
71
3
72
10
73
6
40
0
40
0
40
0
40
0
40
0.5
40
0.5
40
1
40
1
40
1
40
1
41
1
10
72.0549419055332
20
5.79402380771469
30
0
41
1
10
72.1681607380351
20
5.96467609718616
30
0
41
1
10
72.2806515001562
20
6.13094477699357
30
0
41
1
10
72.5040345009175
20
6.4538742210415
30
0
41
1
10
72.6149142107432
20
6.61050020506045
30
0
41
1
10
72.7249297192155
20
6.7618551009131
30
0
0
SPLINE
5
114
100
AcDbEntity
8
1
62
256
6
ByLayer
370
18
48
1
60
0
100
AcDbSpline
70
4
71
3
72
8
73
4
40
0
40
0
40
0
40
0
40
1
40
1
40
1
40
1
41
1
10
72.9351770225802
20
6.69777818635825
30
0
41
1
10
72.8650561477219
20
6.72009179492204
30
0
41
1
10
72.7950014573094
20
6.74145882306576
30
0
41
1
10
72.7249297192155
20
6.7618551009131
30
0
0
SPLINE
5
115
100
AcDbEntity
8
1
62
256
6
ByLayer
370
18
48
1
60
0
100
AcDbSpline
70
4
71
3
72
12
73
8
40
0
40
0
40
0
40
0
40
0.250000000000003
40
0.250000000000003
40
0.500000000000007
40
0.500000000000007
40
1
40
1
40
1
40
1
41
1
10
72.9351770225803
20
6.69777818635825
30
0
41
1
10
72.9916057707807
20
6.58831514549919
30
0
41
1
10
73.048228682557
20
6.47831709575365
30
0
41
1
10
73.1619415180598
20
6.257273793964
30
0
41
1
10
73.2190423178891
20
6.14620529471233
30
0
41
1
10
73.3910620065205
20
5.81163180075805
30
0
41
1
10
73.5064648478298
20
5.58721672791427
30
0
41
1
10
73.6228624840462
20
5.36157205413139
30
0
0
SPLINE
5
116
100
AcDbEntity
8
1
62
256
6
ByLayer
370
18
48
1
60
0
100
AcDbSpline
70
4
71
3
72
34
73
30
40
0
40
0
40
0
40
0
40
0.124999999999939
40
0.124999999999939
40
0.187499999999909
40
0.187499999999909
40
0.249999999999879
40
0.249999999999879
40
0.374999999999818
40
0.374999999999818
40
0.437499999999807
40
0.437499999999807
40
0.499999999999796
40
0.499999999999796
40
0.624999999999816
40
0.624999999999816
40
0.687499999999847
40
0.687499999999847
40
0.749999999999877
40
0.749999999999877
40
0.812499999999908
40
0.812499999999908
40
0.874999999999939
40
0.874999999999939
40
0.937499999999969
40
0.937499999999969
40
0.968749999999985
40
0.968749999999985
40
1
40
1
40
1
40
1
41
1
10
73.6228624840462
20
5.36157205413139
30
0
41
1
10
73.6373802496887
20
5.33342838559193
30
0
41
1
10
73.6543505818334
20
5.30775744790233
30
0
41
1
10
73.6826250471394
20
5.27207585230792
30
0
41
1
10
73.6925789759738
20
5.26061483437877
30
0
41
1
10
73.713169148407
20
5.23885254461862
30
0
41
1
10
73.7237475267842
20
5.22860198461149
30
0
41
1
10
73.7562499769617
20
5.1995686077029
30
0
41
1
10
73.7789324224978
20
5.18248228166561
30
0
41
1
10
73.8143634822846
20
5.16007963053201
30
0
41
1
10
73.8264456414075
20
5.15314367446089
30
0
41
1
10
73.8506376520675
20
5.14061369962903
30
0
41
1
10
73.8627966399957
20
5.13498479679092
30
0
41
1
10
73.8994468267603
20
5.11999700364208
30
0
41
1
10
73.9241090182436
20
5.11250387062
30
0
41
1
10
73.9614221809671
20
5.10549668366264
30
0
41
1
10
73.9738153403065
20
5.10389920345438
30
0
41
1
10
73.9982062497387
20
5.10229620628598
30
0
41
1
10
74.0102476161906
20
5.10228119050194
30
0
41
1
10
74.033982670422
20
5.1039717776907
30
0
41
1
10
74.045676814319
20
5.10567515354555
30
0
41
1
10
74.0686529468747
20
5.1110786558047
30
0
41
1
10
74.0797051608353
20
5.11472712389335
30
0
41
1
10
74.1008159236608
20
5.12409616177823
30
0
41
1
10
74.110880873264
20
5.12981444653033
30
0
41
1
10
74.1251093908923
20
5.14022442617173
30
0
41
1
10
74.1296987264539
20
5.14399987178013
30
0
41
1
10
74.138429566987
20
5.15210728541757
30
0
41
1
10
74.1425875171269
20
5.15645044295798
30
0
41
1
10
74.1465229178885
20
5.16110510938896
30
0
0
SPLINE
5
117
100
AcDbEntity
8
1
62
256
6
ByLayer
370
18
48
1
60
0
100
AcDbSpline
70
4
71
3
72
10
73
6
40
0
40
0
40
0
40
0
40
0.5
40
0.5
40
1
40
1
40
1
40
1
41
1
10
74.1465229178885
20
5.16110510938896
30
0
41
1
10
74.2597230762004
20
5.29499464409977
30
0
41
1
10
74.3721866412706
20
5.42243731514003
30
0
41
1
10
74.5955424385739
20
5.66409665957465
30
0
41
1
10
74.7064174004308
20
5.77829744652792
30
0
41
1
10
74.8164214604546
20
5.88547201458431
30
0
0
SPLINE
5
118
100
AcDbEntity
8
1
62
256
6
ByLayer
370
18
48
1
60
0
100
AcDbSpline
70
4
71
3
72
8
73
4
40
0
40
0
40
0
40
0
40
1
40
1
40
1
40
1
41
1
10
75.0269040582807
20
5.76843105911155
30
0
41
1
10
74.9568243617245
20
5.8082343309747
30
0
41
1
10
74.8866853998327
20
5.84726194143309
30
0
41
1
10
74.8164214604546
20
5.88547201458431
30
0
0
SPLINE
5
119
100
AcDbEntity
8
1
62
256
6
ByLayer
370
18
48
1
60
0
100
AcDbSpline
70
4
71
3
72
12
73
8
40
0
40
0
40
0
40
0
40
0.249999999999997
40
0.249999999999997
40
0.499999999999995
40
0.499999999999995
40
1
40
1
40
1
40
1
41
1
10
75.0269040582807
20
5.76843105911155
30
0
41
1
10
75.0833292965155
20
5.65383899480415
30
0
41
1
10
75.1399402245872
20
5.53939114677007
30
0
41
1
10
75.2536236861419
20
5.31083109650615
30
0
41
1
10
75.3107067925595
20
5.19669277835246
30
0
41
1
10
75.4826743333086
20
4.85499536784772
30
0
41
1
10
75.5980481949658
20
4.62862547264535
30
0
41
1
10
75.7144197176297
20
4.40381650025205
30
0
0
SPLINE
5
11A
100
AcDbEntity
8
1
62
256
6
ByLayer
370
18
48
1
60
0
100
AcDbSpline
70
4
71
3
72
34
73
30
40
0
40
0
40
0
40
0
40
0.125000000000001
40
0.125000000000001
40
0.187500000000002
40
0.187500000000002
40
0.250000000000003
40
0.250000000000003
40
0.375000000000004
40
0.375000000000004
40
0.437500000000003
40
0.437500000000003
40
0.500000000000002
40
0.500000000000002
40
0.625000000000002
40
0.625000000000002
40
0.687500000000002
40
0.687500000000002
40
0.750000000000001
40
0.750000000000001
40
0.812500000000001
40
0.812500000000001
40
0.875000000000001
40
0.875000000000001
40
0.937500000000001
40
0.937500000000001
40
0.968750000000001
40
0.968750000000001
40
1
40
1
40
1
40
1
41
1
10
75.7144197176297
20
4.40381650025219
30
0
41
1
10
75.7289496229948
20
4.37574732130415
30
0
41
1
10
75.7459352735787
20
4.34929778359265
30
0
41
1
10
75.7742343416115
20
4.31148452871548
30
0
41
1
10
75.7841975025295
20
4.29914235725957
30
0
41
1
10
75.80480172522
20
4.27533209053948
30
0
41
1
10
75.8153868735814
20
4.26391922478919
30
0
41
1
10
75.8479087216522
20
4.2310193447386
30
0
41
1
10
75.8706028873908
20
4.21085444202922
30
0
41
1
10
75.9060492117667
20
4.18310332811615
30
0
41
1
10
75.9181342918407
20
4.17425621863967
30
0
41
1
10
75.9423298389256
20
4.15772289315251
30
0
41
1
10
75.9544903041449
20
4.14999433798792
30
0
41
1
10
75.9911440798602
20
4.12840904867773
30
0
41
1
10
76.0158075532293
20
4.11612506704051
30
0
41
1
10
76.0531208983639
20
4.10123924527679
30
0
41
1
10
76.0655074554205
20
4.09692087600507
30
0
41
1
10
76.0898907537664
20
4.08972848946553
30
0
41
1
10
76.1019285192973
20
4.08683706059307
30
0
41
1
10
76.1256567998146
20
4.08259266597037
30
0
41
1
10
76.1373477706849
20
4.08123771123323
30
0
41
1
10
76.1603180175856
20
4.08031037893136
30
0
41
1
10
76.1713646711505
20
4.08074908952264
30
0
41
1
10
76.1924691483322
20
4.08360825333676
30
0
41
1
10
76.2025316933519
20
4.08602529411033
30
0
41
1
10
76.2167577228932
20
4.09140169945857
30
0
41
1
10
76.2213464530905
20
4.09348776839693
30
0
41
1
10
76.2300766844317
20
4.09823611779908
30
0
41
1
10
76.2342345994276
20
4.10090388954677
30
0
41
1
10
76.2381702081576
20
4.10388785277874
30
0
0
SPLINE
5
11B
100
AcDbEntity
8
1
62
256
6
ByLayer
370
18
48
1
60
0
100
AcDbSpline
70
4
71
3
72
22
73
18
40
0
40
0
40
0
40
0
40
0.0639771516410849
40
0.0639771516410849
40
0.251181721312799
40
0.251181721312799
40
0.344784006148655
40
0.344784006148655
40
0.438386290984512
40
0.438386290984512
40
0.625590860656341
40
0.625590860656341
40
0.719193145492256
40
0.719193145492256
40
0.812795430328171
40
0.812795430328171
40
1
40
1
40
1
40
1
41
1
10
72.6453221663486
20
-5.82351835089253
30
0
41
1
10
72.6410188902224
20
-5.82459844589971
30
0
41
1
10
72.6367264060175
20
-5.82577286814339
30
0
41
1
10
72.6199587673406
20
-5.8307556615739
30
0
41
1
10
72.6075770058196
20
-5.83528873156021
30
0
41
1
10
72.5892057069969
20
-5.84346370979398
30
0
41
1
10
72.5831156242338
20
-5.84641880910178
30
0
41
1
10
72.5710096457013
20
-5.85282740452175
30
0
41
1
10
72.5649733980977
20
-5.85629379599413
30
0
41
1
10
72.5471430154186
20
-5.86741938383366
30
0
41
1
10
72.5356899661286
20
-5.87575108519511
30
0
41
1
10
72.5192436663509
20
-5.88978482184999
30
0
41
1
10
72.5138842787616
20
-5.89471989441273
30
0
41
1
10
72.5034328906269
20
-5.90514986589525
30
0
41
1
10
72.4983210935473
20
-5.91066840645249
30
0
41
1
10
72.4835835752767
20
-5.92797626783343
30
0
41
1
10
72.4746015069522
20
-5.94043534629614
30
0
41
1
10
72.4665691412438
20
-5.95393454127287
30
0
0
SPLINE
5
11C
100
AcDbEntity
8
1
62
256
6
ByLayer
370
18
48
1
60
0
100
AcDbSpline
70
4
71
3
72
12
73
8
40
0
40
0
40
0
40
0
40
0.500000000000008
40
0.500000000000008
40
0.750000000000004
40
0.750000000000004
40
1
40
1
40
1
40
1
41
1
10
72.4665691412439
20
-5.95393454127287
30
0
41
1
10
72.3545559236912
20
-6.1421839709709
30
0
41
1
10
72.2430665337377
20
-6.32833687822264
30
0
41
1
10
72.0767696403205
20
-6.60376810192878
30
0
41
1
10
72.0214884150313
20
-6.69495086188184
30
0
41
1
10
71.9113363788443
20
-6.87579926619941
30
0
41
1
10
71.8564447060836
20
-6.96549950968691
30
0
41
1
10
71.8017107952858
20
-7.05447529875497
30
0
0
SPLINE
5
11D
100
AcDbEntity
8
1
62
256
6
ByLayer
370
18
48
1
60
0
100
AcDbSpline
70
4
71
3
72
8
73
4
40
0
40
0
40
0
40
0
40
1
40
1
40
1
40
1
41
1
10
71.5916317669412
20
-7.03347178839599
30
0
41
1
10
71.6616511960633
20
-7.04145646087875
30
0
41
1
10
71.7316728921464
20
-7.04845836009997
30
0
41
1
10
71.8017107952858
20
-7.05447529875497
30
0
0
SPLINE
5
11E
100
AcDbEntity
8
1
62
256
6
ByLayer
370
18
48
1
60
0
100
AcDbSpline
70
4
71
3
72
10
73
6
40
0
40
0
40
0
40
0
40
0.5
40
0.5
40
1
40
1
40
1
40
1
41
1
10
71.5916317669412
20
-7.03347178839596
30
0
41
1
10
71.4775458357856
20
-6.83113874988595
30
0
41
1
10
71.3628244625002
20
-6.62404952400885
30
0
41
1
10
71.1316969039418
20
-6.20062339067181
30
0
41
1
10
71.0155629658789
20
-5.98479437436222
30
0
41
1
10
70.8986032935056
20
-5.76489973877145
30
0
0
SPLINE
5
11F
100
AcDbEntity
8
1
62
256
6
ByLayer
370
18
48
1
60
0
100
AcDbSpline
70
4
71
3
72
38
73
34
40
0
40
0
40
0
40
0
40
0.125000000000083
40
0.125000000000083
40
0.187500000000109
40
0.187500000000109
40
0.250000000000135
40
0.250000000000135
40
0.375000000000189
40
0.375000000000189
40
0.437500000000216
40
0.437500000000216
40
0.500000000000244
40
0.500000000000244
40
0.625000000000256
40
0.625000000000256
40
0.656250000000248
40
0.656250000000248
40
0.687500000000241
40
0.687500000000241
40
0.750000000000225
40
0.750000000000225
40
0.781250000000197
40
0.781250000000197
40
0.812500000000169
40
0.812500000000169
40
0.875000000000113
40
0.875000000000113
40
0.906250000000085
40
0.906250000000085
40
0.937500000000056
40
0.937500000000056
40
1
40
1
40
1
40
1
41
1
10
70.8986032935056
20
-5.76489973877148
30
0
41
1
10
70.8845642671769
20
-5.73850511474456
30
0
41
1
10
70.8682488143039
20
-5.71481438072749
30
0
41
1
10
70.8411028440034
20
-5.68241947183145
30
0
41
1
10
70.8315992444604
20
-5.67215657886075
30
0
41
1
10
70.811722149087
20
-5.65265426863087
30
0
41
1
10
70.8014347013084
20
-5.64350318786342
30
0
41
1
10
70.769801572503
20
-5.61790782960298
30
0
41
1
10
70.7476082685448
20
-5.60321267014845
30
0
41
1
10
70.7127307200585
20
-5.58465112282451
30
0
41
1
10
70.7008377175288
20
-5.5790588763227
30
0
41
1
10
70.676935923125
20
-5.56925705165455
30
0
41
1
10
70.6648761385383
20
-5.5650183521274
30
0
41
1
10
70.6283802000707
20
-5.55432141646131
30
0
41
1
10
70.6036325318769
20
-5.54984237067424
30
0
41
1
10
70.5721447283187
20
-5.54815873976199
30
0
41
1
10
70.5658030010563
20
-5.5480219785035
30
0
41
1
10
70.5531959255034
20
-5.54817237667217
30
0
41
1
10
70.5469195422196
20
-5.5484578974808
30
0
41
1
10
70.5281769909207
20
-5.54996753720309
30
0
41
1
10
70.5157968500761
20
-5.55184061089773
30
0
41
1
10
70.4974280035624
20
-5.5561013888564
30
0
41
1
10
70.4913387421583
20
-5.55776443410085
30
0
41
1
10
70.4792344705024
20
-5.5616158251317
30
0
41
1
10
70.4731989656752
20
-5.56381288369184
30
0
41
1
10
70.4553729385793
20
-5.57120543273564
30
0
41
1
10
70.4439227685882
20
-5.57716216552248
30
0
41
1
10
70.4274806047624
20
-5.58782246791304
30
0
41
1
10
70.4221225719152
20
-5.59166471155365
30
0
41
1
10
70.4116738463079
20
-5.59997775841003
30
0
41
1
10
70.4065633987628
20
-5.60446822185324
30
0
41
1
10
70.391829476235
20
-5.6188370890697
30
0
41
1
10
70.3828492558991
20
-5.62953889763352
30
0
41
1
10
70.374818213805
20
-5.64151081910831
30
0
0
SPLINE
5
120
100
AcDbEntity
8
1
62
256
6
ByLayer
370
18
48
1
60
0
100
AcDbSpline
70
4
71
3
72
12
73
8
40
0
40
0
40
0
40
0
40
0.499999999999993
40
0.499999999999993
40
0.749999999999996
40
0.749999999999996
40
1
40
1
40
1
40
1
41
1
10
70.374818213805
20
-5.64151081910831
30
0
41
1
10
70.2628299134241
20
-5.80845243422462
30
0
41
1
10
70.1513683456694
20
-5.97079665513775
30
0
41
1
10
69.9851149094541
20
-6.20711799302728
30
0
41
1
10
69.9298484050196
20
-6.28469278088966
30
0
41
1
10
69.819726064144
20
-6.43724646821326
30
0
41
1
10
69.7648493130246
20
-6.5122552185237
30
0
41
1
10
69.7101300048008
20
-6.58600585975188
30
0
0
SPLINE
5
121
100
AcDbEntity
8
1
62
256
6
ByLayer
370
18
48
1
60
0
100
AcDbSpline
70
4
71
3
72
8
73
4
40
0
40
0
40
0
40
0
40
1
40
1
40
1
40
1
41
1
10
69.4997062567093
20
-6.50772205592571
30
0
41
1
10
69.5698405466181
20
-6.53473069967083
30
0
41
1
10
69.6399770056768
20
-6.56082739665683
30
0
41
1
10
69.7101300048009
20
-6.58600585975188
30
0
0
SPLINE
5
122
100
AcDbEntity
8
1
62
256
6
ByLayer
370
18
48
1
60
0
100
AcDbSpline
70
4
71
3
72
10
73
6
40
0
40
0
40
0
40
0
40
0.5
40
0.5
40
1
40
1
40
1
40
1
41
1
10
69.4997062567093
20
-6.50772205592571
30
0
41
1
10
69.3856404588083
20
-6.27664502306047
30
0
41
1
10
69.2709479469941
20
-6.04340498618632
30
0
41
1
10
69.0398786829415
20
-5.57307198707943
30
0
41
1
10
68.9237741035275
20
-5.33655521248113
30
0
41
1
10
68.806847257117
20
-5.09879248805484
30
0
0
SPLINE
5
123
100
AcDbEntity
8
1
62
256
6
ByLayer
370
18
48
1
60
0
100
AcDbSpline
70
4
71
3
72
38
73
34
40
0
40
0
40
0
40
0
40
0.125000000000009
40
0.125000000000009
40
0.187500000000014
40
0.187500000000014
40
0.25000000000002
40
0.25000000000002
40
0.375000000000067
40
0.375000000000067
40
0.437500000000089
40
0.437500000000089
40
0.500000000000111
40
0.500000000000111
40
0.625000000000112
40
0.625000000000112
40
0.656250000000091
40
0.656250000000091
40
0.687500000000069
40
0.687500000000069
40
0.750000000000068
40
0.750000000000068
40
0.781250000000046
40
0.781250000000046
40
0.812500000000024
40
0.812500000000024
40
0.874999999999981
40
0.874999999999981
40
0.906249999999977
40
0.906249999999977
40
0.937499999999974
40
0.937499999999974
40
1
40
1
40
1
40
1
41
1
10
68.806847257117
20
-5.09879248805481
30
0
41
1
10
68.7928048219173
20
-5.07023815897506
30
0
41
1
10
68.7764850529343
20
-5.04381438849103
30
0
41
1
10
68.7493326727649
20
-5.00666324723164
30
0
41
1
10
68.7398269376054
20
-4.99470279643333
30
0
41
1
10
68.7199457653197
20
-4.97159095862614
30
0
41
1
10
68.7096565941351
20
-4.96054362972257
30
0
41
1
10
68.6780192351337
20
-4.92903859982857
30
0
41
1
10
68.6558245548584
20
-4.9100971943393
30
0
41
1
10
68.620947228616
20
-4.88470145181381
30
0
41
1
10
68.6090554153705
20
-4.87675293853505
30
0
41
1
10
68.5851561424396
20
-4.86215844812622
30
0
41
1
10
68.5730977518118
20
-4.85547351475284
30
0
41
1
10
68.5366060549663
20
-4.83728017203944
30
0
41
1
10
68.5118612886382
20
-4.82759676953592
30
0
41
1
10
68.4803760878622
20
-4.81908057016403
30
0
41
1
10
68.4740350737104
20
-4.81755713057311
30
0
41
1
10
68.461429925937
20
-4.81492784076465
30
0
41
1
10
68.4551544032372
20
-4.81381793740704
30
0
41
1
10
68.4364141138219
20
-4.81112321655988
30
0
41
1
10
68.4240350415611
20
-4.81016940752727
30
0
41
1
10
68.4056672077882
20
-4.81014656835546
30
0
41
1
10
68.3995781885419
20
-4.81037449428649
30
0
41
1
10
68.387474237354
20
-4.81133945530877
30
0
41
1
10
68.3814386908677
20
-4.81208020381845
30
0
41
1
10
68.3636139916883
20
-4.81511425658732
30
0
41
1
10
68.3521642167139
20
-4.81819515147259
30
0
41
1
10
68.3357220162912
20
-4.82459012206971
30
0
41
1
10
68.3303638685315
20
-4.82701870172531
30
0
41
1
10
68.3199147321652
20
-4.83252198192432
30
0
41
1
10
68.3148039133196
20
-4.83561083691924
30
0
41
1
10
68.3000696955829
20
-4.84584620806356
30
0
41
1
10
68.2910889410535
20
-4.85390291447359
30
0
41
1
10
68.2830571875431
20
-4.86335619714268
30
0
0
SPLINE
5
124
100
AcDbEntity
8
1
62
256
6
ByLayer
370
18
48
1
60
0
100
AcDbSpline
70
4
71
3
72
12
73
8
40
0
40
0
40
0
40
0
40
0.499999999999994
40
0.499999999999994
40
0.749999999999997
40
0.749999999999997
40
1
40
1
40
1
40
1
41
1
10
68.2830571875431
20
-4.86335619714248
30
0
41
1
10
68.1710670409497
20
-4.99516732786697
30
0
41
1
10
68.0596036026025
20
-5.12028478460985
30
0
41
1
10
67.8933555630827
20
-5.29792945455901
30
0
41
1
10
67.8380917284426
20
-5.35547244722181
30
0
41
1
10
67.7279768804985
20
-5.46709819003934
30
0
41
1
10
67.6731049509589
20
-5.52120325583675
30
0
41
1
10
67.6183916104746
20
-5.57362081089082
30
0
0
SPLINE
5
125
100
AcDbEntity
8
1
62
256
6
ByLayer
370
18
48
1
60
0
100
AcDbSpline
70
4
71
3
72
10
73
6
40
0
40
0
40
0
40
0
40
0.5
40
0.5
40
1
40
1
40
1
40
1
41
1
10
67.4076878820566
20
-5.44438346938423
30
0
41
1
10
67.2936243707372
20
-5.20374166471322
30
0
41
1
10
67.1789356146031
20
-4.9637171208033
30
0
41
1
10
66.9479283105193
20
-4.48550608967662
30
0
41
1
10
66.8318855500416
20
-4.24791307411471
30
0
41
1
10
66.7150529366181
20
-4.01196516684763
30
0
0
SPLINE
5
126
100
AcDbEntity
8
1
62
256
6
ByLayer
370
18
48
1
60
0
100
AcDbSpline
70
4
71
3
72
8
73
4
40
0
40
0
40
0
40
0
40
1
40
1
40
1
40
1
41
1
10
60.3038602350555
20
-5.73473435674828
30
0
41
1
10
60.3279156396707
20
-5.70662147518885
30
0
41
1
10
60.352007821037
20
-5.67818037952964
30
0
41
1
10
60.3761391093111
20
-5.64941210980348
30
0
0
SPLINE
5
127
100
AcDbEntity
8
1
62
256
6
ByLayer
370
18
48
1
60
0
100
AcDbSpline
70
4
71
3
72
34
73
30
40
0
40
0
40
0
40
0
40
0.124999999999992
40
0.124999999999992
40
0.187499999999988
40
0.187499999999988
40
0.249999999999984
40
0.249999999999984
40
0.374999999999976
40
0.374999999999976
40
0.437499999999952
40
0.437499999999952
40
0.499999999999927
40
0.499999999999927
40
0.624999999999921
40
0.624999999999921
40
0.687499999999939
40
0.687499999999939
40
0.749999999999957
40
0.749999999999957
40
0.812499999999975
40
0.812499999999975
40
0.874999999999994
40
0.874999999999994
40
0.937500000000012
40
0.937500000000012
40
0.968750000000006
40
0.968750000000006
40
1
40
1
40
1
40
1
41
1
10
60.3761391093112
20
-5.64941210980348
30
0
41
1
10
60.3906027791652
20
-5.63216915323753
30
0
41
1
10
60.4074999858063
20
-5.61848295334582
30
0
41
1
10
60.4356518618349
20
-5.6020002114002
30
0
41
1
10
60.4455600350794
20
-5.59718030949591
30
0
41
1
10
60.4660700602216
20
-5.58894302602585
30
0
41
1
10
60.4766099303926
20
-5.58554177278413
30
0
41
1
10
60.5090024948323
20
-5.57730191226943
30
0
41
1
10
60.5316191614517
20
-5.57440135418972
30
0
41
1
10
60.5669659699751
20
-5.5737891538096
30
0
41
1
10
60.5790313295028
20
-5.57422362620542
30
0
41
1
10
60.6032078241241
20
-5.57635486708415
30
0
41
1
10
60.6153617558175
20
-5.5780465908727
30
0
41
1
10
60.6520049494783
20
-5.58500707470358
30
0
41
1
10
60.6766732350612
20
-5.59212730808042
30
0
41
1
10
60.7140141046672
20
-5.60708220686391
30
0
41
1
10
60.726462779247
20
-5.61277406779988
30
0
41
1
10
60.7509364431936
20
-5.62547724417846
30
0
41
1
10
60.7630198465927
20
-5.63251003691428
30
0
41
1
10
60.7868402661509
20
-5.64807537047224
30
0
41
1
10
60.7985777414227
20
-5.65660594582204
30
0
41
1
10
60.8216417331028
20
-5.67541602934827
30
0
41
1
10
60.8327599224767
20
-5.68553040986242
30
0
41
1
10
60.8539703815816
20
-5.70723037992761
30
0
41
1
10
60.8640813526819
20
-5.71882740846064
30
0
41
1
10
60.8783715501991
20
-5.7375477360296
30
0
41
1
10
60.8829791805824
20
-5.74400226539663
30
0
41
1
10
60.8917414122124
20
-5.75720184856775
30
0
41
1
10
60.8959126799062
20
-5.76396792075406
30
0
41
1
10
60.8998589627817
20
-5.77091242362059
30
0
0
SPLINE
5
128
100
AcDbEntity
8
1
62
256
6
ByLayer
370
18
48
1
60
0
100
AcDbSpline
70
4
71
3
72
14
73
10
40
0
40
0
40
0
40
0
40
0.25
40
0.25
40
0.5
40
0.5
40
0.75
40
0.75
40
1
40
1
40
1
40
1
41
1
10
60.8998589627817
20
-5.77091242362059
30
0
41
1
10
60.9563953902208
20
-5.87040285418684
30
0
41
1
10
61.0127648384698
20
-5.96988496678921
30
0
41
1
10
61.1250694225078
20
-6.16851044775373
30
0
41
1
10
61.1810154051004
20
-6.26767406393418
30
0
41
1
10
61.2925527728552
20
-6.46567712836975
30
0
41
1
10
61.3481677240098
20
-6.56455791631168
30
0
41
1
10
61.4589679222
20
-6.76174196923401
30
0
41
1
10
61.5141427529521
20
-6.86002792317066
30
0
41
1
10
61.5691256046355
20
-6.95799879336846
30
0
0
SPLINE
5
129
100
AcDbEntity
8
1
62
256
6
ByLayer
370
18
48
1
60
0
100
AcDbSpline
70
4
71
3
72
10
73
6
40
0
40
0
40
0
40
0
40
0.5
40
0.5
40
1
40
1
40
1
40
1
41
1
10
61.7789575081811
20
-6.99332213326966
30
0
41
1
10
61.8919536627329
20
-6.83242198192451
30
0
41
1
10
62.0057573478072
20
-6.66516861130765
30
0
41
1
10
62.2354386570824
20
-6.31819300433676
30
0
41
1
10
62.3510336192952
20
-6.13889665067742
30
0
41
1
10
62.4676601677386
20
-5.95390810110189
30
0
0
SPLINE
5
12A
100
AcDbEntity
8
1
62
256
6
ByLayer
370
18
48
1
60
0
100
AcDbSpline
70
4
71
3
72
34
73
30
40
0
40
0
40
0
40
0
40
0.125000000000013
40
0.125000000000013
40
0.187500000000004
40
0.187500000000004
40
0.249999999999995
40
0.249999999999995
40
0.374999999999978
40
0.374999999999978
40
0.43749999999999
40
0.43749999999999
40
0.500000000000002
40
0.500000000000002
40
0.625000000000025
40
0.625000000000025
40
0.687500000000015
40
0.687500000000015
40
0.750000000000005
40
0.750000000000005
40
0.812499999999995
40
0.812499999999995
40
0.874999999999985
40
0.874999999999985
40
0.937499999999975
40
0.937499999999975
40
0.968749999999988
40
0.968749999999988
40
1
40
1
40
1
40
1
41
1
10
62.4676601677386
20
-5.95390810110189
30
0
41
1
10
62.4821377793908
20
-5.93094426982506
30
0
41
1
10
62.4990534071649
20
-5.91136813919761
30
0
41
1
10
62.5272366531684
20
-5.88586414283878
30
0
41
1
10
62.5371572016576
20
-5.87799093704569
30
0
41
1
10
62.5576853344592
20
-5.86365482521265
30
0
41
1
10
62.5682340417473
20
-5.85722285706385
30
0
41
1
10
62.6006523760327
20
-5.83993946347897
30
0
41
1
10
62.6232852333569
20
-5.83107438960391
30
0
41
1
10
62.6586546615486
20
-5.82159191424566
30
0
41
1
10
62.6707243199626
20
-5.81907331436366
30
0
41
1
10
62.6949037808895
20
-5.81542513299189
30
0
41
1
10
62.707058883403
20
-5.81427894495116
30
0
41
1
10
62.7437047368028
20
-5.81287548755901
30
0
41
1
10
62.76837367871
20
-5.81461710367751
30
0
41
1
10
62.8057138856924
20
-5.8218165535128
30
0
41
1
10
62.8181487230093
20
-5.82498484777389
30
0
41
1
10
62.8426034170121
20
-5.83285848086859
30
0
41
1
10
62.8546776585557
20
-5.83757247237966
30
0
41
1
10
62.8784803389536
20
-5.8487075395046
30
0
41
1
10
62.8902092366662
20
-5.85512638025438
30
0
41
1
10
62.9132566195863
20
-5.86995152056957
30
0
41
1
10
62.9243575634098
20
-5.87822201146886
30
0
41
1
10
62.9455459625173
20
-5.89659969561689
30
0
41
1
10
62.955647224405
20
-5.90671165447719
30
0
41
1
10
62.9699249815403
20
-5.92351703390992
30
0
41
1
10
62.9745280949661
20
-5.92938625153363
30
0
41
1
10
62.9832829366249
20
-5.94154695813271
30
0
41
1
10
62.987451109766
20
-5.94785695563058
30
0
41
1
10
62.9913948865288
20
-5.95441373517178
30
0
0
SPLINE
5
12B
100
AcDbEntity
8
1
62
256
6
ByLayer
370
18
48
1
60
0
100
AcDbSpline
70
4
71
3
72
14
73
10
40
0
40
0
40
0
40
0
40
0.25
40
0.25
40
0.5
40
0.5
40
0.75
40
0.75
40
1
40
1
40
1
40
1
41
1
10
62.9913948865287
20
-5.95441373517178
30
0
41
1
10
63.0479283927348
20
-6.04840428260664
30
0
41
1
10
63.1042945193252
20
-6.14174824152892
30
0
41
1
10
63.2165896009001
20
-6.32687982873358
30
0
41
1
10
63.2725288301974
20
-6.41868394820213
30
0
41
1
10
63.3840483469009
20
-6.60075584048053
30
0
41
1
10
63.4396494681712
20
-6.69105723530888
30
0
41
1
10
63.5504437888134
20
-6.86993222248458
30
0
41
1
10
63.6056193778079
20
-6.95847781960285
30
0
41
1
10
63.6606015292099
20
-7.04612127090721
30
0
0
SPLINE
5
12C
100
AcDbEntity
8
1
62
256
6
ByLayer
370
18
48
1
60
0
100
AcDbSpline
70
4
71
3
72
8
73
4
40
0
40
0
40
0
40
0
40
1
40
1
40
1
40
1
41
1
10
63.8712970440486
20
-7.02244013735319
30
0
41
1
10
63.8010552365483
20
-7.03133534446027
30
0
41
1
10
63.7308393380158
20
-7.03922873189217
30
0
41
1
10
63.6606015292098
20
-7.04612127090738
30
0
0
SPLINE
5
12D
100
AcDbEntity
8
1
62
256
6
ByLayer
370
18
48
1
60
0
100
AcDbSpline
70
4
71
3
72
12
73
8
40
0
40
0
40
0
40
0
40
0.249999999999997
40
0.249999999999997
40
0.499999999999994
40
0.499999999999994
40
1
40
1
40
1
40
1
41
1
10
63.8712970440483
20
-7.02244013733889
30
0
41
1
10
63.9277762475022
20
-6.92189849414603
30
0
41
1
10
63.9844308389461
20
-6.82036426205158
30
0
41
1
10
64.0981931157572
20
-6.61529366323924
30
0
41
1
10
64.1553122026313
20
-6.5117362814282
30
0
41
1
10
64.327394594823
20
-6.19822650861832
30
0
41
1
10
64.4428524968733
20
-5.98586599022434
30
0
41
1
10
64.5593336424213
20
-5.77029260010482
30
0
0
SPLINE
5
12E
100
AcDbEntity
8
1
62
256
6
ByLayer
370
18
48
1
60
0
100
AcDbSpline
70
4
71
3
72
34
73
30
40
0
40
0
40
0
40
0
40
0.125000000000058
40
0.125000000000058
40
0.187500000000086
40
0.187500000000086
40
0.250000000000115
40
0.250000000000115
40
0.375000000000175
40
0.375000000000175
40
0.437500000000184
40
0.437500000000184
40
0.500000000000193
40
0.500000000000193
40
0.625000000000168
40
0.625000000000168
40
0.687500000000135
40
0.687500000000135
40
0.750000000000101
40
0.750000000000101
40
0.812500000000068
40
0.812500000000068
40
0.875000000000034
40
0.875000000000034
40
0.937500000000001
40
0.937500000000001
40
0.96875
40
0.96875
40
1
40
1
40
1
40
1
41
1
10
64.5593336424216
20
-5.77029260010454
30
0
41
1
10
64.573811151813
20
-5.74349885794743
30
0
41
1
10
64.5907264852706
20
-5.71962941117317
30
0
41
1
10
64.618908274372
20
-5.68716450506975
30
0
41
1
10
64.6288274956623
20
-5.67687106643524
30
0
41
1
10
64.6493572455317
20
-5.65757422272557
30
0
41
1
10
64.6599065547921
20
-5.64861806697826
30
0
41
1
10
64.6923260848437
20
-5.62364005876876
30
0
41
1
10
64.7149589383715
20
-5.60948442036093
30
0
41
1
10
64.7503271012513
20
-5.59182006907139
30
0
41
1
10
64.762397145327
20
-5.58652292690206
30
0
41
1
10
64.78657840083
20
-5.57732986334076
30
0
41
1
10
64.7987341319119
20
-5.57340706300863
30
0
41
1
10
64.8353809993991
20
-5.56365541646869
30
0
41
1
10
64.8600494849168
20
-5.55980779919852
30
0
41
1
10
64.897386610732
20
-5.55855560576299
30
0
41
1
10
64.9098231567483
20
-5.55891079912303
30
0
41
1
10
64.9342781326656
20
-5.56124877665346
30
0
41
1
10
64.9463519394563
20
-5.56322783341398
30
0
41
1
10
64.9701525222094
20
-5.56896095049805
30
0
41
1
10
64.981879756925
20
-5.57271269987618
30
0
41
1
10
65.0049224745507
20
-5.58227877309392
30
0
41
1
10
65.0160245371813
20
-5.58800893721877
30
0
41
1
10
65.0372098694241
20
-5.60151204262354
30
0
41
1
10
65.0473089586904
20
-5.6092874548753
30
0
41
1
10
65.0615828156564
20
-5.62276565975154
30
0
41
1
10
65.066185830251
20
-5.62755912857438
30
0
41
1
10
65.0749400525025
20
-5.63766472732908
30
0
41
1
10
65.0791079092986
20
-5.64299168487759
30
0
41
1
10
65.0830514025998
20
-5.64861341868396
30
0
0
SPLINE
5
12F
100
AcDbEntity
8
1
62
256
6
ByLayer
370
18
48
1
60
0
100
AcDbSpline
70
4
71
3
72
10
73
6
40
0
40
0
40
0
40
0
40
0.5
40
0.5
40
1
40
1
40
1
40
1
41
1
10
65.0830514025998
20
-5.64861341868402
30
0
41
1
10
65.1961559002636
20
-5.80985202861498
30
0
41
1
10
65.3085537667985
20
-5.96613176619084
30
0
41
1
10
65.5317820893924
20
-6.26806794634521
30
0
41
1
10
65.6426067926371
20
-6.41369648601801
30
0
41
1
10
65.7525955040576
20
-6.5536376947789
30
0
0
SPLINE
5
130
100
AcDbEntity
8
1
62
256
6
ByLayer
370
18
48
1
60
0
100
AcDbSpline
70
4
71
3
72
8
73
4
40
0
40
0
40
0
40
0
40
1
40
1
40
1
40
1
41
1
10
65.9627099601002
20
-6.47311772372018
30
0
41
1
10
65.892668113983
20
-6.50089933794524
30
0
41
1
10
65.8226320198555
20
-6.52773810673051
30
0
41
1
10
65.7525955040576
20
-6.55363769477901
30
0
0
SPLINE
5
131
100
AcDbEntity
8
1
62
256
6
ByLayer
370
18
48
1
60
0
100
AcDbSpline
70
4
71
3
72
12
73
8
40
0
40
0
40
0
40
0
40
0.250000000000003
40
0.250000000000003
40
0.500000000000007
40
0.500000000000007
40
1
40
1
40
1
40
1
41
1
10
65.9627099601003
20
-6.47311772372018
30
0
41
1
10
66.0192053167967
20
-6.36076015293861
30
0
41
1
10
66.0758748799479
20
-6.24806728064607
30
0
41
1
10
66.1896524613741
20
-6.02203177729697
30
0
41
1
10
66.2467738546384
20
-5.90866427341157
30
0
41
1
10
66.4188787230416
20
-5.56777280969109
30
0
41
1
10
66.5343811404853
20
-5.33993810212394
30
0
41
1
10
66.6509135445175
20
-5.11166428381242
30
0
0
SPLINE
5
132
100
AcDbEntity
8
1
62
256
6
ByLayer
370
18
48
1
60
0
100
AcDbSpline
70
4
71
3
72
30
73
26
40
0
40
0
40
0
40
0
40
0.140892308670245
40
0.140892308670245
40
0.211338463005367
40
0.211338463005367
40
0.281784617340489
40
0.281784617340489
40
0.422676926010736
40
0.422676926010736
40
0.493123080345837
40
0.493123080345837
40
0.563569234680939
40
0.563569234680939
40
0.704461543351144
40
0.704461543351144
40
0.77490769768627
40
0.77490769768627
40
0.845353852021396
40
0.845353852021396
40
0.915800006356523
40
0.915800006356523
40
0.986246160691649
40
0.986246160691649
40
1
40
1
40
1
40
1
41
1
10
66.6509135445178
20
-5.11166428381205
30
0
41
1
10
66.6654049718253
20
-5.08327721438056
30
0
41
1
10
66.6823385738255
20
-5.05711537223701
30
0
41
1
10
66.7105505606528
20
-5.02042194206052
30
0
41
1
10
66.7204810989463
20
-5.00857555802361
30
0
41
1
10
66.7410296262314
20
-4.98595536264298
30
0
41
1
10
66.7515879602193
20
-4.97523732362353
30
0
41
1
10
66.7840331137018
20
-4.94469726278831
30
0
41
1
10
66.8066811169179
20
-4.9264689638859
30
0
41
1
10
66.8420675517391
20
-4.90215634360163
30
0
41
1
10
66.8541409735391
20
-4.89454498759963
30
0
41
1
10
66.8783247241718
20
-4.88061973705743
30
0
41
1
10
66.8904810324544
20
-4.87427011428076
30
0
41
1
10
66.9271275993988
20
-4.85705018220111
30
0
41
1
10
66.9517932025328
20
-4.84797690879353
30
0
41
1
10
66.9891215035216
20
-4.83843867466186
30
0
41
1
10
67.0015457113567
20
-4.83597192315108
30
0
41
1
10
67.0259819379621
20
-4.83261570362131
30
0
41
1
10
67.038046402347
20
-4.83171126976112
30
0
41
1
10
67.0618284012968
20
-4.83159430685475
30
0
41
1
10
67.0735463940137
20
-4.83237957897705
30
0
41
1
10
67.0965707820869
20
-4.83591335160799
30
0
41
1
10
67.1076599761096
20
-4.83863209189084
30
0
41
1
10
67.1203092454782
20
-4.84312379911128
30
0
41
1
10
67.1223566927878
20
-4.84389705941263
30
0
41
1
10
67.1243846977633
20
-4.84471127785329
30
0
0
SPLINE
5
133
100
AcDbEntity
8
1
62
256
6
ByLayer
370
18
48
1
60
0
100
AcDbSpline
70
4
71
3
72
8
73
4
40
0
40
0
40
0
40
0
40
1
40
1
40
1
40
1
41
1
10
67.7516762734959
20
-5.4413795578331
30
0
41
1
10
67.7825759618855
20
-5.4684955185071
30
0
41
1
10
67.8134122478359
20
-5.49505425422538
30
0
41
1
10
67.8441842186623
20
-5.52105270929573
30
0
0
SPLINE
5
134
100
AcDbEntity
8
1
62
256
6
ByLayer
370
18
48
1
60
0
100
AcDbSpline
70
4
71
3
72
8
73
4
40
0
40
0
40
0
40
0
40
1
40
1
40
1
40
1
41
1
10
68.0540875957777
20
-5.3905719435852
30
0
41
1
10
67.9841136462741
20
-5.43487106268617
30
0
41
1
10
67.9141378299922
20
-5.47835779779786
30
0
41
1
10
67.8441842186622
20
-5.52105270929584
30
0
0
SPLINE
5
135
100
AcDbEntity
8
1
62
256
6
ByLayer
370
18
48
1
60
0
100
AcDbSpline
70
4
71
3
72
8
73
4
40
0
40
0
40
0
40
0
40
1
40
1
40
1
40
1
41
1
10
68.0540875957777
20
-5.3905719435852
30
0
41
1
10
68.1468114283417
20
-5.20231170251768
30
0
41
1
10
68.2400054985687
20
-5.01487656815337
30
0
41
1
10
68.3338405890253
20
-4.82849310329212
30
0
0
SPLINE
5
136
100
AcDbEntity
8
1
62
256
6
ByLayer
370
18
48
1
60
0
100
AcDbSpline
70
4
71
3
72
10
73
6
40
0
40
0
40
0
40
0
40
0.5
40
0.5
40
1
40
1
40
1
40
1
41
1
10
80.350462778501
20
-2.87439975999888
30
0
41
1
10
80.3403924944051
20
-2.86846087220991
30
0
41
1
10
80.3302029387757
20
-2.86281161668478
30
0
41
1
10
80.3099465875133
20
-2.85234858752111
30
0
41
1
10
80.2998880761033
20
-2.8475347415683
30
0
41
1
10
80.2899067586887
20
-2.84316343732854
30
0
0
SPLINE
5
137
100
AcDbEntity
8
1
62
256
6
ByLayer
370
18
48
1
60
0
100
AcDbSpline
70
4
71
3
72
12
73
8
40
0
40
0
40
0
40
0
40
0.499999999999992
40
0.499999999999992
40
0.749999999999996
40
0.749999999999996
40
1
40
1
40
1
40
1
41
1
10
80.2899067586877
20
-2.8431634373319
30
0
41
1
10
80.0247889004629
20
-2.70557641351394
30
0
41
1
10
79.762911427154
20
-2.55865572202359
30
0
41
1
10
79.3736946648647
20
-2.32552049973617
30
0
41
1
10
79.244589365976
20
-2.24564016594866
30
0
41
1
10
78.9875852281374
20
-2.08153396739667
30
0
41
1
10
78.8596625472327
20
-1.99733874564691
30
0
41
1
10
78.7322191661371
20
-1.91108336819545
30
0
0
SPLINE
5
138
100
AcDbEntity
8
1
62
256
6
ByLayer
370
18
48
1
60
0
100
AcDbSpline
70
4
71
3
72
8
73
4
40
0
40
0
40
0
40
0
40
1
40
1
40
1
40
1
41
1
10
78.7322191661371
20
-1.91108336819545
30
0
41
1
10
78.6777909580886
20
-1.8176971010212
30
0
41
1
10
78.6232099355213
20
-1.72558755240166
30
0
41
1
10
78.568455905809
20
-1.63476121025505
30
0
0
SPLINE
5
139
100
AcDbEntity
8
1
62
256
6
ByLayer
370
18
48
1
60
0
100
AcDbSpline
70
4
71
3
72
36
73
32
40
0
40
0
40
0
40
0
40
0.12500000000007
40
0.12500000000007
40
0.18750000000009
40
0.18750000000009
40
0.250000000000109
40
0.250000000000109
40
0.375000000000147
40
0.375000000000147
40
0.437500000000146
40
0.437500000000146
40
0.500000000000146
40
0.500000000000146
40
0.625000000000145
40
0.625000000000145
40
0.687500000000124
40
0.687500000000124
40
0.750000000000103
40
0.750000000000103
40
0.781250000000113
40
0.781250000000113
40
0.812500000000124
40
0.812500000000124
40
0.875000000000106
40
0.875000000000106
40
0.906250000000079
40
0.906250000000079
40
0.937500000000053
40
0.937500000000053
40
1
40
1
40
1
40
1
41
1
10
78.5684559058091
20
-1.63476121025508
30
0
41
1
10
78.5544182548024
20
-1.61147546306961
30
0
41
1
10
78.5381050874174
20
-1.58816475997878
30
0
41
1
10
78.5109640663051
20
-1.55319916492013
30
0
41
1
10
78.5014623002905
20
-1.54154351865864
30
0
41
1
10
78.481588896395
20
-1.51823203814811
30
0
41
1
10
78.4713041674303
20
-1.50668017940299
30
0
41
1
10
78.4396772659158
20
-1.47253181125228
30
0
41
1
10
78.4174877196179
20
-1.45033888854061
30
0
41
1
10
78.3826181671397
20
-1.41784797642458
30
0
41
1
10
78.37072750187
20
-1.40715569244983
30
0
41
1
10
78.3468306160444
20
-1.38640599649281
30
0
41
1
10
78.3347734734153
20
-1.37630010870021
30
0
41
1
10
78.2982859320755
20
-1.3467852775384
30
0
41
1
10
78.2735446244193
20
-1.32816442504134
30
0
41
1
10
78.2357675575658
20
-1.30202217781931
30
0
41
1
10
78.2230860725469
20
-1.29363141050658
30
0
41
1
10
78.1980921256779
20
-1.27790568137772
30
0
41
1
10
78.1857090407796
20
-1.27052026786561
30
0
41
1
10
78.1673336484756
20
-1.26023313797145
30
0
41
1
10
78.161241848595
20
-1.25693643686461
30
0
41
1
10
78.1491316597056
20
-1.25062816499587
30
0
41
1
10
78.1430928504267
20
-1.2476069317278
30
0
41
1
10
78.1252542693566
20
-1.23908581869918
30
0
41
1
10
78.1137942272014
20
-1.23415116329596
30
0
41
1
10
78.0973356543433
20
-1.2279960455617
30
0
41
1
10
78.0919718943894
20
-1.226153087131
30
0
41
1
10
78.0815114238829
20
-1.2229209350804
30
0
41
1
10
78.0763945845579
20
-1.22152729587774
30
0
41
1
10
78.0616458412887
20
-1.21813820636331
30
0
41
1
10
78.0526568591707
20
-1.21693030947796
30
0
41
1
10
78.0446187534453
20
-1.21691625518412
30
0
0
SPLINE
5
13A
100
AcDbEntity
8
1
62
256
6
ByLayer
370
18
48
1
60
0
100
AcDbSpline
70
4
71
3
72
10
73
6
40
0
40
0
40
0
40
0
40
0.5
40
0.5
40
1
40
1
40
1
40
1
41
1
10
78.0446187534453
20
-1.21691625518412
30
0
41
1
10
77.9938916839653
20
-1.21682756101106
30
0
41
1
10
77.9432829377032
20
-1.21484235963902
30
0
41
1
10
77.8422666799306
20
-1.20720802227763
30
0
41
1
10
77.7918639872556
20
-1.20156263863657
30
0
41
1
10
77.7415987866226
20
-1.19413345229881
30
0
0
SPLINE
5
13B
100
AcDbEntity
8
1
62
256
6
ByLayer
370
18
48
1
60
0
100
AcDbSpline
70
4
71
3
72
8
73
4
40
0
40
0
40
0
40
0
40
1
40
1
40
1
40
1
41
1
10
77.7415987866226
20
-1.19413345229879
30
0
41
1
10
77.4671244216083
20
-0.983127706548686
30
0
41
1
10
77.1937671792926
20
-0.763278622138643
30
0
41
1
10
76.9208136992493
20
-0.534940452537882
30
0
0
SPLINE
5
13C
100
AcDbEntity
8
1
62
256
6
ByLayer
370
18
48
1
60
0
100
AcDbSpline
70
4
71
3
72
10
73
6
40
0
40
0
40
0
40
0
40
0.5
40
0.5
40
1
40
1
40
1
40
1
41
1
10
76.9208136992493
20
-0.534940452537882
30
0
41
1
10
76.847368994358
20
-0.429207071480107
30
0
41
1
10
76.7735795316582
20
-0.326438038176292
30
0
41
1
10
76.6255511540922
20
-0.127472983086449
30
0
41
1
10
76.551266823296
20
-0.0312109975124883
30
0
41
1
10
76.4766575966775
20
0.0618207468237415
30
0
0
SPLINE
5
13D
100
AcDbEntity
8
1
62
256
6
ByLayer
370
18
48
1
60
0
100
AcDbSpline
70
4
71
3
72
36
73
32
40
0
40
0
40
0
40
0
40
0.125000000000006
40
0.125000000000006
40
0.187500000000025
40
0.187500000000025
40
0.250000000000044
40
0.250000000000044
40
0.375000000000045
40
0.375000000000045
40
0.437500000000025
40
0.437500000000025
40
0.500000000000006
40
0.500000000000006
40
0.624999999999968
40
0.624999999999968
40
0.68749999999997
40
0.68749999999997
40
0.749999999999972
40
0.749999999999972
40
0.781249999999995
40
0.781249999999995
40
0.812500000000017
40
0.812500000000017
40
0.875000000000022
40
0.875000000000022
40
0.906250000000024
40
0.906250000000024
40
0.937500000000026
40
0.937500000000026
40
1
40
1
40
1
40
1
41
1
10
76.4766575966775
20
0.0618207468237699
30
0
41
1
10
76.4626199155773
20
0.0793246135488346
30
0
41
1
10
76.4463066202658
20
0.0977501665819602
30
0
41
1
10
76.4191652977811
20
0.126426547593468
30
0
41
1
10
76.4096635235358
20
0.136163054397684
30
0
41
1
10
76.3897902390679
20
0.155974841070247
30
0
41
1
10
76.3795055982422
20
0.165962482953034
30
0
41
1
10
76.3478791123574
20
0.195967412099435
30
0
41
1
10
76.3256899437166
20
0.216108290898092
30
0
41
1
10
76.2908202804493
20
0.246569597989463
30
0
41
1
10
76.2789295509429
20
0.256764131156615
30
0
41
1
10
76.2550323447085
20
0.27689441258886
30
0
41
1
10
76.2429749336816
20
0.286875148124238
30
0
41
1
10
76.2064862139012
20
0.316579304851672
30
0
41
1
10
76.1817435992622
20
0.336068008347667
30
0
41
1
10
76.143963958501
20
0.364836583086117
30
0
41
1
10
76.1312819291002
20
0.374327694802616
30
0
41
1
10
76.1062870342463
20
0.39269842164984
30
0
41
1
10
76.0939035613913
20
0.401632428268044
30
0
41
1
10
76.0755278281901
20
0.414622773207867
30
0
41
1
10
76.069435955176
20
0.418884177965765
30
0
41
1
10
76.0573257244225
20
0.427259837314409
30
0
41
1
10
76.05128694556
20
0.431387837646724
30
0
41
1
10
76.0334486786335
20
0.443426677765473
30
0
41
1
10
76.021989070158
20
0.450953410140926
30
0
41
1
10
76.005531483719
20
0.461412488925049
30
0
41
1
10
76.000168118426
20
0.464759748808461
30
0
41
1
10
75.9897084712338
20
0.471151938487253
30
0
41
1
10
75.984592118546
20
0.474208454805506
30
0
41
1
10
75.9698440060757
20
0.482783447627469
30
0
41
1
10
75.960855272525
20
0.487688441729347
30
0
41
1
10
75.9528172133061
20
0.491670522511697
30
0
0
SPLINE
5
13E
100
AcDbEntity
8
1
62
256
6
ByLayer
370
18
48
1
60
0
100
AcDbSpline
70
4
71
3
72
12
73
8
40
0
40
0
40
0
40
0
40
0.499999999999993
40
0.499999999999993
40
0.749999999999997
40
0.749999999999997
40
1
40
1
40
1
40
1
41
1
10
75.9528172133061
20
0.491670522511669
30
0
41
1
10
75.8407903033468
20
0.547169019487939
30
0
41
1
10
75.7292814763027
20
0.611559774537284
30
0
41
1
10
75.562952546935
20
0.720391112918236
30
0
41
1
10
75.5076602735136
20
0.758727069648188
30
0
41
1
10
75.3974871072834
20
0.83933228635226
30
0
41
1
10
75.3425854454749
20
0.881614708117638
30
0
41
1
10
75.2878431521605
20
0.925846941703441
30
0
0
SPLINE
5
13F
100
AcDbEntity
8
1
62
256
6
ByLayer
370
18
48
1
60
0
100
AcDbSpline
70
4
71
3
72
8
73
4
40
0
40
0
40
0
40
0
40
1
40
1
40
1
40
1
41
1
10
75.0773867164048
20
1.12915802504372
30
0
41
1
10
75.1475559796754
20
1.0615196877377
30
0
41
1
10
75.2177031352413
20
0.993744212576274
30
0
41
1
10
75.2878431521605
20
0.925846941703441
30
0
0
SPLINE
5
140
100
AcDbEntity
8
1
62
256
6
ByLayer
370
18
48
1
60
0
100
AcDbSpline
70
4
71
3
72
12
73
8
40
0
40
0
40
0
40
0
40
0.25
40
0.25
40
0.5
40
0.5
40
1
40
1
40
1
40
1
41
1
10
75.0773867164048
20
1.12915802504372
30
0
41
1
10
75.0203669428169
20
1.19016473701407
30
0
41
1
10
74.9631977064097
20
1.24898086347423
30
0
41
1
10
74.8484891203668
20
1.36216504136428
30
0
41
1
10
74.7909373591559
20
1.41654422428212
30
0
41
1
10
74.6177029589584
20
1.57284862460426
30
0
41
1
10
74.5016696732938
20
1.66771485924585
30
0
41
1
10
74.3848580417191
20
1.75320307403345
30
0
0
SPLINE
5
141
100
AcDbEntity
8
1
62
256
6
ByLayer
370
18
48
1
60
0
100
AcDbSpline
70
4
71
3
72
36
73
32
40
0
40
0
40
0
40
0
40
0.125000000000031
40
0.125000000000031
40
0.18750000000003
40
0.18750000000003
40
0.25000000000003
40
0.25000000000003
40
0.375000000000028
40
0.375000000000028
40
0.437500000000028
40
0.437500000000028
40
0.500000000000027
40
0.500000000000027
40
0.625000000000027
40
0.625000000000027
40
0.687500000000027
40
0.687500000000027
40
0.750000000000027
40
0.750000000000027
40
0.781250000000027
40
0.781250000000027
40
0.812500000000027
40
0.812500000000027
40
0.875000000000028
40
0.875000000000028
40
0.906250000000028
40
0.906250000000028
40
0.937500000000029
40
0.937500000000029
40
1
40
1
40
1
40
1
41
1
10
74.3848580417191
20
1.75320307403345
30
0
41
1
10
74.3708231023515
20
1.76347449901925
30
0
41
1
10
74.3545126073631
20
1.77548836109799
30
0
41
1
10
74.3273759366567
20
1.79549988806681
30
0
41
1
10
74.3178757967731
20
1.80251054084849
30
0
41
1
10
74.2980063648501
20
1.81718156390255
30
0
41
1
10
74.2877238482008
20
1.82477778946793
30
0
41
1
10
74.2561040628146
20
1.84815477590592
30
0
41
1
10
74.2339198638092
20
1.86457646309236
30
0
41
1
10
74.1990579652674
20
1.89048758767839
30
0
41
1
10
74.1871697192602
20
1.89934114650194
30
0
41
1
10
74.1632772203043
20
1.91718752203667
30
0
41
1
10
74.1512220674219
20
1.92621808809409
30
0
41
1
10
74.1147397536189
20
1.95365699047969
30
0
41
1
10
74.0900009053999
20
1.97240417464158
30
0
41
1
10
74.0522259737445
20
2.00142519325374
30
0
41
1
10
74.0395442495956
20
2.011234918962
30
0
41
1
10
74.0145500540625
20
2.03073796230655
30
0
41
1
10
74.0021668144565
20
2.04048527028894
30
0
41
1
10
73.983791330277
20
2.05511012562263
30
0
41
1
10
73.9776995236833
20
2.05998572619839
30
0
41
1
10
73.9655894081998
20
2.0697399873703
30
0
41
1
10
73.9595507571932
20
2.07463528151698
30
0
41
1
10
73.9417118603502
20
2.08920280062938
30
0
41
1
10
73.9302518911056
20
2.09870346305351
30
0
41
1
10
73.9137938853535
20
2.1126074481557
30
0
41
1
10
73.9084303796529
20
2.11718397243189
30
0
41
1
10
73.8979704115857
20
2.1262108437287
30
0
41
1
10
73.8928538943298
20
2.13067900523742
30
0
41
1
10
73.8781050120762
20
2.14373497846134
30
0
41
1
10
73.8691158561271
20
2.15193356182741
30
0
41
1
10
73.8610774190523
20
2.15955575267441
30
0
0
SPLINE
5
142
100
AcDbEntity
8
1
62
256
6
ByLayer
370
18
48
1
60
0
100
AcDbSpline
70
4
71
3
72
12
73
8
40
0
40
0
40
0
40
0
40
0.499999999999992
40
0.499999999999992
40
0.749999999999996
40
0.749999999999996
40
1
40
1
40
1
40
1
41
1
10
73.8610774190523
20
2.15955575267438
30
0
41
1
10
73.749046680617
20
2.26578531709595
30
0
41
1
10
73.637530931791
20
2.37983158157974
30
0
41
1
10
73.4711863550884
20
2.56140681493292
30
0
41
1
10
73.4158880200497
20
2.62370145412211
30
0
41
1
10
73.3057010500538
20
2.75157928268169
30
0
41
1
10
73.2507916702763
20
2.81718481590499
30
0
41
1
10
73.196040971802
20
2.88442741058219
30
0
0
SPLINE
5
143
100
AcDbEntity
8
1
62
256
6
ByLayer
370
18
48
1
60
0
100
AcDbSpline
70
4
71
3
72
10
73
6
40
0
40
0
40
0
40
0
40
0.5
40
0.5
40
1
40
1
40
1
40
1
41
1
10
72.9862228636697
20
3.07030108174186
30
0
41
1
10
72.872156917862
20
3.1282092938913
30
0
41
1
10
72.7574276358778
20
3.17650374804069
30
0
41
1
10
72.5262539042488
20
3.25326860816946
30
0
41
1
10
72.4100910049887
20
3.28163101727182
30
0
41
1
10
72.2931508057574
20
3.29993889945769
30
0
0
SPLINE
5
144
100
AcDbEntity
8
1
62
256
6
ByLayer
370
18
48
1
60
0
100
AcDbSpline
70
4
71
3
72
36
73
32
40
0
40
0
40
0
40
0
40
0.124999999999993
40
0.124999999999993
40
0.187499999999991
40
0.187499999999991
40
0.249999999999989
40
0.249999999999989
40
0.374999999999988
40
0.374999999999988
40
0.437499999999986
40
0.437499999999986
40
0.499999999999985
40
0.499999999999985
40
0.62499999999998
40
0.62499999999998
40
0.687499999999999
40
0.687499999999999
40
0.750000000000019
40
0.750000000000019
40
0.781250000000007
40
0.781250000000007
40
0.812499999999995
40
0.812499999999995
40
0.874999999999971
40
0.874999999999971
40
0.906249999999978
40
0.906249999999978
40
0.937499999999985
40
0.937499999999985
40
1
40
1
40
1
40
1
41
1
10
72.2931508057575
20
3.29993889945658
30
0
41
1
10
72.2791040562154
20
3.3021380254834
30
0
41
1
10
72.2627790130533
20
3.30675997194967
30
0
41
1
10
72.2356193067801
20
3.31647429490923
30
0
41
1
10
72.2261112266892
20
3.32018723689964
30
0
41
1
10
72.2062259319264
20
3.32852052522674
30
0
41
1
10
72.1959352915703
20
3.33310569439288
30
0
41
1
10
72.1642933280887
20
3.34794659846545
30
0
41
1
10
72.1420962269459
20
3.35930753677059
30
0
41
1
10
72.1072185902462
20
3.37854858900107
30
0
41
1
10
72.0953273883211
20
3.38533524573162
30
0
41
1
10
72.0714297978464
20
3.39943336888382
30
0
41
1
10
72.0593725886851
20
3.40677224200127
30
0
41
1
10
72.0228856034389
20
3.42969108699072
30
0
41
1
10
71.9981456033044
20
3.4461539375244
30
0
41
1
10
71.9603726093699
20
3.47303513624206
30
0
41
1
10
71.9476964312646
20
3.48235023567037
30
0
41
1
10
71.9227121260383
20
3.50136913119971
30
0
41
1
10
71.9103340360215
20
3.51112141021642
30
0
41
1
10
71.8919667001956
20
3.52616719800432
30
0
41
1
10
71.885877680794
20
3.531252286876
30
0
41
1
10
71.873773307361
20
3.54157519139781
30
0
41
1
10
71.86773744624
20
3.54683136098029
30
0
41
1
10
71.8499095772113
20
3.56271473690688
30
0
41
1
10
71.8384567530847
20
3.57339810689985
30
0
41
1
10
71.8220089113757
20
3.58958801912459
30
0
41
1
10
71.8166486978877
20
3.59501220480718
30
0
41
1
10
71.8061951006868
20
3.60592093083943
30
0
41
1
10
71.8010817402599
20
3.61142794042519
30
0
41
1
10
71.7863411889638
20
3.62787590103486
30
0
41
1
10
71.7773564104446
20
3.63868457483275
30
0
41
1
10
71.7693211957139
20
3.6493117196174
30
0
0
SPLINE
5
145
100
AcDbEntity
8
1
62
256
6
ByLayer
370
18
48
1
60
0
100
AcDbSpline
70
4
71
3
72
12
73
8
40
0
40
0
40
0
40
0
40
0.5
40
0.5
40
0.75
40
0.75
40
1
40
1
40
1
40
1
41
1
10
71.769321195713
20
3.64931171961911
30
0
41
1
10
71.6573396295267
20
3.79741533065822
30
0
41
1
10
71.5458729327884
20
3.95162206865737
30
0
41
1
10
71.3795984290047
20
4.19083199282636
30
0
41
1
10
71.3243227708035
20
4.27190260787302
30
0
41
1
10
71.2141789477064
20
4.43641281809329
30
0
41
1
10
71.159290049325
20
4.51988192004922
30
0
41
1
10
71.1045585395802
20
4.60453775135505
30
0
0
SPLINE
5
146
100
AcDbEntity
8
1
62
256
6
ByLayer
370
18
48
1
60
0
100
AcDbSpline
70
4
71
3
72
12
73
8
40
0
40
0
40
0
40
0
40
0.25
40
0.25
40
0.5
40
0.5
40
1
40
1
40
1
40
1
41
1
10
70.8940889616494
20
4.75871715014631
30
0
41
1
10
70.8370971514894
20
4.75314461363786
30
0
41
1
10
70.7799488138303
20
4.74515826596573
30
0
41
1
10
70.665261300528
20
4.7242895182103
30
0
41
1
10
70.607709729416
20
4.71140323349849
30
0
41
1
10
70.4344345880427
20
4.66530981713859
30
0
41
1
10
70.3183135583854
20
4.62470583065075
30
0
41
1
10
70.2013912314304
20
4.57424586205943
30
0
0
SPLINE
5
147
100
AcDbEntity
8
1
62
256
6
ByLayer
370
18
48
1
60
0
100
AcDbSpline
70
4
71
3
72
38
73
34
40
0
40
0
40
0
40
0
40
0.124999999999941
40
0.124999999999941
40
0.187499999999927
40
0.187499999999927
40
0.249999999999913
40
0.249999999999913
40
0.374999999999883
40
0.374999999999883
40
0.437499999999869
40
0.437499999999869
40
0.499999999999854
40
0.499999999999854
40
0.624999999999824
40
0.624999999999824
40
0.656249999999838
40
0.656249999999838
40
0.687499999999852
40
0.687499999999852
40
0.74999999999988
40
0.74999999999988
40
0.781249999999895
40
0.781249999999895
40
0.81249999999991
40
0.81249999999991
40
0.87499999999994
40
0.87499999999994
40
0.906249999999955
40
0.906249999999955
40
0.93749999999997
40
0.93749999999997
40
1
40
1
40
1
40
1
41
1
10
70.2013912314304
20
4.57424586205943
30
0
41
1
10
70.1873461963237
20
4.56818447028931
30
0
41
1
10
70.171022381082
20
4.56502346283335
30
0
41
1
10
70.1438634317185
20
4.563623148869
30
0
41
1
10
70.1343554238986
20
4.56372651942127
30
0
41
1
10
70.1144698586101
20
4.56502291863794
30
0
41
1
10
70.1041787990357
20
4.56621252068072
30
0
41
1
10
70.0725359992129
20
4.57127560631949
30
0
41
1
10
70.0503383521913
20
4.57662779749626
30
0
41
1
10
70.0154592189775
20
4.58759797725941
30
0
41
1
10
70.0035676407601
20
4.59175499211176
30
0
41
1
10
69.9796693892494
20
4.60093669266584
30
0
41
1
10
69.9676118533343
20
4.60597625389073
30
0
41
1
10
69.9311238611083
20
4.62247901259863
30
0
41
1
10
69.9063831175449
20
4.63529761301493
30
0
41
1
10
69.874904840154
20
4.6540674340028
30
0
41
1
10
69.8685653534675
20
4.65797159760777
30
0
41
1
10
69.8559632064678
20
4.66599403990608
30
0
41
1
10
69.849689153162
20
4.67011848214912
30
0
41
1
10
69.8309531329741
20
4.68284575400961
30
0
41
1
10
69.8185767354468
20
4.69180026293586
30
0
41
1
10
69.8002123486371
20
4.7060279072769
30
0
41
1
10
69.7941243810295
20
4.71090360882042
30
0
41
1
10
69.7820222680221
20
4.72094456275826
30
0
41
1
10
69.7759875491219
20
4.72612829835251
30
0
41
1
10
69.7581643298801
20
4.74201872997057
30
0
41
1
10
69.7467147616276
20
4.75300335983999
30
0
41
1
10
69.7302717044061
20
4.77014179688641
30
0
41
1
10
69.7249130767315
20
4.7759653153588
30
0
41
1
10
69.7144626029958
20
4.78785369240865
30
0
41
1
10
69.7093508450834
20
4.79394379521202
30
0
41
1
10
69.6946142512045
20
4.81242186315311
30
0
41
1
10
69.6856315532912
20
4.82494442897212
30
0
41
1
10
69.6775978092804
20
4.83769411081048
30
0
0
SPLINE
5
148
100
AcDbEntity
8
1
62
256
6
ByLayer
370
18
48
1
60
0
100
AcDbSpline
70
4
71
3
72
12
73
8
40
0
40
0
40
0
40
0
40
0.500000000000001
40
0.500000000000001
40
0.75
40
0.75
40
1
40
1
40
1
40
1
41
1
10
69.6775978092804
20
4.83769411081048
30
0
41
1
10
69.5655680460512
20
5.0154871591927
30
0
41
1
10
69.4540587539827
20
5.19716864362414
30
0
41
1
10
69.2877287981972
20
5.47434297036543
30
0
41
1
10
69.2324361633749
20
5.56752451526876
30
0
41
1
10
69.1222610647616
20
5.75514935310753
30
0
41
1
10
69.0673578479831
20
5.84962708500765
30
0
41
1
10
69.0126130274901
20
5.9447483245101
30
0
0
SPLINE
5
149
100
AcDbEntity
8
1
62
256
6
ByLayer
370
18
48
1
60
0
100
AcDbSpline
70
4
71
3
72
12
73
8
40
0
40
0
40
0
40
0
40
0.25
40
0.25
40
0.5
40
0.5
40
1
40
1
40
1
40
1
41
1
10
68.8021418684187
20
6.05391390310589
30
0
41
1
10
68.7451308968878
20
6.01438279865437
30
0
41
1
10
68.687974126209
20
5.97260568807951
30
0
41
1
10
68.5732911543608
20
5.8845209736088
30
0
41
1
10
68.5157527085873
20
5.83820313516071
30
0
41
1
10
68.3425376262877
20
5.69242745171226
30
0
41
1
10
68.2264815768669
20
5.5863094484321
30
0
41
1
10
68.1096045494466
20
5.4713093827587
30
0
0
SPLINE
5
14A
100
AcDbEntity
8
1
62
256
6
ByLayer
370
18
48
1
60
0
100
AcDbSpline
70
4
71
3
72
37
73
33
40
0
40
0
40
0
40
0
40
0.125000000000045
40
0.125000000000045
40
0.187500000000052
40
0.187500000000052
40
0.250000000000059
40
0.250000000000059
40
0.375000000000072
40
0.375000000000072
40
0.437500000000079
40
0.437500000000079
40
0.500000000000085
40
0.500000000000085
40
0.625000000000098
40
0.625000000000098
40
0.65625000000009
40
0.65625000000009
40
0.687500000000083
40
0.750000000000066
40
0.750000000000066
40
0.781250000000057
40
0.781250000000057
40
0.812500000000048
40
0.812500000000048
40
0.875000000000032
40
0.875000000000032
40
0.906250000000024
40
0.906250000000024
40
0.937500000000016
40
0.937500000000016
40
1
40
1
40
1
40
1
41
1
10
68.1096045494466
20
5.4713093827587
30
0
41
1
10
68.0955595132014
20
5.45748989978384
30
0
41
1
10
68.0792353395909
20
5.4468079337542
30
0
41
1
10
68.052074950244
20
5.43440960389282
30
0
41
1
10
68.0425663160467
20
5.43089512128518
30
0
41
1
10
68.0226791979748
20
5.42504813080493
30
0
41
1
10
68.0123872288676
20
5.42274407458811
30
0
41
1
10
67.9807419048274
20
5.41761199545908
30
0
41
1
10
67.9585427634925
20
5.41651432242969
30
0
41
1
10
67.923660973191
20
5.41830890409656
30
0
41
1
10
67.9117686166456
20
5.41949348741085
30
0
41
1
10
67.887868765418
20
5.42300156046659
30
0
41
1
10
67.87581038079
20
5.42532614750581
30
0
41
1
10
67.839319578972
20
5.43405144873742
30
0
41
1
10
67.8145766151841
20
5.44216807315729
30
0
41
1
10
67.7830954542289
20
5.4557576807326
30
0
41
1
10
67.7767556073371
20
5.4586589000892
30
0
41
1
10
67.7641534417146
20
5.46477091561442
30
0
41
1
10
67.7453315991187
20
5.47441760726792
30
0
41
1
10
67.72676727613
20
5.48554491251633
30
0
41
1
10
67.7084034365103
20
5.49778077176225
30
0
41
1
10
67.7023156973073
20
5.50204485641007
30
0
41
1
10
67.6902141574538
20
5.5109754190164
30
0
41
1
10
67.6841797298616
20
5.51565897260647
30
0
41
1
10
67.6663583730065
20
5.53024519152717
30
0
41
1
10
67.6549100811924
20
5.54062431296165
30
0
41
1
10
67.6384689228095
20
5.55729630216501
30
0
41
1
10
67.633110925728
20
5.56303830773874
30
0
41
1
10
67.6226616946567
20
5.57492460544009
30
0
41
1
10
67.6175505731529
20
5.58109487037368
30
0
41
1
10
67.6028156028371
20
5.60007641229123
30
0
41
1
10
67.5938336903037
20
5.61327790737485
30
0
41
1
10
67.5858004155984
20
5.62709602127433
30
0
0
SPLINE
5
14B
100
AcDbEntity
8
1
62
256
6
ByLayer
370
18
48
1
60
0
100
AcDbSpline
70
4
71
3
72
12
73
8
40
0
40
0
40
0
40
0
40
0.499999999999993
40
0.499999999999993
40
0.749999999999996
40
0.749999999999996
40
1
40
1
40
1
40
1
41
1
10
67.5858004155984
20
5.62709602127433
30
0
41
1
10
67.4737707380044
20
5.81979935856816
30
0
41
1
10
67.3622639793084
20
6.01384977541375
30
0
41
1
10
67.1959396900498
20
6.30593127958736
30
0
41
1
10
67.1406491740591
20
6.40347052902646
30
0
41
1
10
67.0304777677292
20
6.59859457241146
30
0
41
1
10
66.9755760591493
20
6.69621572288008
30
0
41
1
10
66.9208322181767
20
6.79388193038778
30
0
0
SPLINE
5
14C
100
AcDbEntity
8
1
62
256
6
ByLayer
370
18
48
1
60
0
100
AcDbSpline
70
4
71
3
72
12
73
8
40
0
40
0
40
0
40
0
40
0.249999999999997
40
0.249999999999997
40
0.499999999999995
40
0.499999999999995
40
1
40
1
40
1
40
1
41
1
10
66.7105175321599
20
6.84898800350814
30
0
41
1
10
66.6535319270789
20
6.77863629997665
30
0
41
1
10
66.5963986662231
20
6.70640852381769
30
0
41
1
10
66.4817463455157
20
6.55819473640992
30
0
41
1
10
66.4242152474447
20
6.48219244074031
30
0
41
1
10
66.2509832087467
20
6.24859895318048
30
0
41
1
10
66.1348560465524
20
6.08570524060897
30
0
41
1
10
66.0178396808536
20
5.91569510463532
30
0
0
SPLINE
5
14D
100
AcDbEntity
8
1
62
256
6
ByLayer
370
18
48
1
60
0
100
AcDbSpline
70
4
71
3
72
38
73
34
40
0
40
0
40
0
40
0
40
0.12499999999998
40
0.12499999999998
40
0.18749999999997
40
0.18749999999997
40
0.249999999999961
40
0.249999999999961
40
0.374999999999979
40
0.374999999999979
40
0.437499999999988
40
0.437499999999988
40
0.499999999999997
40
0.499999999999997
40
0.624999999999973
40
0.624999999999973
40
0.656249999999967
40
0.656249999999967
40
0.68749999999996
40
0.68749999999996
40
0.749999999999948
40
0.749999999999948
40
0.781249999999963
40
0.781249999999963
40
0.812499999999979
40
0.812499999999979
40
0.87500000000001
40
0.87500000000001
40
0.906250000000007
40
0.906250000000007
40
0.937500000000004
40
0.937500000000004
40
1
40
1
40
1
40
1
41
1
10
66.0178396808537
20
5.91569510463532
30
0
41
1
10
66.0037885565679
20
5.8952805794008
30
0
41
1
10
65.9874559559285
20
5.87798762813978
30
0
41
1
10
65.9602796748334
20
5.85566340294861
30
0
41
1
10
65.9507651891452
20
5.84883849863263
30
0
41
1
10
65.9308650993599
20
5.83636736658832
30
0
41
1
10
65.9205656551573
20
5.83077880932831
30
0
41
1
10
65.8888991026081
20
5.81593532039602
30
0
41
1
10
65.8666860051283
20
5.80852214597809
30
0
41
1
10
65.8317844683189
20
5.80106427773023
30
0
41
1
10
65.8198874515263
20
5.79920371509928
30
0
41
1
10
65.7959794452395
20
5.79679928889385
30
0
41
1
10
65.7839175444453
20
5.79624281194211
30
0
41
1
10
65.7474181229535
20
5.7965486829635
30
0
41
1
10
65.7226719022345
20
5.79934669820449
30
0
41
1
10
65.6911907877096
20
5.80670006115901
30
0
41
1
10
65.6848526365983
20
5.80837176952767
30
0
41
1
10
65.6722575833598
20
5.81209332555016
30
0
41
1
10
65.6659872433488
20
5.81414546156708
30
0
41
1
10
65.6472628911926
20
5.82089709673087
30
0
41
1
10
65.6348949724509
20
5.82618805807078
30
0
41
1
10
65.6165445352445
20
5.83545114697714
30
0
41
1
10
65.6104614279965
20
5.83876079263737
30
0
41
1
10
65.5983694609569
20
5.84586092044958
30
0
41
1
10
65.5923396677313
20
5.84966587459058
30
0
41
1
10
65.5745372273756
20
5.86176362762706
30
0
41
1
10
65.5631012696778
20
5.87069064211241
30
0
41
1
10
65.5466779467279
20
5.88552995599025
30
0
41
1
10
65.5413257828613
20
5.89071891417541
30
0
41
1
10
65.530887931917
20
5.90162489201649
30
0
41
1
10
65.5257824703506
20
5.90736637860977
30
0
41
1
10
65.5110629618922
20
5.92528308179658
30
0
41
1
10
65.5020893613005
20
5.93806945378532
30
0
41
1
10
65.4940623548902
20
5.95180751871843
30
0
0
SPLINE
5
14E
100
AcDbEntity
8
1
62
256
6
ByLayer
370
18
48
1
60
0
100
AcDbSpline
70
4
71
3
72
12
73
8
40
0
40
0
40
0
40
0
40
0.500000000000007
40
0.500000000000007
40
0.750000000000003
40
0.750000000000003
40
1
40
1
40
1
40
1
41
1
10
65.4940623548902
20
5.95180751871843
30
0
41
1
10
65.3820583952219
20
6.14350011145211
30
0
41
1
10
65.2705842960311
20
6.33388675518896
30
0
41
1
10
65.1043111774022
20
6.61674296637935
30
0
41
1
10
65.0490382970664
20
6.7105812334737
30
0
41
1
10
64.9389027595026
20
6.89708548299598
30
0
41
1
10
64.8840193252477
20
6.98978682444928
30
0
41
1
10
64.8292936123685
20
7.08193262121719
30
0
0
SPLINE
5
14F
100
AcDbEntity
8
1
62
256
6
ByLayer
370
18
48
1
60
0
100
AcDbSpline
70
4
71
3
72
8
73
4
40
0
40
0
40
0
40
0
40
1
40
1
40
1
40
1
41
1
10
64.6190324920887
20
7.07851718902873
30
0
41
1
10
64.6891356704921
20
7.08064777973701
30
0
41
1
10
64.7592178348173
20
7.08178588418897
30
0
41
1
10
64.8292936123685
20
7.08193262121719
30
0
0
SPLINE
5
150
100
AcDbEntity
8
1
62
256
6
ByLayer
370
18
48
1
60
0
100
AcDbSpline
70
4
71
3
72
10
73
6
40
0
40
0
40
0
40
0
40
0.5
40
0.5
40
1
40
1
40
1
40
1
41
1
10
64.6190324920887
20
7.07851718902873
30
0
41
1
10
64.5049815519727
20
6.88828281291845
30
0
41
1
10
64.3902820881159
20
6.69261787853438
30
0
41
1
10
64.1591601105296
20
6.29056993634498
30
0
41
1
10
64.0430091825193
20
6.08466632482006
30
0
41
1
10
63.9260379441599
20
5.8738902080745
30
0
0
SPLINE
5
151
100
AcDbEntity
8
1
62
256
6
ByLayer
370
18
48
1
60
0
100
AcDbSpline
70
4
71
3
72
38
73
34
40
0
40
0
40
0
40
0
40
0.124999999999951
40
0.124999999999951
40
0.187499999999942
40
0.187499999999942
40
0.249999999999933
40
0.249999999999933
40
0.374999999999917
40
0.374999999999917
40
0.437499999999909
40
0.437499999999909
40
0.499999999999901
40
0.499999999999901
40
0.624999999999928
40
0.624999999999928
40
0.656249999999934
40
0.656249999999934
40
0.68749999999994
40
0.68749999999994
40
0.749999999999953
40
0.749999999999953
40
0.781249999999959
40
0.781249999999959
40
0.812499999999965
40
0.812499999999965
40
0.874999999999977
40
0.874999999999977
40
0.906249999999982
40
0.906249999999982
40
0.937499999999987
40
0.937499999999987
40
1
40
1
40
1
40
1
41
1
10
63.92603794416
20
5.8738902080745
30
0
41
1
10
63.9119837948224
20
5.84856535845279
30
0
41
1
10
63.895648460091
20
5.82608345070884
30
0
41
1
10
63.868469963085
20
5.79565783348474
30
0
41
1
10
63.858955036202
20
5.7860780760015
30
0
41
1
10
63.839054892768
20
5.76799274538686
30
0
41
1
10
63.8287556547141
20
5.75956926164221
30
0
41
1
10
63.7970901186939
20
5.73619726003787
30
0
41
1
10
63.7748783800445
20
5.72304311728558
30
0
41
1
10
63.7399810770604
20
5.70687827553911
30
0
41
1
10
63.7280853136311
20
5.70210030452174
30
0
41
1
10
63.7041796666029
20
5.69392669696737
30
0
41
1
10
63.6921189692728
20
5.69050565682602
30
0
41
1
10
63.655623445159
20
5.68227344780746
30
0
41
1
10
63.6308803030768
20
5.67945281880273
30
0
41
1
10
63.5994037583268
20
5.67986952566719
30
0
41
1
10
63.593065774915
20
5.68015528439079
30
0
41
1
10
63.5804692020615
20
5.68114433804374
30
0
41
1
10
63.5741980698838
20
5.6818468486145
30
0
41
1
10
63.5554712669714
20
5.68460051204113
30
0
41
1
10
63.5431016287588
20
5.68729369329941
30
0
41
1
10
63.5247485174694
20
5.69277050667105
30
0
41
1
10
63.5186644950358
20
5.69483653745391
30
0
41
1
10
63.5065706430277
20
5.69948904718404
30
0
41
1
10
63.5005401473462
20
5.70208570589182
30
0
41
1
10
63.4827316857381
20
5.71065764917759
30
0
41
1
10
63.4712918123861
20
5.71737298895852
30
0
41
1
10
63.4548629506967
20
5.72912660601136
30
0
41
1
10
63.4495089961392
20
5.73332581473417
30
0
41
1
10
63.439067705115
20
5.74233674020559
30
0
41
1
10
63.4339606353694
20
5.7471694390043
30
0
41
1
10
63.4192357323079
20
5.7625281605948
30
0
41
1
10
63.410259421045
20
5.77383826950972
30
0
41
1
10
63.4022305141885
20
5.78636050015683
30
0
0
SPLINE
5
152
100
AcDbEntity
8
1
62
256
6
ByLayer
370
18
48
1
60
0
100
AcDbSpline
70
4
71
3
72
12
73
8
40
0
40
0
40
0
40
0
40
0.499999999999993
40
0.499999999999993
40
0.749999999999996
40
0.749999999999996
40
1
40
1
40
1
40
1
41
1
10
63.4022305141885
20
5.78636050015686
30
0
41
1
10
63.290243880088
20
5.96101970179706
30
0
41
1
10
63.1787765088847
20
6.13181107533515
30
0
41
1
10
63.0125043897847
20
6.38174849827655
30
0
41
1
10
62.9572301369433
20
6.46402123010165
30
0
41
1
10
62.8470900700653
20
6.62626579625822
30
0
41
1
10
62.7922033882453
20
6.70626912941577
30
0
41
1
10
62.7374738478202
20
6.78515950187861
30
0
0
SPLINE
5
153
100
AcDbEntity
8
1
62
256
6
ByLayer
370
18
48
1
60
0
100
AcDbSpline
70
4
71
3
72
8
73
4
40
0
40
0
40
0
40
0
40
1
40
1
40
1
40
1
41
1
10
62.5269977507691
20
6.72344656834437
30
0
41
1
10
62.5971730225224
20
6.74496952558832
30
0
41
1
10
62.667326856017
20
6.76554157180331
30
0
41
1
10
62.7374738478202
20
6.78515950187858
30
0
0
SPLINE
5
154
100
AcDbEntity
8
1
62
256
6
ByLayer
370
18
48
1
60
0
100
AcDbSpline
70
4
71
3
72
12
73
8
40
0
40
0
40
0
40
0
40
0.25
40
0.25
40
0.5
40
0.5
40
1
40
1
40
1
40
1
41
1
10
62.5269977507691
20
6.72344656834434
30
0
41
1
10
62.469989861765
20
6.61126480074594
30
0
41
1
10
62.4128285597545
20
6.49835926314253
30
0
41
1
10
62.2981272046555
20
6.27111526269005
30
0
41
1
10
62.2405749931504
20
6.15675257875813
30
0
41
1
10
62.067314347196
20
5.81168402649123
30
0
41
1
10
61.951226737921
20
5.57946036564692
30
0
41
1
10
61.8342945969849
20
5.34514587184384
30
0
0
SPLINE
5
155
100
AcDbEntity
8
1
62
256
6
ByLayer
370
18
48
1
60
0
100
AcDbSpline
70
4
71
3
72
38
73
34
40
0
40
0
40
0
40
0
40
0.124999999999949
40
0.124999999999949
40
0.187499999999925
40
0.187499999999925
40
0.249999999999901
40
0.249999999999901
40
0.374999999999853
40
0.374999999999853
40
0.437499999999849
40
0.437499999999849
40
0.499999999999845
40
0.499999999999845
40
0.624999999999838
40
0.624999999999838
40
0.656249999999826
40
0.656249999999826
40
0.687499999999813
40
0.687499999999813
40
0.749999999999831
40
0.749999999999831
40
0.781249999999861
40
0.781249999999861
40
0.812499999999892
40
0.812499999999892
40
0.874999999999913
40
0.874999999999913
40
0.906249999999943
40
0.906249999999943
40
0.937499999999973
40
0.937499999999973
40
1
40
1
40
1
40
1
41
1
10
61.8342945969849
20
5.34514587184378
30
0
41
1
10
61.8202456282177
20
5.31699384299367
30
0
41
1
10
61.8039165059943
20
5.29116793071361
30
0
41
1
10
61.7767473111944
20
5.25513716773679
30
0
41
1
10
61.7672354810422
20
5.24358837095076
30
0
41
1
10
61.7473411768931
20
5.22137282164101
30
0
41
1
10
61.7370447482906
20
5.21080606931119
30
0
41
1
10
61.7053866530705
20
5.18082693005599
30
0
41
1
10
61.6831786673258
20
5.16301642962148
30
0
41
1
10
61.6482837987605
20
5.13948610889227
30
0
41
1
10
61.6363880915061
20
5.13218903831711
30
0
41
1
10
61.6124820161232
20
5.11893261415239
30
0
41
1
10
61.6004207373837
20
5.11293708275667
30
0
41
1
10
61.5639221708698
20
5.09687522126464
30
0
41
1
10
61.5391751110483
20
5.08869594900864
30
0
41
1
10
61.5076920567991
20
5.08218634152519
30
0
41
1
10
61.5013527864345
20
5.0810719165421
30
0
41
1
10
61.4887541611115
20
5.07926565556119
30
0
41
1
10
61.4824820820591
20
5.07857027136717
30
0
41
1
10
61.4637527250596
20
5.07712851260894
30
0
41
1
10
61.4513817624548
20
5.0770224714995
30
0
41
1
10
61.4330273158064
20
5.07829257168476
30
0
41
1
10
61.4269429582321
20
5.07895504274356
30
0
41
1
10
61.4148486754422
20
5.08079693260498
30
0
41
1
10
61.4088180480833
20
5.08198165417329
30
0
41
1
10
61.3910100485112
20
5.08634850101953
30
0
41
1
10
61.3795710432491
20
5.09031503793852
30
0
41
1
10
61.3631440642579
20
5.09803437726649
30
0
41
1
10
61.3577908344444
20
5.10090372300706
30
0
41
1
10
61.3473511319127
20
5.10728711701961
30
0
41
1
10
61.3422450451596
20
5.11081691098696
30
0
41
1
10
61.3275217658261
20
5.12236114718704
30
0
41
1
10
61.3185462739158
20
5.13126560336178
30
0
41
1
10
61.3105178188529
20
5.14153901924215
30
0
0
SPLINE
5
156
100
AcDbEntity
8
1
62
256
6
ByLayer
370
18
48
1
60
0
100
AcDbSpline
70
4
71
3
72
12
73
8
40
0
40
0
40
0
40
0
40
0.25
40
0.25
40
0.5
40
0.5
40
1
40
1
40
1
40
1
41
1
10
61.3105178188529
20
5.14153901924215
30
0
41
1
10
61.2647974471797
20
5.20004397302534
30
0
41
1
10
61.2191762527546
20
5.25751370087571
30
0
41
1
10
61.1281047069521
20
5.37044794732091
30
0
41
1
10
61.0826493337952
20
5.42591940970598
30
0
41
1
10
60.9466338720726
20
5.58920589778069
30
0
41
1
10
60.8563588380098
20
5.69396870876318
30
0
41
1
10
60.7666143152098
20
5.79444548054425
30
0
0
SPLINE
5
157
100
AcDbEntity
8
1
62
256
6
ByLayer
370
18
48
1
60
0
100
AcDbSpline
70
4
71
3
72
8
73
4
40
0
40
0
40
0
40
0
40
1
40
1
40
1
40
1
41
1
10
60.7666143152098
20
5.79444548054425
30
0
41
1
10
60.6083317481801
20
5.44851254002896
30
0
41
1
10
60.4492409963549
20
5.10197551721734
30
0
41
1
10
60.2887339652418
20
4.7550790890258
30
0
0
SPLINE
5
158
100
AcDbEntity
8
1
62
256
6
ByLayer
370
18
48
1
60
0
100
AcDbSpline
70
4
71
3
72
10
73
6
40
0
40
0
40
0
40
0
40
0.823469907943464
40
0.823469907943464
40
1
40
1
40
1
40
1
41
1
10
60.2887339652418
20
4.75507908902586
30
0
41
1
10
60.2563946818127
20
4.68518569037528
30
0
41
1
10
60.2210678454077
20
4.61740125132266
30
0
41
1
10
60.1749786044186
20
4.53731976210389
30
0
41
1
10
60.1667218274529
20
4.52326755726452
30
0
41
1
10
60.158346032148
20
4.50929867313667
30
0
0
SPLINE
5
159
100
AcDbEntity
8
1
62
256
6
ByLayer
370
18
48
1
60
0
100
AcDbSpline
70
4
71
3
72
10
73
6
40
0
40
0
40
0
40
0
40
0.5
40
0.5
40
1
40
1
40
1
40
1
41
1
10
66.4774412449554
20
0.0465095678199816
30
0
41
1
10
66.5905385460213
20
-0.0125632081892491
30
0
41
1
10
66.702930261725
20
-0.0801608033818013
30
0
41
1
10
66.9261767072578
20
-0.23129279191761
30
0
41
1
10
67.0370231503393
20
-0.314855782214295
30
0
41
1
10
67.1470595732983
20
-0.405963043129475
30
0
0
SPLINE
5
15A
100
AcDbEntity
8
1
62
256
6
ByLayer
370
18
48
1
60
0
100
AcDbSpline
70
4
71
3
72
10
73
6
40
0
40
0
40
0
40
0
40
0.5
40
0.5
40
1
40
1
40
1
40
1
41
1
10
67.3568400836662
20
-0.60953702411382
30
0
41
1
10
67.469900940461
20
-0.729577663146188
30
0
41
1
10
67.583719175236
20
-0.841404056980309
30
0
41
1
10
67.8132886912452
20
-1.04801736219875
30
0
41
1
10
67.9287740067535
20
-1.1425162619089
30
0
41
1
10
68.0452147393544
20
-1.22812465389089
30
0
0
SPLINE
5
15B
100
AcDbEntity
8
1
62
256
6
ByLayer
370
18
48
1
60
0
100
AcDbSpline
70
4
71
3
72
34
73
30
40
0
40
0
40
0
40
0
40
0.124999999999981
40
0.124999999999981
40
0.187499999999955
40
0.187499999999955
40
0.249999999999928
40
0.249999999999928
40
0.374999999999878
40
0.374999999999878
40
0.437499999999873
40
0.437499999999873
40
0.499999999999869
40
0.499999999999869
40
0.624999999999902
40
0.624999999999902
40
0.687499999999919
40
0.687499999999919
40
0.749999999999935
40
0.749999999999935
40
0.812499999999951
40
0.812499999999951
40
0.874999999999968
40
0.874999999999968
40
0.937499999999984
40
0.937499999999984
40
0.968749999999992
40
0.968749999999992
40
1
40
1
40
1
40
1
41
1
10
68.0452147393544
20
-1.22812465389089
30
0
41
1
10
68.0597314022461
20
-1.23879744973593
30
0
41
1
10
68.076697090012
20
-1.25142548956433
30
0
41
1
10
68.104958905097
20
-1.27256455674839
30
0
41
1
10
68.1149088663919
20
-1.28002427738073
30
0
41
1
10
68.1354792461646
20
-1.29547951464681
30
0
41
1
10
68.1460477878889
20
-1.30343594727023
30
0
41
1
10
68.1785209935722
20
-1.32793701667669
30
0
41
1
10
68.2011842585873
20
-1.34510412333361
30
0
41
1
10
68.23658764306
20
-1.37209788317691
30
0
41
1
10
68.2486611144204
20
-1.38133276636756
30
0
41
1
10
68.272838846502
20
-1.39990179872748
30
0
41
1
10
68.2849917475874
20
-1.40927283477393
30
0
41
1
10
68.3216272409333
20
-1.43766419570687
30
0
41
1
10
68.3462843034473
20
-1.45695681911428
30
0
41
1
10
68.383599790039
20
-1.48660532333346
30
0
41
1
10
68.3960060156863
20
-1.49653890825118
30
0
41
1
10
68.420419643906
20
-1.51627085527409
30
0
41
1
10
68.4324743665333
20
-1.52610660936713
30
0
41
1
10
68.4562402671433
20
-1.54572386273091
30
0
41
1
10
68.467951907585
20
-1.55550541612215
30
0
41
1
10
68.4909672926349
20
-1.57501545750395
30
0
41
1
10
68.5020453961357
20
-1.58455328945044
30
0
41
1
10
68.5232039921388
20
-1.60311690710628
30
0
41
1
10
68.5332933901071
20
-1.6121497851104
30
0
41
1
10
68.5475578544145
20
-1.62525724927676
30
0
41
1
10
68.5521576234805
20
-1.62954429993349
30
0
41
1
10
68.5609079578965
20
-1.63783215935339
30
0
41
1
10
68.5650748996131
20
-1.64184790952325
30
0
41
1
10
68.569018360103
20
-1.64572511200311
30
0
0
SPLINE
5
15C
100
AcDbEntity
8
1
62
256
6
ByLayer
370
18
48
1
60
0
100
AcDbSpline
70
4
71
3
72
10
73
6
40
0
40
0
40
0
40
0
40
0.5
40
0.5
40
1
40
1
40
1
40
1
41
1
10
68.569018360103
20
-1.64572511200311
30
0
41
1
10
68.6820318562622
20
-1.75683975577547
30
0
41
1
10
68.7943335302562
20
-1.87553563394607
30
0
41
1
10
69.017409743367
20
-2.12657083766996
30
0
41
1
10
69.1281798102148
20
-2.25894312002231
30
0
41
1
10
69.2381550058432
20
-2.39759037561768
30
0
0
SPLINE
5
15D
100
AcDbEntity
8
1
62
256
6
ByLayer
370
18
48
1
60
0
100
AcDbSpline
70
4
71
3
72
10
73
6
40
0
40
0
40
0
40
0
40
0.5
40
0.5
40
1
40
1
40
1
40
1
41
1
10
69.4484908564617
20
-2.5892049143759
30
0
41
1
10
69.5615278617306
20
-2.64823037687742
30
0
41
1
10
69.6753349455006
20
-2.69812937183733
30
0
41
1
10
69.9048868891511
20
-2.77927243352443
30
0
41
1
10
70.02036170093
20
-2.81039526595555
30
0
41
1
10
70.1367959540369
20
-2.83199430022881
30
0
0
SPLINE
5
15E
100
AcDbEntity
8
1
62
256
6
ByLayer
370
18
48
1
60
0
100
AcDbSpline
70
4
71
3
72
34
73
30
40
0
40
0
40
0
40
0
40
0.125000000000042
40
0.125000000000042
40
0.187500000000062
40
0.187500000000062
40
0.250000000000083
40
0.250000000000083
40
0.375000000000084
40
0.375000000000084
40
0.437500000000063
40
0.437500000000063
40
0.500000000000042
40
0.500000000000042
40
0.625000000000001
40
0.625000000000001
40
0.687500000000001
40
0.687500000000001
40
0.750000000000001
40
0.750000000000001
40
0.8125
40
0.8125
40
0.875
40
0.875
40
0.9375
40
0.9375
40
0.96875
40
0.96875
40
1
40
1
40
1
40
1
41
1
10
70.1367959540369
20
-2.83199430022879
30
0
41
1
10
70.1513221632526
20
-2.83468897196275
30
0
41
1
10
70.1683017746972
20
-2.84012931567531
30
0
41
1
10
70.1965896199402
20
-2.85138743535751
30
0
41
1
10
70.2065496866632
20
-2.85569381322489
30
0
41
1
10
70.2271383860809
20
-2.86520250542705
30
0
41
1
10
70.2377162059228
20
-2.87037802492975
30
0
41
1
10
70.2702172132519
20
-2.88706119867152
30
0
41
1
10
70.292899015253
20
-2.89970945282701
30
0
41
1
10
70.3283281517313
20
-2.92091425904951
30
0
41
1
10
70.3404074508175
20
-2.9283819097412
30
0
41
1
10
70.3645927735486
20
-2.94381334932626
30
0
41
1
10
70.3767487207896
20
-2.95180576806624
30
0
41
1
10
70.4133906807517
20
-2.97663009292304
30
0
41
1
10
70.4380485992242
20
-2.99429304513546
30
0
41
1
10
70.4753595295962
20
-3.02276758157674
30
0
41
1
10
70.4877520406332
20
-3.0325200117334
30
0
41
1
10
70.5121461311531
20
-3.05236314011043
30
0
41
1
10
70.5241907605395
20
-3.06248611009121
30
0
41
1
10
70.5479360215699
20
-3.08318515231525
30
0
41
1
10
70.5596371093503
20
-3.09376062461081
30
0
41
1
10
70.5826312310859
20
-3.11544787955532
30
0
41
1
10
70.5936933415115
20
-3.12634303378118
30
0
41
1
10
70.614828569699
20
-3.14822604024272
30
0
41
1
10
70.6249074882329
20
-3.15921775568751
30
0
41
1
10
70.6391585083002
20
-3.17579401564674
30
0
41
1
10
70.6437540902116
20
-3.18132507969406
30
0
41
1
10
70.6524974109425
20
-3.19225792250589
30
0
41
1
10
70.6566614355688
20
-3.19767830168135
30
0
41
1
10
70.6606025656985
20
-3.20304850585578
30
0
0
SPLINE
5
15F
100
AcDbEntity
8
1
62
256
6
ByLayer
370
18
48
1
60
0
100
AcDbSpline
70
4
71
3
72
10
73
6
40
0
40
0
40
0
40
0
40
0.5
40
0.5
40
1
40
1
40
1
40
1
41
1
10
70.6606025656985
20
-3.20304850585578
30
0
41
1
10
70.7736556084067
20
-3.35709516300605
30
0
41
1
10
70.8859888900826
20
-3.51709434985565
30
0
41
1
10
71.1091357244375
20
-3.84725264317217
30
0
41
1
10
71.2199413044598
20
-4.01745925693379
30
0
41
1
10
71.3299486817874
20
-4.19216496009608
30
0
0
SPLINE
5
160
100
AcDbEntity
8
1
62
256
6
ByLayer
370
18
48
1
60
0
100
AcDbSpline
70
4
71
3
72
10
73
6
40
0
40
0
40
0
40
0
40
0.5
40
0.5
40
1
40
1
40
1
40
1
41
1
10
71.5406809421895
20
-4.35568372863475
30
0
41
1
10
71.6536217475771
20
-4.34880574630529
30
0
41
1
10
71.7673119670054
20
-4.33266297666734
30
0
41
1
10
71.9966362632259
20
-4.28165287544962
30
0
41
1
10
72.1120015481161
20
-4.24682001195521
30
0
41
1
10
72.2283448949926
20
-4.20265926276687
30
0
0
SPLINE
5
161
100
AcDbEntity
8
1
62
256
6
ByLayer
370
18
48
1
60
0
100
AcDbSpline
70
4
71
3
72
34
73
30
40
0
40
0
40
0
40
0
40
0.125000000000064
40
0.125000000000064
40
0.18750000000008
40
0.18750000000008
40
0.250000000000095
40
0.250000000000095
40
0.375000000000129
40
0.375000000000129
40
0.437500000000127
40
0.437500000000127
40
0.500000000000124
40
0.500000000000124
40
0.625000000000118
40
0.625000000000118
40
0.687500000000094
40
0.687500000000094
40
0.750000000000069
40
0.750000000000069
40
0.812500000000044
40
0.812500000000044
40
0.87500000000002
40
0.87500000000002
40
0.937499999999995
40
0.937499999999995
40
0.968749999999998
40
0.968749999999998
40
1
40
1
40
1
40
1
41
1
10
72.2283448949927
20
-4.20265926276704
30
0
41
1
10
72.2428729339649
20
-4.19714481692659
30
0
41
1
10
72.2598564390782
20
-4.19493805040858
30
0
41
1
10
72.2881528592941
20
-4.19536992375055
30
0
41
1
10
72.2981162112425
20
-4.19616159951343
30
0
41
1
10
72.3187131428283
20
-4.19892950503427
30
0
41
1
10
72.3292951743472
20
-4.20089254402026
30
0
41
1
10
72.3618090544454
20
-4.20836816661259
30
0
41
1
10
72.3844997474741
20
-4.21544586311251
30
0
41
1
10
72.419942709283
20
-4.2290990510206
30
0
41
1
10
72.4320258518239
20
-4.23418029938512
30
0
41
1
10
72.4562174982888
20
-4.24519558219049
30
0
41
1
10
72.4683764401811
20
-4.25114683221511
30
0
41
1
10
72.5050267300481
20
-4.27034494112186
30
0
41
1
10
72.5296892704955
20
-4.28491165830883
30
0
41
1
10
72.5670033573635
20
-4.30984690780591
30
0
41
1
10
72.5793904337245
20
-4.3186127675171
30
0
41
1
10
72.6037765848896
20
-4.33692260438508
30
0
41
1
10
72.6158165130845
20
-4.34649299787762
30
0
41
1
10
72.6395508373255
20
-4.3665546977935
30
0
41
1
10
72.6512456873709
20
-4.37704479885764
30
0
41
1
10
72.6742258490837
20
-4.39910367267004
30
0
41
1
10
72.6852787525039
20
-4.41045100833929
30
0
41
1
10
72.7063980149874
20
-4.43382913129608
30
0
41
1
10
72.7164691708799
20
-4.44586188733138
30
0
41
1
10
72.7307096142652
20
-4.46452028118682
30
0
41
1
10
72.7353025101502
20
-4.47083320169457
30
0
41
1
10
72.7440411322622
20
-4.48349662151284
30
0
41
1
10
72.7482031974577
20
-4.48986796280039
30
0
41
1
10
72.7521427823805
20
-4.49628139718826
30
0
0
SPLINE
5
162
100
AcDbEntity
8
1
62
256
6
ByLayer
370
18
48
1
60
0
100
AcDbSpline
70
4
71
3
72
14
73
10
40
0
40
0
40
0
40
0
40
0.25
40
0.25
40
0.5
40
0.5
40
0.75
40
0.75
40
1
40
1
40
1
40
1
41
1
10
72.7521427823805
20
-4.4962813971882
30
0
41
1
10
72.8087609444962
20
-4.588452748994
30
0
41
1
10
72.8651993430933
20
-4.68162053454364
30
0
41
1
10
72.97763074174
20
-4.86952860323515
30
0
41
1
10
73.03363609268
20
-4.96428327256928
30
0
41
1
10
73.1452906593358
20
-5.15532703122418
30
0
41
1
10
73.2009586733925
20
-5.25165456619601
30
0
41
1
10
73.3118911205788
20
-5.44563968334225
30
0
41
1
10
73.3671391037499
20
-5.54326875774532
30
0
41
1
10
73.422199020383
20
-5.64151169205769
30
0
0
SPLINE
5
163
100
AcDbEntity
8
1
62
256
6
ByLayer
370
18
48
1
60
0
100
AcDbSpline
70
4
71
3
72
10
73
6
40
0
40
0
40
0
40
0
40
0.5
40
0.5
40
1
40
1
40
1
40
1
41
1
10
73.6323278396091
20
-5.76286897361649
30
0
41
1
10
73.7452232908646
20
-5.69095994549397
30
0
41
1
10
73.8588904868513
20
-5.61043062313766
30
0
41
1
10
74.0882060816779
20
-5.43213989984608
30
0
41
1
10
74.203584500322
20
-5.33457354774177
30
0
41
1
10
74.319947610995
20
-5.22861612087237
30
0
0
SPLINE
5
164
100
AcDbEntity
8
1
62
256
6
ByLayer
370
18
48
1
60
0
100
AcDbSpline
70
4
71
3
72
34
73
30
40
0
40
0
40
0
40
0
40
0.124999999999932
40
0.124999999999932
40
0.187499999999916
40
0.187499999999916
40
0.249999999999899
40
0.249999999999899
40
0.374999999999866
40
0.374999999999866
40
0.437499999999869
40
0.437499999999869
40
0.499999999999872
40
0.499999999999872
40
0.624999999999879
40
0.624999999999879
40
0.687499999999904
40
0.687499999999904
40
0.74999999999993
40
0.74999999999993
40
0.812499999999956
40
0.812499999999956
40
0.874999999999981
40
0.874999999999981
40
0.937500000000007
40
0.937500000000007
40
0.968750000000003
40
0.968750000000003
40
1
40
1
40
1
40
1
41
1
10
74.319947610995
20
-5.22861612087237
30
0
41
1
10
74.33448233395
20
-5.21538115460464
30
0
41
1
10
74.3514753141667
20
-5.20574698714358
30
0
41
1
10
74.3797884390318
20
-5.19537575724246
30
0
41
1
10
74.3897577965465
20
-5.19260754911335
30
0
41
1
10
74.410368202084
20
-5.18844614247098
30
0
41
1
10
74.4209566869483
20
-5.18705488446651
30
0
41
1
10
74.4534890085742
20
-5.18476647608333
30
0
41
1
10
74.476190768815
20
-5.18572966664323
30
0
41
1
10
74.5116484517848
20
-5.19076228569978
30
0
41
1
10
74.5237348811068
20
-5.19305701435266
30
0
41
1
10
74.5479308968194
20
-5.19878403284341
30
0
41
1
10
74.5600915600222
20
-5.20222066549513
30
0
41
1
10
74.5967457370062
20
-5.21425849493326
30
0
41
1
10
74.6214092498016
20
-5.22455657212765
30
0
41
1
10
74.6587212176213
20
-5.24393102789128
30
0
41
1
10
74.6710988694737
20
-5.25099748024508
30
0
41
1
10
74.6954716233772
20
-5.26627992222802
30
0
41
1
10
74.7075043512054
20
-5.27451437961918
30
0
41
1
10
74.7312230926884
20
-5.29229148241242
30
0
41
1
10
74.7429095339954
20
-5.30183242480146
30
0
41
1
10
74.7658716548717
20
-5.32244099099799
30
0
41
1
10
74.776910628318
20
-5.33329775609013
30
0
41
1
10
74.7980071840561
20
-5.35622532290611
30
0
41
1
10
74.808067090578
20
-5.36829483052216
30
0
41
1
10
74.8222912091848
20
-5.38747336228846
30
0
41
1
10
74.8268789796469
20
-5.39403838431872
30
0
41
1
10
74.8356081986627
20
-5.4073685035475
30
0
41
1
10
74.8397659397644
20
-5.4141548335499
30
0
41
1
10
74.8437016428488
20
-5.42107126665326
30
0
0
SPLINE
5
165
100
AcDbEntity
8
1
62
256
6
ByLayer
370
18
48
1
60
0
100
AcDbSpline
70
4
71
3
72
10
73
6
40
0
40
0
40
0
40
0
40
0.5
40
0.5
40
1
40
1
40
1
40
1
41
1
10
74.8437016428488
20
-5.42107126665323
30
0
41
1
10
74.9468896523436
20
-5.6024093781499
30
0
41
1
10
75.0494371249076
20
-5.78488208478601
30
0
41
1
10
75.253295137105
20
-6.15101488152149
30
0
41
1
10
75.354572540525
20
-6.33462665686901
30
0
41
1
10
75.4551703549128
20
-6.51829098501034
30
0
0
SPLINE
5
166
100
AcDbEntity
8
1
62
256
6
ByLayer
370
18
48
1
60
0
100
AcDbSpline
70
4
71
3
72
8
73
4
40
0
40
0
40
0
40
0
40
1
40
1
40
1
40
1
41
1
10
75.4551703549128
20
-6.51829098501031
30
0
41
1
10
75.5838142643314
20
-6.53443297921785
30
0
41
1
10
75.7130981341047
20
-6.54665373436376
30
0
41
1
10
75.8431069233054
20
-6.55494605822196
30
0
0
SPLINE
5
167
100
AcDbEntity
8
1
62
256
6
ByLayer
370
18
48
1
60
0
100
AcDbSpline
70
4
71
3
72
12
73
8
40
0
40
0
40
0
40
0
40
0.250000000000004
40
0.250000000000004
40
0.500000000000008
40
0.500000000000008
40
1
40
1
40
1
40
1
41
1
10
75.8431069233054
20
-6.55494605822196
30
0
41
1
10
75.88988959762
20
-6.49889335784266
30
0
41
1
10
75.9368138907948
20
-6.44160866058877
30
0
41
1
10
76.0309867830338
20
-6.32457306587295
30
0
41
1
10
76.0782481565512
20
-6.26480507707686
30
0
41
1
10
76.2203670879993
20
-6.0820706117095
30
0
41
1
10
76.3156242512374
20
-5.95558967898217
30
0
41
1
10
76.4115425544051
20
-5.82450968191736
30
0
0
SPLINE
5
168
100
AcDbEntity
8
1
62
256
6
ByLayer
370
18
48
1
60
0
100
AcDbSpline
70
4
71
3
72
34
73
30
40
0
40
0
40
0
40
0
40
0.125000000000016
40
0.125000000000016
40
0.187500000000025
40
0.187500000000025
40
0.250000000000033
40
0.250000000000033
40
0.375000000000051
40
0.375000000000051
40
0.43750000000006
40
0.43750000000006
40
0.500000000000069
40
0.500000000000069
40
0.625000000000043
40
0.625000000000043
40
0.68750000000003
40
0.68750000000003
40
0.750000000000018
40
0.750000000000018
40
0.812500000000005
40
0.812500000000005
40
0.874999999999993
40
0.874999999999993
40
0.93749999999998
40
0.93749999999998
40
0.96874999999999
40
0.96874999999999
40
1
40
1
40
1
40
1
41
1
10
76.4115425544051
20
-5.82450968191714
30
0
41
1
10
76.4260792879424
20
-5.80464407830993
30
0
41
1
10
76.443074664555
20
-5.78836942495272
30
0
41
1
10
76.471390442153
20
-5.76803160236125
30
0
41
1
10
76.4813598886643
20
-5.76192452476781
30
0
41
1
10
76.5019748846583
20
-5.75115770345701
30
0
41
1
10
76.5125653497093
20
-5.74651653049182
30
0
41
1
10
76.5451025714822
20
-5.73461990617102
30
0
41
1
10
76.5678062308681
20
-5.72936478883497
30
0
41
1
10
76.6032642314625
20
-5.72532204196995
30
0
41
1
10
76.6153516798446
20
-5.72462757104293
30
0
41
1
10
76.6395500291936
20
-5.72456798361173
30
0
41
1
10
76.6517114207986
20
-5.72519359968561
30
0
41
1
10
76.6883663682821
20
-5.72903946447784
30
0
41
1
10
76.713028486956
20
-5.73419372535346
30
0
41
1
10
76.7503357805514
20
-5.74636893079855
30
0
41
1
10
76.7627153935566
20
-5.75114668915549
30
0
41
1
10
76.787088195854
20
-5.76212393560644
30
0
41
1
10
76.7991205681514
20
-5.76833496322809
30
0
41
1
10
76.8228379309294
20
-5.78234508330021
30
0
41
1
10
76.8345233752891
20
-5.79014211499253
30
0
41
1
10
76.8574827087688
20
-5.80758535794618
30
0
41
1
10
76.8685241588896
20
-5.81705717098012
30
0
41
1
10
76.889620216989
20
-5.83763796849232
30
0
41
1
10
76.8996793435571
20
-5.84874651202966
30
0
41
1
10
76.9139017061936
20
-5.8668600947727
30
0
41
1
10
76.918489974947
20
-5.8731359700129
30
0
41
1
10
76.9272197917038
20
-5.88603332055308
30
0
41
1
10
76.9313778047147
20
-5.8926748777418
30
0
41
1
10
76.935313780892
20
-5.89952377287614
30
0
0
SPLINE
5
169
100
AcDbEntity
8
1
62
256
6
ByLayer
370
18
48
1
60
0
100
AcDbSpline
70
4
71
3
72
8
73
4
40
0
40
0
40
0
40
0
40
1
40
1
40
1
40
1
41
1
10
76.935313780892
20
-5.89952377287614
30
0
41
1
10
77.0496479855873
20
-6.09847390441743
30
0
41
1
10
77.1632065119041
20
-6.2961376309481
30
0
41
1
10
77.2759480486372
20
-6.49190793618448
30
0
0
SPLINE
5
16A
100
AcDbEntity
8
1
62
256
6
ByLayer
370
18
48
1
60
0
100
AcDbSpline
70
4
71
3
72
10
73
6
40
0
40
0
40
0
40
0
40
0.5
40
0.5
40
1
40
1
40
1
40
1
41
1
10
77.2759480486372
20
-6.4919079361845
30
0
41
1
10
77.4472718104462
20
-6.46666942418506
30
0
41
1
10
77.6190100697254
20
-6.43518981946301
30
0
41
1
10
77.9639356498886
20
-6.35993893508333
30
0
41
1
10
78.1370936700193
20
-6.31618298856506
30
0
41
1
10
78.3110615981682
20
-6.26644238298246
30
0
0
SPLINE
5
16B
100
AcDbEntity
8
1
62
256
6
ByLayer
370
18
48
1
60
0
100
AcDbSpline
70
4
71
3
72
8
73
4
40
0
40
0
40
0
40
0
40
1
40
1
40
1
40
1
41
1
10
78.3110615981682
20
-6.26644238298243
30
0
41
1
10
78.37481586166
20
-6.1595472788828
30
0
41
1
10
78.4388237619297
20
-6.05123736912248
30
0
41
1
10
78.5031249022925
20
-5.94153871094139
30
0
0
SPLINE
5
16C
100
AcDbEntity
8
1
62
256
6
ByLayer
370
18
48
1
60
0
100
AcDbSpline
70
4
71
3
72
34
73
30
40
0
40
0
40
0
40
0
40
0.125000000000006
40
0.125000000000006
40
0.187499999999993
40
0.187499999999993
40
0.249999999999979
40
0.249999999999979
40
0.374999999999989
40
0.374999999999989
40
0.437499999999973
40
0.437499999999973
40
0.499999999999957
40
0.499999999999957
40
0.624999999999968
40
0.624999999999968
40
0.687499999999973
40
0.687499999999973
40
0.749999999999979
40
0.749999999999979
40
0.812499999999984
40
0.812499999999984
40
0.87499999999999
40
0.87499999999999
40
0.937499999999995
40
0.937499999999995
40
0.968749999999997
40
0.968749999999997
40
1
40
1
40
1
40
1
41
1
10
78.5031249022931
20
-5.94153871094125
30
0
41
1
10
78.517674005946
20
-5.91671773359224
30
0
41
1
10
78.5346863710224
20
-5.89518839951583
30
0
41
1
10
78.5630311339398
20
-5.86663494182926
30
0
41
1
10
78.5730117663359
20
-5.85771807474995
30
0
41
1
10
78.5936442822567
20
-5.8412918376257
30
0
41
1
10
78.6042431804408
20
-5.83381340057164
30
0
41
1
10
78.6368045307558
20
-5.81338155890126
30
0
41
1
10
78.6595227060919
20
-5.80240568242158
30
0
41
1
10
78.6949996904109
20
-5.78972090053011
30
0
41
1
10
78.7070896942444
20
-5.78612940581453
30
0
41
1
10
78.7312894324231
20
-5.78035662112356
30
0
41
1
10
78.7434510319313
20
-5.77815329210358
30
0
41
1
10
78.7801052702909
20
-5.77358943675986
30
0
41
1
10
78.8047651535763
20
-5.77323893014233
30
0
41
1
10
78.8420667374842
20
-5.77730527439527
30
0
41
1
10
78.8544301424956
20
-5.77942667328605
30
0
41
1
10
78.8787825922323
20
-5.78524494602914
30
0
41
1
10
78.8908049977994
20
-5.78894427959224
30
0
41
1
10
78.9145028959008
20
-5.7980765767692
30
0
41
1
10
78.9261808627948
20
-5.80350842739819
30
0
41
1
10
78.9491176367393
20
-5.81638349367043
30
0
41
1
10
78.9601430435876
20
-5.82369695847405
30
0
41
1
10
78.9812152528694
20
-5.84025097273584
30
0
41
1
10
78.9912636138278
20
-5.84948835356752
30
0
41
1
10
79.0054717222883
20
-5.8650477792356
30
0
41
1
10
79.0100547468632
20
-5.87051512998505
30
0
41
1
10
79.0187755839604
20
-5.88191134403826
30
0
41
1
10
79.022929654544
20
-5.88785712741938
30
0
41
1
10
79.026862250069
20
-5.89406942493142
30
0
0
SPLINE
5
16D
100
AcDbEntity
8
1
62
256
6
ByLayer
370
18
48
1
60
0
100
AcDbSpline
70
4
71
3
72
8
73
4
40
0
40
0
40
0
40
0
40
1
40
1
40
1
40
1
41
1
10
79.026862250069
20
-5.89406942493144
30
0
41
1
10
79.0501265024536
20
-5.93081982458267
30
0
41
1
10
79.0733579916819
20
-5.96741040486296
30
0
41
1
10
79.0965582269737
20
-6.00383856090883
30
0
0
SPLINE
5
16E
100
AcDbEntity
8
1
62
256
6
ByLayer
370
18
48
1
60
0
100
AcDbSpline
70
4
71
3
72
14
73
10
40
0
40
0
40
0
40
0
40
0.25
40
0.25
40
0.5
40
0.5
40
0.75
40
0.75
40
1
40
1
40
1
40
1
41
1
10
79.0965582269737
20
-6.0038385609088
30
0
41
1
10
79.2033083763878
20
-5.96314333890317
30
0
41
1
10
79.3104642153093
20
-5.9203243067067
30
0
41
1
10
79.5256385952088
20
-5.83048434815024
30
0
41
1
10
79.6337827110917
20
-5.78345489115878
30
0
41
1
10
79.8515247214648
20
-5.68524176021205
30
0
41
1
10
79.9607588743008
20
-5.63420049753194
30
0
41
1
10
80.1797778458304
20
-5.52847328445037
30
0
41
1
10
80.2895794995418
20
-5.47376375922775
30
0
41
1
10
80.3999999201233
20
-5.41731359101806
30
0
0
SPLINE
5
16F
100
AcDbEntity
8
1
62
256
6
ByLayer
370
18
48
1
60
0
100
AcDbSpline
70
4
71
3
72
12
73
8
40
0
40
0
40
0
40
0
40
0.249999999999993
40
0.249999999999993
40
0.499999999999986
40
0.499999999999986
40
1
40
1
40
1
40
1
41
1
10
80.3999999201233
20
-5.41731359101834
30
0
41
1
10
80.4479252079548
20
-5.3578040783074
30
0
41
1
10
80.496312659766
20
-5.29794020687876
30
0
41
1
10
80.5941470880381
20
-5.17757057945047
30
0
41
1
10
80.6436240302492
20
-5.11702840932114
30
0
41
1
10
80.7936493031805
20
-4.93480957925323
30
0
41
1
10
80.8957412718078
20
-4.81259776507062
30
0
41
1
10
81
20
-4.69065022759111
30
0
0
SPLINE
5
170
100
AcDbEntity
8
1
62
256
6
ByLayer
370
18
48
1
60
0
100
AcDbSpline
70
4
71
3
72
26
73
22
40
0
40
0
40
0
40
0
40
0.0420433129337117
40
0.0420433129337117
40
0.0840866258674234
40
0.0840866258674234
40
0.168173251734847
40
0.168173251734847
40
0.336346503469694
40
0.336346503469694
40
0.378389816403405
40
0.378389816403405
40
0.420433129337117
40
0.420433129337117
40
0.462476442270829
40
0.462476442270829
40
0.50451975520454
40
0.50451975520454
40
0.672693006939387
40
0.672693006939387
40
1
40
1
40
1
40
1
41
1
10
81
20
-4.69065022759114
30
0
41
1
10
81.0000000000001
20
-4.65628042811417
30
0
41
1
10
81
20
-4.62207727458642
30
0
41
1
10
81
20
-4.55482218208255
30
0
41
1
10
81
20
-4.52172230593936
30
0
41
1
10
81.0000000000001
20
-4.42398393190157
30
0
41
1
10
81
20
-4.36090068771131
30
0
41
1
10
80.9999999999999
20
-4.17766090953694
30
0
41
1
10
81.0000000000001
20
-4.06351733081351
30
0
41
1
10
81
20
-3.93089915173189
30
0
41
1
10
81
20
-3.90480123340723
30
0
41
1
10
81
20
-3.85296356705524
30
0
41
1
10
81
20
-3.82728628489866
30
0
41
1
10
81
20
-3.77644528758196
30
0
41
1
10
81
20
-3.75127792090183
30
0
41
1
10
81
20
-3.70145154646878
30
0
41
1
10
81
20
-3.67676701176626
30
0
41
1
10
81
20
-3.55506468428985
30
0
41
1
10
81.0000000000001
20
-3.46305459436471
30
0
41
1
10
81.0000000000001
20
-3.20720463583416
30
0
41
1
10
81
20
-3.05772261928405
30
0
41
1
10
81.0000000000001
20
-2.9277792275962
30
0
0
SPLINE
5
171
100
AcDbEntity
8
1
62
256
6
ByLayer
370
18
48
1
60
0
100
AcDbSpline
70
4
71
3
72
14
73
10
40
0
40
0
40
0
40
0
40
0.500000000000001
40
0.500000000000001
40
0.750000000000001
40
0.750000000000001
40
0.875
40
0.875
40
1
40
1
40
1
40
1
41
1
10
81
20
-2.88573873530461
30
0
41
1
10
80.90168025987
20
-2.88618820815029
30
0
41
1
10
80.8025118970851
20
-2.88722086809358
30
0
41
1
10
80.6524951379213
20
-2.89043339260837
30
0
41
1
10
80.6022814462892
20
-2.89178671311584
30
0
41
1
10
80.5266559483534
20
-2.89431975105305
30
0
41
1
10
80.5013991631084
20
-2.89524130519939
30
0
41
1
10
80.4507777302436
20
-2.897299801234
30
0
41
1
10
80.4253837162996
20
-2.89855129905248
30
0
41
1
10
80.4000000634126
20
-2.89966945887971
30
0
0
SPLINE
5
172
100
AcDbEntity
8
1
62
256
6
ByLayer
370
18
48
1
60
0
100
AcDbSpline
70
4
71
3
72
8
73
4
40
0
40
0
40
0
40
0
40
1
40
1
40
1
40
1
41
1
10
80.4000000634126
20
-2.8996694588796
30
0
41
1
10
80.3834751538781
20
-2.8912821589042
30
0
41
1
10
80.366962676852
20
-2.88285899607902
30
0
41
1
10
80.3504627785013
20
-2.87439975999803
30
0
0
SPLINE
5
173
100
AcDbEntity
8
1
62
256
6
ByLayer
370
18
48
1
60
0
100
AcDbSpline
70
4
71
3
72
18
73
14
40
0
40
0
40
0
40
0
40
0.0641614164215504
40
0.0641614164215504
40
0.222479535403995
40
0.222479535403995
40
0.380797654386441
40
0.380797654386441
40
0.539115773368886
40
0.539115773368886
40
0.855752011333779
40
0.855752011333779
40
1
40
1
40
1
40
1
41
1
10
34.6032532086904
20
-3.07972455205066
30
0
41
1
10
34.5783956384741
20
-3.114099957023
30
0
41
1
10
34.5541933797419
20
-3.14940258272398
30
0
41
1
10
34.4728163229623
20
-3.27446092483453
30
0
41
1
10
34.4189434002527
20
-3.36856903909933
30
0
41
1
10
34.3186244014406
20
-3.56619975673195
30
0
41
1
10
34.2721046579125
20
-3.66993691803609
30
0
41
1
10
34.1864230622897
20
-3.88543767354469
30
0
41
1
10
34.1473266795726
20
-3.99565109173355
30
0
41
1
10
34.0436997168974
20
-4.33527820123024
30
0
41
1
10
33.9992556447871
20
-4.57790460527724
30
0
41
1
10
33.9647201701508
20
-4.95089893570932
30
0
41
1
10
33.9586199377176
20
-5.06816084344641
30
0
41
1
10
33.9565961349727
20
-5.18577043208231
30
0
0
SPLINE
5
174
100
AcDbEntity
8
1
62
256
6
ByLayer
370
18
48
1
60
0
100
AcDbSpline
70
4
71
3
72
10
73
6
40
0
40
0
40
0
40
0
40
0.355303695907025
40
0.355303695907025
40
1
40
1
40
1
40
1
41
1
10
61.8292396833224
20
-7.08195487445812
30
0
41
1
10
61.8231911865402
20
-7.0819498516459
30
0
41
1
10
61.8171776088274
20
-7.07820569030181
30
0
41
1
10
61.8003792657672
20
-7.05722622484345
30
0
41
1
10
61.7896736258535
20
-7.03148628869136
30
0
41
1
10
61.7789575081811
20
-6.99332213326966
30
0
0
SPLINE
5
175
100
AcDbEntity
8
1
62
256
6
ByLayer
370
18
48
1
60
0
100
AcDbSpline
70
4
71
3
72
14
73
10
40
0
40
0
40
0
40
0
40
0.547120030013782
40
0.547120030013782
40
0.820680045020672
40
0.820680045020672
40
0.957460052524117
40
0.957460052524117
40
1
40
1
40
1
40
1
41
1
10
61.5691256046355
20
-6.95799879336849
30
0
41
1
10
61.5799193615863
20
-7.00280568013579
30
0
41
1
10
61.590696743504
20
-7.03560641533554
30
0
41
1
10
61.6069841062133
20
-7.06650689619499
30
0
41
1
10
61.6124350325964
20
-7.07375109445741
30
0
41
1
10
61.6206621909664
20
-7.07994108822962
30
0
41
1
10
61.6234156024195
20
-7.08122385148334
30
0
41
1
10
61.6270146801409
20
-7.08187010088068
30
0
41
1
10
61.6278679264599
20
-7.08194738491335
30
0
41
1
10
61.6287205949079
20
-7.08194890696731
30
0
0
SPLINE
5
176
100
AcDbEntity
8
1
62
256
6
ByLayer
370
18
48
1
60
0
100
AcDbSpline
70
4
71
3
72
16
73
12
40
0
40
0
40
0
40
0
40
0.203262378353512
40
0.203262378353512
40
0.402446783765133
40
0.402446783765133
40
0.502038986470944
40
0.502038986470944
40
0.601631189176755
40
0.601631189176755
40
1
40
1
40
1
40
1
41
1
10
66.6286063241116
20
7.0819548678034
30
0
41
1
10
66.6342211208857
20
7.08196956021354
30
0
41
1
10
66.6398589732266
20
7.07878866991499
30
0
41
1
10
66.6510581035378
20
7.06613911813906
30
0
41
1
10
66.6566000990764
20
7.05679193725535
30
0
41
1
10
66.6648683363608
20
7.03806791050613
30
0
41
1
10
66.6676174342517
20
7.03104229108413
30
0
41
1
10
66.673099993879
20
7.01540525993559
30
0
41
1
10
66.6758373206679
20
7.00677941857222
30
0
41
1
10
66.6894241232843
20
6.95987147464521
30
0
41
1
10
66.6999623787129
20
6.91026954238768
30
0
41
1
10
66.7105175321599
20
6.84898800350814
30
0
0
SPLINE
5
177
100
AcDbEntity
8
1
62
256
6
ByLayer
370
18
48
1
60
0
100
AcDbSpline
70
4
71
3
72
17
73
13
40
0
40
0
40
0
40
0
40
0.161163642802519
40
0.161163642802519
40
0.300969702335433
40
0.300969702335433
40
0.370872732101889
40
0.370872732101889
40
0.440775761868346
40
0.440775761868346
40
0.720387880934173
40
1
40
1
40
1
40
1
41
1
10
60.3574102265579
20
-6.16895431003817
30
0
41
1
10
60.3545724954354
20
-6.16402464199166
30
0
41
1
10
60.3517257128245
20
-6.15611464500719
30
0
41
1
10
60.3463719137628
20
-6.13567532939177
30
0
41
1
10
60.3438715808042
20
-6.12389634673849
30
0
41
1
10
60.3401001925201
20
-6.10272916871929
30
0
41
1
10
60.3388415788919
20
-6.09510001593279
30
0
41
1
10
60.336329834604
20
-6.07875475338045
30
0
41
1
10
60.3350754101118
20
-6.07003151350159
30
0
41
1
10
60.3288097766107
20
-6.02368691702597
30
0
41
1
10
60.3188279930814
20
-5.9321141099895
30
0
41
1
10
60.3088663692022
20
-5.80630206608296
30
0
41
1
10
60.3038602350555
20
-5.73473435674825
30
0
0
SPLINE
5
178
100
AcDbEntity
8
1
62
256
6
ByLayer
370
18
48
1
60
0
100
AcDbSpline
70
4
71
3
72
15
73
11
40
0
40
0
40
0
40
0
40
0.0893372173146848
40
0.0893372173146848
40
0.17867443462937
40
0.35734886925874
40
0.35734886925874
40
0.714697738517479
40
0.714697738517479
40
1
40
1
40
1
40
1
41
1
10
66.9208322181767
20
6.79388193038778
30
0
41
1
10
66.9180807376247
20
6.81109239712643
30
0
41
1
10
66.9153266883993
20
6.82755538291156
30
0
41
1
10
66.9098360495137
20
6.85886695294829
30
0
41
1
10
66.9016164063978
20
6.90347364106222
30
0
41
1
10
66.8934469511095
20
6.94107747557223
30
0
41
1
10
66.877167933217
20
7.00708594467636
30
0
41
1
10
66.8663990240452
20
7.03884946158141
30
0
41
1
10
66.8470672246526
20
7.07408868040824
30
0
41
1
10
66.8384976964873
20
7.08197719336081
30
0
41
1
10
66.8298743347694
20
7.08195146680845
30
0
0
SPLINE
5
179
100
AcDbEntity
8
1
62
256
6
ByLayer
370
18
48
1
60
0
100
AcDbSpline
70
4
71
3
72
21
73
17
40
0
40
0
40
0
40
0
40
0.0614958472165224
40
0.0614958472165224
40
0.249196677773218
40
0.249196677773218
40
0.436897508329914
40
0.436897508329914
40
0.483822715969087
40
0.483822715969087
40
0.530747923608261
40
0.530747923608261
40
0.624598338886609
40
0.624598338886609
40
0.812299169443304
40
1
40
1
40
1
40
1
41
1
10
68.6286066466408
20
7.0819491735239
30
0
41
1
10
68.6322041669416
20
7.08195478092546
30
0
41
1
10
68.6357960959699
20
7.08062494897212
30
0
41
1
10
68.650325999191
20
7.06988001406418
30
0
41
1
10
68.6612077436507
20
7.04949641523666
30
0
41
1
10
68.6829032325665
20
6.98433214094564
30
0
41
1
10
68.6937169365315
20
6.93955242292805
30
0
41
1
10
68.7073057923315
20
6.8679626617832
30
0
41
1
10
68.7100274615165
20
6.85286199644901
30
0
41
1
10
68.7154827193413
20
6.82107795110537
30
0
41
1
10
68.718219878798
20
6.80437077079191
30
0
41
1
10
68.7264127575167
20
6.75212711997571
30
0
41
1
10
68.7318575495585
20
6.71442392620031
30
0
41
1
10
68.7481397765405
20
6.59286603189909
30
0
41
1
10
68.76969908746
20
6.40830338642772
30
0
41
1
10
68.7912293396609
20
6.17951968883787
30
0
41
1
10
68.8021418684269
20
6.05391390311891
30
0
0
SPLINE
5
17A
100
AcDbEntity
8
1
62
256
6
ByLayer
370
18
48
1
60
0
100
AcDbSpline
70
4
71
3
72
26
73
22
40
0
40
0
40
0
40
0
40
0.178471633586117
40
0.178471633586117
40
0.267707450379175
40
0.267707450379175
40
0.312325358775705
40
0.312325358775705
40
0.356943267172234
40
0.356943267172234
40
0.535414900758352
40
0.535414900758352
40
0.71388653434447
40
0.71388653434447
40
0.803122351137529
40
0.803122351137529
40
0.847740259534058
40
0.847740259534058
40
0.892358167930588
40
0.892358167930588
40
1
40
1
40
1
40
1
41
1
10
69.0126130274901
20
5.9447483245101
30
0
41
1
10
69.0017737614253
20
6.07560914863075
30
0
41
1
10
68.9909315520514
20
6.19624895157924
30
0
41
1
10
68.9745974860053
20
6.36159038002194
30
0
41
1
10
68.9691405625157
20
6.4140961030395
30
0
41
1
10
68.9609248299186
20
6.48885830178193
30
0
41
1
10
68.9581837604796
20
6.51308671536333
30
0
41
1
10
68.9527207155161
20
6.55993655798443
30
0
41
1
10
68.9499950384553
20
6.5825920182279
30
0
41
1
10
68.9363902153605
20
6.69206237500913
30
0
41
1
10
68.9255759257085
20
6.76748675231258
30
0
41
1
10
68.9039852224088
20
6.89456402096027
30
0
41
1
10
68.8932266576042
20
6.94621627087886
30
0
41
1
10
68.8770297190057
20
7.00569989097275
30
0
41
1
10
68.8716192440451
20
7.02252286895995
30
0
41
1
10
68.863457737737
20
7.04317520155914
30
0
41
1
10
68.860729507001
20
7.0492952346624
30
0
41
1
10
68.8552516778539
20
7.05998982021595
30
0
41
1
10
68.8525002145115
20
7.06456457977248
30
0
41
1
10
68.8431173371413
20
7.07744505084642
30
0
41
1
10
68.8364591966566
20
7.08195480673237
30
0
41
1
10
68.8298082818145
20
7.08195485393281
30
0
0
SPLINE
5
17B
100
AcDbEntity
8
1
62
256
6
ByLayer
370
18
48
1
60
0
100
AcDbSpline
70
4
71
3
72
27
73
23
40
0
40
0
40
0
40
0
40
0.0071363621597319
40
0.0071363621597319
40
0.0898749986464211
40
0.0898749986464211
40
0.131244316889766
40
0.131244316889766
40
0.17261363513311
40
0.17261363513311
40
0.338090908106488
40
0.338090908106488
40
0.503568181079866
40
0.503568181079866
40
0.669045454053244
40
0.669045454053244
40
0.710414772296588
40
0.710414772296588
40
0.751784090539933
40
0.834522727026622
40
0.834522727026622
40
1
40
1
40
1
40
1
41
1
10
73.829628549325
20
-7.08194906504153
30
0
41
1
10
73.8291595887183
20
-7.08194952824806
30
0
41
1
10
73.8286907479625
20
-7.08192702123202
30
0
41
1
10
73.8227877138497
20
-7.08135418378731
30
0
41
1
10
73.8173519077132
20
-7.07773215165349
30
0
41
1
10
73.8091788891754
20
-7.06758297327738
30
0
41
1
10
73.8064514921622
20
-7.06341349198374
30
0
41
1
10
73.8009881406602
20
-7.05348433179128
30
0
41
1
10
73.7982484907575
20
-7.0477145358152
30
0
41
1
10
73.7845924780569
20
-7.01501827661704
30
0
41
1
10
73.7737715364237
20
-6.97656137207846
30
0
41
1
10
73.7521700562174
20
-6.87584481761931
30
0
41
1
10
73.7413899955514
20
-6.8135829975104
30
0
41
1
10
73.7196925304058
20
-6.66528384134566
30
0
41
1
10
73.7087674139218
20
-6.57924846772084
30
0
41
1
10
73.6949220639735
20
-6.4563909941524
30
0
41
1
10
73.6921419286681
20
-6.43101478368632
30
0
41
1
10
73.6865928620701
20
-6.37890316217531
30
0
41
1
10
73.6782913452248
20
-6.29875718304802
30
0
41
1
10
73.6700726054798
20
-6.21274834881493
30
0
41
1
10
73.6537495222298
20
-6.03304584362374
30
0
41
1
10
73.6430340130778
20
-5.90301693574654
30
0
41
1
10
73.6323278396091
20
-5.76286897361649
30
0
0
SPLINE
5
17C
100
AcDbEntity
8
1
62
256
6
ByLayer
370
18
48
1
60
0
100
AcDbSpline
70
4
71
3
72
27
73
23
40
0
40
0
40
0
40
0
40
0.0789451231983793
40
0.0789451231983793
40
0.118417684797569
40
0.118417684797569
40
0.157890246396758
40
0.157890246396758
40
0.315780492793514
40
0.315780492793514
40
0.473670739190269
40
0.473670739190269
40
0.631560985587025
40
0.631560985587025
40
0.671033547186214
40
0.671033547186214
40
0.710506108785403
40
0.789451231983781
40
0.789451231983781
40
0.947341478380536
40
0.947341478380536
40
1
40
1
40
1
40
1
41
1
10
73.422199020383
20
-5.64151169205769
30
0
41
1
10
73.4275513627958
20
-5.71458178182445
30
0
41
1
10
73.4329079581743
20
-5.78535765284221
30
0
41
1
10
73.4409876210291
20
-5.88801687005818
30
0
41
1
10
73.4436884241202
20
-5.92165220843378
30
0
41
1
10
73.4491131107123
20
-5.98773974726217
30
0
41
1
10
73.4518273996287
20
-6.02007423464727
30
0
41
1
10
73.4654125765836
20
-6.17803537855599
30
0
41
1
10
73.4763562224062
20
-6.29277513556212
30
0
41
1
10
73.4982264371318
20
-6.49965950301834
30
0
41
1
10
73.5091515390642
20
-6.59180248958089
30
0
41
1
10
73.5309576854425
20
-6.7534266234677
30
0
41
1
10
73.5418377833933
20
-6.82290991060631
30
0
41
1
10
73.5555003340092
20
-6.89510467276179
30
0
41
1
10
73.5582336373686
20
-6.90879158971447
30
0
41
1
10
73.5636802875503
20
-6.93454300026821
30
0
41
1
10
73.571830132484
20
-6.97079457414981
30
0
41
1
10
73.5799492126616
20
-6.99999961063045
30
0
41
1
10
73.5961873816583
20
-7.04915489670481
30
0
41
1
10
73.6069906360729
20
-7.06960922309625
30
0
41
1
10
73.6213908525392
20
-7.08056715587551
30
0
41
1
10
73.624991746757
20
-7.08194673087797
30
0
41
1
10
73.6285961845878
20
-7.08195382145453
30
0
0
SPLINE
5
17D
100
AcDbEntity
8
1
62
256
6
ByLayer
370
18
48
1
60
0
100
AcDbSpline
70
4
71
3
72
33
73
29
40
0
40
0
40
0
40
0
40
0.0625000000000004
40
0.0625000000000004
40
0.0937500000000006
40
0.0937500000000006
40
0.125000000000001
40
0.125000000000001
40
0.250000000000002
40
0.250000000000002
40
0.375000000000002
40
0.375000000000002
40
0.437500000000002
40
0.437500000000002
40
0.468750000000003
40
0.468750000000003
40
0.500000000000003
40
0.500000000000003
40
0.625000000000002
40
0.625000000000002
40
0.750000000000001
40
0.750000000000001
40
0.875
40
0.875
40
0.90625
40
0.90625
40
0.9375
40
1
40
1
40
1
40
1
41
1
10
70.6329734344482
20
7.08127501989929
30
0
41
1
10
70.6383445521466
20
7.07960490395115
30
0
41
1
10
70.6437617295506
20
7.07482820526806
30
0
41
1
10
70.6519636657842
20
7.06290522741659
30
0
41
1
10
70.6547090054182
20
7.05813480879945
30
0
41
1
10
70.66018843807
20
7.04706332790917
30
0
41
1
10
70.6629265368999
20
7.04075715281002
30
0
41
1
10
70.6766048598541
20
7.00541529359742
30
0
41
1
10
70.6875007077738
20
6.96497713702789
30
0
41
1
10
70.7092173078713
20
6.86032190950772
30
0
41
1
10
70.7200453944134
20
6.79610388916893
30
0
41
1
10
70.7363773375782
20
6.68179135963817
30
0
41
1
10
70.7418336457889
20
6.64068382813161
30
0
41
1
10
70.7500430457632
20
6.57444460528959
30
0
41
1
10
70.7527836826173
20
6.55160148838496
30
0
41
1
10
70.7582745933384
20
6.50437149780547
30
0
41
1
10
70.7610280008461
20
6.47995445745082
30
0
41
1
10
70.7747478582029
20
6.35465923028875
30
0
41
1
10
70.7856177791599
20
6.2438044469439
30
0
41
1
10
70.8072662174215
20
6.00153594392552
30
0
41
1
10
70.8180439557502
20
5.87012036805228
30
0
41
1
10
70.8396808687931
20
5.5867472818021
30
0
41
1
10
70.8505721414857
20
5.43479238235386
30
0
41
1
10
70.8642562378835
20
5.23161245454267
30
0
41
1
10
70.8669993989302
20
5.19025144407087
30
0
41
1
10
70.8724671367329
20
5.10653353325807
30
0
41
1
10
70.8806391067109
20
4.97950224613618
30
0
41
1
10
70.8887242273165
20
4.84816098598222
30
0
41
1
10
70.8940889616494
20
4.75871715014634
30
0
0
SPLINE
5
17E
100
AcDbEntity
8
1
62
256
6
ByLayer
370
18
48
1
60
0
100
AcDbSpline
70
4
71
3
72
29
73
25
40
0
40
0
40
0
40
0
40
0.125
40
0.125
40
0.249999999999999
40
0.249999999999999
40
0.374999999999999
40
0.374999999999999
40
0.406249999999999
40
0.406249999999999
40
0.437499999999999
40
0.499999999999999
40
0.499999999999999
40
0.625
40
0.625
40
0.75
40
0.75
40
0.781250000000001
40
0.781250000000001
40
0.812500000000001
40
0.812500000000001
40
0.875
40
0.875
40
1
40
1
40
1
40
1
41
1
10
71.1045585395802
20
4.60453775135508
30
0
41
1
10
71.0934978080377
20
4.7895282307054
30
0
41
1
10
71.0825281573015
20
4.96498021797953
30
0
41
1
10
71.0607867401744
20
5.29735671693277
30
0
41
1
10
71.0500145673536
20
5.4542797815439
30
0
41
1
10
71.028481695555
20
5.74954651766339
30
0
41
1
10
71.0177207652632
20
5.88789185349589
30
0
41
1
10
71.0040363794607
20
6.04880666471377
30
0
41
1
10
71.0012891054589
20
6.08037331052179
30
0
41
1
10
70.9958053399185
20
6.14193575186852
30
0
41
1
10
70.9875838743815
20
6.23206394599222
30
0
41
1
10
70.9793805195135
20
6.31562181058018
30
0
41
1
10
70.9630041134491
20
6.47411075157459
30
0
41
1
10
70.9521298948032
20
6.56828980167791
30
0
41
1
10
70.9304282493812
20
6.73384408206482
30
0
41
1
10
70.9196008861641
20
6.80522030524111
30
0
41
1
10
70.9060108000835
20
6.87983401578947
30
0
41
1
10
70.9032897493718
20
6.89402458755421
30
0
41
1
10
70.8978384803127
20
6.92092489118525
30
0
41
1
10
70.8951056467242
20
6.93364414578576
30
0
41
1
10
70.8869342087635
20
6.96936107904662
30
0
41
1
10
70.8815093951027
20
6.98999142307144
30
0
41
1
10
70.8652581420354
20
7.04252883730979
30
0
41
1
10
70.854454898069
20
7.06510620394184
30
0
41
1
10
70.8435521359128
20
7.07543540857765
30
0
0
SPLINE
5
17F
100
AcDbEntity
8
1
62
256
6
ByLayer
370
18
48
1
60
0
100
AcDbSpline
70
4
71
3
72
119
73
115
40
0
40
0
40
0
40
0
40
0.0312500000000077
40
0.0312500000000077
40
0.0625000000000154
40
0.0625000000000154
40
0.125000000000031
40
0.125000000000031
40
0.156250000000037
40
0.156250000000037
40
0.171875000000039
40
0.171875000000039
40
0.179687500000039
40
0.179687500000039
40
0.187500000000039
40
0.218750000000033
40
0.218750000000033
40
0.234375000000032
40
0.234375000000032
40
0.25000000000003
40
0.265625000000028
40
0.265625000000028
40
0.281250000000027
40
0.281250000000027
40
0.312500000000023
40
0.312500000000023
40
0.328125000000022
40
0.328125000000022
40
0.343750000000021
40
0.343750000000021
40
0.37500000000002
40
0.37500000000002
40
0.406250000000018
40
0.406250000000018
40
0.421875000000017
40
0.421875000000017
40
0.429687500000017
40
0.429687500000017
40
0.437500000000017
40
0.437500000000017
40
0.453125000000018
40
0.453125000000018
40
0.46875000000002
40
0.46875000000002
40
0.476562500000021
40
0.476562500000021
40
0.484375000000022
40
0.484375000000022
40
0.500000000000022
40
0.500000000000022
40
0.515625000000023
40
0.515625000000023
40
0.523437500000023
40
0.523437500000023
40
0.531250000000023
40
0.531250000000023
40
0.546875000000024
40
0.546875000000024
40
0.550781250000024
40
0.550781250000024
40
0.554687500000024
40
0.562500000000024
40
0.562500000000024
40
0.578125000000024
40
0.578125000000024
40
0.582031250000024
40
0.582031250000024
40
0.585937500000024
40
0.593750000000024
40
0.593750000000024
40
0.601562500000024
40
0.601562500000024
40
0.605468750000024
40
0.605468750000024
40
0.609375000000024
40
0.609375000000024
40
0.625000000000024
40
0.625000000000024
40
0.640625000000024
40
0.640625000000024
40
0.648437500000024
40
0.652343750000024
40
0.652343750000024
40
0.656250000000024
40
0.656250000000024
40
0.671875000000024
40
0.671875000000024
40
0.687500000000023
40
0.687500000000023
40
0.703125000000023
40
0.703125000000023
40
0.718750000000022
40
0.718750000000022
40
0.726562500000022
40
0.726562500000022
40
0.734375000000022
40
0.734375000000022
40
0.750000000000021
40
0.750000000000021
40
0.781250000000019
40
0.781250000000019
40
0.812500000000017
40
0.812500000000017
40
0.843750000000015
40
0.843750000000015
40
0.875000000000013
40
0.875000000000013
40
0.906250000000011
40
0.906250000000011
40
0.921875000000009
40
0.921875000000009
40
0.937500000000008
40
0.937500000000008
40
1
40
1
40
1
40
1
41
1
10
37.912769218393
20
4.91398777665435
30
0
41
1
10
37.7826885050231
20
4.95334510812793
30
0
41
1
10
37.6513460405664
20
4.9891505710894
30
0
41
1
10
37.3858521019869
20
5.05428354589705
30
0
41
1
10
37.2516651062582
20
5.08358564038315
30
0
41
1
10
36.8438870090379
20
5.16246903591556
30
0
41
1
10
36.5650948154542
20
5.20299785774606
30
0
41
1
10
36.1330399603631
20
5.24966023261874
30
0
41
1
10
35.986680008475
20
5.26285750696985
30
0
41
1
10
35.7630737465352
20
5.27966676503618
30
0
41
1
10
35.6878612202669
20
5.28477296810073
30
0
41
1
10
35.5739644690188
20
5.29176149870992
30
0
41
1
10
35.5357830454347
20
5.2939811484149
30
0
41
1
10
35.4592877454376
20
5.29819693779237
30
0
41
1
10
35.2676799581952
20
5.30818023346882
30
0
41
1
10
35.0742105194897
20
5.3155952093766
30
0
41
1
10
34.8400390824742
20
5.32266575433141
30
0
41
1
10
34.7616397893365
20
5.32471415763715
30
0
41
1
10
34.6041663878967
20
5.32830974687377
30
0
41
1
10
34.4460984548154
20
5.33143993030245
30
0
41
1
10
34.2869648112492
20
5.33384856475288
30
0
41
1
10
34.1273662386035
20
5.33598198052792
30
0
41
1
10
34.04734929916
20
5.33691532255409
30
0
41
1
10
33.8065168510835
20
5.33934612088868
30
0
41
1
10
33.644948684352
20
5.34048869696633
30
0
41
1
10
33.4008732161934
20
5.34166804781469
30
0
41
1
10
33.3191873904818
20
5.34197152272722
30
0
41
1
10
33.1553709794686
20
5.34241308064202
30
0
41
1
10
33.0735697212666
20
5.34255045615109
30
0
41
1
10
32.8285017260258
20
5.34272109752041
30
0
41
1
10
32.6655747987655
20
5.34251970671775
30
0
41
1
10
32.3407277795405
20
5.34131617956655
30
0
41
1
10
32.1787997871269
20
5.34032676960902
30
0
41
1
10
31.9368097475909
20
5.33778445179792
30
0
41
1
10
31.8562982656728
20
5.33675612810947
30
0
41
1
10
31.7357960709383
20
5.33482043934418
30
0
41
1
10
31.6957435784302
20
5.33411135531881
30
0
41
1
10
31.6161284320438
20
5.33254681815382
30
0
41
1
10
31.5765294436756
20
5.33169081828933
30
0
41
1
10
31.4583937917416
20
5.32886145862105
30
0
41
1
10
31.3805162950538
20
5.32662997190107
30
0
41
1
10
31.2267538868965
20
5.32119603368639
30
0
41
1
10
31.1508778324657
20
5.31799260126039
30
0
41
1
10
31.0388088804452
20
5.31215122582719
30
0
41
1
10
31.0017445163759
20
5.31003020331298
30
0
41
1
10
30.9282612241211
20
5.30536792998205
30
0
41
1
10
30.8918375185674
20
5.30282430414465
30
0
41
1
10
30.7846853924663
20
5.29451503235717
30
0
41
1
10
30.7156485309493
20
5.28807394748708
30
0
41
1
10
30.5831992271075
20
5.27269077436051
30
0
41
1
10
30.5197806059221
20
5.26375445547671
30
0
41
1
10
30.4297560599108
20
5.2477082548688
30
0
41
1
10
30.4005337080752
20
5.24189576117294
30
0
41
1
10
30.3448577071932
20
5.22941804506698
30
0
41
1
10
30.3182997625168
20
5.22273747634779
30
0
41
1
10
30.242644250123
20
5.20119772209694
30
0
41
1
10
30.1975338795814
20
5.18485584060429
30
0
41
1
10
30.1488207109933
20
5.16118770797567
30
0
41
1
10
30.1394360294817
20
5.15627704605814
30
0
41
1
10
30.1216035321043
20
5.1461924164613
30
0
41
1
10
30.0962577148576
20
5.13067705539069
30
0
41
1
10
30.0750712063047
20
5.11396524064631
30
0
41
1
10
30.0381894123121
20
5.0788546630919
30
0
41
1
10
30.0208486008234
20
5.05320577027072
30
0
41
1
10
30.0079998912223
20
5.01803014333348
30
0
41
1
10
30.0058708518311
20
5.01082617202883
30
0
41
1
10
30.0025166387702
20
4.99623840269746
30
0
41
1
10
29.9988217045283
20
4.97404540645607
30
0
41
1
10
29.9989420377028
20
4.9509217517635
30
0
41
1
10
30.0022186979582
20
4.91926768747558
30
0
41
1
10
30.0054137066588
20
4.90302936563228
30
0
41
1
10
30.0123606370825
20
4.87805717802038
30
0
41
1
10
30.0150356942166
20
4.86963065288441
30
0
41
1
10
30.0210782567728
20
4.85257290936264
30
0
41
1
10
30.024452534737
20
4.84392680451563
30
0
41
1
10
30.0428832605825
20
4.80043650132924
30
0
41
1
10
30.0626158859525
20
4.76474728867581
30
0
41
1
10
30.109567546295
20
4.69156077949611
30
0
41
1
10
30.1369027818912
20
4.65407812125417
30
0
41
1
10
30.1829603799274
20
4.59660543008368
30
0
41
1
10
30.2072547135126
20
4.56755631972158
30
0
41
1
10
30.2333253034014
20
4.53804939302375
30
0
41
1
10
30.2510878556349
20
4.5182773545784
30
0
41
1
10
30.260163651393
20
4.5083272058753
30
0
41
1
10
30.3064700444353
20
4.45855799275046
30
0
41
1
10
30.3463543993604
20
4.41861871143394
30
0
41
1
10
30.4304012443652
20
4.33829769466442
30
0
41
1
10
30.4745727070909
20
4.29791726275252
30
0
41
1
10
30.5662851805226
20
4.21658588224392
30
0
41
1
10
30.613830719194
20
4.17563557758129
30
0
41
1
10
30.7116522596103
20
4.09307089470985
30
0
41
1
10
30.7619307624461
20
4.05145686518475
30
0
41
1
10
30.8390458332654
20
3.98848317151052
30
0
41
1
10
30.8650348772248
20
3.96739996559475
30
0
41
1
10
30.9175335465363
20
3.92504174283454
30
0
41
1
10
30.9440666824731
20
3.90374801580222
30
0
41
1
10
31.0241881851134
20
3.83972528919298
30
0
41
1
10
31.0782738105609
20
3.79687118065723
30
0
41
1
10
31.2421688168377
20
3.66766898532342
30
0
41
1
10
31.3535873359002
20
3.58066776878474
30
0
41
1
10
31.5794675760439
20
3.40453019358222
30
0
41
1
10
31.6939408788203
20
3.31539875387236
30
0
41
1
10
31.9250967349402
20
3.13467728788672
30
0
41
1
10
32.041783622061
20
3.04308830682774
30
0
41
1
10
32.2768133494912
20
2.85719306701537
30
0
41
1
10
32.3951584472643
20
2.76288726253199
30
0
41
1
10
32.6331461892424
20
2.57134919528886
30
0
41
1
10
32.7527899933138
20
2.47411702406049
30
0
41
1
10
32.9330701419771
20
2.32594855637882
30
0
41
1
10
32.9932778492802
20
2.27619072159217
30
0
41
1
10
33.1136366219641
20
2.17615012887708
30
0
41
1
10
33.1738251969258
20
2.12583661716829
30
0
41
1
10
33.474791952501
20
1.87278902772257
30
0
41
1
10
33.7155799573564
20
1.66556570528567
30
0
41
1
10
33.9565959816169
20
1.45374769586436
30
0
0
SPLINE
5
180
100
AcDbEntity
8
1
62
256
6
ByLayer
370
18
48
1
60
0
100
AcDbSpline
70
4
71
3
72
33
73
29
40
0
40
0
40
0
40
0
40
0.124999999999999
40
0.124999999999999
40
0.156249999999999
40
0.156249999999999
40
0.187499999999998
40
0.187499999999998
40
0.249999999999998
40
0.249999999999998
40
0.374999999999998
40
0.499999999999998
40
0.499999999999998
40
0.562499999999998
40
0.562499999999998
40
0.593749999999998
40
0.593749999999998
40
0.624999999999998
40
0.624999999999998
40
0.749999999999999
40
0.749999999999999
40
0.874999999999999
40
0.874999999999999
40
0.937499999999999
40
0.937499999999999
40
0.96875
40
0.96875
40
1
40
1
40
1
40
1
41
1
10
71.8017107952858
20
-7.05447529875497
30
0
41
1
10
71.7908677852356
20
-7.03327328756532
30
0
41
1
10
71.7799932324148
20
-6.99982716834066
30
0
41
1
10
71.766295898267
20
-6.94234098519783
30
0
41
1
10
71.763552617199
20
-6.93005783751823
30
0
41
1
10
71.75805884914
20
-6.90390219664684
30
0
41
1
10
71.7553051485879
20
-6.89001097529089
30
0
41
1
10
71.747077473999
20
-6.84616952556948
30
0
41
1
10
71.7416259523284
20
-6.81400667413291
30
0
41
1
10
71.7253552177725
20
-6.70888889696951
30
0
41
1
10
71.7038935749008
20
-6.54576482135622
30
0
41
1
10
71.6824876954457
20
-6.33746157646058
30
0
41
1
10
71.6661946852493
20
-6.16404464874128
30
0
41
1
10
71.6607178047794
20
-6.1033687441597
30
0
41
1
10
71.6524193017885
20
-6.00796585879769
30
0
41
1
10
71.6496369096449
20
-5.97538400877153
30
0
41
1
10
71.6440751905401
20
-5.90901525647746
30
0
41
1
10
71.6412965962047
20
-5.87523932033144
30
0
41
1
10
71.6274238409769
20
-5.70343550571982
30
0
41
1
10
71.6163993639732
20
-5.55665868012554
30
0
41
1
10
71.5945763671539
20
-5.24491027022026
30
0
41
1
10
71.5837775697727
20
-5.079937601007
30
0
41
1
10
71.5676401038482
20
-4.81875631368882
30
0
41
1
10
71.5622693657495
20
-4.72940449764528
30
0
41
1
10
71.5541963736018
20
-4.59188997980345
30
0
41
1
10
71.5515024475201
20
-4.54547038666493
30
0
41
1
10
71.5461023913296
20
-4.45145648476711
30
0
41
1
10
71.5433937915162
20
-4.40381826840442
30
0
41
1
10
71.5406809421895
20
-4.35568372863475
30
0
0
SPLINE
5
181
100
AcDbEntity
8
1
62
256
6
ByLayer
370
18
48
1
60
0
100
AcDbSpline
70
4
71
3
72
29
73
25
40
0
40
0
40
0
40
0
40
0.125
40
0.125
40
0.249999999999999
40
0.249999999999999
40
0.281249999999999
40
0.281249999999999
40
0.312499999999999
40
0.312499999999999
40
0.374999999999999
40
0.374999999999999
40
0.5
40
0.625
40
0.625
40
0.6875
40
0.6875
40
0.71875
40
0.71875
40
0.75
40
0.75
40
0.875
40
0.875
40
1
40
1
40
1
40
1
41
1
10
71.3299486817874
20
-4.19216496009602
30
0
41
1
10
71.3407706921959
20
-4.38685626114071
30
0
41
1
10
71.3516888574912
20
-4.57360596043029
30
0
41
1
10
71.3736045614768
20
-4.9312922969938
30
0
41
1
10
71.3845999360821
20
-5.10222993223235
30
0
41
1
10
71.3983832452312
20
-5.30574540374363
30
0
41
1
10
71.4011421490069
20
-5.34593936459532
30
0
41
1
10
71.4066654260556
20
-5.42529674490277
30
0
41
1
10
71.4094223747165
20
-5.4643525272574
30
0
41
1
10
71.417660812009
20
-5.57937785697197
30
0
41
1
10
71.4231183927289
20
-5.65333172582899
30
0
41
1
10
71.4394129920975
20
-5.86715409137514
30
0
41
1
10
71.4609253424566
20
-6.13085364531798
30
0
41
1
10
71.4824197663732
20
-6.35231187529033
30
0
41
1
10
71.4987476286081
20
-6.50227121456263
30
0
41
1
10
71.5042286869325
20
-6.54956336518703
30
0
41
1
10
71.5125031023794
20
-6.61637411958165
30
0
41
1
10
71.5152682814854
20
-6.63794034465838
30
0
41
1
10
71.5207829630605
20
-6.67944850770979
30
0
41
1
10
71.5235363825262
20
-6.69942255378976
30
0
41
1
10
71.5372828541563
20
-6.79543395100393
30
0
41
1
10
71.5482101700289
20
-6.85992580929943
30
0
41
1
10
71.569964018215
20
-6.96482117818425
30
0
41
1
10
71.5807911697277
20
-7.00522376257592
30
0
41
1
10
71.5916317669412
20
-7.03347178839599
30
0
0
SPLINE
5
182
100
AcDbEntity
8
1
62
256
6
ByLayer
370
18
48
1
60
0
100
AcDbSpline
70
4
71
3
72
52
73
48
40
0
40
0
40
0
40
0
40
0.125000000000002
40
0.125000000000002
40
0.187500000000003
40
0.187500000000003
40
0.218750000000003
40
0.218750000000003
40
0.250000000000004
40
0.250000000000004
40
0.500000000000006
40
0.500000000000006
40
0.562500000000007
40
0.562500000000007
40
0.625000000000007
40
0.625000000000007
40
0.750000000000009
40
0.750000000000009
40
0.812500000000009
40
0.812500000000009
40
0.87500000000001
40
0.87500000000001
40
0.90625000000001
40
0.90625000000001
40
0.93750000000001
40
0.93750000000001
40
0.953125000000011
40
0.953125000000011
40
0.968750000000011
40
0.968750000000011
40
0.976562500000012
40
0.976562500000012
40
0.980468750000012
40
0.980468750000012
40
0.984375000000013
40
0.984375000000013
40
0.986328125000011
40
0.986328125000011
40
0.98828125000001
40
0.98828125000001
40
0.990234375000008
40
0.990234375000008
40
0.992187500000006
40
0.992187500000006
40
0.996093750000003
40
0.996093750000003
40
1
40
1
40
1
40
1
41
1
10
60.1218476513278
20
1.02184611135945
30
0
41
1
10
60.1207181519014
20
1.16881391607274
30
0
41
1
10
60.1197735643407
20
1.31486081140028
30
0
41
1
10
60.1186799032726
20
1.53253980742909
30
0
41
1
10
60.1183696001447
20
1.60486740875024
30
0
41
1
10
60.1179960171148
20
1.71300811596643
30
0
41
1
10
60.1178867965033
20
1.74901926715711
30
0
41
1
10
60.1177017795516
20
1.82074574218262
30
0
41
1
10
60.1176259139318
20
1.85647473126102
30
0
41
1
10
60.117103276078
20
2.17683664466938
30
0
41
1
10
60.1176437420033
20
2.45306058570137
30
0
41
1
10
60.1213650757803
20
2.78839426381685
30
0
41
1
10
60.1222638938646
20
2.85484422402163
30
0
41
1
10
60.1244134554261
20
2.98635240503316
30
0
41
1
10
60.1256642676504
20
3.05144155852344
30
0
41
1
10
60.1300203030958
20
3.24477371951048
30
0
41
1
10
60.1337066000403
20
3.37106693047849
30
0
41
1
10
60.1409322780391
20
3.55698065594584
30
0
41
1
10
60.1436148474479
20
3.61838224754911
30
0
41
1
10
60.1498874334081
20
3.74007850669051
30
0
41
1
10
60.1534583397796
20
3.80036579500617
30
0
41
1
10
60.1601401962976
20
3.89047300256775
30
0
41
1
10
60.1625914036339
20
3.92045711426397
30
0
41
1
10
60.1682271288697
20
3.98054577204971
30
0
41
1
10
60.1713893789427
20
4.01063252645176
30
0
41
1
10
60.1772260389494
20
4.05628322147152
30
0
41
1
10
60.1793567189387
20
4.07159038429739
30
0
41
1
10
60.1842452178967
20
4.10246397503994
30
0
41
1
10
60.1869725212636
20
4.11802194491779
30
0
41
1
10
60.192135831482
20
4.14193965965416
30
0
41
1
10
60.194032586026
20
4.15000713267395
30
0
41
1
10
60.1974655996406
20
4.16245059060802
30
0
41
1
10
60.198708431994
20
4.16665576864702
30
0
41
1
10
60.2015650442143
20
4.17528802750169
30
0
41
1
10
60.2031905349364
20
4.17976642217926
30
0
41
1
10
60.206099826894
20
4.18639581208171
30
0
41
1
10
60.2071673767394
20
4.18862780875054
30
0
41
1
10
60.2095171238337
20
4.19291235340992
30
0
41
1
10
60.2108252148939
20
4.1950003662931
30
0
41
1
10
60.2135886927276
20
4.19857941960805
30
0
41
1
10
60.2150530323876
20
4.20006342304805
30
0
41
1
10
60.2178445622798
20
4.20211678166888
30
0
41
1
10
60.2191450578793
20
4.20269636936163
30
0
41
1
10
60.2227527230885
20
4.20354887491385
30
0
41
1
10
60.2247010741994
20
4.20300842438596
30
0
41
1
10
60.2281990721132
20
4.20117708497986
30
0
41
1
10
60.2297202713607
20
4.19984659337678
30
0
41
1
10
60.2311280901374
20
4.19830690722762
30
0
0
SPLINE
5
183
100
AcDbEntity
8
1
62
256
6
ByLayer
370
18
48
1
60
0
100
AcDbSpline
70
4
71
3
72
29
73
25
40
0
40
0
40
0
40
0
40
0.125000000000001
40
0.125000000000001
40
0.250000000000002
40
0.250000000000002
40
0.281250000000002
40
0.281250000000002
40
0.312500000000002
40
0.312500000000002
40
0.375000000000002
40
0.375000000000002
40
0.500000000000002
40
0.625000000000001
40
0.625000000000001
40
0.687500000000001
40
0.687500000000001
40
0.718750000000001
40
0.718750000000001
40
0.750000000000001
40
0.750000000000001
40
0.875000000000001
40
0.875000000000001
40
1
40
1
40
1
40
1
41
1
10
72.7249297192155
20
6.7618551009131
30
0
41
1
10
72.7358007303789
20
6.68997698183961
30
0
41
1
10
72.7465870700266
20
6.6065752509007
30
0
41
1
10
72.768150389859
20
6.41688713496626
30
0
41
1
10
72.778926859435
20
6.31060172468986
30
0
41
1
10
72.7925531428086
20
6.16309233508528
30
0
41
1
10
72.7952864500681
20
6.13285598777307
30
0
41
1
10
72.8007743251033
20
6.07089798394514
30
0
41
1
10
72.8035320346359
20
6.039142903146
30
0
41
1
10
72.8117956368715
20
5.94217562794842
30
0
41
1
10
72.81730204769
20
5.87511825487044
30
0
41
1
10
72.8337798109304
20
5.66685183331694
30
0
41
1
10
72.8556271054308
20
5.37028135896864
30
0
41
1
10
72.8771781596055
20
5.03654833402916
30
0
41
1
10
72.8933647018468
20
4.77210120938105
30
0
41
1
10
72.8987657583377
20
4.68158979764073
30
0
41
1
10
72.9069082927523
20
4.54220993070265
30
0
41
1
10
72.9096333882596
20
4.49507763797976
30
0
41
1
10
72.91507886618
20
4.40003981910189
30
0
41
1
10
72.9177999646492
20
4.35212376321371
30
0
41
1
10
72.9314157910946
20
4.11058098413983
30
0
41
1
10
72.9423765336292
20
3.91108399365689
30
0
41
1
10
72.9643118877344
20
3.49987475446162
30
0
41
1
10
72.9752789376866
20
3.28816156085196
30
0
41
1
10
72.9862228636778
20
3.07030108174928
30
0
0
SPLINE
5
184
100
AcDbEntity
8
1
62
256
6
ByLayer
370
18
48
1
60
0
100
AcDbSpline
70
4
71
3
72
34
73
30
40
0
40
0
40
0
40
0
40
0.125000000000002
40
0.125000000000002
40
0.156250000000002
40
0.156250000000002
40
0.187500000000003
40
0.187500000000003
40
0.250000000000003
40
0.250000000000003
40
0.375000000000002
40
0.375000000000002
40
0.500000000000002
40
0.500000000000002
40
0.562500000000002
40
0.562500000000002
40
0.593750000000002
40
0.593750000000002
40
0.625000000000002
40
0.625000000000002
40
0.750000000000002
40
0.750000000000002
40
0.875000000000001
40
0.875000000000001
40
0.9375
40
0.9375
40
0.96875
40
0.96875
40
1
40
1
40
1
40
1
41
1
10
73.1960409718019
20
2.88442741058196
30
0
41
1
10
73.1851478285181
20
3.1045513306907
30
0
41
1
10
73.1742988781025
20
3.32008942448871
30
0
41
1
10
73.1607194893119
20
3.58361921309557
30
0
41
1
10
73.1580013707092
20
3.63602972868844
30
0
41
1
10
73.1525557592774
20
3.74025264689314
30
0
41
1
10
73.1498336964728
20
3.79196007921439
30
0
41
1
10
73.1416913621381
20
3.94534887365566
30
0
41
1
10
73.1362832649972
20
4.04551624968767
30
0
41
1
10
73.1200780748288
20
4.33985813215517
30
0
41
1
10
73.1092973194164
20
4.52788807034418
30
0
41
1
10
73.0876512510105
20
4.88777024010019
30
0
41
1
10
73.0767880164492
20
5.05962274441316
30
0
41
1
10
73.0603836890791
20
5.30505085613683
30
0
41
1
10
73.0548976463983
20
5.38479781772674
30
0
41
1
10
73.0466363636464
20
5.50125926589587
30
0
41
1
10
73.0438772746534
20
5.53954992891741
30
0
41
1
10
73.0383796778711
20
5.61463087345064
30
0
41
1
10
73.0356371246684
20
5.65147879159593
30
0
41
1
10
73.0219527618635
20
5.83229260300251
30
0
41
1
10
73.0110985388455
20
5.96600865699995
30
0
41
1
10
72.9894737875657
20
6.21206363664535
30
0
41
1
10
72.9787052332211
20
6.3244017317472
30
0
41
1
10
72.9624706930215
20
6.47673548655487
30
0
41
1
10
72.9570443307695
20
6.52481265371327
30
0
41
1
10
72.9488698105881
20
6.59281142033848
30
0
41
1
10
72.9461391613923
20
6.61479116293489
30
0
41
1
10
72.9406643197788
20
6.65736227912018
30
0
41
1
10
72.9379170082224
20
6.67797460001168
30
0
41
1
10
72.9351770225803
20
6.69777818635825
30
0
0
SPLINE
5
185
100
AcDbEntity
8
1
62
256
6
ByLayer
370
18
48
1
60
0
100
AcDbSpline
70
4
71
3
72
29
73
25
40
0
40
0
40
0
40
0
40
0.125000000000001
40
0.125000000000001
40
0.250000000000002
40
0.250000000000002
40
0.375000000000002
40
0.375000000000002
40
0.406250000000003
40
0.406250000000003
40
0.437500000000003
40
0.500000000000002
40
0.500000000000002
40
0.625000000000002
40
0.625000000000002
40
0.750000000000001
40
0.750000000000001
40
0.781250000000001
40
0.781250000000001
40
0.812500000000001
40
0.812500000000001
40
0.875000000000001
40
0.875000000000001
40
1
40
1
40
1
40
1
41
1
10
69.7101300048009
20
-6.58600585975188
30
0
41
1
10
69.6992070424226
20
-6.49638217069452
30
0
41
1
10
69.6882757462026
20
-6.39580734655493
30
0
41
1
10
69.6664178291895
20
-6.17344852771896
30
0
41
1
10
69.6555030841141
20
-6.05166243938524
30
0
41
1
10
69.633713653209
20
-5.78688706985344
30
0
41
1
10
69.6228397554746
20
-5.64389941744179
30
0
41
1
10
69.6092146734182
20
-5.45149775824081
30
0
41
1
10
69.6064837369516
20
-5.41227336777879
30
0
41
1
10
69.6010398971587
20
-5.33279846541541
30
0
41
1
10
69.5929001398175
20
-5.21204032069031
30
0
41
1
10
69.584824367195
20
-5.08670147318634
30
0
41
1
10
69.5687128570098
20
-4.83001916798753
30
0
41
1
10
69.5580281483053
20
-4.6509066532156
30
0
41
1
10
69.5364609470629
20
-4.27686523528021
30
0
41
1
10
69.5255402948521
20
-4.08193833191149
30
0
41
1
10
69.511741206196
20
-3.82818068151627
30
0
41
1
10
69.5089746075949
20
-3.77692290939461
30
0
41
1
10
69.5034289516759
20
-3.67338422566877
30
0
41
1
10
69.5006468035054
20
-3.62104460415449
30
0
41
1
10
69.4923044367588
20
-3.46288370292805
30
0
41
1
10
69.4867685456437
20
-3.35630519231708
30
0
41
1
10
69.4702392880731
20
-3.03322850455805
30
0
41
1
10
69.4593271443111
20
-2.81339765321175
30
0
41
1
10
69.4484908564618
20
-2.5892049143759
30
0
0
SPLINE
5
186
100
AcDbEntity
8
1
62
256
6
ByLayer
370
18
48
1
60
0
100
AcDbSpline
70
4
71
3
72
31
73
27
40
0
40
0
40
0
40
0
40
0.0624999999999999
40
0.0624999999999999
40
0.125
40
0.125
40
0.25
40
0.25
40
0.375
40
0.375
40
0.4375
40
0.4375
40
0.468749999999999
40
0.468749999999999
40
0.499999999999999
40
0.499999999999999
40
0.624999999999999
40
0.624999999999999
40
0.749999999999999
40
0.749999999999999
40
0.874999999999999
40
0.874999999999999
40
0.906249999999999
40
0.906249999999999
40
0.9375
40
1
40
1
40
1
40
1
41
1
10
69.2381550058432
20
-2.39759037561768
30
0
41
1
10
69.2435862126911
20
-2.51160306581946
30
0
41
1
10
69.2490711104625
20
-2.62495117322859
30
0
41
1
10
69.2601723933864
20
-2.85003263457546
30
0
41
1
10
69.2657354647438
20
-2.96086249236367
30
0
41
1
10
69.2823918991882
20
-3.2883344663731
30
0
41
1
10
69.2934435072419
20
-3.49997232061233
30
0
41
1
10
69.3152876513943
20
-3.91016395292658
30
0
41
1
10
69.3260792492131
20
-4.1087173500498
30
0
41
1
10
69.3421807032249
20
-4.39661668059404
30
0
41
1
10
69.3475359343581
20
-4.49092472988829
30
0
41
1
10
69.3555888600846
20
-4.62985375190959
30
0
41
1
10
69.3582766979156
20
-4.67574102851611
30
0
41
1
10
69.3636681283584
20
-4.76666042735351
30
0
41
1
10
69.3663660204021
20
-4.8115949103545
30
0
41
1
10
69.3798474776158
20
-5.0329328872696
30
0
41
1
10
69.3906867505991
20
-5.20008603319397
30
0
41
1
10
69.412429453314
20
-5.51513648540083
30
0
41
1
10
69.4233261443889
20
-5.66303258136389
30
0
41
1
10
69.4451439037256
20
-5.9395284338203
30
0
41
1
10
69.4560630487277
20
-6.06813000387464
30
0
41
1
10
69.4697726323002
20
-6.21641012994689
30
0
41
1
10
69.4725179325073
20
-6.24543845269784
30
0
41
1
10
69.477985811685
20
-6.30190617814819
30
0
41
1
10
69.4861655476636
20
-6.38435628833642
30
0
41
1
10
69.4942944634522
20
-6.46012913935314
30
0
41
1
10
69.4997062567093
20
-6.50772205592571
30
0
0
SPLINE
5
187
100
AcDbEntity
8
1
62
256
6
ByLayer
370
13
48
1
60
0
100
AcDbSpline
70
4
71
3
72
10
73
6
40
0
40
0
40
0
40
0
40
0.092597080624168
40
0.781261483183252
40
1
40
1
40
1
40
1
41
1
10
64.6233096743658
20
-2.59365528121484
30
0
41
1
10
64.6159230386496
20
-2.46911573773141
30
0
41
1
10
64.5536574374115
20
-1.40176727247416
30
0
41
1
10
64.4750379329376
20
0.107093268516394
30
0
41
1
10
64.4032265503579
20
1.42469699758138
30
0
41
1
10
64.3859021676499
20
1.73496736950361
30
0
0
SPLINE
5
188
100
AcDbEntity
8
1
62
256
6
ByLayer
370
13
48
1
60
0
100
AcDbSpline
70
4
71
3
72
9
73
5
40
0
40
0
40
0
40
0
40
0.827088379556728
40
1
40
1
40
1
40
1
41
1
10
66.7150529366181
20
-4.01196516684743
30
0
41
1
10
66.6522101809924
20
-3.14069588572104
30
0
41
1
10
66.574596350137
20
-1.77564670289416
30
0
41
1
10
66.4918957394549
20
-0.224470755353934
30
0
41
1
10
66.4774412449536
20
0.0465095678213174
30
0
0
SPLINE
5
189
100
AcDbEntity
8
1
62
256
6
ByLayer
370
18
48
1
60
0
100
AcDbSpline
70
4
71
3
72
26
73
22
40
0
40
0
40
0
40
0
40
0.125
40
0.125
40
0.250000000000001
40
0.250000000000001
40
0.375000000000001
40
0.375000000000001
40
0.500000000000001
40
0.500000000000001
40
0.625000000000001
40
0.625000000000001
40
0.656250000000001
40
0.656250000000001
40
0.687500000000002
40
0.687500000000002
40
0.750000000000001
40
0.750000000000001
40
0.875000000000001
40
0.875000000000001
40
1
40
1
40
1
40
1
41
1
10
67.1470595732984
20
-0.405963043129475
30
0
41
1
10
67.1577900458351
20
-0.646557155507907
30
0
41
1
10
67.1684674011906
20
-0.886006549445256
30
0
41
1
10
67.1900492040485
20
-1.36259061954072
30
0
41
1
10
67.2009367711327
20
-1.59972631495719
30
0
41
1
10
67.2229921148398
20
-2.0715962027046
30
0
41
1
10
67.2339665619167
20
-2.30222464943984
30
0
41
1
10
67.2558412161438
20
-2.75313871163388
30
0
41
1
10
67.2667405357961
20
-2.97344171909103
30
0
41
1
10
67.2885039885661
20
-3.40378584034951
30
0
41
1
10
67.2993664459512
20
-3.61382760421245
30
0
41
1
10
67.3129796491925
20
-3.86979023859601
30
0
41
1
10
67.3157042491677
20
-3.92065244358923
30
0
41
1
10
67.3211597769048
20
-4.02170829477609
30
0
41
1
10
67.3238864281161
20
-4.07182159928578
30
0
41
1
10
67.3320345478053
20
-4.22032696057406
30
0
41
1
10
67.3374369522827
20
-4.3171260781026
30
0
41
1
10
67.3535968840931
20
-4.60103233790443
30
0
41
1
10
67.3643047021203
20
-4.78166501354559
30
0
41
1
10
67.3858835758689
20
-5.12588336736098
30
0
41
1
10
67.3967456712558
20
-5.28946963736217
30
0
41
1
10
67.4076878820646
20
-5.44438346939393
30
0
0
SPLINE
5
18A
100
AcDbEntity
8
1
62
256
6
ByLayer
370
13
48
1
60
0
100
AcDbSpline
70
4
71
3
72
9
73
5
40
0
40
0
40
0
40
0
40
0.679209079729126
40
1
40
1
40
1
40
1
41
1.04
10
64.099500069503
20
-2.1997659113795
30
0
41
1.04
10
64.0454439255992
20
-1.25922923114776
30
0
41
1.04
10
63.9667786725237
20
0.248928348945135
30
0
41
1.04
10
63.8875400571348
20
1.6969025444313
30
0
41
1.04
10
63.8621058672194
20
2.1414125520548
30
0
0
SPLINE
5
18B
100
AcDbEntity
8
1
62
256
6
ByLayer
370
18
48
1
60
0
100
AcDbSpline
70
4
71
3
72
28
73
24
40
0
40
0
40
0
40
0
40
0.125
40
0.125
40
0.1875
40
0.1875
40
0.21875
40
0.21875
40
0.25
40
0.25
40
0.375
40
0.375
40
0.5
40
0.5
40
0.625
40
0.625
40
0.65625
40
0.65625
40
0.6875
40
0.75
40
0.75
40
0.875
40
1
40
1
40
1
40
1
41
1
10
63.4343427619683
20
-2.28904184010784
30
0
41
1
10
63.4234963254369
20
-2.06119149887263
30
0
41
1
10
63.4126779402191
20
-1.82970346169503
30
0
41
1
10
63.3964478986819
20
-1.47697773425861
30
0
41
1
10
63.3910369636897
20
-1.35848514338275
30
0
41
1
10
63.382908280333
20
-1.17934936770894
30
0
41
1
10
63.3801966314002
20
-1.11940451146592
30
0
41
1
10
63.3747668144308
20
-0.999044010143393
30
0
41
1
10
63.3720446706199
20
-0.938539660407429
30
0
41
1
10
63.3584686653229
20
-0.636115539369058
30
0
41
1
10
63.3477271996676
20
-0.394633126767189
30
0
41
1
10
63.32626573727
20
0.0874387754961674
30
0
41
1
10
63.3155458143356
20
0.328028181789051
30
0
41
1
10
63.2938536019746
20
0.808303516612312
30
0
41
1
10
63.2828369636866
20
1.0479875192207
30
0
41
1
10
63.268889918833
20
1.34701058255865
30
0
41
1
10
63.2660908416383
20
1.40684131102691
30
0
41
1
10
63.2604933083888
20
1.52619620348611
30
0
41
1
10
63.2521172632673
20
1.70435340614469
30
0
41
1
10
63.243813743777
20
1.87991879087173
30
0
41
1
10
63.227316441686
20
2.22765478847316
30
0
41
1
10
63.2056243082274
20
2.68226777160243
30
0
41
1
10
63.1843838595299
20
3.11900812720401
30
0
41
1
10
63.1737394330498
20
3.33281437501037
30
0
0
SPLINE
5
18C
100
AcDbEntity
8
1
62
256
6
ByLayer
370
13
48
1
60
0
100
AcDbSpline
70
4
71
3
72
9
73
5
40
0
40
0
40
0
40
0
40
0.728086859234745
40
1
40
1
40
1
40
1
41
1.04
10
66.1912775954949
20
-3.68349927572935
30
0
41
1.04
10
66.1361694163254
20
-2.87095460684535
30
0
41
1.04
10
66.058785775731
20
-1.5023463405299
30
0
41
1.04
10
65.9764152115585
20
0.0511215235656201
30
0
41
1.04
10
65.9536393771224
20
0.476641552532715
30
0
0
SPLINE
5
18D
100
AcDbEntity
8
1
62
256
6
ByLayer
370
13
48
1
60
0
100
AcDbSpline
70
4
71
3
72
10
73
6
40
0
40
0
40
0
40
0
40
0.403841139728013
40
0.915111729493627
40
1
40
1
40
1
40
1
41
1
10
62.5315596947569
20
-0.961593390340198
30
0
41
1
10
62.5005304656454
20
-0.387905156674123
30
0
41
1
10
62.4290055616347
20
0.965549904867999
30
0
41
1
10
62.3480815681898
20
2.42674693424553
30
0
41
1
10
62.3009776024981
20
3.17785480281728
30
0
41
1
10
62.2942954761469
20
3.28222284644613
30
0
0
SPLINE
5
18E
100
AcDbEntity
8
1
62
256
6
ByLayer
370
18
48
1
60
0
100
AcDbSpline
70
4
71
3
72
29
73
25
40
0
40
0
40
0
40
0
40
0.124999999999998
40
0.124999999999998
40
0.187499999999998
40
0.187499999999998
40
0.218749999999997
40
0.218749999999997
40
0.249999999999997
40
0.249999999999997
40
0.374999999999997
40
0.374999999999997
40
0.499999999999998
40
0.499999999999998
40
0.624999999999998
40
0.624999999999998
40
0.656249999999998
40
0.656249999999998
40
0.687499999999999
40
0.749999999999999
40
0.749999999999999
40
0.874999999999999
40
0.874999999999999
40
1
40
1
40
1
40
1
41
1
10
62.962981724743
20
3.51236453591761
30
0
41
1
10
62.9739627652235
20
3.30340109525747
30
0
41
1
10
62.9851689324589
20
3.08846630065219
30
0
41
1
10
63.0018947376761
20
2.75697214469545
30
0
41
1
10
63.0074599905959
20
2.64495596424916
30
0
41
1
10
63.0157741325525
20
2.47461109606016
30
0
41
1
10
63.0185419137752
20
2.41740509414814
30
0
41
1
10
63.0240586880861
20
2.30237009748237
30
0
41
1
10
63.026799413314
20
2.24471423699714
30
0
41
1
10
63.0404201267828
20
1.95575150539395
30
0
41
1
10
63.051034147116
20
1.72239907252603
30
0
41
1
10
63.0721142674794
20
1.25146532502001
30
0
41
1
10
63.0826159221594
20
1.01388527653003
30
0
41
1
10
63.1041673584868
20
0.534510770001759
30
0
41
1
10
63.1151377528575
20
0.29271332018044
30
0
41
1
10
63.1289893717296
20
-0.0122713584542282
30
0
41
1
10
63.1317594212041
20
-0.0732401910469775
30
0
41
1
10
63.137284040501
20
-0.194824687461477
30
0
41
1
10
63.1455543573358
20
-0.376812944846279
30
0
41
1
10
63.1537707572344
20
-0.557648776905296
30
0
41
1
10
63.1701371663745
20
-0.917805872561445
30
0
41
1
10
63.1809523152938
20
-1.15589536846116
30
0
41
1
10
63.2025783748245
20
-1.62805724730433
30
0
41
1
10
63.2134237334748
20
-1.86212831861599
30
0
41
1
10
63.2243773184342
20
-2.09413346159923
30
0
0
SPLINE
5
18F
100
AcDbEntity
8
1
62
256
6
ByLayer
370
18
48
1
60
0
100
AcDbSpline
70
4
71
3
72
30
73
26
40
0
40
0
40
0
40
0
40
0.03125
40
0.03125
40
0.0624999999999999
40
0.0624999999999999
40
0.125
40
0.125
40
0.25
40
0.25
40
0.374999999999999
40
0.374999999999999
40
0.437499999999999
40
0.437499999999999
40
0.468749999999999
40
0.468749999999999
40
0.499999999999999
40
0.499999999999999
40
0.624999999999999
40
0.624999999999999
40
0.75
40
0.75
40
0.875
40
0.875
40
1
40
1
40
1
40
1
41
1
10
61.3430141821157
20
-0.288967631444621
30
0
41
1
10
61.3403203728585
20
-0.228441679504641
30
0
41
1
10
61.3376223884557
20
-0.167784875698942
30
0
41
1
10
61.3322131875825
20
-0.0462069263008971
30
0
41
1
10
61.3294980774768
20
0.0148014879316349
30
0
41
1
10
61.3213636648732
20
0.197350779635315
30
0
41
1
10
61.3159510258972
20
0.318514702197973
30
0
41
1
10
61.2996728274051
20
0.680429281363558
30
0
41
1
10
61.2887190080068
20
0.919604597288327
30
0
41
1
10
61.2665437674637
20
1.39382285852812
30
0
41
1
10
61.2554190672187
20
1.62887017105746
30
0
41
1
10
61.2389263619386
20
1.97831612042688
30
0
41
1
10
61.2334574649831
20
2.09427608807726
30
0
41
1
10
61.2252950760229
20
2.26741791903657
30
0
41
1
10
61.2225777708682
20
2.32506457016916
30
0
41
1
10
61.2171678343784
20
2.43977681890891
30
0
41
1
10
61.2144797082703
20
2.49674677988935
30
0
41
1
10
61.2011093157945
20
2.77968770397501
30
0
41
1
10
61.19065468809
20
2.99994796613555
30
0
41
1
10
61.1696009038054
20
3.42858052030223
30
0
41
1
10
61.1588904189881
20
3.63694787104743
30
0
41
1
10
61.1370333978957
20
4.04173124139885
30
0
41
1
10
61.125956045042
20
4.23815125852175
30
0
41
1
10
61.1037097737907
20
4.61861744204526
30
0
41
1
10
61.0927335751143
20
4.79941557153029
30
0
41
1
10
61.0818625718343
20
4.97098491552987
30
0
0
SPLINE
5
190
100
AcDbEntity
8
1
62
256
6
ByLayer
370
13
48
1
60
0
100
AcDbSpline
70
4
71
3
72
10
73
6
40
0
40
0
40
0
40
0
40
0.299401280212755
40
0.811515325993711
40
1
40
1
40
1
40
1
41
1.04
10
62.0077628671361
20
-0.534855264379776
30
0
41
1.04
10
61.9845925645939
20
-0.102659497570092
30
0
41
1.04
10
61.9210124102751
20
1.09402095894224
30
0
41
1.04
10
61.8402216674146
20
2.55483247287644
30
0
41
1.04
10
61.7851884307959
20
3.41404456910346
30
0
41
1.04
10
61.7705179287832
20
3.63166162354632
30
0
0
SPLINE
5
191
100
AcDbEntity
8
1
62
256
6
ByLayer
370
18
48
1
60
0
100
AcDbSpline
70
4
71
3
72
26
73
22
40
0
40
0
40
0
40
0
40
0.125
40
0.125
40
0.25
40
0.25
40
0.374999999999999
40
0.374999999999999
40
0.499999999999999
40
0.499999999999999
40
0.624999999999999
40
0.624999999999999
40
0.749999999999999
40
0.749999999999999
40
0.781249999999999
40
0.781249999999999
40
0.812499999999999
40
0.812499999999999
40
0.874999999999999
40
0.874999999999999
40
1
40
1
40
1
40
1
41
1
10
60.8845299461633
20
4.91475658074427
30
0
41
1
10
60.8946757960541
20
4.74878045915014
30
0
41
1
10
60.9047577376323
20
4.57600854118414
30
0
41
1
10
60.9252513200924
20
4.21718163409679
30
0
41
1
10
60.935718930738
20
4.03112851952619
30
0
41
1
10
60.956701286815
20
3.64564194165464
30
0
41
1
10
60.9672024860288
20
3.44620502320132
30
0
41
1
10
60.9881410552693
20
3.03348352137613
30
0
41
1
10
60.9984086824443
20
2.82363350100911
30
0
41
1
10
61.0188947046649
20
2.39721044224103
30
0
41
1
10
61.0291107787191
20
2.1806366775636
30
0
41
1
10
61.0496314189854
20
1.74081501775416
30
0
41
1
10
61.0599345201967
20
1.517567312377
30
0
41
1
10
61.0729162147416
20
1.23424721341541
30
0
41
1
10
61.0755175998285
20
1.17736968335285
30
0
41
1
10
61.0807314054086
20
1.06318336589584
30
0
41
1
10
61.0833461149609
20
1.00582424344168
30
0
41
1
10
61.0911927476283
20
0.833430939539369
30
0
41
1
10
61.0964039665984
20
0.718591630620949
30
0
41
1
10
61.111987997406
20
0.374337241849304
30
0
41
1
10
61.1223102289172
20
0.145185035970116
30
0
41
1
10
61.1325961830721
20
-0.0836220076682821
30
0
0
SPLINE
5
192
100
AcDbEntity
8
1
62
256
6
ByLayer
370
18
48
1
60
0
100
AcDbSpline
70
4
71
3
72
8
73
4
40
0
40
0
40
0
40
0
40
1
40
1
40
1
40
1
41
1
10
60.2887339652418
20
4.19656993533991
30
0
41
1
10
60.4873305474529
20
4.43675311995338
30
0
41
1
10
60.6859303411887
20
4.67615205924506
30
0
41
1
10
60.884529946162
20
4.91475658076519
30
0
0
SPLINE
5
193
100
AcDbEntity
8
1
62
256
6
ByLayer
370
18
48
1
60
0
100
AcDbSpline
70
4
71
3
72
18
73
14
40
0
40
0
40
0
40
0
40
0.250000000000008
40
0.250000000000008
40
0.500000000000016
40
0.500000000000016
40
0.625000000000012
40
0.625000000000012
40
0.750000000000008
40
0.750000000000008
40
0.875000000000004
40
0.875000000000004
40
1
40
1
40
1
40
1
41
1
10
60.2311280901375
20
4.19830690722742
30
0
41
1
10
60.2346748220007
20
4.1944279605797
30
0
41
1
10
60.2383990902594
20
4.19093135338593
30
0
41
1
10
60.2463926608327
20
4.18515738718631
30
0
41
1
10
60.2506736512702
20
4.1828661738684
30
0
41
1
10
60.2576327021065
20
4.18110178895571
30
0
41
1
10
60.2600470121869
20
4.18079274233546
30
0
41
1
10
60.2651383164602
20
4.1809588657637
30
0
41
1
10
60.267843707426
20
4.18144308373888
30
0
41
1
10
60.2734741579798
20
4.18352470737628
30
0
41
1
10
60.2763923883824
20
4.1851088981729
30
0
41
1
10
60.282510494575
20
4.18977597667273
30
0
41
1
10
60.2856141264139
20
4.19279679475102
30
0
41
1
10
60.2887339652416
20
4.1965699353398
30
0
0
SPLINE
5
194
100
AcDbEntity
8
1
62
256
6
ByLayer
370
13
48
1
60
0
100
AcDbSpline
70
4
71
3
72
10
73
6
40
0
40
0
40
0
40
0
40
0.421899565346033
40
0.807047421279104
40
1
40
1
40
1
40
1
41
1
10
60.4398643141858
20
0.749807183446933
30
0
41
1
10
60.4119599054401
20
1.26741900605464
30
0
41
1
10
60.3574986700243
20
2.25929347547952
30
0
41
1
10
60.2865434888348
20
3.42742159066279
30
0
41
1
10
60.2450252127094
20
4.0140241339563
30
0
41
1
10
60.2311280901374
20
4.19830690722767
30
0
0
SPLINE
5
195
100
AcDbEntity
8
1
62
256
6
ByLayer
370
18
48
1
60
0
100
AcDbSpline
70
4
71
3
72
33
73
29
40
0
40
0
40
0
40
0
40
0.03125
40
0.03125
40
0.0624999999999999
40
0.125
40
0.125
40
0.249999999999999
40
0.249999999999999
40
0.374999999999999
40
0.374999999999999
40
0.406249999999999
40
0.406249999999999
40
0.4375
40
0.4375
40
0.5
40
0.5
40
0.625
40
0.625
40
0.75
40
0.75
40
0.8125
40
0.8125
40
0.84375
40
0.84375
40
0.875
40
0.875
40
1
40
1
40
1
40
1
41
1
10
65.5262085870291
20
-4.10057722448607
30
0
41
1
10
65.5234644882912
20
-4.05095416553411
30
0
41
1
10
65.5207135310033
20
-4.00071250567919
30
0
41
1
10
65.5152322371438
20
-3.89964558163987
30
0
41
1
10
65.5070338019948
20
-3.74703987394918
30
0
41
1
10
65.4988972474873
20
-3.59145436965966
30
0
41
1
10
65.4826790607885
20
-3.27637560711867
30
0
41
1
10
65.4719407837954
20
-3.06112267532112
30
0
41
1
10
65.450438998367
20
-2.62031468583678
30
0
41
1
10
65.4396744151523
20
-2.39476003552025
30
0
41
1
10
65.4260890003919
20
-2.10623733466573
30
0
41
1
10
65.4233654613325
20
-2.04820300268526
30
0
41
1
10
65.4179028450018
20
-1.93146783070611
30
0
41
1
10
65.4151599154403
20
-1.87268417533772
30
0
41
1
10
65.4069347793022
20
-1.69598048408699
30
0
41
1
10
65.4014634269628
20
-1.57786912197332
30
0
41
1
10
65.3850636060721
20
-1.22262867044333
30
0
41
1
10
65.3741403149737
20
-0.984595951449535
30
0
41
1
10
65.3523140866384
20
-0.506162625132987
30
0
41
1
10
65.3414359014271
20
-0.265760869393517
30
0
41
1
10
65.3251626702061
20
0.0966423922615434
30
0
41
1
10
65.3197437334865
20
0.217744076351806
30
0
41
1
10
65.3116074831598
20
0.399855152928694
30
0
41
1
10
65.308892495673
20
0.460668941474296
30
0
41
1
10
65.3034623106181
20
0.582308686932436
30
0
41
1
10
65.3007558575171
20
0.642938518954622
30
0
41
1
10
65.2872556993363
20
0.945148313754402
30
0
41
1
10
65.2765606514723
20
1.18391786707471
30
0
41
1
10
65.2658058874678
20
1.41976389676645
30
0
0
SPLINE
5
196
100
AcDbEntity
8
1
62
256
6
ByLayer
370
18
48
1
60
0
100
AcDbSpline
70
4
71
3
72
30
73
26
40
0
40
0
40
0
40
0
40
0.0312500000000001
40
0.0312500000000001
40
0.0625000000000002
40
0.125
40
0.125
40
0.25
40
0.375
40
0.375
40
0.4375
40
0.4375
40
0.5
40
0.5
40
0.625000000000001
40
0.625000000000001
40
0.750000000000001
40
0.750000000000001
40
0.812500000000001
40
0.812500000000001
40
0.843750000000001
40
0.843750000000001
40
0.875000000000001
40
0.875000000000001
40
1
40
1
40
1
40
1
41
1
10
65.0554050911591
20
1.6196359554028
30
0
41
1
10
65.0580800940168
20
1.56047085260917
30
0
41
1
10
65.0607615749794
20
1.50095598339718
30
0
41
1
10
65.0661270627309
20
1.38160237257247
30
0
41
1
10
65.074161324745
20
1.2024762188214
30
0
41
1
10
65.082189076658
20
1.02306802606375
30
0
41
1
10
65.0983260057316
20
0.663886218364922
30
0
41
1
10
65.120019517592
20
0.1840027834875
30
0
41
1
10
65.1419076637401
20
-0.297814117528873
30
0
41
1
10
65.1583923499328
20
-0.659916656609255
30
0
41
1
10
65.1638992858398
20
-0.780741025647473
30
0
41
1
10
65.1749444723208
20
-1.02264199853534
30
0
41
1
10
65.1804395319373
20
-1.14277163978022
30
0
41
1
10
65.1968379919467
20
-1.50024084310428
30
0
41
1
10
65.2076632899141
20
-1.73489507296173
30
0
41
1
10
65.2292491117195
20
-2.19703013958593
30
0
41
1
10
65.2400105762094
20
-2.4245107319
30
0
41
1
10
65.2562544051269
20
-2.76028807606215
30
0
41
1
10
65.2616828210269
20
-2.87130500346891
30
0
41
1
10
65.2698370728459
20
-3.03644398105644
30
0
41
1
10
65.2725572639776
20
-3.0912591121606
30
0
41
1
10
65.2780024083915
20
-3.200421557796
30
0
41
1
10
65.2807251917806
20
-3.25472438269526
30
0
41
1
10
65.2942775014237
20
-3.52351216263577
30
0
41
1
10
65.3049705192998
20
-3.7310470390174
30
0
41
1
10
65.3156794459872
20
-3.93130384681487
30
0
0
SPLINE
5
197
100
AcDbEntity
8
1
62
256
6
ByLayer
370
18
48
1
60
0
100
AcDbSpline
70
4
71
3
72
84
73
80
40
0
40
0
40
0
40
0
40
0.0164535776353203
40
0.0164535776353203
40
0.0331238559804849
40
0.0331238559804849
40
0.0664644126708127
40
0.0664644126708127
40
0.133145526051467
40
0.133145526051467
40
0.149815804396631
40
0.149815804396631
40
0.166486082741794
40
0.166486082741794
40
0.199826639432121
40
0.199826639432121
40
0.233167196122448
40
0.233167196122448
40
0.249837474467612
40
0.249837474467612
40
0.266507752812776
40
0.266507752812776
40
0.333188866193431
40
0.333188866193431
40
0.349859144538595
40
0.349859144538595
40
0.366529422883759
40
0.366529422883759
40
0.399869979574087
40
0.399869979574087
40
0.433210536264415
40
0.433210536264415
40
0.466551092954743
40
0.466551092954743
40
0.483221371299907
40
0.483221371299907
40
0.49989164964507
40
0.533232206335398
40
0.533232206335398
40
0.549902484680562
40
0.549902484680562
40
0.566572763025726
40
0.566572763025726
40
0.58324304137089
40
0.58324304137089
40
0.599913319716054
40
0.599913319716054
40
0.66659443309671
40
0.66659443309671
40
0.699934989787038
40
0.699934989787038
40
0.733275546477365
40
0.733275546477365
40
0.766616103167693
40
0.766616103167693
40
0.774951242340275
40
0.774951242340275
40
0.783286381512858
40
0.799956659858022
40
0.799956659858022
40
0.816626938203187
40
0.816626938203187
40
0.833297216548351
40
0.833297216548351
40
0.86663777323868
40
0.86663777323868
40
0.89997832992901
40
0.89997832992901
40
0.916648608274174
40
0.916648608274174
40
0.933318886619339
40
0.933318886619339
40
0.966659443309668
40
0.966659443309668
40
0.974994582482251
40
0.974994582482251
40
0.983329721654834
40
0.983329721654834
40
1
40
1
40
1
40
1
41
1
10
57.7467782826754
20
-5.34999999445077
30
0
41
1
10
57.6383272748601
20
-5.34999637876732
30
0
41
1
10
57.5299430495002
20
-5.34819621583233
30
0
41
1
10
57.3117717091186
20
-5.34098233734238
30
0
41
1
10
57.201982444893
20
-5.33552297995843
30
0
41
1
10
56.872691659098
20
-5.31366925355348
30
0
41
1
10
56.6533328468162
20
-5.29178529354917
30
0
41
1
10
55.9946115077607
20
-5.20422329827815
30
0
41
1
10
55.5546030498975
20
-5.11659867722832
30
0
41
1
10
54.9991669288254
20
-4.9710922852621
30
0
41
1
10
54.88769930104
20
-4.9401508870896
30
0
41
1
10
54.6655816814081
20
-4.87497620571972
30
0
41
1
10
54.5547786626437
20
-4.84072139358983
30
0
41
1
10
54.2229949411492
20
-4.73308073325347
30
0
41
1
10
54.0026425052417
20
-4.65481695290165
30
0
41
1
10
53.5628634772963
20
-4.48594300897909
30
0
41
1
10
53.3434236715308
20
-4.39533912066065
30
0
41
1
10
53.0142402969439
20
-4.25081044985888
30
0
41
1
10
52.904511315266
20
-4.20119558716937
30
0
41
1
10
52.6849553550969
20
-4.09918058867197
30
0
41
1
10
52.5751435551089
20
-4.0467687725079
30
0
41
1
10
52.0261306651296
20
-3.77747118067117
30
0
41
1
10
51.5866462066519
20
-3.53921212335823
30
0
41
1
10
51.0327876978288
20
-3.2161344453238
30
0
41
1
10
50.921762591354
20
-3.15024463393976
30
0
41
1
10
50.6991830491389
20
-3.01618473324851
30
0
41
1
10
50.5881000402521
20
-2.94827751392671
30
0
41
1
10
50.2555117222287
20
-2.74190384063306
30
0
41
1
10
50.0347486669453
20
-2.60068667957904
30
0
41
1
10
49.5944407306255
20
-2.31190453240831
30
0
41
1
10
49.3748704967242
20
-2.16436999903687
30
0
41
1
10
48.936082103788
20
-1.86407818208423
30
0
41
1
10
48.7168645149029
20
-1.71131908975482
30
0
41
1
10
48.3875765533301
20
-1.47922443254126
30
0
41
1
10
48.2777370938848
20
-1.40136776699188
30
0
41
1
10
48.0580062943679
20
-1.24453305052603
30
0
41
1
10
47.7282968622197
20
-1.00764410567416
30
0
41
1
10
47.3977785895596
20
-0.766435878217948
30
0
41
1
10
47.0661376740683
20
-0.523083009561418
30
0
41
1
10
46.9554064356782
20
-0.441603946102873
30
0
41
1
10
46.733464428035
20
-0.278064851539426
30
0
41
1
10
46.6221153650191
20
-0.195906699303464
30
0
41
1
10
46.4000627223365
20
-0.0321196920952502
30
0
41
1
10
46.2892339435713
20
0.0495873764078283
30
0
41
1
10
46.067878873664
20
0.212512059851804
30
0
41
1
10
45.957376964968
20
0.293764323037152
30
0
41
1
10
45.4058567842969
20
0.699148472231457
30
0
41
1
10
44.9675759719236
20
1.02031526667889
30
0
41
1
10
44.3096257608916
20
1.49076518022631
30
0
41
1
10
44.0901687115255
20
1.6456313269901
30
0
41
1
10
43.6503478413571
20
1.95063918984292
30
0
41
1
10
43.4301911588809
20
2.1010502618368
30
0
41
1
10
42.988710388758
20
2.39675133763649
30
0
41
1
10
42.767363603924
20
2.54201155030413
30
0
41
1
10
42.4893674234397
20
2.7195984967785
30
0
41
1
10
42.4337775889958
20
2.75486836439572
30
0
41
1
10
42.3227571594755
20
2.82480305630509
30
0
41
1
10
42.1563922174437
20
2.92884247543358
30
0
41
1
10
41.9904725250879
20
3.03025319038946
30
0
41
1
10
41.7695226858741
20
3.16302828222396
30
0
41
1
10
41.659151541185
20
3.22815907656098
30
0
41
1
10
41.4387797597066
20
3.35611446068103
30
0
41
1
10
41.3287543329903
20
3.4189097148392
30
0
41
1
10
40.998989728222
20
3.60358254303742
30
0
41
1
10
40.779598228899
20
3.7217855923567
30
0
41
1
10
40.3409860868651
20
3.94766128124544
30
0
41
1
10
40.1217437807581
20
4.0553116263246
30
0
41
1
10
39.7923513956734
20
4.20827747583118
30
0
41
1
10
39.6824678471707
20
4.25784983929776
30
0
41
1
10
39.4624161568964
20
4.35406215070853
30
0
41
1
10
39.3522144209762
20
4.40067674511562
30
0
41
1
10
39.0213487164592
20
4.53623343883584
30
0
41
1
10
38.8003551627726
20
4.62082362265389
30
0
41
1
10
38.5229883705388
20
4.71872004900899
30
0
41
1
10
38.4674611862101
20
4.73790908983423
30
0
41
1
10
38.3562879791073
20
4.77549404071391
30
0
41
1
10
38.3006892998656
20
4.79387292734333
30
0
41
1
10
38.1341743603132
20
4.8476459429815
30
0
41
1
10
38.0234037252042
20
4.88172203019258
30
0
41
1
10
37.9128093402215
20
4.91401246055369
30
0
0
SPLINE
5
198
100
AcDbEntity
8
1
62
256
6
ByLayer
370
18
48
1
60
0
100
AcDbSpline
70
4
71
3
72
36
73
32
40
0
40
0
40
0
40
0
40
0.0105941551024585
40
0.0105941551024585
40
0.0706269732130276
40
0.0706269732130276
40
0.130659791323597
40
0.130659791323597
40
0.250725427544736
40
0.250725427544736
40
0.310758245655305
40
0.310758245655305
40
0.370791063765875
40
0.370791063765875
40
0.430823881876445
40
0.430823881876445
40
0.490856699987015
40
0.490856699987015
40
0.610922336208153
40
0.610922336208153
40
0.670955154318723
40
0.670955154318723
40
0.730987972429293
40
0.730987972429293
40
0.851053608650434
40
0.851053608650434
40
0.911086426761004
40
0.911086426761004
40
0.971119244871573
40
0.971119244871573
40
1
40
1
40
1
40
1
41
1
10
37.9127673336735
20
4.9139837947757
30
0
41
1
10
37.9057590209672
20
4.89917723288414
30
0
41
1
10
37.8986027370245
20
4.88426699217217
30
0
41
1
10
37.849839435368
20
4.78412704217874
30
0
41
1
10
37.8039084684413
20
4.69586767682964
30
0
41
1
10
37.7026555098495
20
4.51276894861547
30
0
41
1
10
37.6468441155894
20
4.41718095339761
30
0
41
1
10
37.4677284492053
20
4.12588904435617
30
0
41
1
10
37.3333427677518
20
3.92596689809648
30
0
41
1
10
37.1050798470087
20
3.61587776581723
30
0
41
1
10
37.0261682372568
20
3.51307701849046
30
0
41
1
10
36.8633391936181
20
3.30997163129678
30
0
41
1
10
36.7796811255231
20
3.20930012554137
30
0
41
1
10
36.6093644052022
20
3.0091356403139
30
0
41
1
10
36.5222053127602
20
2.90950375567709
30
0
41
1
10
36.3479041468537
20
2.71604141695749
30
0
41
1
10
36.2603362079574
20
2.62169704680898
30
0
41
1
10
35.9963201871618
20
2.34616824480708
30
0
41
1
10
35.8167637009436
20
2.1710034987174
30
0
41
1
10
35.5595343209174
20
1.93938779150349
30
0
41
1
10
35.4752753614144
20
1.86677546634996
30
0
41
1
10
35.3098101710032
20
1.73099780404672
30
0
41
1
10
35.2280444482936
20
1.6674309500421
30
0
41
1
10
34.9917736018392
20
1.49484294514897
30
0
41
1
10
34.8480045657203
20
1.40451177633267
30
0
41
1
10
34.6510092593383
20
1.30258188317143
30
0
41
1
10
34.5886333803315
20
1.27443764293776
30
0
41
1
10
34.4728163229622
20
1.23022229882614
30
0
41
1
10
34.4189434002527
20
1.21391302583643
30
0
41
1
10
34.3446530293449
20
1.19765993558525
30
0
41
1
10
34.3213645452833
20
1.19361779764694
30
0
41
1
10
34.2989228121412
20
1.19077895267978
30
0
0
SPLINE
5
199
100
AcDbEntity
8
1
62
256
6
ByLayer
370
18
48
1
60
0
100
AcDbSpline
70
4
71
3
72
86
73
82
40
0
40
0
40
0
40
0
40
0.0421443024533805
40
0.0421443024533805
40
0.0632164536800707
40
0.0632164536800707
40
0.0842886049067609
40
0.0842886049067609
40
0.126432907360141
40
0.126432907360141
40
0.168577209813522
40
0.168577209813522
40
0.179113285426867
40
0.179113285426867
40
0.189649361040212
40
0.189649361040212
40
0.200185436653557
40
0.200185436653557
40
0.210721512266902
40
0.210721512266902
40
0.252865814720285
40
0.252865814720285
40
0.273937965946978
40
0.273937965946978
40
0.29501011717367
40
0.29501011717367
40
0.316082268400362
40
0.316082268400362
40
0.337154419627055
40
0.337154419627055
40
0.37929872208044
40
0.37929872208044
40
0.400370873307132
40
0.400370873307132
40
0.410906948920479
40
0.410906948920479
40
0.421443024533826
40
0.421443024533826
40
0.463587326987211
40
0.463587326987211
40
0.505731629440595
40
0.505731629440595
40
0.526803780667287
40
0.526803780667287
40
0.547875931893979
40
0.547875931893979
40
0.590020234347362
40
0.590020234347362
40
0.632164536800746
40
0.632164536800746
40
0.642700612414092
40
0.642700612414092
40
0.653236688027439
40
0.653236688027439
40
0.674308839254132
40
0.674308839254132
40
0.716453141707517
40
0.716453141707517
40
0.758597444160901
40
0.758597444160901
40
0.779669595387593
40
0.779669595387593
40
0.800741746614285
40
0.800741746614285
40
0.84288604906767
40
0.84288604906767
40
0.863958200294363
40
0.863958200294363
40
0.87449427590771
40
0.87449427590771
40
0.885030351521058
40
0.885030351521058
40
0.906102502747752
40
0.906102502747752
40
0.927174653974447
40
0.927174653974447
40
0.969318956427835
40
0.969318956427835
40
0.990391107654529
40
0.990391107654529
40
1
40
1
40
1
40
1
41
1
10
33.9563731766788
20
1.45351017213233
30
0
41
1
10
34.2191194573491
20
1.2680195617578
30
0
41
1
10
34.4807584032277
20
1.0804060112911
30
0
41
1
10
34.8720534178219
20
0.796490793489966
30
0
41
1
10
35.0022847782856
20
0.701427704584233
30
0
41
1
10
35.2623500425652
20
0.510455317603117
30
0
41
1
10
35.3924299650369
20
0.414883470980129
30
0
41
1
10
35.7830106827017
20
0.128189732050657
30
0
41
1
10
36.0437219078301
20
-0.0630887975459018
30
0
41
1
10
36.566111439354
20
-0.445503410585047
30
0
41
1
10
36.8277485741367
20
-0.63669623370555
30
0
41
1
10
37.1554839070129
20
-0.875503441235594
30
0
41
1
10
37.2210713746373
20
-0.9232474919678
30
0
41
1
10
37.3523498411668
20
-1.01866994734957
30
0
41
1
10
37.4180485231706
20
-1.06633767262872
30
0
41
1
10
37.5497075683242
20
-1.16138696816674
30
0
41
1
10
37.615715429618
20
-1.20882801586731
30
0
41
1
10
37.7476047295122
20
-1.30320009378346
30
0
41
1
10
37.8134885957899
20
-1.35013355944753
30
0
41
1
10
38.1426248140467
20
-1.58352856526349
30
0
41
1
10
38.405053982066
20
-1.7661529263533
30
0
41
1
10
38.7973825040788
20
-2.03414561221209
30
0
41
1
10
38.927946029661
20
-2.12247385365362
30
0
41
1
10
39.1887243849803
20
-2.29703145101087
30
0
41
1
10
39.3189252077001
20
-2.38327934412544
30
0
41
1
10
39.5788817077306
20
-2.55377820104224
30
0
41
1
10
39.7088866077053
20
-2.6377221701982
30
0
41
1
10
39.969189648148
20
-2.8027316063567
30
0
41
1
10
40.0994492355693
20
-2.88384395543775
30
0
41
1
10
40.4906411044092
20
-3.12291163364955
30
0
41
1
10
40.7520119655093
20
-3.27657977722032
30
0
41
1
10
41.1450115930948
20
-3.49831277930164
30
0
41
1
10
41.2761656440177
20
-3.57076190948362
30
0
41
1
10
41.4732638947032
20
-3.67706597704665
30
0
41
1
10
41.5390275557168
20
-3.71210264317296
30
0
41
1
10
41.6706870324554
20
-3.78137000668673
30
0
41
1
10
41.7365875574347
20
-3.81565756085135
30
0
41
1
10
42.0660542393633
20
-3.98472765657232
30
0
41
1
10
42.3287359119694
20
-4.11110532511563
30
0
41
1
10
42.8526174249473
20
-4.34657809089748
30
0
41
1
10
43.1138835366463
20
-4.45561389310339
30
0
41
1
10
43.5049684600689
20
-4.60613110807009
30
0
41
1
10
43.6351941627222
20
-4.65412721484523
30
0
41
1
10
43.8953832771881
20
-4.74573650679727
30
0
41
1
10
44.025305583075
20
-4.78936923922367
30
0
41
1
10
44.4156067082451
20
-4.91307936308058
30
0
41
1
10
44.6764850325817
20
-4.98603442121848
30
0
41
1
10
45.1998357838564
20
-5.11280426360062
30
0
41
1
10
45.4622853658412
20
-5.16663106890675
30
0
41
1
10
45.7914909395718
20
-5.22155024018494
30
0
41
1
10
45.8573888995235
20
-5.23191453408518
30
0
41
1
10
45.9893112954575
20
-5.25138559659067
30
0
41
1
10
46.0552024745332
20
-5.26047380878754
30
0
41
1
10
46.2525052079404
20
-5.28575475100504
30
0
41
1
10
46.3836951341328
20
-5.29996013752688
30
0
41
1
10
46.7770141363681
20
-5.33462861982449
30
0
41
1
10
47.038677878082
20
-5.34723419598683
30
0
41
1
10
47.5607841238049
20
-5.35195332108759
30
0
41
1
10
47.8213066130981
20
-5.34404696304918
30
0
41
1
10
48.2117090018758
20
-5.31677450369784
30
0
41
1
10
48.3417337724565
20
-5.30510252957464
30
0
41
1
10
48.6019089800276
20
-5.2766142330008
30
0
41
1
10
48.7321711403138
20
-5.25982300837623
30
0
41
1
10
49.1237251993176
20
-5.20189944235153
30
0
41
1
10
49.3856699209344
20
-5.15321254722375
30
0
41
1
10
49.780075982387
20
-5.06490022287821
30
0
41
1
10
49.911804937139
20
-5.03291585028353
30
0
41
1
10
50.1098163513181
20
-4.98105961611162
30
0
41
1
10
50.1758724592975
20
-4.96313021166753
30
0
41
1
10
50.3076493756327
20
-4.92610189474945
30
0
41
1
10
50.3734273334158
20
-4.90698714042543
30
0
41
1
10
50.5704401856735
20
-4.84785011085785
30
0
41
1
10
50.701365118362
20
-4.80603669298375
30
0
41
1
10
50.9629763701452
20
-4.71804434365384
30
0
41
1
10
51.0937452306082
20
-4.67192546715171
30
0
41
1
10
51.4857701641203
20
-4.52721180834496
30
0
41
1
10
51.7466223167088
20
-4.42217647610696
30
0
41
1
10
52.1375618726296
20
-4.25220953903857
30
0
41
1
10
52.267815806724
20
-4.19348080516735
30
0
41
1
10
52.4573819089816
20
-4.10493958384393
30
0
41
1
10
52.516732093243
20
-4.07676973403088
30
0
41
1
10
52.5760717023793
20
-4.04816539015093
30
0
0
SPLINE
5
19A
100
AcDbEntity
8
1
62
256
6
ByLayer
370
18
48
1
60
0
100
AcDbSpline
70
4
71
3
72
8
73
4
40
0
40
0
40
0
40
0
40
1
40
1
40
1
40
1
41
1
10
67.4076878820549
20
-5.4443834693962
30
0
41
1
10
67.4779156619933
20
-5.48823033342347
30
0
41
1
10
67.54814536946
20
-5.53131277759681
30
0
41
1
10
67.6183916104747
20
-5.57362081089082
30
0
0
SPLINE
5
19B
100
AcDbEntity
8
1
62
256
6
ByLayer
370
18
48
1
60
0
100
AcDbSpline
70
4
71
3
72
38
73
34
40
0
40
0
40
0
40
0
40
0.124999999999958
40
0.124999999999958
40
0.187499999999953
40
0.187499999999953
40
0.249999999999948
40
0.249999999999948
40
0.374999999999974
40
0.374999999999974
40
0.437499999999967
40
0.437499999999967
40
0.49999999999996
40
0.49999999999996
40
0.624999999999987
40
0.624999999999987
40
0.656249999999971
40
0.656249999999971
40
0.687499999999956
40
0.687499999999956
40
0.749999999999969
40
0.749999999999969
40
0.781249999999996
40
0.781249999999996
40
0.812500000000023
40
0.812500000000023
40
0.87500000000004
40
0.87500000000004
40
0.906250000000029
40
0.906250000000029
40
0.937500000000019
40
0.937500000000019
40
1
40
1
40
1
40
1
41
1
10
66.7150529366181
20
-4.01196516684763
30
0
41
1
10
66.7010128791378
20
-3.9836107366649
30
0
41
1
10
66.6846962423846
20
-3.95663263160745
30
0
41
1
10
66.6575501032788
20
-3.91778265954372
30
0
41
1
10
66.6480467059221
20
-3.90510789191828
30
0
41
1
10
66.6281707962717
20
-3.88028444995695
30
0
41
1
10
66.6178847189257
20
-3.86824703671496
30
0
41
1
10
66.5862564167361
20
-3.8334124326384
30
0
41
1
10
66.5640683788594
20
-3.81177071187747
30
0
41
1
10
66.5292011934893
20
-3.78160685693447
30
0
41
1
10
66.5173123919307
20
-3.7719467856455
30
0
41
1
10
66.4934186136049
20
-3.75374116057938
30
0
41
1
10
66.4813627505645
20
-3.74514993700686
30
0
41
1
10
66.4448777778417
20
-3.72092578151049
30
0
41
1
10
66.4201363453521
20
-3.70681251092611
30
0
41
1
10
66.3886532753734
20
-3.69213471593653
30
0
41
1
10
66.3823121868589
20
-3.68934367569051
30
0
41
1
10
66.3697054350826
20
-3.68413806284215
30
0
41
1
10
66.3634290172187
20
-3.68171760930935
30
0
41
1
10
66.3446857741928
20
-3.67502097167284
30
0
41
1
10
66.3323043838337
20
-3.67130597298259
30
0
41
1
10
66.3139325555534
20
-3.6669822686128
30
0
41
1
10
66.3078421186973
20
-3.6657499569715
30
0
41
1
10
66.295735146257
20
-3.66373643047825
30
0
41
1
10
66.2896980865582
20
-3.6629535583001
30
0
41
1
10
66.2718670691741
20
-3.6613615666484
30
0
41
1
10
66.2604128890498
20
-3.66130206039392
30
0
41
1
10
66.243964001228
20
-3.66289007618946
30
0
41
1
10
66.2386036111592
20
-3.66370021738211
30
0
41
1
10
66.228150003752
20
-3.66593141557848
30
0
41
1
10
66.2230368969117
20
-3.66735987596823
30
0
41
1
10
66.2082965057386
20
-3.67260731069612
30
0
41
1
10
66.1993122177498
20
-3.67734883579746
30
0
41
1
10
66.1912775954949
20
-3.68349927572933
30
0
0
SPLINE
5
19C
100
AcDbEntity
8
1
62
256
6
ByLayer
370
18
48
1
60
0
100
AcDbSpline
70
4
71
3
72
12
73
8
40
0
40
0
40
0
40
0
40
0.499999999999993
40
0.499999999999993
40
0.749999999999996
40
0.749999999999996
40
1
40
1
40
1
40
1
41
1
10
66.1912775954949
20
-3.68349927572933
30
0
41
1
10
66.0792197120552
20
-3.76927870121065
30
0
41
1
10
65.9676844713253
20
-3.84682040704689
30
0
41
1
10
65.8013335316326
20
-3.95104824768825
30
0
41
1
10
65.7460362225816
20
-3.98377442492355
30
0
41
1
10
65.6358564711932
20
-4.04517666032987
30
0
41
1
10
65.5809529091176
20
-4.07386626030993
30
0
41
1
10
65.526208587029
20
-4.1005772244861
30
0
0
SPLINE
5
19D
100
AcDbEntity
8
1
62
256
6
ByLayer
370
18
48
1
60
0
100
AcDbSpline
70
4
71
3
72
8
73
4
40
0
40
0
40
0
40
0
40
1
40
1
40
1
40
1
41
1
10
65.3156794459872
20
-3.93130384681487
30
0
41
1
10
65.3858501952107
20
-3.98828207581283
30
0
41
1
10
65.4560219722596
20
-4.04471058567648
30
0
41
1
10
65.5262085870291
20
-4.1005772244861
30
0
0
SPLINE
5
19E
100
AcDbEntity
8
1
62
256
6
ByLayer
370
18
48
1
60
0
100
AcDbSpline
70
4
71
3
72
12
73
8
40
0
40
0
40
0
40
0
40
0.249999999999997
40
0.249999999999997
40
0.499999999999994
40
0.499999999999994
40
1
40
1
40
1
40
1
41
1
10
65.3156794459872
20
-3.93130384681484
30
0
41
1
10
65.2586832102696
20
-3.81612732560796
30
0
41
1
10
65.2015379446985
20
-3.70180192668937
30
0
41
1
10
65.0868763734625
20
-3.47489727928183
30
0
41
1
10
65.029348007478
20
-3.36229461988631
30
0
41
1
10
64.8561707144667
20
-3.02733718811572
30
0
41
1
10
64.7401504470335
20
-2.80829051474797
30
0
41
1
10
64.6233096743658
20
-2.59365528121489
30
0
0
SPLINE
5
19F
100
AcDbEntity
8
1
62
256
6
ByLayer
370
18
48
1
60
0
100
AcDbSpline
70
4
71
3
72
37
73
33
40
0
40
0
40
0
40
0
40
0.12500000000005
40
0.12500000000005
40
0.187500000000075
40
0.187500000000075
40
0.250000000000099
40
0.250000000000099
40
0.375000000000147
40
0.375000000000147
40
0.437500000000151
40
0.437500000000151
40
0.500000000000156
40
0.500000000000156
40
0.625000000000165
40
0.625000000000165
40
0.656250000000167
40
0.656250000000167
40
0.68750000000017
40
0.750000000000135
40
0.750000000000135
40
0.781250000000118
40
0.781250000000118
40
0.812500000000101
40
0.812500000000101
40
0.875000000000066
40
0.875000000000066
40
0.90625000000005
40
0.90625000000005
40
0.937500000000035
40
0.937500000000035
40
1
40
1
40
1
40
1
41
1
10
64.6233096743658
20
-2.59365528121484
30
0
41
1
10
64.6092638528157
20
-2.56785325920026
30
0
41
1
10
64.5929400090374
20
-2.54256224854899
30
0
41
1
10
64.5657819839354
20
-2.50524539300514
30
0
41
1
10
64.5562744312045
20
-2.49291146599379
30
0
41
1
10
64.5363899170683
20
-2.46844443551379
30
0
41
1
10
64.5260995907612
20
-2.45642052735093
30
0
41
1
10
64.4944589868396
20
-2.42116448755041
30
0
41
1
10
64.4722633424942
20
-2.39863374858467
30
0
41
1
10
64.4373865037887
20
-2.36623258228585
30
0
41
1
10
64.4254958924673
20
-2.35567390373711
30
0
41
1
10
64.401598923894
20
-2.33539124600256
30
0
41
1
10
64.3895417216262
20
-2.32561878666976
30
0
41
1
10
64.3530535326907
20
-2.29741135246923
30
0
41
1
10
64.3283109934884
20
-2.28006556157931
30
0
41
1
10
64.2968283243845
20
-2.2604769596312
30
0
41
1
10
64.2904879651021
20
-2.25665696323978
30
0
41
1
10
64.2778843313093
20
-2.24932177911597
30
0
41
1
10
64.2590600692895
20
-2.23875413097738
30
0
41
1
10
64.2404928041111
20
-2.22952118055562
30
0
41
1
10
64.2221258964436
20
-2.22127225534689
30
0
41
1
10
64.216037110911
20
-2.21868724925497
30
0
41
1
10
64.2039334281196
20
-2.2138721825738
30
0
41
1
10
64.1978979132362
20
-2.21163522774504
30
0
41
1
10
64.1800729857981
20
-2.2055616996378
30
0
41
1
10
64.1686223574315
20
-2.20237267187358
30
0
41
1
10
64.1521779542101
20
-2.19902758654931
30
0
41
1
10
64.1468189188666
20
-2.19815339017848
30
0
41
1
10
64.1363677289542
20
-2.19692891305371
30
0
41
1
10
64.1312557063174
20
-2.19657862906811
30
0
41
1
10
64.1165179697652
20
-2.19640194133964
30
0
41
1
10
64.107534528991
20
-2.19743243938896
30
0
41
1
10
64.099500069503
20
-2.1997659113795
30
0
0
SPLINE
5
1A0
100
AcDbEntity
8
1
62
256
6
ByLayer
370
18
48
1
60
0
100
AcDbSpline
70
4
71
3
72
12
73
8
40
0
40
0
40
0
40
0
40
0.499999999999993
40
0.499999999999993
40
0.749999999999997
40
0.749999999999997
40
1
40
1
40
1
40
1
41
1
10
64.099500069503
20
-2.1997659113795
30
0
41
1
10
63.9874285300679
20
-2.23231518225401
30
0
41
1
10
63.8758777799818
20
-2.25581617094841
30
0
41
1
10
63.7095023650799
20
-2.27800799649913
30
0
41
1
10
63.6541973466487
20
-2.28321663620616
30
0
41
1
10
63.5440035530641
20
-2.28932993774453
30
0
41
1
10
63.4890934335303
20
-2.29023930299559
30
0
41
1
10
63.4343427619683
20
-2.28904184010784
30
0
0
SPLINE
5
1A1
100
AcDbEntity
8
1
62
256
6
ByLayer
370
18
48
1
60
0
100
AcDbSpline
70
4
71
3
72
8
73
4
40
0
40
0
40
0
40
0
40
1
40
1
40
1
40
1
41
1
10
63.2243773184342
20
-2.09413346159926
30
0
41
1
10
63.2943599617617
20
-2.15939776169691
30
0
41
1
10
63.3643438947429
20
-2.22437174371783
30
0
41
1
10
63.4343427619683
20
-2.28904184010784
30
0
0
SPLINE
5
1A2
100
AcDbEntity
8
1
62
256
6
ByLayer
370
18
48
1
60
0
100
AcDbSpline
70
4
71
3
72
10
73
6
40
0
40
0
40
0
40
0
40
0.5
40
0.5
40
1
40
1
40
1
40
1
41
1
10
63.2243773184342
20
-2.09413346159923
30
0
41
1
10
63.1102999780316
20
-1.89306803136077
30
0
41
1
10
62.9955914779901
20
-1.697808486638
30
0
41
1
10
62.7645380987026
20
-1.31963846424182
30
0
41
1
10
62.6484586366755
20
-1.13721236485676
30
0
41
1
10
62.5315596947575
20
-0.961593390351368
30
0
0
SPLINE
5
1A3
100
AcDbEntity
8
1
62
256
6
ByLayer
370
18
48
1
60
0
100
AcDbSpline
70
4
71
3
72
38
73
34
40
0
40
0
40
0
40
0
40
0.12500000000008
40
0.12500000000008
40
0.187500000000136
40
0.187500000000136
40
0.250000000000192
40
0.250000000000192
40
0.375000000000266
40
0.375000000000266
40
0.437500000000283
40
0.437500000000283
40
0.5000000000003
40
0.5000000000003
40
0.625000000000335
40
0.625000000000335
40
0.656250000000322
40
0.656250000000322
40
0.687500000000309
40
0.687500000000309
40
0.750000000000239
40
0.750000000000239
40
0.781250000000205
40
0.781250000000205
40
0.81250000000017
40
0.81250000000017
40
0.875000000000103
40
0.875000000000103
40
0.90625000000007
40
0.90625000000007
40
0.937500000000036
40
0.937500000000036
40
1
40
1
40
1
40
1
41
1
10
62.5315596947575
20
-0.961593390351311
30
0
41
1
10
62.5175077457975
20
-0.940482943792375
30
0
41
1
10
62.5011759514031
20
-0.918973758415689
30
0
41
1
10
62.4740048604622
20
-0.886278606902067
30
0
41
1
10
62.4644927425462
20
-0.875305969062993
30
0
41
1
10
62.4445987991447
20
-0.853218880571035
30
0
41
1
10
62.4343035862624
20
-0.842202263900674
30
0
41
1
10
62.4026492931367
20
-0.809438221895789
30
0
41
1
10
62.3804452479029
20
-0.78787920555223
30
0
41
1
10
62.3455578561637
20
-0.755915181659532
30
0
41
1
10
62.333665286599
20
-0.745329336230697
30
0
41
1
10
62.309765114494
20
-0.72464351068902
30
0
41
1
10
62.2977066987266
20
-0.714496218822603
30
0
41
1
10
62.2612160770553
20
-0.684632997398239
30
0
41
1
10
62.2364734803101
20
-0.665485770094818
30
0
41
1
10
62.2049933736809
20
-0.642602644669807
30
0
41
1
10
62.1986543862657
20
-0.638069157918181
30
0
41
1
10
62.186055517669
20
-0.629210893817316
30
0
41
1
10
62.1797831338447
20
-0.624876678411709
30
0
41
1
10
62.1610522890489
20
-0.612166083508811
30
0
41
1
10
62.1486795774
20
-0.604079920756902
30
0
41
1
10
62.1303213010942
20
-0.592589173496435
30
0
41
1
10
62.1242354660535
20
-0.588865750626525
30
0
41
1
10
62.112137817866
20
-0.581648498454655
30
0
41
1
10
62.1061052510408
20
-0.57814304034963
30
0
41
1
10
62.0882914249186
20
-0.568093371765912
30
0
41
1
10
62.0768479092643
20
-0.562040838709606
30
0
41
1
10
62.0604135392107
20
-0.554042571465885
30
0
41
1
10
62.0550577416174
20
-0.551557401533529
30
0
41
1
10
62.0446127695795
20
-0.546980504671438
30
0
41
1
10
62.0395038060416
20
-0.544881401670551
30
0
41
1
10
62.0247739983696
20
-0.539297372992053
30
0
41
1
10
62.015794564084
20
-0.536532260295417
30
0
41
1
10
62.0077628671361
20
-0.534855264379871
30
0
0
SPLINE
5
1A4
100
AcDbEntity
8
1
62
256
6
ByLayer
370
18
48
1
60
0
100
AcDbSpline
70
4
71
3
72
12
73
8
40
0
40
0
40
0
40
0
40
0.500000000000007
40
0.500000000000007
40
0.750000000000003
40
0.750000000000003
40
1
40
1
40
1
40
1
41
1
10
62.0077628671361
20
-0.534855264379786
30
0
41
1
10
61.8957520714301
20
-0.511467722728696
30
0
41
1
10
61.7842673536745
20
-0.478942346655032
30
0
41
1
10
61.6179935878317
20
-0.417255036329266
30
0
41
1
10
61.5627230203726
20
-0.394525608443473
30
0
41
1
10
61.4526003102306
20
-0.344877393929948
30
0
41
1
10
61.3977270377331
20
-0.317951441222562
30
0
41
1
10
61.3430141821157
20
-0.288967631444592
30
0
0
SPLINE
5
1A5
100
AcDbEntity
8
1
62
256
6
ByLayer
370
18
48
1
60
0
100
AcDbSpline
70
4
71
3
72
8
73
4
40
0
40
0
40
0
40
0
40
1
40
1
40
1
40
1
41
1
10
61.1325961830721
20
-0.0836220076683105
30
0
41
1
10
61.2027539716156
20
-0.152108947460476
30
0
41
1
10
61.27288933105
20
-0.220561539534572
30
0
41
1
10
61.3430141821157
20
-0.288967631444592
30
0
0
SPLINE
5
1A6
100
AcDbEntity
8
1
62
256
6
ByLayer
370
18
48
1
60
0
100
AcDbSpline
70
4
71
3
72
10
73
6
40
0
40
0
40
0
40
0
40
0.5
40
0.5
40
1
40
1
40
1
40
1
41
1
10
61.1325961830721
20
-0.0836220076683674
30
0
41
1
10
61.0185573104931
20
0.071443705205553
30
0
41
1
10
60.9038750649298
20
0.218735148164171
30
0
41
1
10
60.672835434052
20
0.497073669219873
30
0
41
1
10
60.5567511866113
20
0.62775394073293
30
0
41
1
10
60.4398643141858
20
0.749807183446677
30
0
0
SPLINE
5
1A7
100
AcDbEntity
8
1
62
256
6
ByLayer
370
18
48
1
60
0
100
AcDbSpline
70
4
71
3
72
19
73
15
40
0
40
0
40
0
40
0
40
0.125000000000008
40
0.125000000000008
40
0.250000000000017
40
0.250000000000017
40
0.375000000000025
40
0.375000000000025
40
0.500000000000033
40
0.625000000000042
40
0.625000000000042
40
0.75000000000005
40
0.75000000000005
40
1
40
1
40
1
40
1
41
1
10
60.4398643141858
20
0.749807183446734
30
0
41
1
10
60.431131537332
20
0.758925946835546
30
0
41
1
10
60.4215068515605
20
0.768546000141299
30
0
41
1
10
60.4007676413793
20
0.78860271287337
30
0
41
1
10
60.3896499944935
20
0.799041401871364
30
0
41
1
10
60.3660527969429
20
0.820659229442185
30
0
41
1
10
60.3535167818351
20
0.83188583145116
30
0
41
1
10
60.3276740187804
20
0.854583919704169
30
0
41
1
10
60.3009600746493
20
0.877622416328137
30
0
41
1
10
60.2726028099411
20
0.901331714587457
30
0
41
1
10
60.243422750877
20
0.925400161413535
30
0
41
1
10
60.2285838340466
20
0.937479266318348
30
0
41
1
10
60.1836798574648
20
0.973616359605984
30
0
41
1
10
60.1530999531214
20
0.997684954384539
30
0
41
1
10
60.1218476513278
20
1.0218461113594
30
0
0
SPLINE
5
1A8
100
AcDbEntity
8
1
62
256
6
ByLayer
370
18
48
1
60
0
100
AcDbSpline
70
4
71
3
72
22
73
18
40
0
40
0
40
0
40
0
40
0.125000000000024
40
0.125000000000024
40
0.187500000000028
40
0.187500000000028
40
0.250000000000032
40
0.250000000000032
40
0.500000000000028
40
0.500000000000028
40
0.750000000000024
40
0.750000000000024
40
0.812500000000018
40
0.812500000000018
40
0.875000000000012
40
0.875000000000012
40
1
40
1
40
1
40
1
41
1
10
60.1218476513278
20
1.02184611135942
30
0
41
1
10
60.0889302975677
20
1.05145533127083
30
0
41
1
10
60.0543583179575
20
1.08162268043202
30
0
41
1
10
60.0000864953491
20
1.12756325337963
30
0
41
1
10
59.9815916478816
20
1.142988554792
30
0
41
1
10
59.9436893069438
20
1.17387258532315
30
0
41
1
10
59.9242633240904
20
1.18934045943769
30
0
41
1
10
59.825068502699
20
1.26681771937459
30
0
41
1
10
59.7404261866083
20
1.32832453852365
30
0
41
1
10
59.5625313231342
20
1.45316877434834
30
0
41
1
10
59.4692568650054
20
1.51647557257817
30
0
41
1
10
59.3482965678865
20
1.59858447027986
30
0
41
1
10
59.3238860372207
20
1.61515312695576
30
0
41
1
10
59.2749064476689
20
1.64845117580791
30
0
41
1
10
59.2503054751492
20
1.66520222162481
30
0
41
1
10
59.1762052513697
20
1.71581489162494
30
0
41
1
10
59.1264103662221
20
1.750036658418
30
0
41
1
10
59.0762983999435
20
1.78487229122575
30
0
0
SPLINE
5
1A9
100
AcDbEntity
8
1
62
256
6
ByLayer
370
18
48
1
60
0
100
AcDbSpline
70
4
71
3
72
55
73
51
40
0
40
0
40
0
40
0
40
0.0938042283503563
40
0.0938042283503563
40
0.117255285437944
40
0.117255285437944
40
0.140706342525532
40
0.140706342525532
40
0.187608456700711
40
0.187608456700711
40
0.281412685051065
40
0.281412685051065
40
0.304863742138654
40
0.304863742138654
40
0.328314799226242
40
0.328314799226242
40
0.375216913401419
40
0.375216913401419
40
0.422119027576596
40
0.422119027576596
40
0.445570084664185
40
0.445570084664185
40
0.469021141751774
40
0.469021141751774
40
0.562825370102122
40
0.562825370102122
40
0.586276427189709
40
0.586276427189709
40
0.609727484277296
40
0.609727484277296
40
0.65662959845247
40
0.65662959845247
40
0.703531712627645
40
0.703531712627645
40
0.750433826802819
40
0.750433826802819
40
0.773884883890405
40
0.773884883890405
40
0.797335940977991
40
0.844238055153165
40
0.844238055153165
40
0.867689112240751
40
0.867689112240751
40
0.891140169328338
40
0.891140169328338
40
0.914591226415924
40
0.914591226415924
40
0.93804228350351
40
0.93804228350351
40
1
40
1
40
1
40
1
41
1
10
59.0762983999435
20
1.78487229122572
30
0
41
1
10
58.6311701164203
20
2.09430587742637
30
0
41
1
10
58.1905879419289
20
2.39144111520298
30
0
41
1
10
57.6411822109128
20
2.7427267465597
30
0
41
1
10
57.5313703556796
20
2.8119822389842
30
0
41
1
10
57.3117717091186
20
2.9483705676582
30
0
41
1
10
57.201982444893
20
3.01550141007454
30
0
41
1
10
56.872691659098
20
3.2137663236544
30
0
41
1
10
56.6533328468162
20
3.34184314968903
30
0
41
1
10
55.9946115077607
20
3.71241930260436
30
0
41
1
10
55.5546030498975
20
3.941241629286
30
0
41
1
10
54.9991669288254
20
4.1996282365314
30
0
41
1
10
54.88769930104
20
4.24998555544025
30
0
41
1
10
54.665581681408
20
4.34742353163401
30
0
41
1
10
54.5547786626437
20
4.39455151513829
30
0
41
1
10
54.2229949411492
20
4.53109654732035
30
0
41
1
10
54.0026425052417
20
4.61567710255667
30
0
41
1
10
53.5628634772963
20
4.77158781467375
30
0
41
1
10
53.3434236715308
20
4.84290535399353
30
0
41
1
10
53.0142402969439
20
4.93960952860911
30
0
41
1
10
52.904511315266
20
4.97013463378906
30
0
41
1
10
52.6849553550969
20
5.027729616903
30
0
41
1
10
52.5751435551089
20
5.05480867977661
30
0
41
1
10
52.0261306651296
20
5.18168116305412
30
0
41
1
10
51.5866462066519
20
5.25567196864066
30
0
41
1
10
51.0327876978288
20
5.31134320568947
30
0
41
1
10
50.921762591354
20
5.32063824225545
30
0
41
1
10
50.6991830491388
20
5.33547955999867
30
0
41
1
10
50.5881000402521
20
5.3410000654973
30
0
41
1
10
50.2555117222287
20
5.35194851811269
30
0
41
1
10
50.0347486669453
20
5.35176402907493
30
0
41
1
10
49.5944407306256
20
5.33662339418674
30
0
41
1
10
49.3748704967243
20
5.32166635233915
30
0
41
1
10
48.936082103788
20
5.27720705773464
30
0
41
1
10
48.7168645149029
20
5.24770141638118
30
0
41
1
10
48.3875765533301
20
5.19277967903753
30
0
41
1
10
48.2777370938848
20
5.1726983765015
30
0
41
1
10
48.0580062943679
20
5.1289438438688
30
0
41
1
10
47.7282968622197
20
5.05793100803854
30
0
41
1
10
47.3977785895596
20
4.97084284353923
30
0
41
1
10
47.0661376740684
20
4.8731206195103
30
0
41
1
10
46.9554064356783
20
4.83877251740384
30
0
41
1
10
46.7334644280351
20
4.76655038210123
30
0
41
1
10
46.6221153650191
20
4.72862528995535
30
0
41
1
10
46.4000627223364
20
4.64975528693213
30
0
41
1
10
46.2892339435713
20
4.60878062241758
30
0
41
1
10
46.067878873664
20
4.52386103568799
30
0
41
1
10
45.957376964968
20
4.47989925778319
30
0
41
1
10
45.5556495540282
20
4.31429735072956
30
0
41
1
10
45.2655067489446
20
4.18369947523865
30
0
41
1
10
44.9756970774252
20
4.04353233525001
30
0
0
SPLINE
5
1AA
100
AcDbEntity
8
1
62
256
6
ByLayer
370
18
48
1
60
0
100
AcDbSpline
70
4
71
3
72
92
73
88
40
0
40
0
40
0
40
0
40
0.0037005153811151
40
0.0037005153811151
40
0.0240331579243573
40
0.0240331579243573
40
0.064698443010842
40
0.064698443010842
40
0.0850310855540843
40
0.0850310855540843
40
0.0951974068257062
40
0.0951974068257062
40
0.105363728097328
40
0.105363728097328
40
0.146029013183816
40
0.146029013183816
40
0.186694298270303
40
0.186694298270303
40
0.207026940813546
40
0.207026940813546
40
0.227359583356789
40
0.227359583356789
40
0.268024868443276
40
0.268024868443276
40
0.308690153529764
40
0.308690153529764
40
0.318856474801385
40
0.318856474801385
40
0.329022796073006
40
0.329022796073006
40
0.349355438616249
40
0.349355438616249
40
0.390020723702733
40
0.390020723702733
40
0.430686008789217
40
0.430686008789217
40
0.45101865133246
40
0.45101865133246
40
0.471351293875704
40
0.471351293875704
40
0.512016578962189
40
0.512016578962189
40
0.532349221505432
40
0.532349221505432
40
0.542515542777053
40
0.542515542777053
40
0.552681864048674
40
0.552681864048674
40
0.573014506591917
40
0.573014506591917
40
0.59334714913516
40
0.59334714913516
40
0.634012434221646
40
0.634012434221646
40
0.654345076764889
40
0.654345076764889
40
0.674677719308132
40
0.674677719308132
40
0.695010361851375
40
0.695010361851375
40
0.715343004394618
40
0.735675646937861
40
0.735675646937861
40
0.745841968209482
40
0.745841968209482
40
0.756008289481104
40
0.756008289481104
40
0.776340932024347
40
0.776340932024347
40
0.786507253295967
40
0.786507253295967
40
0.796673574567588
40
0.796673574567588
40
0.837338859654071
40
0.837338859654071
40
0.878004144740555
40
0.878004144740555
40
0.898336787283796
40
0.898336787283796
40
0.918669429827036
40
0.918669429827036
40
0.959334714913518
40
0.959334714913518
40
0.969501036185139
40
0.969501036185139
40
0.97966735745676
40
1
40
1
40
1
40
1
41
1
10
39.7679897352685
20
5.34999992712187
30
0
41
1
10
39.7916681583953
20
5.34999982376408
30
0
41
1
10
39.81535071487
20
5.34991436238593
30
0
41
1
10
39.9691896481479
20
5.3488057266197
30
0
41
1
10
40.0994492355693
20
5.34529604924293
30
0
41
1
10
40.4906411044092
20
5.3270801532716
30
0
41
1
10
40.7520119655093
20
5.30471274423599
30
0
41
1
10
41.1450115930948
20
5.25560352058505
30
0
41
1
10
41.2761656440177
20
5.23663266818812
30
0
41
1
10
41.4732638947032
20
5.20424525532394
30
0
41
1
10
41.5390275557167
20
5.19279539431739
30
0
41
1
10
41.6706870324554
20
5.16857627463213
30
0
41
1
10
41.7365875574348
20
5.15578523490009
30
0
41
1
10
42.0660542393631
20
5.08861699461241
30
0
41
1
10
42.3287359119694
20
5.02518110388758
30
0
41
1
10
42.8526174249473
20
4.87976784639983
30
0
41
1
10
43.1138835366463
20
4.79782324491322
30
0
41
1
10
43.5049684600689
20
4.66133021226165
30
0
41
1
10
43.6351941627221
20
4.61356613650361
30
0
41
1
10
43.8953832771881
20
4.51348911438842
30
0
41
1
10
44.025305583075
20
4.46113935370548
30
0
41
1
10
44.4156067082451
20
4.29793240992609
30
0
41
1
10
44.6764850325817
20
4.18093360797482
30
0
41
1
10
45.1998357838564
20
3.93077130464204
30
0
41
1
10
45.4622853658412
20
3.79758845118104
30
0
41
1
10
45.7914909395718
20
3.62082147542196
30
0
41
1
10
45.8573888995234
20
3.5849519411554
30
0
41
1
10
45.9893112954574
20
3.51218021184258
30
0
41
1
10
46.0552024745332
20
3.47534438695334
30
0
41
1
10
46.2525052079404
20
3.36367779261107
30
0
41
1
10
46.3836951341328
20
3.28769399914964
30
0
41
1
10
46.777014136368
20
3.05606451579464
30
0
41
1
10
47.038677878082
20
2.89652183392724
30
0
41
1
10
47.5607841238049
20
2.56726411285715
30
0
41
1
10
47.8213066130981
20
2.39763649678864
30
0
41
1
10
48.2117090018758
20
2.13618798305106
30
0
41
1
10
48.3417337724565
20
2.04781048386258
30
0
41
1
10
48.6019089800276
20
1.86901996194888
30
0
41
1
10
48.7321711403138
20
1.77875153397147
30
0
41
1
10
49.1237251993176
20
1.50565795106238
30
0
41
1
10
49.3856699209344
20
1.32040495252184
30
0
41
1
10
49.7800759823869
20
1.03781607398895
30
0
41
1
10
49.911804937139
20
0.942849422585795
30
0
41
1
10
50.109816351318
20
0.799251778830126
30
0
41
1
10
50.1758724592975
20
0.751206163173322
30
0
41
1
10
50.3076493756328
20
0.655074651670191
30
0
41
1
10
50.3734273334158
20
0.606944406114877
30
0
41
1
10
50.5704401856734
20
0.462374488245501
30
0
41
1
10
50.701365118362
20
0.365772058535867
30
0
41
1
10
50.9629763701451
20
0.17295100715566
30
0
41
1
10
51.0937452306082
20
0.0768467941090591
30
0
41
1
10
51.4857701641203
20
-0.210807552682354
30
0
41
1
10
51.7466223167088
20
-0.401869800775046
30
0
41
1
10
52.1375618726296
20
-0.686858543890907
30
0
41
1
10
52.267815806724
20
-0.781590891731383
30
0
41
1
10
52.5282088774376
20
-0.970518963193797
30
0
41
1
10
52.65831219818
20
-1.06476312803392
30
0
41
1
10
52.9185181865966
20
-1.25255069879958
30
0
41
1
10
53.0488131373442
20
-1.34583439876064
30
0
41
1
10
53.3099564930866
20
-1.53095517989976
30
0
41
1
10
53.5716275346861
20
-1.7146642343356
30
0
41
1
10
53.8344341836416
20
-1.89543912504052
30
0
41
1
10
54.0319584507684
20
-2.02992273335266
30
0
41
1
10
54.0978677752479
20
-2.0745702222558
30
0
41
1
10
54.2298321467
20
-2.16348972277379
30
0
41
1
10
54.2959372974581
20
-2.20779297879025
30
0
41
1
10
54.4938417938753
20
-2.3396670872803
30
0
41
1
10
54.6253893486559
20
-2.42630944067582
30
0
41
1
10
54.8222037412665
20
-2.55428898546828
30
0
41
1
10
54.8877235501775
20
-2.59661873365587
30
0
41
1
10
55.0185973346412
20
-2.68061489664993
30
0
41
1
10
55.0839360241459
20
-2.72229942526673
30
0
41
1
10
55.410486065038
20
-2.92874175119482
30
0
41
1
10
55.6713842972296
20
-3.08744146458679
30
0
41
1
10
56.1928409769209
20
-3.39187729137885
30
0
41
1
10
56.4534471846148
20
-3.53756274603853
30
0
41
1
10
56.8443034466486
20
-3.7461345979037
30
0
41
1
10
56.9745792681611
20
-3.81399668879539
30
0
41
1
10
57.2351576301996
20
-3.94631124621708
30
0
41
1
10
57.3654834904789
20
-4.01073738032542
30
0
41
1
10
57.7573883236246
20
-4.19803083294229
30
0
41
1
10
58.0198121388191
20
-4.31501307881084
30
0
41
1
10
58.3495958657263
20
-4.45100696759405
30
0
41
1
10
58.4156712020279
20
-4.47770471161968
30
0
41
1
10
58.5478542462721
20
-4.53000355488331
30
0
41
1
10
58.7460928553897
20
-4.60677538711556
30
0
41
1
10
58.944241939953
20
-4.67851026369908
30
0
41
1
10
59.0762983999435
20
-4.72408308115678
30
0
0
SPLINE
5
1AB
100
AcDbEntity
8
1
62
256
6
ByLayer
370
18
48
1
60
0
100
AcDbSpline
70
4
71
3
72
26
73
22
40
0
40
0
40
0
40
0
40
0.125000000000001
40
0.125000000000001
40
0.250000000000003
40
0.250000000000003
40
0.375000000000005
40
0.375000000000005
40
0.437500000000015
40
0.437500000000015
40
0.500000000000025
40
0.500000000000025
40
0.625000000000027
40
0.625000000000027
40
0.750000000000029
40
0.750000000000029
40
0.812500000000022
40
0.812500000000022
40
0.875000000000015
40
0.875000000000015
40
1
40
1
40
1
40
1
41
1
10
59.0762983999435
20
-4.72408308115678
30
0
41
1
10
59.1335608300254
20
-4.74384440349948
30
0
41
1
10
59.1905110573177
20
-4.76611304889647
30
0
41
1
10
59.3036052802187
20
-4.81572255334015
30
0
41
1
10
59.3597508610929
20
-4.84306065189193
30
0
41
1
10
59.47111750365
20
-4.90302064835916
30
0
41
1
10
59.5263338589177
20
-4.93563990855571
30
0
41
1
10
59.6084239894245
20
-4.98887157837845
30
0
41
1
10
59.6357337224312
20
-5.00738291539707
30
0
41
1
10
59.6897431777371
20
-5.04566999687032
30
0
41
1
10
59.7164266682353
20
-5.06542894492083
30
0
41
1
10
59.7954873331331
20
-5.12661832787123
30
0
41
1
10
59.8468774938653
20
-5.16994905345658
30
0
41
1
10
59.9468279678808
20
-5.26228276968729
30
0
41
1
10
59.9953909442302
20
-5.31127473298804
30
0
41
1
10
60.0658812936856
20
-5.38984167178918
30
0
41
1
10
60.0887812290382
20
-5.41663464391598
30
0
41
1
10
60.1330175451399
20
-5.47137492300723
30
0
41
1
10
60.1543853909999
20
-5.49934552286382
30
0
41
1
10
60.2161422478471
20
-5.58513644681418
30
0
41
1
10
60.254199636758
20
-5.64482269007914
30
0
41
1
10
60.2887339652418
20
-5.70733885058144
30
0
0
SPLINE
5
1AC
100
AcDbEntity
8
1
62
256
6
ByLayer
370
18
48
1
60
0
100
AcDbSpline
70
4
71
3
72
8
73
4
40
0
40
0
40
0
40
0
40
1
40
1
40
1
40
1
41
1
10
60.2887339652418
20
-5.70733885058141
30
0
41
1
10
60.2937776512732
20
-5.71646924052411
30
0
41
1
10
60.2988197297582
20
-5.72560108332854
30
0
41
1
10
60.3038602350555
20
-5.73473435674825
30
0
0
SPLINE
5
1AD
100
AcDbEntity
8
1
62
256
6
ByLayer
370
18
48
1
60
0
100
AcDbSpline
70
4
71
3
72
8
73
4
40
0
40
0
40
0
40
0
40
1
40
1
40
1
40
1
41
1
10
61.7789575081811
20
-6.99332213326969
30
0
41
1
10
61.7089970525726
20
-6.98252363273229
30
0
41
1
10
61.6390741557155
20
-6.97074483329442
30
0
41
1
10
61.5691256046354
20
-6.95799879336849
30
0
0
SPLINE
5
1AE
100
AcDbEntity
8
1
62
256
6
ByLayer
370
18
48
1
60
0
100
AcDbSpline
70
4
71
3
72
8
73
4
40
0
40
0
40
0
40
0
40
1
40
1
40
1
40
1
41
1
10
72.9862228636684
20
3.07030108174627
30
0
41
1
10
73.0561799513538
20
3.00874810137788
30
0
41
1
10
73.1261140951449
20
2.94678518552422
30
0
41
1
10
73.1960409718022
20
2.88442741058202
30
0
0
SPLINE
5
1AF
100
AcDbEntity
8
1
62
256
6
ByLayer
370
18
48
1
60
0
100
AcDbSpline
70
4
71
3
72
8
73
4
40
0
40
0
40
0
40
0
40
1
40
1
40
1
40
1
41
1
10
70.8940889616494
20
4.75871715014634
30
0
41
1
10
70.9642623740858
20
4.70797184225864
30
0
41
1
10
71.0344138798405
20
4.65657456517093
30
0
41
1
10
71.1045585395802
20
4.60453775135505
30
0
0
SPLINE
5
1B0
100
AcDbEntity
8
1
62
256
6
ByLayer
370
18
48
1
60
0
100
AcDbSpline
70
4
71
3
72
8
73
4
40
0
40
0
40
0
40
0
40
1
40
1
40
1
40
1
41
1
10
68.8021418684175
20
6.05391390311698
30
0
41
1
10
68.872315504461
20
6.01836067951103
30
0
41
1
10
68.9424677508335
20
5.98196916239238
30
0
41
1
10
69.0126130274901
20
5.9447483245101
30
0
0
SPLINE
5
1B1
100
AcDbEntity
8
1
62
256
6
ByLayer
370
18
48
1
60
0
100
AcDbSpline
70
4
71
3
72
8
73
4
40
0
40
0
40
0
40
0
40
1
40
1
40
1
40
1
41
1
10
66.7105175321599
20
6.84898800350814
30
0
41
1
10
66.7806388273914
20
6.83157194526294
30
0
41
1
10
66.8507389303634
20
6.81320150518161
30
0
41
1
10
66.9208322181767
20
6.79388193038778
30
0
0
SPLINE
5
1B2
100
AcDbEntity
8
1
62
256
6
ByLayer
370
18
48
1
60
0
100
AcDbSpline
70
4
71
3
72
33
73
29
40
0
40
0
40
0
40
0
40
0.0030620405830897
40
0.0030620405830897
40
0.0386669677051205
40
0.0386669677051205
40
0.0742718948271513
40
0.145481749071213
40
0.145481749071213
40
0.216691603315275
40
0.216691603315275
40
0.287901457559336
40
0.287901457559336
40
0.430321166047465
40
0.430321166047465
40
0.572740874535594
40
0.572740874535594
40
0.643950728779662
40
0.643950728779662
40
0.715160583023729
40
0.715160583023729
40
0.85758029151187
40
0.85758029151187
40
0.893185218633903
40
0.893185218633903
40
0.928790145755935
40
0.928790145755935
40
1
40
1
40
1
40
1
41
1
10
42.5593098894747
20
-5.34999999654877
30
0
41
1
10
42.55452929533
20
-5.35000006436269
30
0
41
1
10
42.5497482201541
20
-5.34999663689911
30
0
41
1
10
42.4893674234397
20
-5.3499091921783
30
0
41
1
10
42.4337775889958
20
-5.34935560103932
30
0
41
1
10
42.3227571594755
20
-5.34730944399124
30
0
41
1
10
42.1563922174437
20
-5.34283190199966
30
0
41
1
10
41.9904725250879
20
-5.33416050661106
30
0
41
1
10
41.7695226858741
20
-5.31893101367723
30
0
41
1
10
41.659151541185
20
-5.30948985791764
30
0
41
1
10
41.4387797597066
20
-5.28696114888336
30
0
41
1
10
41.3287543329903
20
-5.27387551803494
30
0
41
1
10
40.998989728222
20
-5.22921437635853
30
0
41
1
10
40.779598228899
20
-5.19222629415148
30
0
41
1
10
40.3409860868651
20
-5.10409048251125
30
0
41
1
10
40.121743780758
20
-5.05294883713384
30
0
41
1
10
39.7923513956733
20
-4.96588598523141
30
0
41
1
10
39.6824678471707
20
-4.93513925452785
30
0
41
1
10
39.4624161568964
20
-4.87024661158819
30
0
41
1
10
39.3522144209762
20
-4.83612228581569
30
0
41
1
10
39.0213487164592
20
-4.72852510744031
30
0
41
1
10
38.8003551627727
20
-4.64985572783999
30
0
41
1
10
38.5229883705389
20
-4.5430252953455
30
0
41
1
10
38.4674611862101
20
-4.52123296651482
30
0
41
1
10
38.3562879791073
20
-4.47679747739599
30
0
41
1
10
38.3006892998656
20
-4.4541731627084
30
0
41
1
10
38.1341743603132
20
-4.38524232558643
30
0
41
1
10
38.0234037252042
20
-4.33782419411565
30
0
41
1
10
37.9128093402215
20
-4.28900954717955
30
0
0
SPLINE
5
1B3
100
AcDbEntity
8
1
62
256
6
ByLayer
370
18
48
1
60
0
100
AcDbSpline
70
4
71
3
72
20
73
16
40
0
40
0
40
0
40
0
40
0.231160453567728
40
0.231160453567728
40
0.346740680351593
40
0.346740680351593
40
0.462320907135457
40
0.462320907135457
40
0.693481360703186
40
0.693481360703186
40
0.924641814270915
40
0.924641814270915
40
0.982431927662843
40
0.982431927662843
40
1
40
1
40
1
40
1
41
1
10
33.9563731766788
20
-5.18571865786515
30
0
41
1
10
34.2191194573492
20
-5.13832231404632
30
0
41
1
10
34.4807584032277
20
-5.08102376448656
30
0
41
1
10
34.8720534178219
20
-4.98060132119863
30
0
41
1
10
35.0022847782856
20
-4.94471009202621
30
0
41
1
10
35.2623500425652
20
-4.86807695135468
30
0
41
1
10
35.3924299650368
20
-4.82746908480519
30
0
41
1
10
35.7830106827017
20
-4.69896770803584
30
0
41
1
10
36.0437219078301
20
-4.60433438724561
30
0
41
1
10
36.566111439354
20
-4.39736758962906
30
0
41
1
10
36.8277485741366
20
-4.28500757553468
30
0
41
1
10
37.1554839070129
20
-4.133216242337
30
0
41
1
10
37.2210713746373
20
-4.10229463314283
30
0
41
1
10
37.3066647960922
20
-4.06124326614014
30
0
41
1
10
37.3266244782206
20
-4.05162193627228
30
0
41
1
10
37.3465916599607
20
-4.04195128945344
30
0
0
SPLINE
5
1B4
100
AcDbEntity
8
1
62
256
6
ByLayer
370
18
48
1
60
0
100
AcDbSpline
70
4
71
3
72
23
73
19
40
0
40
0
40
0
40
0
40
0.0343761480371211
40
0.0343761480371211
40
0.227500918429693
40
0.227500918429693
40
0.420625688822264
40
0.420625688822264
40
0.517188074018553
40
0.517188074018553
40
0.613750459214843
40
0.613750459214843
40
0.806875229607414
40
0.806875229607414
40
0.855156422205559
40
0.855156422205559
40
0.903437614803704
40
1
40
1
40
1
40
1
41
1
10
55.0096753902444
20
5.34999990086285
30
0
41
1
10
55.056230206184
20
5.35000111776807
30
0
41
1
10
55.1027453891415
20
5.34967114633898
30
0
41
1
10
55.410486065038
20
5.34530257228522
30
0
41
1
10
55.6713842972296
20
5.33121239934147
30
0
41
1
10
56.1928409769208
20
5.28281619532325
30
0
41
1
10
56.4534471846149
20
5.24852127506929
30
0
41
1
10
56.8443034466486
20
5.18193433109843
30
0
41
1
10
56.9745792681611
20
5.15720946346744
30
0
41
1
10
57.2351576301997
20
5.10265574870635
30
0
41
1
10
57.3654834904789
20
5.07282991244568
30
0
41
1
10
57.7573883236247
20
4.97600937665015
30
0
41
1
10
58.0198121388191
20
4.90167131801499
30
0
41
1
10
58.3495958657263
20
4.79650173870752
30
0
41
1
10
58.4156712020279
20
4.77484445149605
30
0
41
1
10
58.5478542462722
20
4.73034888632657
30
0
41
1
10
58.7460928553897
20
4.66186290038809
30
0
41
1
10
58.944241939953
20
4.5881664058866
30
0
41
1
10
59.0762983999435
20
4.53670341814603
30
0
0
SPLINE
5
1B5
100
AcDbEntity
8
1
62
256
6
ByLayer
370
18
48
1
60
0
100
AcDbSpline
70
4
71
3
72
26
73
22
40
0
40
0
40
0
40
0
40
0.125000000000008
40
0.125000000000008
40
0.250000000000017
40
0.250000000000017
40
0.375000000000025
40
0.375000000000025
40
0.43750000000003
40
0.43750000000003
40
0.500000000000034
40
0.500000000000034
40
0.625000000000025
40
0.625000000000025
40
0.750000000000017
40
0.750000000000017
40
0.812500000000012
40
0.812500000000012
40
0.875000000000008
40
0.875000000000008
40
1
40
1
40
1
40
1
41
1
10
59.0762983999435
20
4.53670341814603
30
0
41
1
10
59.1335608300254
20
4.51438799535256
30
0
41
1
10
59.1905110573176
20
4.49478961002322
30
0
41
1
10
59.3036052802187
20
4.46082340581572
30
0
41
1
10
59.3597508610929
20
4.44645448561189
30
0
41
1
10
59.4711175036499
20
4.42303652702233
30
0
41
1
10
59.5263338589177
20
4.41397696547509
30
0
41
1
10
59.6084239894244
20
4.40474789667323
30
0
41
1
10
59.6357337224311
20
4.40240086809774
30
0
41
1
10
59.6897431777371
20
4.39931449635887
30
0
41
1
10
59.7164266682352
20
4.39857246171061
30
0
41
1
10
59.7954873331331
20
4.398855291833
30
0
41
1
10
59.8468774938653
20
4.40236505577906
30
0
41
1
10
59.9468279678808
20
4.41706327015203
30
0
41
1
10
59.9953909442301
20
4.42823041493071
30
0
41
1
10
60.0658812936854
20
4.45226058748435
30
0
41
1
10
60.0887812290382
20
4.4614892295165
30
0
41
1
10
60.1330175451399
20
4.48189898365354
30
0
41
1
10
60.1543853909999
20
4.49310218618837
30
0
41
1
10
60.2161422478472
20
4.52984692611994
30
0
41
1
10
60.254199636758
20
4.55849042228391
30
0
41
1
10
60.2887339652418
20
4.59194081764642
30
0
0
SPLINE
5
1B6
100
AcDbEntity
8
1
62
256
6
ByLayer
370
18
48
1
60
0
100
AcDbSpline
70
4
71
3
72
14
73
10
40
0
40
0
40
0
40
0
40
0.25
40
0.25
40
0.5
40
0.5
40
0.75
40
0.75
40
1
40
1
40
1
40
1
41
1
10
60.2887339652418
20
4.59194081764642
30
0
41
1
10
60.3390299880643
20
4.64065819315201
30
0
41
1
10
60.3891738620788
20
4.68792077355926
30
0
41
1
10
60.489111107501
20
4.77949641728739
30
0
41
1
10
60.5389133823975
20
4.82381543753698
30
0
41
1
10
60.6382293106695
20
4.90953176078537
30
0
41
1
10
60.6877360737188
20
4.95092198843196
30
0
41
1
10
60.7863775308711
20
5.03068948908114
30
0
41
1
10
60.8355278997786
20
5.06908088575443
30
0
41
1
10
60.8845299461621
20
5.1059897746247
30
0
0
SPLINE
5
1B7
100
AcDbEntity
8
1
62
256
6
ByLayer
370
18
48
1
60
0
100
AcDbSpline
70
4
71
3
72
8
73
4
40
0
40
0
40
0
40
0
40
1
40
1
40
1
40
1
41
1
10
61.0818625718342
20
4.97098491552984
30
0
41
1
10
61.0161014819913
20
5.01660552341272
30
0
41
1
10
60.9503265236653
20
5.06160896090771
30
0
41
1
10
60.8845299461612
20
5.10598977462533
30
0
0
SPLINE
5
1B8
100
AcDbEntity
8
1
62
256
6
ByLayer
370
18
48
1
60
0
100
AcDbSpline
70
4
71
3
72
10
73
6
40
0
40
0
40
0
40
0
40
0.5
40
0.5
40
1
40
1
40
1
40
1
41
1
10
61.0818625718342
20
4.97098491552987
30
0
41
1
10
61.1949855703614
20
4.74300224487934
30
0
41
1
10
61.3088653180412
20
4.51707026281753
30
0
41
1
10
61.5385113979345
20
4.06989701942879
30
0
41
1
10
61.654005515567
20
3.84919387189538
30
0
41
1
10
61.7705179287832
20
3.63166162354639
30
0
0
SPLINE
5
1B9
100
AcDbEntity
8
1
62
256
6
ByLayer
370
18
48
1
60
0
100
AcDbSpline
70
4
71
3
72
34
73
30
40
0
40
0
40
0
40
0
40
0.124999999999937
40
0.124999999999937
40
0.187499999999906
40
0.187499999999906
40
0.249999999999875
40
0.249999999999875
40
0.37499999999985
40
0.37499999999985
40
0.437499999999838
40
0.437499999999838
40
0.499999999999827
40
0.499999999999827
40
0.624999999999847
40
0.624999999999847
40
0.687499999999878
40
0.687499999999878
40
0.749999999999909
40
0.749999999999909
40
0.812499999999939
40
0.812499999999939
40
0.87499999999997
40
0.87499999999997
40
0.937500000000001
40
0.937500000000001
40
0.968750000000001
40
0.968750000000001
40
1
40
1
40
1
40
1
41
1
10
61.7705179287832
20
3.63166162354645
30
0
41
1
10
61.7849984980423
20
3.60462595669031
30
0
41
1
10
61.8019145912812
20
3.57863253208993
30
0
41
1
10
61.8300938028181
20
3.54085466191003
30
0
41
1
10
61.8400124538926
20
3.52841391196179
30
0
41
1
10
61.860533198454
20
3.50418988462232
30
0
41
1
10
61.8710779308233
20
3.49246631560342
30
0
41
1
10
61.9034836553617
20
3.45835219712799
30
0
41
1
10
61.9261072153762
20
3.43700547576708
30
0
41
1
10
61.9614615132298
20
3.40694849783708
30
0
41
1
10
61.9735269474622
20
3.39723231653218
30
0
41
1
10
61.9977005073468
20
3.37880491525988
30
0
41
1
10
62.0098529146385
20
3.37005263140432
30
0
41
1
10
62.0464914041639
20
3.34516510157508
30
0
41
1
10
62.0711564125451
20
3.33037571226984
30
0
41
1
10
62.1084918202021
20
3.31120661423671
30
0
41
1
10
62.1209338337577
20
3.30536207013705
30
0
41
1
10
62.1453984749645
20
3.29501064727822
30
0
41
1
10
62.1574779321967
20
3.2904732391743
30
0
41
1
10
62.1812913289529
20
3.28278993387005
30
0
41
1
10
62.1930257280183
20
3.27964222423444
30
0
41
1
10
62.2160841701403
20
3.27495808158397
30
0
41
1
10
62.2271989988333
20
3.27346737844039
30
0
41
1
10
62.2484056550382
20
3.2723759370792
30
0
41
1
10
62.2585154513295
20
3.27276865387705
30
0
41
1
10
62.2728047257425
20
3.27502242571305
30
0
41
1
10
62.2774127930078
20
3.27605444036547
30
0
41
1
10
62.286176193483
20
3.27869335172753
30
0
41
1
10
62.29034825231
20
3.28030226768553
30
0
41
1
10
62.2942954761469
20
3.28222284644619
30
0
0
SPLINE
5
1BA
100
AcDbEntity
8
1
62
256
6
ByLayer
370
18
48
1
60
0
100
AcDbSpline
70
4
71
3
72
14
73
10
40
0
40
0
40
0
40
0
40
0.25
40
0.25
40
0.5
40
0.5
40
0.75
40
0.75
40
1
40
1
40
1
40
1
41
1
10
62.2942954761469
20
3.28222284644619
30
0
41
1
10
62.350757974099
20
3.30969549021387
30
0
41
1
10
62.4070560104731
20
3.33505255493765
30
0
41
1
10
62.5192285254556
20
3.38161754470934
30
0
41
1
10
62.5751132719728
20
3.4028245269003
30
0
41
1
10
62.6865409168584
20
3.44113893238895
30
0
41
1
10
62.7421048517239
20
3.45825172611865
30
0
41
1
10
62.852841172058
20
3.48837702091376
30
0
41
1
10
62.9080006901215
20
3.50138759444957
30
0
41
1
10
62.962981724743
20
3.51236453591756
30
0
0
SPLINE
5
1BB
100
AcDbEntity
8
1
62
256
6
ByLayer
370
18
48
1
60
0
100
AcDbSpline
70
4
71
3
72
8
73
4
40
0
40
0
40
0
40
0
40
1
40
1
40
1
40
1
41
1
10
63.1737394330498
20
3.33281437501037
30
0
41
1
10
63.1034771453331
20
3.39316031527446
30
0
41
1
10
63.0332260099041
20
3.45301135914201
30
0
41
1
10
62.962981724743
20
3.51236453591756
30
0
0
SPLINE
5
1BC
100
AcDbEntity
8
1
62
256
6
ByLayer
370
18
48
1
60
0
100
AcDbSpline
70
4
71
3
72
10
73
6
40
0
40
0
40
0
40
0
40
0.5
40
0.5
40
1
40
1
40
1
40
1
41
1
10
63.1737394330498
20
3.33281437501037
30
0
41
1
10
63.2868000362192
20
3.12449796400307
30
0
41
1
10
63.4006128477611
20
2.92072894314973
30
0
41
1
10
63.630169926976
20
2.5229380997946
30
0
41
1
10
63.7456384769509
20
2.32938254855498
30
0
41
1
10
63.8621058672194
20
2.14141255205479
30
0
0
SPLINE
5
1BD
100
AcDbEntity
8
1
62
256
6
ByLayer
370
18
48
1
60
0
100
AcDbSpline
70
4
71
3
72
34
73
30
40
0
40
0
40
0
40
0
40
0.125000000000029
40
0.125000000000029
40
0.187500000000028
40
0.187500000000028
40
0.250000000000026
40
0.250000000000026
40
0.375000000000023
40
0.375000000000023
40
0.437500000000021
40
0.437500000000021
40
0.500000000000019
40
0.500000000000019
40
0.625000000000016
40
0.625000000000016
40
0.687500000000013
40
0.687500000000013
40
0.75000000000001
40
0.75000000000001
40
0.812500000000008
40
0.812500000000008
40
0.875000000000005
40
0.875000000000005
40
0.937500000000003
40
0.937500000000003
40
0.968750000000001
40
0.968750000000001
40
1
40
1
40
1
40
1
41
1
10
63.8621058672194
20
2.14141255205479
30
0
41
1
10
63.8765920616497
20
2.11803287547687
30
0
41
1
10
63.8935154638363
20
2.09467395947342
30
0
41
1
10
63.9217057619638
20
2.05968841772054
30
0
41
1
10
63.9316287255378
20
2.04798182178953
30
0
41
1
10
63.952154416385
20
2.02484156032963
30
0
41
1
10
63.9627014102256
20
2.01346494320279
30
0
41
1
10
63.9951136453749
20
1.97985829522065
30
0
41
1
10
64.0177413734437
20
1.95814601807328
30
0
41
1
10
64.0531025051621
20
1.92652449000138
30
0
41
1
10
64.0651690570297
20
1.91611241507687
30
0
41
1
10
64.0893429455327
20
1.89597179981388
30
0
41
1
10
64.1014955584413
20
1.88620046603791
30
0
41
1
10
64.1381348017674
20
1.8577655387985
30
0
41
1
10
64.1628005021286
20
1.83996644328093
30
0
41
1
10
64.2001371564645
20
1.81516589543392
30
0
41
1
10
64.2125744789457
20
1.80726612896558
30
0
41
1
10
64.2370331985254
20
1.7924798399817
30
0
41
1
10
64.2491098919423
20
1.78555575460527
30
0
41
1
10
64.2729181861106
20
1.77272542818795
30
0
41
1
10
64.284650247579
20
1.76681786949871
30
0
41
1
10
64.3077044880701
20
1.75617727834361
30
0
41
1
10
64.3188143944437
20
1.7515440796812
30
0
41
1
10
64.3400158784273
20
1.74382763425558
30
0
41
1
10
64.3501237800498
20
1.74073495697073
30
0
41
1
10
64.364411347512
20
1.73745384953847
30
0
41
1
10
64.3690190078436
20
1.73659164376534
30
0
41
1
10
64.3777822408994
20
1.73538650083449
30
0
41
1
10
64.3819544963984
20
1.73503933282552
30
0
41
1
10
64.3859021676499
20
1.73496736950355
30
0
0
SPLINE
5
1BE
100
AcDbEntity
8
1
62
256
6
ByLayer
370
18
48
1
60
0
100
AcDbSpline
70
4
71
3
72
10
73
6
40
0
40
0
40
0
40
0
40
0.5
40
0.5
40
1
40
1
40
1
40
1
41
1
10
64.3859021676499
20
1.73496736950361
30
0
41
1
10
64.498980663817
20
1.73290602657281
30
0
41
1
10
64.6113516661932
20
1.72198858471313
30
0
41
1
10
64.834555707472
20
1.6833439419332
30
0
41
1
10
64.9453853970756
20
1.65557601016971
30
0
41
1
10
65.0554050911591
20
1.6196359554028
30
0
0
SPLINE
5
1BF
100
AcDbEntity
8
1
62
256
6
ByLayer
370
18
48
1
60
0
100
AcDbSpline
70
4
71
3
72
8
73
4
40
0
40
0
40
0
40
0
40
1
40
1
40
1
40
1
41
1
10
65.2658058874679
20
1.41976389676648
30
0
41
1
10
65.1956597820769
20
1.48661591005614
30
0
41
1
10
65.1255267969173
20
1.55324042545652
30
0
41
1
10
65.0554050911592
20
1.61963595540277
30
0
0
SPLINE
5
1C0
100
AcDbEntity
8
1
62
256
6
ByLayer
370
18
48
1
60
0
100
AcDbSpline
70
4
71
3
72
10
73
6
40
0
40
0
40
0
40
0
40
0.5
40
0.5
40
1
40
1
40
1
40
1
41
1
10
65.2658058874678
20
1.41976389676648
30
0
41
1
10
65.3788293689261
20
1.24866879231166
30
0
41
1
10
65.4925783019239
20
1.08424174847283
30
0
41
1
10
65.7219528367401
20
0.769310669196642
30
0
41
1
10
65.837314559036
20
0.619213426104608
30
0
41
1
10
65.9536393771224
20
0.476641552532641
30
0
0
SPLINE
5
1C1
100
AcDbEntity
8
1
62
256
6
ByLayer
370
18
48
1
60
0
100
AcDbSpline
70
4
71
3
72
34
73
30
40
0
40
0
40
0
40
0
40
0.12499999999997
40
0.12499999999997
40
0.187499999999955
40
0.187499999999955
40
0.249999999999939
40
0.249999999999939
40
0.374999999999909
40
0.374999999999909
40
0.437499999999914
40
0.437499999999914
40
0.499999999999919
40
0.499999999999919
40
0.624999999999973
40
0.624999999999973
40
0.687499999999978
40
0.687499999999978
40
0.749999999999983
40
0.749999999999983
40
0.812499999999988
40
0.812499999999988
40
0.874999999999993
40
0.874999999999993
40
0.937499999999998
40
0.937499999999998
40
0.968749999999999
40
0.968749999999999
40
1
40
1
40
1
40
1
41
1
10
65.9536393771224
20
0.476641552532726
30
0
41
1
10
65.9681379383572
20
0.458871595327167
30
0
41
1
10
65.9850791837876
20
0.440093965771666
30
0
41
1
10
66.0132991063483
20
0.410808602934139
30
0
41
1
10
66.0232337829349
20
0.400807108078681
30
0
41
1
10
66.0437737718556
20
0.380671192760445
30
0
41
1
10
66.0543274375602
20
0.370584364200596
30
0
41
1
10
66.086757481376
20
0.340265549574355
30
0
41
1
10
66.109393884701
20
0.319977090621478
30
0
41
1
10
66.144762129796
20
0.28938639383037
30
0
41
1
10
66.1568271917042
20
0.279132663078627
30
0
41
1
10
66.1809935605058
20
0.258928993783798
30
0
41
1
10
66.1931419944556
20
0.24893728110527
30
0
41
1
10
66.2297681465784
20
0.219274042872428
30
0
41
1
10
66.2544243405659
20
0.199909910712762
30
0
41
1
10
66.2917490636096
20
0.171483227106222
30
0
41
1
10
66.3041730406524
20
0.162170524891366
30
0
41
1
10
66.328614830851
20
0.144146004714173
30
0
41
1
10
66.3406846258326
20
0.135394409346787
30
0
41
1
10
66.3644822688491
20
0.118451019722187
30
0
41
1
10
66.3762105459668
20
0.110258455574097
30
0
41
1
10
66.3992602001754
20
0.094513898815876
30
0
41
1
10
66.4103607960511
20
0.087113143695035
30
0
41
1
10
66.4315562877708
20
0.0733885052775065
30
0
41
1
10
66.4416630915727
20
0.0670557404019405
30
0
41
1
10
66.4559514334665
20
0.0584962458225959
30
0
41
1
10
66.4605581094742
20
0.0558073039479439
30
0
41
1
10
66.4693207751383
20
0.0508500227775528
30
0
41
1
10
66.4734931389249
20
0.0485717353649591
30
0
41
1
10
66.4774412449534
20
0.0465095678252681
30
0
0
SPLINE
5
1C2
100
AcDbEntity
8
1
62
256
6
ByLayer
370
18
48
1
60
0
100
AcDbSpline
70
4
71
3
72
8
73
4
40
0
40
0
40
0
40
0
40
1
40
1
40
1
40
1
41
1
10
67.3568400836662
20
-0.609537024113848
30
0
41
1
10
67.2868983590384
20
-0.541735251246195
30
0
41
1
10
67.2169723492725
20
-0.473876391849444
30
0
41
1
10
67.1470595732983
20
-0.405963043129446
30
0
0
SPLINE
5
1C3
100
AcDbEntity
8
1
62
256
6
ByLayer
370
18
48
1
60
0
100
AcDbSpline
70
4
71
3
72
8
73
4
40
0
40
0
40
0
40
0
40
1
40
1
40
1
40
1
41
1
10
69.4484908564618
20
-2.5892049143759
30
0
41
1
10
69.3783538659151
20
-2.52567715075875
30
0
41
1
10
69.3082442439472
20
-2.46180335101104
30
0
41
1
10
69.2381550058432
20
-2.39759037561768
30
0
0
SPLINE
5
1C4
100
AcDbEntity
8
1
62
256
6
ByLayer
370
18
48
1
60
0
100
AcDbSpline
70
4
71
3
72
8
73
4
40
0
40
0
40
0
40
0
40
1
40
1
40
1
40
1
41
1
10
71.5406809421895
20
-4.35568372863475
30
0
41
1
10
71.4704108391622
20
-4.30177252242694
30
0
41
1
10
71.4001674191176
20
-4.24726566243035
30
0
41
1
10
71.3299486817874
20
-4.19216496009608
30
0
0
SPLINE
5
1C5
100
AcDbEntity
8
1
62
256
6
ByLayer
370
18
48
1
60
0
100
AcDbSpline
70
4
71
3
72
8
73
4
40
0
40
0
40
0
40
0
40
1
40
1
40
1
40
1
41
1
10
73.6323278396091
20
-5.76286897361649
30
0
41
1
10
73.562250126842
20
-5.72321396968792
30
0
41
1
10
73.4922096922698
20
-5.68276012398707
30
0
41
1
10
73.4221990203829
20
-5.64151169205772
30
0
0
SPLINE
5
1C6
100
AcDbEntity
8
1
62
256
6
ByLayer
370
18
48
1
60
0
100
AcDbSpline
70
4
71
3
72
119
73
115
40
0
40
0
40
0
40
0
40
0.031250000000002
40
0.031250000000002
40
0.0625000000000039
40
0.0625000000000039
40
0.125000000000008
40
0.125000000000008
40
0.15625000000001
40
0.15625000000001
40
0.171875000000011
40
0.171875000000011
40
0.17968750000001
40
0.17968750000001
40
0.187500000000009
40
0.218750000000004
40
0.218750000000004
40
0.234375000000002
40
0.234375000000002
40
0.250000000000001
40
0.265624999999999
40
0.265624999999999
40
0.281249999999998
40
0.281249999999998
40
0.312499999999995
40
0.312499999999995
40
0.328124999999994
40
0.328124999999994
40
0.343749999999993
40
0.343749999999993
40
0.37499999999999
40
0.37499999999999
40
0.406249999999987
40
0.406249999999987
40
0.421874999999986
40
0.421874999999986
40
0.429687499999986
40
0.429687499999986
40
0.437499999999986
40
0.437499999999986
40
0.453124999999988
40
0.453124999999988
40
0.46874999999999
40
0.46874999999999
40
0.47656249999999
40
0.47656249999999
40
0.48437499999999
40
0.48437499999999
40
0.49999999999999
40
0.49999999999999
40
0.515624999999989
40
0.515624999999989
40
0.523437499999989
40
0.523437499999989
40
0.531249999999989
40
0.531249999999989
40
0.546874999999988
40
0.546874999999988
40
0.550781249999988
40
0.550781249999988
40
0.554687499999988
40
0.562499999999988
40
0.562499999999988
40
0.578124999999989
40
0.578124999999989
40
0.582031249999989
40
0.582031249999989
40
0.585937499999989
40
0.59374999999999
40
0.59374999999999
40
0.60156249999999
40
0.60156249999999
40
0.60546874999999
40
0.60546874999999
40
0.60937499999999
40
0.60937499999999
40
0.624999999999991
40
0.624999999999991
40
0.640624999999992
40
0.640624999999992
40
0.648437499999992
40
0.652343749999993
40
0.652343749999993
40
0.656249999999993
40
0.656249999999993
40
0.671874999999993
40
0.671874999999993
40
0.687499999999994
40
0.687499999999994
40
0.703124999999994
40
0.703124999999994
40
0.718749999999994
40
0.718749999999994
40
0.726562499999995
40
0.726562499999995
40
0.734374999999995
40
0.734374999999995
40
0.749999999999995
40
0.749999999999995
40
0.781249999999995
40
0.781249999999995
40
0.812499999999995
40
0.812499999999995
40
0.843749999999995
40
0.843749999999995
40
0.874999999999995
40
0.874999999999995
40
0.906249999999995
40
0.906249999999995
40
0.921874999999996
40
0.921874999999996
40
0.937499999999996
40
0.937499999999996
40
1
40
1
40
1
40
1
41
1
10
37.912769218393
20
-4.28904686195233
30
0
41
1
10
37.7826885050232
20
-4.22955146098616
30
0
41
1
10
37.6513460405665
20
-4.16934217437321
30
0
41
1
10
37.3858521019869
20
-4.04839950125213
30
0
41
1
10
37.2516651062582
20
-3.98770158901976
30
0
41
1
10
36.843887009038
20
-3.80687624796542
30
0
41
1
10
36.5650948154542
20
-3.68797062712704
30
0
41
1
10
36.1330399603631
20
-3.52032412914187
30
0
41
1
10
35.986680008475
20
-3.46627284623637
30
0
41
1
10
35.7630737465352
20
-3.38919945856534
30
0
41
1
10
35.6878612202669
20
-3.3641753058553
30
0
41
1
10
35.5739644690188
20
-3.32779053423738
30
0
41
1
10
35.5357830454347
20
-3.31584323968312
30
0
41
1
10
35.4592877454376
20
-3.29242816214747
30
0
41
1
10
35.2676799581953
20
-3.23507635457065
30
0
41
1
10
35.0742105194898
20
-3.18383582167769
30
0
41
1
10
34.8400390824743
20
-3.12949239356934
30
0
41
1
10
34.7616397893365
20
-3.11259704966236
30
0
41
1
10
34.6041663878968
20
-3.08127369077687
30
0
41
1
10
34.4460984548155
20
-3.05211014727979
30
0
41
1
10
34.2869648112491
20
-3.02688423096959
30
0
41
1
10
34.1273662386035
20
-3.00339936223654
30
0
41
1
10
34.04734929916
20
-2.99246933242625
30
0
41
1
10
33.8065168510835
20
-2.96266108667615
30
0
41
1
10
33.644948684352
20
-2.94665457856178
30
0
41
1
10
33.4008732161934
20
-2.92938269339695
30
0
41
1
10
33.3191873904817
20
-2.92474297193033
30
0
41
1
10
33.1553709794686
20
-2.91789336804962
30
0
41
1
10
33.0735697212666
20
-2.91569668018011
30
0
41
1
10
32.8285017260258
20
-2.91297381441103
30
0
41
1
10
32.6655747987655
20
-2.91636665902845
30
0
41
1
10
32.3407277795405
20
-2.93470554974377
30
0
41
1
10
32.1787997871269
20
-2.94956452094382
30
0
41
1
10
31.9368097475908
20
-2.98201318414093
30
0
41
1
10
31.8562982656727
20
-2.99453861116771
30
0
41
1
10
31.7357960709382
20
-3.01626650116384
30
0
41
1
10
31.6957435784302
20
-3.0239741497563
30
0
41
1
10
31.6161284320438
20
-3.04031496168562
30
0
41
1
10
31.5765294436756
20
-3.04895455992639
30
0
41
1
10
31.4583937917415
20
-3.07634467330786
30
0
41
1
10
31.3805162950538
20
-3.09656313576056
30
0
41
1
10
31.2267538868965
20
-3.14132525841583
30
0
41
1
10
31.1508778324657
20
-3.16589010718363
30
0
41
1
10
31.0388088804452
20
-3.20641604692835
30
0
41
1
10
31.0017445163758
20
-3.22053980156414
30
0
41
1
10
30.928261224121
20
-3.25012609768356
30
0
41
1
10
30.8918375185674
20
-3.26559893313271
30
0
41
1
10
30.7846853924663
20
-3.31373807786403
30
0
41
1
10
30.7156485309493
20
-3.3481651613732
30
0
41
1
10
30.5831992271075
20
-3.42224618159619
30
0
41
1
10
30.5197806059221
20
-3.4618963197558
30
0
41
1
10
30.4297560599108
20
-3.52587465576556
30
0
41
1
10
30.4005337080752
20
-3.5480195838793
30
0
41
1
10
30.3448577071932
20
-3.5932055752838
30
0
41
1
10
30.3182997625167
20
-3.61631351992708
30
0
41
1
10
30.2426442501229
20
-3.68717513070214
30
0
41
1
10
30.1975338795814
20
-3.73645731136435
30
0
41
1
10
30.1488207109932
20
-3.80072891643977
30
0
41
1
10
30.1394360294817
20
-3.81375244083603
30
0
41
1
10
30.1216035321044
20
-3.83984961565642
30
0
41
1
10
30.0962577148576
20
-3.87905996619128
30
0
41
1
10
30.0750712063047
20
-3.91842676855299
30
0
41
1
10
30.0381894123121
20
-3.9972831563808
30
0
41
1
10
30.0208486008234
20
-4.05000403979537
30
0
41
1
10
30.0079998912223
20
-4.1157883184004
30
0
41
1
10
30.0058708518312
20
-4.12896141532346
30
0
41
1
10
30.0025166387702
20
-4.15504247654201
30
0
41
1
10
29.9988217045283
20
-4.19384721229935
30
0
41
1
10
29.9989420377028
20
-4.23171127715517
30
0
41
1
10
30.0022186979582
20
-4.28137454434687
30
0
41
1
10
30.0054137066589
20
-4.30579512957104
30
0
41
1
10
30.0123606370826
20
-4.34181787051901
30
0
41
1
10
30.0150356942166
20
-4.35372407210556
30
0
41
1
10
30.0210782567728
20
-4.37733486907467
30
0
41
1
10
30.024452534737
20
-4.38905887444761
30
0
41
1
10
30.0428832605825
20
-4.44684675748709
30
0
41
1
10
30.0626158859526
20
-4.4905361683424
30
0
41
1
10
30.109567546295
20
-4.57365041749765
30
0
41
1
10
30.1369027818913
20
-4.61305076417858
30
0
41
1
10
30.1829603799275
20
-4.66924463958378
30
0
41
1
10
30.2072547135127
20
-4.69661372413583
30
0
41
1
10
30.2333253034014
20
-4.72294283167551
30
0
41
1
10
30.251087855635
20
-4.74026961791998
30
0
41
1
10
30.2601636513931
20
-4.7488315059264
30
0
41
1
10
30.3064700444354
20
-4.79089527345985
30
0
41
1
10
30.3463543993605
20
-4.82223773618443
30
0
41
1
10
30.4304012443653
20
-4.8811440618523
30
0
41
1
10
30.474572707091
20
-4.90870261836253
30
0
41
1
10
30.5662851805227
20
-4.96058309029198
30
0
41
1
10
30.6138307191941
20
-4.98490231157288
30
0
41
1
10
30.7116522596104
20
-5.03068123432237
30
0
41
1
10
30.7619307624462
20
-5.05213943942476
30
0
41
1
10
30.8390458332655
20
-5.08238510581097
30
0
41
1
10
30.8650348772249
20
-5.09214268026338
30
0
41
1
10
30.9175335465364
20
-5.11103613363778
30
0
41
1
10
30.9440666824731
20
-5.1201795699622
30
0
41
1
10
31.0241881851135
20
-5.14664796882207
30
0
41
1
10
31.078273810561
20
-5.16300937083221
30
0
41
1
10
31.2421688168377
20
-5.20859201305757
30
0
41
1
10
31.3535873359002
20
-5.23433245623238
30
0
41
1
10
31.579467576044
20
-5.2777221356026
30
0
41
1
10
31.6939408788205
20
-5.29536244195845
30
0
41
1
10
31.9250967349402
20
-5.32324638683539
30
0
41
1
10
32.0417836220611
20
-5.33348535074742
30
0
41
1
10
32.2768133494913
20
-5.34695350520411
30
0
41
1
10
32.3951584472643
20
-5.35018010959715
30
0
41
1
10
32.6331461892425
20
-5.34980442338178
30
0
41
1
10
32.7527899933138
20
-5.34620056625485
30
0
41
1
10
32.9330701419772
20
-5.33569834789472
30
0
41
1
10
32.9932778492802
20
-5.33134723950997
30
0
41
1
10
33.1136366219642
20
-5.32097270453986
30
0
41
1
10
33.1738251969259
20
-5.31494726252208
30
0
41
1
10
33.4747919525011
20
-5.28064938897927
30
0
41
1
10
33.7155799573564
20
-5.2398936974954
30
0
41
1
10
33.9565959816169
20
-5.18577934452841
30
0
0
SPLINE
5
1C7
100
AcDbEntity
8
SK1
62
256
6
ByLayer
370
18
48
1
60
0
100
AcDbSpline
70
4
71
3
72
22
73
18
40
0
40
0
40
0
40
0
40
0.249918489339167
40
0.249918489339167
40
0.499836978678334
40
0.499836978678334
40
0.624796223347917
40
0.624796223347917
40
0.687275845682709
40
0.687275845682709
40
0.718515656850105
40
0.718515656850105
40
0.749755468017501
40
0.749755468017501
40
0.999673957356668
40
0.999673957356668
40
1
40
1
40
1
40
1
41
1
10
-27.4
20
4.49999999999997
30
0
41
1
10
-27.512325981066
20
4.49999999999997
30
0
41
1
10
-27.6167520616775
20
4.49999999999997
30
0
41
1
10
-27.8047449658397
20
4.49999999999997
30
0
41
1
10
-27.8883167916657
20
4.49999999999997
30
0
41
1
10
-27.9930976683549
20
4.49999999999997
30
0
41
1
10
-28.024582476032
20
4.49999999999997
30
0
41
1
10
-28.0659220084382
20
4.49999999999997
30
0
41
1
10
-28.0787198705372
20
4.49999999999997
30
0
41
1
10
-28.0963474972523
20
4.49999999999997
30
0
41
1
10
-28.1019673798152
20
4.49999999999997
30
0
41
1
10
-28.112632668104
20
4.49999999999997
30
0
41
1
10
-28.1176793266433
20
4.49999999999997
30
0
41
1
10
-28.1604983931921
20
4.49999999999997
30
0
41
1
10
-28.1799529476627
20
4.49999999999997
30
0
41
1
10
-28.1799989919214
20
4.49999999999997
30
0
41
1
10
-28.1800010038428
20
4.50000000000289
30
0
41
1
10
-28.1799990153642
20
4.49999999999408
30
0
0
SPLINE
5
1C8
100
AcDbEntity
8
SK1
62
256
6
ByLayer
370
18
48
1
60
0
100
AcDbSpline
70
4
71
3
72
22
73
18
40
0
40
0
40
0
40
0
40
0.0003261856923012
40
0.0003261856923012
40
0.250244639269225
40
0.250244639269225
40
0.281484445966341
40
0.281484445966341
40
0.312724252663457
40
0.312724252663457
40
0.375203866057688
40
0.375203866057688
40
0.50016309284615
40
0.50016309284615
40
0.750081546423075
40
0.750081546423075
40
1
40
1
40
1
40
1
41
1
10
-28.1799990153723
20
-4.50000000000003
30
0
41
1
10
-28.1800010038675
20
-4.50000000000003
30
0
41
1
10
-28.1799989919628
20
-4.50000000000003
30
0
41
1
10
-28.1799529476627
20
-4.50000000000003
30
0
41
1
10
-28.1604983931921
20
-4.50000000000003
30
0
41
1
10
-28.1176793266432
20
-4.50000000000003
30
0
41
1
10
-28.112632668104
20
-4.50000000000003
30
0
41
1
10
-28.1019673798152
20
-4.50000000000003
30
0
41
1
10
-28.0963474972523
20
-4.50000000000003
30
0
41
1
10
-28.0787198705372
20
-4.50000000000003
30
0
41
1
10
-28.0659220084382
20
-4.50000000000003
30
0
41
1
10
-28.024582476032
20
-4.50000000000003
30
0
41
1
10
-27.9930976683551
20
-4.50000000000003
30
0
41
1
10
-27.8883167916658
20
-4.50000000000003
30
0
41
1
10
-27.8047449658397
20
-4.50000000000003
30
0
41
1
10
-27.6167520616775
20
-4.50000000000003
30
0
41
1
10
-27.512325981066
20
-4.50000000000003
30
0
41
1
10
-27.4
20
-4.50000000000003
30
0
0
SPLINE
5
1C9
100
AcDbEntity
8
SK1
62
256
6
ByLayer
370
18
48
1
60
0
100
AcDbSpline
70
4
71
3
72
36
73
32
40
0
40
0
40
0
40
0
40
0.0312500000000001
40
0.0312500000000001
40
0.0625000000000001
40
0.0625000000000001
40
0.125
40
0.125
40
0.250000000000001
40
0.250000000000001
40
0.312500000000001
40
0.343750000000001
40
0.359375000000001
40
0.359375000000001
40
0.375000000000001
40
0.375000000000001
40
0.500000000000001
40
0.500000000000001
40
0.625000000000001
40
0.625000000000001
40
0.640625000000001
40
0.640625000000001
40
0.656250000000001
40
0.656250000000001
40
0.687500000000001
40
0.687500000000001
40
0.750000000000001
40
0.750000000000001
40
0.875
40
0.875
40
1
40
1
40
1
40
1
41
1
10
-27.4
20
-2.76195582875619
30
0
41
1
10
-27.4281147880039
20
-2.70820910365836
30
0
41
1
10
-27.4557875203738
20
-2.65416608258974
30
0
41
1
10
-27.5100066281644
20
-2.54578730975561
30
0
41
1
10
-27.5365768302662
20
-2.4914064108529
30
0
41
1
10
-27.6145551037552
20
-2.32764859917191
30
0
41
1
10
-27.6642336728874
20
-2.21765757649379
30
0
41
1
10
-27.8053356945989
20
-1.88486742342394
30
0
41
1
10
-27.8888720394485
20
-1.65926774684956
30
0
41
1
10
-27.9934996284566
20
-1.3135262893509
30
0
41
1
10
-28.0406263124866
20
-1.13881372669559
30
0
41
1
10
-28.0852909106634
20
-0.931319219495549
30
0
41
1
10
-28.1020805141943
20
-0.84155772600343
30
0
41
1
10
-28.1127350077599
20
-0.781525493517819
30
0
41
1
10
-28.1177964837547
20
-0.751388594584427
30
0
41
1
10
-28.1606842872497
20
-0.480399711794973
30
0
41
1
10
-28.1800468808023
20
-0.239678786480511
30
0
41
1
10
-28.1799529476627
20
0.241435952089375
30
0
41
1
10
-28.1604983931921
20
0.481829781963853
30
0
41
1
10
-28.1176793266433
20
0.752096449758284
30
0
41
1
10
-28.112632668104
20
0.7821236443651
30
0
41
1
10
-28.1019673798152
20
0.842173213822917
30
0
41
1
10
-28.0963474972523
20
0.872198036145704
30
0
41
1
10
-28.0787198705372
20
0.961881189666684
30
0
41
1
10
-28.0659220084382
20
1.02127881792629
30
0
41
1
10
-28.024582476032
20
1.19837021382617
30
0
41
1
10
-27.993097668355
20
1.31496354277493
30
0
41
1
10
-27.8883167916657
20
1.66088246990017
30
0
41
1
10
-27.8047449658397
20
1.88636596389935
30
0
41
1
10
-27.6167520616775
20
2.3295374190125
30
0
41
1
10
-27.512325981066
20
2.54722350977633
30
0
41
1
10
-27.4
20
2.7619558287561
30
0
0
SPLINE
5
1CA
100
AcDbEntity
8
1
62
256
6
ByLayer
370
18
48
1
60
0
100
AcDbSpline
70
4
71
1
72
4
73
2
40
0
40
0
40
1
40
1
41
1
10
64.6082619476642
20
7.06778147015919
30
0
41
1
10
64.3507075804123
20
6.62324684676619
30
0
0
SPLINE
5
1CB
100
AcDbEntity
8
1
62
256
6
ByLayer
370
18
48
1
60
0
100
AcDbSpline
70
4
71
1
72
4
73
2
40
0
40
0
40
1
40
1
41
1
10
71.0757867311745
20
6.67919304150792
30
0
41
1
10
70.8503423401649
20
7.06806213663452
30
0
0
SPLINE
5
1CC
100
AcDbEntity
8
1
62
256
6
ByLayer
370
18
48
1
60
0
100
AcDbSpline
70
4
71
2
72
6
73
3
40
0
40
0
40
0
40
1
40
1
40
1
41
1
10
78.3247942137389
20
-6.24955448741608
30
0
41
1
10
78.4166245834635
20
-6.09132321802244
30
0
41
1
10
78.5085096009141
20
-5.9331152533874
30
0
0
SPLINE
5
1CD
100
AcDbEntity
8
1
62
256
6
ByLayer
370
18
48
1
60
0
100
AcDbSpline
70
4
71
3
72
8
73
4
40
0
40
0
40
0
40
0
40
1
40
1
40
1
40
1
41
1
10
62.5201969492584
20
-5.90933430218038
30
0
41
1
10
62.5342597653583
20
-5.89034014054255
30
0
41
1
10
62.5487890662361
20
-5.87379874783718
30
0
41
1
10
62.5640183249857
20
-5.8600574415299
30
0
0
SPLINE
5
1CE
100
AcDbEntity
8
1
62
256
6
ByLayer
370
18
48
1
60
0
100
AcDbSpline
70
4
71
1
72
4
73
2
40
0
40
0
40
1
40
1
41
1
10
80.9999999999999
20
5.20573183413805
30
0
41
1
10
80.5569242735087
20
5.64876668563903
30
0
0
SPLINE
5
1CF
100
AcDbEntity
8
1
62
256
6
ByLayer
370
18
48
1
60
0
100
AcDbSpline
70
4
71
1
72
4
73
2
40
0
40
0
40
1
40
1
41
1
10
77.3311205105493
20
-6.51709804812828
30
0
41
1
10
78.3187533165097
20
-6.26009449020535
30
0
0
SPLINE
5
1D0
100
AcDbEntity
8
1
62
256
6
ByLayer
370
18
48
1
60
0
100
AcDbSpline
70
4
71
3
72
14
73
10
40
0
40
0
40
0
40
0
40
0.229172082543862
40
0.35342952048836
40
0.482983398796703
40
0.615532035845483
40
0.747866181080796
40
0.876786715583458
40
1
40
1
40
1
40
1
41
1
10
65.9499155172548
20
5.93266081300104
30
0
41
1
10
65.9325769224267
20
5.90056323727663
30
0
41
1
10
65.8935474793793
20
5.86013772016659
30
0
41
1
10
65.8115004489062
20
5.81895720056917
30
0
41
1
10
65.7355792822853
20
5.80527574853286
30
0
41
1
10
65.6545688416612
20
5.81415198060617
30
0
41
1
10
65.5792332644009
20
5.84635351192571
30
0
41
1
10
65.5184024583293
20
5.89726862922313
30
0
41
1
10
65.4904964875736
20
5.93720290296017
30
0
41
1
10
65.4794038246031
20
5.95874811391627
30
0
0
SPLINE
5
1D1
100
AcDbEntity
8
1
62
256
6
ByLayer
370
18
48
1
60
0
100
AcDbSpline
70
4
71
2
72
6
73
3
40
0
40
0
40
0
40
1
40
1
40
1
41
1
10
76.9506124589183
20
-5.93265995166678
30
0
41
1
10
77.1180169770161
20
-6.22114999591344
30
0
41
1
10
77.2852815039537
20
-6.5097206732012
30
0
0
SPLINE
5
1D2
100
AcDbEntity
8
1
62
256
6
ByLayer
370
18
48
1
60
0
100
AcDbSpline
70
4
71
2
72
6
73
3
40
0
40
0
40
0
40
1
40
1
40
1
41
1
10
61.8494005304868
20
-7.0692183030317
30
0
41
1
10
62.1777409990104
20
-6.50266772740531
30
0
41
1
10
62.5063492590376
20
-5.93672697791288
30
0
0
SPLINE
5
1D3
100
AcDbEntity
8
1
62
256
6
ByLayer
370
18
48
1
60
0
100
AcDbSpline
70
4
71
3
72
11
73
7
40
0
40
0
40
0
40
0
40
0.259210002639178
40
0.516812160736715
40
0.768208175684613
40
1
40
1
40
1
40
1
41
1
10
76.507053786796
20
-5.93568872010997
30
0
41
1
10
76.5204764298203
20
-5.90531681881859
30
0
41
1
10
76.5666773476547
20
-5.85829460915912
30
0
41
1
10
76.7050945926093
20
-5.79778176451566
30
0
41
1
10
76.870168585718
20
-5.83606316699107
30
0
41
1
10
76.9353558418017
20
-5.90426568182809
30
0
41
1
10
76.9617370870471
20
-5.94823985079987
30
0
0
SPLINE
5
1D4
100
AcDbEntity
8
1
62
256
6
ByLayer
370
18
48
1
60
0
100
AcDbSpline
70
4
71
2
72
6
73
3
40
0
40
0
40
0
40
1
40
1
40
1
41
1
10
60.9578678439896
20
-5.94430358345102
30
0
41
1
10
61.2854387328181
20
-6.509525119285
30
0
41
1
10
61.6128598433384
20
-7.0751518912777
30
0
0
SPLINE
5
1D5
100
AcDbEntity
8
1
62
256
6
ByLayer
370
18
48
1
60
0
100
AcDbSpline
70
4
71
2
72
6
73
3
40
0
40
0
40
0
40
1
40
1
40
1
41
1
10
66.6108722525815
20
7.07287455877298
30
0
41
1
10
66.2805726670825
20
6.50271187341968
30
0
41
1
10
65.9496220612897
20
5.93214148835662
30
0
0
SPLINE
5
1D6
100
AcDbEntity
8
1
62
256
6
ByLayer
370
18
48
1
60
0
100
AcDbSpline
70
4
71
3
72
13
73
9
40
0
40
0
40
0
40
0
40
0.230540121037678
40
0.395624535172505
40
0.491568691428007
40
0.54464723734467
40
0.721485907008727
40
1
40
1
40
1
40
1
41
1
10
60.5085137527233
20
-5.93311651149151
30
0
41
1
10
60.5237318403481
20
-5.90253440669585
30
0
41
1
10
60.5660747297619
20
-5.86016521385992
30
0
41
1
10
60.6576306821651
20
-5.8192901417541
30
0
41
1
10
60.7263333394489
20
-5.81215525713324
30
0
41
1
10
60.8108011231701
20
-5.82128154805429
30
0
41
1
10
60.891068706699
20
-5.86155242662167
30
0
41
1
10
60.9365767963054
20
-5.89954220758005
30
0
41
1
10
60.9477392913079
20
-5.92812853258434
30
0
0
SPLINE
5
1D7
100
AcDbEntity
8
1
62
256
6
ByLayer
370
18
48
1
60
0
100
AcDbSpline
70
4
71
2
72
6
73
3
40
0
40
0
40
0
40
1
40
1
40
1
41
1
10
60.3729783464314
20
-6.16638760017201
30
0
41
1
10
60.4395262584586
20
-6.05172937609643
30
0
41
1
10
60.5061086159424
20
-5.93708904491152
30
0
0
SPLINE
5
1D8
100
AcDbEntity
8
1
62
256
6
ByLayer
370
18
48
1
60
0
100
AcDbSpline
70
4
71
2
72
6
73
3
40
0
40
0
40
0
40
1
40
1
40
1
41
1
10
67.5107781798611
20
5.92895563763048
30
0
41
1
10
67.1820893783895
20
6.49474483158107
30
0
41
1
10
66.8537479809186
20
7.06131037248079
30
0
0
SPLINE
5
1D9
100
AcDbEntity
8
1
62
256
6
ByLayer
370
18
48
1
60
0
100
AcDbSpline
70
4
71
2
72
6
73
3
40
0
40
0
40
0
40
1
40
1
40
1
41
1
10
75.9648783161142
20
-6.87014682840081
30
0
41
1
10
76.2372255067561
20
-6.4003313419847
30
0
41
1
10
76.510183004997
20
-5.93033340425245
30
0
0
SPLINE
5
1DA
100
AcDbEntity
8
1
62
256
6
ByLayer
370
18
48
1
60
0
100
AcDbSpline
70
4
71
3
72
11
73
7
40
0
40
0
40
0
40
0
40
0.228952223206998
40
0.475408599896713
40
0.735044592440811
40
1
40
1
40
1
40
1
41
1
10
67.9505081093685
20
5.933470100867
30
0
41
1
10
67.9350798422871
20
5.90364292994363
30
0
41
1
10
67.8880058174079
20
5.85505392285287
30
0
41
1
10
67.7488096845906
20
5.79843733941843
30
0
41
1
10
67.5879461828949
20
5.83931774019513
30
0
41
1
10
67.529845292085
20
5.89464990295247
30
0
41
1
10
67.5083772890488
20
5.93326445505141
30
0
0
SPLINE
5
1DB
100
AcDbEntity
8
1
62
256
6
ByLayer
370
18
48
1
60
0
100
AcDbSpline
70
4
71
1
72
4
73
2
40
0
40
0
40
1
40
1
41
1
10
75.5780499007594
20
-6.98111580600013
30
0
41
1
10
75.952389374903
20
-6.88357118118134
30
0
0
SPLINE
5
1DC
100
AcDbEntity
8
1
62
256
6
ByLayer
370
18
48
1
60
0
100
AcDbSpline
70
4
71
2
72
6
73
3
40
0
40
0
40
0
40
1
40
1
40
1
41
1
10
74.9505480624301
20
-5.93297842488192
30
0
41
1
10
75.2507217785434
20
-6.45032915229294
30
0
41
1
10
75.5505030844462
20
-6.96793791212329
30
0
0
SPLINE
5
1DD
100
AcDbEntity
8
1
62
256
6
ByLayer
370
18
48
1
60
0
100
AcDbSpline
70
4
71
3
72
13
73
9
40
0
40
0
40
0
40
0
40
0.289118858094288
40
0.466115907201407
40
0.514738961783022
40
0.606548067995533
40
0.769713382035555
40
1
40
1
40
1
40
1
41
1
10
74.5113659568303
20
-5.92816091495459
30
0
41
1
10
74.5245319162735
20
-5.89646535750791
30
0
41
1
10
74.5734560575222
20
-5.85662031587236
30
0
41
1
10
74.656773665863
20
-5.81878535673138
30
0
41
1
10
74.7386135925663
20
-5.81233770550489
30
0
41
1
10
74.8037874501416
20
-5.82006668307687
30
0
41
1
10
74.8933244347656
20
-5.86035989854028
30
0
41
1
10
74.9352697526376
20
-5.90251605433852
30
0
41
1
10
74.9505591062862
20
-5.9329974633597
30
0
0
SPLINE
5
1DE
100
AcDbEntity
8
1
62
256
6
ByLayer
370
18
48
1
60
0
100
AcDbSpline
70
4
71
2
72
6
73
3
40
0
40
0
40
0
40
1
40
1
40
1
41
1
10
68.6045290773856
20
7.06147968105057
30
0
41
1
10
68.2764725362567
20
6.49497653081406
30
0
41
1
10
67.9481136963477
20
5.92915133024198
30
0
0
SPLINE
5
1DF
100
AcDbEntity
8
1
62
256
6
ByLayer
370
18
48
1
60
0
100
AcDbSpline
70
4
71
2
72
6
73
3
40
0
40
0
40
0
40
1
40
1
40
1
41
1
10
69.5097579002234
20
5.93131860125959
30
0
41
1
10
69.1784084584152
20
6.5020721943753
30
0
41
1
10
68.8483574612035
20
7.07153955073693
30
0
0
SPLINE
5
1E0
100
AcDbEntity
8
1
62
256
6
ByLayer
370
18
48
1
60
0
100
AcDbSpline
70
4
71
3
72
12
73
8
40
0
40
0
40
0
40
0
40
0.2106605137179
40
0.457817637140615
40
0.591959612921154
40
0.728906299385453
40
1
40
1
40
1
40
1
41
1
10
69.9769234955539
20
5.95838994211471
30
0
41
1
10
69.9570919312771
20
5.92075957686419
30
0
41
1
10
69.9027514467622
20
5.85533624733282
30
0
41
1
10
69.7843952435849
20
5.80632573338465
30
0
41
1
10
69.6800361032469
20
5.81095278745133
30
0
41
1
10
69.5796795397484
20
5.8473768764203
30
0
41
1
10
69.5304795909551
20
5.89388694820431
30
0
41
1
10
69.5076014073824
20
5.93506707074499
30
0
0
SPLINE
5
1E1
100
AcDbEntity
8
1
62
256
6
ByLayer
370
18
48
1
60
0
100
AcDbSpline
70
4
71
2
72
6
73
3
40
0
40
0
40
0
40
1
40
1
40
1
41
1
10
73.8458286192211
20
-7.07478863120065
30
0
41
1
10
74.1734926796775
20
-6.50917009858426
30
0
41
1
10
74.5013264274427
20
-5.94404006246978
30
0
0
SPLINE
5
1E2
100
AcDbEntity
8
1
62
256
6
ByLayer
370
18
48
1
60
0
100
AcDbSpline
70
4
71
3
72
10
73
6
40
0
40
0
40
0
40
0
40
0.336258808674555
40
0.693927926896925
40
1
40
1
40
1
40
1
41
1
10
72.6454806095587
20
-5.8259258892837
30
0
41
1
10
72.6673759125641
20
-5.81170427402924
30
0
41
1
10
72.7202096526547
20
-5.79905721853498
30
0
41
1
10
72.847403011818
20
-5.81214314178465
30
0
41
1
10
72.9113992970549
20
-5.87497419692383
30
0
41
1
10
72.9405009434903
20
-5.91290963038443
30
0
0
SPLINE
5
1E3
100
AcDbEntity
8
1
62
256
6
ByLayer
370
18
48
1
60
0
100
AcDbSpline
70
4
71
2
72
6
73
3
40
0
40
0
40
0
40
1
40
1
40
1
41
1
10
72.9544862287992
20
-5.93959172280432
30
0
41
1
10
73.2828661352136
20
-6.50581593018561
30
0
41
1
10
73.6109346733656
20
-7.07237909464394
30
0
0
LINE
5
7F
100
AcDbEntity
8
80
62
256
6
ByLayer
370
18
48
1
60
0
100
AcDbLine
10
0
20
0
30
0
11
-5
21
0
31
0
39
0
210
0
220
0
230
1
0
LINE
5
80
100
AcDbEntity
8
4
62
256
6
ByLayer
370
18
48
0.05
60
0
100
AcDbLine
10
0
20
0
30
0
11
81
21
0
31
0
39
0
210
0
220
0
230
1
0
LINE
5
82
100
AcDbEntity
8
81
62
256
6
ByLayer
370
18
48
1
60
0
100
AcDbLine
10
81
20
0
30
0
11
86
21
0
31
0
39
0
210
0
220
0
230
1
0
LINE
5
83
100
AcDbEntity
8
SK4
62
256
6
ByLayer
370
18
48
0.05
60
0
100
AcDbLine
10
-29
20
0
30
0
11
81
21
0
31
0
39
0
210
0
220
0
230
1
0
LINE
5
85
100
AcDbEntity
8
1
62
256
6
ByLayer
370
18
48
1
60
0
100
AcDbLine
10
0
20
5.5
30
0
11
0
21
-5.5
31
0
39
0
210
0
220
0
230
1
0
LINE
5
86
100
AcDbEntity
8
1
62
256
6
ByLayer
370
13
48
1
60
0
100
AcDbLine
10
78.508393
20
-5.933316
30
0
11
78.503125
21
-5.941539
31
0
39
0
210
0
220
0
230
1
0
LINE
5
87
100
AcDbEntity
8
1
62
256
6
ByLayer
370
18
48
1
60
0
100
AcDbLine
10
81
20
5.205732
30
0
11
81
21
5.199627
31
0
39
0
210
0
220
0
230
1
0
LINE
5
88
100
AcDbEntity
8
1
62
256
6
ByLayer
370
18
48
1
60
0
100
AcDbLine
10
78.316956
20
-6.260574
30
0
11
78.311062
21
-6.266442
31
0
39
0
210
0
220
0
230
1
0
LINE
5
89
100
AcDbEntity
8
1
62
256
6
ByLayer
370
18
48
1
60
0
100
AcDbLine
10
76.510184
20
-5.930332
30
0
11
76.505193
21
-5.938601
31
0
39
0
210
0
220
0
230
1
0
LINE
5
8A
100
AcDbEntity
8
1
62
256
6
ByLayer
370
18
48
1
60
0
100
AcDbLine
10
67.510821
20
5.928875
30
0
11
67.507003
21
5.935581
31
0
39
0
210
0
220
0
230
1
0
LINE
5
8B
100
AcDbEntity
8
1
62
256
6
ByLayer
370
18
48
1
60
0
100
AcDbLine
10
67.951227
20
5.9347
30
0
11
67.948209
21
5.92933
31
0
39
0
210
0
220
0
230
1
0
LINE
5
8C
100
AcDbEntity
8
1
62
256
6
ByLayer
370
18
48
1
60
0
100
AcDbLine
10
69.509628
20
5.931552
30
0
11
69.506937
21
5.936166
31
0
39
0
210
0
220
0
230
1
0
LINE
5
8D
100
AcDbEntity
8
1
62
256
6
ByLayer
370
13
48
1
60
0
100
AcDbLine
10
60.288734
20
-6.05
30
0
11
60.288734
21
-5.707339
31
0
39
0
210
0
220
0
230
1
0
LINE
5
8E
100
AcDbEntity
8
1
62
256
6
ByLayer
370
13
48
1
60
0
100
AcDbLine
10
59.076298
20
-5.35
30
0
11
59.076298
21
-4.724083
31
0
39
0
210
0
220
0
230
1
0
LINE
5
8F
100
AcDbEntity
8
1
62
256
6
ByLayer
370
13
48
1
60
0
100
AcDbLine
10
21.653835
20
-5.35
30
0
11
21.653835
21
5.35
31
0
39
0
210
0
220
0
230
1
0
LINE
5
90
100
AcDbEntity
8
1
62
256
6
ByLayer
370
18
48
1
60
0
100
AcDbLine
10
21
20
5.5
30
0
11
21
21
-5.5
31
0
39
0
210
0
220
0
230
1
0
LINE
5
91
100
AcDbEntity
8
1
62
256
6
ByLayer
370
13
48
1
60
0
100
AcDbLine
10
59.076298
20
1.784872
30
0
11
59.076298
21
4.536703
31
0
39
0
210
0
220
0
230
1
0
LINE
5
92
100
AcDbEntity
8
1
62
256
6
ByLayer
370
13
48
1
60
0
100
AcDbLine
10
60.288734
20
4.591941
30
0
11
60.288734
21
4.19657
31
0
39
0
210
0
220
0
230
1
0
LINE
5
93
100
AcDbEntity
8
1
62
256
6
ByLayer
370
18
48
1
60
0
100
AcDbLine
10
60.88453
20
5.10599
30
0
11
60.88453
21
4.914757
31
0
39
0
210
0
220
0
230
1
0
LINE
5
94
100
AcDbEntity
8
SK1
62
256
6
ByLayer
370
18
48
1
60
0
100
AcDbLine
10
-29
20
3.68
30
0
11
-29
21
-3.68
31
0
39
0
210
0
220
0
230
1
0
LINE
5
96
100
AcDbEntity
8
SK1
62
256
6
ByLayer
370
18
48
1
60
0
100
AcDbLine
10
-17
20
2.761956
30
0
11
-17
21
-2.761956
31
0
39
0
210
0
220
0
230
1
0
LINE
5
97
100
AcDbEntity
8
SK1
62
256
6
ByLayer
370
18
48
1
60
0
100
AcDbLine
10
-17
20
4.5
30
0
11
-16.22
21
5.28
31
0
39
0
210
0
220
0
230
1
0
LINE
5
98
100
AcDbEntity
8
SK1
62
256
6
ByLayer
370
18
48
1
60
0
100
AcDbLine
10
-27.4
20
4.5
30
0
11
-17
21
4.5
31
0
39
0
210
0
220
0
230
1
0
LINE
5
99
100
AcDbEntity
8
SK1
62
256
6
ByLayer
370
18
48
1
60
0
100
AcDbLine
10
-27.4
20
2.761956
30
0
11
-27.4
21
4.5
31
0
39
0
210
0
220
0
230
1
0
LINE
5
9A
100
AcDbEntity
8
SK1
62
256
6
ByLayer
370
18
48
1
60
0
100
AcDbLine
10
-17
20
2.761956
30
0
11
-27.4
21
2.761956
31
0
39
0
210
0
220
0
230
1
0
LINE
5
9B
100
AcDbEntity
8
SK1
62
256
6
ByLayer
370
18
48
1
60
0
100
AcDbLine
10
-27.4
20
-2.761956
30
0
11
-17
21
-2.761956
31
0
39
0
210
0
220
0
230
1
0
LINE
5
9C
100
AcDbEntity
8
SK1
62
256
6
ByLayer
370
18
48
1
60
0
100
AcDbLine
10
-27.4
20
-4.5
30
0
11
-27.4
21
-2.761956
31
0
39
0
210
0
220
0
230
1
0
LINE
5
9D
100
AcDbEntity
8
SK1
62
256
6
ByLayer
370
18
48
1
60
0
100
AcDbLine
10
-17
20
-4.5
30
0
11
-27.4
21
-4.5
31
0
39
0
210
0
220
0
230
1
0
LINE
5
9E
100
AcDbEntity
8
SK1
62
256
6
ByLayer
370
18
48
1
60
0
100
AcDbLine
10
-17
20
-4.5
30
0
11
-16.22
21
-5.28
31
0
39
0
210
0
220
0
230
1
0
LINE
5
9F
100
AcDbEntity
8
SK1
62
256
6
ByLayer
370
18
48
1
60
0
100
AcDbLine
10
0
20
5.5
30
0
11
0
21
-5.5
31
0
39
0
210
0
220
0
230
1
0
LINE
5
A0
100
AcDbEntity
8
SK1
62
256
6
ByLayer
370
18
48
1
60
0
100
AcDbLine
10
-14.6
20
5.28
30
0
11
-14.6
21
-5.28
31
0
39
0
210
0
220
0
230
1
0
LINE
5
A1
100
AcDbEntity
8
SK1
62
256
6
ByLayer
370
18
48
1
60
0
100
AcDbLine
10
-14.38
20
-5.5
30
0
11
-14.38
21
5.5
31
0
39
0
210
0
220
0
230
1
0
LINE
5
A2
100
AcDbEntity
8
1
62
256
6
ByLayer
370
18
48
1
60
0
100
AcDbLine
10
21
20
5.5
30
0
11
0
21
5.5
31
0
39
0
210
0
220
0
230
1
0
LINE
5
A3
100
AcDbEntity
8
1
62
256
6
ByLayer
370
18
48
1
60
0
100
AcDbLine
10
0
20
-5.5
30
0
11
21
21
-5.5
31
0
39
0
210
0
220
0
230
1
0
LINE
5
A4
100
AcDbEntity
8
1
62
256
6
ByLayer
370
18
48
1
60
0
100
AcDbLine
10
61.62871
20
-7.081949
30
0
11
61.829276
21
-7.081949
31
0
39
0
210
0
220
0
230
1
0
LINE
5
A5
100
AcDbEntity
8
1
62
256
6
ByLayer
370
18
48
1
60
0
100
AcDbLine
10
66.82988
20
7.081949
30
0
11
66.628625
21
7.081949
31
0
39
0
210
0
220
0
230
1
0
LINE
5
A6
100
AcDbEntity
8
1
62
256
6
ByLayer
370
18
48
1
60
0
100
AcDbLine
10
60.288734
20
-6.05
30
0
11
60.347647
21
-6.15204
31
0
39
0
210
0
220
0
230
1
0
LINE
5
A7
100
AcDbEntity
8
1
62
256
6
ByLayer
370
18
48
1
60
0
100
AcDbLine
10
68.829752
20
7.081949
30
0
11
68.628622
21
7.081949
31
0
39
0
210
0
220
0
230
1
0
LINE
5
A8
100
AcDbEntity
8
1
62
256
6
ByLayer
370
18
48
1
60
0
100
AcDbLine
10
73.628622
20
-7.081949
30
0
11
73.829693
21
-7.081949
31
0
39
0
210
0
220
0
230
1
0
LINE
5
A9
100
AcDbEntity
8
1
62
256
6
ByLayer
370
18
48
1
60
0
100
AcDbLine
10
21.653835
20
-5.35
30
0
11
32.511084
21
-5.35
31
0
39
0
210
0
220
0
230
1
0
LINE
5
AA
100
AcDbEntity
8
1
62
256
6
ByLayer
370
18
48
1
60
0
100
AcDbLine
10
42.559132
20
-5.35
30
0
11
47.389171
21
-5.35
31
0
39
0
210
0
220
0
230
1
0
LINE
5
AB
100
AcDbEntity
8
1
62
256
6
ByLayer
370
18
48
1
60
0
100
AcDbLine
10
57.746854
20
-5.35
30
0
11
59.076298
21
-5.35
31
0
39
0
210
0
220
0
230
1
0
LINE
5
AC
100
AcDbEntity
8
1
62
256
6
ByLayer
370
18
48
1
60
0
100
AcDbLine
10
55.009527
20
5.35
30
0
11
50.15272
21
5.35
31
0
39
0
210
0
220
0
230
1
0
LINE
5
AD
100
AcDbEntity
8
1
62
256
6
ByLayer
370
18
48
1
60
0
100
AcDbLine
10
39.768137
20
5.35
30
0
11
21.653835
21
5.35
31
0
39
0
210
0
220
0
230
1
0
LINE
5
AE
100
AcDbEntity
8
SK1
62
256
6
ByLayer
370
18
48
1
60
0
100
AcDbLine
10
-29
20
-3.68
30
0
11
-28.18
21
-4.5
31
0
39
0
210
0
220
0
230
1
0
LINE
5
AF
100
AcDbEntity
8
SK1
62
256
6
ByLayer
370
18
48
1
60
0
100
AcDbLine
10
-28.18
20
4.5
30
0
11
-29
21
3.68
31
0
39
0
210
0
220
0
230
1
0
LINE
5
B0
100
AcDbEntity
8
SK1
62
256
6
ByLayer
370
18
48
1
60
0
100
AcDbLine
10
-14.6
20
5.28
30
0
11
-16.22
21
5.28
31
0
39
0
210
0
220
0
230
1
0
LINE
5
B1
100
AcDbEntity
8
SK1
62
256
6
ByLayer
370
18
48
1
60
0
100
AcDbLine
10
-16.22
20
-5.28
30
0
11
-14.6
21
-5.28
31
0
39
0
210
0
220
0
230
1
0
LINE
5
B2
100
AcDbEntity
8
SK1
62
256
6
ByLayer
370
18
48
1
60
0
100
AcDbLine
10
0
20
5.5
30
0
11
-14.38
21
5.5
31
0
39
0
210
0
220
0
230
1
0
LINE
5
B3
100
AcDbEntity
8
SK1
62
256
6
ByLayer
370
18
48
1
60
0
100
AcDbLine
10
-14.38
20
-5.5
30
0
11
0
21
-5.5
31
0
39
0
210
0
220
0
230
1
0
LINE
5
B4
100
AcDbEntity
8
SK1
62
256
6
ByLayer
370
18
48
1
60
0
100
AcDbLine
10
-14.6
20
-5.28
30
0
11
-14.38
21
-5.5
31
0
39
0
210
0
220
0
230
1
0
LINE
5
B5
100
AcDbEntity
8
SK1
62
256
6
ByLayer
370
18
48
1
60
0
100
AcDbLine
10
-14.38
20
5.5
30
0
11
-14.6
21
5.28
31
0
39
0
210
0
220
0
230
1
0
LINE
5
B6
100
AcDbEntity
8
SK2
62
256
6
ByLayer
370
18
48
1
60
0
100
AcDbLine
10
11.31
20
-5.5
30
0
11
11.31
21
19.083885
31
0
39
0
210
0
220
0
230
1
0
LINE
5
B8
100
AcDbEntity
8
1
62
256
6
ByLayer
370
18
48
1
60
1
100
AcDbLine
10
11.31
20
5.5
30
0
11
11.770784
21
2.000002
31
0
39
0
210
0
220
0
230
1
0
LINE
5
B9
100
AcDbEntity
8
1
62
256
6
ByLayer
370
18
48
1
60
1
100
AcDbLine
10
11.770784
20
2.000002
30
0
11
10.849216
21
1.999998
31
0
39
0
210
0
220
0
230
1
0
LINE
5
BA
100
AcDbEntity
8
1
62
256
6
ByLayer
370
18
48
1
60
1
100
AcDbLine
10
10.849216
20
1.999998
30
0
11
11.31
21
5.5
31
0
39
0
210
0
220
0
230
1
0
LINE
5
BB
100
AcDbEntity
8
1
62
256
6
ByLayer
370
18
48
1
60
1
100
AcDbLine
10
11.31
20
-5.5
30
0
11
10.849216
21
-2.000002
31
0
39
0
210
0
220
0
230
1
0
LINE
5
BC
100
AcDbEntity
8
1
62
256
6
ByLayer
370
18
48
1
60
1
100
AcDbLine
10
10.849216
20
-2.000002
30
0
11
11.770784
21
-1.999998
31
0
39
0
210
0
220
0
230
1
0
LINE
5
BD
100
AcDbEntity
8
1
62
256
6
ByLayer
370
18
48
1
60
1
100
AcDbLine
10
11.770784
20
-1.999998
30
0
11
11.31
21
-5.5
31
0
39
0
210
0
220
0
230
1
0
LINE
5
BE
100
AcDbEntity
8
2
62
256
6
ByLayer
370
18
48
1
60
0
100
AcDbLine
10
81
20
-44.581949
30
0
11
-29
21
-44.581949
31
0
39
0
210
0
220
0
230
1
0
LINE
5
C0
100
AcDbEntity
8
2
62
256
6
ByLayer
370
18
48
1
60
0
100
AcDbLine
10
-29
20
-5.2675
30
0
11
-29
21
-46.581949
31
0
39
0
210
0
220
0
230
1
0
LINE
5
C1
100
AcDbEntity
8
2
62
256
6
ByLayer
370
18
48
1
60
0
100
AcDbLine
10
81
20
-8.669449
30
0
11
81
21
-46.581949
31
0
39
0
210
0
220
0
230
1
0
LINE
5
C2
100
AcDbEntity
8
1
62
256
6
ByLayer
370
18
48
1
60
1
100
AcDbLine
10
-29
20
-44.581949
30
0
11
-25.500002
21
-44.121165
31
0
39
0
210
0
220
0
230
1
0
LINE
5
C3
100
AcDbEntity
8
1
62
256
6
ByLayer
370
18
48
1
60
1
100
AcDbLine
10
-25.500002
20
-44.121165
30
0
11
-25.499998
21
-45.042733
31
0
39
0
210
0
220
0
230
1
0
LINE
5
C4
100
AcDbEntity
8
1
62
256
6
ByLayer
370
18
48
1
60
1
100
AcDbLine
10
-25.499998
20
-45.042733
30
0
11
-29
21
-44.581949
31
0
39
0
210
0
220
0
230
1
0
LINE
5
C5
100
AcDbEntity
8
1
62
256
6
ByLayer
370
18
48
1
60
1
100
AcDbLine
10
81
20
-44.581949
30
0
11
77.500002
21
-45.042733
31
0
39
0
210
0
220
0
230
1
0
LINE
5
C6
100
AcDbEntity
8
1
62
256
6
ByLayer
370
18
48
1
60
1
100
AcDbLine
10
77.500002
20
-45.042733
30
0
11
77.499998
21
-44.121165
31
0
39
0
210
0
220
0
230
1
0
LINE
5
C7
100
AcDbEntity
8
1
62
256
6
ByLayer
370
18
48
1
60
1
100
AcDbLine
10
77.499998
20
-44.121165
30
0
11
81
21
-44.581949
31
0
39
0
210
0
220
0
230
1
0
LINE
5
1E8
100
AcDbEntity
8
1
62
256
6
ByLayer
370
18
48
1
60
1
100
AcDbLine
10
11.31
20
5.5
30
0
11
11.770784
21
2.000002
31
0
39
0
210
0
220
0
230
1
0
LINE
5
1E9
100
AcDbEntity
8
1
62
256
6
ByLayer
370
18
48
1
60
1
100
AcDbLine
10
11.770784
20
2.000002
30
0
11
10.849216
21
1.999998
31
0
39
0
210
0
220
0
230
1
0
LINE
5
1EA
100
AcDbEntity
8
1
62
256
6
ByLayer
370
18
48
1
60
1
100
AcDbLine
10
10.849216
20
1.999998
30
0
11
11.31
21
5.5
31
0
39
0
210
0
220
0
230
1
0
LINE
5
1EC
100
AcDbEntity
8
1
62
256
6
ByLayer
370
18
48
1
60
1
100
AcDbLine
10
11.31
20
-5.5
30
0
11
10.849216
21
-2.000002
31
0
39
0
210
0
220
0
230
1
0
LINE
5
1ED
100
AcDbEntity
8
1
62
256
6
ByLayer
370
18
48
1
60
1
100
AcDbLine
10
10.849216
20
-2.000002
30
0
11
11.770784
21
-1.999998
31
0
39
0
210
0
220
0
230
1
0
LINE
5
1EE
100
AcDbEntity
8
1
62
256
6
ByLayer
370
18
48
1
60
1
100
AcDbLine
10
11.770784
20
-1.999998
30
0
11
11.31
21
-5.5
31
0
39
0
210
0
220
0
230
1
0
LINE
5
1F1
100
AcDbEntity
8
1
62
256
6
ByLayer
370
18
48
1
60
1
100
AcDbLine
10
-29
20
-44.581949
30
0
11
-25.500002
21
-44.121165
31
0
39
0
210
0
220
0
230
1
0
LINE
5
1F2
100
AcDbEntity
8
1
62
256
6
ByLayer
370
18
48
1
60
1
100
AcDbLine
10
-25.500002
20
-44.121165
30
0
11
-25.499998
21
-45.042733
31
0
39
0
210
0
220
0
230
1
0
LINE
5
1F3
100
AcDbEntity
8
1
62
256
6
ByLayer
370
18
48
1
60
1
100
AcDbLine
10
-25.499998
20
-45.042733
30
0
11
-29
21
-44.581949
31
0
39
0
210
0
220
0
230
1
0
LINE
5
1F5
100
AcDbEntity
8
1
62
256
6
ByLayer
370
18
48
1
60
1
100
AcDbLine
10
81
20
-44.581949
30
0
11
77.500002
21
-45.042733
31
0
39
0
210
0
220
0
230
1
0
LINE
5
1F6
100
AcDbEntity
8
1
62
256
6
ByLayer
370
18
48
1
60
1
100
AcDbLine
10
77.500002
20
-45.042733
30
0
11
77.499998
21
-44.121165
31
0
39
0
210
0
220
0
230
1
0
LINE
5
1F7
100
AcDbEntity
8
1
62
256
6
ByLayer
370
18
48
1
60
1
100
AcDbLine
10
77.499998
20
-44.121165
30
0
11
81
21
-44.581949
31
0
39
0
210
0
220
0
230
1
0
MTEXT
5
1E4
100
AcDbEntity
8
SK2
62
256
6
ByLayer
370
18
48
1
60
0
100
AcDbMText
10
9.968886
20
11.158437
30
0
210
0
220
0
230
1
1
%%c
40
3
41
0
44
1.084337
50
90
71
7
72
5
7
iso_b_vert
0
MTEXT
5
1E7
100
AcDbEntity
8
SK2
62
256
6
ByLayer
370
18
48
1
60
0
100
AcDbMText
10
9.968886
20
17.135
30
0
210
0
220
0
230
1
1
\W0.4657;11
40
3
41
0
44
1.084337
50
90
71
7
72
5
7
iso_b_vert
0
MTEXT
5
1F0
100
AcDbEntity
8
2
62
256
6
ByLayer
370
18
48
1
60
0
100
AcDbMText
10
23.996143
20
-43.696834
30
0
210
0
220
0
230
1
1
\W0.5296;110
40
3
41
0
44
1.084337
50
0
71
7
72
5
7
iso_b_vert
0
MTEXT
5
1F9
100
AcDbEntity
8
SK6
62
256
6
ByLayer
370
18
48
1
60
0
100
AcDbMText
10
9.824987
20
-82.114886
30
0
210
0
220
0
230
1
1
\W0.7335;T300-XM101DA-M14    C145
40
3
41
0
44
1.084337
50
0
71
7
72
5
7
iso_b_vert
0
HATCH
5
1EB
100
AcDbEntity
8
SK2
62
256
6
ByLayer
370
13
48
1
60
0
100
AcDbHatch
10
0
20
0
30
0
210
0
220
0
230
1
2
ANSI31
70
0
71
0
91
1
92
5
93
3
72
1
10
11.31
20
5.50000000000003
11
11.7707837415528
21
2.00000169255321
72
1
10
11.7707837415528
20
2.00000169255321
11
10.8492162584472
21
1.99999830744685
72
1
10
10.8492162584472
20
1.99999830744685
11
11.31
21
5.50000000000003
97
0
75
0
76
1
52
0
41
0.0062
77
0
78
1
53
45
43
0
44
0
45
-0.0139193969876572
46
0.0139193969876572
79
0
47
0
98
1
10
0
20
0
0
HATCH
5
1EF
100
AcDbEntity
8
SK2
62
256
6
ByLayer
370
13
48
1
60
0
100
AcDbHatch
10
0
20
0
30
0
210
0
220
0
230
1
2
ANSI31
70
0
71
0
91
1
92
5
93
3
72
1
10
11.31
20
-5.49999999999997
11
10.8492162584472
21
-2.00000169255316
72
1
10
10.8492162584472
20
-2.00000169255316
11
11.7707837415528
21
-1.99999830744679
72
1
10
11.7707837415528
20
-1.99999830744679
11
11.31
21
-5.49999999999997
97
0
75
0
76
1
52
0
41
0.0062
77
0
78
1
53
45
43
0
44
0
45
-0.0139193969876572
46
0.0139193969876572
79
0
47
0
98
1
10
0
20
0
0
HATCH
5
1F4
100
AcDbEntity
8
2
62
256
6
ByLayer
370
13
48
1
60
0
100
AcDbHatch
10
0
20
0
30
0
210
0
220
0
230
1
2
ANSI31
70
0
71
0
91
1
92
5
93
3
72
1
10
-29
20
-44.5819489098992
11
-25.5000016925532
21
-44.1211651683465
72
1
10
-25.5000016925532
20
-44.1211651683465
11
-25.4999983074468
21
-45.042732651452
72
1
10
-25.4999983074468
20
-45.042732651452
11
-29
21
-44.5819489098992
97
0
75
0
76
1
52
0
41
0.0062
77
0
78
1
53
45
43
0
44
0
45
-0.0139193969876572
46
0.0139193969876572
79
0
47
0
98
1
10
0
20
0
0
HATCH
5
1F8
100
AcDbEntity
8
2
62
256
6
ByLayer
370
13
48
1
60
0
100
AcDbHatch
10
0
20
0
30
0
210
0
220
0
230
1
2
ANSI31
70
0
71
0
91
1
92
5
93
3
72
1
10
81
20
-44.5819489098992
11
77.5000016925532
21
-45.042732651452
72
1
10
77.5000016925532
20
-45.042732651452
11
77.4999983074468
21
-44.1211651683465
72
1
10
77.4999983074468
20
-44.1211651683465
11
81
21
-44.5819489098992
97
0
75
0
76
1
52
0
41
0.0062
77
0
78
1
53
45
43
0
44
0
45
-0.0139193969876572
46
0.0139193969876572
79
0
47
0
98
1
10
0
20
0
0
DIMENSION
5
1FC
100
AcDbEntity
8
2
62
256
6
ByLayer
370
18
48
1
60
0
100
AcDbDimension
2
_U0
10
100.5
20
-7.081949
30
0
11
100.5
21
25.867663
31
0
70
32
71
1
72
1
41
1
210
0
220
0
230
1
3
Standard
100
AcDbAlignedDimension
13
81
23
7.081949
33
0
14
81
24
-7.081949
34
0
50
90
100
AcDbRotatedDimension
1001
ACAD
1000
DSTYLE
1002
{
1070
   371
1070
    13
1070
   372
1070
    13
1070
     3
1000

1070
   170
1070
     0
1070
   144
1040
1.0
1070
   277
1070
     2
1070
   284
1070
     8
1070
   278
1070
    46
1070
   146
1040
1.166667
1070
   345
1005
16
1070
   347
1005
16
1070
   346
1005
16
1070
   344
1005
0
1070
   343
1005
0
1070
   172
1070
     1
1070
    76
1070
     0
1070
    75
1070
     0
1070
   282
1070
     0
1070
   281
1070
     0
1070
    71
1070
     0
1070
    74
1070
     0
1070
   279
1070
     0
1070
   173
1070
     1
1070
   340
1005
1E5
1070
   271
1070
     3
1070
   272
1070
     3
1070
    77
1070
     1
1070
    73
1070
     0
1070
   171
1070
     3
1070
   274
1070
     4
1070
   177
1070
     2
1070
   176
1070
     2
1070
   178
1070
     2
1070
    78
1070
     8
1070
    48
1040
-0.1
1070
    41
1040
3.5
1070
   147
1040
1.5
1070
    42
1040
1.5875
1070
    44
1040
2.0
1070
   140
1040
3.0
1002
}
1001
ACAD_DSTYLE_DIM_LINETYPE
1070
   380
1005
16
1001
ACAD_DSTYLE_DIM_EXT1_LINETYPE
1070
   381
1005
16
1001
ACAD_DSTYLE_DIM_EXT2_LINETYPE
1070
   382
1005
16
0
DIMENSION
5
217
100
AcDbEntity
8
SK2
62
256
6
ByLayer
370
18
48
1
60
0
100
AcDbDimension
2
_U1
10
75.5
20
17.65512
30
0
11
78.25
21
17.65512
31
0
70
32
71
1
72
1
41
1
210
0
220
0
230
1
3
Standard
100
AcDbAlignedDimension
13
81
23
7.081949
33
0
14
75.5
24
0
34
0
50
0
100
AcDbRotatedDimension
1001
ACAD
1000
DSTYLE
1002
{
1070
   371
1070
    13
1070
   372
1070
    13
1070
   170
1070
     0
1070
   144
1040
1.0
1070
   277
1070
     2
1070
   284
1070
     8
1070
   278
1070
    46
1070
   146
1040
1.166667
1070
   345
1005
16
1070
   347
1005
16
1070
   346
1005
16
1070
   344
1005
0
1070
   343
1005
0
1070
   172
1070
     1
1070
    76
1070
     0
1070
    75
1070
     0
1070
   282
1070
     0
1070
   281
1070
     0
1070
    71
1070
     0
1070
    74
1070
     0
1070
   279
1070
     0
1070
   173
1070
     1
1070
   340
1005
1E5
1070
   271
1070
     3
1070
   272
1070
     3
1070
    77
1070
     1
1070
    73
1070
     1
1070
   171
1070
     3
1070
   274
1070
     4
1070
   177
1070
     2
1070
   176
1070
     2
1070
   178
1070
     2
1070
    78
1070
     8
1070
    48
1040
-0.1
1070
    41
1040
3.5
1070
   147
1040
1.5
1070
    42
1040
1.5875
1070
    44
1040
2.0
1070
   140
1040
3.0
1002
}
1001
ACAD_DSTYLE_DIM_LINETYPE
1070
   380
1005
16
1001
ACAD_DSTYLE_DIM_EXT1_LINETYPE
1070
   381
1005
16
1001
ACAD_DSTYLE_DIM_EXT2_LINETYPE
1070
   382
1005
16
0
DIMENSION
5
231
100
AcDbEntity
8
SK2
62
256
6
ByLayer
370
18
48
1
60
0
100
AcDbDimension
2
_U2
10
61
20
-14.081949
30
0
11
71.47619
21
-14.081949
31
0
70
32
71
1
72
1
41
1
210
0
220
0
230
1
3
Standard
100
AcDbAlignedDimension
13
81
23
-7.081949
33
0
14
61
24
-7.081949
34
0
50
0
100
AcDbRotatedDimension
1001
ACAD
1000
DSTYLE
1002
{
1070
   371
1070
    13
1070
   372
1070
    13
1070
   170
1070
     0
1070
   144
1040
1.0
1070
   277
1070
     2
1070
   284
1070
     8
1070
   278
1070
    46
1070
   146
1040
0.833333
1070
   345
1005
16
1070
   347
1005
16
1070
   346
1005
16
1070
   344
1005
0
1070
   343
1005
0
1070
   172
1070
     1
1070
    76
1070
     0
1070
    75
1070
     0
1070
   282
1070
     0
1070
   281
1070
     0
1070
    47
1040
0.5
1070
    72
1070
     0
1070
    71
1070
     1
1070
    74
1070
     0
1070
   279
1070
     0
1070
   173
1070
     1
1070
   340
1005
1E5
1070
   271
1070
     1
1070
   272
1070
     3
1070
    77
1070
     1
1070
    73
1070
     1
1070
   171
1070
     3
1070
   274
1070
     4
1070
   177
1070
     2
1070
   176
1070
     2
1070
   178
1070
     2
1070
    78
1070
     8
1070
    48
1040
0.5
1070
    41
1040
3.5
1070
   147
1040
1.5
1070
    42
1040
1.5875
1070
    44
1040
2.0
1070
   140
1040
3.0
1002
}
1001
ACAD_DSTYLE_DIM_LINETYPE
1070
   380
1005
16
1001
ACAD_DSTYLE_DIM_EXT1_LINETYPE
1070
   381
1005
16
1001
ACAD_DSTYLE_DIM_EXT2_LINETYPE
1070
   382
1005
16
0
DIMENSION
5
24A
100
AcDbEntity
8
SK2
62
256
6
ByLayer
370
18
48
1
60
0
100
AcDbDimension
2
_U3
10
21
20
-36.581949
30
0
11
51
21
-36.581949
31
0
70
32
71
1
72
1
41
1
210
0
220
0
230
1
3
Standard
100
AcDbAlignedDimension
13
81
23
-7.081949
33
0
14
21
24
-5.35
34
0
50
0
100
AcDbRotatedDimension
1001
ACAD
1000
DSTYLE
1002
{
1070
   371
1070
    13
1070
   372
1070
    13
1070
   170
1070
     0
1070
   144
1040
1.0
1070
   277
1070
     2
1070
   284
1070
     8
1070
   278
1070
    46
1070
   146
1040
1.166667
1070
   345
1005
16
1070
   347
1005
16
1070
   346
1005
16
1070
   344
1005
0
1070
   343
1005
0
1070
   172
1070
     1
1070
    76
1070
     0
1070
    75
1070
     0
1070
   282
1070
     0
1070
   281
1070
     0
1070
    71
1070
     0
1070
    74
1070
     0
1070
   279
1070
     0
1070
   173
1070
     1
1070
   340
1005
1E5
1070
   271
1070
     1
1070
   272
1070
     3
1070
    77
1070
     1
1070
    73
1070
     1
1070
   171
1070
     3
1070
   274
1070
     4
1070
   177
1070
     2
1070
   176
1070
     2
1070
   178
1070
     2
1070
    78
1070
     8
1070
    48
1040
-0.1
1070
    41
1040
3.5
1070
   147
1040
1.5
1070
    42
1040
1.5875
1070
    44
1040
2.0
1070
   140
1040
3.0
1002
}
1001
ACAD_DSTYLE_DIM_LINETYPE
1070
   380
1005
16
1001
ACAD_DSTYLE_DIM_EXT1_LINETYPE
1070
   381
1005
16
1001
ACAD_DSTYLE_DIM_EXT2_LINETYPE
1070
   382
1005
16
0
DIMENSION
5
262
100
AcDbEntity
8
2
62
256
6
ByLayer
370
18
48
1
60
0
100
AcDbDimension
2
_U4
10
30
20
-25.581949
30
0
11
55.5
21
-25.581949
31
0
70
32
71
1
72
1
41
1
210
0
220
0
230
1
3
Standard
100
AcDbAlignedDimension
13
81
23
-7.081949
33
0
14
30
24
0
34
0
50
0
100
AcDbRotatedDimension
1001
ACAD
1000
DSTYLE
1002
{
1070
   371
1070
    13
1070
   372
1070
    13
1070
   170
1070
     0
1070
   144
1040
1.0
1070
   277
1070
     2
1070
   284
1070
     8
1070
   278
1070
    46
1070
   146
1040
1.166667
1070
   345
1005
16
1070
   347
1005
16
1070
   346
1005
16
1070
   344
1005
0
1070
   343
1005
0
1070
   172
1070
     1
1070
    76
1070
     0
1070
    75
1070
     0
1070
   282
1070
     0
1070
   281
1070
     0
1070
    71
1070
     0
1070
    74
1070
     0
1070
   279
1070
     0
1070
   173
1070
     1
1070
   340
1005
1E5
1070
   271
1070
     1
1070
   272
1070
     3
1070
    77
1070
     1
1070
    73
1070
     1
1070
   171
1070
     3
1070
   274
1070
     4
1070
   177
1070
     2
1070
   176
1070
     2
1070
   178
1070
     2
1070
    78
1070
     8
1070
    48
1040
-0.1
1070
    41
1040
3.5
1070
   147
1040
1.5
1070
    42
1040
1.5875
1070
    44
1040
2.0
1070
   140
1040
3.0
1002
}
1001
ACAD_DSTYLE_DIM_LINETYPE
1070
   380
1005
16
1001
ACAD_DSTYLE_DIM_EXT1_LINETYPE
1070
   381
1005
16
1001
ACAD_DSTYLE_DIM_EXT2_LINETYPE
1070
   382
1005
16
0
ENDSEC
0
SECTION
2
OBJECTS
0
DICTIONARY
5
2ea
330
0
100
AcDbDictionary
280
0
281
1
3
ACAD_GROUP
350
2eb
3
ACAD_MLINESTYLE
350
2ec
0
DICTIONARY
5
2eb
330
0
100
AcDbDictionary
280
0
281
1
0
DICTIONARY
5
2ec
330
0
100
AcDbDictionary
280
0
281
1
3
Standard
350
18
0
MLINESTYLE
5
18
330
2ec
100
AcDbMlineStyle
2
Standard
70
0
3

62
256
51
90
52
90
71
2
49
-0.5
62
256
6
ByLayer
49
0.5
62
256
6
ByLayer
0
RASTERVARIABLES
5
2d8
330

100
AcDbRasterVariables
90
0
70
1
71
1
72
1
0
ENDSEC
0
EOF
