0
SECTION
2
HEADER
9
$ACADVER
1
AC1015
9
$DWGCODEPAGE
3
ANSI_1252
9
$HANDSEED
5
29e
9
$ANGBASE
50
0
9
$ANGDIR
70
0
9
$ATTMODE
70
1
9
$AUNITS
70
0
9
$AUPREC
70
0
9
$CECOLOR
62
256
9
$CELTSCALE
40
1
9
$CELTYPE
6
ByLayer
9
$CELWEIGHT
370
18
9
$CLAYER
8
0
9
$CMLJUST
70
0
9
$CMLSCALE
40
1
9
$CMLSTYLE
2
Standard
9
$DIMSTYLE
2
Standard
9
$TEXTSIZE
40
0.2
9
$TEXTSTYLE
7
Standard
9
$LUNITS
70
2
9
$LUPREC
70
4
9
$EXTNAMES
290
1
9
$INSUNITS
70
4
9
$LTSCALE
40
1
9
$LWDISPLAY
290
1
9
$PDMODE
70
0
9
$PDSIZE
40
0
9
$PLINEGEN
70
0
0
ENDSEC
0
SECTION
2
CLASSES
0
CLASS
1
RASTERVARIABLES
2
AcDbRasterVariables
3
ISM
90
0
280
0
281
0
0
ENDSEC
0
SECTION
2
TABLES
0
TABLE
2
VPORT
5
294
100
AcDbSymbolTable
0
VPORT
5
1
100
AcDbSymbolTableRecord
100
AcDbViewportTableRecord
2
*Active
70
0
10
0
20
0
11
1
21
1
12
-1
22
1
13
0
23
0
14
0.5
24
0.5
15
10
25
10
16
0
26
0
36
1
17
0
27
0
37
0
0
ENDTAB
0
TABLE
2
LTYPE
5
295
100
AcDbSymbolTable
0
LTYPE
5
14
100
AcDbSymbolTableRecord
100
AcDbLinetypeTableRecord
70
0
2
ByBlock
3

72
65
73
0
40
0
0
LTYPE
5
15
100
AcDbSymbolTableRecord
100
AcDbLinetypeTableRecord
70
0
2
ByLayer
3

72
65
73
0
40
0
0
LTYPE
5
16
100
AcDbSymbolTableRecord
100
AcDbLinetypeTableRecord
70
0
2
Continuous
3
Solid line
72
65
73
0
40
0
0
LTYPE
5
6E
100
AcDbSymbolTableRecord
100
AcDbLinetypeTableRecord
70
0
2
CENTER
3
____ _ ____ _ ____ _ ____
72
65
73
4
40
47.5
49
22
74
0
49
-8.5
74
0
49
8.5
74
0
49
-8.5
74
0
0
LTYPE
5
6F
100
AcDbSymbolTableRecord
100
AcDbLinetypeTableRecord
70
0
2
DASHED
3
__ __ __ __ __ __ __ __ __
72
65
73
2
40
25.72
49
12.86
74
0
49
-12.86
74
0
0
ENDTAB
0
TABLE
2
LAYER
5
296
100
AcDbSymbolTable
0
LAYER
5
10
100
AcDbSymbolTableRecord
100
AcDbLayerTableRecord
2
0
70
0
62
7
6
Continuous
290
1
370
-3
390
0
0
LAYER
5
71
100
AcDbSymbolTableRecord
100
AcDbLayerTableRecord
2
81
70
0
62
-3
6
Continuous
290
1
370
-3
390
0
0
LAYER
5
73
100
AcDbSymbolTableRecord
100
AcDbLayerTableRecord
2
80
70
0
62
-6
6
Continuous
290
1
370
-3
390
0
0
LAYER
5
75
100
AcDbSymbolTableRecord
100
AcDbLayerTableRecord
2
1
70
0
62
4
6
Continuous
290
1
370
-3
390
0
0
LAYER
5
81
100
AcDbSymbolTableRecord
100
AcDbLayerTableRecord
2
4
70
0
62
-2
6
CENTER
290
1
370
-3
390
0
0
LAYER
5
BD
100
AcDbSymbolTableRecord
100
AcDbLayerTableRecord
2
2
70
0
62
7
6
Continuous
290
1
370
-3
390
0
0
LAYER
5
1A5
100
AcDbSymbolTableRecord
100
AcDbLayerTableRecord
2
Defpoints
70
0
62
7
6
Continuous
290
0
370
-3
390
0
0
LAYER
5
280
100
AcDbSymbolTableRecord
100
AcDbLayerTableRecord
2
SK4
70
0
62
2
6
CENTER
290
1
370
-3
390
0
0
LAYER
5
281
100
AcDbSymbolTableRecord
100
AcDbLayerTableRecord
2
SK1
70
0
62
4
6
Continuous
290
1
370
-3
390
0
0
LAYER
5
282
100
AcDbSymbolTableRecord
100
AcDbLayerTableRecord
2
SK2
70
0
62
7
6
Continuous
290
1
370
-3
390
0
0
LAYER
5
283
100
AcDbSymbolTableRecord
100
AcDbLayerTableRecord
2
SK6
70
0
62
5
6
Continuous
290
1
370
-3
390
0
0
ENDTAB
0
TABLE
2
STYLE
5
297
100
AcDbSymbolTable
0
STYLE
5
11
100
AcDbSymbolTableRecord
100
AcDbTextStyleTableRecord
2
Standard
3
txt
70
0
71
0
40
0
41
1
42
0
50
0
0
STYLE
5
18B
100
AcDbSymbolTableRecord
100
AcDbTextStyleTableRecord
2
iso_b_vert
3
simplex.shx
70
0
71
0
40
0
41
1
42
0
50
0
0
STYLE
5
18C
100
AcDbSymbolTableRecord
100
AcDbTextStyleTableRecord
2
DWGDirectTextStyle
3
simplex
70
0
71
0
40
0
41
1
42
0
50
0
0
ENDTAB
0
TABLE
2
DIMSTYLE
5
298
100
AcDbSymbolTable
100
AcDbDimStyleTable
0
DIMSTYLE
105
27
100
AcDbSymbolTableRecord
100
AcDbDimStyleTableRecord
2
Standard
70
0
3
<>
41
0.18
42
0.0625
44
0.18
140
0.18
147
0.09
73
0
74
0
77
1
271
2
275
0
278
52
280
0
340
11
0
ENDTAB
0
TABLE
2
VIEW
5
299
100
AcDbSymbolTable
0
ENDTAB
0
TABLE
2
UCS
5
29a
100
AcDbSymbolTable
0
ENDTAB
0
TABLE
2
APPID
5
29b
100
AcDbSymbolTable
0
APPID
5
12
100
AcDbSymbolTableRecord
100
AcDbRegAppTableRecord
2
ACAD
70
0
0
APPID
5
1A1
100
AcDbSymbolTableRecord
100
AcDbRegAppTableRecord
2
ACAD_DSTYLE_DIMBREAK
70
0
0
APPID
5
23F
100
AcDbSymbolTableRecord
100
AcDbRegAppTableRecord
2
ACAD_DSTYLE_DIM_LINETYPE
70
0
0
APPID
5
240
100
AcDbSymbolTableRecord
100
AcDbRegAppTableRecord
2
ACAD_DSTYLE_DIM_EXT1_LINETYPE
70
0
0
APPID
5
241
100
AcDbSymbolTableRecord
100
AcDbRegAppTableRecord
2
ACAD_DSTYLE_DIM_EXT2_LINETYPE
70
0
0
APPID
5
27C
100
AcDbSymbolTableRecord
100
AcDbRegAppTableRecord
2
ACAD_MLEADERVER
70
0
0
ENDTAB
0
TABLE
2
BLOCK_RECORD
5
29c
100
AcDbSymbolTable
0
BLOCK_RECORD
5
1F
100
AcDbSymbolTableRecord
100
AcDbBlockTableRecord
2
*Model_Space
340
0
70
0
0
BLOCK_RECORD
5
1B
100
AcDbSymbolTableRecord
100
AcDbBlockTableRecord
2
*Paper_Space
340
0
70
0
0
BLOCK_RECORD
5
23
100
AcDbSymbolTableRecord
100
AcDbBlockTableRecord
2
*Paper_Space0
340
0
70
0
0
BLOCK_RECORD
5
1A6
100
AcDbSymbolTableRecord
100
AcDbBlockTableRecord
2
*D1
340
0
70
0
0
BLOCK_RECORD
5
1B4
100
AcDbSymbolTableRecord
100
AcDbBlockTableRecord
2
_U0
340
0
70
0
0
BLOCK_RECORD
5
1C0
100
AcDbSymbolTableRecord
100
AcDbBlockTableRecord
2
*D3
340
0
70
0
0
BLOCK_RECORD
5
1CD
100
AcDbSymbolTableRecord
100
AcDbBlockTableRecord
2
_U1
340
0
70
0
0
BLOCK_RECORD
5
1DA
100
AcDbSymbolTableRecord
100
AcDbBlockTableRecord
2
*D5
340
0
70
0
0
BLOCK_RECORD
5
1E7
100
AcDbSymbolTableRecord
100
AcDbBlockTableRecord
2
_U2
340
0
70
0
0
BLOCK_RECORD
5
1F4
100
AcDbSymbolTableRecord
100
AcDbBlockTableRecord
2
*D7
340
0
70
0
0
BLOCK_RECORD
5
200
100
AcDbSymbolTableRecord
100
AcDbBlockTableRecord
2
_U3
340
0
70
0
0
BLOCK_RECORD
5
20C
100
AcDbSymbolTableRecord
100
AcDbBlockTableRecord
2
*D9
340
0
70
0
0
BLOCK_RECORD
5
218
100
AcDbSymbolTableRecord
100
AcDbBlockTableRecord
2
_U4
340
0
70
0
0
ENDTAB
0
ENDSEC
0
SECTION
2
BLOCKS
0
BLOCK
5
20
100
AcDbEntity
8
0
100
AcDbBlockBegin
2
*Model_Space
70
0
10
0
20
0
30
0
3
*Model_Space
0
ENDBLK
5
21
100
AcDbEntity
8
0
100
AcDbBlockEnd
0
BLOCK
5
1C
100
AcDbEntity
8
0
100
AcDbBlockBegin
2
*Paper_Space
70
0
10
0
20
0
30
0
3
*Paper_Space
0
ENDBLK
5
1D
100
AcDbEntity
8
0
100
AcDbBlockEnd
0
BLOCK
5
24
100
AcDbEntity
8
0
100
AcDbBlockBegin
2
*Paper_Space0
70
0
10
0
20
0
30
0
3
*Paper_Space0
0
ENDBLK
5
25
100
AcDbEntity
8
0
100
AcDbBlockEnd
0
BLOCK
5
1A7
100
AcDbEntity
8
0
100
AcDbBlockBegin
2
*D1
70
1
10
0
20
0
30
0
3
*D1
0
LINE
5
1A9
100
AcDbEntity
8
0
62
256
6
ByLayer
370
-2
48
1
60
0
100
AcDbLine
10
84.5875
20
6.076498
30
0
11
104.5
21
6.076498
31
0
39
0
210
0
220
0
230
1
0
LINE
5
1AA
100
AcDbEntity
8
0
62
256
6
ByLayer
370
-2
48
1
60
0
100
AcDbLine
10
84.5875
20
-6.076498
30
0
11
104.5
21
-6.076498
31
0
39
0
210
0
220
0
230
1
0
LINE
5
1AB
100
AcDbEntity
8
0
62
256
6
ByLayer
370
-2
48
1
60
0
100
AcDbLine
10
102.5
20
6.076498
30
0
11
102.5
21
36.50507
31
0
39
0
210
0
220
0
230
1
0
LINE
5
1AC
100
AcDbEntity
8
0
62
256
6
ByLayer
370
-2
48
1
60
0
100
AcDbLine
10
102.5
20
9.576498
30
0
11
102.5
21
13.076498
31
0
39
0
210
0
220
0
230
1
0
LINE
5
1AD
100
AcDbEntity
8
0
62
256
6
ByLayer
370
-2
48
1
60
0
100
AcDbLine
10
102.5
20
-9.576498
30
0
11
102.5
21
-13.076498
31
0
39
0
210
0
220
0
230
1
0
SOLID
5
1AE
100
AcDbEntity
8
0
62
256
6
ByLayer
370
-1
48
1
60
0
100
AcDbTrace
10
101.916667
20
9.576498
30
0
11
103.083333
21
9.576498
31
0
12
102.5
22
6.076498
32
0
13
102.5
23
6.076498
33
0
39
0
210
0
220
0
230
1
0
SOLID
5
1AF
100
AcDbEntity
8
0
62
256
6
ByLayer
370
-1
48
1
60
0
100
AcDbTrace
10
103.083333
20
-9.576498
30
0
11
101.916667
21
-9.576498
31
0
12
102.5
22
-6.076498
32
0
13
102.5
23
-6.076498
33
0
39
0
210
0
220
0
230
1
0
MTEXT
5
1B0
100
AcDbEntity
8
0
62
256
6
ByLayer
370
18
48
1
60
0
100
AcDbMText
10
96.5
20
24.790784
30
0
210
0
220
0
230
1
1
\A1;12.153
40
3
41
0
44
1
50
90
71
5
72
5
7
iso_b_vert
0
POINT
5
1B1
100
AcDbEntity
8
Defpoints
62
0
6
ByLayer
370
-1
48
1
60
0
100
AcDbPoint
10
83
20
6.076498
30
0
39
0
210
0
220
0
230
1
50
360
0
POINT
5
1B2
100
AcDbEntity
8
Defpoints
62
0
6
ByLayer
370
-1
48
1
60
0
100
AcDbPoint
10
83
20
-6.076498
30
0
39
0
210
0
220
0
230
1
50
360
0
POINT
5
1B3
100
AcDbEntity
8
Defpoints
62
0
6
ByLayer
370
-1
48
1
60
0
100
AcDbPoint
10
102.5
20
-6.076498
30
0
39
0
210
0
220
0
230
1
50
360
0
ENDBLK
5
1A8
100
AcDbEntity
8
0
100
AcDbBlockEnd
0
BLOCK
5
1BB
100
AcDbEntity
8
0
100
AcDbBlockBegin
2
_U0
70
0
10
0
20
0
30
0
3
_U0
0
MTEXT
5
1B5
100
AcDbEntity
8
2
62
256
6
ByLayer
370
18
48
1
60
0
100
AcDbMText
10
101.908886
20
16.211498
30
0
210
0
220
0
230
1
1
\W0.6563;M12
40
3
41
0
44
1.084337
50
90
71
7
72
5
7
iso_b_vert
0
LINE
5
1B6
100
AcDbEntity
8
2
62
256
6
ByLayer
370
13
48
1
60
0
100
AcDbLine
10
84.5875
20
6.076498
30
0
11
104.5
21
6.076498
31
0
39
0
210
0
220
0
230
1
0
LINE
5
1B7
100
AcDbEntity
8
2
62
256
6
ByLayer
370
13
48
1
60
0
100
AcDbLine
10
84.5875
20
-6.076498
30
0
11
104.5
21
-6.076498
31
0
39
0
210
0
220
0
230
1
0
LINE
5
1B8
100
AcDbEntity
8
2
62
256
6
ByLayer
370
13
48
1
60
0
100
AcDbLine
10
102.5
20
-6.076498
30
0
11
102.5
21
21.82324
31
0
39
0
210
0
220
0
230
1
0
SOLID
5
1B9
100
AcDbEntity
8
2
62
256
6
ByLayer
370
18
48
1
60
0
100
AcDbTrace
10
102.5
20
6.076498
30
0
11
102.960784
21
2.5765
31
0
12
102.039216
22
2.576497
32
0
13
102.039216
23
2.576497
33
0
39
0
210
0
220
0
230
1
0
SOLID
5
1BA
100
AcDbEntity
8
2
62
256
6
ByLayer
370
18
48
1
60
0
100
AcDbTrace
10
102.5
20
-6.076498
30
0
11
102.039216
21
-2.5765
31
0
12
102.960784
22
-2.576497
32
0
13
102.960784
23
-2.576497
33
0
39
0
210
0
220
0
230
1
0
ENDBLK
5
1BC
100
AcDbEntity
8
0
100
AcDbBlockEnd
0
BLOCK
5
1C1
100
AcDbEntity
8
0
100
AcDbBlockBegin
2
*D3
70
1
10
0
20
0
30
0
3
*D3
0
LINE
5
1C3
100
AcDbEntity
8
0
62
256
6
ByLayer
370
-2
48
1
60
0
100
AcDbLine
10
83
20
7.663998
30
0
11
83
21
17.058359
31
0
39
0
210
0
220
0
230
1
0
LINE
5
1C4
100
AcDbEntity
8
0
62
256
6
ByLayer
370
-2
48
1
60
0
100
AcDbLine
10
78.19
20
1.5875
30
0
11
78.19
21
17.058359
31
0
39
0
210
0
220
0
230
1
0
LINE
5
1C5
100
AcDbEntity
8
0
62
256
6
ByLayer
370
-2
48
1
60
0
100
AcDbLine
10
86.5
20
15.058359
30
0
11
90
21
15.058359
31
0
39
0
210
0
220
0
230
1
0
LINE
5
1C6
100
AcDbEntity
8
0
62
256
6
ByLayer
370
-2
48
1
60
0
100
AcDbLine
10
74.69
20
15.058359
30
0
11
71.19
21
15.058359
31
0
39
0
210
0
220
0
230
1
0
SOLID
5
1C7
100
AcDbEntity
8
0
62
256
6
ByLayer
370
-1
48
1
60
0
100
AcDbTrace
10
86.5
20
15.641692
30
0
11
86.5
21
14.475025
31
0
12
83
22
15.058359
32
0
13
83
23
15.058359
33
0
39
0
210
0
220
0
230
1
0
SOLID
5
1C8
100
AcDbEntity
8
0
62
256
6
ByLayer
370
-1
48
1
60
0
100
AcDbTrace
10
74.69
20
14.475025
30
0
11
74.69
21
15.641692
31
0
12
78.19
22
15.058359
32
0
13
78.19
23
15.058359
33
0
39
0
210
0
220
0
230
1
0
MTEXT
5
1C9
100
AcDbEntity
8
0
62
256
6
ByLayer
370
18
48
1
60
0
100
AcDbMText
10
80.595
20
21.058359
30
0
210
0
220
0
230
1
1
\A1;4.81
40
3
41
0
44
1
50
0
71
5
72
5
7
iso_b_vert
0
POINT
5
1CA
100
AcDbEntity
8
Defpoints
62
0
6
ByLayer
370
-1
48
1
60
0
100
AcDbPoint
10
83
20
6.076498
30
0
39
0
210
0
220
0
230
1
50
360
0
POINT
5
1CB
100
AcDbEntity
8
Defpoints
62
0
6
ByLayer
370
-1
48
1
60
0
100
AcDbPoint
10
78.19
20
0
30
0
39
0
210
0
220
0
230
1
50
360
0
POINT
5
1CC
100
AcDbEntity
8
Defpoints
62
0
6
ByLayer
370
-1
48
1
60
0
100
AcDbPoint
10
78.19
20
15.058359
30
0
39
0
210
0
220
0
230
1
50
360
0
ENDBLK
5
1C2
100
AcDbEntity
8
0
100
AcDbBlockEnd
0
BLOCK
5
1D5
100
AcDbEntity
8
0
100
AcDbBlockBegin
2
_U1
70
0
10
0
20
0
30
0
3
_U1
0
MTEXT
5
1CE
100
AcDbEntity
8
SK2
62
256
6
ByLayer
370
18
48
1
60
0
100
AcDbMText
10
77.477044
20
15.840992
30
0
210
0
220
0
230
1
1
\W0.6474;'C'
40
3.5
41
0
44
1.084337
50
0
71
7
72
5
7
iso_b_vert
0
MTEXT
5
1CF
100
AcDbEntity
8
SK2
62
256
6
ByLayer
370
18
48
1
60
0
100
AcDbMText
10
77.450544
20
22.943473
30
0
210
0
220
0
230
1
1
\W0.7531;4.81
40
3
41
0
44
1.084337
50
0
71
7
72
5
7
iso_b_vert
0
LINE
5
1D0
100
AcDbEntity
8
SK2
62
256
6
ByLayer
370
13
48
1
60
0
100
AcDbLine
10
83
20
7.663998
30
0
11
83
21
17.058359
31
0
39
0
210
0
220
0
230
1
0
LINE
5
1D1
100
AcDbEntity
8
SK2
62
256
6
ByLayer
370
13
48
1
60
0
100
AcDbLine
10
78.19
20
1.5875
30
0
11
78.19
21
17.058359
31
0
39
0
210
0
220
0
230
1
0
LINE
5
1D2
100
AcDbEntity
8
SK2
62
256
6
ByLayer
370
13
48
1
60
0
100
AcDbLine
10
90.5
20
15.058359
30
0
11
70.69
21
15.058359
31
0
39
0
210
0
220
0
230
1
0
SOLID
5
1D3
100
AcDbEntity
8
SK2
62
256
6
ByLayer
370
18
48
1
60
0
100
AcDbTrace
10
83
20
15.058359
30
0
11
86.499998
21
15.519142
31
0
12
86.500002
22
14.597575
32
0
13
86.500002
23
14.597575
33
0
39
0
210
0
220
0
230
1
0
SOLID
5
1D4
100
AcDbEntity
8
SK2
62
256
6
ByLayer
370
18
48
1
60
0
100
AcDbTrace
10
78.19
20
15.058359
30
0
11
74.690002
21
14.597575
31
0
12
74.689998
22
15.519142
32
0
13
74.689998
23
15.519142
33
0
39
0
210
0
220
0
230
1
0
ENDBLK
5
1D6
100
AcDbEntity
8
0
100
AcDbBlockEnd
0
BLOCK
5
1DB
100
AcDbEntity
8
0
100
AcDbBlockBegin
2
*D5
70
1
10
0
20
0
30
0
3
*D5
0
LINE
5
1DD
100
AcDbEntity
8
0
62
256
6
ByLayer
370
-2
48
1
60
0
100
AcDbLine
10
83
20
-7.663998
30
0
11
83
21
-15.076498
31
0
39
0
210
0
220
0
230
1
0
LINE
5
1DE
100
AcDbEntity
8
0
62
256
6
ByLayer
370
-2
48
1
60
0
100
AcDbLine
10
67
20
-7.663998
30
0
11
67
21
-15.076498
31
0
39
0
210
0
220
0
230
1
0
LINE
5
1DF
100
AcDbEntity
8
0
62
256
6
ByLayer
370
-2
48
1
60
0
100
AcDbLine
10
83
20
-13.076498
30
0
11
102.00579
21
-13.076498
31
0
39
0
210
0
220
0
230
1
0
LINE
5
1E0
100
AcDbEntity
8
0
62
256
6
ByLayer
370
-2
48
1
60
0
100
AcDbLine
10
79.5
20
-13.076498
30
0
11
70.5
21
-13.076498
31
0
39
0
210
0
220
0
230
1
0
SOLID
5
1E1
100
AcDbEntity
8
0
62
256
6
ByLayer
370
-1
48
1
60
0
100
AcDbTrace
10
79.5
20
-13.659832
30
0
11
79.5
21
-12.493165
31
0
12
83
22
-13.076498
32
0
13
83
23
-13.076498
33
0
39
0
210
0
220
0
230
1
0
SOLID
5
1E2
100
AcDbEntity
8
0
62
256
6
ByLayer
370
-1
48
1
60
0
100
AcDbTrace
10
70.5
20
-12.493165
30
0
11
70.5
21
-13.659832
31
0
12
67
22
-13.076498
32
0
13
67
23
-13.076498
33
0
39
0
210
0
220
0
230
1
0
MTEXT
5
1E3
100
AcDbEntity
8
0
62
256
6
ByLayer
370
18
48
1
60
0
100
AcDbMText
10
95.291504
20
-7.076498
30
0
210
0
220
0
230
1
1
\A1;16
40
3
41
0
44
1
50
0
71
5
72
5
7
iso_b_vert
0
POINT
5
1E4
100
AcDbEntity
8
Defpoints
62
0
6
ByLayer
370
-1
48
1
60
0
100
AcDbPoint
10
83
20
-6.076498
30
0
39
0
210
0
220
0
230
1
50
360
0
POINT
5
1E5
100
AcDbEntity
8
Defpoints
62
0
6
ByLayer
370
-1
48
1
60
0
100
AcDbPoint
10
67
20
-6.076498
30
0
39
0
210
0
220
0
230
1
50
360
0
POINT
5
1E6
100
AcDbEntity
8
Defpoints
62
0
6
ByLayer
370
-1
48
1
60
0
100
AcDbPoint
10
67
20
-13.076498
30
0
39
0
210
0
220
0
230
1
50
360
0
ENDBLK
5
1DC
100
AcDbEntity
8
0
100
AcDbBlockEnd
0
BLOCK
5
1EF
100
AcDbEntity
8
0
100
AcDbBlockBegin
2
_U2
70
0
10
0
20
0
30
0
3
_U2
0
MTEXT
5
1E8
100
AcDbEntity
8
SK2
62
256
6
ByLayer
370
18
48
1
60
0
100
AcDbMText
10
89.159
20
-12.191384
30
0
210
0
220
0
230
1
1
\W0.5321;16
40
3
41
0
44
1.084337
50
0
71
7
72
5
7
iso_b_vert
0
MTEXT
5
1E9
100
AcDbEntity
8
SK2
62
256
6
ByLayer
370
18
48
1
60
0
100
AcDbMText
10
94.466271
20
-11.838903
30
0
210
0
220
0
230
1
1
\W0.8315;\W0.4158;%%p\W0.8315;0.5
40
2.5
41
0
44
1.084337
50
0
71
7
72
5
7
iso_b_vert
0
LINE
5
1EA
100
AcDbEntity
8
SK2
62
256
6
ByLayer
370
13
48
1
60
0
100
AcDbLine
10
83
20
-7.663998
30
0
11
83
21
-15.076498
31
0
39
0
210
0
220
0
230
1
0
LINE
5
1EB
100
AcDbEntity
8
SK2
62
256
6
ByLayer
370
13
48
1
60
0
100
AcDbLine
10
67
20
-7.663998
30
0
11
67
21
-15.076498
31
0
39
0
210
0
220
0
230
1
0
LINE
5
1EC
100
AcDbEntity
8
SK2
62
256
6
ByLayer
370
13
48
1
60
0
100
AcDbLine
10
67
20
-13.076498
30
0
11
101.583008
21
-13.076498
31
0
39
0
210
0
220
0
230
1
0
SOLID
5
1ED
100
AcDbEntity
8
SK2
62
256
6
ByLayer
370
18
48
1
60
0
100
AcDbTrace
10
83
20
-13.076498
30
0
11
79.500002
21
-13.537282
31
0
12
79.499998
22
-12.615715
32
0
13
79.499998
23
-12.615715
33
0
39
0
210
0
220
0
230
1
0
SOLID
5
1EE
100
AcDbEntity
8
SK2
62
256
6
ByLayer
370
18
48
1
60
0
100
AcDbTrace
10
67
20
-13.076498
30
0
11
70.499998
21
-12.615715
31
0
12
70.500002
22
-13.537282
32
0
13
70.500002
23
-13.537282
33
0
39
0
210
0
220
0
230
1
0
ENDBLK
5
1F0
100
AcDbEntity
8
0
100
AcDbBlockEnd
0
BLOCK
5
1F5
100
AcDbEntity
8
0
100
AcDbBlockBegin
2
*D7
70
1
10
0
20
0
30
0
3
*D7
0
LINE
5
1F7
100
AcDbEntity
8
0
62
256
6
ByLayer
370
-2
48
1
60
0
100
AcDbLine
10
83
20
-7.663998
30
0
11
83
21
-37.576498
31
0
39
0
210
0
220
0
230
1
0
LINE
5
1F8
100
AcDbEntity
8
0
62
256
6
ByLayer
370
-2
48
1
60
0
100
AcDbLine
10
28
20
-5.9375
30
0
11
28
21
-37.576498
31
0
39
0
210
0
220
0
230
1
0
LINE
5
1F9
100
AcDbEntity
8
0
62
256
6
ByLayer
370
-2
48
1
60
0
100
AcDbLine
10
79.5
20
-35.576498
30
0
11
31.5
21
-35.576498
31
0
39
0
210
0
220
0
230
1
0
SOLID
5
1FA
100
AcDbEntity
8
0
62
256
6
ByLayer
370
-1
48
1
60
0
100
AcDbTrace
10
79.5
20
-36.159832
30
0
11
79.5
21
-34.993165
31
0
12
83
22
-35.576498
32
0
13
83
23
-35.576498
33
0
39
0
210
0
220
0
230
1
0
SOLID
5
1FB
100
AcDbEntity
8
0
62
256
6
ByLayer
370
-1
48
1
60
0
100
AcDbTrace
10
31.5
20
-34.993165
30
0
11
31.5
21
-36.159832
31
0
12
28
22
-35.576498
32
0
13
28
23
-35.576498
33
0
39
0
210
0
220
0
230
1
0
MTEXT
5
1FC
100
AcDbEntity
8
0
62
256
6
ByLayer
370
18
48
1
60
0
100
AcDbMText
10
55.5
20
-29.576498
30
0
210
0
220
0
230
1
1
\A1;55
40
3
41
0
44
1
50
0
71
5
72
5
7
iso_b_vert
0
POINT
5
1FD
100
AcDbEntity
8
Defpoints
62
0
6
ByLayer
370
-1
48
1
60
0
100
AcDbPoint
10
83
20
-6.076498
30
0
39
0
210
0
220
0
230
1
50
360
0
POINT
5
1FE
100
AcDbEntity
8
Defpoints
62
0
6
ByLayer
370
-1
48
1
60
0
100
AcDbPoint
10
28
20
-4.35
30
0
39
0
210
0
220
0
230
1
50
360
0
POINT
5
1FF
100
AcDbEntity
8
Defpoints
62
0
6
ByLayer
370
-1
48
1
60
0
100
AcDbPoint
10
28
20
-35.576498
30
0
39
0
210
0
220
0
230
1
50
360
0
ENDBLK
5
1F6
100
AcDbEntity
8
0
100
AcDbBlockEnd
0
BLOCK
5
207
100
AcDbEntity
8
0
100
AcDbBlockBegin
2
_U3
70
0
10
0
20
0
30
0
3
_U3
0
MTEXT
5
201
100
AcDbEntity
8
SK2
62
256
6
ByLayer
370
18
48
1
60
0
100
AcDbMText
10
53.867172
20
-34.691384
30
0
210
0
220
0
230
1
1
\W0.6740;55
40
3
41
0
44
1.084337
50
0
71
7
72
5
7
iso_b_vert
0
LINE
5
202
100
AcDbEntity
8
SK2
62
256
6
ByLayer
370
13
48
1
60
0
100
AcDbLine
10
83
20
-7.663998
30
0
11
83
21
-37.576498
31
0
39
0
210
0
220
0
230
1
0
LINE
5
203
100
AcDbEntity
8
SK2
62
256
6
ByLayer
370
13
48
1
60
0
100
AcDbLine
10
28
20
-5.9375
30
0
11
28
21
-37.576498
31
0
39
0
210
0
220
0
230
1
0
LINE
5
204
100
AcDbEntity
8
SK2
62
256
6
ByLayer
370
13
48
1
60
0
100
AcDbLine
10
83
20
-35.576498
30
0
11
28
21
-35.576498
31
0
39
0
210
0
220
0
230
1
0
SOLID
5
205
100
AcDbEntity
8
SK2
62
256
6
ByLayer
370
18
48
1
60
0
100
AcDbTrace
10
83
20
-35.576498
30
0
11
79.500002
21
-36.037282
31
0
12
79.499998
22
-35.115715
32
0
13
79.499998
23
-35.115715
33
0
39
0
210
0
220
0
230
1
0
SOLID
5
206
100
AcDbEntity
8
SK2
62
256
6
ByLayer
370
18
48
1
60
0
100
AcDbTrace
10
28
20
-35.576498
30
0
11
31.499998
21
-35.115715
31
0
12
31.500002
22
-36.037282
32
0
13
31.500002
23
-36.037282
33
0
39
0
210
0
220
0
230
1
0
ENDBLK
5
208
100
AcDbEntity
8
0
100
AcDbBlockEnd
0
BLOCK
5
20D
100
AcDbEntity
8
0
100
AcDbBlockBegin
2
*D9
70
1
10
0
20
0
30
0
3
*D9
0
LINE
5
20F
100
AcDbEntity
8
0
62
256
6
ByLayer
370
-2
48
1
60
0
100
AcDbLine
10
83
20
-7.663998
30
0
11
83
21
-26.576498
31
0
39
0
210
0
220
0
230
1
0
LINE
5
210
100
AcDbEntity
8
0
62
256
6
ByLayer
370
-2
48
1
60
0
100
AcDbLine
10
36.25
20
-1.5875
30
0
11
36.25
21
-26.576498
31
0
39
0
210
0
220
0
230
1
0
LINE
5
211
100
AcDbEntity
8
0
62
256
6
ByLayer
370
-2
48
1
60
0
100
AcDbLine
10
79.5
20
-24.576498
30
0
11
39.75
21
-24.576498
31
0
39
0
210
0
220
0
230
1
0
SOLID
5
212
100
AcDbEntity
8
0
62
256
6
ByLayer
370
-1
48
1
60
0
100
AcDbTrace
10
79.5
20
-25.159832
30
0
11
79.5
21
-23.993165
31
0
12
83
22
-24.576498
32
0
13
83
23
-24.576498
33
0
39
0
210
0
220
0
230
1
0
SOLID
5
213
100
AcDbEntity
8
0
62
256
6
ByLayer
370
-1
48
1
60
0
100
AcDbTrace
10
39.75
20
-23.993165
30
0
11
39.75
21
-25.159832
31
0
12
36.25
22
-24.576498
32
0
13
36.25
23
-24.576498
33
0
39
0
210
0
220
0
230
1
0
MTEXT
5
214
100
AcDbEntity
8
0
62
256
6
ByLayer
370
18
48
1
60
0
100
AcDbMText
10
59.625
20
-18.576498
30
0
210
0
220
0
230
1
1
\A1;46.8
40
3
41
0
44
1
50
0
71
5
72
5
7
iso_b_vert
0
POINT
5
215
100
AcDbEntity
8
Defpoints
62
0
6
ByLayer
370
-1
48
1
60
0
100
AcDbPoint
10
83
20
-6.076498
30
0
39
0
210
0
220
0
230
1
50
360
0
POINT
5
216
100
AcDbEntity
8
Defpoints
62
0
6
ByLayer
370
-1
48
1
60
0
100
AcDbPoint
10
36.25
20
0
30
0
39
0
210
0
220
0
230
1
50
360
0
POINT
5
217
100
AcDbEntity
8
Defpoints
62
0
6
ByLayer
370
-1
48
1
60
0
100
AcDbPoint
10
36.25
20
-24.576498
30
0
39
0
210
0
220
0
230
1
50
360
0
ENDBLK
5
20E
100
AcDbEntity
8
0
100
AcDbBlockEnd
0
BLOCK
5
21F
100
AcDbEntity
8
0
100
AcDbBlockBegin
2
_U4
70
0
10
0
20
0
30
0
3
_U4
0
MTEXT
5
219
100
AcDbEntity
8
2
62
256
6
ByLayer
370
18
48
1
60
0
100
AcDbMText
10
56.105601
20
-23.691384
30
0
210
0
220
0
230
1
1
\W0.7640;46.8
40
3
41
0
44
1.084337
50
0
71
7
72
5
7
iso_b_vert
0
LINE
5
21A
100
AcDbEntity
8
2
62
256
6
ByLayer
370
13
48
1
60
0
100
AcDbLine
10
83
20
-7.663998
30
0
11
83
21
-26.576498
31
0
39
0
210
0
220
0
230
1
0
LINE
5
21B
100
AcDbEntity
8
2
62
256
6
ByLayer
370
13
48
1
60
0
100
AcDbLine
10
36.25
20
-1.5875
30
0
11
36.25
21
-26.576498
31
0
39
0
210
0
220
0
230
1
0
LINE
5
21C
100
AcDbEntity
8
2
62
256
6
ByLayer
370
13
48
1
60
0
100
AcDbLine
10
83
20
-24.576498
30
0
11
36.25
21
-24.576498
31
0
39
0
210
0
220
0
230
1
0
SOLID
5
21D
100
AcDbEntity
8
2
62
256
6
ByLayer
370
18
48
1
60
0
100
AcDbTrace
10
83
20
-24.576498
30
0
11
79.500002
21
-25.037282
31
0
12
79.499998
22
-24.115715
32
0
13
79.499998
23
-24.115715
33
0
39
0
210
0
220
0
230
1
0
SOLID
5
21E
100
AcDbEntity
8
2
62
256
6
ByLayer
370
18
48
1
60
0
100
AcDbTrace
10
36.25
20
-24.576498
30
0
11
39.749998
21
-24.115715
31
0
12
39.750002
22
-25.037282
32
0
13
39.750002
23
-25.037282
33
0
39
0
210
0
220
0
230
1
0
ENDBLK
5
220
100
AcDbEntity
8
0
100
AcDbBlockEnd
0
ENDSEC
0
SECTION
2
ENTITIES
0
ARC
5
C6
100
AcDbEntity
8
SK1
62
256
6
ByLayer
370
18
48
1
60
0
100
AcDbCircle
39
0
10
-20.5
20
0
30
0
40
4.3200000000001
210
0
220
0
230
1
100
AcDbArc
50
324.114028
51
35.885972
0
ARC
5
C7
100
AcDbEntity
8
1
62
256
6
ByLayer
370
18
48
1
60
0
100
AcDbCircle
39
0
10
65.079445
20
-5.75
30
0
40
1.4
210
0
220
0
230
1
100
AcDbArc
50
30
51
90
0
ARC
5
C8
100
AcDbEntity
8
1
62
256
6
ByLayer
370
18
48
1
60
0
100
AcDbCircle
39
0
10
28.653835
20
-5.85
30
0
40
1.5
210
0
220
0
230
1
100
AcDbArc
50
90
51
115.841933
0
ARC
5
C9
100
AcDbEntity
8
1
62
256
6
ByLayer
370
18
48
1
60
0
100
AcDbCircle
39
0
10
28.653835
20
5.85
30
0
40
1.5
210
0
220
0
230
1
100
AcDbArc
50
244.158067
51
270
0
POINT
5
70
100
AcDbEntity
8
81
62
256
6
ByLayer
370
18
48
1
60
0
100
AcDbPoint
10
83
20
0
30
0
39
0
210
0
220
0
230
1
50
360
0
POINT
5
72
100
AcDbEntity
8
80
62
256
6
ByLayer
370
18
48
1
60
0
100
AcDbPoint
10
0
20
0
30
0
39
0
210
0
220
0
230
1
50
360
0
POINT
5
74
100
AcDbEntity
8
1
62
256
6
ByLayer
370
18
48
1
60
1
100
AcDbPoint
10
83
20
6.076498
30
0
39
0
210
0
220
0
230
1
50
360
0
POINT
5
76
100
AcDbEntity
8
1
62
256
6
ByLayer
370
18
48
1
60
1
100
AcDbPoint
10
83
20
-6.076498
30
0
39
0
210
0
220
0
230
1
50
360
0
POINT
5
77
100
AcDbEntity
8
1
62
256
6
ByLayer
370
18
48
1
60
1
100
AcDbPoint
10
83
20
6.076498
30
0
39
0
210
0
220
0
230
1
50
360
0
POINT
5
78
100
AcDbEntity
8
1
62
256
6
ByLayer
370
18
48
1
60
1
100
AcDbPoint
10
78.19
20
0
30
0
39
0
210
0
220
0
230
1
50
360
0
POINT
5
79
100
AcDbEntity
8
1
62
256
6
ByLayer
370
18
48
1
60
1
100
AcDbPoint
10
83
20
-6.076498
30
0
39
0
210
0
220
0
230
1
50
360
0
POINT
5
7A
100
AcDbEntity
8
1
62
256
6
ByLayer
370
18
48
1
60
1
100
AcDbPoint
10
67
20
-6.076498
30
0
39
0
210
0
220
0
230
1
50
360
0
POINT
5
7B
100
AcDbEntity
8
1
62
256
6
ByLayer
370
18
48
1
60
1
100
AcDbPoint
10
83
20
-6.076498
30
0
39
0
210
0
220
0
230
1
50
360
0
POINT
5
7C
100
AcDbEntity
8
1
62
256
6
ByLayer
370
18
48
1
60
1
100
AcDbPoint
10
28
20
-4.35
30
0
39
0
210
0
220
0
230
1
50
360
0
POINT
5
7D
100
AcDbEntity
8
1
62
256
6
ByLayer
370
18
48
1
60
1
100
AcDbPoint
10
83
20
-6.076498
30
0
39
0
210
0
220
0
230
1
50
360
0
POINT
5
7E
100
AcDbEntity
8
1
62
256
6
ByLayer
370
18
48
1
60
1
100
AcDbPoint
10
36.25
20
0
30
0
39
0
210
0
220
0
230
1
50
360
0
SPLINE
5
CA
100
AcDbEntity
8
1
62
256
6
ByLayer
370
18
48
1
60
0
100
AcDbSpline
70
4
71
3
72
8
73
4
40
0
40
0
40
0
40
0
40
1
40
1
40
1
40
1
41
1
10
82.0416526380575
20
4.98313265546005
30
0
41
1
10
82.0492370661949
20
5.00256519625219
30
0
41
1
10
82.056862318902
20
5.01616010600625
30
0
41
1
10
82.0645670574113
20
5.02383435143943
30
0
0
SPLINE
5
CB
100
AcDbEntity
8
1
62
256
6
ByLayer
370
18
48
1
60
0
100
AcDbSpline
70
4
71
3
72
8
73
4
40
0
40
0
40
0
40
0
40
1
40
1
40
1
40
1
41
1
10
70.1713335172948
20
5.60244722897286
30
0
41
1
10
70.1640177280465
20
5.60115003892042
30
0
41
1
10
70.1567330543104
20
5.59406573010162
30
0
41
1
10
70.1494781653502
20
5.58137294483524
30
0
0
SPLINE
5
CC
100
AcDbEntity
8
1
62
256
6
ByLayer
370
13
48
1
60
0
100
AcDbSpline
70
4
71
3
72
8
73
4
40
0
40
0
40
0
40
0
40
1
40
1
40
1
40
1
41
1
10
67.5235977860325
20
-5.58002116512145
30
0
41
1
10
67.516542115145
20
-5.56712997149097
30
0
41
1
10
67.5094868441899
20
-5.54889249996512
30
0
41
1
10
67.5024351637576
20
-5.52540563224596
30
0
0
SPLINE
5
CD
100
AcDbEntity
8
1
62
256
6
ByLayer
370
18
48
1
60
0
100
AcDbSpline
70
4
71
3
72
8
73
4
40
0
40
0
40
0
40
0
40
1
40
1
40
1
40
1
41
1
10
79.7494793229924
20
-5.53401668610806
30
0
41
1
10
79.7523515981245
20
-5.54117167201724
30
0
41
1
10
79.7552300483543
20
-5.54743648515711
30
0
41
1
10
79.7581138540814
20
-5.55280066018628
30
0
0
SPLINE
5
CE
100
AcDbEntity
8
1
62
256
6
ByLayer
370
13
48
1
60
0
100
AcDbSpline
70
4
71
3
72
9
73
5
40
0
40
0
40
0
40
0
40
0.250703918951471
40
1
40
1
40
1
40
1
41
1
10
72.0107893247902
20
5.33083589036497
30
0
41
1
10
72.0019202570479
20
5.38570896093862
30
0
41
1
10
71.9663240774604
20
5.57341870815534
30
0
41
1
10
71.9297348734553
20
5.62860713534533
30
0
41
1
10
71.9018662471424
20
5.58527133513229
30
0
0
SPLINE
5
CF
100
AcDbEntity
8
1
62
256
6
ByLayer
370
18
48
1
60
0
100
AcDbSpline
70
4
71
3
72
18
73
14
40
0
40
0
40
0
40
0
40
0.170237431249254
40
0.170237431249254
40
0.239384311978483
40
0.239384311978483
40
0.308531192707712
40
0.308531192707712
40
0.446824954166169
40
0.446824954166169
40
0.723412477083085
40
0.723412477083085
40
1
40
1
40
1
40
1
41
1
10
78.6041314135718
20
-5.89392882701515
30
0
41
1
10
78.5983282117723
20
-5.89548806550607
30
0
41
1
10
78.5925263790853
20
-5.89331315926563
30
0
41
1
10
78.5843403338546
20
-5.88495565029075
30
0
41
1
10
78.5819720982453
20
-5.88191902453815
30
0
41
1
10
78.5772236603725
20
-5.87459288282716
30
0
41
1
10
78.5748489621413
20
-5.87031083353969
30
0
41
1
10
78.5677337375305
20
-5.85566681613685
30
0
41
1
10
78.5629904785998
20
-5.84350351437453
30
0
41
1
10
78.5487336947419
20
-5.7999550718792
30
0
41
1
10
78.5392312011955
20
-5.76146697257687
30
0
41
1
10
78.5204041767796
20
-5.66532706403052
30
0
41
1
10
78.5110784617691
20
-5.60767829922389
30
0
41
1
10
78.5017950644168
20
-5.54022435727256
30
0
0
SPLINE
5
D0
100
AcDbEntity
8
1
62
256
6
ByLayer
370
18
48
1
60
0
100
AcDbSpline
70
4
71
3
72
17
73
13
40
0
40
0
40
0
40
0
40
0.303397986401356
40
0.303397986401356
40
0.379247483001694
40
0.379247483001694
40
0.455096979602032
40
0.606795972802708
40
0.606795972802708
40
0.910193959204059
40
0.910193959204059
40
1
40
1
40
1
40
1
41
1
10
78.1550926988944
20
-5.48432929360123
30
0
41
1
10
78.1645125675077
20
-5.56511706234437
30
0
41
1
10
78.173900010145
20
-5.6363556411863
30
0
41
1
10
78.1855473831428
20
-5.71337089799366
30
0
41
1
10
78.1878749639099
20
-5.72818257319727
30
0
41
1
10
78.1925155620296
20
-5.7565439756284
30
0
41
1
10
78.1994477922227
20
-5.79715255851957
30
0
41
1
10
78.2063045689019
20
-5.83203260997516
30
0
41
1
10
78.2199636789393
20
-5.89430758627529
30
0
41
1
10
78.2289993265166
20
-5.92587143713334
30
0
41
1
10
78.2408590917671
20
-5.95417058423868
30
0
41
1
10
78.243574664747
20
-5.95977651312197
30
0
41
1
10
78.2462984186276
20
-5.96451404409643
30
0
0
SPLINE
5
D1
100
AcDbEntity
8
1
62
256
6
ByLayer
370
13
48
1
60
0
100
AcDbSpline
70
4
71
3
72
8
73
4
40
0
40
0
40
0
40
0
40
1
40
1
40
1
40
1
41
1
10
78.0468313872208
20
-5.60277584717196
30
0
41
1
10
78.0072148587202
20
-5.59773980985571
30
0
41
1
10
77.9667845009268
20
-5.41928077694121
30
0
41
1
10
77.9252929748656
20
-5.06216792763055
30
0
0
SPLINE
5
D2
100
AcDbEntity
8
1
62
256
6
ByLayer
370
18
48
1
60
0
100
AcDbSpline
70
4
71
3
72
11
73
7
40
0
40
0
40
0
40
0
40
0.0882356456507332
40
0.479391742315248
40
0.93829254876488
40
1
40
1
40
1
40
1
41
1
10
83
20
0.253687032278549
30
0
41
1
10
83
20
0.169127113933058
30
0
41
1
10
83
20
-0.291551391602098
30
0
41
1
10
83
20
-1.19834165006603
30
0
41
1
10
83
20
-2.01652071774663
30
0
41
1
10
83
20
-2.43630827558627
30
0
41
1
10
83
20
-2.48536923828274
30
0
0
SPLINE
5
D3
100
AcDbEntity
8
1
62
256
6
ByLayer
370
18
48
1
60
0
100
AcDbSpline
70
4
71
3
72
17
73
13
40
0
40
0
40
0
40
0
40
0.24999999999998
40
0.24999999999998
40
0.312499999999978
40
0.312499999999978
40
0.374999999999977
40
0.499999999999987
40
0.499999999999987
40
0.749999999999993
40
0.749999999999993
40
1
40
1
40
1
40
1
41
1
10
80.8126853948918
20
2.33016396889394
30
0
41
1
10
80.9416333281328
20
2.20341615517629
30
0
41
1
10
81.0716065455653
20
2.07590933514115
30
0
41
1
10
81.2357848166821
20
1.91595232222534
30
0
41
1
10
81.2686953015271
20
1.88393728679034
30
0
41
1
10
81.3345312054669
20
1.81999840235488
30
0
41
1
10
81.4333642157863
20
1.72417280576846
30
0
41
1
10
81.5324428659348
20
1.6286040233409
30
0
41
1
10
81.7309643986349
20
1.43784754490383
30
0
41
1
10
81.8638011246302
20
1.31118824691481
30
0
41
1
10
82.1307446838696
20
1.05920040475397
30
0
41
1
10
82.2647742738586
20
0.933790602583059
30
0
41
1
10
82.3999998944691
20
0.809636342202396
30
0
0
SPLINE
5
D4
100
AcDbEntity
8
1
62
256
6
ByLayer
370
18
48
1
60
0
100
AcDbSpline
70
4
71
3
72
14
73
10
40
0
40
0
40
0
40
0
40
0.25
40
0.25
40
0.5
40
0.5
40
0.75
40
0.75
40
1
40
1
40
1
40
1
41
1
10
82.3999998944691
20
0.809636342202367
30
0
41
1
10
82.4475388869513
20
0.75559874326882
30
0
41
1
10
82.4956100622116
20
0.703297658100723
30
0
41
1
10
82.59299842651
20
0.602333169865716
30
0
41
1
10
82.6423604060564
20
0.55363598129523
30
0
41
1
10
82.7423365653907
20
0.460311161847613
30
0
41
1
10
82.7929419243585
20
0.415691561283722
30
0
41
1
10
82.8954978743642
20
0.331041144295739
30
0
41
1
10
82.9473736837687
20
0.291069195151152
30
0
41
1
10
83
20
0.253687032278549
30
0
0
SPLINE
5
D5
100
AcDbEntity
8
1
62
256
6
ByLayer
370
18
48
1
60
0
100
AcDbSpline
70
4
71
3
72
56
73
52
40
0
40
0
40
0
40
0
40
0.0312499999999991
40
0.0312499999999991
40
0.0468749999999989
40
0.0468749999999989
40
0.0624999999999986
40
0.0624999999999986
40
0.124999999999999
40
0.124999999999999
40
0.140624999999999
40
0.140624999999999
40
0.156249999999999
40
0.156249999999999
40
0.187499999999999
40
0.187499999999999
40
0.249999999999999
40
0.249999999999999
40
0.281249999999999
40
0.281249999999999
40
0.312499999999999
40
0.312499999999999
40
0.374999999999999
40
0.499999999999998
40
0.499999999999998
40
0.562499999999998
40
0.562499999999998
40
0.578124999999998
40
0.578124999999998
40
0.593749999999998
40
0.593749999999998
40
0.624999999999998
40
0.624999999999998
40
0.687499999999998
40
0.687499999999998
40
0.749999999999998
40
0.749999999999998
40
0.781249999999998
40
0.781249999999998
40
0.796874999999998
40
0.796874999999998
40
0.812499999999998
40
0.812499999999998
40
0.874999999999999
40
0.874999999999999
40
0.906249999999999
40
0.906249999999999
40
0.921874999999999
40
0.921874999999999
40
0.937499999999999
40
1
40
1
40
1
40
1
41
1
10
83
20
0.253687032278577
30
0
41
1
10
83
20
0.256330812220853
30
0
41
1
10
83
20
0.261396028412975
30
0
41
1
10
83
20
0.272788934548259
30
0
41
1
10
83
20
0.277220550723598
30
0
41
1
10
82.9999999999999
20
0.287398901682195
30
0
41
1
10
83
20
0.293165961355015
30
0
41
1
10
83
20
0.32495875394946
30
0
41
1
10
83
20
0.359936721333469
30
0
41
1
10
83
20
0.414964662176089
30
0
41
1
10
83
20
0.426598224032233
30
0
41
1
10
83
20
0.45064086056658
30
0
41
1
10
83
20
0.46288234363621
30
0
41
1
10
82.9999999999999
20
0.500400640848284
30
0
41
1
10
83
20
0.526444252089874
30
0
41
1
10
83
20
0.607633600327262
30
0
41
1
10
83
20
0.665833748799912
30
0
41
1
10
83
20
0.759319599108323
30
0
41
1
10
83
20
0.79154048625557
30
0
41
1
10
83
20
0.857970900200456
30
0
41
1
10
83
20
0.892051064623189
30
0
41
1
10
83
20
0.996861628078136
30
0
41
1
10
82.9999999999999
20
1.21673700734962
30
0
41
1
10
83
20
1.46651359431243
30
0
41
1
10
83
20
1.73629320825717
30
0
41
1
10
83
20
1.82955132214732
30
0
41
1
10
83
20
1.95040935431715
30
0
41
1
10
83
20
1.97479587413355
30
0
41
1
10
83
20
2.0240027986772
30
0
41
1
10
83
20
2.04882509400537
30
0
41
1
10
83
20
2.12369466315783
30
0
41
1
10
83
20
2.17422549278487
30
0
41
1
10
83
20
2.32764612649694
30
0
41
1
10
83.0000000000001
20
2.43235964173857
30
0
41
1
10
83
20
2.64662575543525
30
0
41
1
10
83
20
2.75618074436159
30
0
41
1
10
83
20
2.924215930466
30
0
41
1
10
83
20
2.98087087713427
30
0
41
1
10
83
20
3.06667884798983
30
0
41
1
10
83
20
3.09547202210226
30
0
41
1
10
83
20
3.15346374153319
30
0
41
1
10
83
20
3.18267113444674
30
0
41
1
10
83
20
3.32970092364397
30
0
41
1
10
83
20
3.45050648650249
30
0
41
1
10
83.0000000000001
20
3.6364170845986
30
0
41
1
10
83
20
3.69917867777707
30
0
41
1
10
83
20
3.79454580773796
30
0
41
1
10
83
20
3.82658081060791
30
0
41
1
10
83
20
3.89045376837365
30
0
41
1
10
83
20
4.04999213901482
30
0
41
1
10
83.0000000000001
20
4.20882065589655
30
0
41
1
10
83.0000000000001
20
4.33543677502345
30
0
0
SPLINE
5
D6
100
AcDbEntity
8
1
62
256
6
ByLayer
370
18
48
1
60
0
100
AcDbSpline
70
4
71
3
72
10
73
6
40
0
40
0
40
0
40
0
40
0.5
40
0.5
40
1
40
1
40
1
40
1
41
1
10
83
20
4.33543677502303
30
0
41
1
10
82.9020262513035
20
4.4380270620002
30
0
41
1
10
82.80297228865
20
4.53993386170399
30
0
41
1
10
82.6029113699699
20
4.74294321284222
30
0
41
1
10
82.5019299316487
20
4.84401935073177
30
0
41
1
10
82.4000000629052
20
4.94503226474461
30
0
0
SPLINE
5
D7
100
AcDbEntity
8
1
62
256
6
ByLayer
370
18
48
1
60
0
100
AcDbSpline
70
4
71
3
72
10
73
6
40
0
40
0
40
0
40
0
40
0.5
40
0.5
40
1
40
1
40
1
40
1
41
1
10
82.400000062905
20
4.9450322647445
30
0
41
1
10
82.3437245844151
20
4.95947281178425
30
0
41
1
10
82.287601790771
20
4.97327195662217
30
0
41
1
10
82.1757875202264
20
4.9995437268274
30
0
41
1
10
82.1200849116575
20
5.01201902761525
30
0
41
1
10
82.0645670574074
20
5.02383435144156
30
0
0
SPLINE
5
D8
100
AcDbEntity
8
1
62
256
6
ByLayer
370
18
48
1
60
0
100
AcDbSpline
70
4
71
3
72
36
73
32
40
0
40
0
40
0
40
0
40
0.06250000000001
40
0.06250000000001
40
0.12500000000002
40
0.12500000000002
40
0.250000000000038
40
0.250000000000038
40
0.31250000000007
40
0.31250000000007
40
0.375000000000102
40
0.375000000000102
40
0.500000000000118
40
0.500000000000118
40
0.562500000000101
40
0.562500000000101
40
0.625000000000085
40
0.625000000000085
40
0.687500000000068
40
0.687500000000068
40
0.718750000000061
40
0.718750000000061
40
0.750000000000053
40
0.750000000000053
40
0.81250000000004
40
0.81250000000004
40
0.875000000000027
40
0.875000000000027
40
0.937500000000013
40
0.937500000000013
40
1
40
1
40
1
40
1
41
1
10
82.0645670574075
20
5.02383435144151
30
0
41
1
10
82.056765636529
20
5.01676879313627
30
0
41
1
10
82.0486747308386
20
5.01011270916584
30
0
41
1
10
82.0319094952481
20
4.99762975051792
30
0
41
1
10
82.0232086306393
20
4.99179393372
30
0
41
1
10
81.9966172773644
20
4.97598295440247
30
0
41
1
10
81.9781220769231
20
4.96755829699563
30
0
41
1
10
81.9494264685582
20
4.95760257113278
30
0
41
1
10
81.9396987454232
20
4.95474142677412
30
0
41
1
10
81.9199158753919
20
4.94996168774449
30
0
41
1
10
81.9098279790508
20
4.94804123410546
30
0
41
1
10
81.879503293339
20
4.94388944559481
30
0
41
1
10
81.8590962018552
20
4.94321041746366
30
0
41
1
10
81.8281940452255
20
4.94610901987681
30
0
41
1
10
81.8178462490395
20
4.94770959777648
30
0
41
1
10
81.7970643789733
20
4.95222404632284
30
0
41
1
10
81.7866722255055
20
4.95513457878988
30
0
41
1
10
81.7662271464105
20
4.96221907820939
30
0
41
1
10
81.7561267671453
20
4.96639955758104
30
0
41
1
10
81.7411895106091
20
4.97375228591244
30
0
41
1
10
81.7362462048526
20
4.97638478325024
30
0
41
1
10
81.7264407594392
20
4.98205854302498
30
0
41
1
10
81.721559733481
20
4.98511249997668
30
0
41
1
10
81.7072149901452
20
4.99489382668196
30
0
41
1
10
81.6980836506717
20
5.00222816803606
30
0
41
1
10
81.6809087086246
20
5.01894783057986
30
0
41
1
10
81.6728456008535
20
5.02838818983057
30
0
41
1
10
81.6578290020638
20
5.04895209914298
30
0
41
1
10
81.6509707804082
20
5.05989973293418
30
0
41
1
10
81.6375211923346
20
5.08204170017692
30
0
41
1
10
81.6309307187327
20
5.09323694153048
30
0
41
1
10
81.6241887679484
20
5.10425556255325
30
0
0
SPLINE
5
D9
100
AcDbEntity
8
1
62
256
6
ByLayer
370
18
48
1
60
0
100
AcDbSpline
70
4
71
3
72
10
73
6
40
0
40
0
40
0
40
0
40
0.5
40
0.5
40
1
40
1
40
1
40
1
41
1
10
81.6241887679484
20
5.10425556255322
30
0
41
1
10
81.4326920192584
20
5.13332150901047
30
0
41
1
10
81.2429452654231
20
5.1542678302815
30
0
41
1
10
80.8658079628625
20
5.17967253887753
30
0
41
1
10
80.6783837415339
20
5.18413876245757
30
0
41
1
10
80.4919488712716
20
5.17996730860287
30
0
0
SPLINE
5
DA
100
AcDbEntity
8
1
62
256
6
ByLayer
370
18
48
1
60
0
100
AcDbSpline
70
4
71
3
72
56
73
52
40
0
40
0
40
0
40
0
40
0.125000000000031
40
0.125000000000031
40
0.187500000000047
40
0.187500000000047
40
0.250000000000063
40
0.250000000000063
40
0.281250000000066
40
0.281250000000066
40
0.312500000000069
40
0.312500000000069
40
0.343750000000072
40
0.343750000000072
40
0.375000000000075
40
0.375000000000075
40
0.406250000000078
40
0.406250000000078
40
0.42187500000008
40
0.42187500000008
40
0.437500000000082
40
0.437500000000082
40
0.468750000000085
40
0.468750000000085
40
0.500000000000089
40
0.500000000000089
40
0.515625000000083
40
0.515625000000083
40
0.531250000000076
40
0.531250000000076
40
0.562500000000079
40
0.562500000000079
40
0.578125000000081
40
0.578125000000081
40
0.593750000000082
40
0.593750000000082
40
0.609375000000083
40
0.609375000000083
40
0.625000000000085
40
0.625000000000085
40
0.640625000000086
40
0.640625000000086
40
0.656250000000088
40
0.656250000000088
40
0.687500000000079
40
0.687500000000079
40
0.750000000000063
40
0.750000000000063
40
0.875000000000032
40
0.875000000000032
40
1
40
1
40
1
40
1
41
1
10
80.4919488712716
20
5.17996730860284
30
0
41
1
10
80.4575027125534
20
5.11288878587322
30
0
41
1
10
80.4229786422982
20
5.04543352746066
30
0
41
1
10
80.371076985741
20
4.94367377967279
30
0
41
1
10
80.3537582100577
20
4.90965698576943
30
0
41
1
10
80.3190863363963
20
4.8414226041175
30
0
41
1
10
80.3017685712158
20
4.80717369130713
30
0
41
1
10
80.2756577958657
20
4.75574155886818
30
0
41
1
10
80.266747409768
20
4.73872428689455
30
0
41
1
10
80.2468462781362
20
4.70735355509498
30
0
41
1
10
80.2358762772035
20
4.69294098705231
30
0
41
1
10
80.2127963679674
20
4.66550974019458
30
0
41
1
10
80.2006423237385
20
4.65254781184743
30
0
41
1
10
80.1750297959632
20
4.62823865069001
30
0
41
1
10
80.161775826826
20
4.61717973472213
30
0
41
1
10
80.1345325424472
20
4.59707370328678
30
0
41
1
10
80.1205430812454
20
4.5879899772282
30
0
41
1
10
80.0990430530794
20
4.57575351343598
30
0
41
1
10
80.0917895777596
20
4.57190856624388
30
0
41
1
10
80.0771053611664
20
4.56470358970947
30
0
41
1
10
80.0696584978883
20
4.56133816847455
30
0
41
1
10
80.0472924660748
20
4.55212292790242
30
0
41
1
10
80.0322822489887
20
4.54710344765505
30
0
41
1
10
80.0020624227243
20
4.53969367651419
30
0
41
1
10
79.986849903731
20
4.53734290973594
30
0
41
1
10
79.9639001458962
20
4.53589654566349
30
0
41
1
10
79.9562060990939
20
4.53576490389284
30
0
41
1
10
79.9409929894042
20
4.53622696045093
30
0
41
1
10
79.9334525862662
20
4.53681692629206
30
0
41
1
10
79.911044682862
20
4.53971180072318
30
0
41
1
10
79.8963808938567
20
4.54308887803853
30
0
41
1
10
79.8749669960433
20
4.55113339622358
30
0
41
1
10
79.8680200454073
20
4.55429540237441
30
0
41
1
10
79.8547062288103
20
4.5617649948656
30
0
41
1
10
79.84832722286
20
4.56608478243689
30
0
41
1
10
79.8361677147846
20
4.57598261735362
30
0
41
1
10
79.8303677318913
20
4.58158678823671
30
0
41
1
10
79.8193837654245
20
4.59377406285816
30
0
41
1
10
79.8142348676285
20
4.60030369006623
30
0
41
1
10
79.8041964413136
20
4.61367332060041
30
0
41
1
10
79.799300388087
20
4.62050471003678
30
0
41
1
10
79.7894782366299
20
4.63409607298328
30
0
41
1
10
79.7845293459658
20
4.64082588142344
30
0
41
1
10
79.7695414239219
20
4.66078036783586
30
0
41
1
10
79.7595451263769
20
4.6740133581001
30
0
41
1
10
79.7295922535345
20
4.71356659313633
30
0
41
1
10
79.7096503268803
20
4.73971216036873
30
0
41
1
10
79.6498988814389
20
4.8174748062448
30
0
41
1
10
79.6101824355458
20
4.86839506561421
30
0
41
1
10
79.5310751289381
20
4.96825726794941
30
0
41
1
10
79.4916652788912
20
5.01722380991592
30
0
41
1
10
79.452380331409
20
5.06523768987219
30
0
0
SPLINE
5
DB
100
AcDbEntity
8
1
62
256
6
ByLayer
370
18
48
1
60
0
100
AcDbSpline
70
4
71
3
72
8
73
4
40
0
40
0
40
0
40
0
40
1
40
1
40
1
40
1
41
1
10
79.452380331409
20
5.06523768987219
30
0
41
1
10
79.2680761093474
20
5.02825563560654
30
0
41
1
10
79.0859039025967
20
4.9826120851389
30
0
41
1
10
78.9053374017524
20
4.92854648134579
30
0
0
SPLINE
5
DC
100
AcDbEntity
8
1
62
256
6
ByLayer
370
18
48
1
60
0
100
AcDbSpline
70
4
71
3
72
8
73
4
40
0
40
0
40
0
40
0
40
1
40
1
40
1
40
1
41
1
10
78.9053374017525
20
4.92854648134565
30
0
41
1
10
78.8555288503211
20
4.82306842324155
30
0
41
1
10
78.8055376819505
20
4.71731135095249
30
0
41
1
10
78.7553624921958
20
4.6113816863915
30
0
0
SPLINE
5
DD
100
AcDbEntity
8
1
62
256
6
ByLayer
370
18
48
1
60
0
100
AcDbSpline
70
4
71
3
72
20
73
16
40
0
40
0
40
0
40
0
40
0.399640415985929
40
0.399640415985929
40
0.799280831971858
40
0.799280831971858
40
0.849235883970107
40
0.849235883970107
40
0.899190935968356
40
0.899190935968356
40
0.949145987966605
40
0.949145987966605
40
0.999101039964854
40
0.999101039964854
40
1
40
1
40
1
40
1
41
1
10
78.7553624921959
20
4.6113816863917
30
0
41
1
10
78.7091402245426
20
4.51379741552603
30
0
41
1
10
78.6627991337076
20
4.41614997865079
30
0
41
1
10
78.569820803316
20
4.22075806636835
30
0
41
1
10
78.5231807640408
20
4.12301622770912
30
0
41
1
10
78.4705691985552
20
4.01298442524723
30
0
41
1
10
78.4647215066293
20
4.00075774067065
30
0
41
1
10
78.4530220444977
20
3.97630201913862
30
0
41
1
10
78.4472010851387
20
3.96404890190246
30
0
41
1
10
78.4353882458216
20
3.93966018578848
30
0
41
1
10
78.429334365661
20
3.92757020681313
30
0
41
1
10
78.4163568409722
20
3.90402170951154
30
0
41
1
10
78.4093805243878
20
3.89260190719855
30
0
41
1
10
78.4018409284264
20
3.88129441922351
30
0
41
1
10
78.4017075301514
20
3.88109461979227
30
0
41
1
10
78.4015740134325
20
3.88089490616383
30
0
0
SPLINE
5
DE
100
AcDbEntity
8
1
62
256
6
ByLayer
370
18
48
1
60
0
100
AcDbSpline
70
4
71
3
72
54
73
50
40
0
40
0
40
0
40
0
40
0.125000000000032
40
0.187500000000048
40
0.218750000000056
40
0.218750000000056
40
0.234375000000066
40
0.234375000000066
40
0.250000000000076
40
0.250000000000076
40
0.281250000000085
40
0.281250000000085
40
0.312500000000095
40
0.312500000000095
40
0.328125000000099
40
0.328125000000099
40
0.343750000000104
40
0.343750000000104
40
0.375000000000099
40
0.375000000000099
40
0.406250000000093
40
0.437500000000088
40
0.437500000000088
40
0.468750000000083
40
0.468750000000083
40
0.500000000000077
40
0.500000000000077
40
0.531250000000072
40
0.531250000000072
40
0.546875000000069
40
0.546875000000069
40
0.562500000000067
40
0.562500000000067
40
0.593750000000078
40
0.593750000000078
40
0.609375000000076
40
0.609375000000076
40
0.625000000000074
40
0.625000000000074
40
0.640625000000072
40
0.640625000000072
40
0.65625000000007
40
0.65625000000007
40
0.671875000000068
40
0.671875000000068
40
0.687500000000066
40
0.750000000000056
40
0.750000000000056
40
1
40
1
40
1
40
1
41
1
10
66.5188873269749
20
-5.14519462717436
30
0
41
1
10
66.5517742193253
20
-5.10781284283792
30
0
41
1
10
66.6012502686959
20
-5.05051004413164
30
0
41
1
10
66.6592578811001
20
-4.98151178768131
30
0
41
1
10
66.684182966372
20
-4.95148241892897
30
0
41
1
10
66.6966566026654
20
-4.93639139512479
30
0
41
1
10
66.7008229052208
20
-4.931358379274
30
0
41
1
10
66.7090836904271
20
-4.92115873363735
30
0
41
1
10
66.7131754584983
20
-4.91598749068325
30
0
41
1
10
66.7254880890664
20
-4.90048176201236
30
0
41
1
10
66.7337110898535
20
-4.89010463530892
30
0
41
1
10
66.7514538207137
20
-4.87110195765956
30
0
41
1
10
66.7610391704715
20
-4.86257066026351
30
0
41
1
10
66.7767987623074
20
-4.85167661041532
30
0
41
1
10
66.7822747859406
20
-4.84835173672954
30
0
41
1
10
66.7936454299911
20
-4.84227616267245
30
0
41
1
10
66.7995436549325
20
-4.83952279560063
30
0
41
1
10
66.817455952902
20
-4.8321196244533
30
0
41
1
10
66.8297928024569
20
-4.82824898950327
30
0
41
1
10
66.8551118618659
20
-4.82225693572411
30
0
41
1
10
66.8810827955546
20
-4.81803258353449
30
0
41
1
10
66.9083289651438
20
-4.81736993762436
30
0
41
1
10
66.9362854910596
20
-4.81877628748674
30
0
41
1
10
66.9504001303269
20
-4.82055069322035
30
0
41
1
10
66.9786545448173
20
-4.82609526143938
30
0
41
1
10
66.9928283741539
20
-4.82985025331087
30
0
41
1
10
67.0212451244202
20
-4.83932806328625
30
0
41
1
10
67.0354880769117
20
-4.84504642348494
30
0
41
1
10
67.0568937998237
20
-4.85532474867699
30
0
41
1
10
67.0640255552656
20
-4.85903489993325
30
0
41
1
10
67.078085041562
20
-4.86697697546253
30
0
41
1
10
67.0850379187752
20
-4.87122003772151
30
0
41
1
10
67.1056326926111
20
-4.88487268347538
30
0
41
1
10
67.1190025084826
20
-4.89523564294339
30
0
41
1
10
67.1384907591402
20
-4.91270568721032
30
0
41
1
10
67.1448725523617
20
-4.91883957100754
30
0
41
1
10
67.1571599741391
20
-4.93154025924306
30
0
41
1
10
67.1631090788957
20
-4.93812177006652
30
0
41
1
10
67.1744235492568
20
-4.95198326426328
30
0
41
1
10
67.1797629574959
20
-4.95929490769788
30
0
41
1
10
67.1898656368558
20
-4.97460667518882
30
0
41
1
10
67.194653708661
20
-4.98257655679762
30
0
41
1
10
67.204009361059
20
-4.99877099814012
30
0
41
1
10
67.2086053558001
20
-5.00695705881037
30
0
41
1
10
67.217844896929
20
-5.02326343744835
30
0
41
1
10
67.240938366938
20
-5.06401569217527
30
0
41
1
10
67.264004135285
20
-5.10470115065476
30
0
41
1
10
67.356162402365
20
-5.26724534896834
30
0
41
1
10
67.4295286892842
20
-5.3967250843973
30
0
41
1
10
67.502435163757
20
-5.52540563224389
30
0
0
SPLINE
5
DF
100
AcDbEntity
8
1
62
256
6
ByLayer
370
18
48
1
60
0
100
AcDbSpline
70
4
71
3
72
8
73
4
40
0
40
0
40
0
40
0
40
1
40
1
40
1
40
1
41
1
10
67.502435163757
20
-5.52540563224386
30
0
41
1
10
67.5979511900983
20
-5.69399223153573
30
0
41
1
10
67.6926495926236
20
-5.86106555789684
30
0
41
1
10
67.7865219910817
20
-6.02620729129282
30
0
0
SPLINE
5
E0
100
AcDbEntity
8
1
62
256
6
ByLayer
370
18
48
1
60
0
100
AcDbSpline
70
4
71
3
72
58
73
54
40
0
40
0
40
0
40
0
40
0.031249999999988
40
0.031249999999988
40
0.062499999999976
40
0.062499999999976
40
0.124999999999952
40
0.124999999999952
40
0.249999999999904
40
0.249999999999904
40
0.374999999999856
40
0.374999999999856
40
0.437499999999832
40
0.468749999999821
40
0.468749999999821
40
0.499999999999809
40
0.499999999999809
40
0.531249999999798
40
0.531249999999798
40
0.546874999999791
40
0.546874999999791
40
0.554687499999793
40
0.554687499999793
40
0.562499999999795
40
0.562499999999795
40
0.593749999999802
40
0.593749999999802
40
0.609374999999806
40
0.609374999999806
40
0.624999999999809
40
0.624999999999809
40
0.656249999999805
40
0.656249999999805
40
0.671874999999798
40
0.671874999999798
40
0.68749999999979
40
0.68749999999979
40
0.718749999999785
40
0.718749999999785
40
0.734374999999789
40
0.734374999999789
40
0.749999999999792
40
0.749999999999792
40
0.757812499999794
40
0.757812499999794
40
0.765624999999795
40
0.765624999999795
40
0.781249999999805
40
0.781249999999805
40
0.812499999999833
40
0.874999999999889
40
0.874999999999889
40
1
40
1
40
1
40
1
41
1
10
67.969161311337
20
-6.0479906470307
30
0
41
1
10
67.98107963639
20
-6.03005254526568
30
0
41
1
10
67.9929856322574
20
-6.0119953506817
30
0
41
1
10
68.0168826262123
20
-5.97579199124709
30
0
41
1
10
68.0288620231089
20
-5.95762961618891
30
0
41
1
10
68.0648549316467
20
-5.90293471003497
30
0
41
1
10
68.0889151241273
20
-5.86617561644377
30
0
41
1
10
68.1612021129472
20
-5.75488070133989
30
0
41
1
10
68.2095698683236
20
-5.6793744796428
30
0
41
1
10
68.3067333901544
20
-5.52572953447037
30
0
41
1
10
68.3555410372046
20
-5.44756987359619
30
0
41
1
10
68.4290512393811
20
-5.32847964032408
30
0
41
1
10
68.4658884940096
20
-5.26846060056701
30
0
41
1
10
68.5028612370448
20
-5.207733267561
30
0
41
1
10
68.52754123253
20
-5.16709120550769
30
0
41
1
10
68.5399631645594
20
-5.14676996600952
30
0
41
1
10
68.5643270222429
20
-5.10536249311858
30
0
41
1
10
68.5763422855283
20
-5.08436553166521
30
0
41
1
10
68.5972111017906
20
-5.05609233630489
30
0
41
1
10
68.6046352004714
20
-5.04719689245857
30
0
41
1
10
68.6165691928649
20
-5.03475999740976
30
0
41
1
10
68.6206777617158
20
-5.03076256508251
30
0
41
1
10
68.6291463669334
20
-5.02305257463021
30
0
41
1
10
68.6335181736901
20
-5.01933157266572
30
0
41
1
10
68.6556314017861
20
-5.00160952863374
30
0
41
1
10
68.6742992001373
20
-4.98991878029017
30
0
41
1
10
68.7034089589356
20
-4.97522671355736
30
0
41
1
10
68.7133047157371
20
-4.97082501247544
30
0
41
1
10
68.7334855971236
20
-4.96304536469566
30
0
41
1
10
68.7438185375754
20
-4.95965566260398
30
0
41
1
10
68.7750713077756
20
-4.95129718287873
30
0
41
1
10
68.7961572401713
20
-4.94824447047381
30
0
41
1
10
68.8280826415266
20
-4.94724879190454
30
0
41
1
10
68.8387734042895
20
-4.94750750434031
30
0
41
1
10
68.8602455192102
20
-4.9492437066134
30
0
41
1
10
68.8710798195582
20
-4.95073167826888
30
0
41
1
10
68.9032955315786
20
-4.95715101840537
30
0
41
1
10
68.9243052236107
20
-4.96391390241209
30
0
41
1
10
68.9547895612315
20
-4.97922334480404
30
0
41
1
10
68.9648514390502
20
-4.9852137551344
30
0
41
1
10
68.9841987734742
20
-4.99866387584257
30
0
41
1
10
68.9935088502019
20
-5.00607678091484
30
0
41
1
10
69.0067631323595
20
-5.01854393166553
30
0
41
1
10
69.0110482160791
20
-5.02295295040943
30
0
41
1
10
69.0192843073867
20
-5.03241019056324
30
0
41
1
10
69.0232374784798
20
-5.03747873531478
30
0
41
1
10
69.0346668937993
20
-5.05333917025573
30
0
41
1
10
69.0416301980674
20
-5.06463321781678
30
0
41
1
10
69.0627030072751
20
-5.09823988385367
30
0
41
1
10
69.1048203121506
20
-5.1652121881524
30
0
41
1
10
69.1468409647299
20
-5.23148693644916
30
0
41
1
10
69.2307191537343
20
-5.36316336060995
30
0
41
1
10
69.2863963866546
20
-5.44977289964817
30
0
41
1
10
69.3418218302932
20
-5.53511187716398
30
0
0
SPLINE
5
E1
100
AcDbEntity
8
1
62
256
6
ByLayer
370
18
48
1
60
0
100
AcDbSpline
70
4
71
3
72
10
73
6
40
0
40
0
40
0
40
0
40
0.5
40
0.5
40
1
40
1
40
1
40
1
41
1
10
69.3418218302938
20
-5.53511187716367
30
0
41
1
10
69.3895964553092
20
-5.60867083100081
30
0
41
1
10
69.437179196518
20
-5.68127614920928
30
0
41
1
10
69.5319159954153
20
-5.82444362369847
30
0
41
1
10
69.5790683587897
20
-5.89500377024066
30
0
41
1
10
69.6260305608172
20
-5.96454542862503
30
0
0
SPLINE
5
E2
100
AcDbEntity
8
1
62
256
6
ByLayer
370
18
48
1
60
0
100
AcDbSpline
70
4
71
3
72
8
73
4
40
0
40
0
40
0
40
0
40
1
40
1
40
1
40
1
41
1
10
69.8079403681294
20
-5.92482226746097
30
0
41
1
10
69.747277358945
20
-5.93906987433209
30
0
41
1
10
69.6866421344301
20
-5.95230917385311
30
0
41
1
10
69.6260305608171
20
-5.96454542862512
30
0
0
SPLINE
5
E3
100
AcDbEntity
8
1
62
256
6
ByLayer
370
18
48
1
60
0
100
AcDbSpline
70
4
71
3
72
63
73
59
40
0
40
0
40
0
40
0
40
0.0312499999999858
40
0.0312499999999858
40
0.0624999999999716
40
0.0624999999999716
40
0.124999999999942
40
0.124999999999942
40
0.24999999999989
40
0.24999999999989
40
0.374999999999837
40
0.374999999999837
40
0.43749999999981
40
0.43749999999981
40
0.468749999999801
40
0.468749999999801
40
0.484374999999796
40
0.484374999999796
40
0.499999999999791
40
0.499999999999791
40
0.515624999999786
40
0.515624999999786
40
0.531249999999781
40
0.531249999999781
40
0.546874999999776
40
0.546874999999776
40
0.554687499999778
40
0.554687499999778
40
0.562499999999779
40
0.562499999999779
40
0.593749999999806
40
0.593749999999806
40
0.609374999999824
40
0.609374999999824
40
0.624999999999843
40
0.624999999999843
40
0.656249999999868
40
0.656249999999868
40
0.671874999999875
40
0.671874999999875
40
0.687499999999882
40
0.687499999999882
40
0.718749999999896
40
0.718749999999896
40
0.734374999999897
40
0.734374999999897
40
0.749999999999898
40
0.749999999999898
40
0.757812499999899
40
0.757812499999899
40
0.765624999999899
40
0.765624999999899
40
0.781249999999907
40
0.781249999999907
40
0.812499999999924
40
0.874999999999949
40
0.874999999999949
40
1
40
1
40
1
40
1
41
1
10
69.8079403681294
20
-5.92482226746097
30
0
41
1
10
69.8199710185552
20
-5.9021610988639
30
0
41
1
10
69.831988023758
20
-5.87942091989717
30
0
41
1
10
69.8561097844247
20
-5.83390457068398
30
0
41
1
10
69.868202657841
20
-5.81111552036873
30
0
41
1
10
69.9045382258109
20
-5.74264231726448
30
0
41
1
10
69.9288294476702
20
-5.69683508368001
30
0
41
1
10
70.0018153393181
20
-5.55884054044799
30
0
41
1
10
70.0506579210561
20
-5.46611600300594
30
0
41
1
10
70.1487793968314
20
-5.27922488211993
30
0
41
1
10
70.198063811225
20
-5.18504859393639
30
0
41
1
10
70.2722474828061
20
-5.04296876579144
30
0
41
1
10
70.2970235848239
20
-4.99546265844765
30
0
41
1
10
70.3342690939341
20
-4.92398519694405
30
0
41
1
10
70.3466978957936
20
-4.90012293717024
30
0
41
1
10
70.365362980195
20
-4.86427480054766
30
0
41
1
10
70.3715948018318
20
-4.85232257900208
30
0
41
1
10
70.3840363843101
20
-4.82837115895026
30
0
41
1
10
70.3901720392378
20
-4.8163008560621
30
0
41
1
10
70.4024648093766
20
-4.79215490003969
30
0
41
1
10
70.4086309744636
20
-4.78008795002847
30
0
41
1
10
70.4215189575888
20
-4.75645978593121
30
0
41
1
10
70.4282762505601
20
-4.74493248503967
30
0
41
1
10
70.4427916551619
20
-4.72280862543579
30
0
41
1
10
70.4505417894746
20
-4.71220444108158
30
0
41
1
10
70.4629309086775
20
-4.69700860133489
30
0
41
1
10
70.4671906710829
20
-4.6920560923059
30
0
41
1
10
70.475814270198
20
-4.68249878546848
30
0
41
1
10
70.4801927439385
20
-4.67787265194309
30
0
41
1
10
70.5023747850799
20
-4.65540171397134
30
0
41
1
10
70.521015097753
20
-4.63945656531763
30
0
41
1
10
70.5500655905857
20
-4.61804222604067
30
0
41
1
10
70.5599368102253
20
-4.61133634397501
30
0
41
1
10
70.5800662899837
20
-4.59883298803382
30
0
41
1
10
70.5903776311893
20
-4.59301027297548
30
0
41
1
10
70.6214822105461
20
-4.57730920814509
30
0
41
1
10
70.6424321841452
20
-4.5692573302307
30
0
41
1
10
70.6740948995682
20
-4.56049148673335
30
0
41
1
10
70.6846890228057
20
-4.55812357935184
30
0
41
1
10
70.7059503215068
20
-4.55454090104112
30
0
41
1
10
70.7166717156944
20
-4.55332338519759
30
0
41
1
10
70.7484896456695
20
-4.55164220625298
30
0
41
1
10
70.7691926231161
20
-4.55309044503548
30
0
41
1
10
70.7991555053543
20
-4.56046323984125
30
0
41
1
10
70.8090349419398
20
-4.56377824875483
30
0
41
1
10
70.827966317758
20
-4.57197710890162
30
0
41
1
10
70.8370722160889
20
-4.57679135176215
30
0
41
1
10
70.849923173665
20
-4.58563323848827
30
0
41
1
10
70.8540579206118
20
-4.58888042140143
30
0
41
1
10
70.8619900803011
20
-4.59605534720004
30
0
41
1
10
70.8657973437492
20
-4.59997607214385
30
0
41
1
10
70.8768695043272
20
-4.61234379473504
30
0
41
1
10
70.8837280306804
20
-4.62127142055743
30
0
41
1
10
70.9046062678633
20
-4.64753554366345
30
0
41
1
10
70.9463350541241
20
-4.69968891792209
30
0
41
1
10
70.9879691916834
20
-4.75075020538978
30
0
41
1
10
71.0710780707932
20
-4.85149005243821
30
0
41
1
10
71.126252517611
20
-4.91680661511199
30
0
41
1
10
71.1811813545356
20
-4.98022114916611
30
0
0
SPLINE
5
E4
100
AcDbEntity
8
1
62
256
6
ByLayer
370
18
48
1
60
0
100
AcDbSpline
70
4
71
3
72
10
73
6
40
0
40
0
40
0
40
0
40
0.5
40
0.5
40
1
40
1
40
1
40
1
41
1
10
71.1811813545355
20
-4.98022114916631
30
0
41
1
10
71.228927676856
20
-5.03534357578727
30
0
41
1
10
71.2764854264694
20
-5.08902383649937
30
0
41
1
10
71.3711767124717
20
-5.19342593279302
30
0
41
1
10
71.4183094341213
20
-5.2441476957467
30
0
41
1
10
71.4652541333424
20
-5.29340564494041
30
0
0
SPLINE
5
E5
100
AcDbEntity
8
1
62
256
6
ByLayer
370
18
48
1
60
0
100
AcDbSpline
70
4
71
3
72
8
73
4
40
0
40
0
40
0
40
0
40
1
40
1
40
1
40
1
41
1
10
71.6477560894079
20
-5.1961067619302
30
0
41
1
10
71.5868805473357
20
-5.22944534196981
30
0
41
1
10
71.5260487348452
20
-5.26187787849707
30
0
41
1
10
71.4652541333424
20
-5.29340564494038
30
0
0
SPLINE
5
E6
100
AcDbEntity
8
1
62
256
6
ByLayer
370
18
48
1
60
0
100
AcDbSpline
70
4
71
3
72
29
73
25
40
0
40
0
40
0
40
0
40
0.0562619655734508
40
0.0562619655734508
40
0.112523931146902
40
0.112523931146902
40
0.225047862293789
40
0.225047862293789
40
0.450095724587554
40
0.450095724587554
40
0.675143586881319
40
0.675143586881319
40
0.787667518028201
40
0.843929483601649
40
0.843929483601649
40
0.872060466388373
40
0.872060466388373
40
0.900191449175097
40
0.900191449175097
40
0.956453414748532
40
0.956453414748532
40
0.984584397535249
40
0.984584397535249
40
1
40
1
40
1
40
1
41
1
10
71.6477560894079
20
-5.1961067619302
30
0
41
1
10
71.6597052275842
20
-5.17136928752882
30
0
41
1
10
71.6716418149379
20
-5.14660591991711
30
0
41
1
10
71.6956016746709
20
-5.09710006610104
30
0
41
1
10
71.7076132347036
20
-5.07234977960445
30
0
41
1
10
71.7437043696894
20
-4.99810879512822
30
0
41
1
10
71.7678322681328
20
-4.94861518487866
30
0
41
1
10
71.8403282512263
20
-4.80008243043022
30
0
41
1
10
71.8888440411867
20
-4.70101195236512
30
0
41
1
10
71.9863154941596
20
-4.50280545534571
30
0
41
1
10
72.0352785104296
20
-4.40365630869209
30
0
41
1
10
72.1089887249153
20
-4.25516375929851
30
0
41
1
10
72.1459177924901
20
-4.18095999029381
30
0
41
1
10
72.1829689757042
20
-4.10682577834601
30
0
41
1
10
72.2015158774822
20
-4.0697707626681
30
0
41
1
10
72.2077021827007
20
-4.05742133679669
30
0
41
1
10
72.2200801935824
20
-4.03272564824422
30
0
41
1
10
72.2262189320599
20
-4.02035237423587
30
0
41
1
10
72.2445174588974
20
-3.98317314444068
30
0
41
1
10
72.2566380193024
20
-3.95834778306426
30
0
41
1
10
72.2778178302443
20
-3.92264044257161
30
0
41
1
10
72.285360368805
20
-3.91098432878346
30
0
41
1
10
72.2978600183555
20
-3.89336122498003
30
0
41
1
10
72.3024616977576
20
-3.88718372806898
30
0
41
1
10
72.3071786951432
20
-3.8811167046729
30
0
0
SPLINE
5
E7
100
AcDbEntity
8
1
62
256
6
ByLayer
370
18
48
1
60
0
100
AcDbSpline
70
4
71
3
72
60
73
56
40
0
40
0
40
0
40
0
40
0.124999999999926
40
0.124999999999926
40
0.249999999999852
40
0.249999999999852
40
0.265624999999846
40
0.265624999999846
40
0.28124999999984
40
0.28124999999984
40
0.296874999999834
40
0.296874999999834
40
0.312499999999829
40
0.312499999999829
40
0.328124999999823
40
0.328124999999823
40
0.343749999999817
40
0.343749999999817
40
0.374999999999816
40
0.374999999999816
40
0.406249999999814
40
0.406249999999814
40
0.421874999999813
40
0.421874999999813
40
0.437499999999812
40
0.437499999999812
40
0.453124999999811
40
0.453124999999811
40
0.46874999999981
40
0.46874999999981
40
0.49999999999982
40
0.49999999999982
40
0.515624999999819
40
0.515624999999819
40
0.531249999999818
40
0.531249999999818
40
0.546874999999818
40
0.546874999999818
40
0.562499999999817
40
0.562499999999817
40
0.570312499999817
40
0.570312499999817
40
0.578124999999817
40
0.578124999999817
40
0.593749999999825
40
0.62499999999984
40
0.749999999999894
40
0.749999999999894
40
0.874999999999947
40
0.874999999999947
40
0.93749999999997
40
0.93749999999997
40
0.968749999999985
40
0.968749999999985
40
1
40
1
40
1
40
1
41
1
10
72.0107893247902
20
5.33083589036499
30
0
41
1
10
71.9645314288727
20
5.27940450496101
30
0
41
1
10
71.9181604374689
20
5.22631883071236
30
0
41
1
10
71.825138345584
20
5.11684480206154
30
0
41
1
10
71.7784816632784
20
5.06046833603742
30
0
41
1
10
71.7258645566288
20
4.99509165518089
30
0
41
1
10
71.7200165287374
20
4.98780047109855
30
0
41
1
10
71.7083162914405
20
4.97316221912649
30
0
41
1
10
71.7024962300369
20
4.96576822673259
30
0
41
1
10
71.6906786313503
20
4.95117250861833
30
0
41
1
10
71.6846192975477
20
4.94405988614045
30
0
41
1
10
71.6716235348461
20
4.93103336436695
30
0
41
1
10
71.664634390344
20
4.92519527890065
30
0
41
1
10
71.6497970605245
20
4.91469159367134
30
0
41
1
10
71.6420114879232
20
4.90993580518037
30
0
41
1
10
71.6258277826633
20
4.90124386945848
30
0
41
1
10
71.6173834307685
20
4.89731193281767
30
0
41
1
10
71.5915470882878
20
4.88706798780356
30
0
41
1
10
71.5734943753518
20
4.88235083631636
30
0
41
1
10
71.5359526535001
20
4.8766731927748
30
0
41
1
10
71.5164885578101
20
4.87564101015397
30
0
41
1
10
71.4862496037186
20
4.87693708815453
30
0
41
1
10
71.4760265236353
20
4.87785477016692
30
0
41
1
10
71.4555660401865
20
4.88070862688713
30
0
41
1
10
71.4452901972397
20
4.88264514561928
30
0
41
1
10
71.4246464681368
20
4.88767273241294
30
0
41
1
10
71.4142773224616
20
4.89078043198481
30
0
41
1
10
71.3934536138724
20
4.89821206928988
30
0
41
1
10
71.3829709430079
20
4.90254406035524
30
0
41
1
10
71.3515925230421
20
4.91737030291904
30
0
41
1
10
71.3311430579952
20
4.9294111767712
30
0
41
1
10
71.3014031739235
20
4.95154216358696
30
0
41
1
10
71.2915838989935
20
4.9596784708219
30
0
41
1
10
71.2730214487082
20
4.97733769891101
30
0
41
1
10
71.2642430043155
20
4.98692434322828
30
0
41
1
10
71.2478126867346
20
5.00779101735634
30
0
41
1
10
71.2401464787992
20
5.01915124686022
30
0
41
1
10
71.225903261625
20
5.0424763550939
30
0
41
1
10
71.2192008334078
20
5.05444240255602
30
0
41
1
10
71.209126136731
20
5.07236754018001
30
0
41
1
10
71.2057708885304
20
5.07834337981504
30
0
41
1
10
71.1989921506313
20
5.09024186101536
30
0
41
1
10
71.1955703953347
20
5.09616577901772
30
0
41
1
10
71.1853164274387
20
5.11394159894522
30
0
41
1
10
71.1648181667344
20
5.14948332962086
30
0
41
1
10
71.0897609256205
20
5.2796947714458
30
0
41
1
10
71.0218391743024
20
5.39770568453207
30
0
41
1
10
70.9137755328914
20
5.58549915604715
30
0
41
1
10
70.860007799065
20
5.67895343353652
30
0
41
1
10
70.779688616345
20
5.81845384972323
30
0
41
1
10
70.7529641777405
20
5.86483428019145
30
0
41
1
10
70.7129785748836
20
5.93425466084776
30
0
41
1
10
70.6996716071251
20
5.95737397094598
30
0
41
1
10
70.6731324515514
20
6.00360003497008
30
0
41
1
10
70.6599199735867
20
6.02672449566901
30
0
41
1
10
70.6466863841105
20
6.04979049577585
30
0
0
SPLINE
5
E8
100
AcDbEntity
8
1
62
256
6
ByLayer
370
18
48
1
60
0
100
AcDbSpline
70
4
71
3
72
8
73
4
40
0
40
0
40
0
40
0
40
1
40
1
40
1
40
1
41
1
10
70.4643910141502
20
6.06483868487152
30
0
41
1
10
70.3674394202583
20
5.91665885375735
30
0
41
1
10
70.2697539178874
20
5.76241618570157
30
0
41
1
10
70.1713335172948
20
5.60244722897286
30
0
0
SPLINE
5
E9
100
AcDbEntity
8
1
62
256
6
ByLayer
370
18
48
1
60
0
100
AcDbSpline
70
4
71
3
72
58
73
54
40
0
40
0
40
0
40
0
40
0.124999999999915
40
0.124999999999915
40
0.249999999999829
40
0.249999999999829
40
0.265624999999817
40
0.265624999999817
40
0.281249999999804
40
0.281249999999804
40
0.296874999999791
40
0.296874999999791
40
0.312499999999778
40
0.312499999999778
40
0.328124999999765
40
0.328124999999765
40
0.343749999999752
40
0.343749999999752
40
0.374999999999716
40
0.374999999999716
40
0.406249999999681
40
0.406249999999681
40
0.421874999999663
40
0.421874999999663
40
0.437499999999645
40
0.437499999999645
40
0.468749999999621
40
0.468749999999621
40
0.499999999999597
40
0.499999999999597
40
0.515624999999592
40
0.515624999999592
40
0.531249999999586
40
0.531249999999586
40
0.54687499999958
40
0.54687499999958
40
0.562499999999574
40
0.562499999999574
40
0.570312499999575
40
0.570312499999575
40
0.578124999999577
40
0.578124999999577
40
0.593749999999587
40
0.624999999999617
40
0.749999999999745
40
0.749999999999745
40
0.874999999999872
40
0.874999999999872
40
0.937499999999936
40
0.937499999999936
40
0.968749999999968
40
0.968749999999968
40
1
40
1
40
1
40
1
41
1
10
70.1713335172948
20
5.60244722897286
30
0
41
1
10
70.1251596395923
20
5.5273978794506
30
0
41
1
10
70.0788658899994
20
5.45115746056331
30
0
41
1
10
69.985983661097
20
5.29631521961795
30
0
41
1
10
69.9393892483131
20
5.21772266019795
30
0
41
1
10
69.8868337832926
20
5.1279058482265
30
0
41
1
10
69.8809924591631
20
5.11790682728792
30
0
41
1
10
69.8693050948786
20
5.0978676819943
30
0
41
1
10
69.8634891328795
20
5.08778942025214
30
0
41
1
10
69.8516960962559
20
5.06779154903583
30
0
41
1
10
69.8456560965797
20
5.0579522793069
30
0
41
1
10
69.832701753592
20
5.03934103618857
30
0
41
1
10
69.8257331184954
20
5.03063820416034
30
0
41
1
10
69.8109079836632
20
5.01431664463388
30
0
41
1
10
69.8031175083549
20
5.00661373455927
30
0
41
1
10
69.7869138713251
20
4.99195524187064
30
0
41
1
10
69.7784713433875
20
4.98500826834683
30
0
41
1
10
69.7526750662791
20
4.96580072758428
30
0
41
1
10
69.7346479302252
20
4.95513815334149
30
0
41
1
10
69.6971497982787
20
4.9376299881304
30
0
41
1
10
69.6777050372752
20
4.93070903457954
30
0
41
1
10
69.6474943044803
20
4.92319105209012
30
0
41
1
10
69.6372467709219
20
4.92117721267868
30
0
41
1
10
69.6167570615879
20
4.91828382665389
30
0
41
1
10
69.6064699949842
20
4.91739088086072
30
0
41
1
10
69.5754826789704
20
4.91658067195138
30
0
41
1
10
69.5546396715519
20
4.91859279513096
30
0
41
1
10
69.5127306571513
20
4.928012696557
30
0
41
1
10
69.4922615357935
20
4.93521288442903
30
0
41
1
10
69.4625131596837
20
4.95064626148431
30
0
41
1
10
69.452682716391
20
4.95663819575583
30
0
41
1
10
69.4340754100905
20
4.97043251610725
30
0
41
1
10
69.4252796731315
20
4.97828354369955
30
0
41
1
10
69.4088268671052
20
4.99611949403837
30
0
41
1
10
69.4011477625578
20
5.00619199290742
30
0
41
1
10
69.3868682323029
20
5.02735533500007
30
0
41
1
10
69.3801577986317
20
5.03838896019596
30
0
41
1
10
69.3700781533408
20
5.05489460230632
30
0
41
1
10
69.3667225658395
20
5.06039627754052
30
0
41
1
10
69.3599454604638
20
5.07131714119382
30
0
41
1
10
69.3565231395503
20
5.07673543234881
30
0
41
1
10
69.3462649247023
20
5.09298497571734
30
0
41
1
10
69.3257582689532
20
5.12543512833258
30
0
41
1
10
69.2506717816773
20
5.24387739381859
30
0
41
1
10
69.1827221338563
20
5.3498925116574
30
0
41
1
10
69.0746154256617
20
5.51693201687172
30
0
41
1
10
69.0208264821014
20
5.5992233885778
30
0
41
1
10
68.9404739952147
20
5.72083145625877
30
0
41
1
10
68.9137383117198
20
5.76105376276766
30
0
41
1
10
68.8737349034164
20
5.82096200896714
30
0
41
1
10
68.860421836007
20
5.84086660112322
30
0
41
1
10
68.8338701488885
20
5.88058856749973
30
0
41
1
10
68.8206512248455
20
5.90043135226964
30
0
41
1
10
68.8074116885004
20
5.92015682380872
30
0
0
SPLINE
5
EA
100
AcDbEntity
8
1
62
256
6
ByLayer
370
18
48
1
60
0
100
AcDbSpline
70
4
71
3
72
8
73
4
40
0
40
0
40
0
40
0
40
1
40
1
40
1
40
1
41
1
10
68.6255087811094
20
5.87367402544896
30
0
41
1
10
68.686162813932
20
5.89016426348255
30
0
41
1
10
68.746791572534
20
5.90565921309837
30
0
41
1
10
68.8074116885003
20
5.92015682380855
30
0
0
SPLINE
5
EB
100
AcDbEntity
8
1
62
256
6
ByLayer
370
18
48
1
60
0
100
AcDbSpline
70
4
71
3
72
8
73
4
40
0
40
0
40
0
40
0
40
1
40
1
40
1
40
1
41
1
10
68.6255087811107
20
5.87367402543507
30
0
41
1
10
68.5283721354744
20
5.68612254975176
30
0
41
1
10
68.4304998153702
20
5.49495961429577
30
0
41
1
10
68.3318635706518
20
5.30063786656675
30
0
0
SPLINE
5
EC
100
AcDbEntity
8
1
62
256
6
ByLayer
370
18
48
1
60
0
100
AcDbSpline
70
4
71
3
72
58
73
54
40
0
40
0
40
0
40
0
40
0.125000000000022
40
0.125000000000022
40
0.250000000000045
40
0.250000000000045
40
0.265625000000044
40
0.265625000000044
40
0.281250000000044
40
0.281250000000044
40
0.296875000000043
40
0.296875000000043
40
0.312500000000043
40
0.312500000000043
40
0.328125000000043
40
0.328125000000043
40
0.343750000000042
40
0.343750000000042
40
0.375000000000041
40
0.375000000000041
40
0.40625000000004
40
0.40625000000004
40
0.421875000000039
40
0.421875000000039
40
0.437500000000039
40
0.437500000000039
40
0.468750000000038
40
0.468750000000038
40
0.500000000000037
40
0.500000000000037
40
0.515625000000031
40
0.515625000000031
40
0.531250000000025
40
0.531250000000025
40
0.546875000000018
40
0.546875000000018
40
0.562500000000012
40
0.562500000000012
40
0.570312500000008
40
0.570312500000008
40
0.578125000000005
40
0.578125000000005
40
0.593750000000005
40
0.625000000000004
40
0.750000000000003
40
0.750000000000003
40
0.875000000000002
40
0.875000000000002
40
0.937500000000002
40
0.937500000000002
40
0.968750000000001
40
0.968750000000001
40
1
40
1
40
1
40
1
41
1
10
68.3318635706518
20
5.30063786656672
30
0
41
1
10
68.2857155564739
20
5.20972237404288
30
0
41
1
10
68.2394409468921
20
5.11819715279412
30
0
41
1
10
68.1465867839151
20
4.93395099438368
30
0
41
1
10
68.100001736881
20
4.84123687653118
30
0
41
1
10
68.0474545358315
20
4.7362153088045
30
0
41
1
10
68.0416140429095
20
4.7245363092897
30
0
41
1
10
68.0299283462989
20
4.70115627941908
30
0
41
1
10
68.0241131228737
20
4.68942560118052
30
0
41
1
10
68.0123225159312
20
4.6660979692706
30
0
41
1
10
68.0062840023127
20
4.65456411485945
30
0
41
1
10
67.9933298590213
20
4.63234558814679
30
0
41
1
10
67.9863595254715
20
4.62171548984861
30
0
41
1
10
67.9715249146629
20
4.60132099797198
30
0
41
1
10
67.9637272597171
20
4.59149008254681
30
0
41
1
10
67.947504984585
20
4.57242811341251
30
0
41
1
10
67.9390612165022
20
4.5632097205727
30
0
41
1
10
67.9132672343597
20
4.53709660486888
30
0
41
1
10
67.8952418477755
20
4.52164659965715
30
0
41
1
10
67.8577489955375
20
4.49422323074339
30
0
41
1
10
67.8383076791088
20
4.4821821139314
30
0
41
1
10
67.8081042265205
20
4.46671426196755
30
0
41
1
10
67.7978503153631
20
4.4620002164385
30
0
41
1
10
67.7773520769556
20
4.4537068739329
30
0
41
1
10
67.767062588003
20
4.45010190761809
30
0
41
1
10
67.7360743544901
20
4.44110689454718
30
0
41
1
10
67.7152520998672
20
4.43759283285527
30
0
41
1
10
67.673352355522
20
4.43578226983755
30
0
41
1
10
67.6528863805725
20
4.43744448860738
30
0
41
1
10
67.6231613582094
20
4.44468470826499
30
0
41
1
10
67.6133377774353
20
4.44794382698714
30
0
41
1
10
67.5947372274819
20
4.45649891463592
30
0
41
1
10
67.5859478538354
20
4.46183502007895
30
0
41
1
10
67.5695119636112
20
4.47486926451074
30
0
41
1
10
67.5618420871478
20
4.48264634128654
30
0
41
1
10
67.5475675307943
20
4.49948050308328
30
0
41
1
10
67.540860398536
20
4.50844494444269
30
0
41
1
10
67.5307871403886
20
4.52182716321317
30
0
41
1
10
67.5274339215411
20
4.52628605445838
30
0
41
1
10
67.5206621718599
20
4.53509965077976
30
0
41
1
10
67.5172423366423
20
4.53945257341752
30
0
41
1
10
67.5069908688928
20
4.55249802845412
30
0
41
1
10
67.4864977509522
20
4.5785057312728
30
0
41
1
10
67.4114615490467
20
4.67294668145829
30
0
41
1
10
67.3435556501787
20
4.75600914558734
30
0
41
1
10
67.2355199251558
20
4.88502339605603
30
0
41
1
10
67.1817667977593
20
4.94763933756008
30
0
41
1
10
67.1014673917919
20
5.03877050174768
30
0
41
1
10
67.0747495078093
20
5.06867174869572
30
0
41
1
10
67.0347715483366
20
5.11286568325758
30
0
41
1
10
67.0214667192772
20
5.1274945337166
30
0
41
1
10
66.9949309070098
20
5.15659867289784
30
0
41
1
10
66.9817194692628
20
5.1711042365676
30
0
41
1
10
66.9684892381276
20
5.18544814667581
30
0
0
SPLINE
5
ED
100
AcDbEntity
8
1
62
256
6
ByLayer
370
18
48
1
60
0
100
AcDbSpline
70
4
71
3
72
8
73
4
40
0
40
0
40
0
40
0
40
1
40
1
40
1
40
1
41
1
10
66.8845299461621
20
5.13845437318713
30
0
41
1
10
66.912522094946
20
5.154307235614
30
0
41
1
10
66.940508024792
20
5.16997199181901
30
0
41
1
10
66.9684892381277
20
5.18544814667581
30
0
0
SPLINE
5
EE
100
AcDbEntity
8
1
62
256
6
ByLayer
370
18
48
1
60
0
100
AcDbSpline
70
4
71
3
72
10
73
6
40
0
40
0
40
0
40
0
40
0.5
40
0.5
40
1
40
1
40
1
40
1
41
1
10
66.8845299461621
20
5.13845437318713
30
0
41
1
10
66.7866835995306
20
4.91943261090583
30
0
41
1
10
66.688547843569
20
4.70011341305877
30
0
41
1
10
66.4911838174392
20
4.26109184114287
30
0
41
1
10
66.3919706922467
20
4.04138459851504
30
0
41
1
10
66.2918808825316
20
3.82160830445758
30
0
0
SPLINE
5
EF
100
AcDbEntity
8
1
62
256
6
ByLayer
370
18
48
1
60
0
100
AcDbSpline
70
4
71
3
72
8
73
4
40
0
40
0
40
0
40
0
40
1
40
1
40
1
40
1
41
1
10
77.9252929748673
20
-5.06216792763232
30
0
41
1
10
78.002433806022
20
-5.20259887257458
30
0
41
1
10
78.0790450114344
20
-5.34342975780095
30
0
41
1
10
78.1550926988944
20
-5.48432929360123
30
0
0
SPLINE
5
F0
100
AcDbEntity
8
1
62
256
6
ByLayer
370
18
48
1
60
0
100
AcDbSpline
70
4
71
3
72
8
73
4
40
0
40
0
40
0
40
0
40
1
40
1
40
1
40
1
41
1
10
78.1550926988944
20
-5.48432929360126
30
0
41
1
10
78.2700578464942
20
-5.50704655849748
30
0
41
1
10
78.3856002646693
20
-5.52570385193295
30
0
41
1
10
78.501795064417
20
-5.54022435727251
30
0
0
SPLINE
5
F1
100
AcDbEntity
8
1
62
256
6
ByLayer
370
18
48
1
60
0
100
AcDbSpline
70
4
71
3
72
60
73
56
40
0
40
0
40
0
40
0
40
0.12500000000006
40
0.12500000000006
40
0.25000000000012
40
0.25000000000012
40
0.375000000000179
40
0.375000000000179
40
0.406250000000192
40
0.421875000000199
40
0.421875000000199
40
0.437500000000205
40
0.437500000000205
40
0.453125000000212
40
0.453125000000212
40
0.468750000000218
40
0.468750000000218
40
0.484375000000225
40
0.484375000000225
40
0.500000000000231
40
0.500000000000231
40
0.531250000000244
40
0.531250000000244
40
0.546875000000245
40
0.546875000000245
40
0.562500000000245
40
0.562500000000245
40
0.593750000000246
40
0.593750000000246
40
0.60937500000024
40
0.60937500000024
40
0.625000000000235
40
0.625000000000235
40
0.656250000000223
40
0.656250000000223
40
0.671875000000217
40
0.671875000000217
40
0.687500000000212
40
0.687500000000212
40
0.703125000000206
40
0.703125000000206
40
0.7187500000002
40
0.7187500000002
40
0.734375000000194
40
0.734375000000194
40
0.750000000000189
40
0.750000000000189
40
0.757812500000181
40
0.757812500000181
40
0.765625000000173
40
0.781250000000158
40
0.812500000000136
40
0.875000000000094
40
0.875000000000094
40
1
40
1
40
1
40
1
41
1
10
78.5017950644168
20
-5.54022435727254
30
0
41
1
10
78.5457188213308
20
-5.49192069470161
30
0
41
1
10
78.5898124055979
20
-5.44218645006029
30
0
41
1
10
78.6782729613532
20
-5.33998673448613
30
0
41
1
10
78.7226522938212
20
-5.28750454365286
30
0
41
1
10
78.8118299649919
20
-5.17959391720694
30
0
41
1
10
78.8565983867801
20
-5.12420814115558
30
0
41
1
10
78.9127826103993
20
-5.05324085799575
30
0
41
1
10
78.929655628801
20
-5.03181936760504
30
0
41
1
10
78.9465564354709
20
-5.01020098202619
30
0
41
1
10
78.9578299440438
20
-4.99574497777556
30
0
41
1
10
78.9634853434796
20
-4.98851527648267
30
0
41
1
10
78.9746458677174
20
-4.97380782748346
30
0
41
1
10
78.9801677862788
20
-4.96635216305313
30
0
41
1
10
78.9913729567475
20
-4.95159980689206
30
0
41
1
10
78.9970541567347
20
-4.9443004739951
30
0
41
1
10
79.009028649118
20
-4.93044643266686
30
0
41
1
10
79.0153714716983
20
-4.92389238920376
30
0
41
1
10
79.0287896441102
20
-4.91198878508843
30
0
41
1
10
79.035820452435
20
-4.90666784125912
30
0
41
1
10
79.0578100824341
20
-4.89246308887485
30
0
41
1
10
79.0736169921278
20
-4.88523522091685
30
0
41
1
10
79.0985167373781
20
-4.87669454146757
30
0
41
1
10
79.1070532774826
20
-4.87424393592426
30
0
41
1
10
79.1243707942407
20
-4.87016459892752
30
0
41
1
10
79.1331393264037
20
-4.86853578649144
30
0
41
1
10
79.1597635636686
20
-4.86487494035643
30
0
41
1
10
79.1779326877997
20
-4.86404364837705
30
0
41
1
10
79.2058760707301
20
-4.86564797251307
30
0
41
1
10
79.2153455810795
20
-4.86667282096982
30
0
41
1
10
79.2342344402471
20
-4.86962196428775
30
0
41
1
10
79.2436691421031
20
-4.87154297021735
30
0
41
1
10
79.2719348273767
20
-4.87859703641684
30
0
41
1
10
79.2907285795309
20
-4.88499068692749
30
0
41
1
10
79.3187933325044
20
-4.89741154286261
30
0
41
1
10
79.3281270726439
20
-4.90202970114112
30
0
41
1
10
79.3467382100236
20
-4.91239697033186
30
0
41
1
10
79.3559844296811
20
-4.91814358951714
30
0
41
1
10
79.3739608868354
20
-4.930708860782
30
0
41
1
10
79.3827465383824
20
-4.93753269189338
30
0
41
1
10
79.3999114154962
20
-4.95224990788432
30
0
41
1
10
79.4083223747238
20
-4.96016887054239
30
0
41
1
10
79.4245449485483
20
-4.97709945600349
30
0
41
1
10
79.4322442458578
20
-4.98601587954002
30
0
41
1
10
79.446386721355
20
-5.00523321983795
30
0
41
1
10
79.4528455403504
20
-5.01551659995584
30
0
41
1
10
79.4621642962489
20
-5.03133795713072
30
0
41
1
10
79.4652099915955
20
-5.03667665847144
30
0
41
1
10
79.4712964546751
20
-5.04735365299763
30
0
41
1
10
79.480423668609
20
-5.06336418579417
30
0
41
1
10
79.5017103651143
20
-5.10068694885743
30
0
41
1
10
79.5442396608635
20
-5.175196107175
30
0
41
1
10
79.5806097521097
20
-5.23883661298245
30
0
41
1
10
79.653217035942
20
-5.36584260162286
30
0
41
1
10
79.7014484507849
20
-5.45016336929703
30
0
41
1
10
79.7494793229924
20
-5.53401668610806
30
0
0
SPLINE
5
F2
100
AcDbEntity
8
1
62
256
6
ByLayer
370
18
48
1
60
0
100
AcDbSpline
70
4
71
3
72
10
73
6
40
0
40
0
40
0
40
0
40
0.5
40
0.5
40
1
40
1
40
1
40
1
41
1
10
79.7494793229924
20
-5.53401668610806
30
0
41
1
10
79.9039554414268
20
-5.51394363361646
30
0
41
1
10
80.0590595192143
20
-5.48705270342137
30
0
41
1
10
80.3709135321556
20
-5.41965798468112
30
0
41
1
10
80.5277063132812
20
-5.37914691017244
30
0
41
1
10
80.685354657007
20
-5.33184304560021
30
0
0
SPLINE
5
F3
100
AcDbEntity
8
1
62
256
6
ByLayer
370
18
48
1
60
0
100
AcDbSpline
70
4
71
3
72
50
73
46
40
0
40
0
40
0
40
0
40
0.124999999999997
40
0.124999999999997
40
0.187499999999996
40
0.187499999999996
40
0.249999999999995
40
0.249999999999995
40
0.281249999999995
40
0.281249999999995
40
0.312499999999995
40
0.312499999999995
40
0.343749999999995
40
0.343749999999995
40
0.374999999999996
40
0.374999999999996
40
0.437499999999995
40
0.437499999999995
40
0.468749999999994
40
0.468749999999994
40
0.499999999999993
40
0.499999999999993
40
0.56249999999999
40
0.56249999999999
40
0.624999999999988
40
0.624999999999988
40
0.687499999999986
40
0.687499999999986
40
0.749999999999984
40
0.749999999999984
40
0.781249999999997
40
0.781249999999997
40
0.81250000000001
40
0.81250000000001
40
0.843750000000023
40
0.843750000000023
40
0.859375000000029
40
0.859375000000029
40
0.875000000000036
40
0.875000000000036
40
0.906250000000027
40
0.906250000000027
40
0.937500000000019
40
0.937500000000019
40
1
40
1
40
1
40
1
41
1
10
80.6853546570051
20
-5.33184304558654
30
0
41
1
10
80.7061869881324
20
-5.29696195362388
30
0
41
1
10
80.7270641063061
20
-5.26186694861863
30
0
41
1
10
80.7584425590631
20
-5.20891857811205
30
0
41
1
10
80.7689110485297
20
-5.19122061536061
30
0
41
1
10
80.7898671798958
20
-5.15572716529988
30
0
41
1
10
80.8004207534009
20
-5.13800480394974
30
0
41
1
10
80.8159506769948
20
-5.11099744173083
30
0
41
1
10
80.8210932099326
20
-5.10194220794872
30
0
41
1
10
80.8315386257472
20
-5.08397989333525
30
0
41
1
10
80.8368434106653
20
-5.07507494099926
30
0
41
1
10
80.8479853858913
20
-5.05782498401686
30
0
41
1
10
80.8538381175314
20
-5.04949715485429
30
0
41
1
10
80.8662895200282
20
-5.03363672977363
30
0
41
1
10
80.8728365875644
20
-5.0261762746691
30
0
41
1
10
80.8931691544618
20
-5.00540095359761
30
0
41
1
10
80.9077098874079
20
-4.9935142468274
30
0
41
1
10
80.9305215798093
20
-4.97765496346062
30
0
41
1
10
80.9382987701739
20
-4.97271075085615
30
0
41
1
10
80.9541795818465
20
-4.9634703543247
30
0
41
1
10
80.9623115320129
20
-4.95916213063725
30
0
41
1
10
80.9869415096102
20
-4.94734725806759
30
0
41
1
10
81.0036768098268
20
-4.94091524412019
30
0
41
1
10
81.0377847521659
20
-4.93118258686485
30
0
41
1
10
81.0551718389635
20
-4.92795995731805
30
0
41
1
10
81.09056580106
20
-4.92480000881611
30
0
41
1
10
81.1082398465248
20
-4.92486476878707
30
0
41
1
10
81.1432148674401
20
-4.92824533171793
30
0
41
1
10
81.1605639504612
20
-4.9315415544724
30
0
41
1
10
81.186295609516
20
-4.93948220042842
30
0
41
1
10
81.1948230556811
20
-4.9426410287075
30
0
41
1
10
81.211751853475
20
-4.95020756484911
30
0
41
1
10
81.2200235247715
20
-4.95453980134292
30
0
41
1
10
81.236124129929
20
-4.96422233892602
30
0
41
1
10
81.2439658575602
20
-4.96957466970784
30
0
41
1
10
81.2553861048793
20
-4.97843621723726
30
0
41
1
10
81.25913702276
20
-4.98152577187651
30
0
41
1
10
81.2664985012994
20
-4.98804827450027
30
0
41
1
10
81.2701227393435
20
-4.99150761713699
30
0
41
1
10
81.2805758419168
20
-5.00244252890738
30
0
41
1
10
81.2869034435639
20
-5.01048774387019
30
0
41
1
10
81.298842366214
20
-5.02740723696928
30
0
41
1
10
81.3044699828019
20
-5.03626200380606
30
0
41
1
10
81.3214586238425
20
-5.06264854493872
30
0
41
1
10
81.3327775053685
20
-5.08018072875876
30
0
41
1
10
81.344089002244
20
-5.09765615053652
30
0
0
SPLINE
5
F4
100
AcDbEntity
8
1
62
256
6
ByLayer
370
18
48
1
60
0
100
AcDbSpline
70
4
71
3
72
12
73
8
40
0
40
0
40
0
40
0
40
0.49999999999999
40
0.49999999999999
40
0.749999999999995
40
0.749999999999995
40
1
40
1
40
1
40
1
41
1
10
81.3440890022439
20
-5.09765615053652
30
0
41
1
10
81.51818122107
20
-5.02656658964975
30
0
41
1
10
81.6929998655781
20
-4.94826201880792
30
0
41
1
10
81.9567451151275
20
-4.82062612122147
30
0
41
1
10
82.0449178450747
20
-4.7763810298195
30
0
41
1
10
82.2218580713977
20
-4.68456342878787
30
0
41
1
10
82.3106662215522
20
-4.63699165207535
30
0
41
1
10
82.3999998944691
20
-4.58781306293383
30
0
0
SPLINE
5
F5
100
AcDbEntity
8
1
62
256
6
ByLayer
370
18
48
1
60
0
100
AcDbSpline
70
4
71
3
72
14
73
10
40
0
40
0
40
0
40
0
40
0.25
40
0.25
40
0.5
40
0.5
40
0.75
40
0.75
40
1
40
1
40
1
40
1
41
1
10
82.3999998944691
20
-4.58781306293383
30
0
41
1
10
82.4475388869513
20
-4.52749399924727
30
0
41
1
10
82.4956100622116
20
-4.46672750496469
30
0
41
1
10
82.59299842651
20
-4.34439139360947
30
0
41
1
10
82.6423604060564
20
-4.28276900272559
30
0
41
1
10
82.7423365653907
20
-4.15907718300411
30
0
41
1
10
82.7929419243585
20
-4.09701859499856
30
0
41
1
10
82.8954978743642
20
-3.97280297401969
30
0
41
1
10
82.9473736837687
20
-3.910735608772
30
0
41
1
10
83
20
-3.84879856935129
30
0
0
SPLINE
5
F6
100
AcDbEntity
8
1
62
256
6
ByLayer
370
18
48
1
60
0
100
AcDbSpline
70
4
71
3
72
21
73
17
40
0
40
0
40
0
40
0
40
0.174924554025372
40
0.174924554025372
40
0.349849108050744
40
0.349849108050744
40
0.393580246557087
40
0.393580246557087
40
0.43731138506343
40
0.43731138506343
40
0.481042523569773
40
0.481042523569773
40
0.524773662076116
40
0.699698216101487
40
0.699698216101487
40
1
40
1
40
1
40
1
41
1
10
83
20
-3.84879856935129
30
0
41
1
10
83.0000000000001
20
-3.73974361161487
30
0
41
1
10
83
20
-3.63760032008915
30
0
41
1
10
83
20
-3.44656703427862
30
0
41
1
10
83
20
-3.35765372508297
30
0
41
1
10
83
20
-3.25496609875685
30
0
41
1
10
83
20
-3.23488875801229
30
0
41
1
10
83
20
-3.19539104336752
30
0
41
1
10
83
20
-3.17582198187557
30
0
41
1
10
83
20
-3.13707376616782
30
0
41
1
10
82.9999999999999
20
-3.11789565057742
30
0
41
1
10
83
20
-3.08009136701156
30
0
41
1
10
83
20
-2.98686004324153
30
0
41
1
10
83
20
-2.89991546921695
30
0
41
1
10
83
20
-2.72159660557219
30
0
41
1
10
83
20
-2.62047696229305
30
0
41
1
10
83
20
-2.53091356934684
30
0
0
SPLINE
5
F7
100
AcDbEntity
8
1
62
256
6
ByLayer
370
18
48
1
60
0
100
AcDbSpline
70
4
71
3
72
10
73
6
40
0
40
0
40
0
40
0
40
0.837908471495229
40
0.837908471495229
40
1
40
1
40
1
40
1
41
1
10
70.4167755986482
20
6.039786590266
30
0
41
1
10
70.4232575166436
20
6.05536981321146
30
0
41
1
10
70.4297487725859
20
6.06605234834527
30
0
41
1
10
70.4375296509372
20
6.07282255141561
30
0
41
1
10
70.4387928354253
20
6.07373190141152
30
0
41
1
10
70.44005584666
20
6.07445173282005
30
0
0
SPLINE
5
F8
100
AcDbEntity
8
1
62
256
6
ByLayer
370
18
48
1
60
0
100
AcDbSpline
70
4
71
3
72
9
73
5
40
0
40
0
40
0
40
0
40
0.182319070583256
40
1
40
1
40
1
40
1
41
1
10
70.4472299752652
20
6.07649819661532
30
0
41
1
10
70.4482759643584
20
6.0764985953779
30
0
41
1
10
70.4540086708052
20
6.07578611704295
30
0
41
1
10
70.4597210231873
20
6.07117448198943
30
0
41
1
10
70.4643910141611
20
6.06483868489019
30
0
0
SPLINE
5
F9
100
AcDbEntity
8
1
62
256
6
ByLayer
370
18
48
1
60
0
100
AcDbSpline
70
4
71
3
72
8
73
4
40
0
40
0
40
0
40
0
40
1
40
1
40
1
40
1
41
1
10
67.9959851591293
20
-6.07649839787786
30
0
41
1
10
67.9870123115751
20
-6.07651318272903
30
0
41
1
10
67.9780962786739
20
-6.0669424460288
30
0
41
1
10
67.969161311337
20
-6.0479906470307
30
0
0
SPLINE
5
FA
100
AcDbEntity
8
1
62
256
6
ByLayer
370
18
48
1
60
0
100
AcDbSpline
70
4
71
3
72
14
73
10
40
0
40
0
40
0
40
0
40
0.394830496265438
40
0.394830496265438
40
0.592245744398156
40
0.592245744398156
40
0.789660992530875
40
0.789660992530875
40
1
40
1
40
1
40
1
41
1
10
67.7865219910817
20
-6.02620729129282
30
0
41
1
10
67.7911665501521
20
-6.03935722167219
30
0
41
1
10
67.7958092657401
20
-6.0499733530734
30
0
41
1
10
67.802793565164
20
-6.06202468507962
30
0
41
1
10
67.8051279108894
20
-6.06539899853937
30
0
41
1
10
67.8097954548998
20
-6.07082527928705
30
0
41
1
10
67.812125165035
20
-6.07287494892131
30
0
41
1
10
67.8169347808606
20
-6.07575392156267
30
0
41
1
10
67.8194162674448
20
-6.07649637364673
30
0
41
1
10
67.8219006351254
20
-6.07650141438262
30
0
0
SPLINE
5
FB
100
AcDbEntity
8
1
62
256
6
ByLayer
370
18
48
1
60
0
100
AcDbSpline
70
4
71
3
72
17
73
13
40
0
40
0
40
0
40
0
40
0.142397085922767
40
0.428264723948511
40
0.428264723948511
40
0.571198542961383
40
0.571198542961383
40
0.642665452467819
40
0.642665452467819
40
0.714132361974255
40
0.714132361974255
40
1
40
1
40
1
40
1
41
1
10
66.5653321935353
20
-5.52363500341707
30
0
41
1
10
66.56313974625
20
-5.51982739936292
30
0
41
1
10
66.5565235071502
20
-5.50227596796518
30
0
41
1
10
66.549885995147
20
-5.46655175783584
30
0
41
1
10
66.5432350523098
20
-5.41844908953692
30
0
41
1
10
66.5410166553944
20
-5.40035489968278
30
0
41
1
10
66.5376827195236
20
-5.3700584474912
30
0
41
1
10
66.5365690024429
20
-5.35942017210542
30
0
41
1
10
66.5343445762771
20
-5.33714134980329
30
0
41
1
10
66.5332352843326
20
-5.3255164036359
30
0
41
1
10
66.5276996746801
20
-5.26498506458609
30
0
41
1
10
66.5233039829988
20
-5.20887265695978
30
0
41
1
10
66.5188873269664
20
-5.14519462718781
30
0
0
SPLINE
5
FC
100
AcDbEntity
8
1
62
256
6
ByLayer
370
18
48
1
60
0
100
AcDbSpline
70
4
71
3
72
11
73
7
40
0
40
0
40
0
40
0
40
0.270968799770406
40
0.270968799770406
40
0.541937599540812
40
1
40
1
40
1
40
1
41
1
10
70.6466863841105
20
6.04979049577588
30
0
41
1
10
70.6443090586131
20
6.0546249146241
30
0
41
1
10
70.6419280576586
20
6.05881733645637
30
0
41
1
10
70.6371881321508
20
6.06586291644879
30
0
41
1
10
70.6308355899669
20
6.07355488680386
30
0
41
1
10
70.6245398970199
20
6.07649823360663
30
0
41
1
10
70.6205996346251
20
6.07649837829015
30
0
0
SPLINE
5
FD
100
AcDbEntity
8
1
62
256
6
ByLayer
370
18
48
1
60
0
100
AcDbSpline
70
4
71
3
72
18
73
14
40
0
40
0
40
0
40
0
40
0.206691613631342
40
0.206691613631342
40
0.272800645828731
40
0.272800645828731
40
0.338909678026119
40
0.338909678026119
40
0.471127742420896
40
0.471127742420896
40
0.735563871210448
40
0.735563871210448
40
1
40
1
40
1
40
1
41
1
10
72.1975701925697
20
6.07650068224081
30
0
41
1
10
72.2049363717179
20
6.07651775499798
30
0
41
1
10
72.2122877491339
20
6.07021546836049
30
0
41
1
10
72.2219889194365
20
6.05337689062517
30
0
41
1
10
72.2243401721488
20
6.04863425835353
30
0
41
1
10
72.2290461382946
20
6.03780914693945
30
0
41
1
10
72.2313949109969
20
6.03173916445155
30
0
41
1
10
72.238415565104
20
6.01162309269381
30
0
41
1
10
72.2430691759518
20
5.99565453521925
30
0
41
1
10
72.257009253427
20
5.94021619792147
30
0
41
1
10
72.266302889519
20
5.89323284663175
30
0
41
1
10
72.2850387015637
20
5.77949141261618
30
0
41
1
10
72.2944664160503
20
5.71273340780547
30
0
41
1
10
72.3039640445396
20
5.63591917319448
30
0
0
SPLINE
5
FE
100
AcDbEntity
8
1
62
256
6
ByLayer
370
18
48
1
60
0
100
AcDbSpline
70
4
71
3
72
18
73
14
40
0
40
0
40
0
40
0
40
0.244073314672188
40
0.244073314672188
40
0.366109972008283
40
0.366109972008283
40
0.488146629344378
40
0.488146629344378
40
0.732219944016567
40
0.732219944016567
40
0.976293258688756
40
0.976293258688756
40
1
40
1
40
1
40
1
41
1
10
72.48664107369
20
5.56060774161699
30
0
41
1
10
72.477262718812
20
5.64303971975119
30
0
41
1
10
72.4678081423405
20
5.71591877367624
30
0
41
1
10
72.4536351976915
20
5.81083257717572
30
0
41
1
10
72.4489104395993
20
5.84006513438703
30
0
41
1
10
72.4394548945413
20
5.8936501988583
30
0
41
1
10
72.4347223833002
20
5.91801125586622
30
0
41
1
10
72.4204890396561
20
5.9835581177299
30
0
41
1
10
72.4110787171289
20
6.01654589404325
30
0
41
1
10
72.3922893008939
20
6.06185278314931
30
0
41
1
10
72.3829209927121
20
6.07416982081099
30
0
41
1
10
72.3726373663494
20
6.07639608239506
30
0
41
1
10
72.3717269198671
20
6.07649612770652
30
0
41
1
10
72.3708163918843
20
6.07649887749844
30
0
0
SPLINE
5
FF
100
AcDbEntity
8
1
62
256
6
ByLayer
370
13
48
1
60
0
100
AcDbSpline
70
4
71
3
72
10
73
6
40
0
40
0
40
0
40
0
40
0.302667120970532
40
0.621045815409163
40
1
40
1
40
1
40
1
41
1
10
73.8501993955104
20
4.51347902498205
30
0
41
1
10
73.8288129244994
20
4.76839283732346
30
0
41
1
10
73.7853441535954
20
5.20551782596999
30
0
41
1
10
73.7164818638434
20
5.59612501978069
30
0
41
1
10
73.6703687607124
20
5.62388092877046
30
0
41
1
10
73.6457289463171
20
5.57434059605288
30
0
0
SPLINE
5
100
100
AcDbEntity
8
1
62
256
6
ByLayer
370
18
48
1
60
0
100
AcDbSpline
70
4
71
3
72
27
73
23
40
0
40
0
40
0
40
0
40
0.124040504042476
40
0.124040504042476
40
0.27003375336873
40
0.27003375336873
40
0.416027002694984
40
0.416027002694984
40
0.452525315026548
40
0.452525315026548
40
0.489023627358111
40
0.562020252021238
40
0.562020252021238
40
0.708013501347492
40
0.708013501347492
40
0.854006750673746
40
0.854006750673746
40
0.89050506300531
40
0.89050506300531
40
0.927003375336873
40
0.927003375336873
40
1
40
1
40
1
40
1
41
1
10
76.7461300261236
20
-6.07649963371048
30
0
41
1
10
76.7381217753787
20
-6.0765214141108
30
0
41
1
10
76.7300872590448
20
-6.06899626240761
30
0
41
1
10
76.7126139551464
20
-6.03657525926926
30
0
41
1
10
76.7031790311288
20
-6.00883938841415
30
0
41
1
10
76.6843270213472
20
-5.93290010726034
30
0
41
1
10
76.674909182489
20
-5.88469853873232
30
0
41
1
10
76.6630800553068
20
-5.81122173117737
30
0
41
1
10
76.6607111523488
20
-5.79586086872447
30
0
41
1
10
76.6559921491655
20
-5.763990617746
30
0
41
1
10
76.6489315211089
20
-5.71439969822876
30
0
41
1
10
76.6419124864819
20
-5.6595131921606
30
0
41
1
10
76.6278960487667
20
-5.54278813377644
30
0
41
1
10
76.6185732095276
20
-5.45571949528161
30
0
41
1
10
76.5998348778041
20
-5.26322269567365
30
0
41
1
10
76.5904467327025
20
-5.15779473237373
30
0
41
1
10
76.5786646873304
20
-5.01426899554801
30
0
41
1
10
76.5763054675063
20
-4.98497538012816
30
0
41
1
10
76.5715790009636
20
-4.92519866097564
30
0
41
1
10
76.569208319484
20
-4.89467007504081
30
0
41
1
10
76.562110145149
20
-4.80168089691026
30
0
41
1
10
76.5573971674363
20
-4.73783198406906
30
0
41
1
10
76.5526879977148
20
-4.67216542039372
30
0
0
SPLINE
5
101
100
AcDbEntity
8
1
62
256
6
ByLayer
370
18
48
1
60
0
100
AcDbSpline
70
4
71
3
72
28
73
24
40
0
40
0
40
0
40
0
40
0.137156080756455
40
0.137156080756455
40
0.28096340063038
40
0.28096340063038
40
0.316915230598861
40
0.316915230598861
40
0.352867060567342
40
0.352867060567342
40
0.424770720504304
40
0.424770720504304
40
0.568578040378228
40
0.568578040378228
40
0.712385360252153
40
0.712385360252153
40
0.784289020189114
40
0.784289020189114
40
0.820240850157595
40
0.820240850157595
40
0.856192680126076
40
0.856192680126076
40
1
40
1
40
1
40
1
41
1
10
73.9473982051497
20
6.07649843649622
30
0
41
1
10
73.9563442358537
20
6.07649145901999
30
0
41
1
10
73.9652549171722
20
6.06708909903273
30
0
41
1
10
73.9835450174416
20
6.02872906769244
30
0
41
1
10
73.9929344786491
20
5.99884604343296
30
0
41
1
10
74.0047457026401
20
5.94838845649522
30
0
41
1
10
74.0071105476686
20
5.93764013340956
30
0
41
1
10
74.0118448044995
20
5.91481590781319
30
0
41
1
10
74.0142175647725
20
5.90272156956945
30
0
41
1
10
74.0213162978173
20
5.86457184193574
30
0
41
1
10
74.0260175664018
20
5.83668519684736
30
0
41
1
10
74.0400577294217
20
5.74581710829725
30
0
41
1
10
74.0493263677812
20
5.6756453662864
30
0
41
1
10
74.0680214315535
20
5.51646916630932
30
0
41
1
10
74.0774615983487
20
5.4274649820041
30
0
41
1
10
74.0916816026542
20
5.27965876274487
30
0
41
1
10
74.096432530629
20
5.22800221461381
30
0
41
1
10
74.1035743628468
20
5.1468713026768
30
0
41
1
10
74.1059576085245
20
5.11921967770357
30
0
41
1
10
74.1107299433775
20
5.06268588422603
30
0
41
1
10
74.1131108472082
20
5.03390018174844
30
0
41
1
10
74.1249756558649
20
4.88759928654667
30
0
41
1
10
74.1343541255639
20
4.76278750280483
30
0
41
1
10
74.1436822104393
20
4.63042543321345
30
0
0
SPLINE
5
102
100
AcDbEntity
8
1
62
256
6
ByLayer
370
18
48
1
60
0
100
AcDbSpline
70
4
71
3
72
22
73
18
40
0
40
0
40
0
40
0
40
0.161371526896487
40
0.161371526896487
40
0.322743053792973
40
0.322743053792973
40
0.48411458068946
40
0.48411458068946
40
0.524457462413581
40
0.524457462413581
40
0.564800344137703
40
0.645486107585946
40
0.645486107585946
40
0.806857634482433
40
0.96822916137892
40
0.96822916137892
40
1
40
1
40
1
40
1
41
1
10
76.3707702719073
20
-4.54616748683716
30
0
41
1
10
76.3802102008501
20
-4.68337153857192
30
0
41
1
10
76.3895132450163
20
-4.81162036664654
30
0
41
1
10
76.4080082392987
20
-5.05075739138144
30
0
41
1
10
76.417200112464
20
-5.1616441137125
30
0
41
1
10
76.4356906143259
20
-5.3660591988893
30
0
41
1
10
76.4449907927228
20
-5.45958881963324
30
0
41
1
10
76.4568507275264
20
-5.56531815960915
30
0
41
1
10
76.4592368378936
20
-5.58593061659369
30
0
41
1
10
76.4640115863054
20
-5.62587778349683
30
0
41
1
10
76.4711721703417
20
-5.68384229938692
30
0
41
1
10
76.4783196382091
20
-5.73601003200903
30
0
41
1
10
76.4925845217244
20
-5.83274752204613
30
0
41
1
10
76.5115177663289
20
-5.94150732463862
30
0
41
1
10
76.5303051920946
20
-6.01025343002306
30
0
41
1
10
76.5415716360876
20
-6.03917945081187
30
0
41
1
10
76.5434257738175
20
-6.04354129763857
30
0
41
1
10
76.5452814844986
20
-6.04750338652997
30
0
0
SPLINE
5
103
100
AcDbEntity
8
1
62
256
6
ByLayer
370
18
48
1
60
0
100
AcDbSpline
70
4
71
3
72
10
73
6
40
0
40
0
40
0
40
0
40
0.0586018696002793
40
0.0586018696002793
40
1
40
1
40
1
40
1
41
1
10
38.3804686020302
20
4.35000066360683
30
0
41
1
10
38.3912373997756
20
4.34999934853442
30
0
41
1
10
38.4020104367117
20
4.34995822830132
30
0
41
1
10
38.5859141706789
20
4.34857964684792
30
0
41
1
10
38.7601016132583
20
4.33701850334609
30
0
41
1
10
38.9352813846954
20
4.31514450863358
30
0
0
SPLINE
5
104
100
AcDbEntity
8
1
62
256
6
ByLayer
370
18
48
1
60
0
100
AcDbSpline
70
4
71
3
72
20
73
16
40
0
40
0
40
0
40
0
40
0.0555167671161023
40
0.0555167671161023
40
0.286837606796049
40
0.286837606796049
40
0.518158446475995
40
0.518158446475995
40
0.633818866315968
40
0.633818866315968
40
0.749479286155941
40
0.749479286155941
40
0.980800125835862
40
0.980800125835862
40
1
40
1
40
1
40
1
41
1
10
39.4114845465288
20
-4.34999663995114
30
0
41
1
10
39.3824861251635
20
-4.34999114782798
30
0
41
1
10
39.3534590363214
20
-4.34997917445213
30
0
41
1
10
39.2033258113258
20
-4.34989381263944
30
0
41
1
10
39.0817378926405
20
-4.34974967550573
30
0
41
1
10
38.8374686018486
20
-4.34952002767369
30
0
41
1
10
38.7147884972374
20
-4.3494352623471
30
0
41
1
10
38.5298392956283
20
-4.34942708353609
30
0
41
1
10
38.4679242554263
20
-4.34944349285573
30
0
41
1
10
38.3445047578135
20
-4.34951155325803
30
0
41
1
10
38.2829666926706
20
-4.34956314961872
30
0
41
1
10
38.0989020366719
20
-4.34974766318803
30
0
41
1
10
37.9769187983739
20
-4.34992045580353
30
0
41
1
10
37.8457395752241
20
-4.34998599650888
30
0
41
1
10
37.8356918275408
20
-4.34999031457988
30
0
41
1
10
37.8256500243543
20
-4.34999370738356
30
0
0
SPLINE
5
105
100
AcDbEntity
8
1
62
256
6
ByLayer
370
18
48
1
60
0
100
AcDbSpline
70
4
71
3
72
30
73
26
40
0
40
0
40
0
40
0
40
0.0688161135157414
40
0.0688161135157414
40
0.137632227031483
40
0.137632227031483
40
0.275264454062966
40
0.275264454062966
40
0.412896681094449
40
0.412896681094449
40
0.481712794610191
40
0.481712794610191
40
0.516120851368062
40
0.516120851368062
40
0.550528908125932
40
0.550528908125932
40
0.688161135157415
40
0.688161135157415
40
0.825793362188897
40
0.825793362188897
40
0.963425589220379
40
0.963425589220379
40
0.99783364597825
40
0.99783364597825
40
1
40
1
40
1
40
1
41
1
10
74.3262917045863
20
4.50266661454302
30
0
41
1
10
74.3216002090093
20
4.57169179542331
30
0
41
1
10
74.3168455013318
20
4.63899039653543
30
0
41
1
10
74.3072314476808
20
4.77005890643338
30
0
41
1
10
74.3024160829717
20
4.83327588691182
30
0
41
1
10
74.2880046257976
20
5.01605304701766
30
0
41
1
10
74.2784480702879
20
5.12879094413069
30
0
41
1
10
74.2595614109162
20
5.33641257057201
30
0
41
1
10
74.2502339423292
20
5.43129570390323
30
0
41
1
10
74.2363082388065
20
5.56008964973435
30
0
41
1
10
74.2316749548567
20
5.6007615600887
30
0
41
1
10
74.2246989596662
20
5.65832273530521
30
0
41
1
10
74.2223686139822
20
5.67693504938526
30
0
41
1
10
74.2176925901263
20
5.71299705087492
30
0
41
1
10
74.215346806829
20
5.73044738555154
30
0
41
1
10
74.2036428493112
20
5.81428890696228
30
0
41
1
10
74.1943018648607
20
5.87090404231395
30
0
41
1
10
74.175578250398
20
5.96385666247946
30
0
41
1
10
74.1661977943373
20
6.00019257386595
30
0
41
1
10
74.1473684510709
20
6.05258764109914
30
0
41
1
10
74.1379218169805
20
6.06864839788238
30
0
41
1
10
74.1260475595614
20
6.07565909438472
30
0
41
1
10
74.123665860238
20
6.07640590607272
30
0
41
1
10
74.121140283488
20
6.07649552070831
30
0
41
1
10
74.120990714698
20
6.0764982112735
30
0
41
1
10
74.120841170407
20
6.07649828639407
30
0
0
SPLINE
5
106
100
AcDbEntity
8
1
62
256
6
ByLayer
370
13
48
1
60
0
100
AcDbSpline
70
4
71
3
72
9
73
5
40
0
40
0
40
0
40
0
40
0.493760806613928
40
1
40
1
40
1
40
1
41
1
10
76.2705640215636
20
-5.57379653441259
30
0
41
1
10
76.2398797897904
20
-5.51156448903859
30
0
41
1
10
76.1781766801699
20
-5.18190179674258
30
0
41
1
10
76.1170301836934
20
-4.47842410250152
30
0
41
1
10
76.0859875743368
20
-4.04655626598856
30
0
0
SPLINE
5
107
100
AcDbEntity
8
1
62
256
6
ByLayer
370
13
48
1
60
0
100
AcDbSpline
70
4
71
3
72
10
73
6
40
0
40
0
40
0
40
0
40
0.299707041428796
40
0.752536741193878
40
1
40
1
40
1
40
1
41
1
10
75.6896439565167
20
3.2356025983743
30
0
41
1
10
75.666904802224
20
3.6089354607013
30
0
41
1
10
75.6100294390915
20
4.46247836510707
30
0
41
1
10
75.537250250311
20
5.20478793343685
30
0
41
1
10
75.4894676055181
20
5.45674811632293
30
0
41
1
10
75.4729193267958
20
5.51529972795387
30
0
0
SPLINE
5
108
100
AcDbEntity
8
1
62
256
6
ByLayer
370
18
48
1
60
0
100
AcDbSpline
70
4
71
3
72
27
73
23
40
0
40
0
40
0
40
0
40
0.125000000000001
40
0.125000000000001
40
0.250000000000003
40
0.250000000000003
40
0.281250000000003
40
0.281250000000003
40
0.312500000000004
40
0.375000000000004
40
0.375000000000004
40
0.500000000000003
40
0.625000000000002
40
0.625000000000002
40
0.687500000000002
40
0.687500000000002
40
0.718750000000002
40
0.718750000000002
40
0.750000000000002
40
0.750000000000002
40
0.875000000000001
40
1
40
1
40
1
40
1
41
1
10
74.9389480719952
20
-5.9505156421267
30
0
41
1
10
74.9296312200956
20
-5.90905834150391
30
0
41
1
10
74.9203843295138
20
-5.85762155910544
30
0
41
1
10
74.9018503601353
20
-5.73483274235724
30
0
41
1
10
74.8925639863614
20
-5.66348197914542
30
0
41
1
10
74.8807512036848
20
-5.56148969316135
30
0
41
1
10
74.8783765150014
20
-5.54043943983211
30
0
41
1
10
74.8736080949773
20
-5.49708181676303
30
0
41
1
10
74.8664522442831
20
-5.43038095875758
30
0
41
1
10
74.8592938545979
20
-5.35874981032785
30
0
41
1
10
74.8449875193807
20
-5.20902998795148
30
0
41
1
10
74.8259443607473
20
-4.9922157974604
30
0
41
1
10
74.8070186460324
20
-4.7414444465947
30
0
41
1
10
74.7928372856709
20
-4.54039677392507
30
0
41
1
10
74.7881117261358
20
-4.47121525301046
30
0
41
1
10
74.7810163784963
20
-4.36412595779998
30
0
41
1
10
74.7786514780175
20
-4.32789609772087
30
0
41
1
10
74.773944324279
20
-4.25474613475424
30
0
41
1
10
74.7715987548311
20
-4.21777632308797
30
0
41
1
10
74.7599049670409
20
-4.03097397636645
30
0
41
1
10
74.7414164476992
20
-3.71961998544697
30
0
41
1
10
74.7230087228022
20
-3.3838902176864
30
0
41
1
10
74.7137150768887
20
-3.20988580039492
30
0
0
SPLINE
5
109
100
AcDbEntity
8
1
62
256
6
ByLayer
370
18
48
1
60
0
100
AcDbSpline
70
4
71
3
72
30
73
26
40
0
40
0
40
0
40
0
40
0.125
40
0.125
40
0.1875
40
0.1875
40
0.21875
40
0.21875
40
0.25
40
0.25
40
0.375
40
0.375
40
0.5
40
0.5
40
0.5625
40
0.5625
40
0.593749999999999
40
0.593749999999999
40
0.624999999999999
40
0.624999999999999
40
0.75
40
0.75
40
0.875
40
0.875
40
1
40
1
40
1
40
1
41
1
10
75.7569038882577
20
5.93686214010657
30
0
41
1
10
75.766294903339
20
5.89330987907286
30
0
41
1
10
75.7757448057361
20
5.83969544611242
30
0
41
1
10
75.7900633023944
20
5.74390792113954
30
0
41
1
10
75.7948598388519
20
5.7094129272225
30
0
41
1
10
75.8020867601033
20
5.6537409561837
30
0
41
1
10
75.8044999867628
20
5.63452931891297
30
0
41
1
10
75.8093041572522
20
5.59501764402751
30
0
41
1
10
75.8116985958564
20
5.57469126662622
30
0
41
1
10
75.8236274061404
20
5.47023669345438
30
0
41
1
10
75.8330200167607
20
5.37766231473606
30
0
41
1
10
75.851577443861
20
5.17489865828935
30
0
41
1
10
75.8607449616472
20
5.06470860586725
30
0
41
1
10
75.8745672329772
20
4.88611272717159
30
0
41
1
10
75.8791881386012
20
4.82435819992247
30
0
41
1
10
75.8861829805271
20
4.72834186041948
30
0
41
1
10
75.8885252623706
20
4.69577204738951
30
0
41
1
10
75.8932393830146
20
4.62949180449957
30
0
41
1
10
75.895615598447
20
4.59573145047864
30
0
41
1
10
75.907525337021
20
4.4248277159117
30
0
41
1
10
75.9171177550568
20
4.28131409817735
30
0
41
1
10
75.9361280560401
20
3.98114109269358
30
0
41
1
10
75.9455483430329
20
3.82448040062207
30
0
41
1
10
75.9642539601722
20
3.49804128173145
30
0
41
1
10
75.9735393571243
20
3.32826359337619
30
0
41
1
10
75.9829260949828
20
3.15174480574436
30
0
0
SPLINE
5
10A
100
AcDbEntity
8
1
62
256
6
ByLayer
370
18
48
1
60
0
100
AcDbSpline
70
4
71
3
72
29
73
25
40
0
40
0
40
0
40
0
40
0.125000000000001
40
0.125000000000001
40
0.187500000000001
40
0.187500000000001
40
0.218750000000001
40
0.218750000000001
40
0.250000000000002
40
0.250000000000002
40
0.375000000000002
40
0.375000000000002
40
0.500000000000003
40
0.500000000000003
40
0.625000000000003
40
0.625000000000003
40
0.656250000000003
40
0.656250000000003
40
0.687500000000003
40
0.750000000000002
40
0.750000000000002
40
0.875000000000001
40
0.875000000000001
40
1
40
1
40
1
40
1
41
1
10
74.5308664387269
20
-3.0425523347935
30
0
41
1
10
74.540081229672
20
-3.21940220550539
30
0
41
1
10
74.5493111973166
20
-3.3910743508122
30
0
41
1
10
74.5633367737561
20
-3.64069903636482
30
0
41
1
10
74.5680409215932
20
-3.72259092595837
30
0
41
1
10
74.575151332805
20
-3.8434165096028
30
0
41
1
10
74.5775333219575
20
-3.88340366503328
30
0
41
1
10
74.5823025531198
20
-3.96246878271722
30
0
41
1
10
74.5846863434416
20
-4.00149089573989
30
0
41
1
10
74.5966026242262
20
-4.19407873518151
30
0
41
1
10
74.6061292274717
20
-4.34009623670215
30
0
41
1
10
74.6251629944009
20
-4.61645071977392
30
0
41
1
10
74.6346677768505
20
-4.74678686798876
30
0
41
1
10
74.6536327328769
20
-4.99171336180194
30
0
41
1
10
74.6630901361771
20
-5.10630535457426
30
0
41
1
10
74.6749064907657
20
-5.23935364880742
30
0
41
1
10
74.6772644219893
20
-5.26539116823304
30
0
41
1
10
74.6819574711617
20
-5.31617563227718
30
0
41
1
10
74.6889696103598
20
-5.39049041883712
30
0
41
1
10
74.6959104712518
20
-5.45928040443596
30
0
41
1
10
74.709742328767
20
-5.58960004236835
30
0
41
1
10
74.7189048076676
20
-5.66681723771492
30
0
41
1
10
74.7374045046375
20
-5.80203962943926
30
0
41
1
10
74.7467326826911
20
-5.86004600472967
30
0
41
1
10
74.756192279635
20
-5.90820857895537
30
0
0
SPLINE
5
10B
100
AcDbEntity
8
1
62
256
6
ByLayer
370
18
48
1
60
0
100
AcDbSpline
70
4
71
3
72
10
73
6
40
0
40
0
40
0
40
0
40
0.379815875282708
40
0.759271200310411
40
1
40
1
40
1
40
1
41
1
10
82.400000062905
20
-2.46813158620588
30
0
41
1
10
82.4000000738261
20
-2.09424534732625
30
0
41
1
10
82.4000000053586
20
-1.29019126765999
30
0
41
1
10
82.3999999200822
20
-0.156123846709392
30
0
41
1
10
82.3999998991807
20
0.542704409741532
30
0
41
1
10
82.3999998944691
20
0.809636342202253
30
0
0
SPLINE
5
10C
100
AcDbEntity
8
1
62
256
6
ByLayer
370
18
48
1
60
0
100
AcDbSpline
70
4
71
3
72
20
73
16
40
0
40
0
40
0
40
0
40
0.125
40
0.125
40
0.25
40
0.25
40
0.5
40
0.5
40
0.625
40
0.625
40
0.6875
40
0.6875
40
0.75
40
0.75
40
1
40
1
40
1
40
1
41
1
10
66.2918808825317
20
2.03334928672581
30
0
41
1
10
66.2897080464051
20
2.1228311849371
30
0
41
1
10
66.2876057510124
20
2.2110288897218
30
0
41
1
10
66.2835407017941
20
2.38484554491441
30
0
41
1
10
66.2815850873926
20
2.47015791161746
30
0
41
1
10
66.2759331679869
20
2.7210975379482
30
0
41
1
10
66.2724467740479
20
2.88185007751662
30
0
41
1
10
66.2675130778574
20
3.11302900551846
30
0
41
1
10
66.2659179227929
20
3.18842667988673
30
0
41
1
10
66.2635815486354
20
3.29897512144135
30
0
41
1
10
66.2628112745428
20
3.33543889896214
30
0
41
1
10
66.261294014685
20
3.4071323765412
30
0
41
1
10
66.2605464357347
20
3.44239999255984
30
0
41
1
10
66.2568722335446
20
3.61588760172504
30
0
41
1
10
66.2541388215928
20
3.74558879716321
30
0
41
1
10
66.251705236389
20
3.86650974985565
30
0
0
SPLINE
5
10D
100
AcDbEntity
8
1
62
256
6
ByLayer
370
18
48
1
60
0
100
AcDbSpline
70
4
71
3
72
14
73
10
40
0
40
0
40
0
40
0
40
0.499999999999999
40
0.499999999999999
40
0.624999999999999
40
0.624999999999999
40
0.749999999999999
40
0.749999999999999
40
1
40
1
40
1
40
1
41
1
10
66.3210359776539
20
0.918527474107236
30
0
41
1
10
66.3158002775941
20
1.10955274173105
30
0
41
1
10
66.310707255419
20
1.29816251852148
30
0
41
1
10
66.3045859737808
20
1.53086507278823
30
0
41
1
10
66.3033746376808
20
1.57725239692812
30
0
41
1
10
66.3009810417855
20
1.6697183540004
30
0
41
1
10
66.2997977113496
20
1.71583946928081
30
0
41
1
10
66.2963043681688
20
1.85337645680139
30
0
41
1
10
66.2940521833501
20
1.9439306156882
30
0
41
1
10
66.2918808825317
20
2.03334928672589
30
0
0
SPLINE
5
10E
100
AcDbEntity
8
1
62
256
6
ByLayer
370
18
48
1
60
0
100
AcDbSpline
70
4
71
3
72
31
73
27
40
0
40
0
40
0
40
0
40
0.125000000000001
40
0.125000000000001
40
0.156250000000001
40
0.156250000000001
40
0.187500000000001
40
0.250000000000001
40
0.250000000000001
40
0.375000000000001
40
0.375000000000001
40
0.500000000000001
40
0.500000000000001
40
0.5625
40
0.5625
40
0.625
40
0.625
40
0.75
40
0.75
40
0.875
40
0.875
40
0.9375
40
0.9375
40
0.96875
40
0.96875
40
1
40
1
40
1
40
1
41
1
10
80.8126853948918
20
2.33016396889391
30
0
41
1
10
80.8212936096392
20
2.18040544047159
30
0
41
1
10
80.8298255523084
20
2.02689826666662
30
0
41
1
10
80.8405582549117
20
1.83023038032323
30
0
41
1
10
80.8427069146107
20
1.79068610227
30
0
41
1
10
80.8469970269683
20
1.71146555956614
30
0
41
1
10
80.8534278440594
20
1.59231570581108
30
0
41
1
10
80.8598625033259
20
1.47221992086867
30
0
41
1
10
80.8727680908467
20
1.23078590924706
30
0
41
1
10
80.8814238729738
20
1.06817695045336
30
0
41
1
10
80.8989031174924
20
0.739663270475972
30
0
41
1
10
80.907725488094
20
0.573758806112323
30
0
41
1
10
80.9210514855515
20
0.322348116434512
30
0
41
1
10
80.9254807530466
20
0.238633946811973
30
0
41
1
10
80.9342849493477
20
0.071687628035022
30
0
41
1
10
80.9386608148041
20
-0.0115947775681775
30
0
41
1
10
80.9517051195719
20
-0.260876802479857
30
0
41
1
10
80.9603034665346
20
-0.426314184962507
30
0
41
1
10
80.9774403699569
20
-0.755708976926485
30
0
41
1
10
80.9859775633861
20
-0.919666508938036
30
0
41
1
10
80.998811448369
20
-1.1644682058498
30
0
41
1
10
81.0030939336801
20
-1.24587923928033
30
0
41
1
10
81.009533818141
20
-1.36770411434037
30
0
41
1
10
81.0116842233419
20
-1.40828876863651
30
0
41
1
10
81.0159798425537
20
-1.48909163592492
30
0
41
1
10
81.0181266882859
20
-1.52933797535206
30
0
41
1
10
81.0202752561803
20
-1.56942967972861
30
0
0
SPLINE
5
10F
100
AcDbEntity
8
1
62
256
6
ByLayer
370
18
48
1
60
0
100
AcDbSpline
70
4
71
3
72
29
73
25
40
0
40
0
40
0
40
0
40
0.124999999999999
40
0.249999999999999
40
0.249999999999999
40
0.281249999999999
40
0.281249999999999
40
0.312499999999999
40
0.312499999999999
40
0.374999999999999
40
0.374999999999999
40
0.499999999999999
40
0.499999999999999
40
0.624999999999998
40
0.624999999999998
40
0.687499999999999
40
0.687499999999999
40
0.718749999999999
40
0.718749999999999
40
0.749999999999999
40
0.749999999999999
40
0.875
40
0.875
40
1
40
1
40
1
40
1
41
1
10
76.1650605128571
20
2.9849955695725
30
0
41
1
10
76.1557293819175
20
3.16349980330429
30
0
41
1
10
76.1372257900983
20
3.50909289478614
30
0
41
1
10
76.1186518747741
20
3.83197599891602
30
0
41
1
10
76.1068752218656
20
4.02649761594768
30
0
41
1
10
76.1045114227301
20
4.06503702619179
30
0
41
1
10
76.0997630079528
20
4.14137772208576
30
0
41
1
10
76.0973766712645
20
4.17920426497716
30
0
41
1
10
76.090221466326
20
4.29093246413078
30
0
41
1
10
76.0854392103567
20
4.36329049859862
30
0
41
1
10
76.0711282811547
20
4.57410964104011
30
0
41
1
10
76.0616554600012
20
4.70633215322096
30
0
41
1
10
76.0429072571573
20
4.95439506688544
30
0
41
1
10
76.0336297380302
20
5.07023506774718
30
0
41
1
10
76.0195579360667
20
5.231518429788
30
0
41
1
10
76.0148421985802
20
5.28319626321345
30
0
41
1
10
76.007731666555
20
5.35752818260053
30
0
41
1
10
76.0053520715228
20
5.38180634334296
30
0
41
1
10
76.0005972283049
20
5.42912054970307
30
0
41
1
10
75.9982239126295
20
5.45213932590926
30
0
41
1
10
75.9863770743187
20
5.56407813380625
30
0
41
1
10
75.9769650301505
20
5.64355799139111
30
0
41
1
10
75.9582172220578
20
5.78289622540075
30
0
41
1
10
75.9488819148714
20
5.84275346047372
30
0
41
1
10
75.9395252001844
20
5.89275345000018
30
0
0
SPLINE
5
110
100
AcDbEntity
8
1
62
256
6
ByLayer
370
13
48
1
60
0
100
AcDbSpline
70
4
71
3
72
9
73
5
40
0
40
0
40
0
40
0
40
0.106809624493059
40
1
40
1
40
1
40
1
41
1
10
74.4632371175449
20
-5.3422801771863
30
0
41
1
10
74.456204034515
20
-5.29958398219964
30
0
41
1
10
74.3898067344779
20
-4.84798279682647
30
0
41
1
10
74.3180064125847
20
-3.89293941162842
30
0
41
1
10
74.2464234879513
20
-2.61832779096923
30
0
0
SPLINE
5
111
100
AcDbEntity
8
1
62
256
6
ByLayer
370
13
48
1
60
0
100
AcDbSpline
70
4
71
3
72
10
73
6
40
0
40
0
40
0
40
0
40
0.640319798625942
40
0.937044942488753
40
1
40
1
40
1
40
1
41
1
10
77.5290738805467
20
1.62669061369383
30
0
41
1
10
77.4841983623571
20
2.49079950322704
30
0
41
1
10
77.4174026313096
20
3.68529381312061
30
0
41
1
10
77.3433577104416
20
4.61241161361676
30
0
41
1
10
77.3169219206036
20
4.87807952472409
30
0
41
1
10
77.3123002407006
20
4.92247995431526
30
0
0
SPLINE
5
112
100
AcDbEntity
8
1
62
256
6
ByLayer
370
18
48
1
60
0
100
AcDbSpline
70
4
71
3
72
29
73
25
40
0
40
0
40
0
40
0
40
0.0624999999999998
40
0.0937499999999998
40
0.0937499999999998
40
0.125
40
0.125
40
0.25
40
0.375000000000001
40
0.375000000000001
40
0.500000000000002
40
0.500000000000002
40
0.531250000000001
40
0.531250000000001
40
0.562500000000001
40
0.562500000000001
40
0.625000000000001
40
0.625000000000001
40
0.75
40
0.875
40
0.875
40
0.9375
40
0.9375
40
1
40
1
40
1
40
1
41
1
10
79.2182374409716
20
3.86659527526578
30
0
41
1
10
79.2228012358286
20
3.79717804895742
30
0
41
1
10
79.2296267388555
20
3.69074801777168
30
0
41
1
10
79.2364502028441
20
3.5808935242257
30
0
41
1
10
79.2410036235177
20
3.50689842857619
30
0
41
1
10
79.2432833793254
20
3.46951288007574
30
0
41
1
10
79.2546588162655
20
3.28139497333612
30
0
41
1
10
79.2727434416202
20
2.97170120800675
30
0
41
1
10
79.2905050601557
20
2.64483125710024
30
0
41
1
10
79.3082399783779
20
2.30932198315799
30
0
41
1
10
79.3171069581991
20
2.13724179600271
30
0
41
1
10
79.3283186583501
20
1.9166249002896
30
0
41
1
10
79.3305670350719
20
1.8722256474162
30
0
41
1
10
79.3350782231307
20
1.78287093200726
30
0
41
1
10
79.3373365065828
20
1.73800495303252
30
0
41
1
10
79.3441010881791
20
1.60326942740895
30
0
41
1
10
79.3486059636221
20
1.5130902124321
30
0
41
1
10
79.3621253866858
20
1.2415096406356
30
0
41
1
10
79.3801681244906
20
0.876627673826221
30
0
41
1
10
79.3983474157568
20
0.506280347200317
30
0
41
1
10
79.4120239430036
20
0.226421521315046
30
0
41
1
10
79.4165893056338
20
0.132784694056369
30
0
41
1
10
79.4257254035377
20
-0.055208827388924
30
0
41
1
10
79.4302984012279
20
-0.149661241006896
30
0
41
1
10
79.4348555655478
20
-0.243822725408364
30
0
0
SPLINE
5
113
100
AcDbEntity
8
1
62
256
6
ByLayer
370
18
48
1
60
0
100
AcDbSpline
70
4
71
3
72
29
73
25
40
0
40
0
40
0
40
0
40
0.125000000000001
40
0.125000000000001
40
0.250000000000002
40
0.250000000000002
40
0.281250000000002
40
0.281250000000002
40
0.312500000000002
40
0.312500000000002
40
0.375000000000002
40
0.375000000000002
40
0.500000000000001
40
0.625
40
0.625
40
0.687499999999999
40
0.687499999999999
40
0.718749999999999
40
0.718749999999999
40
0.749999999999999
40
0.749999999999999
40
0.874999999999999
40
0.874999999999999
40
1
40
1
40
1
40
1
41
1
10
80.1759686116006
20
-0.899353208810027
30
0
41
1
10
80.1668644554816
20
-0.724402173481252
30
0
41
1
10
80.1578256272798
20
-0.548565416176501
30
0
41
1
10
80.1398031197968
20
-0.195121754700438
30
0
41
1
10
80.1308330472415
20
-0.0175116654848182
30
0
41
1
10
80.1196234193688
20
0.205646035935615
30
0
41
1
10
80.1173797738425
20
0.250334533311872
30
0
41
1
10
80.11288313129
20
0.339825753165172
30
0
41
1
10
80.110627556298
20
0.384679437050068
30
0
41
1
10
80.103872750117
20
0.518734601453588
30
0
41
1
10
80.0993768142633
20
0.607594940363498
30
0
41
1
10
80.0858579043101
20
0.872683568822737
30
0
41
1
10
80.0677377484452
20
1.22216456727603
30
0
41
1
10
80.049157197626
20
1.56386255535082
30
0
41
1
10
80.0351104612489
20
1.81716450225983
30
0
41
1
10
80.030411414662
20
1.9011020661122
30
0
41
1
10
80.0233622825499
20
2.02624595354277
30
0
41
1
10
80.0210126020816
20
2.06783342413257
30
0
41
1
10
80.0163189602377
20
2.15075003277161
30
0
41
1
10
80.0139731224261
20
2.19211349406049
30
0
41
1
10
80.0023248423725
20
2.39727079654753
30
0
41
1
10
79.9932454401321
20
2.55679875426853
30
0
41
1
10
79.975425838576
20
2.86690253018548
30
0
41
1
10
79.9666820966135
20
3.01747783854788
30
0
41
1
10
79.9578213583228
20
3.1636387818717
30
0
0
SPLINE
5
114
100
AcDbEntity
8
1
62
256
6
ByLayer
370
18
48
1
60
0
100
AcDbSpline
70
4
71
3
72
29
73
25
40
0
40
0
40
0
40
0
40
0.125
40
0.125
40
0.250000000000001
40
0.250000000000001
40
0.375000000000001
40
0.375000000000001
40
0.406250000000001
40
0.406250000000001
40
0.437500000000001
40
0.5
40
0.5
40
0.625
40
0.625
40
0.75
40
0.75
40
0.78125
40
0.78125
40
0.812499999999999
40
0.812499999999999
40
0.875
40
0.875
40
1
40
1
40
1
40
1
41
1
10
77.5966224232355
20
5.22481155299232
30
0
41
1
10
77.6061093062466
20
5.1194289500614
30
0
41
1
10
77.6155793763674
20
5.00579011511621
30
0
41
1
10
77.6342917471213
20
4.76244462585919
30
0
41
1
10
77.6435318216587
20
4.63273661699054
30
0
41
1
10
77.6620502786172
20
4.35720625290287
30
0
41
1
10
77.6713925657167
20
4.21138745606882
30
0
41
1
10
77.6833154505681
20
4.01870327436833
30
0
41
1
10
77.6857080573694
20
3.97967364846073
30
0
41
1
10
77.6904847614661
20
3.90101612078644
30
0
41
1
10
77.6976468597672
20
3.78197484889489
30
0
41
1
10
77.7047953946101
20
3.65980401253023
30
0
41
1
10
77.7190653614231
20
3.41135192729834
30
0
41
1
10
77.728540315341
20
3.24024686717271
30
0
41
1
10
77.7474081555825
20
2.8871716810429
30
0
41
1
10
77.7567998711865
20
2.7052019428844
30
0
41
1
10
77.7685364442666
20
2.47078826805409
30
0
41
1
10
77.7708838635197
20
2.42355711380094
30
0
41
1
10
77.7755812772975
20
2.32839045089332
30
0
41
1
10
77.7779344366661
20
2.2803894844065
30
0
41
1
10
77.7849668001119
20
2.1360445125753
30
0
41
1
10
77.7896249967705
20
2.03923469862295
30
0
41
1
10
77.8035533855308
20
1.74710257883712
30
0
41
1
10
77.8127735299753
20
1.55008166812522
30
0
41
1
10
77.8220874776394
20
1.35084032279272
30
0
0
SPLINE
5
115
100
AcDbEntity
8
1
62
256
6
ByLayer
370
18
48
1
60
0
100
AcDbSpline
70
4
71
3
72
33
73
29
40
0
40
0
40
0
40
0
40
0.0312500000000001
40
0.0312500000000001
40
0.0625000000000002
40
0.0625000000000002
40
0.125000000000001
40
0.125000000000001
40
0.250000000000002
40
0.250000000000002
40
0.375000000000003
40
0.375000000000003
40
0.437500000000003
40
0.437500000000003
40
0.468750000000003
40
0.468750000000003
40
0.500000000000003
40
0.500000000000003
40
0.625000000000002
40
0.625000000000002
40
0.750000000000002
40
0.750000000000002
40
0.875000000000002
40
0.875000000000002
40
0.906250000000001
40
0.906250000000001
40
0.937500000000001
40
1
40
1
40
1
40
1
41
1
10
73.0991445006444
20
-5.2575552456143
30
0
41
1
10
73.0967976804688
20
-5.23177345475022
30
0
41
1
10
73.094451212796
20
-5.20538416505929
30
0
41
1
10
73.089756474454
20
-5.15137723987951
30
0
41
1
10
73.0874054694122
20
-5.1237255964794
30
0
41
1
10
73.0803828952218
20
-5.0393622788375
30
0
41
1
10
73.0757324039414
20
-4.98114074323755
30
0
41
1
10
73.0618346845052
20
-4.80065701862367
30
0
41
1
10
73.0526404507596
20
-4.67259023688086
30
0
41
1
10
73.0341800206428
20
-4.40123174970586
30
0
41
1
10
73.0249121691216
20
-4.25793999989995
30
0
41
1
10
73.0108260230871
20
-4.03143051534073
30
0
41
1
10
73.0061004022233
20
-3.95399508684335
30
0
41
1
10
72.9989566458511
20
-3.8348898686921
30
0
41
1
10
72.9965640784133
20
-3.79465945094378
30
0
41
1
10
72.9917692137395
20
-3.71336478520513
30
0
41
1
10
72.9893725469113
20
-3.67239667831694
30
0
41
1
10
72.9773925700401
20
-3.46597105566306
30
0
41
1
10
72.9678130742107
20
-3.29577110135963
30
0
41
1
10
72.9487497111075
20
-2.94552082782272
30
0
41
1
10
72.9392915052895
20
-2.76546886741548
30
0
41
1
10
72.9205620505903
20
-2.39547463314841
30
0
41
1
10
72.9112751211765
20
-2.20553389123828
30
0
41
1
10
72.8996279161178
20
-1.96171818016512
30
0
41
1
10
72.8972988228634
20
-1.91268731609381
30
0
41
1
10
72.8926581843187
20
-1.81453659203316
30
0
41
1
10
72.8857147635489
20
-1.66698739978867
30
0
41
1
10
72.8788023550273
20
-1.51848061345262
30
0
41
1
10
72.8741930016838
20
-1.41905749129384
30
0
0
SPLINE
5
116
100
AcDbEntity
8
1
62
256
6
ByLayer
370
18
48
1
60
0
100
AcDbSpline
70
4
71
3
72
33
73
29
40
0
40
0
40
0
40
0
40
0.0312500000000003
40
0.0312500000000003
40
0.0625000000000005
40
0.125000000000001
40
0.125000000000001
40
0.250000000000001
40
0.250000000000001
40
0.375
40
0.375
40
0.4375
40
0.4375
40
0.46875
40
0.46875
40
0.5
40
0.5
40
0.624999999999999
40
0.624999999999999
40
0.749999999999999
40
0.749999999999999
40
0.812499999999999
40
0.812499999999999
40
0.843749999999999
40
0.843749999999999
40
0.874999999999999
40
0.874999999999999
40
1
40
1
40
1
40
1
41
1
10
72.6917247948016
20
-1.22985358552612
30
0
41
1
10
72.694107140842
20
-1.28034805196617
30
0
41
1
10
72.6964942277663
20
-1.33085593970867
30
0
41
1
10
72.7012630437313
20
-1.4315614074126
30
0
41
1
10
72.7083938448476
20
-1.58184939241301
30
0
41
1
10
72.7154635969547
20
-1.729855113658
30
0
41
1
10
72.7295434723389
20
-2.02287524245264
30
0
41
1
10
72.7388486295304
20
-2.21424110847431
30
0
41
1
10
72.7574575968592
20
-2.58909587494392
30
0
41
1
10
72.7667641384017
20
-2.77258482417483
30
0
41
1
10
72.7808072160505
20
-3.04179438377449
30
0
41
1
10
72.7855023619278
20
-3.13052502396951
30
0
41
1
10
72.7925786704874
20
-3.2620793474743
30
0
41
1
10
72.7949396969368
20
-3.30561019268271
30
0
41
1
10
72.7996489768864
20
-3.39167875281447
30
0
41
1
10
72.8020000791059
20
-3.43426954363719
30
0
41
1
10
72.8137433531674
20
-3.64502877558289
30
0
41
1
10
72.8230991572316
20
-3.80663011401276
30
0
41
1
10
72.8418682302214
20
-4.11612087147307
30
0
41
1
10
72.8512968079519
20
-4.26400935159302
30
0
41
1
10
72.8655067115347
20
-4.47546829236896
30
0
41
1
10
72.8702505434681
20
-4.54422252603996
30
0
41
1
10
72.877373516138
20
-4.64471429836371
30
0
41
1
10
72.8797491301846
20
-4.67777140414341
30
0
41
1
10
72.8845033651277
20
-4.74299563317609
30
0
41
1
10
72.8868849634122
20
-4.77520156984872
30
0
41
1
10
72.8987413903267
20
-4.93316177380112
30
0
41
1
10
72.9080897126755
20
-5.05020515559812
30
0
41
1
10
72.917384457514
20
-5.15821922394585
30
0
0
SPLINE
5
117
100
AcDbEntity
8
1
62
256
6
ByLayer
370
13
48
1
60
0
100
AcDbSpline
70
4
71
3
72
10
73
6
40
0
40
0
40
0
40
0
40
0.326148210897771
40
0.932509367102497
40
1
40
1
40
1
40
1
41
1
10
67.1055872195673
20
0.111560549608328
30
0
41
1
10
67.0822478766895
20
0.580911094059786
30
0
41
1
10
67.0148718076305
20
1.93251518083184
30
0
41
1
10
66.9430788024411
20
3.23086572578438
30
0
41
1
10
66.8943166212372
20
3.93476358931008
30
0
41
1
10
66.8894290628855
20
4.00346002226701
30
0
0
SPLINE
5
118
100
AcDbEntity
8
1
62
256
6
ByLayer
370
18
48
1
60
0
100
AcDbSpline
70
4
71
3
72
30
73
26
40
0
40
0
40
0
40
0
40
0.125000000000001
40
0.125000000000001
40
0.250000000000003
40
0.250000000000003
40
0.281250000000003
40
0.281250000000003
40
0.312500000000003
40
0.312500000000003
40
0.375000000000003
40
0.375000000000003
40
0.500000000000002
40
0.500000000000002
40
0.625000000000001
40
0.625000000000001
40
0.6875
40
0.6875
40
0.71875
40
0.71875
40
0.75
40
0.75
40
0.875
40
0.875
40
1
40
1
40
1
40
1
41
1
10
67.1734231921842
20
4.18181408299853
30
0
41
1
10
67.1827189061016
20
4.03330879924488
30
0
41
1
10
67.19205225498
20
3.87828403578018
30
0
41
1
10
67.2107710826689
20
3.5553004700962
30
0
41
1
10
67.2201525324907
20
3.3873419720251
30
0
41
1
10
67.2319285332553
20
3.16912711672239
30
0
41
1
10
67.234286410383
20
3.12506980511188
30
0
41
1
10
67.2390089701793
20
3.03611777775569
30
0
41
1
10
67.2413769464524
20
2.99115983239938
30
0
41
1
10
67.2484674749607
20
2.85552023417716
30
0
41
1
10
67.2531705676842
20
2.76419146014973
30
0
41
1
10
67.2672364068837
20
2.48755518024859
30
0
41
1
10
67.2765535338621
20
2.2996042461391
30
0
41
1
10
67.2952714292778
20
1.91678614408738
30
0
41
1
10
67.3046841201724
20
1.72191938458786
30
0
41
1
10
67.3190309412704
20
1.4243762343707
30
0
41
1
10
67.3238399018182
20
1.32431921320969
30
0
41
1
10
67.331065377191
20
1.17289496415333
30
0
41
1
10
67.3334760092779
20
1.12219698739452
30
0
41
1
10
67.3382985426667
20
1.02034910541298
30
0
41
1
10
67.3407029844859
20
0.969356364059848
30
0
41
1
10
67.3526647874692
20
0.714519394288118
30
0
41
1
10
67.3620521532365
20
0.51057385314985
30
0
41
1
10
67.3805484318997
20
0.102538574012897
30
0
41
1
10
67.3896564296623
20
-0.101551216303534
30
0
41
1
10
67.3988195672762
20
-0.305704370927288
30
0
0
SPLINE
5
119
100
AcDbEntity
8
1
62
256
6
ByLayer
370
13
48
1
60
0
100
AcDbSpline
70
4
71
3
72
9
73
5
40
0
40
0
40
0
40
0
40
0.546322166237318
40
1
40
1
40
1
40
1
41
1
10
79.3685400635949
20
-0.148375424021481
30
0
41
1
10
79.3284903542182
20
0.65707066160752
30
0
41
1
10
79.2563194469275
20
2.11454411456327
30
0
41
1
10
79.1843239223676
20
3.34714235511359
30
0
41
1
10
79.1516504660281
20
3.82765830672975
30
0
0
SPLINE
5
11A
100
AcDbEntity
8
1
62
256
6
ByLayer
370
18
48
1
60
0
100
AcDbSpline
70
4
71
3
72
33
73
29
40
0
40
0
40
0
40
0
40
0.0625000000000006
40
0.0625000000000006
40
0.0937500000000007
40
0.0937500000000007
40
0.125000000000001
40
0.125000000000001
40
0.250000000000001
40
0.250000000000001
40
0.375000000000001
40
0.375000000000001
40
0.500000000000001
40
0.500000000000001
40
0.531250000000001
40
0.531250000000001
40
0.562500000000002
40
0.625000000000002
40
0.625000000000002
40
0.750000000000001
40
0.750000000000001
40
0.875000000000001
40
0.875000000000001
40
0.9375
40
0.9375
40
0.96875
40
0.96875
40
1
40
1
40
1
40
1
41
1
10
78.0049841566154
20
1.16102975895598
30
0
41
1
10
78.0003129381435
20
1.26157839344975
30
0
41
1
10
77.9956312445611
20
1.36183600398923
30
0
41
1
10
77.9885792010962
20
1.51177820489997
30
0
41
1
10
77.9862235751905
20
1.56168486476128
30
0
41
1
10
77.9814997746165
20
1.66134828183388
30
0
41
1
10
77.9791290986992
20
1.71115682651663
30
0
41
1
10
77.9673019327856
20
1.95846767956056
30
0
41
1
10
77.9578819464864
20
2.15168776041924
30
0
41
1
10
77.9389327997523
20
2.52915533939043
30
0
41
1
10
77.9294181912229
20
2.71340278786033
30
0
41
1
10
77.9104146807958
20
3.07294054709473
30
0
41
1
10
77.9009261568207
20
3.24823149128812
30
0
41
1
10
77.8890748224123
20
3.46157902677004
30
0
41
1
10
77.8867020816238
20
3.50400618767699
30
0
41
1
10
77.8819678554429
20
3.58805568489345
30
0
41
1
10
77.874895587043
20
3.71270614819878
30
0
41
1
10
77.8679015660482
20
3.83313770051222
30
0
41
1
10
77.8539848864924
20
4.06847121308513
30
0
41
1
10
77.8448053890221
20
4.21800128740315
30
0
41
1
10
77.8263909615413
20
4.50250202156576
30
0
41
1
10
77.817147123773
20
4.63747266119299
30
0
41
1
10
77.8030047385066
20
4.82879209450664
30
0
41
1
10
77.7982519040756
20
4.8907058900329
30
0
41
1
10
77.7910720275447
20
4.98072772187058
30
0
41
1
10
77.788674704664
20
5.01020288558149
30
0
41
1
10
77.7838900232698
20
5.06788914866658
30
0
41
1
10
77.7815000974236
20
5.09613256385836
30
0
41
1
10
77.7791129120874
20
5.12378243722756
30
0
0
SPLINE
5
11B
100
AcDbEntity
8
1
62
256
6
ByLayer
370
18
48
1
60
0
100
AcDbSpline
70
4
71
3
72
103
73
99
40
0
40
0
40
0
40
0
40
0.0624999999999836
40
0.0624999999999836
40
0.124999999999967
40
0.124999999999967
40
0.156249999999959
40
0.156249999999959
40
0.187499999999951
40
0.187499999999951
40
0.203124999999948
40
0.203124999999948
40
0.218749999999946
40
0.218749999999946
40
0.234374999999943
40
0.234374999999943
40
0.249999999999941
40
0.265624999999938
40
0.265624999999938
40
0.281249999999936
40
0.281249999999936
40
0.312499999999931
40
0.312499999999931
40
0.343749999999926
40
0.343749999999926
40
0.359374999999924
40
0.359374999999924
40
0.374999999999921
40
0.374999999999921
40
0.406249999999916
40
0.406249999999916
40
0.437499999999911
40
0.437499999999911
40
0.44531249999991
40
0.44531249999991
40
0.453124999999909
40
0.453124999999909
40
0.468749999999906
40
0.468749999999906
40
0.484374999999904
40
0.484374999999904
40
0.492187499999904
40
0.492187499999904
40
0.499999999999904
40
0.499999999999904
40
0.515624999999908
40
0.515624999999908
40
0.531249999999911
40
0.531249999999911
40
0.539062499999914
40
0.539062499999914
40
0.546874999999917
40
0.546874999999917
40
0.56249999999992
40
0.56249999999992
40
0.570312499999922
40
0.570312499999922
40
0.578124999999924
40
0.578124999999924
40
0.593749999999927
40
0.593749999999927
40
0.597656249999928
40
0.597656249999928
40
0.601562499999929
40
0.601562499999929
40
0.60937499999993
40
0.60937499999993
40
0.624999999999933
40
0.624999999999933
40
0.632812499999935
40
0.632812499999935
40
0.640624999999936
40
0.640624999999936
40
0.656249999999939
40
0.656249999999939
40
0.671874999999942
40
0.671874999999942
40
0.687499999999944
40
0.687499999999944
40
0.703124999999947
40
0.703124999999947
40
0.71874999999995
40
0.71874999999995
40
0.749999999999955
40
0.749999999999955
40
0.781249999999961
40
0.781249999999961
40
0.812499999999967
40
0.812499999999967
40
0.828124999999969
40
0.828124999999969
40
0.843749999999972
40
0.843749999999972
40
0.874999999999978
40
0.874999999999978
40
0.937499999999989
40
0.937499999999989
40
1
40
1
40
1
40
1
41
1
10
42.2999857759298
20
0.953030273284469
30
0
41
1
10
42.1032095440593
20
1.09729125352391
30
0
41
1
10
41.9028801878619
20
1.23238177061077
30
0
41
1
10
41.4924465559132
20
1.48111149048702
30
0
41
1
10
41.2824706703667
20
1.59497592982433
30
0
41
1
10
40.9579690957031
20
1.74718008915863
30
0
41
1
10
40.8482067092278
20
1.79480921460282
30
0
41
1
10
40.6251109803308
20
1.88343842405294
30
0
41
1
10
40.5118029873406
20
1.92448123981623
30
0
41
1
10
40.3387909275354
20
1.98061838446532
30
0
41
1
10
40.2806138096412
20
1.99842955504192
30
0
41
1
10
40.1631753886572
20
2.0321583149948
30
0
41
1
10
40.1038419726574
20
2.04808936509008
30
0
41
1
10
39.9850827170562
20
2.07763916062385
30
0
41
1
10
39.9255295748757
20
2.09124862645228
30
0
41
1
10
39.8060725184677
20
2.11615291578715
30
0
41
1
10
39.6862788138002
20
2.13883363814332
30
0
41
1
10
39.5659216084836
20
2.15782836204761
30
0
41
1
10
39.4453424484036
20
2.17538087744231
30
0
41
1
10
39.3849387319137
20
2.18341556293288
30
0
41
1
10
39.2033258113255
20
2.20494447689592
30
0
41
1
10
39.0817378926402
20
2.21601147436002
30
0
41
1
10
38.8374686018483
20
2.23124496043397
30
0
41
1
10
38.7147884972371
20
2.23541984734857
30
0
41
1
10
38.5298392956279
20
2.23585317716697
30
0
41
1
10
38.467924255426
20
2.23500932951902
30
0
41
1
10
38.3445047578132
20
2.23124074710745
30
0
41
1
10
38.2829666926703
20
2.2283235804081
30
0
41
1
10
38.0989020366717
20
2.2162527267057
30
0
41
1
10
37.9769187983737
20
2.20382229435217
30
0
41
1
10
37.734667468478
20
2.1684430040855
30
0
41
1
10
37.6143852308368
20
2.14558494262715
30
0
41
1
10
37.4653795998805
20
2.10853427022945
30
0
41
1
10
37.4356732573252
20
2.10070324807546
30
0
41
1
10
37.376745910019
20
2.0842197321268
30
0
41
1
10
37.3474860815759
20
2.07555784137816
30
0
41
1
10
37.2603517848696
20
2.04823123849718
30
0
41
1
10
37.2031205367999
20
2.02823053342388
30
0
41
1
10
37.0905944570285
20
1.98413232755362
30
0
41
1
10
37.0353043863771
20
1.96002581117028
30
0
41
1
10
36.9540644430251
20
1.92020994901344
30
0
41
1
10
36.9272673825974
20
1.90632752179783
30
0
41
1
10
36.8742935214228
20
1.87721079863144
30
0
41
1
10
36.8480934961951
20
1.86195705038381
30
0
41
1
10
36.7713368769959
20
1.81444706503081
30
0
41
1
10
36.7223514851457
20
1.78031599420959
30
0
41
1
10
36.6293098420137
20
1.70638348316032
30
0
41
1
10
36.5852631290022
20
1.66657317795682
30
0
41
1
10
36.5235808287941
20
1.60170104880169
30
0
41
1
10
36.5037362720442
20
1.5791750714333
30
0
41
1
10
36.4662647749321
20
1.53301950382496
30
0
41
1
10
36.4485526105044
20
1.50930650833652
30
0
41
1
10
36.3985620148481
20
1.43618849726431
30
0
41
1
10
36.3694247231133
20
1.38480826823616
30
0
41
1
10
36.3323801753691
20
1.30343132890812
30
0
41
1
10
36.3211173067848
20
1.27547173547708
30
0
41
1
10
36.3012689479296
20
1.21908638758268
30
0
41
1
10
36.2926225622637
20
1.19056929128433
30
0
41
1
10
36.270334558825
20
1.10406868067102
30
0
41
1
10
36.2603331296663
20
1.04513801290432
30
0
41
1
10
36.2534996490519
20
0.969935795655431
30
0
41
1
10
36.2524175422863
20
0.954818175983746
30
0
41
1
10
36.2508079675339
20
0.924430480467208
30
0
41
1
10
36.2502832424035
20
0.909173844674342
30
0
41
1
10
36.2495260645084
20
0.863554696344494
30
0
41
1
10
36.250101883802
20
0.833218312962828
30
0
41
1
10
36.2547644549242
20
0.74240577145315
30
0
41
1
10
36.2617743223322
20
0.682124974810677
30
0
41
1
10
36.2771833497112
20
0.591993133209257
30
0
41
1
10
36.2831410802839
20
0.561998045641133
30
0
41
1
10
36.2965490231063
20
0.502089137484631
30
0
41
1
10
36.3040123806916
20
0.472139260610874
30
0
41
1
10
36.3284455005002
20
0.382633362789875
30
0
41
1
10
36.3472685233087
20
0.324037629244628
30
0
41
1
10
36.3890391116513
20
0.208590263609835
30
0
41
1
10
36.4119906163715
20
0.151740325619613
30
0
41
1
10
36.461346230984
20
0.0394958116518183
30
0
41
1
10
36.4882617778804
20
-0.0156750809804862
30
0
41
1
10
36.5456547848713
20
-0.124508937118378
30
0
41
1
10
36.576134768258
20
-0.178170820426885
30
0
41
1
10
36.6400365550736
20
-0.284254618254721
30
0
41
1
10
36.6731702546642
20
-0.33619839105711
30
0
41
1
10
36.7753921615036
20
-0.489303618786323
30
0
41
1
10
36.8472775345765
20
-0.587787545424021
30
0
41
1
10
36.9960620544237
20
-0.779701403360889
30
0
41
1
10
37.0730077838142
20
-0.873092934734728
30
0
41
1
10
37.2306483525273
20
-1.05591362666081
30
0
41
1
10
37.311351917882
20
-1.14533515084105
30
0
41
1
10
37.4345767181404
20
-1.27704019678561
30
0
41
1
10
37.4760603329461
20
-1.32057995056778
30
0
41
1
10
37.5594351541041
20
-1.40666391752313
30
0
41
1
10
37.6013118207548
20
-1.44919503894681
30
0
41
1
10
37.7274182381452
20
-1.5753778860585
30
0
41
1
10
37.8121199621266
20
-1.65762536469589
30
0
41
1
10
38.0675834787753
20
-1.89944256200158
30
0
41
1
10
38.2396609080184
20
-2.05414492383761
30
0
41
1
10
38.5859141706789
20
-2.35228999868713
30
0
41
1
10
38.7601016132583
20
-2.49571041611514
30
0
41
1
10
38.9352813846954
20
-2.63351437496525
30
0
0
SPLINE
5
11C
100
AcDbEntity
8
1
62
256
6
ByLayer
370
18
48
1
60
0
100
AcDbSpline
70
4
71
3
72
29
73
25
40
0
40
0
40
0
40
0
40
0.125
40
0.125
40
0.25
40
0.25
40
0.28125
40
0.28125
40
0.3125
40
0.375
40
0.375
40
0.500000000000001
40
0.500000000000001
40
0.625000000000001
40
0.625000000000001
40
0.656250000000002
40
0.656250000000002
40
0.687500000000002
40
0.687500000000002
40
0.750000000000002
40
0.750000000000002
40
0.875000000000001
40
0.875000000000001
40
1
40
1
40
1
40
1
41
1
10
70.8522848508724
20
0.709302320468112
30
0
41
1
10
70.861720831476
20
0.506389043478208
30
0
41
1
10
70.8710984548355
20
0.302681958454286
30
0
41
1
10
70.8898672404946
20
-0.106318868299269
30
0
41
1
10
70.8992625950637
20
-0.311612259787694
30
0
41
1
10
70.9110732743689
20
-0.569252160643515
30
0
41
1
10
70.9134372283133
20
-0.620793136389665
30
0
41
1
10
70.9181474729486
20
-0.723390948364056
30
0
41
1
10
70.9251961201802
20
-0.876773977457475
30
0
41
1
10
70.9322054458546
20
-1.02863273992258
30
0
41
1
10
70.9462032151403
20
-1.33034704081709
30
0
41
1
10
70.9555072612633
20
-1.52882392759031
30
0
41
1
10
70.9742377394087
20
-1.92047554544845
30
0
41
1
10
70.9836911481932
20
-2.11364935293977
30
0
41
1
10
70.9955885744299
20
-2.35172414550644
30
0
41
1
10
70.997970724904
20
-2.39916912219215
30
0
41
1
10
71.0027387730745
20
-2.49371548458731
30
0
41
1
10
71.0051279702199
20
-2.54088141546933
30
0
41
1
10
71.0122660170011
20
-2.68117202420311
30
0
41
1
10
71.0169899441913
20
-2.77319677382317
30
0
41
1
10
71.0310815509856
20
-3.04485394701098
30
0
41
1
10
71.0403667081308
20
-3.22008038721006
30
0
41
1
10
71.0590293714948
20
-3.55896643694783
30
0
41
1
10
71.0683868690444
20
-3.72262681206752
30
0
41
1
10
71.0777843001333
20
-3.88042708803584
30
0
0
SPLINE
5
11D
100
AcDbEntity
8
1
62
256
6
ByLayer
370
18
48
1
60
0
100
AcDbSpline
70
4
71
3
72
8
73
4
40
0
40
0
40
0
40
0
40
1
40
1
40
1
40
1
41
1
10
79.1516504660281
20
3.82765830672975
30
0
41
1
10
79.1738895150551
20
3.84102966262137
30
0
41
1
10
79.1960842578117
20
3.85400748053169
30
0
41
1
10
79.2182374409716
20
3.86659527526581
30
0
0
SPLINE
5
11E
100
AcDbEntity
8
1
62
256
6
ByLayer
370
18
48
1
60
0
100
AcDbSpline
70
4
71
3
72
10
73
6
40
0
40
0
40
0
40
0
40
0.5
40
0.5
40
1
40
1
40
1
40
1
41
1
10
79.2182374409716
20
3.86659527526578
30
0
41
1
10
79.3408375129028
20
3.75206176132619
30
0
41
1
10
79.463704460124
20
3.63611495751388
30
0
41
1
10
79.7101741220486
20
3.40170693430031
30
0
41
1
10
79.8337694201395
20
3.28324873296427
30
0
41
1
10
79.9578213583228
20
3.16363878187167
30
0
0
SPLINE
5
11F
100
AcDbEntity
8
1
62
256
6
ByLayer
370
18
48
1
60
0
100
AcDbSpline
70
4
71
3
72
51
73
47
40
0
40
0
40
0
40
0
40
0.250000000000009
40
0.250000000000009
40
0.312500000000014
40
0.312500000000014
40
0.343750000000023
40
0.343750000000023
40
0.375000000000032
40
0.375000000000032
40
0.406250000000041
40
0.406250000000041
40
0.43750000000005
40
0.43750000000005
40
0.453125000000054
40
0.453125000000054
40
0.468750000000059
40
0.468750000000059
40
0.500000000000068
40
0.500000000000068
40
0.562500000000086
40
0.562500000000086
40
0.593750000000096
40
0.593750000000096
40
0.625000000000105
40
0.656250000000115
40
0.656250000000115
40
0.671875000000119
40
0.671875000000119
40
0.687500000000124
40
0.687500000000124
40
0.750000000000124
40
0.750000000000124
40
0.765625000000129
40
0.765625000000129
40
0.781250000000134
40
0.781250000000134
40
0.812500000000124
40
0.812500000000124
40
0.828125000000111
40
0.828125000000111
40
0.843750000000099
40
0.843750000000099
40
0.875000000000074
40
0.875000000000074
40
1
40
1
40
1
40
1
41
1
10
79.9578213583228
20
3.1636387818717
30
0
41
1
10
80.0138448937295
20
3.05642395094969
30
0
41
1
10
80.0701141505469
20
2.95027279887364
30
0
41
1
10
80.1408090318661
20
2.81901915822044
30
0
41
1
10
80.1549664433092
20
2.79283927179961
30
0
41
1
10
80.1762318065815
20
2.75367670107946
30
0
41
1
10
80.1833454015015
20
2.74064123148645
30
0
41
1
10
80.1974802239669
20
2.7146019558734
30
0
41
1
10
80.2044125038924
20
2.70159441969173
30
0
41
1
10
80.2185052783428
20
2.67562380840013
30
0
41
1
10
80.225667652982
20
2.66266078595209
30
0
41
1
10
80.2411185366742
20
2.63681807893863
30
0
41
1
10
80.2494149808036
20
2.62393878268662
30
0
41
1
10
80.2629213712841
20
2.60469284749948
30
0
41
1
10
80.2675964242198
20
2.59828953559395
30
0
41
1
10
80.2772808692544
20
2.58550637885364
30
0
41
1
10
80.2823124571902
20
2.57909917478057
30
0
41
1
10
80.2976576276805
20
2.56015138470232
30
0
41
1
10
80.3082090175591
20
2.54787723530527
30
0
41
1
10
80.3406337879281
20
2.51191299119702
30
0
41
1
10
80.3632605483314
20
2.48906134541369
30
0
41
1
10
80.3986831891924
20
2.45644900605862
30
0
41
1
10
80.4107410865504
20
2.44587434179957
30
0
41
1
10
80.4348616198287
20
2.42582305887191
30
0
41
1
10
80.4591118669672
20
2.40674786868038
30
0
41
1
10
80.4835730033005
20
2.38945356560143
30
0
41
1
10
80.5019873245341
20
2.37715041764002
30
0
41
1
10
80.5081369175879
20
2.37316127842342
30
0
41
1
10
80.5204582440458
20
2.36541587716147
30
0
41
1
10
80.5266467629387
20
2.36165008316635
30
0
41
1
10
80.557331329414
20
2.3436256969982
30
0
41
1
10
80.581194209408
20
2.33165274972384
30
0
41
1
10
80.6097844994856
20
2.32080408488173
30
0
41
1
10
80.6154652614455
20
2.3188238563898
30
0
41
1
10
80.6265795363746
20
2.31530828856654
30
0
41
1
10
80.6320073148742
20
2.3137725105361
30
0
41
1
10
80.6478847298759
20
2.30985978935081
30
0
41
1
10
80.6579544421132
20
2.30813002325556
30
0
41
1
10
80.6716703301379
20
2.30796710521145
30
0
41
1
10
80.676033145885
20
2.30829236982134
30
0
41
1
10
80.6844610692666
20
2.30937967325147
30
0
41
1
10
80.6885067434254
20
2.31014344789608
30
0
41
1
10
80.7005657677262
20
2.31249472294129
30
0
41
1
10
80.7085844237761
20
2.31402441015345
30
0
41
1
10
80.7486989180734
20
2.32131494232095
30
0
41
1
10
80.7807294345796
20
2.32618749781952
30
0
41
1
10
80.8126853948918
20
2.33016396889391
30
0
0
SPLINE
5
120
100
AcDbEntity
8
1
62
256
6
ByLayer
370
18
48
1
60
0
100
AcDbSpline
70
4
71
3
72
105
73
101
40
0
40
0
40
0
40
0
40
0.0079520442384904
40
0.0079520442384904
40
0.0240168176146305
40
0.0240168176146305
40
0.0400815909907705
40
0.0400815909907705
40
0.0722111377430495
40
0.0722111377430495
40
0.104340684495328
40
0.104340684495328
40
0.112373071183398
40
0.112373071183398
40
0.120405457871467
40
0.120405457871467
40
0.136470231247606
40
0.136470231247606
40
0.168599777999885
40
0.168599777999885
40
0.184664551376025
40
0.184664551376025
40
0.200729324752164
40
0.200729324752164
40
0.216794098128303
40
0.216794098128303
40
0.232858871504443
40
0.232858871504443
40
0.264988418256723
40
0.264988418256723
40
0.297117965009003
40
0.297117965009003
40
0.313182738385143
40
0.313182738385143
40
0.329247511761283
40
0.329247511761283
40
0.361377058513563
40
0.361377058513563
40
0.393506605265844
40
0.393506605265844
40
0.409571378641984
40
0.409571378641984
40
0.425636152018124
40
0.425636152018124
40
0.457765698770404
40
0.457765698770404
40
0.489895245522684
40
0.489895245522684
40
0.505960018898825
40
0.505960018898825
40
0.522024792274965
40
0.522024792274965
40
0.554154339027245
40
0.554154339027245
40
0.570219112403385
40
0.570219112403385
40
0.586283885779526
40
0.586283885779526
40
0.602348659155665
40
0.602348659155665
40
0.618413432531805
40
0.618413432531805
40
0.650542979284087
40
0.650542979284087
40
0.666607752660228
40
0.666607752660228
40
0.682672526036369
40
0.682672526036369
40
0.698737299412511
40
0.698737299412511
40
0.706769686100582
40
0.706769686100582
40
0.714802072788653
40
0.746931619540935
40
0.746931619540935
40
0.762996392917077
40
0.762996392917077
40
0.779061166293218
40
0.779061166293218
40
0.811190713045501
40
0.811190713045501
40
0.843320259797783
40
0.843320259797783
40
0.851352646485853
40
0.851352646485853
40
0.859385033173923
40
0.859385033173923
40
0.875449806550062
40
0.875449806550062
40
0.939708900054618
40
0.939708900054618
40
0.955773673430756
40
0.955773673430756
40
0.971838446806895
40
0.971838446806895
40
0.987903220183033
40
0.987903220183033
40
0.995935606871103
40
0.995935606871103
40
1
40
1
40
1
40
1
41
1
10
64.5414324828625
20
-4.34999772873533
30
0
41
1
10
64.4826471032453
20
-4.34999561726744
30
0
41
1
10
64.4239084070323
20
-4.3493033463352
30
0
41
1
10
64.2465902354638
20
-4.34514351513732
30
0
41
1
10
64.1280298536369
20
-4.33957819809939
30
0
41
1
10
63.8911508257009
20
-4.32295500678319
30
0
41
1
10
63.77288297102
20
-4.31188759856414
30
0
41
1
10
63.4184757949381
20
-4.27041943788993
30
0
41
1
10
63.1826531671407
20
-4.23175419767887
30
0
41
1
10
62.7100239865881
20
-4.13268585955734
30
0
41
1
10
62.4732342140641
20
-4.07227155672626
30
0
41
1
10
62.1753510979337
20
-3.98354457948221
30
0
41
1
10
62.1156793190691
20
-3.9651397720823
30
0
41
1
10
61.996119987405
20
-3.92702000029718
30
0
41
1
10
61.9362181007176
20
-3.9072978947691
30
0
41
1
10
61.7564131986191
20
-3.84611637417993
30
0
41
1
10
61.6369824668307
20
-3.80287860515833
30
0
41
1
10
61.2797590619366
20
-3.66605042587281
30
0
41
1
10
61.0430052828843
20
-3.56535788977155
30
0
41
1
10
60.6885441768596
20
-3.40138613158692
30
0
41
1
10
60.57050290206
20
-3.34457394031921
30
0
41
1
10
60.3344164162333
20
-3.22685891194507
30
0
41
1
10
60.2163821639535
20
-3.16594497447622
30
0
41
1
10
59.9799539953936
20
-3.04037592853203
30
0
41
1
10
59.8616070671142
20
-2.97568260380106
30
0
41
1
10
59.6248329935891
20
-2.84228319037862
30
0
41
1
10
59.5063785995032
20
-2.77360097091631
30
0
41
1
10
59.1505998311332
20
-2.56173826414604
30
0
41
1
10
58.9127773383488
20
-2.41277140851594
30
0
41
1
10
58.4341880992958
20
-2.10098541525332
30
0
41
1
10
58.196414148455
20
-1.9401514054496
30
0
41
1
10
57.8403603022693
20
-1.69369181760868
30
0
41
1
10
57.7218110460677
20
-1.61063070836252
30
0
41
1
10
57.4851327338321
20
-1.44251812227631
30
0
41
1
10
57.3669825524477
20
-1.35749180652832
30
0
41
1
10
57.0127843485392
20
-1.09989912668522
30
0
41
1
10
56.7769957370149
20
-0.924808450176414
30
0
41
1
10
56.3043019501006
20
-0.570202669348618
30
0
41
1
10
56.0673911225119
20
-0.390694415425458
30
0
41
1
10
55.7097540796467
20
-0.119982646202061
30
0
41
1
10
55.5902165117521
20
-0.029432786136482
30
0
41
1
10
55.3505338131218
20
0.152380202491287
30
0
41
1
10
55.2311047634481
20
0.243034791357985
30
0
41
1
10
54.8738454460502
20
0.513817653641212
30
0
41
1
10
54.6370659050027
20
0.692869459820827
30
0
41
1
10
54.1644511040152
20
1.04568296698221
30
0
41
1
10
53.9285656999777
20
1.21937705875308
30
0
41
1
10
53.573836772115
20
1.47395105444352
30
0
41
1
10
53.4555234456716
20
1.55791757540362
30
0
41
1
10
53.2188768649588
20
1.72420629506971
30
0
41
1
10
53.1004968922796
20
1.80646921555521
30
0
41
1
10
52.7448470371176
20
2.05016498289629
30
0
41
1
10
52.5070850777725
20
2.20852621920616
30
0
41
1
10
52.1481268101491
20
2.43817537028457
30
0
41
1
10
52.0287810143405
20
2.51294225813217
30
0
41
1
10
51.7905819249704
20
2.65853823820999
30
0
41
1
10
51.6716677690847
20
2.72935615809041
30
0
41
1
10
51.4341211242845
20
2.86702618487317
30
0
41
1
10
51.3155559472295
20
2.93394902579553
30
0
41
1
10
51.0788787286646
20
3.0640240042853
30
0
41
1
10
50.9607331465668
20
3.12714083635103
30
0
41
1
10
50.6065387148963
20
3.31041074112122
30
0
41
1
10
50.3707550588809
20
3.42450175261249
30
0
41
1
10
50.0163046413635
20
3.58232157994689
30
0
41
1
10
49.898019372257
20
3.63270387082673
30
0
41
1
10
49.6608823688929
20
3.72877953734576
30
0
41
1
10
49.5419831824577
20
3.77444213726628
30
0
41
1
10
49.303539898102
20
3.86100513148676
30
0
41
1
10
49.1840727305122
20
3.90195420277644
30
0
41
1
10
49.0043861889684
20
3.95973574960948
30
0
41
1
10
48.9445516156606
20
3.97834201238135
30
0
41
1
10
48.8251268695723
20
4.0141985238686
30
0
41
1
10
48.5270594411053
20
4.10048745957937
30
0
41
1
10
48.2311063159991
20
4.16990974921501
30
0
41
1
10
47.876532367945
20
4.23676476468583
30
0
41
1
10
47.7584366693019
20
4.25630963121279
30
0
41
1
10
47.522184554808
20
4.28989595648858
30
0
41
1
10
47.4039328119322
20
4.3039215255331
30
0
41
1
10
47.0493005445522
20
4.33783476396951
30
0
41
1
10
46.8130259405277
20
4.34952291060787
30
0
41
1
10
46.3390225488536
20
4.35044846561925
30
0
41
1
10
46.1013130293434
20
4.33968246568026
30
0
41
1
10
45.8020846159961
20
4.31188601488446
30
0
41
1
10
45.7422548786334
20
4.30562069774669
30
0
41
1
10
45.6228028150341
20
4.2917182992085
30
0
41
1
10
45.5631494540405
20
4.28407782178451
30
0
41
1
10
45.3843377520572
20
4.25912765824614
30
0
41
1
10
45.2652790679224
20
4.23980949343238
30
0
41
1
10
44.6716277439067
20
4.129720267896
30
0
41
1
10
44.2013722910998
20
3.99842131276159
30
0
41
1
10
43.6102719298489
20
3.78482352429705
30
0
41
1
10
43.4919046588551
20
3.73962476775293
30
0
41
1
10
43.2545554863183
20
3.64447379474845
30
0
41
1
10
43.1355571329383
20
3.59454166203983
30
0
41
1
10
42.8972259923787
20
3.48966429354914
30
0
41
1
10
42.7778422673819
20
3.4347522650458
30
0
41
1
10
42.5982584560424
20
3.3487381909797
30
0
41
1
10
42.5384179495791
20
3.31950844028015
30
0
41
1
10
42.4484973951726
20
3.2747606065258
30
0
41
1
10
42.4183089712461
20
3.25959732207906
30
0
41
1
10
42.3881428479264
20
3.24430744408352
30
0
0
SPLINE
5
121
100
AcDbEntity
8
1
62
256
6
ByLayer
370
18
48
1
60
0
100
AcDbSpline
70
4
71
3
72
133
73
129
40
0
40
0
40
0
40
0
40
0.0095105853880052
40
0.0095105853880052
40
0.0190211707760104
40
0.0190211707760104
40
0.038042341552022
40
0.038042341552022
40
0.0475529269400284
40
0.0475529269400284
40
0.0570635123280348
40
0.0570635123280348
40
0.0760846831040477
40
0.0760846831040477
40
0.0951058538800605
40
0.0951058538800605
40
0.114127024656073
40
0.114127024656073
40
0.1521693662081
40
0.1521693662081
40
0.190211707760127
40
0.190211707760127
40
0.199722293148133
40
0.199722293148133
40
0.209232878536139
40
0.209232878536139
40
0.22825404931215
40
0.22825404931215
40
0.266296390864174
40
0.266296390864174
40
0.285317561640185
40
0.285317561640185
40
0.29482814702819
40
0.29482814702819
40
0.304338732416196
40
0.304338732416196
40
0.323359903192208
40
0.323359903192208
40
0.34238107396822
40
0.34238107396822
40
0.351891659356226
40
0.351891659356226
40
0.361402244744232
40
0.361402244744232
40
0.380423415520244
40
0.380423415520244
40
0.38993400090825
40
0.38993400090825
40
0.399444586296255
40
0.399444586296255
40
0.418465757072266
40
0.418465757072266
40
0.437486927848277
40
0.437486927848277
40
0.456508098624288
40
0.456508098624288
40
0.475529269400298
40
0.475529269400298
40
0.494550440176309
40
0.494550440176309
40
0.504061025564314
40
0.504061025564314
40
0.508816318258317
40
0.508816318258317
40
0.513571610952319
40
0.532592781728331
40
0.532592781728331
40
0.570635123280355
40
0.570635123280355
40
0.580145708668362
40
0.580145708668362
40
0.589656294056369
40
0.589656294056369
40
0.599166879444376
40
0.599166879444376
40
0.608677464832383
40
0.608677464832383
40
0.627698635608396
40
0.627698635608396
40
0.646719806384408
40
0.646719806384408
40
0.656230391772414
40
0.656230391772414
40
0.66574097716042
40
0.66574097716042
40
0.684762147936431
40
0.684762147936431
40
0.694272733324437
40
0.694272733324437
40
0.703783318712443
40
0.703783318712443
40
0.722804489488454
40
0.722804489488454
40
0.741825660264466
40
0.741825660264466
40
0.760846831040477
40
0.760846831040477
40
0.779868001816489
40
0.779868001816489
40
0.789378587204495
40
0.789378587204495
40
0.7988891725925
40
0.7988891725925
40
0.808399757980506
40
0.808399757980506
40
0.817910343368512
40
0.817910343368512
40
0.836931514144522
40
0.836931514144522
40
0.874973855696541
40
0.874973855696541
40
0.893995026472551
40
0.893995026472551
40
0.913016197248561
40
0.913016197248561
40
0.95105853880058
40
0.95105853880058
40
0.955813831494583
40
0.955813831494583
40
0.960569124188585
40
0.960569124188585
40
0.970079709576589
40
0.970079709576589
40
0.979590294964593
40
0.979590294964593
40
0.989100880352596
40
0.989100880352596
40
1
40
1
40
1
40
1
41
1
10
38.9353389518029
20
4.31514589188052
30
0
41
1
10
39.0036943977927
20
4.3085674678851
30
0
41
1
10
39.0719269884988
20
4.30104859443659
30
0
41
1
10
39.2082952485766
20
4.28414497931922
30
0
41
1
10
39.2764949852728
20
4.27477358635073
30
0
41
1
10
39.4814399106698
20
4.24400438347976
30
0
41
1
10
39.6184098923201
20
4.21993354490925
30
0
41
1
10
39.8241848800574
20
4.178505250574
30
0
41
1
10
39.8928368360783
20
4.16380942278644
30
0
41
1
10
40.0302621841815
20
4.13264473151452
30
0
41
1
10
40.0990764457881
20
4.1161655060433
30
0
41
1
10
40.3054120543025
20
4.06412221584941
30
0
41
1
10
40.4424592862002
20
4.02605456513734
30
0
41
1
10
40.7156155833436
20
3.94329699611012
30
0
41
1
10
40.8517177338269
20
3.898603523064
30
0
41
1
10
41.1230153048912
20
3.80261091119567
30
0
41
1
10
41.2581414406604
20
3.75124980991018
30
0
41
1
10
41.6641384053261
20
3.58860660753851
30
0
41
1
10
41.9352311251356
20
3.46859902454713
30
0
41
1
10
42.4784825407421
20
3.20594323091663
30
0
41
1
10
42.7506078632543
20
3.06325750069985
30
0
41
1
10
43.0918302872924
20
2.87054289300286
30
0
41
1
10
43.1601177258821
20
2.83126873480069
30
0
41
1
10
43.2968034250593
20
2.75125490847398
30
0
41
1
10
43.3653016996588
20
2.71048289715191
30
0
41
1
10
43.5706003498999
20
2.58694416756595
30
0
41
1
10
43.7072962982858
20
2.50291037342697
30
0
41
1
10
44.1165503439157
20
2.24556658731044
30
0
41
1
10
44.3885186297548
20
2.06729920769041
30
0
41
1
10
44.795612331797
20
1.79056927150512
30
0
41
1
10
44.9311541135006
20
1.69675221607307
30
0
41
1
10
45.1341815586804
20
1.5535832989448
30
0
41
1
10
45.2018108964535
20
1.50545395570947
30
0
41
1
10
45.3369910225244
20
1.40839333079896
30
0
41
1
10
45.404516815722
20
1.35942961905349
30
0
41
1
10
45.6073447021729
20
1.21179597499733
30
0
41
1
10
45.7430327401794
20
1.11256316583285
30
0
41
1
10
46.0151615499786
20
0.912254002366041
30
0
41
1
10
46.1516401816019
20
0.811225959798122
30
0
41
1
10
46.3570431116847
20
0.658442886434642
30
0
41
1
10
46.42562419281
20
0.607307159438022
30
0
41
1
10
46.5630152336801
20
0.504615958760695
30
0
41
1
10
46.6318634532209
20
0.453030051976725
30
0
41
1
10
46.8377716283179
20
0.298364641486472
30
0
41
1
10
46.9745134907659
20
0.195162075959615
30
0
41
1
10
47.1789123789687
20
0.0403230786057804
30
0
41
1
10
47.2469267713972
20
-0.0112951525739504
30
0
41
1
10
47.3827043105913
20
-0.114560977652928
30
0
41
1
10
47.4504374042209
20
-0.166248945164824
30
0
41
1
10
47.6534826857387
20
-0.321054844722369
30
0
41
1
10
47.7889798326699
20
-0.423461100186614
30
0
41
1
10
48.0600188703207
20
-0.627004769814931
30
0
41
1
10
48.1955966184081
20
-0.72809368535377
30
0
41
1
10
48.4669440628955
20
-0.928816157461682
30
0
41
1
10
48.6027134695844
20
-1.02845037910259
30
0
41
1
10
48.8744115542806
20
-1.22629990829296
30
0
41
1
10
49.0103095674927
20
-1.32455471492869
30
0
41
1
10
49.2823022777764
20
-1.51957011638612
30
0
41
1
10
49.4184425442167
20
-1.61627180441403
30
0
41
1
10
49.6230938484581
20
-1.75980378964204
30
0
41
1
10
49.6914448665489
20
-1.80731774783217
30
0
41
1
10
49.7942766129038
20
-1.87796179679802
30
0
41
1
10
49.828612982221
20
-1.90141983718752
30
0
41
1
10
49.8972170235004
20
-1.94803011418324
30
0
41
1
10
50.0686438884682
20
-2.06385297756287
30
0
41
1
10
50.2396560112312
20
-2.17620908471645
30
0
41
1
10
50.6491110391868
20
-2.43959897409326
30
0
41
1
10
50.9208696186851
20
-2.6067571705
30
0
41
1
10
51.2593728311373
20
-2.80486877726847
30
0
41
1
10
51.3270109546103
20
-2.84395000847442
30
0
41
1
10
51.4621565462557
20
-2.92102683066244
30
0
41
1
10
51.5296465494382
20
-2.95903886039525
30
0
41
1
10
51.6646611350843
20
-3.03380462234077
30
0
41
1
10
51.7321977474136
20
-3.07054697811296
30
0
41
1
10
51.867470187569
20
-3.14262231760168
30
0
41
1
10
51.9352001373802
20
-3.17796154805245
30
0
41
1
10
52.1386770099911
20
-3.28188939643238
30
0
41
1
10
52.2747153222271
20
-3.34838735434295
30
0
41
1
10
52.5474950408475
20
-3.47587053780506
30
0
41
1
10
52.6842067391384
20
-3.53687942740061
30
0
41
1
10
52.8898175714139
20
-3.62417855448911
30
0
41
1
10
52.9584480561995
20
-3.65257306681161
30
0
41
1
10
53.0959136263553
20
-3.7079219092679
30
0
41
1
10
53.1645506542508
20
-3.73479530157201
30
0
41
1
10
53.3699551564468
20
-3.81293109511674
30
0
41
1
10
53.5063046622119
20
-3.86175865540173
30
0
41
1
10
53.7099644213918
20
-3.93009577342426
30
0
41
1
10
53.7777500880078
20
-3.95202895546339
30
0
41
1
10
53.9133690099758
20
-3.99408046064087
30
0
41
1
10
53.9811754046879
20
-4.01421542480205
30
0
41
1
10
54.184599412134
20
-4.07197523440115
30
0
41
1
10
54.3202294552958
20
-4.10695427401586
30
0
41
1
10
54.5915508775186
20
-4.16995768024549
30
0
41
1
10
54.7272420058188
20
-4.19798404986125
30
0
41
1
10
54.9985830410943
20
-4.24712476751307
30
0
41
1
10
55.1342088808858
20
-4.26824184063776
30
0
41
1
10
55.4056082313935
20
-4.30340585567046
30
0
41
1
10
55.5414031328922
20
-4.31745092019182
30
0
41
1
10
55.745279030032
20
-4.33308795690061
30
0
41
1
10
55.8132591600439
20
-4.3373941511712
30
0
41
1
10
55.9494653183981
20
-4.34415333863913
30
0
41
1
10
56.0177107748542
20
-4.34660583360375
30
0
41
1
10
56.1545323187987
20
-4.34965195872408
30
0
41
1
10
56.223145009503
20
-4.35024605713042
30
0
41
1
10
56.3604796118073
20
-4.34956981658323
30
0
41
1
10
56.4290543022696
20
-4.34830141449152
30
0
41
1
10
56.634529015587
20
-4.34174583459688
30
0
41
1
10
56.7711833402435
20
-4.33371168100948
30
0
41
1
10
57.1802606851295
20
-4.29883977928884
30
0
41
1
10
57.451762055059
20
-4.26127431285997
30
0
41
1
10
57.8573917489848
20
-4.18343739423384
30
0
41
1
10
57.992348376833
20
-4.15388659113418
30
0
41
1
10
58.2629688812608
20
-4.08805728405329
30
0
41
1
10
58.3985930069291
20
-4.0517803286325
30
0
41
1
10
58.8063863068359
20
-3.93293441174413
30
0
41
1
10
59.0793483987284
20
-3.84032515717061
30
0
41
1
10
59.3879399429711
20
-3.72075777707951
30
0
41
1
10
59.4222487557416
20
-3.70725785320087
30
0
41
1
10
59.490906438522
20
-3.67982380988624
30
0
41
1
10
59.5252638145412
20
-3.66588591933402
30
0
41
1
10
59.6281456004317
20
-3.62351561994279
30
0
41
1
10
59.6965536823056
20
-3.59449152698176
30
0
41
1
10
59.8330666798784
20
-3.53493414442241
30
0
41
1
10
59.9011726108777
20
-3.50440160493437
30
0
41
1
10
60.037149400699
20
-3.44188516983397
30
0
41
1
10
60.1050057885493
20
-3.40988798249586
30
0
41
1
10
60.2506915855276
20
-3.33994459040773
30
0
41
1
10
60.3285063956891
20
-3.30179535484513
30
0
41
1
10
60.4063096714221
20
-3.2628349786026
30
0
0
SPLINE
5
122
100
AcDbEntity
8
1
62
256
6
ByLayer
370
18
48
1
60
0
100
AcDbSpline
70
4
71
3
72
35
73
31
40
0
40
0
40
0
40
0
40
0.037239243830424
40
0.037239243830424
40
0.0757496740771972
40
0.0757496740771972
40
0.152770534570743
40
0.152770534570743
40
0.191280964817516
40
0.191280964817516
40
0.22979139506429
40
0.22979139506429
40
0.306812255557836
40
0.306812255557836
40
0.326067470681229
40
0.326067470681229
40
0.345322685804623
40
0.345322685804623
40
0.383833116051384
40
0.383833116051384
40
0.403088331174765
40
0.403088331174765
40
0.422343546298147
40
0.422343546298147
40
0.460853976544929
40
0.460853976544929
40
0.537874837038511
40
0.691916558025674
40
0.691916558025674
40
1
40
1
40
1
40
1
41
1
10
74.826004850374
20
4.97202191838639
30
0
41
1
10
74.8354309104701
20
4.96715162068028
30
0
41
1
10
74.8450315181549
20
4.96274923229265
30
0
41
1
10
74.864917919284
20
4.95477316371594
30
0
41
1
10
74.8752441558496
20
4.95122497736878
30
0
41
1
10
74.9066466131323
20
4.94235127464518
30
0
41
1
10
74.9277934678487
20
4.93899151407444
30
0
41
1
10
74.959749879932
20
4.93753187909007
30
0
41
1
10
74.9704411586767
20
4.93763646828444
30
0
41
1
10
74.9918938317269
20
4.9390606117943
30
0
41
1
10
75.0026837463685
20
4.94038419081477
30
0
41
1
10
75.0349686005162
20
4.9463530030456
30
0
41
1
10
75.0559754801384
20
4.95283963160747
30
0
41
1
10
75.081305369178
20
4.96522696048223
30
0
41
1
10
75.0863258988017
20
4.96791319954914
30
0
41
1
10
75.0962739519586
20
4.97370660777989
30
0
41
1
10
75.1012175423349
20
4.97682538472338
30
0
41
1
10
75.1157198413557
20
4.98671473850189
30
0
41
1
10
75.1250088775805
20
4.99398830555521
30
0
41
1
10
75.1381941552822
20
5.00624624920974
30
0
41
1
10
75.1424492346859
20
5.01058542377763
30
0
41
1
10
75.1506152602222
20
5.0198885797713
30
0
41
1
10
75.1545220935439
20
5.02486023127165
30
0
41
1
10
75.1658622502414
20
5.04045702688185
30
0
41
1
10
75.1728441046463
20
5.05165359565115
30
0
41
1
10
75.1939099575447
20
5.08482692437457
30
0
41
1
10
75.2360123763848
20
5.15091852189479
30
0
41
1
10
75.2780159371693
20
5.21627242461747
30
0
41
1
10
75.3618580772086
20
5.3460559582854
30
0
41
1
10
75.4175157964118
20
5.43134616331449
30
0
41
1
10
75.4729193267958
20
5.51529972795385
30
0
0
SPLINE
5
123
100
AcDbEntity
8
1
62
256
6
ByLayer
370
18
48
1
60
0
100
AcDbSpline
70
4
71
3
72
10
73
6
40
0
40
0
40
0
40
0
40
0.5
40
0.5
40
1
40
1
40
1
40
1
41
1
10
75.4729193267958
20
5.51529972795387
30
0
41
1
10
75.5206548697984
20
5.58763390895803
30
0
41
1
10
75.5681999857966
20
5.6589713249958
30
0
41
1
10
75.6628605485688
20
5.79951256036014
30
0
41
1
10
75.7099763856242
20
5.86871732964053
30
0
41
1
10
75.7569038882577
20
5.93686214010657
30
0
0
SPLINE
5
124
100
AcDbEntity
8
1
62
256
6
ByLayer
370
18
48
1
60
0
100
AcDbSpline
70
4
71
3
72
8
73
4
40
0
40
0
40
0
40
0
40
1
40
1
40
1
40
1
41
1
10
75.9395252001922
20
5.8927534500005
30
0
41
1
10
75.8787029795384
20
5.90844071971477
30
0
41
1
10
75.8178310038201
20
5.92314517576244
30
0
41
1
10
75.7569038882577
20
5.93686214010657
30
0
0
SPLINE
5
125
100
AcDbEntity
8
1
62
256
6
ByLayer
370
18
48
1
60
0
100
AcDbSpline
70
4
71
3
72
62
73
58
40
0
40
0
40
0
40
0
40
0.0312499999999802
40
0.0312499999999802
40
0.0624999999999603
40
0.0624999999999603
40
0.124999999999921
40
0.124999999999921
40
0.249999999999841
40
0.249999999999841
40
0.374999999999762
40
0.374999999999762
40
0.437499999999725
40
0.437499999999725
40
0.468749999999707
40
0.468749999999707
40
0.484374999999698
40
0.484374999999698
40
0.499999999999689
40
0.499999999999689
40
0.51562499999968
40
0.51562499999968
40
0.53124999999967
40
0.53124999999967
40
0.562499999999653
40
0.562499999999653
40
0.578124999999644
40
0.578124999999644
40
0.593749999999636
40
0.593749999999636
40
0.624999999999629
40
0.624999999999629
40
0.640624999999626
40
0.640624999999626
40
0.656249999999623
40
0.656249999999623
40
0.687499999999604
40
0.687499999999604
40
0.703124999999595
40
0.703124999999595
40
0.718749999999586
40
0.718749999999586
40
0.734374999999577
40
0.734374999999577
40
0.742187499999577
40
0.742187499999577
40
0.749999999999578
40
0.749999999999578
40
0.765624999999589
40
0.765624999999589
40
0.773437499999598
40
0.773437499999598
40
0.781249999999607
40
0.812499999999662
40
0.874999999999777
40
0.874999999999777
40
1
40
1
40
1
40
1
41
1
10
75.939525200191
20
5.89275344998927
30
0
41
1
10
75.9516742353254
20
5.86963544231938
30
0
41
1
10
75.9638100122957
20
5.84644289816635
30
0
41
1
10
75.9881709806214
20
5.80002722294404
30
0
41
1
10
76.000383668062
20
5.77679119841633
30
0
41
1
10
76.037088443286
20
5.70696635908973
30
0
41
1
10
76.0616288710227
20
5.66026109408833
30
0
41
1
10
76.1353368441251
20
5.5196647575884
30
0
41
1
10
76.1846416172765
20
5.42529708540769
30
0
41
1
10
76.2836535127035
20
5.23531230556748
30
0
41
1
10
76.3333608312626
20
5.13969589959373
30
0
41
1
10
76.4082933060614
20
4.99534868630235
30
0
41
1
10
76.4333364004774
20
4.94707221317123
30
0
41
1
10
76.4709882534581
20
4.87445387039722
30
0
41
1
10
76.4835514929623
20
4.85021750826667
30
0
41
1
10
76.5024160528535
20
4.81381809684322
30
0
41
1
10
76.5087323449965
20
4.80169798185716
30
0
41
1
10
76.5212112648308
20
4.77731042051528
30
0
41
1
10
76.5273610193786
20
4.76503239904139
30
0
41
1
10
76.5398648506175
20
4.74062501292542
30
0
41
1
10
76.546216954355
20
4.7284940136378
30
0
41
1
10
76.5597596870049
20
4.70490356914149
30
0
41
1
10
76.5670022666775
20
4.69340419110372
30
0
41
1
10
76.5901477456747
20
4.6606135591831
30
0
41
1
10
76.6071504633378
20
4.64146473589503
30
0
41
1
10
76.6341690141357
20
4.61532709835777
30
0
41
1
10
76.6434308899188
20
4.6070513700723
30
0
41
1
10
76.662423400972
20
4.59130315138538
30
0
41
1
10
76.6721947764939
20
4.58380532732861
30
0
41
1
10
76.7018253602427
20
4.56281554049084
30
0
41
1
10
76.7220299800472
20
4.55074334860672
30
0
41
1
10
76.7530444143746
20
4.53590768114788
30
0
41
1
10
76.7635031123301
20
4.53152167357285
30
0
41
1
10
76.7846443753547
20
4.5238293623656
30
0
41
1
10
76.7953334455657
20
4.52052781023335
30
0
41
1
10
76.8271063814047
20
4.51240913069586
30
0
41
1
10
76.8481079278187
20
4.50924138930529
30
0
41
1
10
76.8792420608625
20
4.50829976921332
30
0
41
1
10
76.8895579391668
20
4.50863076931151
30
0
41
1
10
76.9100270590666
20
4.5108896869163
30
0
41
1
10
76.9202189151665
20
4.51287651275442
30
0
41
1
10
76.9398528217963
20
4.51843266717424
30
0
41
1
10
76.9493671225185
20
4.52198748379411
30
0
41
1
10
76.9631479099114
20
4.52856458867376
30
0
41
1
10
76.9676618396846
20
4.53095878231647
30
0
41
1
10
76.976481385454
20
4.53627941372875
30
0
41
1
10
76.9808047536203
20
4.5392444769663
30
0
41
1
10
76.9930933714167
20
4.54904119631357
30
0
41
1
10
77.0003729174213
20
4.55682210244098
30
0
41
1
10
77.0108059025839
20
4.56912601485445
30
0
41
1
10
77.0142073941489
20
4.57332588382053
30
0
41
1
10
77.0210268085325
20
4.58168502819456
30
0
41
1
10
77.0380722079069
20
4.60254357305124
30
0
41
1
10
77.0823491593803
20
4.65627282999284
30
0
41
1
10
77.1231188619697
20
4.70478661047352
30
0
41
1
10
77.2044938931711
20
4.80044493141759
30
0
41
1
10
77.2585171061268
20
4.86239878201647
30
0
41
1
10
77.3123002407007
20
4.92247995431521
30
0
0
SPLINE
5
126
100
AcDbEntity
8
1
62
256
6
ByLayer
370
18
48
1
60
0
100
AcDbSpline
70
4
71
3
72
10
73
6
40
0
40
0
40
0
40
0
40
0.5
40
0.5
40
1
40
1
40
1
40
1
41
1
10
77.3123002407007
20
4.92247995431526
30
0
41
1
10
77.3600922827103
20
4.97586847347171
30
0
41
1
10
77.4076931999518
20
5.02777563143894
30
0
41
1
10
77.5024652101469
20
5.12855690661206
30
0
41
1
10
77.5496374644004
20
5.17743314935996
30
0
41
1
10
77.5966224232355
20
5.22481155299229
30
0
0
SPLINE
5
127
100
AcDbEntity
8
1
62
256
6
ByLayer
370
18
48
1
60
0
100
AcDbSpline
70
4
71
3
72
8
73
4
40
0
40
0
40
0
40
0
40
1
40
1
40
1
40
1
41
1
10
77.7791129120874
20
5.12378243722756
30
0
41
1
10
77.7183488275578
20
5.15828504862199
30
0
41
1
10
77.6574026050719
20
5.19202714194182
30
0
41
1
10
77.5966224232355
20
5.22481155299232
30
0
0
SPLINE
5
128
100
AcDbEntity
8
1
62
256
6
ByLayer
370
18
48
1
60
0
100
AcDbSpline
70
4
71
3
72
60
73
56
40
0
40
0
40
0
40
0
40
0.0312500000000097
40
0.0312500000000097
40
0.0625000000000194
40
0.0625000000000194
40
0.125000000000031
40
0.125000000000031
40
0.250000000000054
40
0.250000000000054
40
0.375000000000076
40
0.375000000000076
40
0.437500000000091
40
0.468750000000095
40
0.468750000000095
40
0.484375000000094
40
0.484375000000094
40
0.500000000000093
40
0.500000000000093
40
0.531250000000084
40
0.531250000000084
40
0.546875000000079
40
0.546875000000079
40
0.554687500000077
40
0.554687500000077
40
0.562500000000075
40
0.562500000000075
40
0.593750000000065
40
0.593750000000065
40
0.609375000000054
40
0.609375000000054
40
0.625000000000044
40
0.625000000000044
40
0.656250000000023
40
0.656250000000023
40
0.671875000000019
40
0.671875000000019
40
0.687500000000014
40
0.687500000000014
40
0.718750000000017
40
0.718750000000017
40
0.734375000000018
40
0.734375000000018
40
0.75000000000002
40
0.75000000000002
40
0.757812500000021
40
0.757812500000021
40
0.765625000000022
40
0.765625000000022
40
0.781250000000023
40
0.781250000000023
40
0.812500000000019
40
0.87500000000001
40
0.87500000000001
40
1
40
1
40
1
40
1
41
1
10
77.7791129120874
20
5.12378243722756
30
0
41
1
10
77.791060957723
20
5.09907022258588
30
0
41
1
10
77.8029967639066
20
5.07433670149777
30
0
41
1
10
77.8269550682615
20
5.02489547740046
30
0
41
1
10
77.8389658106098
20
5.00018035601815
30
0
41
1
10
77.8750541297336
20
4.92605442162633
30
0
41
1
10
77.8991796229784
20
4.87665061069026
30
0
41
1
10
77.9716659673388
20
4.72842986616888
30
0
41
1
10
78.0201717580712
20
4.62962280375314
30
0
41
1
10
78.1176133712757
20
4.43205315152068
30
0
41
1
10
78.1665572494469
20
4.33327606685268
30
0
41
1
10
78.2402328823024
20
4.18541912542284
30
0
41
1
10
78.2771430200257
20
4.11155298707982
30
0
41
1
10
78.3141728822052
20
4.03778642141353
30
0
41
1
10
78.3327087441698
20
4.00092026557573
30
0
41
1
10
78.3388915391619
20
3.98863473125044
30
0
41
1
10
78.3512614397794
20
3.96406809973203
30
0
41
1
10
78.3573929362867
20
3.95176026058701
30
0
41
1
10
78.3756799600368
20
3.9147885730506
30
0
41
1
10
78.387805515845
20
3.89011376044428
30
0
41
1
10
78.4090048946685
20
3.85455715908739
30
0
41
1
10
78.4165546054062
20
3.84293862930258
30
0
41
1
10
78.4286750515794
20
3.82589554616601
30
0
41
1
10
78.4328453975445
20
3.82027745777268
30
0
41
1
10
78.441433350584
20
3.80916083360918
30
0
41
1
10
78.4458535826458
20
3.80365947663873
30
0
41
1
10
78.4681728548391
20
3.77681320794207
30
0
41
1
10
78.4869593432753
20
3.75701561519307
30
0
41
1
10
78.5162127601119
20
3.72927656971743
30
0
41
1
10
78.5261499563417
20
3.72036994067841
30
0
41
1
10
78.5464018352767
20
3.70325639663375
30
0
41
1
10
78.5567667988687
20
3.69501344328484
30
0
41
1
10
78.5880427796002
20
3.67176472033577
30
0
41
1
10
78.6091102596457
20
3.65831645418442
30
0
41
1
10
78.6409511146213
20
3.64094921000734
30
0
41
1
10
78.6516046514213
20
3.63562619856518
30
0
41
1
10
78.6729858054128
20
3.62593947438955
30
0
41
1
10
78.6837674700299
20
3.62155684512752
30
0
41
1
10
78.7157622113366
20
3.61017613818621
30
0
41
1
10
78.7365994503237
20
3.60488353295088
30
0
41
1
10
78.7667939171264
20
3.60163585056483
30
0
41
1
10
78.776755174531
20
3.60130911859284
30
0
41
1
10
78.7958804968871
20
3.60221753291125
30
0
41
1
10
78.8050823111176
20
3.60338882479726
30
0
41
1
10
78.8181286149059
20
3.60665935398691
30
0
41
1
10
78.8223363976238
20
3.60803312423528
30
0
41
1
10
78.8304148142414
20
3.61146121114896
30
0
41
1
10
78.8342850126744
20
3.61351721868107
30
0
41
1
10
78.845543638276
20
3.62037598215554
30
0
41
1
10
78.8524604780712
20
3.62577228740974
30
0
41
1
10
78.8734655575616
20
3.64145152792392
30
0
41
1
10
78.9154457893403
20
3.6723191387087
30
0
41
1
10
78.9573254803915
20
3.70175766465925
30
0
41
1
10
79.0409182240059
20
3.75881748142334
30
0
41
1
10
79.0964163649932
20
3.79444848640898
30
0
41
1
10
79.1516504660281
20
3.82765830672975
30
0
0
SPLINE
5
129
100
AcDbEntity
8
1
62
256
6
ByLayer
370
18
48
1
60
0
100
AcDbSpline
70
4
71
3
72
28
73
24
40
0
40
0
40
0
40
0
40
0.125000000000001
40
0.125000000000001
40
0.187500000000001
40
0.187500000000001
40
0.250000000000001
40
0.250000000000001
40
0.375000000000002
40
0.375000000000002
40
0.500000000000003
40
0.500000000000003
40
0.562500000000003
40
0.562500000000003
40
0.593750000000003
40
0.593750000000003
40
0.625000000000003
40
0.625000000000003
40
0.750000000000002
40
0.750000000000002
40
0.875000000000001
40
0.875000000000001
40
1
40
1
40
1
40
1
41
1
10
67.5812641948721
20
-0.498807115554399
30
0
41
1
10
67.57176706802
20
-0.295477293632672
30
0
41
1
10
67.5621682458257
20
-0.0911328565399856
30
0
41
1
10
67.5478817875496
20
0.216949857458871
30
0
41
1
10
67.5431405169488
20
0.319921333384713
30
0
41
1
10
67.5337076243937
20
0.526336665191508
30
0
41
1
10
67.5290554103376
20
0.62891560086706
30
0
41
1
10
67.5152199556238
20
0.934803862500189
30
0
41
1
10
67.5061402151269
20
1.13626841048972
30
0
41
1
10
67.4876268167814
20
1.53434613702893
30
0
41
1
10
67.4782581300315
20
1.73096221985657
30
0
41
1
10
67.464086258566
20
2.02221743881432
30
0
41
1
10
67.45934235922
20
2.11868987279331
30
0
41
1
10
67.4522000366166
20
2.26246428092071
30
0
41
1
10
67.4498148233907
20
2.31023329739733
30
0
41
1
10
67.4450357020277
20
2.40545621820024
30
0
41
1
10
67.4426418170945
20
2.45290875202633
30
0
41
1
10
67.4307195521005
20
2.68801685832455
30
0
41
1
10
67.4212809562626
20
2.8703323507865
30
0
41
1
10
67.402534349655
20
3.22376851374395
30
0
41
1
10
67.3932276053369
20
3.39488829514431
30
0
41
1
10
67.3745624854218
20
3.72592442013087
30
0
41
1
10
67.3651747655953
20
3.88584060861427
30
0
41
1
10
67.3557082553573
20
4.03997963025628
30
0
0
SPLINE
5
12A
100
AcDbEntity
8
1
62
256
6
ByLayer
370
18
48
1
60
0
100
AcDbSpline
70
4
71
3
72
29
73
25
40
0
40
0
40
0
40
0
40
0.125
40
0.125
40
0.1875
40
0.1875
40
0.21875
40
0.21875
40
0.25
40
0.25
40
0.374999999999999
40
0.374999999999999
40
0.499999999999999
40
0.499999999999999
40
0.624999999999999
40
0.624999999999999
40
0.656249999999999
40
0.656249999999999
40
0.687499999999999
40
0.749999999999999
40
0.749999999999999
40
0.875
40
0.875
40
1
40
1
40
1
40
1
41
1
10
71.2603123791631
20
-4.02747035929821
30
0
41
1
10
71.2509782152905
20
-3.87458369653245
30
0
41
1
10
71.2416118799875
20
-3.7150491435122
30
0
41
1
10
71.2274800518692
20
-3.46568509369556
30
0
41
1
10
71.222755648043
20
-3.3808835606508
30
0
41
1
10
71.2156426890216
20
-3.25112012787074
30
0
41
1
10
71.2132672967611
20
-3.20743858236818
30
0
41
1
10
71.2085065620061
20
-3.11921189071714
30
0
41
1
10
71.2061190060206
20
-3.07462427379062
30
0
41
1
10
71.1942195073434
20
-2.85075614830751
30
0
41
1
10
71.1847767977687
20
-2.66784416668653
30
0
41
1
10
71.1659500083333
20
-2.2946284845799
30
0
41
1
10
71.1565687920384
20
-2.10432405147498
30
0
41
1
10
71.137837212129
20
-1.71633093258444
30
0
41
1
10
71.1284871203469
20
-1.51864276237308
30
0
41
1
10
71.1167531191695
20
-1.26678155595059
30
0
41
1
10
71.1144010105442
20
-1.21611060095859
30
0
41
1
10
71.109702831823
20
-1.114578115803
30
0
41
1
10
71.1026749993653
20
-0.962220183995839
30
0
41
1
10
71.09569347993
20
-0.809687344091913
30
0
41
1
10
71.0817569107106
20
-0.504394023248949
30
0
41
1
10
71.0725020989885
20
-0.300562141088164
30
0
41
1
10
71.0538514755338
20
0.107691028930361
30
0
41
1
10
71.0444371957442
20
0.31211145229318
30
0
41
1
10
71.0348791555178
20
0.516828959477294
30
0
0
SPLINE
5
12B
100
AcDbEntity
8
1
62
256
6
ByLayer
370
13
48
1
60
0
100
AcDbSpline
70
4
71
3
72
10
73
6
40
0
40
0
40
0
40
0
40
0.227369289394172
40
0.68240477188322
40
1
40
1
40
1
40
1
41
1
10
72.6238939761592
20
-4.53525598492638
30
0
41
1
10
72.6071469998648
20
-4.33746361906449
30
0
41
1
10
72.5571850977083
20
-3.67404814476686
30
0
41
1
10
72.4854695867403
20
-2.45220213584727
30
0
41
1
10
72.430143553574
20
-1.37723120287302
30
0
41
1
10
72.407336807369
20
-0.924917458595075
30
0
0
SPLINE
5
12C
100
AcDbEntity
8
1
62
256
6
ByLayer
370
18
48
1
60
0
100
AcDbSpline
70
4
71
3
72
44
73
40
40
0
40
0
40
0
40
0
40
0.011811409533819
40
0.011811409533819
40
0.058868009079842
40
0.058868009079842
40
0.105924608625865
40
0.105924608625865
40
0.129452908398877
40
0.129452908398877
40
0.152981208171888
40
0.152981208171888
40
0.200037807717911
40
0.200037807717911
40
0.247094407263934
40
0.247094407263934
40
0.270622707036946
40
0.270622707036946
40
0.294151006809957
40
0.294151006809957
40
0.317679306582969
40
0.317679306582969
40
0.341207606355981
40
0.341207606355981
40
0.352971756242481
40
0.352971756242481
40
0.364735906128981
40
0.364735906128981
40
0.38826420590198
40
0.435320805447979
40
0.623547203631986
40
0.623547203631986
40
0.811773601815993
40
0.811773601815993
40
0.905886800907997
40
0.905886800907997
40
0.952943400453998
40
0.952943400453998
40
1
40
1
40
1
40
1
41
1
10
75.914257591624
20
-4.99937893493168
30
0
41
1
10
75.9100480487337
20
-4.99600689649986
30
0
41
1
10
75.9057741005207
20
-4.99275039152147
30
0
41
1
10
75.8842702248463
20
-4.97719907361724
30
0
41
1
10
75.8662523284729
20
-4.9669132266059
30
0
41
1
10
75.8287700052516
20
-4.95016991071483
30
0
41
1
10
75.8093323110595
20
-4.94363561098078
30
0
41
1
10
75.7791302985634
20
-4.93670357704426
30
0
41
1
10
75.7688934437012
20
-4.9348875427284
30
0
41
1
10
75.7484186030584
20
-4.93238209902717
30
0
41
1
10
75.7381368330872
20
-4.93168067732242
30
0
41
1
10
75.7071581255259
20
-4.9314387225767
30
0
41
1
10
75.6862963471695
20
-4.93382726322744
30
0
41
1
10
75.6443875422977
20
-4.94399056914671
30
0
41
1
10
75.6239103431387
20
-4.95154958316425
30
0
41
1
10
75.5941373654024
20
-4.96749856934261
30
0
41
1
10
75.5842990705155
20
-4.97365842058525
30
0
41
1
10
75.5656759748126
20
-4.98775973362396
30
0
41
1
10
75.556868364105
20
-4.99575329010929
30
0
41
1
10
75.5403875691315
20
-5.01386045557857
30
0
41
1
10
75.5326929674017
20
-5.02406189627752
30
0
41
1
10
75.5184017166972
20
-5.04545520857468
30
0
41
1
10
75.5116896200412
20
-5.05659907265388
30
0
41
1
10
75.5016100309871
20
-5.07327497089011
30
0
41
1
10
75.4982549363542
20
-5.07883410639218
30
0
41
1
10
75.4914796151956
20
-5.08987297289559
30
0
41
1
10
75.4880577081371
20
-5.09535088233412
30
0
41
1
10
75.4777995463067
20
-5.11177870041442
30
0
41
1
10
75.4572928859187
20
-5.14458865915947
30
0
41
1
10
75.3822049171301
20
-5.26438695215202
30
0
41
1
10
75.3142543273792
20
-5.37173147536831
30
0
41
1
10
75.206146282063
20
-5.5410130830742
30
0
41
1
10
75.1523569720341
20
-5.62448361228084
30
0
41
1
10
75.072005407135
20
-5.74794412563591
30
0
41
1
10
75.0452702904835
20
-5.78879803288228
30
0
41
1
10
75.0052681307062
20
-5.84967342499118
30
0
41
1
10
74.9919555484135
20
-5.86990356965552
30
0
41
1
10
74.9654050089194
20
-5.91028208599909
30
0
41
1
10
74.9521867590753
20
-5.93045535723698
30
0
41
1
10
74.9389480719952
20
-5.9505156421267
30
0
0
SPLINE
5
12D
100
AcDbEntity
8
1
62
256
6
ByLayer
370
18
48
1
60
0
100
AcDbSpline
70
4
71
3
72
8
73
4
40
0
40
0
40
0
40
0
40
1
40
1
40
1
40
1
41
1
10
74.756192279622
20
-5.90820857895653
30
0
41
1
10
74.8171038609126
20
-5.92331441427697
30
0
41
1
10
74.8780163757969
20
-5.93741835807194
30
0
41
1
10
74.9389480719952
20
-5.9505156421267
30
0
0
SPLINE
5
12E
100
AcDbEntity
8
1
62
256
6
ByLayer
370
18
48
1
60
0
100
AcDbSpline
70
4
71
3
72
8
73
4
40
0
40
0
40
0
40
0
40
1
40
1
40
1
40
1
41
1
10
74.7561922796242
20
-5.90820857893758
30
0
41
1
10
74.6592595707827
20
-5.72326421034677
30
0
41
1
10
74.5616130543551
20
-5.53446797634291
30
0
41
1
10
74.4632371175449
20
-5.34228017718627
30
0
0
SPLINE
5
12F
100
AcDbEntity
8
1
62
256
6
ByLayer
370
18
48
1
60
0
100
AcDbSpline
70
4
71
3
72
62
73
58
40
0
40
0
40
0
40
0
40
0.124999999999915
40
0.124999999999915
40
0.24999999999983
40
0.24999999999983
40
0.265624999999823
40
0.265624999999823
40
0.281249999999816
40
0.281249999999816
40
0.296874999999809
40
0.296874999999809
40
0.312499999999802
40
0.312499999999802
40
0.328124999999795
40
0.328124999999795
40
0.343749999999787
40
0.343749999999787
40
0.374999999999783
40
0.374999999999783
40
0.406249999999778
40
0.406249999999778
40
0.421874999999781
40
0.421874999999781
40
0.437499999999784
40
0.437499999999784
40
0.453124999999788
40
0.453124999999788
40
0.468749999999791
40
0.468749999999791
40
0.484374999999795
40
0.484374999999795
40
0.499999999999798
40
0.499999999999798
40
0.515624999999801
40
0.515624999999801
40
0.531249999999805
40
0.531249999999805
40
0.546874999999808
40
0.546874999999808
40
0.562499999999811
40
0.562499999999811
40
0.570312499999813
40
0.570312499999813
40
0.578124999999814
40
0.578124999999814
40
0.593749999999818
40
0.624999999999834
40
0.749999999999887
40
0.749999999999887
40
0.874999999999939
40
0.874999999999939
40
0.937499999999966
40
0.937499999999966
40
0.968749999999983
40
0.968749999999983
40
1
40
1
40
1
40
1
41
1
10
74.4632371175449
20
-5.34228017718627
30
0
41
1
10
74.4169891464457
20
-5.25192987334989
30
0
41
1
10
74.3706254372957
20
-5.16091739354226
30
0
41
1
10
74.2776121456048
20
-4.9775936688967
30
0
41
1
10
74.2309571758732
20
-4.88528942470785
30
0
41
1
10
74.1783365228798
20
-4.78066831140771
30
0
41
1
10
74.1724879891061
20
-4.76903306827811
30
0
41
1
10
74.1607867740633
20
-4.74573974919707
30
0
41
1
10
74.1549660849663
20
-4.73404653208931
30
0
41
1
10
74.1431472616098
20
-4.71081987199094
30
0
41
1
10
74.1370873300046
20
-4.6993523573758
30
0
41
1
10
74.1240907775631
20
-4.67732209390201
30
0
41
1
10
74.1171015228591
20
-4.66681541253109
30
0
41
1
10
74.1022650598708
20
-4.64668682211857
30
0
41
1
10
74.0944803335717
20
-4.63699826614629
30
0
41
1
10
74.0782992628833
20
-4.61824476038259
30
0
41
1
10
74.0698544167184
20
-4.60915634097719
30
0
41
1
10
74.0440053068069
20
-4.58340118582692
30
0
41
1
10
74.0259420279652
20
-4.56821792955458
30
0
41
1
10
73.9883751217786
20
-4.54136468118418
30
0
41
1
10
73.9688964283291
20
-4.52962922727051
30
0
41
1
10
73.9386315885702
20
-4.51466355264932
30
0
41
1
10
73.928407467467
20
-4.51014756386098
30
0
41
1
10
73.9079387200914
20
-4.50223874474645
30
0
41
1
10
73.8976579572759
20
-4.49882676761308
30
0
41
1
10
73.8770025868622
20
-4.49322460509185
30
0
41
1
10
73.8666267040762
20
-4.49105182398716
30
0
41
1
10
73.8457878458921
20
-4.48798410423703
30
0
41
1
10
73.8352913548655
20
-4.48708302971946
30
0
41
1
10
73.8143704755945
20
-4.48662074598442
30
0
41
1
10
73.804031362783
20
-4.48705556551306
30
0
41
1
10
73.7836181744724
20
-4.48932398594985
30
0
41
1
10
73.7735432022414
20
-4.49115279450379
30
0
41
1
10
73.7537143165106
20
-4.4964671893633
30
0
41
1
10
73.7438983572156
20
-4.49997979287446
30
0
41
1
10
73.7253525739069
20
-4.5090397233667
30
0
41
1
10
73.7165833321355
20
-4.51463865968339
30
0
41
1
10
73.7001701665914
20
-4.5282194415102
30
0
41
1
10
73.6925152549914
20
-4.53627732307186
30
0
41
1
10
73.6782897937782
20
-4.55355891465928
30
0
41
1
10
73.6715906557253
20
-4.56272071181976
30
0
41
1
10
73.661516777271
20
-4.57638381231118
30
0
41
1
10
73.6581609755309
20
-4.58093335734219
30
0
41
1
10
73.6513799885091
20
-4.58992413687938
30
0
41
1
10
73.6479579935575
20
-4.59436961874511
30
0
41
1
10
73.6377046572355
20
-4.60769960106555
30
0
41
1
10
73.6172077208521
20
-4.63427925073893
30
0
41
1
10
73.5421558302
20
-4.73084934714188
30
0
41
1
10
73.4742422034779
20
-4.81591954696674
30
0
41
1
10
73.3661937601069
20
-4.94824497624168
30
0
41
1
10
73.3124345576232
20
-5.01256641601239
30
0
41
1
10
73.2321276226386
20
-5.10633248231912
30
0
41
1
10
73.2054070680971
20
-5.13712415840757
30
0
41
1
10
73.1654274183686
20
-5.18267499830483
30
0
41
1
10
73.1521224677045
20
-5.19775971194233
30
0
41
1
10
73.1255873784113
20
-5.22778228113725
30
0
41
1
10
73.1123769832689
20
-5.2427504344106
30
0
41
1
10
73.0991445006444
20
-5.2575552456143
30
0
0
SPLINE
5
130
100
AcDbEntity
8
1
62
256
6
ByLayer
370
18
48
1
60
0
100
AcDbSpline
70
4
71
3
72
8
73
4
40
0
40
0
40
0
40
0
40
1
40
1
40
1
40
1
41
1
10
72.9173844575044
20
-5.15821922394639
30
0
41
1
10
72.9779626604524
20
-5.19219950782403
30
0
41
1
10
73.0385438174218
20
-5.22531446026292
30
0
41
1
10
73.0991445006444
20
-5.2575552456143
30
0
0
SPLINE
5
131
100
AcDbEntity
8
1
62
256
6
ByLayer
370
18
48
1
60
0
100
AcDbSpline
70
4
71
3
72
8
73
4
40
0
40
0
40
0
40
0
40
1
40
1
40
1
40
1
41
1
10
72.917384457506
20
-5.15821922393388
30
0
41
1
10
72.8202853403215
20
-4.9514311240676
30
0
41
1
10
72.7224668127599
20
-4.74357346425083
30
0
41
1
10
72.6238939761592
20
-4.53525598492638
30
0
0
SPLINE
5
132
100
AcDbEntity
8
1
62
256
6
ByLayer
370
18
48
1
60
0
100
AcDbSpline
70
4
71
3
72
58
73
54
40
0
40
0
40
0
40
0
40
0.125000000000027
40
0.125000000000027
40
0.250000000000055
40
0.250000000000055
40
0.265625000000058
40
0.265625000000058
40
0.281250000000062
40
0.281250000000062
40
0.296875000000065
40
0.296875000000065
40
0.312500000000069
40
0.312500000000069
40
0.328125000000073
40
0.328125000000073
40
0.343750000000076
40
0.343750000000076
40
0.375000000000094
40
0.375000000000094
40
0.406250000000112
40
0.406250000000112
40
0.421875000000115
40
0.421875000000115
40
0.437500000000118
40
0.437500000000118
40
0.468750000000124
40
0.468750000000124
40
0.50000000000013
40
0.50000000000013
40
0.515625000000133
40
0.515625000000133
40
0.531250000000136
40
0.531250000000136
40
0.54687500000014
40
0.54687500000014
40
0.562500000000143
40
0.562500000000143
40
0.57031250000014
40
0.57031250000014
40
0.578125000000138
40
0.578125000000138
40
0.593750000000133
40
0.625000000000123
40
0.750000000000082
40
0.750000000000082
40
0.875000000000042
40
0.875000000000042
40
0.937500000000022
40
0.937500000000022
40
0.968750000000011
40
0.968750000000011
40
1
40
1
40
1
40
1
41
1
10
72.6238939761592
20
-4.53525598492638
30
0
41
1
10
72.577766110327
20
-4.43777232646462
30
0
41
1
10
72.5315133709343
20
-4.34027578554787
30
0
41
1
10
72.4386945565592
20
-4.14528585855442
30
0
41
1
10
72.3921234105368
20
-4.04779542425357
30
0
41
1
10
72.3395855216873
20
-3.93810237247385
30
0
41
1
10
72.3337459946928
20
-3.92591417468807
30
0
41
1
10
72.3220620442784
20
-3.90153546724392
30
0
41
1
10
72.3162463818258
20
-3.88932621157926
30
0
41
1
10
72.3044624632441
20
-3.86500351881315
30
0
41
1
10
72.298430972009
20
-3.85293188630584
30
0
41
1
10
72.285497395425
20
-3.82935889024239
30
0
41
1
10
72.2785406600891
20
-3.81789363561685
30
0
41
1
10
72.2637276969704
20
-3.7955524440564
30
0
41
1
10
72.2559388403112
20
-3.78463197802026
30
0
41
1
10
72.2397361605762
20
-3.76319909350823
30
0
41
1
10
72.2312963614287
20
-3.75268582500803
30
0
41
1
10
72.2055112424989
20
-3.72245637058296
30
0
41
1
10
72.1874908994868
20
-3.70391074002563
30
0
41
1
10
72.1500022238093
20
-3.66966821211713
30
0
41
1
10
72.1305608416363
20
-3.65391518047406
30
0
41
1
10
72.1003545244592
20
-3.63239298419282
30
0
41
1
10
72.0900988417529
20
-3.62557544924761
30
0
41
1
10
72.0695950158723
20
-3.61296992478643
30
0
41
1
10
72.0593018605567
20
-3.60714757170595
30
0
41
1
10
72.0282997921068
20
-3.59128840347054
30
0
41
1
10
72.0074642235004
20
-3.58291136712089
30
0
41
1
10
71.9655304159946
20
-3.57074353266444
30
0
41
1
10
71.9450483532873
20
-3.5670698039506
30
0
41
1
10
71.9152944426473
20
-3.56599317582391
30
0
41
1
10
71.9054608868298
20
-3.56640205185593
30
0
41
1
10
71.8868381839895
20
-3.56927978204539
30
0
41
1
10
71.8780365778169
20
-3.5717818822319
30
0
41
1
10
71.8615764965216
20
-3.57916412841507
30
0
41
1
10
71.853894254578
20
-3.58410860457766
30
0
41
1
10
71.8396051154162
20
-3.59539402440885
30
0
41
1
10
71.8328941693225
20
-3.6016270935047
30
0
41
1
10
71.822816935191
20
-3.6109011601884
30
0
41
1
10
71.8194627255407
20
-3.61398958422268
30
0
41
1
10
71.8126894730225
20
-3.62005171972129
30
0
41
1
10
71.8092685609411
20
-3.62302267699729
30
0
41
1
10
71.7990130941797
20
-3.63191572829945
30
0
41
1
10
71.7785119417645
20
-3.64959471414602
30
0
41
1
10
71.7034459157593
20
-3.71323081819389
30
0
41
1
10
71.6355141666214
20
-3.76748040197683
30
0
41
1
10
71.5274385429771
20
-3.8495432313282
30
0
41
1
10
71.4736659901086
20
-3.88824161684877
30
0
41
1
10
71.3933377066934
20
-3.94286404610557
30
0
41
1
10
71.3666101575971
20
-3.96048949042523
30
0
41
1
10
71.3266180145415
20
-3.98611778649163
30
0
41
1
10
71.3133085269808
20
-3.99453324358439
30
0
41
1
10
71.2867635869649
20
-4.01116474372978
30
0
41
1
10
71.27354775624
20
-4.01941311608499
30
0
41
1
10
71.2603123791631
20
-4.02747035929821
30
0
0
SPLINE
5
133
100
AcDbEntity
8
1
62
256
6
ByLayer
370
18
48
1
60
0
100
AcDbSpline
70
4
71
3
72
8
73
4
40
0
40
0
40
0
40
0
40
1
40
1
40
1
40
1
41
1
10
71.0777843001248
20
-3.88042708803798
30
0
41
1
10
71.1386188093483
20
-3.93010137418403
30
0
41
1
10
71.1994558932119
20
-3.97912002810688
30
0
41
1
10
71.2603123791631
20
-4.02747035929821
30
0
0
SPLINE
5
134
100
AcDbEntity
8
1
62
256
6
ByLayer
370
18
48
1
60
0
100
AcDbSpline
70
4
71
3
72
10
73
6
40
0
40
0
40
0
40
0
40
0.5
40
0.5
40
1
40
1
40
1
40
1
41
1
10
71.0777843001262
20
-3.88042708802911
30
0
41
1
10
71.0292483413249
20
-3.77696734628907
30
0
41
1
10
70.9805271178778
20
-3.67393318638207
30
0
41
1
10
70.8827687908796
20
-3.46900215888709
30
0
41
1
10
70.8337215657456
20
-3.36708320712683
30
0
41
1
10
70.784473547177
20
-3.26573535445883
30
0
0
SPLINE
5
135
100
AcDbEntity
8
1
62
256
6
ByLayer
370
18
48
1
60
0
100
AcDbSpline
70
4
71
3
72
8
73
4
40
0
40
0
40
0
40
0
40
1
40
1
40
1
40
1
41
1
10
69.2384376931879
20
-2.20602715972967
30
0
41
1
10
69.2991763244554
20
-2.26607245374771
30
0
41
1
10
69.3599184917061
20
-2.32574613900377
30
0
41
1
10
69.4206804670297
20
-2.38503364787721
30
0
0
SPLINE
5
136
100
AcDbEntity
8
1
62
256
6
ByLayer
370
18
48
1
60
0
100
AcDbSpline
70
4
71
3
72
57
73
53
40
0
40
0
40
0
40
0
40
0.125000000000022
40
0.125000000000022
40
0.250000000000043
40
0.250000000000043
40
0.265625000000041
40
0.265625000000041
40
0.281250000000039
40
0.281250000000039
40
0.296875000000038
40
0.296875000000038
40
0.312500000000036
40
0.312500000000036
40
0.328125000000034
40
0.328125000000034
40
0.343750000000032
40
0.343750000000032
40
0.375000000000038
40
0.375000000000038
40
0.406250000000044
40
0.406250000000044
40
0.421875000000053
40
0.421875000000053
40
0.437500000000062
40
0.437500000000062
40
0.468750000000067
40
0.468750000000067
40
0.500000000000072
40
0.500000000000072
40
0.515625000000069
40
0.515625000000069
40
0.531250000000066
40
0.531250000000066
40
0.546875000000063
40
0.546875000000063
40
0.56250000000006
40
0.56250000000006
40
0.570312500000058
40
0.578125000000057
40
0.578125000000057
40
0.593750000000055
40
0.62500000000005
40
0.750000000000031
40
0.750000000000031
40
0.875000000000012
40
0.875000000000012
40
0.937500000000002
40
0.937500000000002
40
0.968750000000001
40
0.968750000000001
40
1
40
1
40
1
40
1
41
1
10
68.9450769225446
20
-1.66225141498896
30
0
41
1
10
68.8988956045145
20
-1.57955092695261
30
0
41
1
10
68.8526001175881
20
-1.49804850979683
30
0
41
1
10
68.759720834067
20
-1.33748402818233
30
0
41
1
10
68.7131309618756
20
-1.25841805945524
30
0
41
1
10
68.6605809214828
20
-1.17089810993841
30
0
41
1
10
68.6547402280608
20
-1.16119383972432
30
0
41
1
10
68.6430541271012
20
-1.14182409673475
30
0
41
1
10
68.6372384247457
20
-1.13216525971777
30
0
41
1
10
68.6254480031397
20
-1.11285290554369
30
0
41
1
10
68.6194104225645
20
-1.10318550336038
30
0
41
1
10
68.6064644673577
20
-1.0837007480277
30
0
41
1
10
68.5995019963304
20
-1.07387161371619
30
0
41
1
10
68.5846899670263
20
-1.05406052397612
30
0
41
1
10
68.5769064191522
20
-1.04409303503778
30
0
41
1
10
68.5607188840189
20
-1.0240628231557
30
0
41
1
10
68.5522799494095
20
-1.01397398764251
30
0
41
1
10
68.5264873233579
20
-0.98416142429312
30
0
41
1
10
68.5084609463619
20
-0.964715402880444
30
0
41
1
10
68.4709580004645
20
-0.926554754194797
30
0
41
1
10
68.4515079816477
20
-0.907828002052327
30
0
41
1
10
68.4212840943357
20
-0.880246287527768
30
0
41
1
10
68.4110346770506
20
-0.871144037782074
30
0
41
1
10
68.3905379336037
20
-0.853453596662263
30
0
41
1
10
68.3802460117454
20
-0.844823815461922
30
0
41
1
10
68.3492398875593
20
-0.819643157460291
30
0
41
1
10
68.3283680414773
20
-0.803807258160816
30
0
41
1
10
68.2864342374189
20
-0.774148703479369
30
0
41
1
10
68.2659511294509
20
-0.760703064007572
30
0
41
1
10
68.2361823007409
20
-0.743043845236798
30
0
41
1
10
68.2263467631384
20
-0.737547839741211
30
0
41
1
10
68.2077374086467
20
-0.72807827153062
30
0
41
1
10
68.1989413320226
20
-0.724107677975212
30
0
41
1
10
68.182488702138
20
-0.717871679001206
30
0
41
1
10
68.1748110775686
20
-0.715623121322551
30
0
41
1
10
68.1605379315772
20
-0.712331218683744
30
0
41
1
10
68.1538296494967
20
-0.711175647143648
30
0
41
1
10
68.14375236923
20
-0.709354830311639
30
0
41
1
10
68.1370424692671
20
-0.708128290839198
30
0
41
1
10
68.1301996035611
20
-0.706688078813983
30
0
41
1
10
68.1199436560777
20
-0.704503238963127
30
0
41
1
10
68.0994416316718
20
-0.700006357349622
30
0
41
1
10
68.0243728331133
20
-0.682110772695637
30
0
41
1
10
67.9564414757712
20
-0.661607808817394
30
0
41
1
10
67.8483703270358
20
-0.623671251062206
30
0
41
1
10
67.7946013478221
20
-0.602127331928443
30
0
41
1
10
67.7142790010489
20
-0.566056923849999
30
0
41
1
10
67.6875534544622
20
-0.553398261506146
30
0
41
1
10
67.6475645424518
20
-0.533515745273405
30
0
41
1
10
67.6342561757637
20
-0.526745534600678
30
0
41
1
10
67.6077135224774
20
-0.512966504349635
30
0
41
1
10
67.5944988766639
20
-0.505984634361965
30
0
41
1
10
67.5812641948721
20
-0.498807115554456
30
0
0
SPLINE
5
137
100
AcDbEntity
8
1
62
256
6
ByLayer
370
18
48
1
60
0
100
AcDbSpline
70
4
71
3
72
8
73
4
40
0
40
0
40
0
40
0
40
1
40
1
40
1
40
1
41
1
10
67.3988195672761
20
-0.305704370927259
30
0
41
1
10
67.4596414654402
20
-0.370142897823627
30
0
41
1
10
67.5204509015825
20
-0.434515594230334
30
0
41
1
10
67.5812641948721
20
-0.498807115554399
30
0
0
SPLINE
5
138
100
AcDbEntity
8
1
62
256
6
ByLayer
370
18
48
1
60
0
100
AcDbSpline
70
4
71
3
72
8
73
4
40
0
40
0
40
0
40
0
40
1
40
1
40
1
40
1
41
1
10
67.3988195672762
20
-0.305704370927288
30
0
41
1
10
67.301790852735
20
-0.15976965565585
30
0
41
1
10
67.204057234805
20
-0.0204854788433124
30
0
41
1
10
67.1055872195673
20
0.111560549608271
30
0
0
SPLINE
5
139
100
AcDbEntity
8
1
62
256
6
ByLayer
370
18
48
1
60
0
100
AcDbSpline
70
4
71
3
72
42
73
38
40
0
40
0
40
0
40
0
40
0.250000000000083
40
0.250000000000083
40
0.500000000000165
40
0.500000000000165
40
0.531250000000179
40
0.531250000000179
40
0.546875000000179
40
0.546875000000179
40
0.562500000000179
40
0.562500000000179
40
0.593750000000179
40
0.593750000000179
40
0.625000000000178
40
0.625000000000178
40
0.687500000000177
40
0.687500000000177
40
0.718750000000166
40
0.718750000000166
40
0.750000000000155
40
0.750000000000155
40
0.812500000000133
40
0.812500000000133
40
0.843750000000111
40
0.843750000000111
40
0.875000000000089
40
0.875000000000089
40
0.906250000000067
40
0.906250000000067
40
0.937500000000045
40
0.937500000000045
40
0.968750000000023
40
0.968750000000023
40
0.984375000000012
40
0.984375000000012
40
1
40
1
40
1
40
1
41
1
10
67.1055872195673
20
0.111560549608299
30
0
41
1
10
67.0546184259075
20
0.179908531087676
30
0
41
1
10
67.0035010560567
20
0.246251992912391
30
0
41
1
10
66.9008865935435
20
0.374885176579056
30
0
41
1
10
66.8494015502536
20
0.437172710777219
30
0
41
1
10
66.7912829657687
20
0.504865525654168
30
0
41
1
10
66.7847960681069
20
0.512371429500917
30
0
41
1
10
66.7743718243322
20
0.524034041248939
30
0
41
1
10
66.7707825819064
20
0.527988072250224
30
0
41
1
10
66.7632892486563
20
0.536085388441364
30
0
41
1
10
66.7593878353331
20
0.540226903906159
30
0
41
1
10
66.7472762029052
20
0.552892500792041
30
0
41
1
10
66.7387072038817
20
0.561625561750589
30
0
41
1
10
66.7208225899066
20
0.57951230070006
30
0
41
1
10
66.7114784857944
20
0.588684264051778
30
0
41
1
10
66.6828805197644
20
0.616267135252656
30
0
41
1
10
66.662799690447
20
0.634977713713482
30
0
41
1
10
66.6313971304433
20
0.663494650001439
30
0
41
1
10
66.6207174098916
20
0.673074778021203
30
0
41
1
10
66.5989382098038
20
0.692395127048115
30
0
41
1
10
66.5878038424522
20
0.702165587452214
30
0
41
1
10
66.5539585733821
20
0.731558741998811
30
0
41
1
10
66.5311903863468
20
0.750932400724707
30
0
41
1
10
66.496747242306
20
0.779687354923709
30
0
41
1
10
66.4852196159123
20
0.789223466364206
30
0
41
1
10
66.4620824522516
20
0.808211799286369
30
0
41
1
10
66.4505494294549
20
0.817600818318653
30
0
41
1
10
66.4279175622558
20
0.835891389375831
30
0
41
1
10
66.4167668610159
20
0.844836102108729
30
0
41
1
10
66.3948721545438
20
0.862254581695055
30
0
41
1
10
66.3840452599943
20
0.870793740125805
30
0
41
1
10
66.3637769814775
20
0.886568961691353
30
0
41
1
10
66.3542945195602
20
0.893832189513944
30
0
41
1
10
66.3411016553914
20
0.903749968626158
30
0
41
1
10
66.3368572170782
20
0.906907898230088
30
0
41
1
10
66.328732433906
20
0.912902630282701
30
0
41
1
10
66.3248434108005
20
0.915747643510059
30
0
41
1
10
66.32103597766
20
0.918527474105133
30
0
0
SPLINE
5
13A
100
AcDbEntity
8
1
62
256
6
ByLayer
370
18
48
1
60
0
100
AcDbSpline
70
4
71
3
72
8
73
4
40
0
40
0
40
0
40
0
40
1
40
1
40
1
40
1
41
1
10
66.3210359776527
20
0.918527474110874
30
0
41
1
10
66.3113243798864
20
0.928474458113328
30
0
41
1
10
66.3016061588773
20
0.938333697092759
30
0
41
1
10
66.2918808825317
20
0.948104289025764
30
0
0
SPLINE
5
13B
100
AcDbEntity
8
1
62
256
6
ByLayer
370
18
48
1
60
0
100
AcDbSpline
70
4
71
3
72
25
73
21
40
0
40
0
40
0
40
0
40
0.124999999999999
40
0.124999999999999
40
0.187499999999998
40
0.187499999999998
40
0.249999999999997
40
0.374999999999994
40
0.374999999999994
40
0.437499999999994
40
0.437499999999994
40
0.499999999999993
40
0.499999999999993
40
0.749999999999988
40
0.749999999999988
40
0.812499999999996
40
0.812499999999996
40
0.875000000000003
40
0.875000000000003
40
1
40
1
40
1
40
1
41
1
10
66.2918808825316
20
0.948104289025792
30
0
41
1
10
66.2600032312687
20
0.980130476375535
30
0
41
1
10
66.2252184619879
20
1.01335350249911
30
0
41
1
10
66.1692347029924
20
1.06455283979136
30
0
41
1
10
66.1498721571229
20
1.0816865397054
30
0
41
1
10
66.1096157456268
20
1.11574220721874
30
0
41
1
10
66.0470027578216
20
1.16668473919432
30
0
41
1
10
65.9778976717941
20
1.21763717975657
30
0
41
1
10
65.9046908770388
20
1.26919965364132
30
0
41
1
10
65.8796548289164
20
1.28645282007821
30
0
41
1
10
65.8287253250384
20
1.32096488874839
30
0
41
1
10
65.8027842157541
20
1.33825747039521
30
0
41
1
10
65.6708879062039
20
1.42515446794698
30
0
41
1
10
65.5583961414552
20
1.49608638442535
30
0
41
1
10
65.4117499608093
20
1.59026422710213
30
0
41
1
10
65.3821168670641
20
1.60937395034378
30
0
41
1
10
65.3222996508278
20
1.6482297142002
30
0
41
1
10
65.2921540600298
20
1.66795135459392
30
0
41
1
10
65.2014899309404
20
1.72784920520422
30
0
41
1
10
65.1405960204276
20
1.76885836998247
30
0
41
1
10
65.0794453172331
20
1.8112027200745
30
0
0
SPLINE
5
13C
100
AcDbEntity
8
1
62
256
6
ByLayer
370
18
48
1
60
0
100
AcDbSpline
70
4
71
3
72
50
73
46
40
0
40
0
40
0
40
0
40
0.0666777790394973
40
0.0666777790394973
40
0.100016668559246
40
0.100016668559246
40
0.133355558078995
40
0.133355558078995
40
0.200033337118494
40
0.200033337118494
40
0.266711116157994
40
0.266711116157994
40
0.28338056091787
40
0.28338056091787
40
0.300050005677747
40
0.300050005677747
40
0.333388895197499
40
0.333388895197499
40
0.400066674237006
40
0.400066674237006
40
0.43340556375676
40
0.43340556375676
40
0.466744453276513
40
0.466744453276513
40
0.500083342796267
40
0.500083342796267
40
0.533422232316021
40
0.533422232316021
40
0.600100011355526
40
0.600100011355526
40
0.66677779039503
40
0.66677779039503
40
0.700116679914783
40
0.700116679914783
40
0.733455569434535
40
0.733455569434535
40
0.800133348474043
40
0.800133348474043
40
0.86681112751355
40
0.86681112751355
40
0.900150017033304
40
0.900150017033304
40
0.933488906553057
40
0.933488906553057
40
1
40
1
40
1
40
1
41
1
10
65.0794453172335
20
1.81120272007431
30
0
41
1
10
64.8400866092913
20
1.97694879325434
30
0
41
1
10
64.6024129286401
20
2.13704690330996
30
0
41
1
10
64.2465902354638
20
2.36689587551786
30
0
41
1
10
64.1280298536369
20
2.44172529109514
30
0
41
1
10
63.8911508257009
20
2.58803172339765
30
0
41
1
10
63.77288297102
20
2.65956206554407
30
0
41
1
10
63.4184757949382
20
2.86914622081366
30
0
41
1
10
63.1826531671407
20
3.00210054777676
30
0
41
1
10
62.7100239865881
20
3.25246281549303
30
0
41
1
10
62.4732342140641
20
3.36988304090406
30
0
41
1
10
62.1753510979337
20
3.50568742283681
30
0
41
1
10
62.1156793190691
20
3.53230002129939
30
0
41
1
10
61.996119987405
20
3.58440450294287
30
0
41
1
10
61.9362181007177
20
3.60990670870768
30
0
41
1
10
61.7564131986192
20
3.68476367620357
30
0
41
1
10
61.6369824668307
20
3.73217801735285
30
0
41
1
10
61.2797590619366
20
3.86686511076908
30
0
41
1
10
61.0430052828843
20
3.94655155460981
30
0
41
1
10
60.6885441768596
20
4.0503483322249
30
0
41
1
10
60.57050290206
20
4.0823271367953
30
0
41
1
10
60.3344164162333
20
4.14096994195779
30
0
41
1
10
60.2163821639536
20
4.16763673593832
30
0
41
1
10
59.9799539953936
20
4.21555076442294
30
0
41
1
10
59.8616070671142
20
4.23682214769534
30
0
41
1
10
59.6248329935891
20
4.27403146490707
30
0
41
1
10
59.5063785995032
20
4.28995761025652
30
0
41
1
10
59.1505998311332
20
4.32953605421795
30
0
41
1
10
58.9127773383488
20
4.34497072443605
30
0
41
1
10
58.4341880992959
20
4.35294793743219
30
0
41
1
10
58.196414148455
20
4.34543214797799
30
0
41
1
10
57.8403603022693
20
4.31765348127436
30
0
41
1
10
57.7218110460678
20
4.30564675528507
30
0
41
1
10
57.4851327338322
20
4.27615350074839
30
0
41
1
10
57.3669825524477
20
4.25866673708146
30
0
41
1
10
57.0127843485392
20
4.19806224708836
30
0
41
1
10
56.7769957370149
20
4.14679245558173
30
0
41
1
10
56.3043019501007
20
4.023058172579
30
0
41
1
10
56.0673911225119
20
3.95059405406735
30
0
41
1
10
55.7097540796467
20
3.82658122530611
30
0
41
1
10
55.5902165117521
20
3.78266338239905
30
0
41
1
10
55.3505338131218
20
3.68953153431087
30
0
41
1
10
55.2311047634481
20
3.64062586717438
30
0
41
1
10
54.8744408466157
20
3.48746944250541
30
0
41
1
10
54.6382497485251
20
3.37650438311951
30
0
41
1
10
54.4025307247316
20
3.25748219209129
30
0
0
SPLINE
5
13D
100
AcDbEntity
8
1
62
256
6
ByLayer
370
18
48
1
60
0
100
AcDbSpline
70
4
71
3
72
94
73
90
40
0
40
0
40
0
40
0
40
0.0091924801389025
40
0.0091924801389025
40
0.0642373423534027
40
0.0642373423534027
40
0.0779985579070291
40
0.0779985579070291
40
0.0917597734606556
40
0.0917597734606556
40
0.105520989014282
40
0.105520989014282
40
0.119282204567908
40
0.119282204567908
40
0.146804635675161
40
0.146804635675161
40
0.174327066782414
40
0.174327066782414
40
0.188088282336041
40
0.188088282336041
40
0.201849497889667
40
0.201849497889667
40
0.22937192899692
40
0.22937192899692
40
0.243133144550545
40
0.243133144550545
40
0.256894360104171
40
0.256894360104171
40
0.284416791211422
40
0.284416791211422
40
0.311939222318673
40
0.311939222318673
40
0.339461653425924
40
0.339461653425924
40
0.366984084533175
40
0.366984084533175
40
0.3807453000868
40
0.3807453000868
40
0.394506515640425
40
0.394506515640425
40
0.408267731194051
40
0.408267731194051
40
0.422028946747676
40
0.422028946747676
40
0.449551377854929
40
0.449551377854929
40
0.504596240069435
40
0.504596240069435
40
0.532118671176688
40
0.532118671176688
40
0.559641102283941
40
0.559641102283941
40
0.614685964498446
40
0.614685964498446
40
0.621566572275259
40
0.621566572275259
40
0.628447180052072
40
0.628447180052072
40
0.6422083956057
40
0.6422083956057
40
0.655969611159328
40
0.655969611159328
40
0.669730826712956
40
0.669730826712956
40
0.69725325782021
40
0.69725325782021
40
0.724775688927463
40
0.724775688927463
40
0.779820551141971
40
0.779820551141971
40
0.793581766695599
40
0.793581766695599
40
0.807342982249227
40
0.807342982249227
40
0.834865413356482
40
0.834865413356482
40
0.848626628910109
40
0.848626628910109
40
0.862387844463736
40
0.862387844463736
40
0.889910275570989
40
0.889910275570989
40
0.917432706678242
40
0.917432706678242
40
0.931193922231868
40
0.931193922231868
40
0.944955137785495
40
0.944955137785495
40
1
40
1
40
1
40
1
41
1
10
50.239276762592
20
4.35000102456627
30
0
41
1
10
50.2849329309629
20
4.3499976757266
30
0
41
1
10
50.3305550862067
20
4.34958585948849
30
0
41
1
10
50.6491110391868
20
4.34387672491494
30
0
41
1
10
50.9208696186851
20
4.32448805142957
30
0
41
1
10
51.2593728311373
20
4.28225804126214
30
0
41
1
10
51.3270109546103
20
4.27290856454715
30
0
41
1
10
51.4621565462557
20
4.25238780259158
30
0
41
1
10
51.5296465494382
20
4.24121025838141
30
0
41
1
10
51.6646611350842
20
4.2170674169684
30
0
41
1
10
51.7321977474135
20
4.2041063524442
30
0
41
1
10
51.867470187569
20
4.17646118096485
30
0
41
1
10
51.9352001373802
20
4.16177601623866
30
0
41
1
10
52.1386770099911
20
4.11515098070186
30
0
41
1
10
52.2747153222271
20
4.08064796889221
30
0
41
1
10
52.5474950408476
20
4.00476977267601
30
0
41
1
10
52.6842067391384
20
3.9633776290369
30
0
41
1
10
52.8898175714139
20
3.89604608646008
30
0
41
1
10
52.9584480561995
20
3.87272940690437
30
0
41
1
10
53.0959136263553
20
3.82433713112147
30
0
41
1
10
53.1645506542508
20
3.7993313160394
30
0
41
1
10
53.3699551564468
20
3.72198225902358
30
0
41
1
10
53.5063046622119
20
3.66726876403322
30
0
41
1
10
53.7099644213918
20
3.58048899088246
30
0
41
1
10
53.7777500880079
20
3.55080815611188
30
0
41
1
10
53.9133690099758
20
3.49014629940163
30
0
41
1
10
53.9811754046879
20
3.45914537388796
30
0
41
1
10
54.184599412134
20
3.3641699011813
30
0
41
1
10
54.3202294552959
20
3.29823127908207
30
0
41
1
10
54.5915508775186
20
3.16122585618123
30
0
41
1
10
54.7272420058188
20
3.09016025159542
30
0
41
1
10
54.9985830410943
20
2.9428092467958
30
0
41
1
10
55.1342088808858
20
2.86649689841894
30
0
41
1
10
55.4056082313935
20
2.70876164283928
30
0
41
1
10
55.5414031328922
20
2.62736309442136
30
0
41
1
10
55.7452790300319
20
2.5014243084907
30
0
41
1
10
55.813259160044
20
2.45879280945655
30
0
41
1
10
55.9494653183982
20
2.37243978858953
30
0
41
1
10
56.0177107748542
20
2.3287412933019
30
0
41
1
10
56.1545323187987
20
2.24035209555541
30
0
41
1
10
56.223145009503
20
2.19562089879037
30
0
41
1
10
56.3604796118073
20
2.10526844355891
30
0
41
1
10
56.4290543022696
20
2.05974961937983
30
0
41
1
10
56.634529015587
20
1.92220981137314
30
0
41
1
10
56.7711833402435
20
1.82921075863496
30
0
41
1
10
57.1802606851295
20
1.54647294205958
30
0
41
1
10
57.4517620550591
20
1.35296032108292
30
0
41
1
10
57.8573917489848
20
1.05540249984756
30
0
41
1
10
57.992348376833
20
0.955016564974812
30
0
41
1
10
58.2629688812608
20
0.753431617566662
30
0
41
1
10
58.3985930069291
20
0.652184937264991
30
0
41
1
10
58.8063863068359
20
0.347075072235754
30
0
41
1
10
59.0793483987284
20
0.14168106962984
30
0
41
1
10
59.3879399429711
20
-0.0913765294619964
30
0
41
1
10
59.4222487557415
20
-0.117299819138708
30
0
41
1
10
59.490906438522
20
-0.169205627586052
30
0
41
1
10
59.5252638145412
20
-0.195194608936418
30
0
41
1
10
59.6281456004317
20
-0.273068951047833
30
0
41
1
10
59.6965536823056
20
-0.324928315391304
30
0
41
1
10
59.8330666798784
20
-0.428456485243487
30
0
41
1
10
59.9011726108777
20
-0.480123876364132
30
0
41
1
10
60.037149400699
20
-0.583176831796692
30
0
41
1
10
60.1050057885493
20
-0.634581315120641
30
0
41
1
10
60.3086673127474
20
-0.787781933745947
30
0
41
1
10
60.4444909662619
20
-0.88867012594423
30
0
41
1
10
60.7159421696585
20
-1.08840473843395
30
0
41
1
10
60.8516156735708
20
-1.18718909557549
30
0
41
1
10
61.2585922581912
20
-1.48018083779465
30
0
41
1
10
61.5298139979582
20
-1.67109167384692
30
0
41
1
10
61.8688340929351
20
-1.90393816157493
30
0
41
1
10
61.9366419071852
20
-1.9502115129884
30
0
41
1
10
62.0722782890842
20
-2.04214240644379
30
0
41
1
10
62.140143623079
20
-2.0877551454839
30
0
41
1
10
62.3442449168274
20
-2.22309906315482
30
0
41
1
10
62.4808706293751
20
-2.31147631278398
30
0
41
1
10
62.6867066532634
20
-2.44118761973516
30
0
41
1
10
62.7555301667255
20
-2.48398776029256
30
0
41
1
10
62.8929585241299
20
-2.56832096777072
30
0
41
1
10
62.9616037621623
20
-2.60988321845886
30
0
41
1
10
63.1673467944167
20
-2.73275773368647
30
0
41
1
10
63.3042575628007
20
-2.81225429612536
30
0
41
1
10
63.5775933055782
20
-2.96642161828501
30
0
41
1
10
63.7140178243818
20
-3.04109400081015
30
0
41
1
10
63.9182215463056
20
-3.14950798483696
30
0
41
1
10
63.9862052553055
20
-3.18505640927728
30
0
41
1
10
64.1221375569019
20
-3.25484089828546
30
0
41
1
10
64.1900809353877
20
-3.28908088165031
30
0
41
1
10
64.5303415365209
20
-3.45644870692999
30
0
41
1
10
64.8042712431153
20
-3.5781937472245
30
0
41
1
10
65.0794453172335
20
-3.6881713664821
30
0
0
SPLINE
5
13E
100
AcDbEntity
8
1
62
256
6
ByLayer
370
18
48
1
60
0
100
AcDbSpline
70
4
71
3
72
33
73
29
40
0
40
0
40
0
40
0
40
0.124999999999993
40
0.124999999999993
40
0.249999999999986
40
0.249999999999986
40
0.374999999999979
40
0.374999999999979
40
0.499999999999972
40
0.499999999999972
40
0.531249999999974
40
0.531249999999974
40
0.562499999999976
40
0.624999999999982
40
0.624999999999982
40
0.749999999999978
40
0.749999999999978
40
0.812499999999983
40
0.812499999999983
40
0.843749999999986
40
0.843749999999986
40
0.874999999999989
40
0.874999999999989
40
0.906249999999992
40
0.906249999999992
40
0.937499999999995
40
0.937499999999995
40
1
40
1
40
1
40
1
41
1
10
65.0794453172335
20
-3.6881713664821
30
0
41
1
10
65.1374379242193
20
-3.71134901819687
30
0
41
1
10
65.1949327495008
20
-3.73692810526228
30
0
41
1
10
65.3087094606767
20
-3.79287014816077
30
0
41
1
10
65.3649922591969
20
-3.82323110997214
30
0
41
1
10
65.4761961810546
20
-3.88883864024231
30
0
41
1
10
65.531118080649
20
-3.92408212822633
30
0
41
1
10
65.6394927261767
20
-3.99975347151954
30
0
41
1
10
65.69294613528
20
-4.04017569702376
30
0
41
1
10
65.7587898529295
20
-4.09433068686724
30
0
41
1
10
65.7719208825158
20
-4.10535396095489
30
0
41
1
10
65.7979562029712
20
-4.12766821328438
30
0
41
1
10
65.8367107147726
20
-4.16157472150607
30
0
41
1
10
65.8745636780349
20
-4.19680910135273
30
0
41
1
10
65.9490403542625
20
-4.26913865830437
30
0
41
1
10
65.9970590154357
20
-4.31982160627186
30
0
41
1
10
66.0664455034535
20
-4.40015798117773
30
0
41
1
10
66.0891330211781
20
-4.42765930509384
30
0
41
1
10
66.1224578507609
20
-4.47012098786391
30
0
41
1
10
66.1334632491783
20
-4.48449806382374
30
0
41
1
10
66.1550854599926
20
-4.51348790298673
30
0
41
1
10
66.1657158525113
20
-4.52811754702623
30
0
41
1
10
66.1866096207119
20
-4.55765307030256
30
0
41
1
10
66.1968743498054
20
-4.57255842427472
30
0
41
1
10
66.2170248498192
20
-4.6026556330269
30
0
41
1
10
66.2269088755383
20
-4.61784828915415
30
0
41
1
10
66.2558964734838
20
-4.66390008332127
30
0
41
1
10
66.2743547092322
20
-4.69522514607684
30
0
41
1
10
66.2918808825317
20
-4.72722009455117
30
0
0
SPLINE
5
13F
100
AcDbEntity
8
1
62
256
6
ByLayer
370
18
48
1
60
0
100
AcDbSpline
70
4
71
3
72
8
73
4
40
0
40
0
40
0
40
0
40
1
40
1
40
1
40
1
41
1
10
66.2918808825317
20
-4.7272200945512
30
0
41
1
10
66.3680884385595
20
-4.86634098459413
30
0
41
1
10
66.4437023269076
20
-5.00569354328806
30
0
41
1
10
66.5188873269641
20
-5.14519462718047
30
0
0
SPLINE
5
140
100
AcDbEntity
8
1
62
256
6
ByLayer
370
18
48
1
60
0
100
AcDbSpline
70
4
71
3
72
8
73
4
40
0
40
0
40
0
40
0
40
1
40
1
40
1
40
1
41
1
10
67.9691613113369
20
-6.0479906470307
30
0
41
1
10
67.9082835528284
20
-6.04174394755566
30
0
41
1
10
67.8474046907826
20
-6.03448078066367
30
0
41
1
10
67.7865219910817
20
-6.02620729129282
30
0
0
SPLINE
5
141
100
AcDbEntity
8
1
62
256
6
ByLayer
370
13
48
1
60
0
100
AcDbSpline
70
4
71
3
72
10
73
6
40
0
40
0
40
0
40
0
40
0.348512710137826
40
0.646368360252394
40
1
40
1
40
1
40
1
41
1
10
68.9450769225446
20
-1.66225141498902
30
0
41
1
10
68.9206289766009
20
-1.19292677062066
30
0
41
1
10
68.8746144032069
20
-0.275152377880431
30
0
41
1
10
68.800555724241
20
1.22338709517069
30
0
41
1
10
68.7537669969422
20
2.11612912833951
30
0
41
1
10
68.7287469385641
20
2.56352592948809
30
0
0
SPLINE
5
142
100
AcDbEntity
8
1
62
256
6
ByLayer
370
18
48
1
60
0
100
AcDbSpline
70
4
71
3
72
10
73
6
40
0
40
0
40
0
40
0
40
0.5
40
0.5
40
1
40
1
40
1
40
1
41
1
10
69.2384376931892
20
-2.20602715972413
30
0
41
1
10
69.1898912991536
20
-2.11306208823316
30
0
41
1
10
69.1411599151798
20
-2.0211876000229
30
0
41
1
10
69.0433841089112
20
-1.83989257322833
30
0
41
1
10
68.9943294754882
20
-1.75045180292108
30
0
41
1
10
68.9450769225446
20
-1.66225141498907
30
0
0
SPLINE
5
143
100
AcDbEntity
8
1
62
256
6
ByLayer
370
18
48
1
60
0
100
AcDbSpline
70
4
71
3
72
34
73
30
40
0
40
0
40
0
40
0
40
0.0625000000000001
40
0.0625000000000001
40
0.0937500000000001
40
0.0937500000000001
40
0.125
40
0.125
40
0.25
40
0.25
40
0.375
40
0.375
40
0.437499999999999
40
0.437499999999999
40
0.468749999999999
40
0.468749999999999
40
0.499999999999999
40
0.499999999999999
40
0.625
40
0.625
40
0.75
40
0.75
40
0.875
40
0.875
40
0.90625
40
0.90625
40
0.9375
40
0.9375
40
1
40
1
40
1
40
1
41
1
10
69.012831308451
20
2.57700467276052
30
0
41
1
10
69.0174931163337
20
2.48414409276251
30
0
41
1
10
69.0221644481203
20
2.38992382194422
30
0
41
1
10
69.0292047973278
20
2.24651187958634
30
0
41
1
10
69.0315565762415
20
2.19837236042952
30
0
41
1
10
69.0362477333337
20
2.10195295268429
30
0
41
1
10
69.0385904877554
20
2.0536044995751
30
0
41
1
10
69.0502990953748
20
1.81117619511869
30
0
41
1
10
69.0596498501801
20
1.61504356772687
30
0
41
1
10
69.0785461948469
20
1.21850765332172
30
0
41
1
10
69.0881501446279
20
1.01810693940629
30
0
41
1
10
69.1024610046812
20
0.714267029426765
30
0
41
1
10
69.1072116421104
20
0.612446051237924
30
0
41
1
10
69.1142950828874
20
0.458889828993222
30
0
41
1
10
69.1166495075281
20
0.40756691094856
30
0
41
1
10
69.1213472036935
20
0.304643205298106
30
0
41
1
10
69.1236938439444
20
0.252967613364007
30
0
41
1
10
69.1353618739338
20
-0.0049875547808824
30
0
41
1
10
69.144498219689
20
-0.210012364591563
30
0
41
1
10
69.1629508735615
20
-0.617445435603855
30
0
41
1
10
69.1722238923101
20
-0.819855485582565
30
0
41
1
10
69.190926048904
20
-1.22206682837282
30
0
41
1
10
69.2003538147119
20
-1.42186835565869
30
0
41
1
10
69.2122521241257
20
-1.66994319432635
30
0
41
1
10
69.2146374384405
20
-1.71947410214042
30
0
41
1
10
69.219419787328
20
-1.81836576541744
30
0
41
1
10
69.2218074836398
20
-1.86753334422971
30
0
41
1
10
69.2289561024403
20
-2.01411571253081
30
0
41
1
10
69.2337045572549
20
-2.11065300103496
30
0
41
1
10
69.2384376931963
20
-2.20602715972925
30
0
0
SPLINE
5
144
100
AcDbEntity
8
1
62
256
6
ByLayer
370
18
48
1
60
0
100
AcDbSpline
70
4
71
3
72
32
73
28
40
0
40
0
40
0
40
0
40
0.0624999999999996
40
0.0624999999999996
40
0.124999999999999
40
0.124999999999999
40
0.249999999999999
40
0.249999999999999
40
0.374999999999999
40
0.374999999999999
40
0.406249999999999
40
0.406249999999999
40
0.437499999999999
40
0.437499999999999
40
0.499999999999999
40
0.499999999999999
40
0.624999999999999
40
0.624999999999999
40
0.749999999999999
40
0.749999999999999
40
0.812499999999999
40
0.812499999999999
40
0.843749999999999
40
0.843749999999999
40
0.874999999999999
40
0.874999999999999
40
1
40
1
40
1
40
1
41
1
10
69.4206804670297
20
-2.38503364787721
30
0
41
1
10
69.4159763323172
20
-2.2899014666863
30
0
41
1
10
69.4112934057177
20
-2.19406619131689
30
0
41
1
10
69.4019260466178
20
-2.00126557881256
30
0
41
1
10
69.3972380923922
20
-1.90425974249098
30
0
41
1
10
69.3831628431086
20
-1.6114514120718
30
0
41
1
10
69.3737650646323
20
-1.41386253163694
30
0
41
1
10
69.3549438227815
20
-1.0139444272854
30
0
41
1
10
69.3455218920759
20
-0.811615363922357
30
0
41
1
10
69.3337036275692
20
-0.555667422261195
30
0
41
1
10
69.3313377555446
20
-0.504325637191641
30
0
41
1
10
69.3266000903527
20
-0.40133431120168
30
0
41
1
10
69.3242270292065
20
-0.349656859742168
30
0
41
1
10
69.3171368189964
20
-0.195046143930654
30
0
41
1
10
69.3124356598431
20
-0.0922485467682748
30
0
41
1
10
69.2983789261274
20
0.215330352725459
30
0
41
1
10
69.2890768066974
20
0.419300115894686
30
0
41
1
10
69.2705434999981
20
0.825104979231497
30
0
41
1
10
69.2613142946774
20
1.02694014655975
30
0
41
1
10
69.2473197035918
20
1.32805895581302
30
0
41
1
10
69.2426249492142
20
1.42815884750843
30
0
41
1
10
69.2355084283882
20
1.57789000636279
30
0
41
1
10
69.2331218820549
20
1.62779763253076
30
0
41
1
10
69.2283445695747
20
1.72712506750983
30
0
41
1
10
69.2259558677942
20
1.77650298742913
30
0
41
1
10
69.2140160920113
20
2.02198015867111
30
0
41
1
10
69.2044782980206
20
2.21385340252471
30
0
41
1
10
69.1949917689373
20
2.40133682573776
30
0
0
SPLINE
5
145
100
AcDbEntity
8
1
62
256
6
ByLayer
370
18
48
1
60
0
100
AcDbSpline
70
4
71
3
72
60
73
56
40
0
40
0
40
0
40
0
40
0.125000000000008
40
0.125000000000008
40
0.250000000000015
40
0.250000000000015
40
0.265625000000013
40
0.265625000000013
40
0.28125000000001
40
0.28125000000001
40
0.296875000000008
40
0.296875000000008
40
0.312500000000005
40
0.312500000000005
40
0.328125000000003
40
0.328125000000003
40
0.34375
40
0.34375
40
0.374999999999995
40
0.374999999999995
40
0.40624999999999
40
0.40624999999999
40
0.421874999999987
40
0.421874999999987
40
0.437499999999985
40
0.437499999999985
40
0.453124999999982
40
0.453124999999982
40
0.46874999999998
40
0.46874999999998
40
0.499999999999987
40
0.499999999999987
40
0.51562499999999
40
0.51562499999999
40
0.531249999999994
40
0.531249999999994
40
0.546874999999998
40
0.546874999999998
40
0.562500000000001
40
0.562500000000001
40
0.570312500000004
40
0.570312500000004
40
0.578125000000006
40
0.578125000000006
40
0.59375000000001
40
0.625000000000009
40
0.750000000000008
40
0.750000000000008
40
0.875000000000008
40
0.875000000000008
40
0.937500000000007
40
0.937500000000007
40
0.968750000000004
40
0.968750000000004
40
1
40
1
40
1
40
1
41
1
10
70.784473547177
20
-3.26573535445883
30
0
41
1
10
70.7382784804632
20
-3.17067019343546
30
0
41
1
10
70.6919675792982
20
-3.07623288879921
30
0
41
1
10
70.5990515604936
20
-2.8886552691269
30
0
41
1
10
70.5524414753919
20
-2.79551408530801
30
0
41
1
10
70.4998590288686
20
-2.69148551657224
30
0
41
1
10
70.4940146131434
20
-2.67993763173695
30
0
41
1
10
70.482320894479
20
-2.65686164543831
30
0
41
1
10
70.4765021125723
20
-2.64532584371816
30
0
41
1
10
70.4646988327815
20
-2.62231371768172
30
0
41
1
10
70.4586517473716
20
-2.6108528792216
30
0
41
1
10
70.4456838191724
20
-2.58816670687705
30
0
41
1
10
70.4387092792666
20
-2.57695473339825
30
0
41
1
10
70.4238827996765
20
-2.55476742820369
30
0
41
1
10
70.4160957027546
20
-2.54377600368974
30
0
41
1
10
70.3999030873027
20
-2.5219650214006
30
0
41
1
10
70.3914555931255
20
-2.51111447568104
30
0
41
1
10
70.3656216940739
20
-2.4794732633674
30
0
41
1
10
70.3475644498301
20
-2.4594559620387
30
0
41
1
10
70.3099986436576
20
-2.42130847393781
30
0
41
1
10
70.2905160339852
20
-2.40314356325936
30
0
41
1
10
70.2602420630987
20
-2.3772794412252
30
0
41
1
10
70.2499983992595
20
-2.36891827102741
30
0
41
1
10
70.2295038962933
20
-2.35299732587268
30
0
41
1
10
70.2192120500247
20
-2.34540148023905
30
0
41
1
10
70.1985388382191
20
-2.33102145572499
30
0
41
1
10
70.188156236083
20
-2.32424897276948
30
0
41
1
10
70.1673084612005
20
-2.31154500975589
30
0
41
1
10
70.156817205535
20
-2.30559577554394
30
0
41
1
10
70.125403076156
20
-2.28914226699135
30
0
41
1
10
70.1049383597338
20
-2.28016274893002
30
0
41
1
10
70.0751887555338
20
-2.27036545952902
30
0
41
1
10
70.0653660289525
20
-2.26771601358132
30
0
41
1
10
70.0467996273239
20
-2.26431741812246
30
0
41
1
10
70.038022844507
20
-2.26358476090908
30
0
41
1
10
70.0216010484955
20
-2.26427263328671
30
0
41
1
10
70.0139397965241
20
-2.26573769308951
30
0
41
1
10
69.9996982914491
20
-2.26999356003816
30
0
41
1
10
69.9929966433771
20
-2.27267400782239
30
0
41
1
10
69.9829232290188
20
-2.27659701005271
30
0
41
1
10
69.9795684263247
20
-2.27789761535925
30
0
41
1
10
69.9727906524729
20
-2.28037838657397
30
0
41
1
10
69.9693694060436
20
-2.2815609916432
30
0
41
1
10
69.9591170014639
20
-2.28509059581458
30
0
41
1
10
69.9386220996907
20
-2.29202655393274
30
0
41
1
10
69.8635798278665
20
-2.31609368935014
30
0
41
1
10
69.7956765111225
20
-2.33384943359616
30
0
41
1
10
69.6876515567739
20
-2.35706969321092
30
0
41
1
10
69.6339068756363
20
-2.3660990352252
30
0
41
1
10
69.5536236834135
20
-2.37587136923216
30
0
41
1
10
69.5269115917354
20
-2.37848908786947
30
0
41
1
10
69.486943904094
20
-2.38152080291908
30
0
41
1
10
69.4736427851932
20
-2.38238964043174
30
0
41
1
10
69.4471149219117
20
-2.38389747490868
30
0
41
1
10
69.4339078001562
20
-2.38456769367124
30
0
41
1
10
69.4206804670297
20
-2.38503364787721
30
0
0
SPLINE
5
146
100
AcDbEntity
8
1
62
256
6
ByLayer
370
13
48
1
60
0
100
AcDbSpline
70
4
71
3
72
11
73
7
40
0
40
0
40
0
40
0
40
0.0582184700661963
40
0.352967478082446
40
0.810905394768684
40
1
40
1
40
1
40
1
41
1
10
70.784473547177
20
-3.26573535445883
30
0
41
1
10
70.7801170428908
20
-3.19447706024144
30
0
41
1
10
70.753728272049
20
-2.75558022718584
30
0
41
1
10
70.6933544264517
20
-1.65767614307745
30
0
41
1
10
70.6261132492967
20
-0.301093467002858
30
0
41
1
10
70.5811309508337
20
0.603768584948938
30
0
41
1
10
70.5681018805865
20
0.862925659699187
30
0
0
SPLINE
5
147
100
AcDbEntity
8
1
62
256
6
ByLayer
370
18
48
1
60
0
100
AcDbSpline
70
4
71
3
72
49
73
45
40
0
40
0
40
0
40
0
40
0.124999999999995
40
0.124999999999995
40
0.187499999999992
40
0.187499999999992
40
0.218749999999997
40
0.218749999999997
40
0.234374999999999
40
0.234374999999999
40
0.250000000000001
40
0.250000000000001
40
0.281249999999989
40
0.281249999999989
40
0.312499999999977
40
0.312499999999977
40
0.374999999999953
40
0.374999999999953
40
0.406249999999941
40
0.406249999999941
40
0.43749999999993
40
0.43749999999993
40
0.499999999999906
40
0.499999999999906
40
0.531249999999894
40
0.531249999999894
40
0.562499999999882
40
0.562499999999882
40
0.59374999999987
40
0.59374999999987
40
0.624999999999858
40
0.624999999999858
40
0.64062499999986
40
0.64062499999986
40
0.656249999999863
40
0.656249999999863
40
0.687499999999867
40
0.687499999999867
40
0.703124999999876
40
0.703124999999876
40
0.718749999999885
40
0.718749999999885
40
0.749999999999901
40
1
40
1
40
1
40
1
41
1
10
81.0202752561803
20
-1.56942967972861
30
0
41
1
10
80.9935997562386
20
-1.52230322180157
30
0
41
1
10
80.9668773457931
20
-1.47555999702274
30
0
41
1
10
80.926727269147
20
-1.40604279196816
30
0
41
1
10
80.9133352969854
20
-1.38297189320193
30
0
41
1
10
80.8932221950883
20
-1.34851034794551
30
0
41
1
10
80.8864855074835
20
-1.33704335701674
30
0
41
1
10
80.8756208328417
20
-1.31977840450435
30
0
41
1
10
80.8718723883614
20
-1.31401268236112
30
0
41
1
10
80.8640399720692
20
-1.30244871592763
30
0
41
1
10
80.8599606333791
20
-1.29665108543981
30
0
41
1
10
80.8473102959186
20
-1.27922130066798
30
0
41
1
10
80.8383822563681
20
-1.26755969908879
30
0
41
1
10
80.819734314558
20
-1.2441772321298
30
0
41
1
10
80.8099698924652
20
-1.23242884079636
30
0
41
1
10
80.7800435241811
20
-1.19787986565629
30
0
41
1
10
80.7589964260949
20
-1.17554604708749
30
0
41
1
10
80.7260718887688
20
-1.14289594026968
30
0
41
1
10
80.7148694087572
20
-1.13215554898812
30
0
41
1
10
80.6920045128342
20
-1.11095945224736
30
0
41
1
10
80.6803005399464
20
-1.10047041761388
30
0
41
1
10
80.6451409049174
20
-1.07006224459855
30
0
41
1
10
80.6214479225052
20
-1.0510417665032
30
0
41
1
10
80.5855500805013
20
-1.02469276628747
30
0
41
1
10
80.5734556739613
20
-1.0162114473691
30
0
41
1
10
80.5495948922413
20
-1.00026784689811
30
0
41
1
10
80.5378260256446
20
-0.99279600895926
30
0
41
1
10
80.5146589235592
20
-0.97894078181136
30
0
41
1
10
80.5032244682215
20
-0.972531082071072
30
0
41
1
10
80.4809955310934
20
-0.961225407296524
30
0
41
1
10
80.4704568858207
20
-0.95648401892808
30
0
41
1
10
80.4557608139033
20
-0.951136359817383
30
0
41
1
10
80.4510449653282
20
-0.949643754963205
30
0
41
1
10
80.4419655394823
20
-0.947214353364814
30
0
41
1
10
80.4375985732285
20
-0.946280918980449
30
0
41
1
10
80.4251039831394
20
-0.94415657798308
30
0
41
1
10
80.4174324200424
20
-0.943528554611873
30
0
41
1
10
80.4058851195317
20
-0.942446251557271
30
0
41
1
10
80.4020383956157
20
-0.942073650598218
30
0
41
1
10
80.3942492840364
20
-0.941174632223039
30
0
41
1
10
80.3903228096934
20
-0.940668767573897
30
0
41
1
10
80.3785713962961
20
-0.939142191811214
30
0
41
1
10
80.3081044104304
20
-0.929494264632297
30
0
41
1
10
80.2379368902115
20
-0.91533798146574
30
0
41
1
10
80.1759686116006
20
-0.899353208809998
30
0
0
SPLINE
5
148
100
AcDbEntity
8
1
62
256
6
ByLayer
370
18
48
1
60
0
100
AcDbSpline
70
4
71
3
72
12
73
8
40
0
40
0
40
0
40
0
40
0.5
40
0.5
40
0.75
40
0.75
40
1
40
1
40
1
40
1
41
1
10
80.1759686116006
20
-0.899353208810027
30
0
41
1
10
80.0520069129788
20
-0.794688556431481
30
0
41
1
10
79.9283157135651
20
-0.687625346022088
30
0
41
1
10
79.742968898977
20
-0.523571316747336
30
0
41
1
10
79.6812184106318
20
-0.468309676683845
30
0
41
1
10
79.5577448884476
20
-0.356652289873608
30
0
41
1
10
79.4961591795016
20
-0.300380153141248
30
0
41
1
10
79.4348555655479
20
-0.243822725408364
30
0
0
SPLINE
5
149
100
AcDbEntity
8
1
62
256
6
ByLayer
370
18
48
1
60
0
100
AcDbSpline
70
4
71
3
72
8
73
4
40
0
40
0
40
0
40
0
40
1
40
1
40
1
40
1
41
1
10
79.4348555655479
20
-0.243822725408336
30
0
41
1
10
79.4127891659678
20
-0.211662607023697
30
0
41
1
10
79.3906849829127
20
-0.179845616830391
30
0
41
1
10
79.3685400635949
20
-0.148375424021452
30
0
0
SPLINE
5
14A
100
AcDbEntity
8
1
62
256
6
ByLayer
370
18
48
1
60
0
100
AcDbSpline
70
4
71
3
72
58
73
54
40
0
40
0
40
0
40
0
40
0.125000000000044
40
0.125000000000044
40
0.250000000000089
40
0.250000000000089
40
0.265625000000093
40
0.265625000000093
40
0.281250000000097
40
0.281250000000097
40
0.296875000000101
40
0.296875000000101
40
0.312500000000105
40
0.312500000000105
40
0.328125000000109
40
0.328125000000109
40
0.343750000000113
40
0.343750000000113
40
0.375000000000121
40
0.375000000000121
40
0.40625000000013
40
0.40625000000013
40
0.421875000000128
40
0.421875000000128
40
0.437500000000126
40
0.437500000000126
40
0.468750000000122
40
0.468750000000122
40
0.500000000000119
40
0.500000000000119
40
0.515625000000123
40
0.515625000000123
40
0.531250000000127
40
0.531250000000127
40
0.546875000000131
40
0.546875000000131
40
0.562500000000135
40
0.562500000000135
40
0.570312500000133
40
0.570312500000133
40
0.578125000000132
40
0.578125000000132
40
0.593750000000128
40
0.625000000000121
40
0.75000000000008
40
0.75000000000008
40
0.87500000000004
40
0.87500000000004
40
0.93750000000002
40
0.93750000000002
40
0.96875000000001
40
0.96875000000001
40
1
40
1
40
1
40
1
41
1
10
79.3685400635949
20
-0.148375424021509
30
0
41
1
10
79.3223998049276
20
-0.0828054024888729
30
0
41
1
10
79.2761452260758
20
-0.0188285925426044
30
0
41
1
10
79.1833465154927
20
0.105896051954517
30
0
41
1
10
79.1367976709891
20
0.166654670171653
30
0
41
1
10
79.084287545238
20
0.233097379286846
30
0
41
1
10
79.0784512101044
20
0.240453047856676
30
0
41
1
10
79.0667736948492
20
0.255111566003393
30
0
41
1
10
79.0609599519613
20
0.262398138211637
30
0
41
1
10
79.0491873781463
20
0.277001020365901
30
0
41
1
10
79.0431656221217
20
0.28435465584451
30
0
41
1
10
79.0302639159848
20
0.299512112414845
30
0
41
1
10
79.0233300365596
20
0.307347577312299
30
0
41
1
10
79.0085657006541
20
0.323491626440045
30
0
41
1
10
79.000802586667
20
0.33176048176415
30
0
41
1
10
78.9846608103125
20
0.34860736775471
30
0
41
1
10
78.9762392906937
20
0.357221742853142
30
0
41
1
10
78.9504890256646
20
0.383060795463081
30
0
41
1
10
78.9324925368961
20
0.400442757055856
30
0
41
1
10
78.8950416732399
20
0.435518682859481
30
0
41
1
10
78.8756154231159
20
0.453203490211081
30
0
41
1
10
78.8454244312334
20
0.480003623110008
30
0
41
1
10
78.835178948163
20
0.488985421686607
30
0
41
1
10
78.8146873119465
20
0.506729942640533
30
0
41
1
10
78.8043966210367
20
0.515532582972952
30
0
41
1
10
78.7733898436232
20
0.541725416438965
30
0
41
1
10
78.7525203543753
20
0.558904081870281
30
0
41
1
10
78.7105396496275
20
0.59270209501841
30
0
41
1
10
78.6900288677211
20
0.608849482702425
30
0
41
1
10
78.6602126977285
20
0.631757864800051
30
0
41
1
10
78.6503583691391
20
0.639227377715969
30
0
41
1
10
78.6316968261536
20
0.653095690630266
30
0
41
1
10
78.6228721532734
20
0.659502010445408
30
0
41
1
10
78.6063639324439
20
0.671127456033133
30
0
41
1
10
78.5986566561936
20
0.676355153175479
30
0
41
1
10
78.5843456216716
20
0.685808077262379
30
0
41
1
10
78.5776305685726
20
0.690135022163133
30
0
41
1
10
78.5675509955668
20
0.696695693742214
30
0
41
1
10
78.5641967241309
20
0.698887564403833
30
0
41
1
10
78.5574244828158
20
0.703356860979341
30
0
41
1
10
78.5540034756603
20
0.705637381630169
30
0
41
1
10
78.5437458016768
20
0.712505719880028
30
0
41
1
10
78.5232402416986
20
0.726361014907241
30
0
41
1
10
78.4481573655067
20
0.778473877420964
30
0
41
1
10
78.3802141204049
20
0.829821280113777
30
0
41
1
10
78.2721250832432
20
0.916624007064144
30
0
41
1
10
78.2183477995478
20
0.962377828376248
30
0
41
1
10
78.1380143123085
20
1.03442443337437
30
0
41
1
10
78.1112853741345
20
1.0590168716981
30
0
41
1
10
78.0712915602577
20
1.09672329139934
30
0
41
1
10
78.0579815894269
20
1.10942339901192
30
0
41
1
10
78.0314358571569
20
1.13504907841877
30
0
41
1
10
78.0182197389157
20
1.14795353121741
30
0
41
1
10
78.0049841566153
20
1.16102975895598
30
0
0
SPLINE
5
14B
100
AcDbEntity
8
1
62
256
6
ByLayer
370
18
48
1
60
0
100
AcDbSpline
70
4
71
3
72
8
73
4
40
0
40
0
40
0
40
0
40
1
40
1
40
1
40
1
41
1
10
77.8220874776285
20
1.35084032279025
30
0
41
1
10
77.8830719665193
20
1.28776693825847
30
0
41
1
10
77.9440323312757
20
1.22449184152447
30
0
41
1
10
78.0049841566153
20
1.16102975895598
30
0
0
SPLINE
5
14C
100
AcDbEntity
8
1
62
256
6
ByLayer
370
18
48
1
60
0
100
AcDbSpline
70
4
71
3
72
8
73
4
40
0
40
0
40
0
40
0
40
1
40
1
40
1
40
1
41
1
10
77.8220874776299
20
1.35084032278868
30
0
41
1
10
77.7251027331517
20
1.4509660550753
30
0
41
1
10
77.6274380729206
20
1.54307582176898
30
0
41
1
10
77.5290738805467
20
1.62669061369383
30
0
0
SPLINE
5
14D
100
AcDbEntity
8
1
62
256
6
ByLayer
370
18
48
1
60
0
100
AcDbSpline
70
4
71
3
72
59
73
55
40
0
40
0
40
0
40
0
40
0.124999999999969
40
0.124999999999969
40
0.249999999999938
40
0.249999999999938
40
0.265624999999936
40
0.265624999999936
40
0.281249999999933
40
0.281249999999933
40
0.296874999999931
40
0.296874999999931
40
0.312499999999928
40
0.312499999999928
40
0.328124999999926
40
0.328124999999926
40
0.343749999999923
40
0.343749999999923
40
0.374999999999918
40
0.374999999999918
40
0.406249999999913
40
0.406249999999913
40
0.42187499999991
40
0.42187499999991
40
0.437499999999908
40
0.437499999999908
40
0.453124999999905
40
0.453124999999905
40
0.468749999999902
40
0.468749999999902
40
0.499999999999909
40
0.499999999999909
40
0.515624999999913
40
0.515624999999913
40
0.531249999999917
40
0.531249999999917
40
0.54687499999992
40
0.54687499999992
40
0.562499999999924
40
0.562499999999924
40
0.570312499999925
40
0.578124999999927
40
0.578124999999927
40
0.59374999999993
40
0.624999999999937
40
0.749999999999955
40
0.749999999999955
40
0.874999999999974
40
0.874999999999974
40
0.937499999999983
40
0.937499999999983
40
0.968749999999991
40
0.968749999999991
40
1
40
1
40
1
40
1
41
1
10
77.5290738805467
20
1.62669061369385
30
0
41
1
10
77.4828812548497
20
1.66595680083876
30
0
41
1
10
77.4365756106512
20
1.70331522196798
30
0
41
1
10
77.3436754034949
20
1.77418657826271
30
0
41
1
10
77.2970759552282
20
1.80771280010978
30
0
41
1
10
77.2445101144066
20
1.84315609032706
30
0
41
1
10
77.238667595892
20
1.84706239132757
30
0
41
1
10
77.2269780194185
20
1.85481123040341
30
0
41
1
10
77.2211604077283
20
1.85862490723901
30
0
41
1
10
77.2093654881176
20
1.86633945720078
30
0
41
1
10
77.2033256727722
20
1.87030148111452
30
0
41
1
10
77.1903816804319
20
1.8789992944896
30
0
41
1
10
77.183424210872
20
1.88378689015246
30
0
41
1
10
77.168634038438
20
1.89414629166788
30
0
41
1
10
77.1608663103038
20
1.89965487699081
30
0
41
1
10
77.1447201266203
20
1.91120138965479
30
0
41
1
10
77.1362922301289
20
1.91727840435678
30
0
41
1
10
77.1104969476051
20
1.93603753827415
30
0
41
1
10
77.0924701048754
20
1.94937140932288
30
0
41
1
10
77.0549655460755
20
1.97754785428327
30
0
41
1
10
77.0355145476532
20
1.99235775508811
30
0
41
1
10
77.0052876607159
20
2.01574349199339
30
0
41
1
10
76.9950550310801
20
2.02372205642013
30
0
41
1
10
76.9745791402764
20
2.03983631141568
30
0
41
1
10
76.9642945583531
20
2.04800367752881
30
0
41
1
10
76.943631334334
20
2.06459965883926
30
0
41
1
10
76.9332513747898
20
2.07303224380325
30
0
41
1
10
76.9124037486473
20
2.09018616684466
30
0
41
1
10
76.9019123969768
20
2.09892644057075
30
0
41
1
10
76.8704739225996
20
2.12548891665611
30
0
41
1
10
76.8499850015239
20
2.14327648630177
30
0
41
1
10
76.8201866830306
20
2.1701746297025
30
0
41
1
10
76.8103444758946
20
2.17924305718424
30
0
41
1
10
76.791728956
20
2.19690076187152
30
0
41
1
10
76.7829243261377
20
2.20552551151496
30
0
41
1
10
76.7664466461599
20
2.22231843571538
30
0
41
1
10
76.7587565837666
20
2.2305171275919
30
0
41
1
10
76.744480999148
20
2.24626493190914
30
0
41
1
10
76.737771480334
20
2.25390777405801
30
0
41
1
10
76.7276912995303
20
2.2654324390237
30
0
41
1
10
76.7209791379411
20
2.27312754788537
30
0
41
1
10
76.7141333315738
20
2.28093991643976
30
0
41
1
10
76.7038738929147
20
2.29267846155361
30
0
41
1
10
76.6833646694995
20
2.31625229584216
30
0
41
1
10
76.608266676415
20
2.40376087042537
30
0
41
1
10
76.5403107080729
20
2.48656722382492
30
0
41
1
10
76.4322086969666
20
2.62273851214255
30
0
41
1
10
76.3784275815425
20
2.69270379220165
30
0
41
1
10
76.2980904816398
20
2.80035757261706
30
0
41
1
10
76.2713604750917
20
2.83669804583514
30
0
41
1
10
76.2313665991114
20
2.89185972390848
30
0
41
1
10
76.2180568936728
20
2.91035253763763
30
0
41
1
10
76.1915122529949
20
2.9475270649863
30
0
41
1
10
76.1782970579309
20
2.96619643888079
30
0
41
1
10
76.165060512857
20
2.9849955695725
30
0
0
SPLINE
5
14E
100
AcDbEntity
8
1
62
256
6
ByLayer
370
18
48
1
60
0
100
AcDbSpline
70
4
71
3
72
8
73
4
40
0
40
0
40
0
40
0
40
1
40
1
40
1
40
1
41
1
10
75.9829260949739
20
3.15174480574078
30
0
41
1
10
76.0436571235519
20
3.09666497452565
30
0
41
1
10
76.104363456572
20
3.04107742495631
30
0
41
1
10
76.165060512857
20
2.9849955695725
30
0
0
SPLINE
5
14F
100
AcDbEntity
8
1
62
256
6
ByLayer
370
18
48
1
60
0
100
AcDbSpline
70
4
71
3
72
10
73
6
40
0
40
0
40
0
40
0
40
0.5
40
0.5
40
1
40
1
40
1
40
1
41
1
10
75.9829260949751
20
3.15174480573529
30
0
41
1
10
75.9343948416642
20
3.17019380140391
30
0
41
1
10
75.8856797553484
20
3.1864326927965
30
0
41
1
10
75.7879319745504
20
3.21440525347899
30
0
41
1
10
75.7388890441293
20
3.22614365138188
30
0
41
1
10
75.6896439565167
20
3.2356025983743
30
0
0
SPLINE
5
150
100
AcDbEntity
8
1
62
256
6
ByLayer
370
18
48
1
60
0
100
AcDbSpline
70
4
71
3
72
57
73
53
40
0
40
0
40
0
40
0
40
0.125000000000048
40
0.125000000000048
40
0.250000000000095
40
0.250000000000095
40
0.265625000000105
40
0.265625000000105
40
0.281250000000115
40
0.281250000000115
40
0.296875000000125
40
0.296875000000125
40
0.312500000000135
40
0.312500000000135
40
0.328125000000145
40
0.328125000000145
40
0.343750000000155
40
0.343750000000155
40
0.375000000000175
40
0.375000000000175
40
0.406250000000195
40
0.406250000000195
40
0.421875000000205
40
0.421875000000205
40
0.437500000000216
40
0.437500000000216
40
0.468750000000236
40
0.468750000000236
40
0.500000000000256
40
0.500000000000256
40
0.515625000000266
40
0.515625000000266
40
0.531250000000276
40
0.531250000000276
40
0.546875000000286
40
0.546875000000286
40
0.562500000000296
40
0.562500000000296
40
0.570312500000297
40
0.570312500000297
40
0.578125000000298
40
0.593750000000293
40
0.625000000000274
40
0.750000000000183
40
0.750000000000183
40
0.875000000000092
40
0.875000000000092
40
0.937500000000046
40
0.937500000000046
40
0.968750000000023
40
0.968750000000023
40
1
40
1
40
1
40
1
41
1
10
75.6896439565167
20
3.2356025983745
30
0
41
1
10
75.6435198153035
20
3.24446207711557
30
0
41
1
10
75.5972774564505
20
3.25131086675594
30
0
41
1
10
75.5044964391105
20
3.26096746488389
30
0
41
1
10
75.4579525733942
20
3.26378937351083
30
0
41
1
10
75.4054485814213
20
3.26457409046407
30
0
41
1
10
75.3996129008135
20
3.26462789738449
30
0
41
1
10
75.387936686065
20
3.26466805687491
30
0
41
1
10
75.3821236127876
20
3.26462003932591
30
0
41
1
10
75.3703528064118
20
3.26463158649992
30
0
41
1
10
75.3643320182246
20
3.2647703455408
30
0
41
1
10
75.3514300649787
20
3.26605100657488
30
0
41
1
10
75.3444947431754
20
3.26726062832864
30
0
41
1
10
75.3297228901046
20
3.2707331854329
30
0
41
1
10
75.3219540737625
20
3.27291129547061
30
0
41
1
10
75.3057974684077
20
3.27797050130124
30
0
41
1
10
75.2973741432143
20
3.28087878556829
30
0
41
1
10
75.2716322874376
20
3.29056666966085
30
0
41
1
10
75.2536434596151
20
3.29843561108191
30
0
41
1
10
75.2162143601563
20
3.31672901984106
30
0
41
1
10
75.1968020510415
20
3.3270979508618
30
0
41
1
10
75.1666386563826
20
3.34459057023642
30
0
41
1
10
75.1563949952643
20
3.35076062293823
30
0
41
1
10
75.1359107454828
20
3.36359969826438
30
0
41
1
10
75.1256258176637
20
3.37029321613198
30
0
41
1
10
75.0946432854269
20
3.39131276611767
30
0
41
1
10
75.0738133413737
20
3.40661074821762
30
0
41
1
10
75.0318749391169
20
3.44002453983657
30
0
41
1
10
75.0113721545315
20
3.45762539305471
30
0
41
1
10
74.9815835257409
20
3.48569604981037
30
0
41
1
10
74.971735353341
20
3.49542355931376
30
0
41
1
10
74.953066575676
20
3.51509084439729
30
0
41
1
10
74.9442375335864
20
3.525056833565
30
0
41
1
10
74.9277214035852
20
3.54528924543396
30
0
41
1
10
74.9200083373389
20
3.55561801576155
30
0
41
1
10
74.9056803257439
20
3.57609046432268
30
0
41
1
10
74.8989621445096
20
3.5862734897054
30
0
41
1
10
74.8888822794324
20
3.6015821301705
30
0
41
1
10
74.8855286803389
20
3.6066895626696
30
0
41
1
10
74.8787593092035
20
3.61692649178298
30
0
41
1
10
74.8684995072234
20
3.63231719502159
30
0
41
1
10
74.8445771285703
20
3.66834566085882
30
0
41
1
10
74.7694959924625
20
3.78231807927733
30
0
41
1
10
74.7015492324174
20
3.88815654899426
30
0
41
1
10
74.5934508910832
20
4.05974740658692
30
0
41
1
10
74.5396676317081
20
4.14672904328114
30
0
41
1
10
74.4593286701751
20
4.27893332409519
30
0
41
1
10
74.4325984947481
20
4.3232907365464
30
0
41
1
10
74.3926026947249
20
4.3902489716591
30
0
41
1
10
74.3792920142194
20
4.4126381961166
30
0
41
1
10
74.3527446407279
20
4.45755110064033
30
0
41
1
10
74.3395275364128
20
4.48007260181322
30
0
41
1
10
74.3262917045863
20
4.50266661454305
30
0
0
SPLINE
5
151
100
AcDbEntity
8
1
62
256
6
ByLayer
370
18
48
1
60
0
100
AcDbSpline
70
4
71
3
72
8
73
4
40
0
40
0
40
0
40
0
40
1
40
1
40
1
40
1
41
1
10
74.1436822104304
20
4.63042543321242
30
0
41
1
10
74.2045727946226
20
4.58860280304685
30
0
41
1
10
74.2654374218063
20
4.54601287840646
30
0
41
1
10
74.3262917045863
20
4.50266661454305
30
0
0
SPLINE
5
152
100
AcDbEntity
8
1
62
256
6
ByLayer
370
18
48
1
60
0
100
AcDbSpline
70
4
71
3
72
10
73
6
40
0
40
0
40
0
40
0
40
0.5
40
0.5
40
1
40
1
40
1
40
1
41
1
10
74.1436822104316
20
4.63042543320339
30
0
41
1
10
74.0951276542455
20
4.61533635430501
30
0
41
1
10
74.0463811970725
20
4.59804851048355
30
0
41
1
10
73.948563784768
20
4.55907721078222
30
0
41
1
10
73.8994825695961
20
4.53739137329842
30
0
41
1
10
73.8501993955105
20
4.51347902498199
30
0
0
SPLINE
5
153
100
AcDbEntity
8
1
62
256
6
ByLayer
370
18
48
1
60
0
100
AcDbSpline
70
4
71
3
72
58
73
54
40
0
40
0
40
0
40
0
40
0.124999999999984
40
0.124999999999984
40
0.249999999999967
40
0.249999999999967
40
0.265624999999962
40
0.265624999999962
40
0.281249999999957
40
0.281249999999957
40
0.296874999999952
40
0.296874999999952
40
0.312499999999947
40
0.312499999999947
40
0.328124999999942
40
0.328124999999942
40
0.343749999999937
40
0.343749999999937
40
0.374999999999937
40
0.374999999999937
40
0.406249999999937
40
0.406249999999937
40
0.421874999999937
40
0.421874999999937
40
0.437499999999937
40
0.437499999999937
40
0.468749999999936
40
0.468749999999936
40
0.499999999999936
40
0.499999999999936
40
0.515624999999941
40
0.515624999999941
40
0.531249999999946
40
0.531249999999946
40
0.546874999999952
40
0.546874999999952
40
0.562499999999957
40
0.562499999999957
40
0.57031249999996
40
0.57031249999996
40
0.578124999999963
40
0.578124999999963
40
0.593749999999969
40
0.624999999999973
40
0.749999999999982
40
0.749999999999982
40
0.874999999999991
40
0.874999999999991
40
0.937499999999992
40
0.937499999999992
40
0.968749999999996
40
0.968749999999996
40
1
40
1
40
1
40
1
41
1
10
73.8501993955097
20
4.51347902498316
30
0
41
1
10
73.8040497424403
20
4.4910870707441
30
0
41
1
10
73.7577821668999
20
4.466771604706
30
0
41
1
10
73.6649562010739
20
4.41428623416937
30
0
41
1
10
73.6183924366574
20
4.38613008451992
30
0
41
1
10
73.5658722306232
20
4.35217502965764
30
0
41
1
10
73.560034805312
20
4.3483704561088
30
0
41
1
10
73.5483552681106
20
4.34069637054233
30
0
41
1
10
73.5425418557651
20
4.33678675045658
30
0
41
1
10
73.5307629443031
20
4.32910940143685
30
0
41
1
10
73.5247343600817
20
4.32543031964536
30
0
41
1
10
73.5118096125169
20
4.31921630271469
30
0
41
1
10
73.504859061269
20
4.31675751208297
30
0
41
1
10
73.4900613069915
20
4.31302401202365
30
0
41
1
10
73.4822811973266
20
4.31165510616498
30
0
41
1
10
73.4660992060291
20
4.30971855519897
30
0
41
1
10
73.4576684327899
20
4.3091728882415
30
0
41
1
10
73.4319107917777
20
4.3088650043654
30
0
41
1
10
73.4139123694065
20
4.31051224348349
30
0
41
1
10
73.376471128423
20
4.31713716445844
30
0
41
1
10
73.3570554258799
20
4.32204548710507
30
0
41
1
10
73.3268906146467
20
4.33192169143976
30
0
41
1
10
73.3166453901696
20
4.3356497271011
30
0
41
1
10
73.2961602699468
20
4.34390593746045
30
0
41
1
10
73.2858760750178
20
4.34844665258271
30
0
41
1
10
73.2548995502138
20
4.36347053566823
30
0
41
1
10
73.2340790142678
20
4.37540258426756
30
0
41
1
10
73.192170382368
20
4.40339249169892
30
0
41
1
10
73.1716749946903
20
4.41900573237621
30
0
41
1
10
73.1419110111426
20
4.44540831341936
30
0
41
1
10
73.1320716248318
20
4.45480441839879
30
0
41
1
10
73.1134231076304
20
4.47444790705242
30
0
41
1
10
73.1046061553937
20
4.48473000880392
30
0
41
1
10
73.0881149874895
20
4.50633093952271
30
0
41
1
10
73.080415489431
20
4.51772867409741
30
0
41
1
10
73.0661020493913
20
4.54080201559407
30
0
41
1
10
73.0593860840297
20
4.55247899083383
30
0
41
1
10
73.0493061317759
20
4.57000597509321
30
0
41
1
10
73.0459518876251
20
4.57585224156657
30
0
41
1
10
73.039180124639
20
4.58753046136349
30
0
41
1
10
73.0357592891258
20
4.59336143540577
30
0
41
1
10
73.0255015201577
20
4.61086254043963
30
0
41
1
10
73.004995641701
20
4.64589465514138
30
0
41
1
10
72.9299109841357
20
4.77467766095052
30
0
41
1
10
72.8619599009176
20
4.89273526263071
30
0
41
1
10
72.7538509332333
20
5.08226361642022
30
0
41
1
10
72.7000607994515
20
5.17741528571392
30
0
41
1
10
72.619706777368
20
5.3206811398955
30
0
41
1
10
72.592970779843
20
5.36852349995243
30
0
41
1
10
72.5529662804568
20
5.44042708728941
30
0
41
1
10
72.5396527307318
20
5.46442024802539
30
0
41
1
10
72.5130998538689
20
5.51247004479785
30
0
41
1
10
72.4998801682304
20
5.53653482720557
30
0
41
1
10
72.48664107369
20
5.56060774161693
30
0
0
SPLINE
5
154
100
AcDbEntity
8
1
62
256
6
ByLayer
370
18
48
1
60
0
100
AcDbSpline
70
4
71
3
72
8
73
4
40
0
40
0
40
0
40
0
40
1
40
1
40
1
40
1
41
1
10
72.3039640445288
20
5.63591917319283
30
0
41
1
10
72.3648809093068
20
5.61176043318847
30
0
41
1
10
72.4257675851809
20
5.58665412763099
30
0
41
1
10
72.48664107369
20
5.56060774161696
30
0
0
SPLINE
5
155
100
AcDbEntity
8
1
62
256
6
ByLayer
370
18
48
1
60
0
100
AcDbSpline
70
4
71
3
72
10
73
6
40
0
40
0
40
0
40
0
40
0.5
40
0.5
40
1
40
1
40
1
40
1
41
1
10
72.3039640445303
20
5.63591917317856
30
0
41
1
10
72.2554556834708
20
5.58896370993543
30
0
41
1
10
72.2067564050699
20
5.54003914218376
30
0
41
1
10
72.1090404933051
20
5.43834458550919
30
0
41
1
10
72.0600134701569
20
5.38556527096736
30
0
41
1
10
72.0107893247902
20
5.33083589036497
30
0
0
SPLINE
5
156
100
AcDbEntity
8
1
62
256
6
ByLayer
370
18
48
1
60
0
100
AcDbSpline
70
4
71
3
72
8
73
4
40
0
40
0
40
0
40
0
40
1
40
1
40
1
40
1
41
1
10
70.4643910141486
20
6.0648386848901
30
0
41
1
10
70.5251770295971
20
6.06084493426417
30
0
41
1
10
70.5859363834576
20
6.05582788437707
30
0
41
1
10
70.6466863841106
20
6.04979049577588
30
0
0
SPLINE
5
157
100
AcDbEntity
8
1
62
256
6
ByLayer
370
18
48
1
60
0
100
AcDbSpline
70
4
71
3
72
55
73
51
40
0
40
0
40
0
40
0
40
0.0278453315617593
40
0.0278453315617593
40
0.0625651411488356
40
0.0625651411488356
40
0.097284950735912
40
0.097284950735912
40
0.132004760322988
40
0.132004760322988
40
0.166724569910065
40
0.166724569910065
40
0.236164189084217
40
0.236164189084217
40
0.270883998671294
40
0.270883998671294
40
0.30560380825837
40
0.30560380825837
40
0.340323617845447
40
0.340323617845447
40
0.357683522638985
40
0.357683522638985
40
0.375043427432523
40
0.44448304660668
40
0.44448304660668
40
0.479202856193759
40
0.479202856193759
40
0.513922665780838
40
0.513922665780838
40
0.583362284954996
40
0.583362284954996
40
0.652801904129154
40
0.652801904129154
40
0.670161808922695
40
0.670161808922695
40
0.687521713716235
40
0.687521713716235
40
0.722241523303319
40
0.722241523303319
40
0.861120761651661
40
0.861120761651661
40
0.895840571238746
40
0.895840571238746
40
0.930560380825832
40
0.930560380825832
40
0.965280190412917
40
0.965280190412917
40
0.982640095206459
40
0.982640095206459
40
1
40
1
40
1
40
1
41
1
10
52.5549767779287
20
-4.34999964447837
30
0
41
1
10
52.4594546860369
20
-4.35000006109868
30
0
41
1
10
52.3637412288099
20
-4.34817519334837
30
0
41
1
10
52.148126810149
20
-4.33991806654498
30
0
41
1
10
52.0287810143404
20
-4.33248516337437
30
0
41
1
10
51.7905819249703
20
-4.3120785767762
30
0
41
1
10
51.6716677690846
20
-4.29911130151959
30
0
41
1
10
51.4341211242844
20
-4.26777803363029
30
0
41
1
10
51.3155559472293
20
-4.24939764805549
30
0
41
1
10
51.0788787286645
20
-4.20722018907102
30
0
41
1
10
50.9607331465666
20
-4.18343021268848
30
0
41
1
10
50.6065387148962
20
-4.10407273049418
30
0
41
1
10
50.3707550588809
20
-4.04050587514897
30
0
41
1
10
50.0163046413634
20
-3.92966037048598
30
0
41
1
10
49.8980193722569
20
-3.8901323733881
30
0
41
1
10
49.6608823688928
20
-3.80606964346433
30
0
41
1
10
49.5419831824576
20
-3.76156896861559
30
0
41
1
10
49.3035398981019
20
-3.66758911131959
30
0
41
1
10
49.1840727305121
20
-3.6180531887974
30
0
41
1
10
49.0043861889684
20
-3.5399304545935
30
0
41
1
10
48.9445516156606
20
-3.51331542438214
30
0
41
1
10
48.8251268695722
20
-3.4590213470826
30
0
41
1
10
48.5270594411052
20
-3.32057925808019
30
0
41
1
10
48.231106315999
20
-3.16895399711456
30
0
41
1
10
47.8765323679449
20
-2.97588785917597
30
0
41
1
10
47.7584366693018
20
-2.90968023686045
30
0
41
1
10
47.5221845548079
20
-2.77384006239672
30
0
41
1
10
47.4039328119322
20
-2.7043087471674
30
0
41
1
10
47.0493005445521
20
-2.49038565055963
30
0
41
1
10
46.8130259405276
20
-2.34066171775754
30
0
41
1
10
46.3390225488535
20
-2.02865114352443
30
0
41
1
10
46.1013130293434
20
-1.86633983426236
30
0
41
1
10
45.8020846159961
20
-1.65678503132952
30
0
41
1
10
45.7422548786334
20
-1.61462592802107
30
0
41
1
10
45.6228028150341
20
-1.52999780508279
30
0
41
1
10
45.5631494540405
20
-1.4875041011141
30
0
41
1
10
45.3843377520572
20
-1.35957661414236
30
0
41
1
10
45.2652790679224
20
-1.27376030850647
30
0
41
1
10
44.6716277439067
20
-0.840885488012873
30
0
41
1
10
44.2013722910998
20
-0.483183561973988
30
0
41
1
10
43.6102719298489
20
-0.0338450500038334
30
0
41
1
10
43.4919046588551
20
0.0561551004154524
30
0
41
1
10
43.2545554863183
20
0.235991436117217
30
0
41
1
10
43.1355571329383
20
0.325804365096275
30
0
41
1
10
42.8972259923787
20
0.505651789452287
30
0
41
1
10
42.7778422673819
20
0.595617990117688
30
0
41
1
10
42.5982584560424
20
0.73039527643266
30
0
41
1
10
42.5384179495791
20
0.775213887570402
30
0
41
1
10
42.4190015966113
20
0.864416458364303
30
0
41
1
10
42.3593869770162
20
0.908829529689001
30
0
41
1
10
42.2998531522211
20
0.953039416918074
30
0
0
SPLINE
5
158
100
AcDbEntity
8
1
62
256
6
ByLayer
370
18
48
1
60
0
100
AcDbSpline
70
4
71
3
72
36
73
32
40
0
40
0
40
0
40
0
40
0.0735858465931873
40
0.0735858465931873
40
0.178688112830818
40
0.178688112830818
40
0.231239245949632
40
0.231239245949632
40
0.283790379068446
40
0.283790379068446
40
0.388892645306076
40
0.388892645306076
40
0.441443778424891
40
0.441443778424891
40
0.493994911543707
40
0.493994911543707
40
0.546546044662522
40
0.546546044662522
40
0.599097177781337
40
0.599097177781337
40
0.704199444018969
40
0.704199444018969
40
0.756750577137786
40
0.756750577137786
40
0.809301710256603
40
0.809301710256603
40
0.86185284337542
40
0.86185284337542
40
0.914403976494237
40
0.914403976494237
40
1
40
1
40
1
40
1
41
1
10
42.2999760562193
20
0.953034855707102
30
0
41
1
10
42.2395753046119
20
0.981510392547023
30
0
41
1
10
42.171005461453
20
0.998881774261889
30
0
41
1
10
41.9830008493691
20
1.01184420052454
30
0
41
1
10
41.8587295224569
20
0.994638251208244
30
0
41
1
10
41.6498266891416
20
0.926243216376946
30
0
41
1
10
41.575584750474
20
0.895806105127633
30
0
41
1
10
41.4236936080076
20
0.820548031736536
30
0
41
1
10
41.3454571404886
20
0.774895208296897
30
0
41
1
10
41.1071948329365
20
0.62549280842012
30
0
41
1
10
40.9414631647806
20
0.504847116252222
30
0
41
1
10
40.6958345325847
20
0.300466670374163
30
0
41
1
10
40.6140081332152
20
0.228153472259436
30
0
41
1
10
40.4504629659999
20
0.0744812130095056
30
0
41
1
10
40.3691670920221
20
-0.0065713289356779
30
0
41
1
10
40.2117456222079
20
-0.172998115733435
30
0
41
1
10
40.1350108758023
20
-0.258923800942171
30
0
41
1
10
39.985537520239
20
-0.436260370448451
30
0
41
1
10
39.9123860496854
20
-0.528235412455274
30
0
41
1
10
39.7021291162094
20
-0.809018652677111
30
0
41
1
10
39.5772678273156
20
-0.998068682328636
30
0
41
1
10
39.4105513981527
20
-1.28414504532458
30
0
41
1
10
39.3588330463897
20
-1.37934434869268
30
0
41
1
10
39.2642883599216
20
-1.56565509204364
30
0
41
1
10
39.2211093784409
20
-1.65737150883436
30
0
41
1
10
39.1419973681281
20
-1.83825714537105
30
0
41
1
10
39.1059675685686
20
-1.9274603832956
30
0
41
1
10
39.0407451298494
20
-2.10346336638051
30
0
41
1
10
39.014147824047
20
-2.18891540564579
30
0
41
1
10
38.9601078490253
20
-2.40071139497641
30
0
41
1
10
38.9414480507421
20
-2.52150873141869
30
0
41
1
10
38.9352813838588
20
-2.63351439015943
30
0
0
SPLINE
5
159
100
AcDbEntity
8
1
62
256
6
ByLayer
370
18
48
1
60
0
100
AcDbSpline
70
4
71
3
72
60
73
56
40
0
40
0
40
0
40
0
40
0.0215926764474532
40
0.0215926764474532
40
0.0431853528949063
40
0.0431853528949063
40
0.0863707057898154
40
0.0863707057898154
40
0.10796338223727
40
0.10796338223727
40
0.129556058684724
40
0.129556058684724
40
0.172741411579633
40
0.172741411579633
40
0.215926764474543
40
0.215926764474543
40
0.259112117369452
40
0.259112117369452
40
0.345482823159273
40
0.345482823159273
40
0.431853528949094
40
0.431853528949094
40
0.453446205396547
40
0.453446205396547
40
0.475038881844
40
0.475038881844
40
0.518224234738907
40
0.518224234738907
40
0.604594940528717
40
0.604594940528717
40
0.647780293423622
40
0.647780293423622
40
0.669372969871076
40
0.669372969871076
40
0.69096564631853
40
0.69096564631853
40
0.73415099921344
40
0.73415099921344
40
0.777336352108351
40
0.777336352108351
40
0.798929028555806
40
0.798929028555806
40
0.820521705003261
40
0.820521705003261
40
0.863707057898172
40
0.863707057898172
40
0.885299734345627
40
0.885299734345627
40
0.906892410793083
40
0.906892410793083
40
0.950077763687993
40
0.950077763687993
40
0.993263116582904
40
0.993263116582904
40
1
40
1
40
1
40
1
41
1
10
38.9353389518029
20
-2.63350566055462
30
0
41
1
10
39.0036943977926
20
-2.67494996614335
30
0
41
1
10
39.0719269884988
20
-2.71590396202458
30
0
41
1
10
39.2082952485766
20
-2.79666760978014
30
0
41
1
10
39.2764949852728
20
-2.83641139813238
30
0
41
1
10
39.4814399106698
20
-2.95344932281893
30
0
41
1
10
39.6184098923201
20
-3.02867917737691
30
0
41
1
10
39.8241848800575
20
-3.13756298466572
30
0
41
1
10
39.8928368360783
20
-3.17318970595053
30
0
41
1
10
40.0302621841815
20
-3.24310623020472
30
0
41
1
10
40.0990764457881
20
-3.27741604330799
30
0
41
1
10
40.3054120543026
20
-3.37820674328651
30
0
41
1
10
40.4424592862002
20
-3.44236941844426
30
0
41
1
10
40.7156155833436
20
-3.56465259812461
30
0
41
1
10
40.8517177338269
20
-3.62277896360732
30
0
41
1
10
41.1230153048912
20
-3.73296336905844
30
0
41
1
10
41.2581414406604
20
-3.78505079802508
30
0
41
1
10
41.664138405326
20
-3.93090254925403
30
0
41
1
10
41.9352311251355
20
-4.01463523911048
30
0
41
1
10
42.4784825407421
20
-4.15537468355132
30
0
41
1
10
42.7506078632543
20
-4.21238704941624
30
0
41
1
10
43.0918302872924
20
-4.26615085864827
30
0
41
1
10
43.160117725882
20
-4.27602833180637
30
0
41
1
10
43.2968034250593
20
-4.29399393902838
30
0
41
1
10
43.3653016996588
20
-4.30208328370429
30
0
41
1
10
43.5706003498998
20
-4.32345966094107
30
0
41
1
10
43.7072962982859
20
-4.33389556540573
30
0
41
1
10
44.1165503439157
20
-4.35417367419757
30
0
41
1
10
44.3885186297548
20
-4.35298562226311
30
0
41
1
10
44.7956123317971
20
-4.32968764666936
30
0
41
1
10
44.9311541135006
20
-4.31832601784765
30
0
41
1
10
45.1341815586804
20
-4.2958305892391
30
0
41
1
10
45.2018108964535
20
-4.28742227783647
30
0
41
1
10
45.3369910225244
20
-4.26877037660319
30
0
41
1
10
45.404516815722
20
-4.2585185005434
30
0
41
1
10
45.607344702173
20
-4.2250868453859
30
0
41
1
10
45.7430327401794
20
-4.19928603695121
30
0
41
1
10
46.0151615499786
20
-4.14064508730618
30
0
41
1
10
46.1516401816019
20
-4.10781540427979
30
0
41
1
10
46.3570431116847
20
-4.05329355434066
30
0
41
1
10
46.42562419281
20
-4.03423914007695
30
0
41
1
10
46.5630152336801
20
-3.99435383201265
30
0
41
1
10
46.6318634532209
20
-3.97350827447579
30
0
41
1
10
46.8377716283179
20
-3.90859067929631
30
0
41
1
10
46.9745134907659
20
-3.8620602980393
30
0
41
1
10
47.1789123789687
20
-3.78747548375756
30
0
41
1
10
47.2469267713972
20
-3.76181565530638
30
0
41
1
10
47.3827043105914
20
-3.70888888117815
30
0
41
1
10
47.4504374042209
20
-3.68159969523947
30
0
41
1
10
47.6534826857387
20
-3.5974742027644
30
0
41
1
10
47.7889798326699
20
-3.53863857556578
30
0
41
1
10
48.0600188703208
20
-3.41542598933057
30
0
41
1
10
48.1955966184081
20
-3.35107405520117
30
0
41
1
10
48.3524353419368
20
-3.27357329996818
30
0
41
1
10
48.3736026717768
20
-3.26304931862921
30
0
41
1
10
48.3947722692445
20
-3.25245977772658
30
0
0
SPLINE
5
15A
100
AcDbEntity
8
1
62
256
6
ByLayer
370
18
48
1
60
0
100
AcDbSpline
70
4
71
3
72
22
73
18
40
0
40
0
40
0
40
0
40
0.123063439608928
40
0.123063439608928
40
0.196141486308188
40
0.196141486308188
40
0.269219533007449
40
0.269219533007449
40
0.415375626405959
40
0.415375626405959
40
0.561531719804469
40
0.561531719804469
40
0.634609766503724
40
0.634609766503724
40
0.707687813202979
40
0.707687813202979
40
1
40
1
40
1
40
1
41
1
10
62.2727153331241
20
4.35000014608798
30
0
41
1
10
62.3874335612611
20
4.349989121926
30
0
41
1
10
62.502552015472
20
4.34735885286963
30
0
41
1
10
62.6867066532635
20
4.33898143756767
30
0
41
1
10
62.7555301667255
20
4.33492787170732
30
0
41
1
10
62.8929585241299
20
4.32499632720183
30
0
41
1
10
62.9616037621623
20
4.3191178818837
30
0
41
1
10
63.1673467944167
20
4.29876817067702
30
0
41
1
10
63.3042575628007
20
4.28158694744823
30
0
41
1
10
63.5775933055782
20
4.2400399323142
30
0
41
1
10
63.7140178243818
20
4.21567556926769
30
0
41
1
10
63.9182215463056
20
4.17366390353354
30
0
41
1
10
63.9862052553055
20
4.15874264297287
30
0
41
1
10
64.1221375569019
20
4.12710099600466
30
0
41
1
10
64.1900809353877
20
4.11037749884511
30
0
41
1
10
64.5303415365209
20
4.02253724668444
30
0
41
1
10
64.8042712431153
20
3.93887317938424
30
0
41
1
10
65.0794453172335
20
3.84156383796417
30
0
0
SPLINE
5
15B
100
AcDbEntity
8
1
62
256
6
ByLayer
370
18
48
1
60
0
100
AcDbSpline
70
4
71
3
72
28
73
24
40
0
40
0
40
0
40
0
40
0.125000000000009
40
0.125000000000009
40
0.250000000000018
40
0.250000000000018
40
0.375000000000027
40
0.375000000000027
40
0.500000000000036
40
0.500000000000036
40
0.562500000000031
40
0.562500000000031
40
0.625000000000026
40
0.625000000000026
40
0.750000000000018
40
0.750000000000018
40
0.812500000000013
40
0.812500000000013
40
0.875000000000009
40
0.875000000000009
40
0.937500000000004
40
0.937500000000004
40
1
40
1
40
1
40
1
41
1
10
65.0794453172331
20
3.84156383796429
30
0
41
1
10
65.1347709678164
20
3.82199912192357
30
0
41
1
10
65.1896438346699
20
3.80486550876623
30
0
41
1
10
65.2982936931893
20
3.77513729254673
30
0
41
1
10
65.3520714115043
20
3.76254160008185
30
0
41
1
10
65.4583984899171
20
3.74179656973303
30
0
41
1
10
65.5109484725781
20
3.7336448742933
30
0
41
1
10
65.6147235595239
20
3.72197553996844
30
0
41
1
10
65.6659491988985
20
3.71845293734697
30
0
41
1
10
65.7417356088214
20
3.71707304366711
30
0
41
1
10
65.7668827243023
20
3.71727079144191
30
0
41
1
10
65.8164279346523
20
3.71908006129416
30
0
41
1
10
65.8408382485598
20
3.72068738052675
30
0
41
1
10
65.9129630523953
20
3.72776633465529
30
0
41
1
10
65.9595752275723
20
3.73546711614054
30
0
41
1
10
66.0271496686763
20
3.75249020656909
30
0
41
1
10
66.0492828430771
20
3.75908242395218
30
0
41
1
10
66.092726616262
20
3.7743636505491
30
0
41
1
10
66.1140745928471
20
3.78306960869696
30
0
41
1
10
66.1557251654092
20
3.80284083002255
30
0
41
1
10
66.1758962733001
20
3.81383091379078
30
0
41
1
10
66.2148897298189
20
3.83838327880855
30
0
41
1
10
66.2337104471019
20
3.85195936674012
30
0
41
1
10
66.2517052363891
20
3.8665097498556
30
0
0
SPLINE
5
15C
100
AcDbEntity
8
1
62
256
6
ByLayer
370
18
48
1
60
0
100
AcDbSpline
70
4
71
3
72
35
73
31
40
0
40
0
40
0
40
0
40
0.0625000000000198
40
0.0625000000000198
40
0.0937500000000161
40
0.0937500000000161
40
0.125000000000012
40
0.125000000000012
40
0.187500000000005
40
0.187500000000005
40
0.218750000000001
40
0.218750000000001
40
0.249999999999998
40
0.249999999999998
40
0.31249999999999
40
0.31249999999999
40
0.343749999999987
40
0.343749999999987
40
0.374999999999984
40
0.374999999999984
40
0.40624999999998
40
0.40624999999998
40
0.437499999999977
40
0.437499999999977
40
0.468749999999974
40
0.468749999999974
40
0.499999999999971
40
0.749999999999985
40
0.749999999999985
40
1
40
1
40
1
40
1
41
1
10
66.2517052363891
20
3.86650974985565
30
0
41
1
10
66.2675271872835
20
3.85214795364601
30
0
41
1
10
66.2838039348597
20
3.83872456557825
30
0
41
1
10
66.3089599666211
20
3.82016189330602
30
0
41
1
10
66.3174830624893
20
3.8142359745614
30
0
41
1
10
66.3345073527214
20
3.80315906573267
30
0
41
1
10
66.3430414903886
20
3.79797538015518
30
0
41
1
10
66.3686990870827
20
3.78342045290168
30
0
41
1
10
66.3858772182893
20
3.77502990525264
30
0
41
1
10
66.4117259045334
20
3.76442532074378
30
0
41
1
10
66.4203558023113
20
3.76122420010091
30
0
41
1
10
66.4376398575432
20
3.75554722383978
30
0
41
1
10
66.4463273523664
20
3.7530649896398
30
0
41
1
10
66.4719857408143
20
3.74696995390752
30
0
41
1
10
66.4886379669874
20
3.7447222036989
30
0
41
1
10
66.5127776475021
20
3.744560794796
30
0
41
1
10
66.5207324463648
20
3.74502150028235
30
0
41
1
10
66.5361472307435
20
3.74700645066974
30
0
41
1
10
66.5435767056446
20
3.74849326540385
30
0
41
1
10
66.5577139715842
20
3.75275803152096
30
0
41
1
10
66.5643586613535
20
3.75565415055033
30
0
41
1
10
66.5767347147854
20
3.76309086125781
30
0
41
1
10
66.5825149458502
20
3.76753998107043
30
0
41
1
10
66.5938223509897
20
3.77684644096635
30
0
41
1
10
66.5994097299088
20
3.78158478951133
30
0
41
1
10
66.6106323576883
20
3.79092218655129
30
0
41
1
10
66.6611202346399
20
3.83271376721555
30
0
41
1
10
66.7114728263594
20
3.8724938779053
30
0
41
1
10
66.80068887966
20
3.94024518950741
30
0
41
1
10
66.8451382115779
20
3.97261026193672
30
0
41
1
10
66.8894290628855
20
4.00346002226672
30
0
0
SPLINE
5
15D
100
AcDbEntity
8
1
62
256
6
ByLayer
370
18
48
1
60
0
100
AcDbSpline
70
4
71
3
72
8
73
4
40
0
40
0
40
0
40
0
40
1
40
1
40
1
40
1
41
1
10
66.8894290628856
20
4.00346002226675
30
0
41
1
10
66.9848929913311
20
4.06995319694633
30
0
41
1
10
67.0795536363791
20
4.12936778621366
30
0
41
1
10
67.1734231921842
20
4.1818140829985
30
0
0
SPLINE
5
15E
100
AcDbEntity
8
1
62
256
6
ByLayer
370
18
48
1
60
0
100
AcDbSpline
70
4
71
3
72
8
73
4
40
0
40
0
40
0
40
0
40
1
40
1
40
1
40
1
41
1
10
67.3557082553573
20
4.03997963025628
30
0
41
1
10
67.2949375705701
20
4.0879439843936
30
0
41
1
10
67.2341784375338
20
4.13522396016248
30
0
41
1
10
67.1734231921841
20
4.18181408299853
30
0
0
SPLINE
5
15F
100
AcDbEntity
8
1
62
256
6
ByLayer
370
18
48
1
60
0
100
AcDbSpline
70
4
71
3
72
58
73
54
40
0
40
0
40
0
40
0
40
0.0312500000000212
40
0.0312500000000212
40
0.0625000000000423
40
0.0625000000000423
40
0.125000000000078
40
0.125000000000078
40
0.250000000000158
40
0.250000000000158
40
0.375000000000238
40
0.375000000000238
40
0.437500000000278
40
0.468750000000298
40
0.468750000000298
40
0.500000000000318
40
0.500000000000318
40
0.531250000000338
40
0.531250000000338
40
0.546875000000344
40
0.546875000000344
40
0.56250000000035
40
0.56250000000035
40
0.593750000000362
40
0.593750000000362
40
0.609375000000368
40
0.609375000000368
40
0.625000000000374
40
0.625000000000374
40
0.656250000000374
40
0.656250000000374
40
0.671875000000369
40
0.671875000000369
40
0.687500000000363
40
0.687500000000363
40
0.718750000000352
40
0.718750000000352
40
0.726562500000344
40
0.726562500000344
40
0.734375000000336
40
0.734375000000336
40
0.75000000000031
40
0.75000000000031
40
0.757812500000302
40
0.757812500000302
40
0.765625000000294
40
0.765625000000294
40
0.78125000000027
40
0.78125000000027
40
0.812500000000232
40
0.875000000000155
40
0.875000000000155
40
1
40
1
40
1
40
1
41
1
10
67.3557082553573
20
4.03997963025628
30
0
41
1
10
67.3676236045693
20
4.01546669476832
30
0
41
1
10
67.3795261453367
20
3.9909774573857
30
0
41
1
10
67.4034176531495
20
3.94207048862768
30
0
41
1
10
67.4153952060296
20
3.91764997906742
30
0
41
1
10
67.4513845591984
20
3.84450348731591
30
0
41
1
10
67.4754451605513
20
3.79588455501451
30
0
41
1
10
67.5477385009229
20
3.65045492061327
30
0
41
1
10
67.5961185344967
20
3.55407662104449
30
0
41
1
10
67.693313157384
20
3.36251022306959
30
0
41
1
10
67.7421371106657
20
3.26730561485584
30
0
41
1
10
67.8156402435813
20
3.12566335493696
30
0
41
1
10
67.8524657850606
20
3.05511920246204
30
0
41
1
10
67.8894140854057
20
2.98499778150617
30
0
41
1
10
67.9140749346238
20
2.9383450229063
30
0
41
1
10
67.9264886174325
20
2.91507408083251
30
0
41
1
10
67.9508302589688
20
2.86856828430447
30
0
41
1
10
67.9628213238082
20
2.84533980962954
30
0
41
1
10
67.9836188935011
20
2.81089257613783
30
0
41
1
10
67.9910150642394
20
2.79947565286355
30
0
41
1
10
68.0068659848933
20
2.77678827046788
30
0
41
1
10
68.0153556026044
20
2.76547095787529
30
0
41
1
10
68.041961924407
20
2.73202236794555
30
0
41
1
10
68.0606644920019
20
2.71090399282761
30
0
41
1
10
68.0897948520486
20
2.68054816442023
30
0
41
1
10
68.0996923062124
20
2.6706597507139
30
0
41
1
10
68.1198638136308
20
2.65134869016598
30
0
41
1
10
68.1301640557777
20
2.64190321302573
30
0
41
1
10
68.1615041952264
20
2.61447793565378
30
0
41
1
10
68.1826172580063
20
2.59779360052141
30
0
41
1
10
68.2145351847592
20
2.57496561803427
30
0
41
1
10
68.2252154706609
20
2.56771848079237
30
0
41
1
10
68.2466497359121
20
2.55395769924536
30
0
41
1
10
68.2574276031376
20
2.54742983300523
30
0
41
1
10
68.2897170848095
20
2.52914512477508
30
0
41
1
10
68.3107421163589
20
2.5188819368006
30
0
41
1
10
68.3361218824444
20
2.50932224543288
30
0
41
1
10
68.341153461334
20
2.50757064537993
30
0
41
1
10
68.3511259235234
20
2.50438920215618
30
0
41
1
10
68.35608354985
20
2.50295536566159
30
0
41
1
10
68.3706384537962
20
2.49919927042706
30
0
41
1
10
68.3799642415698
20
2.49737123982368
30
0
41
1
10
68.3932306891162
20
2.49592718283492
30
0
41
1
10
68.3975177968151
20
2.49569011950288
30
0
41
1
10
68.4057519622523
20
2.49583576021297
30
0
41
1
10
68.4096933347911
20
2.49622922401105
30
0
41
1
10
68.4211223027172
20
2.49811778542616
30
0
41
1
10
68.4281307318724
20
2.50029522592587
30
0
41
1
10
68.4492328759913
20
2.5064458701647
30
0
41
1
10
68.4914083767128
20
2.518212166464
30
0
41
1
10
68.5334860540874
20
2.52841794970792
30
0
41
1
10
68.6174772897585
20
2.54684128619908
30
0
41
1
10
68.6732434368529
20
2.55648621396162
30
0
41
1
10
68.7287469385639
20
2.5635259294896
30
0
0
SPLINE
5
160
100
AcDbEntity
8
1
62
256
6
ByLayer
370
18
48
1
60
0
100
AcDbSpline
70
4
71
3
72
8
73
4
40
0
40
0
40
0
40
0
40
1
40
1
40
1
40
1
41
1
10
68.728746938564
20
2.56352592948861
30
0
41
1
10
68.8242414404512
20
2.57563785228706
30
0
41
1
10
68.9189328167293
20
2.58003710788191
30
0
41
1
10
69.012831308451
20
2.57700467276052
30
0
0
SPLINE
5
161
100
AcDbEntity
8
1
62
256
6
ByLayer
370
18
48
1
60
0
100
AcDbSpline
70
4
71
3
72
8
73
4
40
0
40
0
40
0
40
0
40
1
40
1
40
1
40
1
41
1
10
69.194991768945
20
2.40133682573875
30
0
41
1
10
69.1342329640133
20
2.46030771446388
30
0
41
1
10
69.0735144094982
20
2.51886505962798
30
0
41
1
10
69.012831308451
20
2.57700467276049
30
0
0
SPLINE
5
162
100
AcDbEntity
8
1
62
256
6
ByLayer
370
18
48
1
60
0
100
AcDbSpline
70
4
71
3
72
64
73
60
40
0
40
0
40
0
40
0
40
0.0312499999999903
40
0.0312499999999903
40
0.0624999999999807
40
0.0624999999999807
40
0.124999999999955
40
0.124999999999955
40
0.249999999999904
40
0.374999999999853
40
0.374999999999853
40
0.437499999999824
40
0.437499999999824
40
0.468749999999814
40
0.468749999999814
40
0.484374999999812
40
0.484374999999812
40
0.49999999999981
40
0.49999999999981
40
0.515624999999808
40
0.515624999999808
40
0.531249999999806
40
0.531249999999806
40
0.546874999999804
40
0.546874999999804
40
0.562499999999802
40
0.562499999999802
40
0.593749999999798
40
0.593749999999798
40
0.609374999999802
40
0.609374999999802
40
0.624999999999806
40
0.624999999999806
40
0.656249999999813
40
0.656249999999813
40
0.671874999999816
40
0.671874999999816
40
0.68749999999982
40
0.68749999999982
40
0.703124999999823
40
0.703124999999823
40
0.718749999999827
40
0.718749999999827
40
0.734374999999831
40
0.734374999999831
40
0.749999999999834
40
0.749999999999834
40
0.75781249999984
40
0.75781249999984
40
0.765624999999846
40
0.765624999999846
40
0.773437499999852
40
0.773437499999852
40
0.781249999999858
40
0.781249999999858
40
0.812499999999883
40
0.874999999999925
40
0.874999999999925
40
1
40
1
40
1
40
1
41
1
10
69.1949917689444
20
2.40133682573281
30
0
41
1
10
69.2070191506835
20
2.37927484178488
30
0
41
1
10
69.2190334575098
20
2.35729102361324
30
0
41
1
10
69.2431506697163
20
2.31344724948593
30
0
41
1
10
69.2552415836623
20
2.29159081240084
30
0
41
1
10
69.2915822111869
20
2.22622786979272
30
0
41
1
10
69.3158783106861
20
2.18294954913037
30
0
41
1
10
69.3888628007494
20
2.05408065701539
30
0
41
1
10
69.4865193645589
20
1.88477543385909
30
0
41
1
10
69.5849972379908
20
1.72059418795806
30
0
41
1
10
69.6592220127044
20
1.5994201991362
30
0
41
1
10
69.6840281799237
20
1.55935053802256
30
0
41
1
10
69.7213101751761
20
1.4997848021487
30
0
41
1
10
69.7337505163207
20
1.48001788507602
30
0
41
1
10
69.7524314597851
20
1.45050064426087
30
0
41
1
10
69.7586690742137
20
1.44068132754171
30
0
41
1
10
69.7711180015483
20
1.42109835242539
30
0
41
1
10
69.7772527989638
20
1.41136034382711
30
0
41
1
10
69.7895499279569
20
1.39192144401787
30
0
41
1
10
69.7957200994796
20
1.38221786892694
30
0
41
1
10
69.8086392930709
20
1.36266442488255
30
0
41
1
10
69.8154248671662
20
1.35280247049286
30
0
41
1
10
69.8300375306647
20
1.33277999955467
30
0
41
1
10
69.837857310376
20
1.3226218929739
30
0
41
1
10
69.8545665132861
20
1.30199834261182
30
0
41
1
10
69.8633060759623
20
1.29170993246137
30
0
41
1
10
69.8901798858647
20
1.26115524995086
30
0
41
1
10
69.9090513402618
20
1.24106333904305
30
0
41
1
10
69.9385443631782
20
1.21125388733688
30
0
41
1
10
69.9486027110222
20
1.20135143934434
30
0
41
1
10
69.9690440816424
20
1.18175383194284
30
0
41
1
10
69.979347019834
20
1.17213447705842
30
0
41
1
10
70.0105011981736
20
1.14383007891701
30
0
41
1
10
70.0316063510489
20
1.12571920431131
30
0
41
1
10
70.0636810934417
20
1.09956617756728
30
0
41
1
10
70.0744918731951
20
1.09098112896655
30
0
41
1
10
70.0959805571869
20
1.07437160250581
30
0
41
1
10
70.1066447618196
20
1.06635488169309
30
0
41
1
10
70.127791952426
20
1.05092917300291
30
0
41
1
10
70.1382753502658
20
1.04351895028967
30
0
41
1
10
70.1590200827074
20
1.0294084680865
30
0
41
1
10
70.169319828556
20
1.02269829932058
30
0
41
1
10
70.1894581460429
20
1.01021631675417
30
0
41
1
10
70.1992026844548
20
1.00448724543082
30
0
41
1
10
70.2180248743946
20
0.994060570661702
30
0
41
1
10
70.2271350096509
20
0.989308331113449
30
0
41
1
10
70.2400155483336
20
0.983418481904351
30
0
41
1
10
70.244142242078
20
0.981695978356726
30
0
41
1
10
70.2519380288352
20
0.978759425452324
30
0
41
1
10
70.2556436505486
20
0.977518047609578
30
0
41
1
10
70.2628332473585
20
0.975286983014854
30
0
41
1
10
70.2663131477317
20
0.974302396608095
30
0
41
1
10
70.2732290375506
20
0.972363920185273
30
0
41
1
10
70.2766770086447
20
0.971395054530092
30
0
41
1
10
70.2939336843668
20
0.966469800303486
30
0
41
1
10
70.3353182848578
20
0.954113843198058
30
0
41
1
10
70.37660410002
20
0.94019017338988
30
0
41
1
10
70.4590012551924
20
0.910366137142177
30
0
41
1
10
70.5136583480007
20
0.887876753707417
30
0
41
1
10
70.5681018805865
20
0.86292565969984
30
0
0
SPLINE
5
163
100
AcDbEntity
8
1
62
256
6
ByLayer
370
18
48
1
60
0
100
AcDbSpline
70
4
71
3
72
8
73
4
40
0
40
0
40
0
40
0
40
1
40
1
40
1
40
1
41
1
10
70.5681018805864
20
0.862925659699869
30
0
41
1
10
70.6636247614062
20
0.819148184837161
30
0
41
1
10
70.7583500709049
20
0.767801334038694
30
0
41
1
10
70.8522848508724
20
0.709302320468169
30
0
0
SPLINE
5
164
100
AcDbEntity
8
1
62
256
6
ByLayer
370
18
48
1
60
0
100
AcDbSpline
70
4
71
3
72
8
73
4
40
0
40
0
40
0
40
0
40
1
40
1
40
1
40
1
41
1
10
71.0348791555178
20
0.516828959477266
30
0
41
1
10
70.9739628651367
20
0.581076843803146
30
0
41
1
10
70.9130997486089
20
0.645236235604585
30
0
41
1
10
70.8522848508724
20
0.70930232046814
30
0
0
SPLINE
5
165
100
AcDbEntity
8
1
62
256
6
ByLayer
370
18
48
1
60
0
100
AcDbSpline
70
4
71
3
72
58
73
54
40
0
40
0
40
0
40
0
40
0.0312500000000224
40
0.0312500000000224
40
0.0625000000000448
40
0.0625000000000448
40
0.12500000000009
40
0.12500000000009
40
0.250000000000187
40
0.250000000000187
40
0.375000000000284
40
0.375000000000284
40
0.437500000000336
40
0.468750000000358
40
0.468750000000358
40
0.500000000000381
40
0.500000000000381
40
0.531250000000403
40
0.531250000000403
40
0.54687500000041
40
0.54687500000041
40
0.562500000000417
40
0.562500000000417
40
0.593750000000423
40
0.593750000000423
40
0.60937500000042
40
0.60937500000042
40
0.625000000000417
40
0.625000000000417
40
0.656250000000423
40
0.656250000000423
40
0.67187500000042
40
0.67187500000042
40
0.687500000000417
40
0.687500000000417
40
0.718750000000412
40
0.718750000000412
40
0.726562500000413
40
0.726562500000413
40
0.734375000000414
40
0.734375000000414
40
0.750000000000406
40
0.750000000000406
40
0.757812500000398
40
0.757812500000398
40
0.765625000000389
40
0.765625000000389
40
0.781250000000364
40
0.781250000000364
40
0.812500000000315
40
0.87500000000021
40
0.87500000000021
40
1
40
1
40
1
40
1
41
1
10
71.0348791555178
20
0.516828959477294
30
0
41
1
10
71.0467866753165
20
0.49984651363286
30
0
41
1
10
71.058682715799
20
0.482984638161213
30
0
41
1
10
71.0825617803123
20
0.449420089507413
30
0
41
1
10
71.0945332727618
20
0.432726157143236
30
0
41
1
10
71.1305046779991
20
0.382948098243105
30
0
41
1
10
71.1545537065802
20
0.350171679563488
30
0
41
1
10
71.2268149968408
20
0.25315448582117
30
0
41
1
10
71.2751763250134
20
0.190198305616178
30
0
41
1
10
71.3723440463381
20
0.0677688115658839
30
0
41
1
10
71.4211601396744
20
0.0082861294130794
30
0
41
1
10
71.4946544758402
20
-0.0781492593680468
30
0
41
1
10
71.5314765194279
20
-0.120679334755749
30
0
41
1
10
71.5684224733995
20
-0.1621718969852
30
0
41
1
10
71.5930819724408
20
-0.189602220048244
30
0
41
1
10
71.6054904230322
20
-0.203248984090777
30
0
41
1
10
71.6298271676393
20
-0.229933765978984
30
0
41
1
10
71.6418354958344
20
-0.243033615802773
30
0
41
1
10
71.6627004390857
20
-0.264595013531192
30
0
41
1
10
71.670123357178
20
-0.272094874436959
30
0
41
1
10
71.686030445043
20
-0.287811152111089
30
0
41
1
10
71.6945493343081
20
-0.296060976819092
30
0
41
1
10
71.7212399175573
20
-0.32149662776996
30
0
41
1
10
71.7399915652522
20
-0.33887027109634
30
0
41
1
10
71.7691942939123
20
-0.36541823095439
30
0
41
1
10
71.7791155210606
20
-0.374353152097484
30
0
41
1
10
71.7993346377949
20
-0.392408521316554
30
0
41
1
10
71.8096617683085
20
-0.401554585648995
30
0
41
1
10
71.84106119999
20
-0.4291510806232
30
0
41
1
10
71.8622081633297
20
-0.447451491264928
30
0
41
1
10
71.8941682254307
20
-0.474836108191397
30
0
41
1
10
71.9048612386295
20
-0.48395330204869
30
0
41
1
10
71.9263184808077
20
-0.502177061681977
30
0
41
1
10
71.9371133962445
20
-0.511309491638059
30
0
41
1
10
71.9693995171893
20
-0.538536119717861
30
0
41
1
10
71.9904089925593
20
-0.556140194467076
30
0
41
1
10
72.0157474986788
20
-0.577262505127919
30
0
41
1
10
72.0207699991522
20
-0.5814440534227
30
0
41
1
10
72.0307224961578
20
-0.58972217572753
30
0
41
1
10
72.035667786758
20
-0.59383144398592
30
0
41
1
10
72.0501711320407
20
-0.605873457195429
30
0
41
1
10
72.0594621493566
20
-0.613577768603221
30
0
41
1
10
72.0726526139003
20
-0.624488163373769
30
0
41
1
10
72.0769098409047
20
-0.628002821818313
30
0
41
1
10
72.0850809454493
20
-0.634728532915318
30
0
41
1
10
72.0889907225856
20
-0.637935701037719
30
0
41
1
10
72.1003405385254
20
-0.647231656461912
30
0
41
1
10
72.1073191637079
20
-0.652928211117256
30
0
41
1
10
72.1283881746145
20
-0.670278458615002
30
0
41
1
10
72.1704951120747
20
-0.705475623971324
30
0
41
1
10
72.2124972381751
20
-0.742130898270403
30
0
41
1
10
72.2963280875911
20
-0.817323981754981
30
0
41
1
10
72.3519657782273
20
-0.86994073222121
30
0
41
1
10
72.407336807369
20
-0.924917458595161
30
0
0
SPLINE
5
166
100
AcDbEntity
8
1
62
256
6
ByLayer
370
18
48
1
60
0
100
AcDbSpline
70
4
71
3
72
10
73
6
40
0
40
0
40
0
40
0
40
0.5
40
0.5
40
1
40
1
40
1
40
1
41
1
10
72.4073368073691
20
-0.92491745859553
30
0
41
1
10
72.4551518438585
20
-0.972391999314482
30
0
41
1
10
72.5027624253223
20
-1.02163297227955
30
0
41
1
10
72.5975521209427
20
-1.12336531302114
30
0
41
1
10
72.6447313882462
20
-1.17583527693523
30
0
41
1
10
72.6917247948017
20
-1.22985358552612
30
0
0
SPLINE
5
167
100
AcDbEntity
8
1
62
256
6
ByLayer
370
18
48
1
60
0
100
AcDbSpline
70
4
71
3
72
8
73
4
40
0
40
0
40
0
40
0
40
1
40
1
40
1
40
1
41
1
10
72.8741930016838
20
-1.4190574912939
30
0
41
1
10
72.8133071197255
20
-1.35623796547901
30
0
41
1
10
72.7524875001114
20
-1.2931672649116
30
0
41
1
10
72.6917247948017
20
-1.22985358552612
30
0
0
SPLINE
5
168
100
AcDbEntity
8
1
62
256
6
ByLayer
370
18
48
1
60
0
100
AcDbSpline
70
4
71
3
72
58
73
54
40
0
40
0
40
0
40
0
40
0.0312499999999968
40
0.0312499999999968
40
0.0624999999999937
40
0.0624999999999937
40
0.124999999999993
40
0.124999999999993
40
0.249999999999993
40
0.249999999999993
40
0.374999999999993
40
0.374999999999993
40
0.437499999999992
40
0.468749999999989
40
0.468749999999989
40
0.499999999999985
40
0.499999999999985
40
0.531249999999981
40
0.531249999999981
40
0.546874999999984
40
0.546874999999984
40
0.562499999999987
40
0.562499999999987
40
0.593749999999991
40
0.593749999999991
40
0.609374999999993
40
0.609374999999993
40
0.624999999999996
40
0.624999999999996
40
0.65625
40
0.65625
40
0.671875000000008
40
0.671875000000008
40
0.687500000000017
40
0.687500000000017
40
0.718750000000034
40
0.718750000000034
40
0.72656250000003
40
0.72656250000003
40
0.734375000000026
40
0.734375000000026
40
0.750000000000018
40
0.750000000000018
40
0.757812500000014
40
0.757812500000014
40
0.76562500000001
40
0.76562500000001
40
0.781250000000011
40
0.781250000000011
40
0.812500000000012
40
0.875000000000008
40
0.875000000000008
40
1
40
1
40
1
40
1
41
1
10
72.8741930016838
20
-1.41905749129393
30
0
41
1
10
72.886085929477
20
-1.42943600351893
30
0
41
1
10
72.8979674158617
20
-1.43966079386487
30
0
41
1
10
72.9218181822755
20
-1.45992896226994
30
0
41
1
10
72.9337760485909
20
-1.46995902112656
30
0
41
1
10
72.9697082841423
20
-1.49969292672645
30
0
41
1
10
72.9937335980834
20
-1.51903080000281
30
0
41
1
10
73.0659313684162
20
-1.57546893033745
30
0
41
1
10
73.1142612671729
20
-1.61103500218593
30
0
41
1
10
73.2113888688916
20
-1.67801649832546
30
0
41
1
10
73.2601963914384
20
-1.70943604213827
30
0
41
1
10
73.3336940292427
20
-1.75335441731875
30
0
41
1
10
73.3705217991419
20
-1.774516323694
30
0
41
1
10
73.4074795397582
20
-1.79447805499024
30
0
41
1
10
73.4321482370705
20
-1.80751852811264
30
0
41
1
10
73.4445643672005
20
-1.81397647604894
30
0
41
1
10
73.4689139764751
20
-1.8260728395104
30
0
41
1
10
73.4809199324299
20
-1.83179241948994
30
0
41
1
10
73.5017773460183
20
-1.84319905019123
30
0
41
1
10
73.5091980890919
20
-1.84746509844379
30
0
41
1
10
73.5251045669644
20
-1.85706047427635
30
0
41
1
10
73.5336210103132
20
-1.86240836646246
30
0
41
1
10
73.5603415263452
20
-1.87968381516066
30
0
41
1
10
73.579115513627
20
-1.8924011248906
30
0
41
1
10
73.6083526420339
20
-1.91285133538713
30
0
41
1
10
73.6182855395018
20
-1.91990837914148
30
0
41
1
10
73.6385282687181
20
-1.93452602669785
30
0
41
1
10
73.6488671294985
20
-1.94210823995698
30
0
41
1
10
73.6803037707678
20
-1.96557013611317
30
0
41
1
10
73.7014726567405
20
-1.98192858624074
30
0
41
1
10
73.7334613285192
20
-2.00753707291571
30
0
41
1
10
73.7441631866656
20
-2.01624994420595
30
0
41
1
10
73.7656367074733
20
-2.03405031290643
30
0
41
1
10
73.7764417105182
20
-2.04316612561854
30
0
41
1
10
73.8087356502444
20
-2.07096577510282
30
0
41
1
10
73.8297454863483
20
-2.08977038351435
30
0
41
1
10
73.8550775549133
20
-2.11378932728917
30
0
41
1
10
73.8600984776457
20
-2.11861829434855
30
0
41
1
10
73.8700472363956
20
-2.12832851737119
30
0
41
1
10
73.8749898649506
20
-2.13322491359142
30
0
41
1
10
73.8894817239593
20
-2.1478068538232
30
0
41
1
10
73.8987646207226
20
-2.15743530206746
30
0
41
1
10
73.9119375126259
20
-2.17168879754667
30
0
41
1
10
73.9161878984994
20
-2.17640373394079
30
0
41
1
10
73.9243445488835
20
-2.18574302083343
30
0
41
1
10
73.928247100489
20
-2.19036623482737
30
0
41
1
10
73.939578103655
20
-2.20414359239245
30
0
41
1
10
73.9465507462948
20
-2.21310490350223
30
0
41
1
10
73.9676093723825
20
-2.24011055038827
30
0
41
1
10
74.0096955846214
20
-2.29450805533017
30
0
41
1
10
74.0516776190113
20
-2.35003880753186
30
0
41
1
10
74.135468858964
20
-2.46257183144397
30
0
41
1
10
74.1910811520938
20
-2.53953999470235
30
0
41
1
10
74.2464234879513
20
-2.61832779096923
30
0
0
SPLINE
5
169
100
AcDbEntity
8
1
62
256
6
ByLayer
370
18
48
1
60
0
100
AcDbSpline
70
4
71
3
72
10
73
6
40
0
40
0
40
0
40
0
40
0.5
40
0.5
40
1
40
1
40
1
40
1
41
1
10
74.2464234879513
20
-2.61832779096923
30
0
41
1
10
74.2942670917717
20
-2.68644006075459
30
0
41
1
10
74.3419053832286
20
-2.75590675912801
30
0
41
1
10
74.4367230652461
20
-2.89736164461436
30
0
41
1
10
74.4838958874235
20
-2.96935113282637
30
0
41
1
10
74.5308664387268
20
-3.04255233479358
30
0
0
SPLINE
5
16A
100
AcDbEntity
8
1
62
256
6
ByLayer
370
18
48
1
60
0
100
AcDbSpline
70
4
71
3
72
8
73
4
40
0
40
0
40
0
40
0
40
1
40
1
40
1
40
1
41
1
10
74.7137150768974
20
-3.20988580039258
30
0
41
1
10
74.6526985913102
20
-3.1546690636967
30
0
41
1
10
74.5917884738468
20
-3.09885952156651
30
0
41
1
10
74.5308664387266
20
-3.0425523347935
30
0
0
SPLINE
5
16B
100
AcDbEntity
8
1
62
256
6
ByLayer
370
18
48
1
60
0
100
AcDbSpline
70
4
71
3
72
54
73
50
40
0
40
0
40
0
40
0
40
0.031250000000003
40
0.031250000000003
40
0.0625000000000061
40
0.0625000000000061
40
0.125000000000013
40
0.125000000000013
40
0.250000000000027
40
0.250000000000027
40
0.375000000000041
40
0.375000000000041
40
0.437500000000045
40
0.468750000000043
40
0.468750000000043
40
0.500000000000041
40
0.500000000000041
40
0.531250000000039
40
0.531250000000039
40
0.546875000000039
40
0.546875000000039
40
0.562500000000038
40
0.562500000000038
40
0.593750000000037
40
0.593750000000037
40
0.625000000000036
40
0.625000000000036
40
0.656250000000035
40
0.656250000000035
40
0.687500000000034
40
0.687500000000034
40
0.718750000000033
40
0.718750000000033
40
0.726562500000027
40
0.726562500000027
40
0.734375000000021
40
0.734375000000021
40
0.750000000000009
40
0.750000000000009
40
0.757812500000008
40
0.757812500000008
40
0.765625000000007
40
0.765625000000007
40
0.781250000000005
40
0.781250000000005
40
0.812500000000009
40
0.875000000000008
40
0.875000000000008
40
1
40
1
40
1
40
1
41
1
10
74.7137150768968
20
-3.20988580038619
30
0
41
1
10
74.7255953743646
20
-3.21264115315623
30
0
41
1
10
74.7374652414213
20
-3.21522642989459
30
0
41
1
10
74.7612929123999
20
-3.220211201209
30
0
41
1
10
74.7732393189499
20
-3.22259402889622
30
0
41
1
10
74.8091373803573
20
-3.22936888415873
30
0
41
1
10
74.8331402943797
20
-3.23337273380506
30
0
41
1
10
74.9052729876876
20
-3.24370435838952
30
0
41
1
10
74.9535615159337
20
-3.24840382801398
30
0
41
1
10
75.0506093050994
20
-3.25340872059707
30
0
41
1
10
75.0993794808132
20
-3.25371090216197
30
0
41
1
10
75.1728262862302
20
-3.25084749444611
30
0
41
1
10
75.2096299196841
20
-3.24858715226426
30
0
41
1
10
75.2465655931339
20
-3.24508090639648
30
0
41
1
10
75.2712200499022
20
-3.24246606723926
30
0
41
1
10
75.2836329861755
20
-3.2411114625518
30
0
41
1
10
75.3079733629389
20
-3.23745062123618
30
0
41
1
10
75.3199587674325
20
-3.23522358400993
30
0
41
1
10
75.3407444790364
20
-3.23529519252247
30
0
41
1
10
75.3481367540949
20
-3.23588173255862
30
0
41
1
10
75.3639818083074
20
-3.23835082176487
30
0
41
1
10
75.3724321044798
20
-3.24022988563957
30
0
41
1
10
75.3991716142501
20
-3.24754917239966
30
0
41
1
10
75.4179750006705
20
-3.25431079260997
30
0
41
1
10
75.4569769984801
20
-3.2706457352372
30
0
41
1
10
75.4772034155717
20
-3.28025778645824
30
0
41
1
10
75.5192299249979
20
-3.30285382096494
30
0
41
1
10
75.5404401464021
20
-3.31560741313393
30
0
41
1
10
75.5831426349672
20
-3.34389845091005
30
0
41
1
10
75.6046320016448
20
-3.35938974690114
30
0
41
1
10
75.6478385026642
20
-3.39352623795085
30
0
41
1
10
75.668905680544
20
-3.41165156481551
30
0
41
1
10
75.6942722794946
20
-3.43613367774725
30
0
41
1
10
75.6992984303077
20
-3.44111944454897
30
0
41
1
10
75.7092544893269
20
-3.45127202090856
30
0
41
1
10
75.7142018137415
20
-3.45645771120366
30
0
41
1
10
75.7287454176865
20
-3.47214148645887
30
0
41
1
10
75.7380526301885
20
-3.48273753503926
30
0
41
1
10
75.7512517201424
20
-3.49890475383961
30
0
41
1
10
75.7555088716462
20
-3.50434457933048
30
0
41
1
10
75.7636738631347
20
-3.51534777742322
30
0
41
1
10
75.7675775877744
20
-3.52091253079425
30
0
41
1
10
75.7789038328295
20
-3.53774584149792
30
0
41
1
10
75.7858942806757
20
-3.54907886221494
30
0
41
1
10
75.806965653989
20
-3.58300021750918
30
0
41
1
10
75.8490780017526
20
-3.6510825083989
30
0
41
1
10
75.8910881264857
20
-3.71987065846494
30
0
41
1
10
75.9749381618937
20
-3.8583717531138
30
0
41
1
10
76.030595469507
20
-3.951928995592
30
0
41
1
10
76.0859875743368
20
-4.0465562659887
30
0
0
SPLINE
5
16C
100
AcDbEntity
8
1
62
256
6
ByLayer
370
18
48
1
60
0
100
AcDbSpline
70
4
71
3
72
10
73
6
40
0
40
0
40
0
40
0
40
0.5
40
0.5
40
1
40
1
40
1
40
1
41
1
10
76.0859875743368
20
-4.04655626598853
30
0
41
1
10
76.1338779827563
20
-4.1283682614137
30
0
41
1
10
76.181568549197
20
-4.21097632619768
30
0
41
1
10
76.2764962270357
20
-4.3775593002631
30
0
41
1
10
76.3237331850696
20
-4.46153333836378
30
0
41
1
10
76.3707702719073
20
-4.54616748683716
30
0
0
SPLINE
5
16D
100
AcDbEntity
8
1
62
256
6
ByLayer
370
18
48
1
60
0
100
AcDbSpline
70
4
71
3
72
8
73
4
40
0
40
0
40
0
40
0
40
1
40
1
40
1
40
1
41
1
10
76.5526879977148
20
-4.67216542039378
30
0
41
1
10
76.4921049509303
20
-4.63088832845656
30
0
41
1
10
76.4314503420865
20
-4.58889659028745
30
0
41
1
10
76.3707702719073
20
-4.54616748683716
30
0
0
SPLINE
5
16E
100
AcDbEntity
8
1
62
256
6
ByLayer
370
18
48
1
60
0
100
AcDbSpline
70
4
71
3
72
63
73
59
40
0
40
0
40
0
40
0
40
0.0312500000000035
40
0.0312500000000035
40
0.062500000000007
40
0.062500000000007
40
0.125000000000021
40
0.125000000000021
40
0.250000000000048
40
0.375000000000076
40
0.375000000000076
40
0.43750000000009
40
0.43750000000009
40
0.468750000000096
40
0.468750000000096
40
0.484375000000096
40
0.484375000000096
40
0.500000000000096
40
0.500000000000096
40
0.515625000000096
40
0.515625000000096
40
0.523437500000092
40
0.523437500000092
40
0.531250000000088
40
0.531250000000088
40
0.56250000000009
40
0.56250000000009
40
0.578125000000086
40
0.578125000000086
40
0.593750000000081
40
0.593750000000081
40
0.625000000000062
40
0.625000000000062
40
0.640625000000052
40
0.640625000000052
40
0.656250000000042
40
0.656250000000042
40
0.687500000000034
40
0.687500000000034
40
0.70312500000003
40
0.70312500000003
40
0.718750000000026
40
0.718750000000026
40
0.734375000000022
40
0.734375000000022
40
0.742187500000025
40
0.742187500000025
40
0.750000000000028
40
0.750000000000028
40
0.765625000000034
40
0.765625000000034
40
0.773437500000036
40
0.773437500000036
40
0.781250000000039
40
0.812500000000033
40
0.875000000000023
40
0.875000000000023
40
1
40
1
40
1
40
1
41
1
10
76.5526879977148
20
-4.67216542039381
30
0
41
1
10
76.564823549331
20
-4.66688454906779
30
0
41
1
10
76.5769451253259
20
-4.66143601425117
30
0
41
1
10
76.6012765271043
20
-4.6503762102416
30
0
41
1
10
76.6134739389433
20
-4.64474550475626
30
0
41
1
10
76.6501337458481
20
-4.62749390757386
30
0
41
1
10
76.6746453268684
20
-4.61549737545718
30
0
41
1
10
76.7482819149604
20
-4.57784554708215
30
0
41
1
10
76.8468327834819
20
-4.52332309513594
30
0
41
1
10
76.9462808860741
20
-4.46013495430989
30
0
41
1
10
77.0212713191451
20
-4.40948318941818
30
0
41
1
10
77.0463397801894
20
-4.39205251515608
30
0
41
1
10
77.0840369585492
20
-4.36509933468403
30
0
41
1
10
77.0966165940137
20
-4.35598177596785
30
0
41
1
10
77.1155079351617
20
-4.34210568373297
30
0
41
1
10
77.1218336326944
20
-4.33748089040307
30
0
41
1
10
77.1343321795084
20
-4.32794689343885
30
0
41
1
10
77.1404912850909
20
-4.32301927253332
30
0
41
1
10
77.1530157470238
20
-4.31336843415568
30
0
41
1
10
77.1593790649237
20
-4.30864250668648
30
0
41
1
10
77.1695587863034
20
-4.30235600493111
30
0
41
1
10
77.1730592432021
20
-4.30039612154056
30
0
41
1
10
77.1803147008401
20
-4.29680144309233
30
0
41
1
10
77.184083365054
20
-4.29516239318946
30
0
41
1
10
77.203415555548
20
-4.2879268209536
30
0
41
1
10
77.2204698619046
20
-4.28525450394991
30
0
41
1
10
77.2475836756058
20
-4.284204270814
30
0
41
1
10
77.2568804361136
20
-4.28435459020221
30
0
41
1
10
77.2759488322286
20
-4.28558032715088
30
0
41
1
10
77.2857596655494
20
-4.28666486669118
30
0
41
1
10
77.3154863586715
20
-4.29127620648066
30
0
41
1
10
77.335759533511
20
-4.29611891919782
30
0
41
1
10
77.3668870021559
20
-4.30647260501786
30
0
41
1
10
77.3773846870987
20
-4.31045009249311
30
0
41
1
10
77.3986065274549
20
-4.31943171254346
30
0
41
1
10
77.4093149458748
20
-4.32443442246603
30
0
41
1
10
77.4411489020509
20
-4.34068665487155
30
0
41
1
10
77.4621926818263
20
-4.35322134639938
30
0
41
1
10
77.4933916812662
20
-4.37498608981005
30
0
41
1
10
77.5037294461877
20
-4.3827423229551
30
0
41
1
10
77.5242424991539
20
-4.39951166623564
30
0
41
1
10
77.5344235891642
20
-4.40857198452915
30
0
41
1
10
77.5540248874816
20
-4.42749282216542
30
0
41
1
10
77.5635259145765
20
-4.43740472818808
30
0
41
1
10
77.5772864035884
20
-4.45300895671963
30
0
41
1
10
77.5817939769445
20
-4.45832911098719
30
0
41
1
10
77.5905935837702
20
-4.46929404888076
30
0
41
1
10
77.5948874257887
20
-4.47496406126911
30
0
41
1
10
77.6070384452898
20
-4.49218124146807
30
0
41
1
10
77.6142459048228
20
-4.50405722957177
30
0
41
1
10
77.6246157502862
20
-4.52207207389364
30
0
41
1
10
77.6280057959009
20
-4.52810742136623
30
0
41
1
10
77.6348071703849
20
-4.54017091093655
30
0
41
1
10
77.6518075586162
20
-4.57033640577976
30
0
41
1
10
77.6959685925401
20
-4.64885395114152
30
0
41
1
10
77.7366337056664
20
-4.7215275700697
30
0
41
1
10
77.8178018951816
20
-4.86714606678007
30
0
41
1
10
77.8716617538248
20
-4.96453502769367
30
0
41
1
10
77.9252929748656
20
-5.06216792763055
30
0
0
SPLINE
5
16F
100
AcDbEntity
8
1
62
256
6
ByLayer
370
18
48
1
60
0
100
AcDbSpline
70
4
71
3
72
10
73
6
40
0
40
0
40
0
40
0
40
0.499999999999999
40
0.499999999999999
40
1
40
1
40
1
40
1
41
1
10
83
20
-2.485369238309
30
0
41
1
10
82.9020262513035
20
-2.48159655644631
30
0
41
1
10
82.80297228865
20
-2.47799495360889
30
0
41
1
10
82.6029113699699
20
-2.47192284068203
30
0
41
1
10
82.5019299316485
20
-2.46939615823564
30
0
41
1
10
82.4000000629052
20
-2.46813158620606
30
0
0
SPLINE
5
170
100
AcDbEntity
8
1
62
256
6
ByLayer
370
18
48
1
60
0
100
AcDbSpline
70
4
71
3
72
14
73
10
40
0
40
0
40
0
40
0
40
0.125000000000004
40
0.125000000000004
40
0.250000000000008
40
0.250000000000008
40
0.5
40
0.5
40
1
40
1
40
1
40
1
41
1
10
82.400000062905
20
-2.46813158620586
30
0
41
1
10
82.3410457088525
20
-2.43531127476209
30
0
41
1
10
82.2822601369424
20
-2.40193755959857
30
0
41
1
10
82.16516390354
20
-2.33392230226158
30
0
41
1
10
82.1068391800658
20
-2.29929643771592
30
0
41
1
10
81.9324672530062
20
-2.19363172256487
30
0
41
1
10
81.8170166442636
20
-2.12081254487438
30
0
41
1
10
81.472613849419
20
-1.89565215165553
30
0
41
1
10
81.245627013524
20
-1.73659439494588
30
0
41
1
10
81.0202752561803
20
-1.56942967972861
30
0
0
SPLINE
5
171
100
AcDbEntity
8
SK1
62
256
6
ByLayer
370
18
48
1
60
0
100
AcDbSpline
70
4
71
3
72
25
73
21
40
0
40
0
40
0
40
0
40
0.0625056666803372
40
0.0625056666803372
40
0.125011333360674
40
0.125011333360674
40
0.250022666721349
40
0.250022666721349
40
0.500045333442697
40
0.500045333442697
40
0.625056666803371
40
0.625056666803371
40
0.687562333483708
40
0.718815166823877
40
0.718815166823877
40
0.750068000164046
40
0.750068000164046
40
0.875079333524719
40
0.875079333524719
40
1
40
1
40
1
40
1
41
1
10
-25.6
20
3.49999999999997
30
0
41
1
10
-25.6283912504772
20
3.49999999999997
30
0
41
1
10
-25.6564118314841
20
3.49999999999997
30
0
41
1
10
-25.7116377394306
20
3.49999999999997
30
0
41
1
10
-25.7388670583177
20
3.49999999999997
30
0
41
1
10
-25.8189906594333
20
3.49999999999997
30
0
41
1
10
-25.8703259431386
20
3.49999999999997
30
0
41
1
10
-26.0169645194637
20
3.49999999999997
30
0
41
1
10
-26.1049811976251
20
3.49999999999997
30
0
41
1
10
-26.2165657316219
20
3.49999999999997
30
0
41
1
10
-26.2503339875396
20
3.49999999999997
30
0
41
1
10
-26.2949367233175
20
3.49999999999997
30
0
41
1
10
-26.3157237676438
20
3.49999999999997
30
0
41
1
10
-26.3340524870825
20
3.49999999999997
30
0
41
1
10
-26.3457035645301
20
3.49999999999997
30
0
41
1
10
-26.3512513335316
20
3.49999999999997
30
0
41
1
10
-26.3774102497551
20
3.49999999999997
30
0
41
1
10
-26.3933144104498
20
3.49999999999997
30
0
41
1
10
-26.4145946398707
20
3.49999999999997
30
0
41
1
10
-26.419976976702
20
3.49999999999997
30
0
41
1
10
-26.4199999999917
20
3.49999999999997
30
0
0
SPLINE
5
172
100
AcDbEntity
8
SK1
62
256
6
ByLayer
370
18
48
1
60
0
100
AcDbSpline
70
4
71
3
72
26
73
22
40
0
40
0
40
0
40
0
40
0.0004471727281782
40
0.125391276137156
40
0.125391276137156
40
0.250335379546134
40
0.250335379546134
40
0.281571405398378
40
0.281571405398378
40
0.312807431250623
40
0.375279482955111
40
0.375279482955111
40
0.500223586364089
40
0.500223586364089
40
0.750111793182045
40
0.750111793182045
40
0.875055896591023
40
0.875055896591023
40
0.937527948295511
40
0.937527948295511
40
1
40
1
40
1
40
1
41
1
10
-26.419999391473
20
-3.50000000000003
30
0
41
1
10
-26.420000391573
20
-3.50000000000003
30
0
41
1
10
-26.420003900838
20
-3.50000000000003
30
0
41
1
10
-26.414602359619
20
-3.50000000000003
30
0
41
1
10
-26.3933144104498
20
-3.50000000000003
30
0
41
1
10
-26.3774102497551
20
-3.50000000000003
30
0
41
1
10
-26.3512513335316
20
-3.50000000000003
30
0
41
1
10
-26.34570356453
20
-3.50000000000003
30
0
41
1
10
-26.3340524870825
20
-3.50000000000003
30
0
41
1
10
-26.3157237676438
20
-3.50000000000003
30
0
41
1
10
-26.2949367233174
20
-3.50000000000003
30
0
41
1
10
-26.2503339875396
20
-3.50000000000003
30
0
41
1
10
-26.2165657316218
20
-3.50000000000003
30
0
41
1
10
-26.104981197625
20
-3.50000000000003
30
0
41
1
10
-26.0169645194636
20
-3.50000000000003
30
0
41
1
10
-25.8703259431386
20
-3.50000000000003
30
0
41
1
10
-25.8189906594332
20
-3.50000000000003
30
0
41
1
10
-25.7388670583176
20
-3.50000000000003
30
0
41
1
10
-25.7116377394306
20
-3.50000000000003
30
0
41
1
10
-25.6564118314841
20
-3.50000000000003
30
0
41
1
10
-25.6283912504771
20
-3.50000000000003
30
0
41
1
10
-25.6
20
-3.50000000000003
30
0
0
SPLINE
5
173
100
AcDbEntity
8
SK1
62
256
6
ByLayer
370
18
48
1
60
0
100
AcDbSpline
70
4
71
3
72
42
73
38
40
0
40
0
40
0
40
0
40
0.0625000000000006
40
0.0625000000000006
40
0.0937500000000008
40
0.0937500000000008
40
0.125000000000001
40
0.125000000000001
40
0.250000000000001
40
0.250000000000001
40
0.375000000000001
40
0.375000000000001
40
0.390625000000001
40
0.390625000000001
40
0.406250000000002
40
0.406250000000002
40
0.437500000000001
40
0.437500000000001
40
0.500000000000001
40
0.562500000000001
40
0.562500000000001
40
0.625000000000001
40
0.625000000000001
40
0.640625000000001
40
0.640625000000001
40
0.656250000000001
40
0.687500000000001
40
0.687500000000001
40
0.750000000000001
40
0.750000000000001
40
0.875000000000001
40
0.875000000000001
40
0.9375
40
0.9375
40
0.96875
40
0.96875
40
1
40
1
40
1
40
1
41
1
10
-25.6
20
-2.5322717073806
30
0
41
1
10
-25.6565583720233
20
-2.43578436503554
30
0
41
1
10
-25.7116439195181
20
-2.33820475716084
30
0
41
1
10
-25.7915967853719
20
-2.18985119337413
30
0
41
1
10
-25.8178006931364
20
-2.14006846927998
30
0
41
1
10
-25.8692210011127
20
-2.03977067284563
30
0
41
1
10
-25.8944274264223
20
-1.98927084414487
30
0
41
1
10
-26.0171592864999
20
-1.73596911681412
30
0
41
1
10
-26.1053306622981
20
-1.52990483419958
30
0
41
1
10
-26.2540117985661
20
-1.10832131566491
30
0
41
1
10
-26.314506645306
20
-0.892796982116948
30
0
41
1
10
-26.3615059681628
20
-0.643134532197422
30
0
41
1
10
-26.3664345906926
20
-0.615293931063519
30
0
41
1
10
-26.3756842001613
20
-0.559405034267655
30
0
41
1
10
-26.3800074791542
20
-0.531334955523477
30
0
41
1
10
-26.3919767973441
20
-0.447243633545042
30
0
41
1
10
-26.3986454591635
20
-0.391210696628974
30
0
41
1
10
-26.4146633786763
20
-0.223196900384068
30
0
41
1
10
-26.4253672141579
20
0.0005943938749624
30
0
41
1
10
-26.414602359619
20
0.223928035215891
30
0
41
1
10
-26.3933144104498
20
0.447037353369865
30
0
41
1
10
-26.3774102497551
20
0.558479879870475
30
0
41
1
10
-26.3512513335316
20
0.697649193201755
30
0
41
1
10
-26.34570356453
20
0.725484569075576
30
0
41
1
10
-26.3340524870825
20
0.780866452572042
30
0
41
1
10
-26.3157237676438
20
0.863610658520486
30
0
41
1
10
-26.2949367233174
20
0.945406795114621
30
0
41
1
10
-26.2503339875396
20
1.10783105038192
30
0
41
1
10
-26.2165657316218
20
1.21455849585831
30
0
41
1
10
-26.104981197625
20
1.53077637201864
30
0
41
1
10
-26.0169645194637
20
1.7363329505221
30
0
41
1
10
-25.8703259431386
20
2.03903200195637
30
0
41
1
10
-25.8189906594332
20
2.13898460624912
30
0
41
1
10
-25.7388670583176
20
2.28771000338983
30
0
41
1
10
-25.7116377394306
20
2.33708225013299
30
0
41
1
10
-25.6564118314841
20
2.43512311771099
30
0
41
1
10
-25.6283912504771
20
2.48383685668747
30
0
41
1
10
-25.6
20
2.53227170738057
30
0
0
SPLINE
5
174
100
AcDbEntity
8
1
62
256
6
ByLayer
370
18
48
1
60
0
100
AcDbSpline
70
4
71
2
72
6
73
3
40
0
40
0
40
0
40
1
40
1
40
1
41
1
10
80.7176030467672
20
-5.26415361903818
30
0
41
1
10
80.7667852366433
20
-5.17837447471214
30
0
41
1
10
80.8413528706222
20
-5.08454670465304
30
0
0
SPLINE
5
175
100
AcDbEntity
8
1
62
256
6
ByLayer
370
18
48
1
60
0
100
AcDbSpline
70
4
71
3
72
12
73
8
40
0
40
0
40
0
40
0
40
0.39683167935817
40
0.587000110325598
40
0.779502376621207
40
0.992670432978831
40
1
40
1
40
1
40
1
41
1
10
70.1498187157964
20
5.58196459685263
30
0
41
1
10
70.1133050588438
20
5.51886180940997
30
0
41
1
10
70.0588662408931
20
5.42504890758462
30
0
41
1
10
69.9838274494321
20
5.29523146751137
30
0
41
1
10
69.9289856866677
20
5.20217908921606
30
0
41
1
10
69.894253775282
20
5.13870163074924
30
0
41
1
10
69.8797500539198
20
5.11597001093034
30
0
41
1
10
69.879270721927
20
5.11522081859005
30
0
0
SPLINE
5
176
100
AcDbEntity
8
1
62
256
6
ByLayer
370
18
48
1
60
0
100
AcDbSpline
70
4
71
1
72
4
73
2
40
0
40
0
40
1
40
1
41
1
10
83
20
4.33893543174159
30
0
41
1
10
82.4000000649199
20
4.93821952922255
30
0
0
SPLINE
5
177
100
AcDbEntity
8
1
62
256
6
ByLayer
370
18
48
1
60
0
100
AcDbSpline
70
4
71
2
72
6
73
3
40
0
40
0
40
0
40
1
40
1
40
1
41
1
10
70.4185600111572
20
6.04289000803325
30
0
41
1
10
70.2804485657493
20
5.80481611292763
30
0
41
1
10
70.1422850999977
20
5.56693501592741
30
0
0
SPLINE
5
178
100
AcDbEntity
8
1
62
256
6
ByLayer
370
18
48
1
60
0
100
AcDbSpline
70
4
71
3
72
11
73
7
40
0
40
0
40
0
40
0
40
0.41141456318829
40
0.740683689527871
40
0.987931762931716
40
1
40
1
40
1
40
1
41
1
10
68.020976578177
20
-6.04817726151336
30
0
41
1
10
68.0980508045921
20
-5.91569201799194
30
0
41
1
10
68.2364359033417
20
-5.6779037497565
30
0
41
1
10
68.4210258384631
20
-5.36126696592572
30
0
41
1
10
68.5296348533591
20
-5.17471150843642
30
0
41
1
10
68.577188675353
20
-5.09235769668538
30
0
41
1
10
68.5794161231122
20
-5.08853871986906
30
0
0
SPLINE
5
179
100
AcDbEntity
8
1
62
256
6
ByLayer
370
18
48
1
60
0
100
AcDbSpline
70
4
71
1
72
4
73
2
40
0
40
0
40
1
40
1
41
1
10
79.8003639181566
20
-5.5681322801525
30
0
41
1
10
80.6879376652709
20
-5.3298459191432
30
0
0
SPLINE
5
17A
100
AcDbEntity
8
1
62
256
6
ByLayer
370
18
48
1
60
0
100
AcDbSpline
70
4
71
2
72
6
73
3
40
0
40
0
40
0
40
1
40
1
40
1
41
1
10
67.5250174103525
20
-5.58254273499355
30
0
41
1
10
67.6639812185959
20
-5.82226615480175
30
0
41
1
10
67.8028134990499
20
-6.06206323981141
30
0
0
SPLINE
5
17B
100
AcDbEntity
8
1
62
256
6
ByLayer
370
18
48
1
60
0
100
AcDbSpline
70
4
71
3
72
20
73
16
40
0
40
0
40
0
40
0
40
0.122921197633099
40
0.259552283972195
40
0.305551140710056
40
0.339163187855397
40
0.363083005912492
40
0.382312909808516
40
0.515799453343716
40
0.567123132918306
40
0.607118435136134
40
0.654861530678645
40
0.728195461825738
40
0.820018549620096
40
1
40
1
40
1
40
1
41
1
10
66.5838194115721
20
-5.51227122609987
30
0
41
1
10
66.620313356337
20
-5.44941695184573
30
0
41
1
10
66.6961875529492
20
-5.31745117116111
30
0
41
1
10
66.7856183345297
20
-5.16286107880686
30
0
41
1
10
66.8445558449995
20
-5.05543726554254
30
0
41
1
10
66.8844589279506
20
-5.01739309106139
30
0
41
1
10
66.9162949081528
20
-4.99730061004067
30
0
41
1
10
66.9623121626713
20
-4.9734694436666
30
0
41
1
10
67.0377071885307
20
-4.9590258179696
30
0
41
1
10
67.1147301171337
20
-4.97612708373964
30
0
41
1
10
67.1810896656558
20
-5.01192004247977
30
0
41
1
10
67.2386394756411
20
-5.0739463176964
30
0
41
1
10
67.2925913568983
20
-5.18345918932715
30
0
41
1
10
67.3932578980895
20
-5.35253759570097
30
0
41
1
10
67.4707049694669
20
-5.48910557131009
30
0
41
1
10
67.5232831973517
20
-5.57944284713409
30
0
0
SPLINE
5
17C
100
AcDbEntity
8
1
62
256
6
ByLayer
370
18
48
1
60
0
100
AcDbSpline
70
4
71
3
72
16
73
12
40
0
40
0
40
0
40
0
40
0.233869716812505
40
0.416041099765693
40
0.485121939527245
40
0.543655612853336
40
0.647715949749787
40
0.716526495167856
40
0.805275212655992
40
0.854238502957188
40
1
40
1
40
1
40
1
41
1
10
71.9000136261529
20
5.58226676443368
30
0
41
1
10
71.8478561686581
20
5.49251794475177
30
0
41
1
10
71.7585895475607
20
5.33652247471446
30
0
41
1
10
71.6544481642517
20
5.15778030643042
30
0
41
1
10
71.5972354015143
20
5.0504826245425
30
0
41
1
10
71.5336754463046
20
4.99564011534665
30
0
41
1
10
71.4805514710605
20
4.97046733769679
30
0
41
1
10
71.3792524924969
20
4.9592539622935
30
0
41
1
10
71.2961419419136
20
4.98751523801204
30
0
41
1
10
71.2022243199536
20
5.05997061472092
30
0
41
1
10
71.1637387564803
20
5.13536098493887
30
0
41
1
10
71.1355895139635
20
5.19293939833346
30
0
0
SPLINE
5
17D
100
AcDbEntity
8
1
62
256
6
ByLayer
370
18
48
1
60
0
100
AcDbSpline
70
4
71
3
72
9
73
5
40
0
40
0
40
0
40
0
40
0.257914628582834
40
1
40
1
40
1
40
1
41
1
10
71.0044258218222
20
5.43553391065703
30
0
41
1
10
70.9726674828076
20
5.48940035524842
30
0
41
1
10
70.8466269299772
20
5.696503396357
30
0
41
1
10
70.7274330479544
20
5.91107797237467
30
0
41
1
10
70.6359194037323
20
6.06904626464978
30
0
0
SPLINE
5
17E
100
AcDbEntity
8
1
62
256
6
ByLayer
370
18
48
1
60
0
100
AcDbSpline
70
4
71
3
72
18
73
14
40
0
40
0
40
0
40
0
40
0.209517534632904
40
0.367947593956333
40
0.471813129398666
40
0.506898336236813
40
0.531410450717757
40
0.573588396838466
40
0.613636235136686
40
0.665652331676084
40
0.734037065250183
40
0.823837377014469
40
1
40
1
40
1
40
1
41
1
10
78.615716608301
20
-5.8883861602263
30
0
41
1
10
78.6898563353185
20
-5.76055610649487
30
0
41
1
10
78.816631241216
20
-5.53341357007469
30
0
41
1
10
78.9904196275731
20
-5.25273639095076
30
0
41
1
10
79.0767221087924
20
-5.05586862657782
30
0
41
1
10
79.1688978350217
20
-4.99263048174242
30
0
41
1
10
79.2291980737696
20
-4.96923163001188
30
0
41
1
10
79.2803694922264
20
-4.9614137756889
30
0
41
1
10
79.3673141866094
20
-4.97372272944534
30
0
41
1
10
79.4582328138233
20
-5.02539575553715
30
0
41
1
10
79.5227363850771
20
-5.13981772459587
30
0
41
1
10
79.626330851678
20
-5.32531864128151
30
0
41
1
10
79.7088678137641
20
-5.46848308157971
30
0
41
1
10
79.7637270351647
20
-5.56238592804334
30
0
0
SPLINE
5
17F
100
AcDbEntity
8
1
62
256
6
ByLayer
370
18
48
1
60
0
100
AcDbSpline
70
4
71
2
72
6
73
3
40
0
40
0
40
0
40
1
40
1
40
1
41
1
10
72.1770192626556
20
6.06031312365906
30
0
41
1
10
72.0394226660273
20
5.82272903653694
30
0
41
1
10
71.9017988314291
20
5.58516633966696
30
0
0
SPLINE
5
180
100
AcDbEntity
8
1
62
256
6
ByLayer
370
18
48
1
60
0
100
AcDbSpline
70
4
71
1
72
4
73
2
40
0
40
0
40
1
40
1
41
1
10
78.2720030756741
20
-5.98318152536618
30
0
41
1
10
78.6095515091667
20
-5.89246965143263
30
0
0
SPLINE
5
181
100
AcDbEntity
8
1
62
256
6
ByLayer
370
18
48
1
60
0
100
AcDbSpline
70
4
71
2
72
6
73
3
40
0
40
0
40
0
40
1
40
1
40
1
41
1
10
78.0268951270909
20
-5.58568836514331
30
0
41
1
10
78.1378973344529
20
-5.77735141730406
30
0
41
1
10
78.2488884148522
20
-5.96898108153172
30
0
0
SPLINE
5
182
100
AcDbEntity
8
1
62
256
6
ByLayer
370
18
48
1
60
0
100
AcDbSpline
70
4
71
3
72
18
73
14
40
0
40
0
40
0
40
0
40
0.179217099274671
40
0.280489378912732
40
0.320524059495586
40
0.354142775993159
40
0.395861997387108
40
0.426394587503635
40
0.469546064839838
40
0.520574590503445
40
0.588866186326965
40
0.766894753552048
40
1
40
1
40
1
40
1
41
1
10
73.6455115981602
20
5.5739019020827
30
0
41
1
10
73.5830770235744
20
5.46674714081973
30
0
41
1
10
73.4805324761935
20
5.30458476018381
30
0
41
1
10
73.3835504081316
20
5.09597139398315
30
0
41
1
10
73.3062894663206
20
5.01014339463535
30
0
41
1
10
73.233312056141
20
4.97322345155283
30
0
41
1
10
73.1752489815201
20
4.96167103514557
30
0
41
1
10
73.089442804351
20
4.97002083082012
30
0
41
1
10
73.0010515894892
20
5.01102920768659
30
0
41
1
10
72.9275202467078
20
5.11265551450992
30
0
41
1
10
72.821905597211
20
5.31694253756004
30
0
41
1
10
72.632529253761
20
5.63753055251618
30
0
41
1
10
72.4760807905678
20
5.91364476608049
30
0
41
1
10
72.3860583765905
20
6.06924157931377
30
0
0
SPLINE
5
183
100
AcDbEntity
8
1
62
256
6
ByLayer
370
18
48
1
60
0
100
AcDbSpline
70
4
71
3
72
19
73
15
40
0
40
0
40
0
40
0
40
0.240413679732944
40
0.413011664133984
40
0.473555118097323
40
0.515476570187952
40
0.546651275793778
40
0.572947610777683
40
0.605432472985468
40
0.644385661623878
40
0.68832096021599
40
0.734277707660971
40
0.853540723237767
40
1
40
1
40
1
40
1
41
1
10
76.7625848084045
20
-6.0666889619329
30
0
41
1
10
76.8610739271398
20
-5.8968093476083
30
0
41
1
10
77.025712253247
20
-5.60559443593854
30
0
41
1
10
77.224540318036
20
-5.27999297862027
30
0
41
1
10
77.3221511785484
20
-5.08572337542111
30
0
41
1
10
77.3887740404508
20
-5.00891718665898
30
0
41
1
10
77.4502901847459
20
-4.9792321964473
30
0
41
1
10
77.4917779252389
20
-4.9669138579543
30
0
41
1
10
77.5541262063392
20
-4.96174766929823
30
0
41
1
10
77.6285968482345
20
-4.9783434727081
30
0
41
1
10
77.7054109216377
20
-5.02530003294424
30
0
41
1
10
77.7798427642872
20
-5.1408649054008
30
0
41
1
10
77.8816494406784
20
-5.33743116563303
30
0
41
1
10
77.9740750671409
20
-5.4948331989836
30
0
41
1
10
78.0250226543987
20
-5.58259702156897
30
0
0
SPLINE
5
184
100
AcDbEntity
8
1
62
256
6
ByLayer
370
18
48
1
60
0
100
AcDbSpline
70
4
71
2
72
6
73
3
40
0
40
0
40
0
40
1
40
1
40
1
41
1
10
73.9271281909014
20
6.06056191191101
30
0
41
1
10
73.788469808827
20
5.82112055644239
30
0
41
1
10
73.6496991730812
20
5.58175629695705
30
0
0
SPLINE
5
185
100
AcDbEntity
8
1
62
256
6
ByLayer
370
18
48
1
60
0
100
AcDbSpline
70
4
71
2
72
6
73
3
40
0
40
0
40
0
40
1
40
1
40
1
41
1
10
76.270582287664
20
-5.57383356876858
30
0
41
1
10
76.4089645499314
20
-5.81232091768908
30
0
41
1
10
76.5472903983145
20
-6.05097949767213
30
0
0
SPLINE
5
186
100
AcDbEntity
8
1
62
256
6
ByLayer
370
18
48
1
60
0
100
AcDbSpline
70
4
71
3
72
13
73
9
40
0
40
0
40
0
40
0
40
0.0130371608941906
40
0.074299558503603
40
0.195505784082514
40
0.361942081864335
40
0.64559566094042
40
1
40
1
40
1
40
1
41
1
10
74.8261717549596
20
4.97337035972856
30
0
41
1
10
74.8211680237004
20
4.97499163074963
30
0
41
1
10
74.7932636085594
20
4.98541121121772
30
0
41
1
10
74.7266620054914
20
5.03738413080143
30
0
41
1
10
74.6605592611078
20
5.17120470887841
30
0
41
1
10
74.5336417323838
20
5.37944942912054
30
0
41
1
10
74.3613321907576
20
5.68015398143473
30
0
41
1
10
74.2222388377432
20
5.91774624268604
30
0
41
1
10
74.1451459201549
20
6.05031842058202
30
0
0
SPLINE
5
187
100
AcDbEntity
8
1
62
256
6
ByLayer
370
18
48
1
60
0
100
AcDbSpline
70
4
71
3
72
11
73
7
40
0
40
0
40
0
40
0
40
0.120616329616216
40
0.323215023186494
40
0.536875787149788
40
1
40
1
40
1
40
1
41
1
10
75.911913133833
20
-5.00353584164489
30
0
41
1
10
75.9278827942067
20
-5.01200274429664
30
0
41
1
10
75.9685678054925
20
-5.04107160194454
30
0
41
1
10
76.0132523531728
20
-5.1336336746877
30
0
41
1
10
76.1121048578238
20
-5.29171632379041
30
0
41
1
10
76.1935039164398
20
-5.43059840832075
30
0
41
1
10
76.2547068469852
20
-5.53267360781945
30
0
0
SPLINE
5
188
100
AcDbEntity
8
1
62
256
6
ByLayer
370
18
48
1
60
0
100
AcDbSpline
70
4
71
3
72
8
73
4
40
0
40
0
40
0
40
0
40
1
40
1
40
1
40
1
41
1
10
82.88860082852
20
0.334754409338075
30
0
41
1
10
82.904737734644
20
0.322216753243538
30
0
41
1
10
82.920879509692
20
0.30962439268805
30
0
41
1
10
82.9370263432931
20
0.296978587664853
30
0
0
SPLINE
5
189
100
AcDbEntity
8
1
62
256
6
ByLayer
370
18
48
1
60
0
100
AcDbSpline
70
4
71
1
72
4
73
2
40
0
40
0
40
1
40
1
41
1
10
82.9370263432931
20
0.296978587664853
30
0
41
1
10
82.9543330134032
20
0.283706773290959
30
0
0
LINE
5
7F
100
AcDbEntity
8
80
62
256
6
ByLayer
370
18
48
1
60
0
100
AcDbLine
10
0
20
0
30
0
11
-5
21
0
31
0
39
0
210
0
220
0
230
1
0
LINE
5
80
100
AcDbEntity
8
4
62
256
6
ByLayer
370
18
48
0.05
60
0
100
AcDbLine
10
0
20
0
30
0
11
83
21
0
31
0
39
0
210
0
220
0
230
1
0
LINE
5
82
100
AcDbEntity
8
81
62
256
6
ByLayer
370
18
48
1
60
0
100
AcDbLine
10
83
20
0
30
0
11
88
21
0
31
0
39
0
210
0
220
0
230
1
0
LINE
5
83
100
AcDbEntity
8
SK4
62
256
6
ByLayer
370
18
48
0.05
60
0
100
AcDbLine
10
-27
20
0
30
0
11
83
21
0
31
0
39
0
210
0
220
0
230
1
0
LINE
5
85
100
AcDbEntity
8
1
62
256
6
ByLayer
370
18
48
1
60
0
100
AcDbLine
10
0
20
4.5
30
0
11
0
21
-4.5
31
0
39
0
210
0
220
0
230
1
0
LINE
5
86
100
AcDbEntity
8
1
62
256
6
ByLayer
370
18
48
1
60
0
100
AcDbLine
10
82.4
20
4.945032
30
0
11
82.4
21
4.938231
31
0
39
0
210
0
220
0
230
1
0
LINE
5
87
100
AcDbEntity
8
1
62
256
6
ByLayer
370
18
48
1
60
0
100
AcDbLine
10
80.687276
20
-5.330027
30
0
11
80.685355
21
-5.331843
31
0
39
0
210
0
220
0
230
1
0
LINE
5
88
100
AcDbEntity
8
1
62
256
6
ByLayer
370
18
48
1
60
0
100
AcDbLine
10
71.901866
20
5.585271
30
0
11
71.900195
21
5.582571
31
0
39
0
210
0
220
0
230
1
0
LINE
5
89
100
AcDbEntity
8
1
62
256
6
ByLayer
370
13
48
1
60
0
100
AcDbLine
10
66.291881
20
-5.05
30
0
11
66.291881
21
-4.72722
31
0
39
0
210
0
220
0
230
1
0
LINE
5
8A
100
AcDbEntity
8
1
62
256
6
ByLayer
370
13
48
1
60
0
100
AcDbLine
10
65.079445
20
-4.35
30
0
11
65.079445
21
-3.688171
31
0
39
0
210
0
220
0
230
1
0
LINE
5
8B
100
AcDbEntity
8
1
62
256
6
ByLayer
370
13
48
1
60
0
100
AcDbLine
10
28.653835
20
-4.35
30
0
11
28.653835
21
4.35
31
0
39
0
210
0
220
0
230
1
0
LINE
5
8C
100
AcDbEntity
8
1
62
256
6
ByLayer
370
18
48
1
60
0
100
AcDbLine
10
28
20
4.5
30
0
11
28
21
-4.5
31
0
39
0
210
0
220
0
230
1
0
LINE
5
8D
100
AcDbEntity
8
1
62
256
6
ByLayer
370
13
48
1
60
0
100
AcDbLine
10
65.079445
20
1.811203
30
0
11
65.079445
21
3.841564
31
0
39
0
210
0
220
0
230
1
0
LINE
5
8E
100
AcDbEntity
8
1
62
256
6
ByLayer
370
13
48
1
60
0
100
AcDbLine
10
66.291881
20
2.033349
30
0
11
66.291881
21
0.948104
31
0
39
0
210
0
220
0
230
1
0
LINE
5
8F
100
AcDbEntity
8
SK1
62
256
6
ByLayer
370
18
48
1
60
0
100
AcDbLine
10
-27
20
2.92
30
0
11
-27
21
-2.92
31
0
39
0
210
0
220
0
230
1
0
LINE
5
91
100
AcDbEntity
8
SK1
62
256
6
ByLayer
370
18
48
1
60
0
100
AcDbLine
10
-17
20
2.532272
30
0
11
-17
21
-2.532272
31
0
39
0
210
0
220
0
230
1
0
LINE
5
92
100
AcDbEntity
8
SK1
62
256
6
ByLayer
370
18
48
1
60
0
100
AcDbLine
10
-17
20
3.5
30
0
11
-16.18
21
4.32
31
0
39
0
210
0
220
0
230
1
0
LINE
5
93
100
AcDbEntity
8
SK1
62
256
6
ByLayer
370
18
48
1
60
0
100
AcDbLine
10
-25.6
20
3.5
30
0
11
-17
21
3.5
31
0
39
0
210
0
220
0
230
1
0
LINE
5
94
100
AcDbEntity
8
SK1
62
256
6
ByLayer
370
18
48
1
60
0
100
AcDbLine
10
-25.6
20
2.532272
30
0
11
-25.6
21
3.5
31
0
39
0
210
0
220
0
230
1
0
LINE
5
95
100
AcDbEntity
8
SK1
62
256
6
ByLayer
370
18
48
1
60
0
100
AcDbLine
10
-17
20
2.532272
30
0
11
-25.6
21
2.532272
31
0
39
0
210
0
220
0
230
1
0
LINE
5
96
100
AcDbEntity
8
SK1
62
256
6
ByLayer
370
18
48
1
60
0
100
AcDbLine
10
-25.6
20
-2.532272
30
0
11
-17
21
-2.532272
31
0
39
0
210
0
220
0
230
1
0
LINE
5
97
100
AcDbEntity
8
SK1
62
256
6
ByLayer
370
18
48
1
60
0
100
AcDbLine
10
-25.6
20
-3.5
30
0
11
-25.6
21
-2.532272
31
0
39
0
210
0
220
0
230
1
0
LINE
5
98
100
AcDbEntity
8
SK1
62
256
6
ByLayer
370
18
48
1
60
0
100
AcDbLine
10
-17
20
-3.5
30
0
11
-25.6
21
-3.5
31
0
39
0
210
0
220
0
230
1
0
LINE
5
99
100
AcDbEntity
8
SK1
62
256
6
ByLayer
370
18
48
1
60
0
100
AcDbLine
10
-17
20
-3.5
30
0
11
-16.18
21
-4.32
31
0
39
0
210
0
220
0
230
1
0
LINE
5
9A
100
AcDbEntity
8
SK1
62
256
6
ByLayer
370
18
48
1
60
0
100
AcDbLine
10
0
20
4.5
30
0
11
0
21
-4.5
31
0
39
0
210
0
220
0
230
1
0
LINE
5
9B
100
AcDbEntity
8
SK1
62
256
6
ByLayer
370
18
48
1
60
0
100
AcDbLine
10
-15
20
4.32
30
0
11
-15
21
-4.32
31
0
39
0
210
0
220
0
230
1
0
LINE
5
9C
100
AcDbEntity
8
SK1
62
256
6
ByLayer
370
18
48
1
60
0
100
AcDbLine
10
-14.82
20
-4.5
30
0
11
-14.82
21
4.5
31
0
39
0
210
0
220
0
230
1
0
LINE
5
9D
100
AcDbEntity
8
1
62
256
6
ByLayer
370
18
48
1
60
0
100
AcDbLine
10
28
20
4.5
30
0
11
0
21
4.5
31
0
39
0
210
0
220
0
230
1
0
LINE
5
9E
100
AcDbEntity
8
1
62
256
6
ByLayer
370
18
48
1
60
0
100
AcDbLine
10
0
20
-4.5
30
0
11
28
21
-4.5
31
0
39
0
210
0
220
0
230
1
0
LINE
5
9F
100
AcDbEntity
8
1
62
256
6
ByLayer
370
18
48
1
60
0
100
AcDbLine
10
70.620679
20
6.076498
30
0
11
70.447238
21
6.076498
31
0
39
0
210
0
220
0
230
1
0
LINE
5
A0
100
AcDbEntity
8
1
62
256
6
ByLayer
370
18
48
1
60
0
100
AcDbLine
10
67.822095
20
-6.076498
30
0
11
67.99597
21
-6.076498
31
0
39
0
210
0
220
0
230
1
0
LINE
5
A1
100
AcDbEntity
8
1
62
256
6
ByLayer
370
18
48
1
60
0
100
AcDbLine
10
66.291881
20
-5.05
30
0
11
66.559919
21
-5.514256
31
0
39
0
210
0
220
0
230
1
0
LINE
5
A2
100
AcDbEntity
8
1
62
256
6
ByLayer
370
18
48
1
60
0
100
AcDbLine
10
72.37081
20
6.076498
30
0
11
72.197478
21
6.076498
31
0
39
0
210
0
220
0
230
1
0
LINE
5
A3
100
AcDbEntity
8
1
62
256
6
ByLayer
370
18
48
1
60
0
100
AcDbLine
10
76.572435
20
-6.076498
30
0
11
76.746013
21
-6.076498
31
0
39
0
210
0
220
0
230
1
0
LINE
5
A4
100
AcDbEntity
8
1
62
256
6
ByLayer
370
18
48
1
60
0
100
AcDbLine
10
74.12084
20
6.076498
30
0
11
73.947381
21
6.076498
31
0
39
0
210
0
220
0
230
1
0
LINE
5
A5
100
AcDbEntity
8
1
62
256
6
ByLayer
370
18
48
1
60
0
100
AcDbLine
10
28.653835
20
-4.35
30
0
11
37.827121
21
-4.35
31
0
39
0
210
0
220
0
230
1
0
LINE
5
A6
100
AcDbEntity
8
1
62
256
6
ByLayer
370
18
48
1
60
0
100
AcDbLine
10
39.410674
20
-4.35
30
0
11
44.221345
21
-4.35
31
0
39
0
210
0
220
0
230
1
0
LINE
5
A7
100
AcDbEntity
8
1
62
256
6
ByLayer
370
18
48
1
60
0
100
AcDbLine
10
52.555041
20
-4.35
30
0
11
56.254514
21
-4.35
31
0
39
0
210
0
220
0
230
1
0
LINE
5
A8
100
AcDbEntity
8
1
62
256
6
ByLayer
370
18
48
1
60
0
100
AcDbLine
10
64.541377
20
-4.35
30
0
11
65.079445
21
-4.35
31
0
39
0
210
0
220
0
230
1
0
LINE
5
A9
100
AcDbEntity
8
1
62
256
6
ByLayer
370
18
48
1
60
0
100
AcDbLine
10
62.273302
20
4.35
30
0
11
58.548476
21
4.35
31
0
39
0
210
0
220
0
230
1
0
LINE
5
AA
100
AcDbEntity
8
1
62
256
6
ByLayer
370
18
48
1
60
0
100
AcDbLine
10
50.239364
20
4.35
30
0
11
46.561504
21
4.35
31
0
39
0
210
0
220
0
230
1
0
LINE
5
AB
100
AcDbEntity
8
1
62
256
6
ByLayer
370
18
48
1
60
0
100
AcDbLine
10
38.381567
20
4.35
30
0
11
28.653835
21
4.35
31
0
39
0
210
0
220
0
230
1
0
LINE
5
AC
100
AcDbEntity
8
SK1
62
256
6
ByLayer
370
18
48
1
60
0
100
AcDbLine
10
-27
20
-2.92
30
0
11
-26.42
21
-3.5
31
0
39
0
210
0
220
0
230
1
0
LINE
5
AD
100
AcDbEntity
8
SK1
62
256
6
ByLayer
370
18
48
1
60
0
100
AcDbLine
10
-26.42
20
3.5
30
0
11
-27
21
2.92
31
0
39
0
210
0
220
0
230
1
0
LINE
5
AE
100
AcDbEntity
8
SK1
62
256
6
ByLayer
370
18
48
1
60
0
100
AcDbLine
10
-15
20
4.32
30
0
11
-16.18
21
4.32
31
0
39
0
210
0
220
0
230
1
0
LINE
5
AF
100
AcDbEntity
8
SK1
62
256
6
ByLayer
370
18
48
1
60
0
100
AcDbLine
10
-16.18
20
-4.32
30
0
11
-15
21
-4.32
31
0
39
0
210
0
220
0
230
1
0
LINE
5
B0
100
AcDbEntity
8
SK1
62
256
6
ByLayer
370
18
48
1
60
0
100
AcDbLine
10
0
20
4.5
30
0
11
-14.82
21
4.5
31
0
39
0
210
0
220
0
230
1
0
LINE
5
B1
100
AcDbEntity
8
SK1
62
256
6
ByLayer
370
18
48
1
60
0
100
AcDbLine
10
-14.82
20
-4.5
30
0
11
0
21
-4.5
31
0
39
0
210
0
220
0
230
1
0
LINE
5
B2
100
AcDbEntity
8
SK1
62
256
6
ByLayer
370
18
48
1
60
0
100
AcDbLine
10
-15
20
-4.32
30
0
11
-14.82
21
-4.5
31
0
39
0
210
0
220
0
230
1
0
LINE
5
B3
100
AcDbEntity
8
SK1
62
256
6
ByLayer
370
18
48
1
60
0
100
AcDbLine
10
-14.82
20
4.5
30
0
11
-15
21
4.32
31
0
39
0
210
0
220
0
230
1
0
LINE
5
B4
100
AcDbEntity
8
SK2
62
256
6
ByLayer
370
18
48
1
60
0
100
AcDbLine
10
14.59
20
-4.5
30
0
11
14.59
21
17.341828
31
0
39
0
210
0
220
0
230
1
0
LINE
5
B6
100
AcDbEntity
8
1
62
256
6
ByLayer
370
18
48
1
60
1
100
AcDbLine
10
14.59
20
4.5
30
0
11
15.050784
21
1.000002
31
0
39
0
210
0
220
0
230
1
0
LINE
5
B7
100
AcDbEntity
8
1
62
256
6
ByLayer
370
18
48
1
60
1
100
AcDbLine
10
15.050784
20
1.000002
30
0
11
14.129216
21
0.999998
31
0
39
0
210
0
220
0
230
1
0
LINE
5
B8
100
AcDbEntity
8
1
62
256
6
ByLayer
370
18
48
1
60
1
100
AcDbLine
10
14.129216
20
0.999998
30
0
11
14.59
21
4.5
31
0
39
0
210
0
220
0
230
1
0
LINE
5
B9
100
AcDbEntity
8
1
62
256
6
ByLayer
370
18
48
1
60
1
100
AcDbLine
10
14.59
20
-4.5
30
0
11
14.129216
21
-1.000002
31
0
39
0
210
0
220
0
230
1
0
LINE
5
BA
100
AcDbEntity
8
1
62
256
6
ByLayer
370
18
48
1
60
1
100
AcDbLine
10
14.129216
20
-1.000002
30
0
11
15.050784
21
-0.999998
31
0
39
0
210
0
220
0
230
1
0
LINE
5
BB
100
AcDbEntity
8
1
62
256
6
ByLayer
370
18
48
1
60
1
100
AcDbLine
10
15.050784
20
-0.999998
30
0
11
14.59
21
-4.5
31
0
39
0
210
0
220
0
230
1
0
LINE
5
BC
100
AcDbEntity
8
2
62
256
6
ByLayer
370
18
48
1
60
0
100
AcDbLine
10
83
20
-43.576498
30
0
11
-27
21
-43.576498
31
0
39
0
210
0
220
0
230
1
0
LINE
5
BE
100
AcDbEntity
8
2
62
256
6
ByLayer
370
18
48
1
60
0
100
AcDbLine
10
-27
20
-4.5075
30
0
11
-27
21
-45.576498
31
0
39
0
210
0
220
0
230
1
0
LINE
5
BF
100
AcDbEntity
8
2
62
256
6
ByLayer
370
18
48
1
60
0
100
AcDbLine
10
83
20
-7.663998
30
0
11
83
21
-45.576498
31
0
39
0
210
0
220
0
230
1
0
LINE
5
C0
100
AcDbEntity
8
1
62
256
6
ByLayer
370
18
48
1
60
1
100
AcDbLine
10
-27
20
-43.576498
30
0
11
-23.500002
21
-43.115715
31
0
39
0
210
0
220
0
230
1
0
LINE
5
C1
100
AcDbEntity
8
1
62
256
6
ByLayer
370
18
48
1
60
1
100
AcDbLine
10
-23.500002
20
-43.115715
30
0
11
-23.499998
21
-44.037282
31
0
39
0
210
0
220
0
230
1
0
LINE
5
C2
100
AcDbEntity
8
1
62
256
6
ByLayer
370
18
48
1
60
1
100
AcDbLine
10
-23.499998
20
-44.037282
30
0
11
-27
21
-43.576498
31
0
39
0
210
0
220
0
230
1
0
LINE
5
C3
100
AcDbEntity
8
1
62
256
6
ByLayer
370
18
48
1
60
1
100
AcDbLine
10
83
20
-43.576498
30
0
11
79.500002
21
-44.037282
31
0
39
0
210
0
220
0
230
1
0
LINE
5
C4
100
AcDbEntity
8
1
62
256
6
ByLayer
370
18
48
1
60
1
100
AcDbLine
10
79.500002
20
-44.037282
30
0
11
79.499998
21
-43.115715
31
0
39
0
210
0
220
0
230
1
0
LINE
5
C5
100
AcDbEntity
8
1
62
256
6
ByLayer
370
18
48
1
60
1
100
AcDbLine
10
79.499998
20
-43.115715
30
0
11
83
21
-43.576498
31
0
39
0
210
0
220
0
230
1
0
LINE
5
18E
100
AcDbEntity
8
1
62
256
6
ByLayer
370
18
48
1
60
1
100
AcDbLine
10
14.59
20
4.5
30
0
11
15.050784
21
1.000002
31
0
39
0
210
0
220
0
230
1
0
LINE
5
18F
100
AcDbEntity
8
1
62
256
6
ByLayer
370
18
48
1
60
1
100
AcDbLine
10
15.050784
20
1.000002
30
0
11
14.129216
21
0.999998
31
0
39
0
210
0
220
0
230
1
0
LINE
5
190
100
AcDbEntity
8
1
62
256
6
ByLayer
370
18
48
1
60
1
100
AcDbLine
10
14.129216
20
0.999998
30
0
11
14.59
21
4.5
31
0
39
0
210
0
220
0
230
1
0
LINE
5
192
100
AcDbEntity
8
1
62
256
6
ByLayer
370
18
48
1
60
1
100
AcDbLine
10
14.59
20
-4.5
30
0
11
14.129216
21
-1.000002
31
0
39
0
210
0
220
0
230
1
0
LINE
5
193
100
AcDbEntity
8
1
62
256
6
ByLayer
370
18
48
1
60
1
100
AcDbLine
10
14.129216
20
-1.000002
30
0
11
15.050784
21
-0.999998
31
0
39
0
210
0
220
0
230
1
0
LINE
5
194
100
AcDbEntity
8
1
62
256
6
ByLayer
370
18
48
1
60
1
100
AcDbLine
10
15.050784
20
-0.999998
30
0
11
14.59
21
-4.5
31
0
39
0
210
0
220
0
230
1
0
LINE
5
197
100
AcDbEntity
8
1
62
256
6
ByLayer
370
18
48
1
60
1
100
AcDbLine
10
-27
20
-43.576498
30
0
11
-23.500002
21
-43.115715
31
0
39
0
210
0
220
0
230
1
0
LINE
5
198
100
AcDbEntity
8
1
62
256
6
ByLayer
370
18
48
1
60
1
100
AcDbLine
10
-23.500002
20
-43.115715
30
0
11
-23.499998
21
-44.037282
31
0
39
0
210
0
220
0
230
1
0
LINE
5
199
100
AcDbEntity
8
1
62
256
6
ByLayer
370
18
48
1
60
1
100
AcDbLine
10
-23.499998
20
-44.037282
30
0
11
-27
21
-43.576498
31
0
39
0
210
0
220
0
230
1
0
LINE
5
19B
100
AcDbEntity
8
1
62
256
6
ByLayer
370
18
48
1
60
1
100
AcDbLine
10
83
20
-43.576498
30
0
11
79.500002
21
-44.037282
31
0
39
0
210
0
220
0
230
1
0
LINE
5
19C
100
AcDbEntity
8
1
62
256
6
ByLayer
370
18
48
1
60
1
100
AcDbLine
10
79.500002
20
-44.037282
30
0
11
79.499998
21
-43.115715
31
0
39
0
210
0
220
0
230
1
0
LINE
5
19D
100
AcDbEntity
8
1
62
256
6
ByLayer
370
18
48
1
60
1
100
AcDbLine
10
79.499998
20
-43.115715
30
0
11
83
21
-43.576498
31
0
39
0
210
0
220
0
230
1
0
MTEXT
5
18A
100
AcDbEntity
8
SK2
62
256
6
ByLayer
370
18
48
1
60
0
100
AcDbMText
10
13.248886
20
10.158438
30
0
210
0
220
0
230
1
1
%%c
40
3
41
0
44
1.084337
50
90
71
7
72
5
7
iso_b_vert
0
MTEXT
5
18D
100
AcDbEntity
8
SK2
62
256
6
ByLayer
370
18
48
1
60
0
100
AcDbMText
10
13.248886
20
16.135
30
0
210
0
220
0
230
1
1
\W0.5742;9
40
3
41
0
44
1.084337
50
90
71
7
72
5
7
iso_b_vert
0
MTEXT
5
196
100
AcDbEntity
8
2
62
256
6
ByLayer
370
18
48
1
60
0
100
AcDbMText
10
25.996143
20
-42.691384
30
0
210
0
220
0
230
1
1
\W0.5296;110
40
3
41
0
44
1.084337
50
0
71
7
72
5
7
iso_b_vert
0
MTEXT
5
19F
100
AcDbEntity
8
SK6
62
256
6
ByLayer
370
18
48
1
60
0
100
AcDbMText
10
11.607134
20
-82.114886
30
0
210
0
220
0
230
1
1
\W0.7143;T300-XM101DA-M12    C110
40
3
41
0
44
1.084337
50
0
71
7
72
5
7
iso_b_vert
0
HATCH
5
191
100
AcDbEntity
8
SK2
62
256
6
ByLayer
370
13
48
1
60
0
100
AcDbHatch
10
0
20
0
30
0
210
0
220
0
230
1
2
ANSI31
70
0
71
0
91
1
92
5
93
3
72
1
10
14.59
20
4.50000000000006
11
15.0507837415528
21
1.00000169255324
72
1
10
15.0507837415528
20
1.00000169255324
11
14.1292162584472
21
0.999998307446873
72
1
10
14.1292162584472
20
0.999998307446873
11
14.59
21
4.50000000000006
97
0
75
0
76
1
52
0
41
0.0062
77
0
78
1
53
45
43
0
44
0
45
-0.0139193969876572
46
0.0139193969876572
79
0
47
0
98
1
10
0
20
0
0
HATCH
5
195
100
AcDbEntity
8
SK2
62
256
6
ByLayer
370
13
48
1
60
0
100
AcDbHatch
10
0
20
0
30
0
210
0
220
0
230
1
2
ANSI31
70
0
71
0
91
1
92
5
93
3
72
1
10
14.59
20
-4.49999999999997
11
14.1292162584472
21
-1.00000169255315
72
1
10
14.1292162584472
20
-1.00000169255315
11
15.0507837415528
21
-0.999998307446788
72
1
10
15.0507837415528
20
-0.999998307446788
11
14.59
21
-4.49999999999997
97
0
75
0
76
1
52
0
41
0.0062
77
0
78
1
53
45
43
0
44
0
45
-0.0139193969876572
46
0.0139193969876572
79
0
47
0
98
1
10
0
20
0
0
HATCH
5
19A
100
AcDbEntity
8
2
62
256
6
ByLayer
370
13
48
1
60
0
100
AcDbHatch
10
0
20
0
30
0
210
0
220
0
230
1
2
ANSI31
70
0
71
0
91
1
92
5
93
3
72
1
10
-27
20
-43.5764982892659
11
-23.5000016925532
21
-43.1157145477132
72
1
10
-23.5000016925532
20
-43.1157145477132
11
-23.4999983074468
21
-44.0372820308187
72
1
10
-23.4999983074468
20
-44.0372820308187
11
-27
21
-43.5764982892659
97
0
75
0
76
1
52
0
41
0.0062
77
0
78
1
53
45
43
0
44
0
45
-0.0139193969876572
46
0.0139193969876572
79
0
47
0
98
1
10
0
20
0
0
HATCH
5
19E
100
AcDbEntity
8
2
62
256
6
ByLayer
370
13
48
1
60
0
100
AcDbHatch
10
0
20
0
30
0
210
0
220
0
230
1
2
ANSI31
70
0
71
0
91
1
92
5
93
3
72
1
10
83
20
-43.5764982892659
11
79.5000016925532
21
-44.0372820308187
72
1
10
79.5000016925532
20
-44.0372820308187
11
79.4999983074468
21
-43.1157145477132
72
1
10
79.4999983074468
20
-43.1157145477132
11
83
21
-43.5764982892659
97
0
75
0
76
1
52
0
41
0.0062
77
0
78
1
53
45
43
0
44
0
45
-0.0139193969876572
46
0.0139193969876572
79
0
47
0
98
1
10
0
20
0
0
DIMENSION
5
1A2
100
AcDbEntity
8
2
62
256
6
ByLayer
370
18
48
1
60
0
100
AcDbDimension
2
_U0
10
102.5
20
-6.076498
30
0
11
102.5
21
24.790784
31
0
70
32
71
1
72
1
41
1
210
0
220
0
230
1
3
Standard
100
AcDbAlignedDimension
13
83
23
6.076498
33
0
14
83
24
-6.076498
34
0
50
90
100
AcDbRotatedDimension
1001
ACAD
1000
DSTYLE
1002
{
1070
   371
1070
    13
1070
   372
1070
    13
1070
     3
1000

1070
   170
1070
     0
1070
   144
1040
1.0
1070
   277
1070
     2
1070
   284
1070
     8
1070
   278
1070
    46
1070
   146
1040
1.166667
1070
   345
1005
16
1070
   347
1005
16
1070
   346
1005
16
1070
   344
1005
0
1070
   343
1005
0
1070
   172
1070
     1
1070
    76
1070
     0
1070
    75
1070
     0
1070
   282
1070
     0
1070
   281
1070
     0
1070
    71
1070
     0
1070
    74
1070
     0
1070
   279
1070
     0
1070
   173
1070
     1
1070
   340
1005
18B
1070
   271
1070
     3
1070
   272
1070
     3
1070
    77
1070
     1
1070
    73
1070
     0
1070
   171
1070
     3
1070
   274
1070
     4
1070
   177
1070
     2
1070
   176
1070
     2
1070
   178
1070
     2
1070
    78
1070
     8
1070
    48
1040
-0.1
1070
    41
1040
3.5
1070
   147
1040
1.5
1070
    42
1040
1.5875
1070
    44
1040
2.0
1070
   140
1040
3.0
1002
}
1001
ACAD_DSTYLE_DIM_LINETYPE
1070
   380
1005
16
1001
ACAD_DSTYLE_DIM_EXT1_LINETYPE
1070
   381
1005
16
1001
ACAD_DSTYLE_DIM_EXT2_LINETYPE
1070
   382
1005
16
0
DIMENSION
5
1BD
100
AcDbEntity
8
SK2
62
256
6
ByLayer
370
18
48
1
60
0
100
AcDbDimension
2
_U1
10
78.19
20
15.058359
30
0
11
80.595
21
15.058359
31
0
70
32
71
1
72
1
41
1
210
0
220
0
230
1
3
Standard
100
AcDbAlignedDimension
13
83
23
6.076498
33
0
14
78.19
24
0
34
0
50
0
100
AcDbRotatedDimension
1001
ACAD
1000
DSTYLE
1002
{
1070
   371
1070
    13
1070
   372
1070
    13
1070
   170
1070
     0
1070
   144
1040
1.0
1070
   277
1070
     2
1070
   284
1070
     8
1070
   278
1070
    46
1070
   146
1040
1.166667
1070
   345
1005
16
1070
   347
1005
16
1070
   346
1005
16
1070
   344
1005
0
1070
   343
1005
0
1070
   172
1070
     1
1070
    76
1070
     0
1070
    75
1070
     0
1070
   282
1070
     0
1070
   281
1070
     0
1070
    71
1070
     0
1070
    74
1070
     0
1070
   279
1070
     0
1070
   173
1070
     1
1070
   340
1005
18B
1070
   271
1070
     3
1070
   272
1070
     3
1070
    77
1070
     1
1070
    73
1070
     1
1070
   171
1070
     3
1070
   274
1070
     4
1070
   177
1070
     2
1070
   176
1070
     2
1070
   178
1070
     2
1070
    78
1070
     8
1070
    48
1040
-0.1
1070
    41
1040
3.5
1070
   147
1040
1.5
1070
    42
1040
1.5875
1070
    44
1040
2.0
1070
   140
1040
3.0
1002
}
1001
ACAD_DSTYLE_DIM_LINETYPE
1070
   380
1005
16
1001
ACAD_DSTYLE_DIM_EXT1_LINETYPE
1070
   381
1005
16
1001
ACAD_DSTYLE_DIM_EXT2_LINETYPE
1070
   382
1005
16
0
DIMENSION
5
1D7
100
AcDbEntity
8
SK2
62
256
6
ByLayer
370
18
48
1
60
0
100
AcDbDimension
2
_U2
10
67
20
-13.076498
30
0
11
95.291504
21
-13.076498
31
0
70
32
71
1
72
1
41
1
210
0
220
0
230
1
3
Standard
100
AcDbAlignedDimension
13
83
23
-6.076498
33
0
14
67
24
-6.076498
34
0
50
0
100
AcDbRotatedDimension
1001
ACAD
1000
DSTYLE
1002
{
1070
   371
1070
    13
1070
   372
1070
    13
1070
   170
1070
     0
1070
   144
1040
1.0
1070
   277
1070
     2
1070
   284
1070
     8
1070
   278
1070
    46
1070
   146
1040
0.833333
1070
   345
1005
16
1070
   347
1005
16
1070
   346
1005
16
1070
   344
1005
0
1070
   343
1005
0
1070
   172
1070
     1
1070
    76
1070
     0
1070
    75
1070
     0
1070
   282
1070
     0
1070
   281
1070
     0
1070
    47
1040
0.5
1070
    72
1070
     0
1070
    71
1070
     1
1070
    74
1070
     0
1070
   279
1070
     0
1070
   173
1070
     1
1070
   340
1005
18B
1070
   271
1070
     1
1070
   272
1070
     3
1070
    77
1070
     1
1070
    73
1070
     1
1070
   171
1070
     3
1070
   274
1070
     4
1070
   177
1070
     2
1070
   176
1070
     2
1070
   178
1070
     2
1070
    78
1070
     8
1070
    48
1040
0.5
1070
    41
1040
3.5
1070
   147
1040
1.5
1070
    42
1040
1.5875
1070
    44
1040
2.0
1070
   140
1040
3.0
1002
}
1001
ACAD_DSTYLE_DIM_LINETYPE
1070
   380
1005
16
1001
ACAD_DSTYLE_DIM_EXT1_LINETYPE
1070
   381
1005
16
1001
ACAD_DSTYLE_DIM_EXT2_LINETYPE
1070
   382
1005
16
0
DIMENSION
5
1F1
100
AcDbEntity
8
SK2
62
256
6
ByLayer
370
18
48
1
60
0
100
AcDbDimension
2
_U3
10
28
20
-35.576498
30
0
11
55.5
21
-35.576498
31
0
70
32
71
1
72
1
41
1
210
0
220
0
230
1
3
Standard
100
AcDbAlignedDimension
13
83
23
-6.076498
33
0
14
28
24
-4.35
34
0
50
0
100
AcDbRotatedDimension
1001
ACAD
1000
DSTYLE
1002
{
1070
   371
1070
    13
1070
   372
1070
    13
1070
   170
1070
     0
1070
   144
1040
1.0
1070
   277
1070
     2
1070
   284
1070
     8
1070
   278
1070
    46
1070
   146
1040
1.166667
1070
   345
1005
16
1070
   347
1005
16
1070
   346
1005
16
1070
   344
1005
0
1070
   343
1005
0
1070
   172
1070
     1
1070
    76
1070
     0
1070
    75
1070
     0
1070
   282
1070
     0
1070
   281
1070
     0
1070
    71
1070
     0
1070
    74
1070
     0
1070
   279
1070
     0
1070
   173
1070
     1
1070
   340
1005
18B
1070
   271
1070
     1
1070
   272
1070
     3
1070
    77
1070
     1
1070
    73
1070
     1
1070
   171
1070
     3
1070
   274
1070
     4
1070
   177
1070
     2
1070
   176
1070
     2
1070
   178
1070
     2
1070
    78
1070
     8
1070
    48
1040
-0.1
1070
    41
1040
3.5
1070
   147
1040
1.5
1070
    42
1040
1.5875
1070
    44
1040
2.0
1070
   140
1040
3.0
1002
}
1001
ACAD_DSTYLE_DIM_LINETYPE
1070
   380
1005
16
1001
ACAD_DSTYLE_DIM_EXT1_LINETYPE
1070
   381
1005
16
1001
ACAD_DSTYLE_DIM_EXT2_LINETYPE
1070
   382
1005
16
0
DIMENSION
5
209
100
AcDbEntity
8
2
62
256
6
ByLayer
370
18
48
1
60
0
100
AcDbDimension
2
_U4
10
36.25
20
-24.576498
30
0
11
59.625
21
-24.576498
31
0
70
32
71
1
72
1
41
1
210
0
220
0
230
1
3
Standard
100
AcDbAlignedDimension
13
83
23
-6.076498
33
0
14
36.25
24
0
34
0
50
0
100
AcDbRotatedDimension
1001
ACAD
1000
DSTYLE
1002
{
1070
   371
1070
    13
1070
   372
1070
    13
1070
   170
1070
     0
1070
   144
1040
1.0
1070
   277
1070
     2
1070
   284
1070
     8
1070
   278
1070
    46
1070
   146
1040
1.166667
1070
   345
1005
16
1070
   347
1005
16
1070
   346
1005
16
1070
   344
1005
0
1070
   343
1005
0
1070
   172
1070
     1
1070
    76
1070
     0
1070
    75
1070
     0
1070
   282
1070
     0
1070
   281
1070
     0
1070
    71
1070
     0
1070
    74
1070
     0
1070
   279
1070
     0
1070
   173
1070
     1
1070
   340
1005
18B
1070
   271
1070
     1
1070
   272
1070
     3
1070
    77
1070
     1
1070
    73
1070
     1
1070
   171
1070
     3
1070
   274
1070
     4
1070
   177
1070
     2
1070
   176
1070
     2
1070
   178
1070
     2
1070
    78
1070
     8
1070
    48
1040
-0.1
1070
    41
1040
3.5
1070
   147
1040
1.5
1070
    42
1040
1.5875
1070
    44
1040
2.0
1070
   140
1040
3.0
1002
}
1001
ACAD_DSTYLE_DIM_LINETYPE
1070
   380
1005
16
1001
ACAD_DSTYLE_DIM_EXT1_LINETYPE
1070
   381
1005
16
1001
ACAD_DSTYLE_DIM_EXT2_LINETYPE
1070
   382
1005
16
0
ENDSEC
0
SECTION
2
OBJECTS
0
DICTIONARY
5
291
330
0
100
AcDbDictionary
280
0
281
1
3
ACAD_GROUP
350
292
3
ACAD_MLINESTYLE
350
293
0
DICTIONARY
5
292
330
0
100
AcDbDictionary
280
0
281
1
0
DICTIONARY
5
293
330
0
100
AcDbDictionary
280
0
281
1
3
Standard
350
18
0
MLINESTYLE
5
18
330
293
100
AcDbMlineStyle
2
Standard
70
0
3

62
256
51
90
52
90
71
2
49
-0.5
62
256
6
ByLayer
49
0.5
62
256
6
ByLayer
0
RASTERVARIABLES
5
27f
330

100
AcDbRasterVariables
90
0
70
1
71
1
72
1
0
ENDSEC
0
EOF
