0
SECTION
2
HEADER
9
$ACADVER
1
AC1015
9
$DWGCODEPAGE
3
ANSI_1252
9
$HANDSEED
5
2f7
9
$ANGBASE
50
0
9
$ANGDIR
70
0
9
$ATTMODE
70
1
9
$AUNITS
70
0
9
$AUPREC
70
0
9
$CECOLOR
62
256
9
$CELTSCALE
40
1
9
$CELTYPE
6
ByLayer
9
$CELWEIGHT
370
18
9
$CLAYER
8
0
9
$CMLJUST
70
0
9
$CMLSCALE
40
1
9
$CMLSTYLE
2
Standard
9
$DIMSTYLE
2
Standard
9
$TEXTSIZE
40
0.2
9
$TEXTSTYLE
7
Standard
9
$LUNITS
70
2
9
$LUPREC
70
4
9
$EXTNAMES
290
1
9
$INSUNITS
70
4
9
$LTSCALE
40
1
9
$LWDISPLAY
290
1
9
$PDMODE
70
0
9
$PDSIZE
40
0
9
$PLINEGEN
70
0
0
ENDSEC
0
SECTION
2
CLASSES
0
CLASS
1
RASTERVARIABLES
2
AcDbRasterVariables
3
ISM
90
0
280
0
281
0
0
ENDSEC
0
SECTION
2
TABLES
0
TABLE
2
VPORT
5
2ed
100
AcDbSymbolTable
0
VPORT
5
1
100
AcDbSymbolTableRecord
100
AcDbViewportTableRecord
2
*Active
70
0
10
0
20
0
11
1
21
1
12
-1
22
1
13
0
23
0
14
0.5
24
0.5
15
10
25
10
16
0
26
0
36
1
17
0
27
0
37
0
0
ENDTAB
0
TABLE
2
LTYPE
5
2ee
100
AcDbSymbolTable
0
LTYPE
5
14
100
AcDbSymbolTableRecord
100
AcDbLinetypeTableRecord
70
0
2
ByBlock
3

72
65
73
0
40
0
0
LTYPE
5
15
100
AcDbSymbolTableRecord
100
AcDbLinetypeTableRecord
70
0
2
ByLayer
3

72
65
73
0
40
0
0
LTYPE
5
16
100
AcDbSymbolTableRecord
100
AcDbLinetypeTableRecord
70
0
2
Continuous
3
Solid line
72
65
73
0
40
0
0
LTYPE
5
6E
100
AcDbSymbolTableRecord
100
AcDbLinetypeTableRecord
70
0
2
CENTER
3
____ _ ____ _ ____ _ ____
72
65
73
4
40
47.5
49
22
74
0
49
-8.5
74
0
49
8.5
74
0
49
-8.5
74
0
0
LTYPE
5
6F
100
AcDbSymbolTableRecord
100
AcDbLinetypeTableRecord
70
0
2
DASHED
3
__ __ __ __ __ __ __ __ __
72
65
73
2
40
25.72
49
12.86
74
0
49
-12.86
74
0
0
ENDTAB
0
TABLE
2
LAYER
5
2ef
100
AcDbSymbolTable
0
LAYER
5
10
100
AcDbSymbolTableRecord
100
AcDbLayerTableRecord
2
0
70
0
62
7
6
Continuous
290
1
370
-3
390
0
0
LAYER
5
71
100
AcDbSymbolTableRecord
100
AcDbLayerTableRecord
2
81
70
0
62
-3
6
Continuous
290
1
370
-3
390
0
0
LAYER
5
73
100
AcDbSymbolTableRecord
100
AcDbLayerTableRecord
2
80
70
0
62
-6
6
Continuous
290
1
370
-3
390
0
0
LAYER
5
75
100
AcDbSymbolTableRecord
100
AcDbLayerTableRecord
2
1
70
0
62
4
6
Continuous
290
1
370
-3
390
0
0
LAYER
5
81
100
AcDbSymbolTableRecord
100
AcDbLayerTableRecord
2
4
70
0
62
-2
6
CENTER
290
1
370
-3
390
0
0
LAYER
5
C2
100
AcDbSymbolTableRecord
100
AcDbLayerTableRecord
2
2
70
0
62
7
6
Continuous
290
1
370
-3
390
0
0
LAYER
5
1FD
100
AcDbSymbolTableRecord
100
AcDbLayerTableRecord
2
Defpoints
70
0
62
7
6
Continuous
290
0
370
-3
390
0
0
LAYER
5
2d9
100
AcDbSymbolTableRecord
100
AcDbLayerTableRecord
2
SK4
70
0
62
2
6
CENTER
290
1
370
-3
390
0
0
LAYER
5
2da
100
AcDbSymbolTableRecord
100
AcDbLayerTableRecord
2
SK1
70
0
62
4
6
Continuous
290
1
370
-3
390
0
0
LAYER
5
2db
100
AcDbSymbolTableRecord
100
AcDbLayerTableRecord
2
SK2
70
0
62
7
6
Continuous
290
1
370
-3
390
0
0
LAYER
5
2dc
100
AcDbSymbolTableRecord
100
AcDbLayerTableRecord
2
SK6
70
0
62
5
6
Continuous
290
1
370
-3
390
0
0
ENDTAB
0
TABLE
2
STYLE
5
2f0
100
AcDbSymbolTable
0
STYLE
5
11
100
AcDbSymbolTableRecord
100
AcDbTextStyleTableRecord
2
Standard
3
txt
70
0
71
0
40
0
41
1
42
0
50
0
0
STYLE
5
1E3
100
AcDbSymbolTableRecord
100
AcDbTextStyleTableRecord
2
iso_b_vert
3
simplex.shx
70
0
71
0
40
0
41
1
42
0
50
0
0
STYLE
5
1E4
100
AcDbSymbolTableRecord
100
AcDbTextStyleTableRecord
2
DWGDirectTextStyle
3
simplex
70
0
71
0
40
0
41
1
42
0
50
0
0
ENDTAB
0
TABLE
2
DIMSTYLE
5
2f1
100
AcDbSymbolTable
100
AcDbDimStyleTable
0
DIMSTYLE
105
27
100
AcDbSymbolTableRecord
100
AcDbDimStyleTableRecord
2
Standard
70
0
3
<>
41
0.18
42
0.0625
44
0.18
140
0.18
147
0.09
73
0
74
0
77
1
271
2
275
0
278
52
280
0
340
11
0
ENDTAB
0
TABLE
2
VIEW
5
2f2
100
AcDbSymbolTable
0
ENDTAB
0
TABLE
2
UCS
5
2f3
100
AcDbSymbolTable
0
ENDTAB
0
TABLE
2
APPID
5
2f4
100
AcDbSymbolTable
0
APPID
5
12
100
AcDbSymbolTableRecord
100
AcDbRegAppTableRecord
2
ACAD
70
0
0
APPID
5
1F9
100
AcDbSymbolTableRecord
100
AcDbRegAppTableRecord
2
ACAD_DSTYLE_DIMBREAK
70
0
0
APPID
5
298
100
AcDbSymbolTableRecord
100
AcDbRegAppTableRecord
2
ACAD_DSTYLE_DIM_LINETYPE
70
0
0
APPID
5
299
100
AcDbSymbolTableRecord
100
AcDbRegAppTableRecord
2
ACAD_DSTYLE_DIM_EXT1_LINETYPE
70
0
0
APPID
5
29A
100
AcDbSymbolTableRecord
100
AcDbRegAppTableRecord
2
ACAD_DSTYLE_DIM_EXT2_LINETYPE
70
0
0
APPID
5
2D5
100
AcDbSymbolTableRecord
100
AcDbRegAppTableRecord
2
ACAD_MLEADERVER
70
0
0
ENDTAB
0
TABLE
2
BLOCK_RECORD
5
2f5
100
AcDbSymbolTable
0
BLOCK_RECORD
5
1F
100
AcDbSymbolTableRecord
100
AcDbBlockTableRecord
2
*Model_Space
340
0
70
0
0
BLOCK_RECORD
5
1B
100
AcDbSymbolTableRecord
100
AcDbBlockTableRecord
2
*Paper_Space
340
0
70
0
0
BLOCK_RECORD
5
23
100
AcDbSymbolTableRecord
100
AcDbBlockTableRecord
2
*Paper_Space0
340
0
70
0
0
BLOCK_RECORD
5
1FE
100
AcDbSymbolTableRecord
100
AcDbBlockTableRecord
2
*D1
340
0
70
0
0
BLOCK_RECORD
5
20C
100
AcDbSymbolTableRecord
100
AcDbBlockTableRecord
2
_U0
340
0
70
0
0
BLOCK_RECORD
5
218
100
AcDbSymbolTableRecord
100
AcDbBlockTableRecord
2
*D3
340
0
70
0
0
BLOCK_RECORD
5
225
100
AcDbSymbolTableRecord
100
AcDbBlockTableRecord
2
_U1
340
0
70
0
0
BLOCK_RECORD
5
232
100
AcDbSymbolTableRecord
100
AcDbBlockTableRecord
2
*D5
340
0
70
0
0
BLOCK_RECORD
5
240
100
AcDbSymbolTableRecord
100
AcDbBlockTableRecord
2
_U2
340
0
70
0
0
BLOCK_RECORD
5
24D
100
AcDbSymbolTableRecord
100
AcDbBlockTableRecord
2
*D7
340
0
70
0
0
BLOCK_RECORD
5
259
100
AcDbSymbolTableRecord
100
AcDbBlockTableRecord
2
_U3
340
0
70
0
0
BLOCK_RECORD
5
265
100
AcDbSymbolTableRecord
100
AcDbBlockTableRecord
2
*D9
340
0
70
0
0
BLOCK_RECORD
5
271
100
AcDbSymbolTableRecord
100
AcDbBlockTableRecord
2
_U4
340
0
70
0
0
ENDTAB
0
ENDSEC
0
SECTION
2
BLOCKS
0
BLOCK
5
20
100
AcDbEntity
8
0
100
AcDbBlockBegin
2
*Model_Space
70
0
10
0
20
0
30
0
3
*Model_Space
0
ENDBLK
5
21
100
AcDbEntity
8
0
100
AcDbBlockEnd
0
BLOCK
5
1C
100
AcDbEntity
8
0
100
AcDbBlockBegin
2
*Paper_Space
70
0
10
0
20
0
30
0
3
*Paper_Space
0
ENDBLK
5
1D
100
AcDbEntity
8
0
100
AcDbBlockEnd
0
BLOCK
5
24
100
AcDbEntity
8
0
100
AcDbBlockBegin
2
*Paper_Space0
70
0
10
0
20
0
30
0
3
*Paper_Space0
0
ENDBLK
5
25
100
AcDbEntity
8
0
100
AcDbBlockEnd
0
BLOCK
5
1FF
100
AcDbEntity
8
0
100
AcDbBlockBegin
2
*D1
70
1
10
0
20
0
30
0
3
*D1
0
LINE
5
201
100
AcDbEntity
8
0
62
256
6
ByLayer
370
-2
48
1
60
0
100
AcDbLine
10
78.5875
20
5.070624
30
0
11
98.5
21
5.070624
31
0
39
0
210
0
220
0
230
1
0
LINE
5
202
100
AcDbEntity
8
0
62
256
6
ByLayer
370
-2
48
1
60
0
100
AcDbLine
10
78.5875
20
-5.070624
30
0
11
98.5
21
-5.070624
31
0
39
0
210
0
220
0
230
1
0
LINE
5
203
100
AcDbEntity
8
0
62
256
6
ByLayer
370
-2
48
1
60
0
100
AcDbLine
10
96.5
20
5.070624
30
0
11
96.5
21
34.642053
31
0
39
0
210
0
220
0
230
1
0
LINE
5
204
100
AcDbEntity
8
0
62
256
6
ByLayer
370
-2
48
1
60
0
100
AcDbLine
10
96.5
20
8.570624
30
0
11
96.5
21
12.070624
31
0
39
0
210
0
220
0
230
1
0
LINE
5
205
100
AcDbEntity
8
0
62
256
6
ByLayer
370
-2
48
1
60
0
100
AcDbLine
10
96.5
20
-8.570624
30
0
11
96.5
21
-12.070624
31
0
39
0
210
0
220
0
230
1
0
SOLID
5
206
100
AcDbEntity
8
0
62
256
6
ByLayer
370
-1
48
1
60
0
100
AcDbTrace
10
95.916667
20
8.570624
30
0
11
97.083333
21
8.570624
31
0
12
96.5
22
5.070624
32
0
13
96.5
23
5.070624
33
0
39
0
210
0
220
0
230
1
0
SOLID
5
207
100
AcDbEntity
8
0
62
256
6
ByLayer
370
-1
48
1
60
0
100
AcDbTrace
10
97.083333
20
-8.570624
30
0
11
95.916667
21
-8.570624
31
0
12
96.5
22
-5.070624
32
0
13
96.5
23
-5.070624
33
0
39
0
210
0
220
0
230
1
0
MTEXT
5
208
100
AcDbEntity
8
0
62
256
6
ByLayer
370
18
48
1
60
0
100
AcDbMText
10
90.5
20
23.356339
30
0
210
0
220
0
230
1
1
\A1;10.141
40
3
41
0
44
1
50
90
71
5
72
5
7
iso_b_vert
0
POINT
5
209
100
AcDbEntity
8
Defpoints
62
0
6
ByLayer
370
-1
48
1
60
0
100
AcDbPoint
10
77
20
5.070624
30
0
39
0
210
0
220
0
230
1
50
360
0
POINT
5
20A
100
AcDbEntity
8
Defpoints
62
0
6
ByLayer
370
-1
48
1
60
0
100
AcDbPoint
10
77
20
-5.070624
30
0
39
0
210
0
220
0
230
1
50
360
0
POINT
5
20B
100
AcDbEntity
8
Defpoints
62
0
6
ByLayer
370
-1
48
1
60
0
100
AcDbPoint
10
96.5
20
-5.070624
30
0
39
0
210
0
220
0
230
1
50
360
0
ENDBLK
5
200
100
AcDbEntity
8
0
100
AcDbBlockEnd
0
BLOCK
5
213
100
AcDbEntity
8
0
100
AcDbBlockBegin
2
_U0
70
0
10
0
20
0
30
0
3
_U0
0
MTEXT
5
20D
100
AcDbEntity
8
2
62
256
6
ByLayer
370
18
48
1
60
0
100
AcDbMText
10
95.908886
20
15.205624
30
0
210
0
220
0
230
1
1
\W0.6563;M10
40
3
41
0
44
1.084337
50
90
71
7
72
5
7
iso_b_vert
0
LINE
5
20E
100
AcDbEntity
8
2
62
256
6
ByLayer
370
13
48
1
60
0
100
AcDbLine
10
78.5875
20
5.070624
30
0
11
98.5
21
5.070624
31
0
39
0
210
0
220
0
230
1
0
LINE
5
20F
100
AcDbEntity
8
2
62
256
6
ByLayer
370
13
48
1
60
0
100
AcDbLine
10
78.5875
20
-5.070624
30
0
11
98.5
21
-5.070624
31
0
39
0
210
0
220
0
230
1
0
LINE
5
210
100
AcDbEntity
8
2
62
256
6
ByLayer
370
13
48
1
60
0
100
AcDbLine
10
96.5
20
-5.070624
30
0
11
96.5
21
20.817366
31
0
39
0
210
0
220
0
230
1
0
SOLID
5
211
100
AcDbEntity
8
2
62
256
6
ByLayer
370
18
48
1
60
0
100
AcDbTrace
10
96.5
20
5.070624
30
0
11
96.960784
21
1.570626
31
0
12
96.039216
22
1.570623
32
0
13
96.039216
23
1.570623
33
0
39
0
210
0
220
0
230
1
0
SOLID
5
212
100
AcDbEntity
8
2
62
256
6
ByLayer
370
18
48
1
60
0
100
AcDbTrace
10
96.5
20
-5.070624
30
0
11
96.039216
21
-1.570626
31
0
12
96.960784
22
-1.570623
32
0
13
96.960784
23
-1.570623
33
0
39
0
210
0
220
0
230
1
0
ENDBLK
5
214
100
AcDbEntity
8
0
100
AcDbBlockEnd
0
BLOCK
5
219
100
AcDbEntity
8
0
100
AcDbBlockBegin
2
*D3
70
1
10
0
20
0
30
0
3
*D3
0
LINE
5
21B
100
AcDbEntity
8
0
62
256
6
ByLayer
370
-2
48
1
60
0
100
AcDbLine
10
77
20
6.658124
30
0
11
77
21
16.032007
31
0
39
0
210
0
220
0
230
1
0
LINE
5
21C
100
AcDbEntity
8
0
62
256
6
ByLayer
370
-2
48
1
60
0
100
AcDbLine
10
72.87
20
1.5875
30
0
11
72.87
21
16.032007
31
0
39
0
210
0
220
0
230
1
0
LINE
5
21D
100
AcDbEntity
8
0
62
256
6
ByLayer
370
-2
48
1
60
0
100
AcDbLine
10
80.5
20
14.032007
30
0
11
84
21
14.032007
31
0
39
0
210
0
220
0
230
1
0
LINE
5
21E
100
AcDbEntity
8
0
62
256
6
ByLayer
370
-2
48
1
60
0
100
AcDbLine
10
69.37
20
14.032007
30
0
11
65.87
21
14.032007
31
0
39
0
210
0
220
0
230
1
0
SOLID
5
21F
100
AcDbEntity
8
0
62
256
6
ByLayer
370
-1
48
1
60
0
100
AcDbTrace
10
80.5
20
14.61534
30
0
11
80.5
21
13.448674
31
0
12
77
22
14.032007
32
0
13
77
23
14.032007
33
0
39
0
210
0
220
0
230
1
0
SOLID
5
220
100
AcDbEntity
8
0
62
256
6
ByLayer
370
-1
48
1
60
0
100
AcDbTrace
10
69.37
20
13.448674
30
0
11
69.37
21
14.61534
31
0
12
72.87
22
14.032007
32
0
13
72.87
23
14.032007
33
0
39
0
210
0
220
0
230
1
0
MTEXT
5
221
100
AcDbEntity
8
0
62
256
6
ByLayer
370
18
48
1
60
0
100
AcDbMText
10
74.935
20
20.032007
30
0
210
0
220
0
230
1
1
\A1;4.13
40
3
41
0
44
1
50
0
71
5
72
5
7
iso_b_vert
0
POINT
5
222
100
AcDbEntity
8
Defpoints
62
0
6
ByLayer
370
-1
48
1
60
0
100
AcDbPoint
10
77
20
5.070624
30
0
39
0
210
0
220
0
230
1
50
360
0
POINT
5
223
100
AcDbEntity
8
Defpoints
62
0
6
ByLayer
370
-1
48
1
60
0
100
AcDbPoint
10
72.87
20
0
30
0
39
0
210
0
220
0
230
1
50
360
0
POINT
5
224
100
AcDbEntity
8
Defpoints
62
0
6
ByLayer
370
-1
48
1
60
0
100
AcDbPoint
10
72.87
20
14.032007
30
0
39
0
210
0
220
0
230
1
50
360
0
ENDBLK
5
21A
100
AcDbEntity
8
0
100
AcDbBlockEnd
0
BLOCK
5
22D
100
AcDbEntity
8
0
100
AcDbBlockBegin
2
_U1
70
0
10
0
20
0
30
0
3
_U1
0
MTEXT
5
226
100
AcDbEntity
8
SK2
62
256
6
ByLayer
370
18
48
1
60
0
100
AcDbMText
10
71.817044
20
14.81464
30
0
210
0
220
0
230
1
1
\W0.6474;'C'
40
3.5
41
0
44
1.084337
50
0
71
7
72
5
7
iso_b_vert
0
MTEXT
5
227
100
AcDbEntity
8
SK2
62
256
6
ByLayer
370
18
48
1
60
0
100
AcDbMText
10
71.790544
20
21.917121
30
0
210
0
220
0
230
1
1
\W0.6856;4.13
40
3
41
0
44
1.084337
50
0
71
7
72
5
7
iso_b_vert
0
LINE
5
228
100
AcDbEntity
8
SK2
62
256
6
ByLayer
370
13
48
1
60
0
100
AcDbLine
10
77
20
6.658124
30
0
11
77
21
16.032007
31
0
39
0
210
0
220
0
230
1
0
LINE
5
229
100
AcDbEntity
8
SK2
62
256
6
ByLayer
370
13
48
1
60
0
100
AcDbLine
10
72.87
20
1.5875
30
0
11
72.87
21
16.032007
31
0
39
0
210
0
220
0
230
1
0
LINE
5
22A
100
AcDbEntity
8
SK2
62
256
6
ByLayer
370
13
48
1
60
0
100
AcDbLine
10
84.5
20
14.032007
30
0
11
65.37
21
14.032007
31
0
39
0
210
0
220
0
230
1
0
SOLID
5
22B
100
AcDbEntity
8
SK2
62
256
6
ByLayer
370
18
48
1
60
0
100
AcDbTrace
10
77
20
14.032007
30
0
11
80.499998
21
14.492791
31
0
12
80.500002
22
13.571223
32
0
13
80.500002
23
13.571223
33
0
39
0
210
0
220
0
230
1
0
SOLID
5
22C
100
AcDbEntity
8
SK2
62
256
6
ByLayer
370
18
48
1
60
0
100
AcDbTrace
10
72.87
20
14.032007
30
0
11
69.370002
21
13.571223
31
0
12
69.369998
22
14.492791
32
0
13
69.369998
23
14.492791
33
0
39
0
210
0
220
0
230
1
0
ENDBLK
5
22E
100
AcDbEntity
8
0
100
AcDbBlockEnd
0
BLOCK
5
233
100
AcDbEntity
8
0
100
AcDbBlockBegin
2
*D5
70
1
10
0
20
0
30
0
3
*D5
0
LINE
5
235
100
AcDbEntity
8
0
62
256
6
ByLayer
370
-2
48
1
60
0
100
AcDbLine
10
77
20
-6.658124
30
0
11
77
21
-14.070624
31
0
39
0
210
0
220
0
230
1
0
LINE
5
236
100
AcDbEntity
8
0
62
256
6
ByLayer
370
-2
48
1
60
0
100
AcDbLine
10
62
20
-6.658124
30
0
11
62
21
-14.070624
31
0
39
0
210
0
220
0
230
1
0
LINE
5
237
100
AcDbEntity
8
0
62
256
6
ByLayer
370
-2
48
1
60
0
100
AcDbLine
10
77
20
-12.070624
30
0
11
97.428571
21
-12.070624
31
0
39
0
210
0
220
0
230
1
0
LINE
5
238
100
AcDbEntity
8
0
62
256
6
ByLayer
370
-2
48
1
60
0
100
AcDbLine
10
80.5
20
-12.070624
30
0
11
84
21
-12.070624
31
0
39
0
210
0
220
0
230
1
0
LINE
5
239
100
AcDbEntity
8
0
62
256
6
ByLayer
370
-2
48
1
60
0
100
AcDbLine
10
58.5
20
-12.070624
30
0
11
55
21
-12.070624
31
0
39
0
210
0
220
0
230
1
0
SOLID
5
23A
100
AcDbEntity
8
0
62
256
6
ByLayer
370
-1
48
1
60
0
100
AcDbTrace
10
80.5
20
-11.487291
30
0
11
80.5
21
-12.653958
31
0
12
77
22
-12.070624
32
0
13
77
23
-12.070624
33
0
39
0
210
0
220
0
230
1
0
SOLID
5
23B
100
AcDbEntity
8
0
62
256
6
ByLayer
370
-1
48
1
60
0
100
AcDbTrace
10
58.5
20
-12.653958
30
0
11
58.5
21
-11.487291
31
0
12
62
22
-12.070624
32
0
13
62
23
-12.070624
33
0
39
0
210
0
220
0
230
1
0
MTEXT
5
23C
100
AcDbEntity
8
0
62
256
6
ByLayer
370
18
48
1
60
0
100
AcDbMText
10
90.714286
20
-6.070624
30
0
210
0
220
0
230
1
1
\A1;15
40
3
41
0
44
1
50
0
71
5
72
5
7
iso_b_vert
0
POINT
5
23D
100
AcDbEntity
8
Defpoints
62
0
6
ByLayer
370
-1
48
1
60
0
100
AcDbPoint
10
77
20
-5.070624
30
0
39
0
210
0
220
0
230
1
50
360
0
POINT
5
23E
100
AcDbEntity
8
Defpoints
62
0
6
ByLayer
370
-1
48
1
60
0
100
AcDbPoint
10
62
20
-5.070624
30
0
39
0
210
0
220
0
230
1
50
360
0
POINT
5
23F
100
AcDbEntity
8
Defpoints
62
0
6
ByLayer
370
-1
48
1
60
0
100
AcDbPoint
10
62
20
-12.070624
30
0
39
0
210
0
220
0
230
1
50
360
0
ENDBLK
5
234
100
AcDbEntity
8
0
100
AcDbBlockEnd
0
BLOCK
5
248
100
AcDbEntity
8
0
100
AcDbBlockBegin
2
_U2
70
0
10
0
20
0
30
0
3
_U2
0
MTEXT
5
241
100
AcDbEntity
8
SK2
62
256
6
ByLayer
370
18
48
1
60
0
100
AcDbMText
10
83.159
20
-11.18551
30
0
210
0
220
0
230
1
1
\W0.5321;15
40
3
41
0
44
1.084337
50
0
71
7
72
5
7
iso_b_vert
0
MTEXT
5
242
100
AcDbEntity
8
SK2
62
256
6
ByLayer
370
18
48
1
60
0
100
AcDbMText
10
88.466271
20
-10.833029
30
0
210
0
220
0
230
1
1
\W0.8315;\W0.4158;%%p\W0.8315;0.5
40
2.5
41
0
44
1.084337
50
0
71
7
72
5
7
iso_b_vert
0
LINE
5
243
100
AcDbEntity
8
SK2
62
256
6
ByLayer
370
13
48
1
60
0
100
AcDbLine
10
77
20
-6.658124
30
0
11
77
21
-14.070624
31
0
39
0
210
0
220
0
230
1
0
LINE
5
244
100
AcDbEntity
8
SK2
62
256
6
ByLayer
370
13
48
1
60
0
100
AcDbLine
10
62
20
-6.658124
30
0
11
62
21
-14.070624
31
0
39
0
210
0
220
0
230
1
0
LINE
5
245
100
AcDbEntity
8
SK2
62
256
6
ByLayer
370
13
48
1
60
0
100
AcDbLine
10
62
20
-12.070624
30
0
11
95.583008
21
-12.070624
31
0
39
0
210
0
220
0
230
1
0
SOLID
5
246
100
AcDbEntity
8
SK2
62
256
6
ByLayer
370
18
48
1
60
0
100
AcDbTrace
10
77
20
-12.070624
30
0
11
73.500002
21
-12.531408
31
0
12
73.499998
22
-11.609841
32
0
13
73.499998
23
-11.609841
33
0
39
0
210
0
220
0
230
1
0
SOLID
5
247
100
AcDbEntity
8
SK2
62
256
6
ByLayer
370
18
48
1
60
0
100
AcDbTrace
10
62
20
-12.070624
30
0
11
65.499998
21
-11.609841
31
0
12
65.500002
22
-12.531408
32
0
13
65.500002
23
-12.531408
33
0
39
0
210
0
220
0
230
1
0
ENDBLK
5
249
100
AcDbEntity
8
0
100
AcDbBlockEnd
0
BLOCK
5
24E
100
AcDbEntity
8
0
100
AcDbBlockBegin
2
*D7
70
1
10
0
20
0
30
0
3
*D7
0
LINE
5
250
100
AcDbEntity
8
0
62
256
6
ByLayer
370
-2
48
1
60
0
100
AcDbLine
10
77
20
-6.658124
30
0
11
77
21
-36.570624
31
0
39
0
210
0
220
0
230
1
0
LINE
5
251
100
AcDbEntity
8
0
62
256
6
ByLayer
370
-2
48
1
60
0
100
AcDbLine
10
29
20
-4.9375
30
0
11
29
21
-36.570624
31
0
39
0
210
0
220
0
230
1
0
LINE
5
252
100
AcDbEntity
8
0
62
256
6
ByLayer
370
-2
48
1
60
0
100
AcDbLine
10
73.5
20
-34.570624
30
0
11
32.5
21
-34.570624
31
0
39
0
210
0
220
0
230
1
0
SOLID
5
253
100
AcDbEntity
8
0
62
256
6
ByLayer
370
-1
48
1
60
0
100
AcDbTrace
10
73.5
20
-35.153958
30
0
11
73.5
21
-33.987291
31
0
12
77
22
-34.570624
32
0
13
77
23
-34.570624
33
0
39
0
210
0
220
0
230
1
0
SOLID
5
254
100
AcDbEntity
8
0
62
256
6
ByLayer
370
-1
48
1
60
0
100
AcDbTrace
10
32.5
20
-33.987291
30
0
11
32.5
21
-35.153958
31
0
12
29
22
-34.570624
32
0
13
29
23
-34.570624
33
0
39
0
210
0
220
0
230
1
0
MTEXT
5
255
100
AcDbEntity
8
0
62
256
6
ByLayer
370
18
48
1
60
0
100
AcDbMText
10
53
20
-28.570624
30
0
210
0
220
0
230
1
1
\A1;48
40
3
41
0
44
1
50
0
71
5
72
5
7
iso_b_vert
0
POINT
5
256
100
AcDbEntity
8
Defpoints
62
0
6
ByLayer
370
-1
48
1
60
0
100
AcDbPoint
10
77
20
-5.070624
30
0
39
0
210
0
220
0
230
1
50
360
0
POINT
5
257
100
AcDbEntity
8
Defpoints
62
0
6
ByLayer
370
-1
48
1
60
0
100
AcDbPoint
10
29
20
-3.35
30
0
39
0
210
0
220
0
230
1
50
360
0
POINT
5
258
100
AcDbEntity
8
Defpoints
62
0
6
ByLayer
370
-1
48
1
60
0
100
AcDbPoint
10
29
20
-34.570624
30
0
39
0
210
0
220
0
230
1
50
360
0
ENDBLK
5
24F
100
AcDbEntity
8
0
100
AcDbBlockEnd
0
BLOCK
5
260
100
AcDbEntity
8
0
100
AcDbBlockBegin
2
_U3
70
0
10
0
20
0
30
0
3
_U3
0
MTEXT
5
25A
100
AcDbEntity
8
SK2
62
256
6
ByLayer
370
18
48
1
60
0
100
AcDbMText
10
51.209229
20
-33.68551
30
0
210
0
220
0
230
1
1
\W0.7361;48
40
3
41
0
44
1.084337
50
0
71
7
72
5
7
iso_b_vert
0
LINE
5
25B
100
AcDbEntity
8
SK2
62
256
6
ByLayer
370
13
48
1
60
0
100
AcDbLine
10
77
20
-6.658124
30
0
11
77
21
-36.570624
31
0
39
0
210
0
220
0
230
1
0
LINE
5
25C
100
AcDbEntity
8
SK2
62
256
6
ByLayer
370
13
48
1
60
0
100
AcDbLine
10
29
20
-4.9375
30
0
11
29
21
-36.570624
31
0
39
0
210
0
220
0
230
1
0
LINE
5
25D
100
AcDbEntity
8
SK2
62
256
6
ByLayer
370
13
48
1
60
0
100
AcDbLine
10
77
20
-34.570624
30
0
11
29
21
-34.570624
31
0
39
0
210
0
220
0
230
1
0
SOLID
5
25E
100
AcDbEntity
8
SK2
62
256
6
ByLayer
370
18
48
1
60
0
100
AcDbTrace
10
77
20
-34.570624
30
0
11
73.500002
21
-35.031408
31
0
12
73.499998
22
-34.109841
32
0
13
73.499998
23
-34.109841
33
0
39
0
210
0
220
0
230
1
0
SOLID
5
25F
100
AcDbEntity
8
SK2
62
256
6
ByLayer
370
18
48
1
60
0
100
AcDbTrace
10
29
20
-34.570624
30
0
11
32.499998
21
-34.109841
31
0
12
32.500002
22
-35.031408
32
0
13
32.500002
23
-35.031408
33
0
39
0
210
0
220
0
230
1
0
ENDBLK
5
261
100
AcDbEntity
8
0
100
AcDbBlockEnd
0
BLOCK
5
266
100
AcDbEntity
8
0
100
AcDbBlockBegin
2
*D9
70
1
10
0
20
0
30
0
3
*D9
0
LINE
5
268
100
AcDbEntity
8
0
62
256
6
ByLayer
370
-2
48
1
60
0
100
AcDbLine
10
77
20
-6.658124
30
0
11
77
21
-25.570624
31
0
39
0
210
0
220
0
230
1
0
LINE
5
269
100
AcDbEntity
8
0
62
256
6
ByLayer
370
-2
48
1
60
0
100
AcDbLine
10
36.2
20
-1.5875
30
0
11
36.2
21
-25.570624
31
0
39
0
210
0
220
0
230
1
0
LINE
5
26A
100
AcDbEntity
8
0
62
256
6
ByLayer
370
-2
48
1
60
0
100
AcDbLine
10
73.5
20
-23.570624
30
0
11
39.7
21
-23.570624
31
0
39
0
210
0
220
0
230
1
0
SOLID
5
26B
100
AcDbEntity
8
0
62
256
6
ByLayer
370
-1
48
1
60
0
100
AcDbTrace
10
73.5
20
-24.153958
30
0
11
73.5
21
-22.987291
31
0
12
77
22
-23.570624
32
0
13
77
23
-23.570624
33
0
39
0
210
0
220
0
230
1
0
SOLID
5
26C
100
AcDbEntity
8
0
62
256
6
ByLayer
370
-1
48
1
60
0
100
AcDbTrace
10
39.7
20
-22.987291
30
0
11
39.7
21
-24.153958
31
0
12
36.2
22
-23.570624
32
0
13
36.2
23
-23.570624
33
0
39
0
210
0
220
0
230
1
0
MTEXT
5
26D
100
AcDbEntity
8
0
62
256
6
ByLayer
370
18
48
1
60
0
100
AcDbMText
10
56.6
20
-17.570624
30
0
210
0
220
0
230
1
1
\A1;40.8
40
3
41
0
44
1
50
0
71
5
72
5
7
iso_b_vert
0
POINT
5
26E
100
AcDbEntity
8
Defpoints
62
0
6
ByLayer
370
-1
48
1
60
0
100
AcDbPoint
10
77
20
-5.070624
30
0
39
0
210
0
220
0
230
1
50
360
0
POINT
5
26F
100
AcDbEntity
8
Defpoints
62
0
6
ByLayer
370
-1
48
1
60
0
100
AcDbPoint
10
36.2
20
0
30
0
39
0
210
0
220
0
230
1
50
360
0
POINT
5
270
100
AcDbEntity
8
Defpoints
62
0
6
ByLayer
370
-1
48
1
60
0
100
AcDbPoint
10
36.2
20
-23.570624
30
0
39
0
210
0
220
0
230
1
50
360
0
ENDBLK
5
267
100
AcDbEntity
8
0
100
AcDbBlockEnd
0
BLOCK
5
278
100
AcDbEntity
8
0
100
AcDbBlockBegin
2
_U4
70
0
10
0
20
0
30
0
3
_U4
0
MTEXT
5
272
100
AcDbEntity
8
2
62
256
6
ByLayer
370
18
48
1
60
0
100
AcDbMText
10
53.080601
20
-22.68551
30
0
210
0
220
0
230
1
1
\W0.7640;40.8
40
3
41
0
44
1.084337
50
0
71
7
72
5
7
iso_b_vert
0
LINE
5
273
100
AcDbEntity
8
2
62
256
6
ByLayer
370
13
48
1
60
0
100
AcDbLine
10
77
20
-6.658124
30
0
11
77
21
-25.570624
31
0
39
0
210
0
220
0
230
1
0
LINE
5
274
100
AcDbEntity
8
2
62
256
6
ByLayer
370
13
48
1
60
0
100
AcDbLine
10
36.2
20
-1.5875
30
0
11
36.2
21
-25.570624
31
0
39
0
210
0
220
0
230
1
0
LINE
5
275
100
AcDbEntity
8
2
62
256
6
ByLayer
370
13
48
1
60
0
100
AcDbLine
10
77
20
-23.570624
30
0
11
36.2
21
-23.570624
31
0
39
0
210
0
220
0
230
1
0
SOLID
5
276
100
AcDbEntity
8
2
62
256
6
ByLayer
370
18
48
1
60
0
100
AcDbTrace
10
77
20
-23.570624
30
0
11
73.500002
21
-24.031408
31
0
12
73.499998
22
-23.109841
32
0
13
73.499998
23
-23.109841
33
0
39
0
210
0
220
0
230
1
0
SOLID
5
277
100
AcDbEntity
8
2
62
256
6
ByLayer
370
18
48
1
60
0
100
AcDbTrace
10
36.2
20
-23.570624
30
0
11
39.699998
21
-23.109841
31
0
12
39.700002
22
-24.031408
32
0
13
39.700002
23
-24.031408
33
0
39
0
210
0
220
0
230
1
0
ENDBLK
5
279
100
AcDbEntity
8
0
100
AcDbBlockEnd
0
ENDSEC
0
SECTION
2
ENTITIES
0
ARC
5
CB
100
AcDbEntity
8
SK1
62
256
6
ByLayer
370
18
48
1
60
0
100
AcDbCircle
39
0
10
-17.75
20
0
30
0
40
3.35999999999988
210
0
220
0
230
1
100
AcDbArc
50
324.93017
51
35.06983
0
ARC
5
CC
100
AcDbEntity
8
1
62
256
6
ByLayer
370
18
48
1
60
0
100
AcDbCircle
39
0
10
60.082837
20
-4.75
30
0
40
1.4
210
0
220
0
230
1
100
AcDbArc
50
30
51
67.306267
0
ARC
5
CD
100
AcDbEntity
8
1
62
256
6
ByLayer
370
18
48
1
60
0
100
AcDbCircle
39
0
10
29.653835
20
-4.85
30
0
40
1.5
210
0
220
0
230
1
100
AcDbArc
50
90
51
115.841933
0
ARC
5
CE
100
AcDbEntity
8
1
62
256
6
ByLayer
370
18
48
1
60
0
100
AcDbCircle
39
0
10
29.653835
20
4.85
30
0
40
1.5
210
0
220
0
230
1
100
AcDbArc
50
244.158067
51
270
0
POINT
5
70
100
AcDbEntity
8
81
62
256
6
ByLayer
370
18
48
1
60
0
100
AcDbPoint
10
78.65
20
0
30
0
39
0
210
0
220
0
230
1
50
360
0
POINT
5
72
100
AcDbEntity
8
80
62
256
6
ByLayer
370
18
48
1
60
0
100
AcDbPoint
10
0
20
0
30
0
39
0
210
0
220
0
230
1
50
360
0
POINT
5
74
100
AcDbEntity
8
1
62
256
6
ByLayer
370
18
48
1
60
1
100
AcDbPoint
10
77
20
5.070624
30
0
39
0
210
0
220
0
230
1
50
360
0
POINT
5
76
100
AcDbEntity
8
1
62
256
6
ByLayer
370
18
48
1
60
1
100
AcDbPoint
10
77
20
-5.070624
30
0
39
0
210
0
220
0
230
1
50
360
0
POINT
5
77
100
AcDbEntity
8
1
62
256
6
ByLayer
370
18
48
1
60
1
100
AcDbPoint
10
77
20
5.070624
30
0
39
0
210
0
220
0
230
1
50
360
0
POINT
5
78
100
AcDbEntity
8
1
62
256
6
ByLayer
370
18
48
1
60
1
100
AcDbPoint
10
72.87
20
0
30
0
39
0
210
0
220
0
230
1
50
360
0
POINT
5
79
100
AcDbEntity
8
1
62
256
6
ByLayer
370
18
48
1
60
1
100
AcDbPoint
10
77
20
-5.070624
30
0
39
0
210
0
220
0
230
1
50
360
0
POINT
5
7A
100
AcDbEntity
8
1
62
256
6
ByLayer
370
18
48
1
60
1
100
AcDbPoint
10
62
20
-5.070624
30
0
39
0
210
0
220
0
230
1
50
360
0
POINT
5
7B
100
AcDbEntity
8
1
62
256
6
ByLayer
370
18
48
1
60
1
100
AcDbPoint
10
77
20
-5.070624
30
0
39
0
210
0
220
0
230
1
50
360
0
POINT
5
7C
100
AcDbEntity
8
1
62
256
6
ByLayer
370
18
48
1
60
1
100
AcDbPoint
10
29
20
-3.35
30
0
39
0
210
0
220
0
230
1
50
360
0
POINT
5
7D
100
AcDbEntity
8
1
62
256
6
ByLayer
370
18
48
1
60
1
100
AcDbPoint
10
77
20
-5.070624
30
0
39
0
210
0
220
0
230
1
50
360
0
POINT
5
7E
100
AcDbEntity
8
1
62
256
6
ByLayer
370
18
48
1
60
1
100
AcDbPoint
10
36.2
20
0
30
0
39
0
210
0
220
0
230
1
50
360
0
SPLINE
5
CF
100
AcDbEntity
8
1
62
256
6
ByLayer
370
18
48
1
60
0
100
AcDbSpline
70
4
71
3
72
10
73
6
40
0
40
0
40
0
40
0
40
0.371065991043815
40
0.371065991043815
40
1
40
1
40
1
40
1
41
1
10
76.1744517668937
20
4.14368962646799
30
0
41
1
10
76.1766303446897
20
4.14864677377662
30
0
41
1
10
76.1788150030983
20
4.15309177064651
30
0
41
1
10
76.1847190542411
20
4.1636746487911
30
0
41
1
10
76.1884379260864
20
4.16881866024409
30
0
41
1
10
76.1921525702496
20
4.17243548352351
30
0
0
SPLINE
5
D0
100
AcDbEntity
8
1
62
256
6
ByLayer
370
13
48
1
60
0
100
AcDbSpline
70
4
71
3
72
8
73
4
40
0
40
0
40
0
40
0
40
1
40
1
40
1
40
1
41
1.04
10
75.137343452409
20
-4.20304438777205
30
0
41
1.04
10
75.1352885597775
20
-4.20655793410661
30
0
41
1.04
10
75.1332402515051
20
-4.20959148373407
30
0
41
1.04
10
75.1311981322799
20
-4.21215529214715
30
0
0
SPLINE
5
D1
100
AcDbEntity
8
1
62
256
6
ByLayer
370
18
48
1
60
0
100
AcDbSpline
70
4
71
3
72
8
73
4
40
0
40
0
40
0
40
0
40
1
40
1
40
1
40
1
41
1.04
10
64.6469642286972
20
-4.18296516858226
30
0
41
1.04
10
64.644563761609
20
-4.18880701348577
30
0
41
1.04
10
64.6421612295293
20
-4.19402326566072
30
0
41
1.04
10
64.6397565932353
20
-4.1986084169135
30
0
0
SPLINE
5
D2
100
AcDbEntity
8
1
62
256
6
ByLayer
370
18
48
1
60
0
100
AcDbSpline
70
4
71
3
72
8
73
4
40
0
40
0
40
0
40
0
40
1
40
1
40
1
40
1
41
1
10
74.2035735154056
20
-4.60908837762966
30
0
41
1
10
74.2063809717391
20
-4.61588091233952
30
0
41
1
10
74.2091869589509
20
-4.62169994507869
30
0
41
1
10
74.2119905468768
20
-4.62654753097928
30
0
0
SPLINE
5
D3
100
AcDbEntity
8
1
62
256
6
ByLayer
370
13
48
1
60
0
100
AcDbSpline
70
4
71
3
72
8
73
4
40
0
40
0
40
0
40
0
40
1
40
1
40
1
40
1
41
1
10
65.7365529757445
20
4.22318548236257
30
0
41
1
10
65.729801815491
20
4.22171550501321
30
0
41
1
10
65.7231031097385
20
4.2152025463275
30
0
41
1
10
65.7164558177104
20
4.20385363326582
30
0
0
SPLINE
5
D4
100
AcDbEntity
8
1
62
256
6
ByLayer
370
18
48
1
60
0
100
AcDbSpline
70
4
71
3
72
8
73
4
40
0
40
0
40
0
40
0
40
1
40
1
40
1
40
1
41
1
10
63.4784125166083
20
-4.21899466735959
30
0
41
1
10
63.474434570885
20
-4.21566162800556
30
0
41
1
10
63.4704397371096
20
-4.21055777070322
30
0
41
1
10
63.4664268399023
20
-4.20364394667212
30
0
0
SPLINE
5
D5
100
AcDbEntity
8
1
62
256
6
ByLayer
370
13
48
1
60
0
100
AcDbSpline
70
4
71
3
72
8
73
4
40
0
40
0
40
0
40
0
40
1
40
1
40
1
40
1
41
1
10
63.4664268399024
20
-4.20364394667229
30
0
41
1
10
63.464342233366
20
-4.20005237628754
30
0
41
1
10
63.4622527523035
20
-4.19597237547467
30
0
41
1
10
63.4601582319458
20
-4.19139845620447
30
0
0
SPLINE
5
D6
100
AcDbEntity
8
1
62
256
6
ByLayer
370
13
48
1
60
0
100
AcDbSpline
70
4
71
3
72
8
73
4
40
0
40
0
40
0
40
0
40
1
40
1
40
1
40
1
41
1
10
73.9664111924236
20
-4.20325688817823
30
0
41
1
10
73.9614484814482
20
-4.19472317380811
30
0
41
1
10
73.9564982123154
20
-4.18350413382123
30
0
41
1
10
73.9515591643876
20
-4.16965723901905
30
0
0
SPLINE
5
D7
100
AcDbEntity
8
1
62
256
6
ByLayer
370
13
48
1
60
0
100
AcDbSpline
70
4
71
3
72
8
73
4
40
0
40
0
40
0
40
0
40
1
40
1
40
1
40
1
41
1.04
10
66.9161974119494
20
4.12221036493168
30
0
41
1.04
10
66.9062005219484
20
4.1603921193004
30
0
41
1.04
10
66.8961789166034
20
4.18792622329774
30
0
41
1.04
10
66.8861280525474
20
4.2044761861466
30
0
0
SPLINE
5
D8
100
AcDbEntity
8
1
62
256
6
ByLayer
370
18
48
1
60
0
100
AcDbSpline
70
4
71
3
72
8
73
4
40
0
40
0
40
0
40
0
40
1
40
1
40
1
40
1
41
1.04
10
66.8861281360451
20
4.20447604865754
30
0
41
1.04
10
66.8833024784003
20
4.20912885277808
30
0
41
1.04
10
66.8804745082259
20
4.2129134997055
30
0
41
1.04
10
66.8776441245673
20
4.21582251253901
30
0
0
SPLINE
5
D9
100
AcDbEntity
8
1
62
256
6
ByLayer
370
13
48
1
60
0
100
AcDbSpline
70
4
71
3
72
9
73
5
40
0
40
0
40
0
40
0
40
0.982334639583489
40
1
40
1
40
1
40
1
41
1.04
10
63.1343137403709
20
-4.20837673064607
30
0
41
1.04
10
63.1124633493998
20
-4.24124235289919
30
0
41
1.04
10
63.0897769614635
20
-4.22135934720957
30
0
41
1.04
10
63.0664250895297
20
-4.13999008867827
30
0
41
1.04
10
63.066012361399
20
-4.13853344476875
30
0
0
SPLINE
5
DA
100
AcDbEntity
8
1
62
256
6
ByLayer
370
13
48
1
60
0
100
AcDbSpline
70
4
71
3
72
8
73
4
40
0
40
0
40
0
40
0
40
1
40
1
40
1
40
1
41
1.04
10
73.6361844563279
20
-4.205211369744
30
0
41
1.04
10
73.6095505253943
20
-4.24874821789558
30
0
41
1.04
10
73.5833636135173
20
-4.21276167174377
30
0
41
1.04
10
73.5574442367054
20
-4.10561063339108
30
0
0
SPLINE
5
DB
100
AcDbEntity
8
1
62
256
6
ByLayer
370
18
48
1
60
0
100
AcDbSpline
70
4
71
3
72
17
73
13
40
0
40
0
40
0
40
0
40
0.141166099727166
40
0.141166099727166
40
0.427444066484778
40
0.427444066484778
40
0.499013558174181
40
0.499013558174181
40
0.570583049863583
40
0.713722033242388
40
0.713722033242388
40
1
40
1
40
1
40
1
41
1
10
73.2155059695547
20
-4.91717207312348
30
0
41
1
10
73.2114783667979
20
-4.91823691158791
30
0
41
1
10
73.2074607411085
20
-4.91724920992687
30
0
41
1
10
73.195303565746
20
-4.90807491190176
30
0
41
1
10
73.1871714746711
20
-4.89353456260253
30
0
41
1
10
73.1768463878701
20
-4.86478982073839
30
0
41
1
10
73.17477189533
20
-4.858500817709
30
0
41
1
10
73.1706274469378
20
-4.8448863902068
30
0
41
1
10
73.164417341578
20
-4.8229149919309
30
0
41
1
10
73.1582429247242
20
-4.79629143524986
30
0
41
1
10
73.1459577168318
20
-4.73682360241153
30
0
41
1
10
73.137860717363
20
-4.68889039130627
30
0
41
1
10
73.1297934016209
20
-4.63256090314408
30
0
0
SPLINE
5
DC
100
AcDbEntity
8
1
62
256
6
ByLayer
370
18
48
1
60
0
100
AcDbSpline
70
4
71
3
72
18
73
14
40
0
40
0
40
0
40
0
40
0.319118917316369
40
0.319118917316369
40
0.638237834632738
40
0.638237834632738
40
0.797797293290923
40
0.797797293290923
40
0.877577022620016
40
0.877577022620016
40
0.957356751949108
40
0.957356751949108
40
1
40
1
40
1
40
1
41
1
10
72.8381953106376
20
-4.59454069283387
30
0
41
1
10
72.8462523718385
20
-4.66113537685459
30
0
41
1
10
72.8542680168467
20
-4.7194003688698
30
0
41
1
10
72.8703114692665
20
-4.81936494460084
30
0
41
1
10
72.8783424675836
20
-4.86106679470043
30
0
41
1
10
72.8905568904874
20
-4.91109576991633
30
0
41
1
10
72.894653099273
20
-4.92568388632267
30
0
41
1
10
72.9008146222099
20
-4.94441646117298
30
0
41
1
10
72.9028705954487
20
-4.9501298918492
30
0
41
1
10
72.9069655134626
20
-4.96044994566415
30
0
41
1
10
72.9090066567275
20
-4.96506433581044
30
0
41
1
10
72.9121260604481
20
-4.97131259233748
30
0
41
1
10
72.9132098202789
20
-4.97333436298445
30
0
41
1
10
72.9142909467155
20
-4.97520155332617
30
0
0
SPLINE
5
DD
100
AcDbEntity
8
1
62
256
6
ByLayer
370
13
48
1
60
0
100
AcDbSpline
70
4
71
3
72
9
73
5
40
0
40
0
40
0
40
0
40
0.364131119202436
40
1
40
1
40
1
40
1
41
1
10
61.9652918091848
20
-4.20149293048527
30
0
41
1
10
61.95576283252
20
-4.18442711418885
30
0
41
1
10
61.9295102988333
20
-4.11012047846936
30
0
41
1
10
61.9032439498694
20
-3.9595238367973
30
0
41
1
10
61.8865155490976
20
-3.83551436205371
30
0
0
SPLINE
5
DE
100
AcDbEntity
8
1
62
256
6
ByLayer
370
13
48
1
60
0
100
AcDbSpline
70
4
71
3
72
9
73
5
40
0
40
0
40
0
40
0
40
0.275290678892558
40
1
40
1
40
1
40
1
41
1
10
72.4679992243713
20
-4.20559508777228
30
0
41
1
10
72.4594034850318
20
-4.19187009782672
30
0
41
1
10
72.4283439051646
20
-4.11341230302688
30
0
41
1
10
72.3986828544991
20
-3.93601139861517
30
0
41
1
10
72.377813005479
20
-3.76890632022057
30
0
0
SPLINE
5
DF
100
AcDbEntity
8
1
62
256
6
ByLayer
370
18
48
1
60
0
100
AcDbSpline
70
4
71
3
72
9
73
5
40
0
40
0
40
0
40
0
40
0.516168077411096
40
1
40
1
40
1
40
1
41
1.04
10
72.1343947847321
20
-4.20830273946439
30
0
41
1.04
10
72.1326807519717
20
-4.21086669102035
30
0
41
1.04
10
72.1293570972376
20
-4.21519405980535
30
0
41
1.04
10
72.1260276569211
20
-4.21826782495944
30
0
41
1.04
10
72.1244158100343
20
-4.21946394255749
30
0
0
SPLINE
5
E0
100
AcDbEntity
8
1
62
256
6
ByLayer
370
13
48
1
60
0
100
AcDbSpline
70
4
71
3
72
9
73
5
40
0
40
0
40
0
40
0
40
0.38862020157159
40
1
40
1
40
1
40
1
41
1.04
10
72.1244158100342
20
-4.21946394255757
30
0
41
1.04
10
72.1054725315998
20
-4.23352135017211
30
0
41
1.04
10
72.0563872983097
20
-4.1662436120426
30
0
41
1.04
10
72.0106934781998
20
-3.85847843420075
30
0
41
1.04
10
71.9837783269463
20
-3.61081306227963
30
0
0
SPLINE
5
E1
100
AcDbEntity
8
1
62
256
6
ByLayer
370
18
48
1
60
0
100
AcDbSpline
70
4
71
3
72
8
73
4
40
0
40
0
40
0
40
0
40
1
40
1
40
1
40
1
41
1
10
70.9667158179012
20
-4.20489192353446
30
0
41
1
10
70.9627126873126
20
-4.19805015032716
30
0
41
1
10
70.9587051099283
20
-4.18938097014163
30
0
41
1
10
70.9546929081958
20
-4.17890617628274
30
0
0
SPLINE
5
E2
100
AcDbEntity
8
1
62
256
6
ByLayer
370
13
48
1
60
0
100
AcDbSpline
70
4
71
3
72
9
73
5
40
0
40
0
40
0
40
0
40
0.933246316200635
40
1
40
1
40
1
40
1
41
1
10
70.9546929081959
20
-4.17890617628271
30
0
41
1
10
70.9085913619161
20
-4.05854727459996
30
0
41
1
10
70.8585380286242
20
-3.67413628057244
30
0
41
1
10
70.8074744204305
20
-3.05397105437905
30
0
41
1
10
70.8040619077293
20
-3.01157860646751
30
0
0
SPLINE
5
E3
100
AcDbEntity
8
1
62
256
6
ByLayer
370
18
48
1
60
0
100
AcDbSpline
70
4
71
3
72
11
73
7
40
0
40
0
40
0
40
0
40
0.11287391052428
40
0.49766845411098
40
0.94911927356384
40
1
40
1
40
1
40
1
41
1
10
77
20
0.273165749950863
30
0
41
1
10
77
20
0.182256913807976
30
0
41
1
10
77
20
-0.220277942285833
30
0
41
1
10
77.0000000000003
20
-0.992732197815627
30
0
41
1
10
76.9999999999999
20
-1.66328476044646
30
0
41
1
10
76.9999999999999
20
-2.00528691626806
30
0
41
1
10
76.9999999999999
20
-2.03952634025583
30
0
0
SPLINE
5
E4
100
AcDbEntity
8
1
62
256
6
ByLayer
370
13
48
1
60
0
100
AcDbSpline
70
4
71
3
72
9
73
5
40
0
40
0
40
0
40
0
40
0.836247448361652
40
1
40
1
40
1
40
1
41
1.04
10
70.5884234477499
20
-4.20007181245973
30
0
41
1.04
10
70.539627922297
20
-4.10698769348245
30
0
41
1.04
10
70.4804787326582
20
-3.67254928801285
30
0
41
1.04
10
70.4199154672697
20
-2.9069399282238
30
0
41
1.04
10
70.409976612696
20
-2.774063103419
30
0
0
SPLINE
5
E5
100
AcDbEntity
8
1
62
256
6
ByLayer
370
13
48
1
60
0
100
AcDbSpline
70
4
71
3
72
9
73
5
40
0
40
0
40
0
40
0
40
0.390339707084924
40
1
40
1
40
1
40
1
41
1
10
69.4087853571276
20
-3.98317263737232
30
0
41
1
10
69.385844062366
20
-3.84850628155581
30
0
41
1
10
69.3270570641688
20
-3.36332440000342
30
0
41
1
10
69.2674571047568
20
-2.54848251602141
30
0
41
1
10
69.2303920539038
20
-1.96861759734625
30
0
0
SPLINE
5
E6
100
AcDbEntity
8
1
62
256
6
ByLayer
370
13
48
1
60
0
100
AcDbSpline
70
4
71
3
72
10
73
6
40
0
40
0
40
0
40
0
40
0.403966162417281
40
0.729714549256542
40
1
40
1
40
1
40
1
41
1
10
75.1794596767963
20
-1.13264639679602
30
0
41
1
10
75.1558036070394
20
-0.730381952738497
30
0
41
1
10
75.1128885893604
20
0.029154957050082
30
0
41
1
10
75.0529211301001
20
1.09050371074687
30
0
41
1
10
75.0170132889787
20
1.68457264741471
30
0
41
1
10
75.000666841349
20
1.9411592865716
30
0
0
SPLINE
5
E7
100
AcDbEntity
8
1
62
256
6
ByLayer
370
18
48
1
60
0
100
AcDbSpline
70
4
71
3
72
10
73
6
40
0
40
0
40
0
40
0
40
0.373855034122988
40
0.747168806909504
40
1
40
1
40
1
40
1
41
1
10
76.5000000515216
20
-2.04681906355114
30
0
41
1
10
76.5000000604854
20
-1.73662405521526
30
0
41
1
10
76.4999999992726
20
-1.06976143529417
30
0
41
1
10
76.4999999108761
20
-0.114114288851823
30
0
41
1
10
76.4999998931469
20
0.480193492334081
30
0
41
1
10
76.4999998896744
20
0.715833429907264
30
0
0
SPLINE
5
E8
100
AcDbEntity
8
1
62
256
6
ByLayer
370
18
48
1
60
0
100
AcDbSpline
70
4
71
3
72
27
73
23
40
0
40
0
40
0
40
0
40
0.125000000000001
40
0.125000000000001
40
0.250000000000002
40
0.250000000000002
40
0.375000000000003
40
0.375000000000003
40
0.406250000000002
40
0.406250000000002
40
0.437500000000002
40
0.437500000000002
40
0.500000000000002
40
0.75
40
0.75
40
0.812499999999999
40
0.812499999999999
40
0.84375
40
0.84375
40
0.875
40
0.875
40
1
40
1
40
1
40
1
41
1
10
75.1138169271161
20
1.96661378847045
30
0
41
1
10
75.1214258755342
20
1.83953611472884
30
0
41
1
10
75.1289324000929
20
1.71030430757725
30
0
41
1
10
75.1438659094567
20
1.44767367909151
30
0
41
1
10
75.1513034506092
20
1.31428060582741
30
0
41
1
10
75.16630913485
20
1.04338722868357
30
0
41
1
10
75.1738681215936
20
0.905887448102476
30
0
41
1
10
75.1833689849198
20
0.731385024671539
30
0
41
1
10
75.1852719839559
20
0.696352759353175
30
0
41
1
10
75.1890841104387
20
0.626021499647464
30
0
41
1
10
75.1909901722425
20
0.590778891983632
30
0
41
1
10
75.196689511519
20
0.485191889970821
30
0
41
1
10
75.2155985396362
20
0.133434426938521
30
0
41
1
10
75.2342325326399
20
-0.217330958263062
30
0
41
1
10
75.2531232353086
20
-0.567283220110028
30
0
41
1
10
75.2569149290023
20
-0.637232805026457
30
0
41
1
10
75.2626281264746
20
-0.742094682844623
30
0
41
1
10
75.2645367656701
20
-0.777038221207903
30
0
41
1
10
75.2683629873425
20
-0.846904200764044
30
0
41
1
10
75.2702798961534
20
-0.881814108669374
30
0
41
1
10
75.2798476583755
20
-1.05559379950344
30
0
41
1
10
75.2874702933126
20
-1.19271944282585
30
0
41
1
10
75.2950850499436
20
-1.32795740554744
30
0
0
SPLINE
5
E9
100
AcDbEntity
8
1
62
256
6
ByLayer
370
13
48
1
60
0
100
AcDbSpline
70
4
71
3
72
10
73
6
40
0
40
0
40
0
40
0
40
0.293542997008792
40
0.620450571356161
40
1
40
1
40
1
40
1
41
1.04
10
74.7852763559869
20
-0.815114587870953
30
0
41
1.04
10
74.7680983369427
20
-0.517600517604678
30
0
41
1.04
10
74.7316293399731
20
0.127580528256935
30
0
41
1.04
10
74.671874731237
20
1.18594258640426
30
0
41
1.04
10
74.6294301388918
20
1.8807411493275
30
0
41
1.04
10
74.6064798277359
20
2.22536145628791
30
0
0
SPLINE
5
EA
100
AcDbEntity
8
1
62
256
6
ByLayer
370
13
48
1
60
0
100
AcDbSpline
70
4
71
3
72
10
73
6
40
0
40
0
40
0
40
0
40
0.280555601303611
40
0.966545932249546
40
1
40
1
40
1
40
1
41
1.04
10
69.0146492227121
20
-3.86310193680284
30
0
41
1.04
10
68.9982178829419
20
-3.74593812595414
30
0
41
1.04
10
68.9415407978026
20
-3.24777006842681
30
0
41
1.04
10
68.882122415499
20
-2.41539998417647
30
0
41
1.04
10
68.8382957402074
20
-1.70744726775031
30
0
41
1.04
10
68.8362552174804
20
-1.67429859434832
30
0
0
SPLINE
5
EB
100
AcDbEntity
8
1
62
256
6
ByLayer
370
13
48
1
60
0
100
AcDbSpline
70
4
71
3
72
10
73
6
40
0
40
0
40
0
40
0
40
0.450562270691562
40
0.940754465447753
40
1
40
1
40
1
40
1
41
1
10
73.6056316253132
20
0.15944683176798
30
0
41
1
10
73.5789516565858
20
0.630957424955312
30
0
41
1
10
73.5234453479993
20
1.60524747551588
30
0
41
1
10
73.4637576431568
20
2.51964623879604
30
0
41
1
10
73.4306112587989
20
2.94321934125478
30
0
41
1
10
73.4270329776685
20
2.98793150007646
30
0
0
SPLINE
5
EC
100
AcDbEntity
8
1
62
256
6
ByLayer
370
18
48
1
60
0
100
AcDbSpline
70
4
71
3
72
27
73
23
40
0
40
0
40
0
40
0
40
0.125000000000001
40
0.125000000000001
40
0.250000000000001
40
0.250000000000001
40
0.312500000000001
40
0.343750000000002
40
0.343750000000002
40
0.375000000000002
40
0.375000000000002
40
0.500000000000001
40
0.500000000000001
40
0.625000000000001
40
0.625000000000001
40
0.750000000000001
40
0.750000000000001
40
0.812500000000001
40
0.812500000000001
40
0.875
40
0.875
40
1
40
1
40
1
40
1
41
1
10
73.7484779691389
20
3.212249036261
30
0
41
1
10
73.756287720973
20
3.09494154880628
30
0
41
1
10
73.7640843983384
20
2.97296399699644
30
0
41
1
10
73.7798058936291
20
2.72004961185621
30
0
41
1
10
73.7877088876493
20
2.58909059655468
30
0
41
1
10
73.7995513238492
20
2.38572282165711
30
0
41
1
10
73.8054713645004
20
2.28230438040876
30
0
41
1
10
73.8113930054666
20
2.17622917389167
30
0
41
1
10
73.815342797258
20
2.10491421355127
30
0
41
1
10
73.8173203521721
20
2.06892586927492
30
0
41
1
10
73.8271631890426
20
1.88848552738173
30
0
41
1
10
73.8349297474279
20
1.74182900616327
30
0
41
1
10
73.8504823887923
20
1.44409558681659
30
0
41
1
10
73.858264619198
20
1.29302348786055
30
0
41
1
10
73.873944076202
20
0.986518067034325
30
0
41
1
10
73.8818409226806
20
0.831085036162165
30
0
41
1
10
73.8938034888002
20
0.594570451944691
30
0
41
1
10
73.8978175661017
20
0.515021431863715
30
0
41
1
10
73.9058119016029
20
0.356202465136107
30
0
41
1
10
73.9097991482435
20
0.276794769354865
30
0
41
1
10
73.9217246014964
20
0.0385766935655454
30
0
41
1
10
73.9296058828269
20
-0.120229682124972
30
0
41
1
10
73.9374794720246
20
-0.279027325078545
30
0
0
SPLINE
5
ED
100
AcDbEntity
8
1
62
256
6
ByLayer
370
18
48
1
60
0
100
AcDbSpline
70
4
71
3
72
28
73
24
40
0
40
0
40
0
40
0
40
0.125000000000001
40
0.125000000000001
40
0.250000000000002
40
0.250000000000002
40
0.375000000000003
40
0.375000000000003
40
0.406250000000002
40
0.406250000000002
40
0.437500000000002
40
0.500000000000002
40
0.500000000000002
40
0.625000000000002
40
0.625000000000002
40
0.750000000000001
40
0.750000000000001
40
0.812500000000001
40
0.812500000000001
40
0.843750000000001
40
0.843750000000001
40
0.875000000000001
40
1
40
1
40
1
40
1
41
1
10
74.5643346344152
20
-0.792785685611136
30
0
41
1
10
74.5563642130678
20
-0.643706774046223
30
0
41
1
10
74.5484263258697
20
-0.494364790511526
30
0
41
1
10
74.5325482576079
20
-0.19516989992789
30
0
41
1
10
74.5246163471737
20
-0.0453160270767796
30
0
41
1
10
74.5087849580633
20
0.25491323020421
30
0
41
1
10
74.500875060468
20
0.405286596378175
30
0
41
1
10
74.4909585257778
20
0.593580626875621
30
0
41
1
10
74.4889709482891
20
0.63130109745282
30
0
41
1
10
74.4850093289544
20
0.706398705045331
30
0
41
1
10
74.4790821098802
20
0.818624722445321
30
0
41
1
10
74.4731869686004
20
0.929605742930903
30
0
41
1
10
74.4613934114105
20
1.14993525254658
30
0
41
1
10
74.4534997095897
20
1.29465078054417
30
0
41
1
10
74.4375719212982
20
1.57975359671377
30
0
41
1
10
74.4295639401001
20
1.72013901972272
30
0
41
1
10
74.417578067391
20
1.92735301978473
30
0
41
1
10
74.4135850294635
20
1.99586342598752
30
0
41
1
10
74.4075926545583
20
2.09777012586611
30
0
41
1
10
74.4055958656734
20
2.13157462320211
30
0
41
1
10
74.4016175682208
20
2.19858639302984
30
0
41
1
10
74.3916976414498
20
2.36481006832426
30
0
41
1
10
74.3818878913612
20
2.52457229121316
30
0
41
1
10
74.3739828403943
20
2.64833734958268
30
0
0
SPLINE
5
EE
100
AcDbEntity
8
1
62
256
6
ByLayer
370
13
48
1
60
0
100
AcDbSpline
70
4
71
3
72
10
73
6
40
0
40
0
40
0
40
0
40
0.340936354526639
40
0.832154241258525
40
1
40
1
40
1
40
1
41
1.04
10
73.2114696318988
20
0.485156579918457
30
0
41
1.04
10
73.1913477364688
20
0.838614047098492
30
0
41
1.04
10
73.1422847160349
20
1.68776656849801
30
0
41
1.04
10
73.0827213704157
20
2.60279786858773
30
0
41
1.04
10
73.0429616413754
20
3.09358559489623
30
0
41
1.04
10
73.032802386795
20
3.21027406281323
30
0
0
SPLINE
5
EF
100
AcDbEntity
8
1
62
256
6
ByLayer
370
13
48
1
60
0
100
AcDbSpline
70
4
71
3
72
9
73
5
40
0
40
0
40
0
40
0
40
0.867907213210293
40
1
40
1
40
1
40
1
41
1
10
67.8349617595527
20
-3.36817097778481
30
0
41
1
10
67.7844519666737
20
-2.82774462749762
30
0
41
1
10
67.7259853465837
20
-1.9395921050033
30
0
41
1
10
67.6648603854214
20
-0.88320215267521
30
0
41
1
10
67.6567488819487
20
-0.741699934235015
30
0
0
SPLINE
5
F0
100
AcDbEntity
8
1
62
256
6
ByLayer
370
18
48
1
60
0
100
AcDbSpline
70
4
71
3
72
10
73
6
40
0
40
0
40
0
40
0
40
0.5
40
0.5
40
1
40
1
40
1
40
1
41
1
10
73.4270329776685
20
2.98793150007646
30
0
41
1
10
73.4810941838276
20
3.03030805383028
30
0
41
1
10
73.5349088185856
20
3.07019672406594
30
0
41
1
10
73.6420740468565
20
3.14498916033355
30
0
41
1
10
73.69541173916
20
3.17987994896663
30
0
41
1
10
73.7484779691389
20
3.21224903626109
30
0
0
SPLINE
5
F1
100
AcDbEntity
8
1
62
256
6
ByLayer
370
18
48
1
60
0
100
AcDbSpline
70
4
71
3
72
10
73
6
40
0
40
0
40
0
40
0
40
0.5
40
0.5
40
1
40
1
40
1
40
1
41
1
10
73.7484779691389
20
3.21224903626109
30
0
41
1
10
73.8523568098462
20
3.11997781007594
30
0
41
1
10
73.9563814666143
20
3.02677896104939
30
0
41
1
10
74.1648361015482
20
2.83873647581854
30
0
41
1
10
74.2692695935912
20
2.74390045832442
30
0
41
1
10
74.3739828403943
20
2.6483373495827
30
0
0
SPLINE
5
F2
100
AcDbEntity
8
1
62
256
6
ByLayer
370
18
48
1
60
0
100
AcDbSpline
70
4
71
3
72
10
73
6
40
0
40
0
40
0
40
0
40
0.5
40
0.5
40
1
40
1
40
1
40
1
41
1
10
74.3739828403943
20
2.6483373495827
30
0
41
1
10
74.4124680819842
20
2.57660318791642
30
0
41
1
10
74.4510929318521
20
2.50543467127446
30
0
41
1
10
74.528578259432
20
2.36442704173072
30
0
41
1
10
74.567451453304
20
2.29456427762466
30
0
41
1
10
74.6064798277359
20
2.22536145628772
30
0
0
SPLINE
5
F3
100
AcDbEntity
8
1
62
256
6
ByLayer
370
18
48
1
60
0
100
AcDbSpline
70
4
71
3
72
32
73
28
40
0
40
0
40
0
40
0
40
0.125000000000137
40
0.125000000000137
40
0.187500000000185
40
0.187500000000185
40
0.250000000000232
40
0.250000000000232
40
0.375000000000277
40
0.375000000000277
40
0.437500000000273
40
0.437500000000273
40
0.500000000000268
40
0.500000000000268
40
0.625000000000202
40
0.625000000000202
40
0.687500000000168
40
0.687500000000168
40
0.750000000000135
40
0.750000000000135
40
0.812500000000101
40
0.812500000000101
40
0.875000000000067
40
0.875000000000067
40
0.937500000000034
40
0.937500000000034
40
1
40
1
40
1
40
1
41
1
10
74.606479827736
20
2.22536145628772
30
0
41
1
10
74.6174861767554
20
2.20584564462902
30
0
41
1
10
74.6303217107971
20
2.18688313992021
30
0
41
1
10
74.6516314815956
20
2.15907211718999
30
0
41
1
10
74.6590862562622
20
2.14990961901717
30
0
41
1
10
74.6746580966072
20
2.13178690157881
30
0
41
1
10
74.6826936986436
20
2.12292401938478
30
0
41
1
10
74.7072657760209
20
2.09710312196356
30
0
41
1
10
74.7243524086099
20
2.08079728971126
30
0
41
1
10
74.7509391344424
20
2.05758001085135
30
0
41
1
10
74.7599962942984
20
2.05002379491754
30
0
41
1
10
74.7782774360077
20
2.03545976767356
30
0
41
1
10
74.7874489219026
20
2.0284909123601
30
0
41
1
10
74.8150418964047
20
2.00849954253368
30
0
41
1
10
74.8335408988949
20
1.99637740028956
30
0
41
1
10
74.8614090180645
20
1.98015087311123
30
0
41
1
10
74.8707680600783
20
1.97504854121027
30
0
41
1
10
74.8891733712843
20
1.96575006971159
30
0
41
1
10
74.8982383147509
20
1.96153833499304
30
0
41
1
10
74.9160619502583
20
1.95405231080301
30
0
41
1
10
74.9248209850071
20
1.95077701831846
30
0
41
1
10
74.9419824512642
20
1.94529204590503
30
0
41
1
10
74.9503939610009
20
1.94308914455766
30
0
41
1
10
74.9663007806009
20
1.94003960863665
30
0
41
1
10
74.9738588416019
20
1.93916872093922
30
0
41
1
10
74.988060225549
20
1.93894373581946
30
0
41
1
10
74.9947256918527
20
1.9396034046826
30
0
41
1
10
75.0006668413491
20
1.94115928657007
30
0
0
SPLINE
5
F4
100
AcDbEntity
8
1
62
256
6
ByLayer
370
18
48
1
60
0
100
AcDbSpline
70
4
71
3
72
8
73
4
40
0
40
0
40
0
40
0
40
1
40
1
40
1
40
1
41
1
10
75.0006668413491
20
1.9411592865716
30
0
41
1
10
75.0385132935447
20
1.95107060247298
30
0
41
1
10
75.0762235091512
20
1.95954894117611
30
0
41
1
10
75.1138169271161
20
1.96661378847045
30
0
0
SPLINE
5
F5
100
AcDbEntity
8
1
62
256
6
ByLayer
370
18
48
1
60
0
100
AcDbSpline
70
4
71
3
72
18
73
14
40
0
40
0
40
0
40
0
40
0.124999999999996
40
0.124999999999996
40
0.249999999999992
40
0.249999999999992
40
0.374999999999988
40
0.374999999999988
40
0.499999999999984
40
0.499999999999984
40
0.749999999999992
40
0.749999999999992
40
1
40
1
40
1
40
1
41
1
10
75.1138169271161
20
1.96661378847045
30
0
41
1
10
75.169996820252
20
1.91444717244215
30
0
41
1
10
75.2263184426097
20
1.8621371082121
30
0
41
1
10
75.3394821545021
20
1.75744375246413
30
0
41
1
10
75.3963043228945
20
1.70504339660053
30
0
41
1
10
75.51042994994
20
1.60014362060463
30
0
41
1
10
75.5677304531377
20
1.54764158531796
30
0
41
1
10
75.682843384082
20
1.44257431184033
30
0
41
1
10
75.7407149772421
20
1.38995669322148
30
0
41
1
10
75.9146389132212
20
1.23253159080869
30
0
41
1
10
76.0309868358405
20
1.12817712844577
30
0
41
1
10
76.2646135252606
20
0.92080015533864
30
0
41
1
10
76.381807427947
20
0.817680890447974
30
0
41
1
10
76.4999998896745
20
0.715833429907264
30
0
0
SPLINE
5
F6
100
AcDbEntity
8
1
62
256
6
ByLayer
370
18
48
1
60
0
100
AcDbSpline
70
4
71
3
72
10
73
6
40
0
40
0
40
0
40
0
40
0.5
40
0.5
40
1
40
1
40
1
40
1
41
1
10
76.4999998896745
20
0.715833429907292
30
0
41
1
10
76.5794387883597
20
0.629330504276766
30
0
41
1
10
76.6605458864821
20
0.548593722544581
30
0
41
1
10
76.8273265566639
20
0.400015784729334
30
0
41
1
10
76.9126115316658
20
0.33246583625683
30
0
41
1
10
76.9999999999999
20
0.273165749950863
30
0
0
SPLINE
5
F7
100
AcDbEntity
8
1
62
256
6
ByLayer
370
18
48
1
60
0
100
AcDbSpline
70
4
71
3
72
50
73
46
40
0
40
0
40
0
40
0
40
0.0156249999999998
40
0.0156249999999998
40
0.0312499999999997
40
0.0312499999999997
40
0.0624999999999996
40
0.0624999999999996
40
0.124999999999999
40
0.124999999999999
40
0.140624999999999
40
0.140624999999999
40
0.156249999999999
40
0.156249999999999
40
0.187499999999999
40
0.187499999999999
40
0.249999999999999
40
0.249999999999999
40
0.375
40
0.375
40
0.4375
40
0.4375
40
0.46875
40
0.46875
40
0.5
40
0.5
40
0.625
40
0.625
40
0.750000000000001
40
0.750000000000001
40
0.765625000000001
40
0.765625000000001
40
0.781250000000001
40
0.781250000000001
40
0.812500000000001
40
0.812500000000001
40
0.875
40
0.875
40
0.90625
40
0.90625
40
0.921875
40
0.921875
40
0.9375
40
0.9375
40
1
40
1
40
1
40
1
41
1
10
77
20
0.273165749950834
30
0
41
1
10
77
20
0.273777851306221
30
0
41
1
10
77
20
0.274904380720159
30
0
41
1
10
76.9999999999999
20
0.278200305228239
30
0
41
1
10
77
20
0.280358226912227
30
0
41
1
10
77
20
0.288323538100457
30
0
41
1
10
77
20
0.29561810627726
30
0
41
1
10
77.0000000000001
20
0.323317025432658
30
0
41
1
10
77.0000000000001
20
0.349556462258164
30
0
41
1
10
77.0000000000001
20
0.392020745755644
30
0
41
1
10
77
20
0.401000588820978
30
0
41
1
10
77
20
0.419953255685897
30
0
41
1
10
77
20
0.429960440233259
30
0
41
1
10
77
20
0.46068622469096
30
0
41
1
10
77
20
0.482075244300688
30
0
41
1
10
77
20
0.548437350528019
30
0
41
1
10
77
20
0.595783130824145
30
0
41
1
10
77
20
0.746810817473431
30
0
41
1
10
77
20
0.859531888311778
30
0
41
1
10
77
20
1.04651322239116
30
0
41
1
10
77
20
1.11183640902334
30
0
41
1
10
77.0000000000001
20
1.21443674929264
30
0
41
1
10
77
20
1.24940431744653
30
0
41
1
10
77
20
1.32088870934001
30
0
41
1
10
77
20
1.35721428700461
30
0
41
1
10
76.9999999999999
20
1.54161232541534
30
0
41
1
10
77
20
1.69807630905561
30
0
41
1
10
77
20
2.028505599369
30
0
41
1
10
77.0000000000001
20
2.20245684705367
30
0
41
1
10
77.0000000000001
20
2.40820670143242
30
0
41
1
10
76.9999999999999
20
2.43120815487359
30
0
41
1
10
76.9999999999999
20
2.47749638585952
30
0
41
1
10
77.0000000000001
20
2.50076570051076
30
0
41
1
10
77.0000000000001
20
2.5712924632009
30
0
41
1
10
77.0000000000001
20
2.61903578770119
30
0
41
1
10
77
20
2.76427514836104
30
0
41
1
10
77
20
2.86382529178417
30
0
41
1
10
76.9999999999999
20
3.01718973773765
30
0
41
1
10
77
20
3.06898586697412
30
0
41
1
10
77
20
3.14773518807675
30
0
41
1
10
77
20
3.17417402599526
30
0
41
1
10
77
20
3.22686463438791
30
0
41
1
10
77
20
3.25318385559095
30
0
41
1
10
77
20
3.38465255850431
30
0
41
1
10
77
20
3.48942327268844
30
0
41
1
10
77
20
3.59378959772215
30
0
0
SPLINE
5
F8
100
AcDbEntity
8
1
62
256
6
ByLayer
370
18
48
1
60
0
100
AcDbSpline
70
4
71
3
72
12
73
8
40
0
40
0
40
0
40
0
40
0.500000000000017
40
0.500000000000017
40
0.750000000000009
40
0.750000000000009
40
1
40
1
40
1
40
1
41
1
10
76.9999999999999
20
3.59378959772218
30
0
41
1
10
76.9182869762712
20
3.67869272352368
30
0
41
1
10
76.8357263335164
20
3.76316411526179
30
0
41
1
10
76.7107071826833
20
3.8895924684723
30
0
41
1
10
76.668838664728
20
3.93168764046646
30
0
41
1
10
76.5847138968948
20
4.01585522634304
30
0
41
1
10
76.5424479941735
20
4.05793767813347
30
0
41
1
10
76.5000000515221
20
4.10003425036331
30
0
0
SPLINE
5
F9
100
AcDbEntity
8
1
62
256
6
ByLayer
370
18
48
1
60
0
100
AcDbSpline
70
4
71
3
72
10
73
6
40
0
40
0
40
0
40
0
40
0.5
40
0.5
40
1
40
1
40
1
40
1
41
1
10
76.5000000515216
20
4.10003425036132
30
0
41
1
10
76.4483812545371
20
4.1132412649516
30
0
41
1
10
76.3968878450468
20
4.12589041902311
30
0
41
1
10
76.2942675602726
20
4.15002976484834
30
0
41
1
10
76.2431318906361
20
4.16152190709386
30
0
41
1
10
76.1921525702496
20
4.17243548352357
30
0
0
SPLINE
5
FA
100
AcDbEntity
8
1
62
256
6
ByLayer
370
18
48
1
60
0
100
AcDbSpline
70
4
71
3
72
30
73
26
40
0
40
0
40
0
40
0
40
0.0624999999999642
40
0.0624999999999642
40
0.124999999999928
40
0.124999999999928
40
0.249999999999911
40
0.249999999999911
40
0.374999999999894
40
0.374999999999894
40
0.499999999999876
40
0.499999999999876
40
0.562499999999868
40
0.562499999999868
40
0.624999999999859
40
0.624999999999859
40
0.749999999999906
40
0.749999999999906
40
0.81249999999993
40
0.81249999999993
40
0.874999999999953
40
0.874999999999953
40
0.937499999999977
40
0.937499999999977
40
1
40
1
40
1
40
1
41
1
10
76.1921525702496
20
4.17243548352351
30
0
41
1
10
76.1861941542887
20
4.1664761633352
30
0
41
1
10
76.1799755561808
20
4.16085458708122
30
0
41
1
10
76.1670400777913
20
4.15025816051298
30
0
41
1
10
76.1603416790265
20
4.14530246737343
30
0
41
1
10
76.1398258440271
20
4.13157261305048
30
0
41
1
10
76.1255049463781
20
4.12385054440801
30
0
41
1
10
76.0956538549327
20
4.11114299980156
30
0
41
1
10
76.0800339984968
20
4.10615763689813
30
0
41
1
10
76.0484785559484
20
4.0993033514635
30
0
41
1
10
76.0324531945927
20
4.09737822244563
30
0
41
1
10
76.0080507022529
20
4.09693042391126
30
0
41
1
10
75.9998553175978
20
4.09719083908342
30
0
41
1
10
75.9833362892884
20
4.09861081397131
30
0
41
1
10
75.9749769231989
20
4.09978025703759
30
0
41
1
10
75.9501687381851
20
4.10471507278814
30
0
41
1
10
75.9338753292896
20
4.10987165479361
30
0
41
1
10
75.9099351260515
20
4.12106881686321
30
0
41
1
10
75.9020029196163
20
4.1254154238498
30
0
41
1
10
75.8867399594146
20
4.13522954582862
30
0
41
1
10
75.8793671709051
20
4.14070975127635
30
0
41
1
10
75.8652078724234
20
4.15296357863573
30
0
41
1
10
75.8583739166518
20
4.15979299169695
30
0
41
1
10
75.8456561139956
20
4.17470347934153
30
0
41
1
10
75.8397919910149
20
4.1827427226446
30
0
41
1
10
75.8344811340115
20
4.19143711247119
30
0
0
SPLINE
5
FB
100
AcDbEntity
8
1
62
256
6
ByLayer
370
18
48
1
60
0
100
AcDbSpline
70
4
71
3
72
8
73
4
40
0
40
0
40
0
40
0
40
1
40
1
40
1
40
1
41
1
10
75.8344811340114
20
4.19143711247116
30
0
41
1
10
75.8235264564581
20
4.20937098585779
30
0
41
1
10
75.8125795037441
20
4.22726559882389
30
0
41
1
10
75.801639971809
20
4.24512104251895
30
0
0
SPLINE
5
FC
100
AcDbEntity
8
1
62
256
6
ByLayer
370
18
48
1
60
0
100
AcDbSpline
70
4
71
3
72
10
73
6
40
0
40
0
40
0
40
0
40
0.5
40
0.5
40
1
40
1
40
1
40
1
41
1
10
75.801639971809
20
4.24512104251929
30
0
41
1
10
75.6397821246127
20
4.27062180241933
30
0
41
1
10
75.4791919254544
20
4.29005254693388
30
0
41
1
10
75.159756721449
20
4.31648999011136
30
0
41
1
10
75.0009036216884
20
4.32349751128285
30
0
41
1
10
74.8428116567386
20
4.32392919120767
30
0
0
SPLINE
5
FD
100
AcDbEntity
8
1
62
256
6
ByLayer
370
18
48
1
60
0
100
AcDbSpline
70
4
71
3
72
8
73
4
40
0
40
0
40
0
40
0
40
1
40
1
40
1
40
1
41
1
10
74.8428116567386
20
4.32392919120767
30
0
41
1
10
74.7804691619895
20
4.20386390224809
30
0
41
1
10
74.7178581706711
20
4.08246057192972
30
0
41
1
10
74.6548937917436
20
3.95973721666914
30
0
0
SPLINE
5
FE
100
AcDbEntity
8
1
62
256
6
ByLayer
370
18
48
1
60
0
100
AcDbSpline
70
4
71
3
72
30
73
26
40
0
40
0
40
0
40
0
40
0.12500000000006
40
0.12500000000006
40
0.250000000000121
40
0.250000000000121
40
0.375000000000181
40
0.375000000000181
40
0.437500000000185
40
0.437500000000185
40
0.500000000000189
40
0.500000000000189
40
0.625000000000142
40
0.625000000000142
40
0.687500000000118
40
0.687500000000118
40
0.750000000000095
40
0.750000000000095
40
0.812500000000071
40
0.812500000000071
40
0.875000000000047
40
0.875000000000047
40
0.937500000000024
40
0.937500000000024
40
1
40
1
40
1
40
1
41
1
10
74.6548937917436
20
3.95973721666911
30
0
41
1
10
74.64431020993
20
3.93910884404076
30
0
41
1
10
74.632020220163
20
3.92038081395444
30
0
41
1
10
74.6047771455877
20
3.88586251573994
30
0
41
1
10
74.589682488177
20
3.87000410826818
30
0
41
1
10
74.5579857543177
20
3.8419362006164
30
0
41
1
10
74.5413119281528
20
3.82960325998715
30
0
41
1
10
74.5151164767589
20
3.81359786527628
30
0
41
1
10
74.5061839287087
20
3.8086884735124
30
0
41
1
10
74.4882295466275
20
3.79988887944242
30
0
41
1
10
74.4791700198893
20
3.79597412396544
30
0
41
1
10
74.4517529775017
20
3.78570769573335
30
0
41
1
10
74.4331611006085
20
3.78080455749046
30
0
41
1
10
74.4047740429262
20
3.77688279336653
30
0
41
1
10
74.3952272658175
20
3.77616446232332
30
0
41
1
10
74.37641151012
20
3.77604968343195
30
0
41
1
10
74.3670885522732
20
3.7766424606958
30
0
41
1
10
74.3486427620527
20
3.77927871507393
30
0
41
1
10
74.3394912097016
20
3.78132915229921
30
0
41
1
10
74.3215549439199
20
3.78711671104662
30
0
41
1
10
74.3129117955399
20
3.79080389666714
30
0
41
1
10
74.2963596816791
20
3.79995695943296
30
0
41
1
10
74.2884156796487
20
3.80544897048043
30
0
41
1
10
74.2735635411274
20
3.81845642575328
30
0
41
1
10
74.2667749168929
20
3.82585621730263
30
0
41
1
10
74.2607069621247
20
3.83427394418996
30
0
0
SPLINE
5
FF
100
AcDbEntity
8
1
62
256
6
ByLayer
370
18
48
1
60
0
100
AcDbSpline
70
4
71
3
72
10
73
6
40
0
40
0
40
0
40
0
40
0.5
40
0.5
40
1
40
1
40
1
40
1
41
1
10
74.2607069621246
20
3.8342739441899
30
0
41
1
10
74.2077752137067
20
3.90770313390351
30
0
41
1
10
74.1550164614427
20
3.97943636413575
30
0
41
1
10
74.0498331699795
20
4.11949145698017
30
0
41
1
10
73.9974363684014
20
4.18777533780317
30
0
41
1
10
73.9452585185585
20
4.25425860781996
30
0
0
SPLINE
5
100
100
AcDbEntity
8
1
62
256
6
ByLayer
370
18
48
1
60
0
100
AcDbSpline
70
4
71
3
72
8
73
4
40
0
40
0
40
0
40
0
40
1
40
1
40
1
40
1
41
1
10
73.9452585185584
20
4.25425860781999
30
0
41
1
10
73.7902842518811
20
4.22943138021387
30
0
41
1
10
73.6368874033937
20
4.19804665444312
30
0
41
1
10
73.4846868689638
20
4.16019286304635
30
0
0
SPLINE
5
101
100
AcDbEntity
8
1
62
256
6
ByLayer
370
18
48
1
60
0
100
AcDbSpline
70
4
71
3
72
12
73
8
40
0
40
0
40
0
40
0
40
0.249999999999995
40
0.249999999999995
40
0.499999999999991
40
0.499999999999991
40
1
40
1
40
1
40
1
41
1
10
73.4846868689638
20
4.16019286304635
30
0
41
1
10
73.4514272541319
20
4.09093851120363
30
0
41
1
10
73.4180745426725
20
4.02155936040256
30
0
41
1
10
73.3511512141515
20
3.88256086277886
30
0
41
1
10
73.3175780042866
20
3.81293703226268
30
0
41
1
10
73.2166607313598
20
3.60407669066083
30
0
41
1
10
73.149062658984
20
3.46473407387117
30
0
41
1
10
73.0810566833056
20
3.32532881037815
30
0
0
SPLINE
5
102
100
AcDbEntity
8
1
62
256
6
ByLayer
370
18
48
1
60
0
100
AcDbSpline
70
4
71
3
72
10
73
6
40
0
40
0
40
0
40
0
40
0.646257800459428
40
0.646257800459428
40
1
40
1
40
1
40
1
41
1
10
73.0810566833056
20
3.32532881037815
30
0
41
1
10
73.0704742981561
20
3.30363600801132
30
0
41
1
10
73.0581848367044
20
3.28332453906364
30
0
41
1
10
73.037107146687
20
3.25355628495245
30
0
41
1
10
73.029209452434
20
3.24331862174546
30
0
41
1
10
73.0209881641646
20
3.23346491082958
30
0
0
SPLINE
5
103
100
AcDbEntity
8
1
62
256
6
ByLayer
370
18
48
1
60
0
100
AcDbSpline
70
4
71
3
72
8
73
4
40
0
40
0
40
0
40
0
40
1
40
1
40
1
40
1
41
1
10
69.1107378526049
20
4.88274978182548
30
0
41
1
10
69.1448327118233
20
4.94161652432138
30
0
41
1
10
69.1788122715129
20
5.00017795032912
30
0
41
1
10
69.2126897715974
20
5.05842766038182
30
0
0
SPLINE
5
104
100
AcDbEntity
8
1
62
256
6
ByLayer
370
18
48
1
60
0
100
AcDbSpline
70
4
71
3
72
32
73
28
40
0
40
0
40
0
40
0
40
0.125000000000082
40
0.125000000000082
40
0.187500000000125
40
0.187500000000125
40
0.250000000000167
40
0.250000000000167
40
0.375000000000251
40
0.375000000000251
40
0.437500000000266
40
0.437500000000266
40
0.500000000000281
40
0.500000000000281
40
0.625000000000253
40
0.625000000000253
40
0.687500000000211
40
0.687500000000211
40
0.750000000000169
40
0.750000000000169
40
0.812500000000127
40
0.812500000000127
40
0.875000000000084
40
0.875000000000084
40
0.937500000000042
40
0.937500000000042
40
1
40
1
40
1
40
1
41
1
10
73.032802386795
20
3.21027406281323
30
0
41
1
10
73.0438088956504
20
3.18893320084968
30
0
41
1
10
73.0566422216593
20
3.16895656721741
30
0
41
1
10
73.0779448496461
20
3.14052286664969
30
0
41
1
10
73.0853965950589
20
3.13130675973031
30
0
41
1
10
73.1009609778193
20
3.11336778996051
30
0
41
1
10
73.1089906538223
20
3.10474367347268
30
0
41
1
10
73.133547117629
20
3.08002485789527
30
0
41
1
10
73.1506230359108
20
3.06496805114787
30
0
41
1
10
73.177191403287
20
3.04435055327963
30
0
41
1
10
73.1862411742655
20
3.0377880817035
30
0
41
1
10
73.2045121922866
20
3.02544348587293
30
0
41
1
10
73.2136788575789
20
3.01969470002987
30
0
41
1
10
73.2412589912609
20
3.00369517603724
30
0
41
1
10
73.2597517235112
20
2.99467096498142
30
0
41
1
10
73.2876158885495
20
2.9838376376031
30
0
41
1
10
73.2969754083884
20
2.98066975838535
30
0
41
1
10
73.3153917404787
20
2.97544641748098
30
0
41
1
10
73.3244632881109
20
2.9733790537444
30
0
41
1
10
73.3423025350733
20
2.97041640005577
30
0
41
1
10
73.3510705611701
20
2.96951982160255
30
0
41
1
10
73.3682523110121
20
2.96906347940538
30
0
41
1
10
73.3766768754786
20
2.96951716731726
30
0
41
1
10
73.3926097656528
20
2.97193678609869
30
0
41
1
10
73.4001808623609
20
2.97389501378339
30
0
41
1
10
73.4144068360301
20
2.97954629161086
30
0
41
1
10
73.4210834988127
20
2.9832679265358
30
0
41
1
10
73.4270329776687
20
2.98793150007515
30
0
0
SPLINE
5
105
100
AcDbEntity
8
1
62
256
6
ByLayer
370
18
48
1
60
0
100
AcDbSpline
70
4
71
3
72
26
73
22
40
0
40
0
40
0
40
0
40
0.161145396731288
40
0.161145396731288
40
0.245030857058182
40
0.245030857058182
40
0.328916317385076
40
0.328916317385076
40
0.496687238038865
40
0.496687238038865
40
0.580572698365721
40
0.580572698365721
40
0.664458158692576
40
0.664458158692576
40
0.748343619019432
40
0.748343619019432
40
0.832229079346288
40
0.832229079346288
40
0.916114539673144
40
0.916114539673144
40
1
40
1
40
1
40
1
41
1
10
70.8995988061815
20
-4.14056068022563
30
0
41
1
10
70.88433615411
20
-4.13135246879656
30
0
41
1
10
70.8683535954595
20
-4.12385724928086
30
0
41
1
10
70.8430210308836
20
-4.11498163812317
30
0
41
1
10
70.8341631278921
20
-4.11239717693351
30
0
41
1
10
70.8160665455869
20
-4.10818010224512
30
0
41
1
10
70.806931423135
20
-4.10657342879159
30
0
41
1
10
70.7794085021221
20
-4.10329210466338
30
0
41
1
10
70.7608486574853
20
-4.10311592044781
30
0
41
1
10
70.7327065684926
20
-4.1062996316852
30
0
41
1
10
70.7232750703061
20
-4.10794114909362
30
0
41
1
10
70.7043054604347
20
-4.11256318179912
30
0
41
1
10
70.6948983186642
20
-4.11551610463783
30
0
41
1
10
70.6764198035245
20
-4.12278399164322
30
0
41
1
10
70.6673242834352
20
-4.12710292613866
30
0
41
1
10
70.6494741840577
20
-4.13732856799933
30
0
41
1
10
70.6406798114978
20
-4.14327973685224
30
0
41
1
10
70.6240626760642
20
-4.15666356415196
30
0
41
1
10
70.6161749757436
20
-4.16412158071253
30
0
41
1
10
70.6013824494067
20
-4.1808258061823
30
0
41
1
10
70.5944986925391
20
-4.19007785108849
30
0
41
1
10
70.5884234477499
20
-4.20007181245973
30
0
0
SPLINE
5
106
100
AcDbEntity
8
1
62
256
6
ByLayer
370
18
48
1
60
0
100
AcDbSpline
70
4
71
3
72
12
73
8
40
0
40
0
40
0
40
0
40
0.5
40
0.5
40
0.75
40
0.75
40
1
40
1
40
1
40
1
41
1
10
70.5884234477498
20
-4.20007181245973
30
0
41
1
10
70.5037714213917
20
-4.33932695538428
30
0
41
1
10
70.4195275210483
20
-4.47641324865859
30
0
41
1
10
70.2939221237962
20
-4.67819940823063
30
0
41
1
10
70.2521766731099
20
-4.74482564842069
30
0
41
1
10
70.1690171053753
20
-4.87660552998139
30
0
41
1
10
70.1275856426449
20
-4.94178715576862
30
0
41
1
10
70.0862798526514
20
-5.00626122341987
30
0
0
SPLINE
5
107
100
AcDbEntity
8
1
62
256
6
ByLayer
370
18
48
1
60
0
100
AcDbSpline
70
4
71
3
72
8
73
4
40
0
40
0
40
0
40
0
40
1
40
1
40
1
40
1
41
1
10
69.9338782186228
20
-4.97989696492576
30
0
41
1
10
69.9846726952143
20
-4.98943015973828
30
0
41
1
10
70.0354695571688
20
-4.99821908615715
30
0
41
1
10
70.0862798526514
20
-5.00626122341984
30
0
0
SPLINE
5
108
100
AcDbEntity
8
1
62
256
6
ByLayer
370
18
48
1
60
0
100
AcDbSpline
70
4
71
3
72
10
73
6
40
0
40
0
40
0
40
0
40
0.5
40
0.5
40
1
40
1
40
1
40
1
41
1
10
69.9338782186236
20
-4.97989696491933
30
0
41
1
10
69.8475674599647
20
-4.82021051090655
30
0
41
1
10
69.7607538369061
20
-4.65715257934704
30
0
41
1
10
69.585620652963
20
-4.324363466656
30
0
41
1
10
69.4975701477005
20
-4.15515196649582
30
0
41
1
10
69.4087853571276
20
-3.98317263737232
30
0
0
SPLINE
5
109
100
AcDbEntity
8
1
62
256
6
ByLayer
370
18
48
1
60
0
100
AcDbSpline
70
4
71
3
72
30
73
26
40
0
40
0
40
0
40
0
40
0.124999999999916
40
0.124999999999916
40
0.249999999999832
40
0.249999999999832
40
0.374999999999749
40
0.374999999999749
40
0.437499999999734
40
0.437499999999734
40
0.499999999999719
40
0.499999999999719
40
0.624999999999746
40
0.624999999999746
40
0.687499999999788
40
0.687499999999788
40
0.74999999999983
40
0.74999999999983
40
0.812499999999873
40
0.812499999999873
40
0.874999999999915
40
0.874999999999915
40
0.937499999999958
40
0.937499999999958
40
1
40
1
40
1
40
1
41
1
10
69.4087853571276
20
-3.98317263737232
30
0
41
1
10
69.3982008083556
20
-3.96266998612833
30
0
41
1
10
69.3859081140424
20
-3.94409161849757
30
0
41
1
10
69.3586557738194
20
-3.90991032910779
30
0
41
1
10
69.343553689073
20
-3.89424030888532
30
0
41
1
10
69.3118400904268
20
-3.86657589773881
30
0
41
1
10
69.2951563421514
20
-3.85445918013954
30
0
41
1
10
69.2689465505435
20
-3.83880013822861
30
0
41
1
10
69.2600101066531
20
-3.83401018044799
30
0
41
1
10
69.242049380218
20
-3.82545268064416
30
0
41
1
10
69.232987272126
20
-3.82166106401036
30
0
41
1
10
69.2055636229434
20
-3.81177055730822
30
0
41
1
10
69.186968344544
20
-3.80712697885133
30
0
41
1
10
69.1585811425831
20
-3.80360843542439
30
0
41
1
10
69.1490391834014
20
-3.80302703644878
30
0
41
1
10
69.1302347376408
20
-3.80318254250543
30
0
41
1
10
69.1209182682187
20
-3.80390974719774
30
0
41
1
10
69.1024862504664
20
-3.80681400855769
30
0
41
1
10
69.0933409927622
20
-3.80899882072947
30
0
41
1
10
69.075423743354
20
-3.81504925942372
30
0
41
1
10
69.0667904523727
20
-3.81886349474161
30
0
41
1
10
69.0502583452919
20
-3.82825999172527
30
0
41
1
10
69.0423250231296
20
-3.83386848167791
30
0
41
1
10
69.0274914116598
20
-3.84709449707816
30
0
41
1
10
69.0207108006097
20
-3.85459451208729
30
0
41
1
10
69.0146492227121
20
-3.86310193680282
30
0
0
SPLINE
5
10A
100
AcDbEntity
8
1
62
256
6
ByLayer
370
18
48
1
60
0
100
AcDbSpline
70
4
71
3
72
12
73
8
40
0
40
0
40
0
40
0
40
0.49999999999999
40
0.49999999999999
40
0.749999999999995
40
0.749999999999995
40
1
40
1
40
1
40
1
41
1
10
69.0146492227121
20
-3.86310193680282
30
0
41
1
10
68.9299528156266
20
-3.98197334605331
30
0
41
1
10
68.8456804770601
20
-4.09660318593859
30
0
41
1
10
68.7200563534856
20
-4.26186720846869
30
0
41
1
10
68.6783087591608
20
-4.31584487988897
30
0
41
1
10
68.5951519386794
20
-4.42144475395992
30
0
41
1
10
68.5537253178005
20
-4.47309003725576
30
0
41
1
10
68.5124268873274
20
-4.52359385797999
30
0
0
SPLINE
5
10B
100
AcDbEntity
8
1
62
256
6
ByLayer
370
18
48
1
60
0
100
AcDbSpline
70
4
71
3
72
10
73
6
40
0
40
0
40
0
40
0
40
0.500000000000001
40
0.500000000000001
40
1
40
1
40
1
40
1
41
1
10
68.3592743949938
20
-4.45260167116766
30
0
41
1
10
68.2729756938791
20
-4.27352774065093
30
0
41
1
10
68.1862265482602
20
-4.0933928525977
30
0
41
1
10
68.0113588857691
20
-3.73126311290517
30
0
41
1
10
67.9235117662536
20
-3.54983653244244
30
0
41
1
10
67.8349617595527
20
-3.36817097778484
30
0
0
SPLINE
5
10C
100
AcDbEntity
8
1
62
256
6
ByLayer
370
18
48
1
60
0
100
AcDbSpline
70
4
71
3
72
12
73
8
40
0
40
0
40
0
40
0
40
0.50000000000001
40
0.50000000000001
40
0.750000000000005
40
0.750000000000005
40
1
40
1
40
1
40
1
41
1
10
61.8865155490976
20
-3.83551436205371
30
0
41
1
10
61.972109935232
20
-3.98551584456104
30
0
41
1
10
62.0571027780763
20
-4.13660806739597
30
0
41
1
10
62.1836763054638
20
-4.36405092211663
30
0
41
1
10
62.2257115138479
20
-4.43999473088522
30
0
41
1
10
62.3094197639251
20
-4.59192542332903
30
0
41
1
10
62.3511074543619
20
-4.66793860382461
30
0
41
1
10
62.3926541165743
20
-4.74398617045827
30
0
0
SPLINE
5
10D
100
AcDbEntity
8
1
62
256
6
ByLayer
370
18
48
1
60
0
100
AcDbSpline
70
4
71
3
72
12
73
8
40
0
40
0
40
0
40
0
40
0.500000000000008
40
0.500000000000008
40
0.750000000000004
40
0.750000000000004
40
1
40
1
40
1
40
1
41
1
10
62.5450753250553
20
-4.79535200252789
30
0
41
1
10
62.6304890534313
20
-4.69761602587081
30
0
41
1
10
62.7166081785563
20
-4.5938107059458
30
0
41
1
10
62.8468389542766
20
-4.4294542172353
30
0
41
1
10
62.8904469917144
20
-4.37319919606273
30
0
41
1
10
62.9779625180388
20
-4.25795324518705
30
0
41
1
10
63.0218864456247
20
-4.19894165316214
30
0
41
1
10
63.066012361399
20
-4.13853344476877
30
0
0
SPLINE
5
10E
100
AcDbEntity
8
1
62
256
6
ByLayer
370
18
48
1
60
0
100
AcDbSpline
70
4
71
3
72
32
73
28
40
0
40
0
40
0
40
0
40
0.12499999999995
40
0.12499999999995
40
0.187499999999926
40
0.187499999999926
40
0.249999999999901
40
0.249999999999901
40
0.374999999999851
40
0.374999999999851
40
0.437499999999826
40
0.437499999999826
40
0.499999999999801
40
0.499999999999801
40
0.624999999999809
40
0.624999999999809
40
0.687499999999841
40
0.687499999999841
40
0.749999999999872
40
0.749999999999872
40
0.812499999999904
40
0.812499999999904
40
0.874999999999936
40
0.874999999999936
40
0.937499999999968
40
0.937499999999968
40
1
40
1
40
1
40
1
41
1
10
63.066012361399
20
-4.13853344476874
30
0
41
1
10
63.0769702657836
20
-4.12353211595752
30
0
41
1
10
63.0897436125696
20
-4.11125201673698
30
0
41
1
10
63.1109550715278
20
-4.0958727187429
30
0
41
1
10
63.1183759942791
20
-4.09126679822202
30
0
41
1
10
63.1338793951139
20
-4.08303942552297
30
0
41
1
10
63.1418816073891
20
-4.07946411080266
30
0
41
1
10
63.1663626360738
20
-4.07030132497974
30
0
41
1
10
63.1833985278506
20
-4.06620897661995
30
0
41
1
10
63.209925287727
20
-4.06291374658346
30
0
41
1
10
63.2189618586087
20
-4.06229460110461
30
0
41
1
10
63.2372271206785
20
-4.06204981367878
30
0
41
1
10
63.2463936310515
20
-4.062421487292
30
0
41
1
10
63.2739814320593
20
-4.06500776059676
30
0
41
1
10
63.2924901837069
20
-4.06866911580062
30
0
41
1
10
63.3203924705044
20
-4.07742079988654
30
0
41
1
10
63.3297689256348
20
-4.08091211519016
30
0
41
1
10
63.3482352829106
20
-4.08899087189442
30
0
41
1
10
63.3573318618796
20
-4.09357233144522
30
0
41
1
10
63.3752210173662
20
-4.1039115281896
30
0
41
1
10
63.384013921394
20
-4.10966796286763
30
0
41
1
10
63.4012451715717
20
-4.12253008562848
30
0
41
1
10
63.4096941381708
20
-4.12966065856986
30
0
41
1
10
63.4256695506508
20
-4.14504878310467
30
0
41
1
10
63.4332595695398
20
-4.15334655730382
30
0
41
1
10
63.4475184008272
20
-4.17134202529263
30
0
41
1
10
63.4542053320958
20
-4.18108734802772
30
0
41
1
10
63.4601582319459
20
-4.19139845620478
30
0
0
SPLINE
5
10F
100
AcDbEntity
8
1
62
256
6
ByLayer
370
18
48
1
60
0
100
AcDbSpline
70
4
71
3
72
12
73
8
40
0
40
0
40
0
40
0
40
0.5
40
0.5
40
0.75
40
0.75
40
1
40
1
40
1
40
1
41
1
10
63.4601582319458
20
-4.19139845620447
30
0
41
1
10
63.5458081233206
20
-4.33975393295711
30
0
41
1
10
63.6308462389305
20
-4.48697365469647
30
0
41
1
10
63.7574311696446
20
-4.70534808554586
30
0
41
1
10
63.7994601938506
20
-4.77772312563576
30
0
41
1
10
63.8831442353203
20
-4.92146169769777
30
0
41
1
10
63.9248173229412
20
-4.99285676422321
30
0
41
1
10
63.9663505122052
20
-5.06377762130893
30
0
0
SPLINE
5
110
100
AcDbEntity
8
1
62
256
6
ByLayer
370
18
48
1
60
0
100
AcDbSpline
70
4
71
3
72
12
73
8
40
0
40
0
40
0
40
0
40
0.25
40
0.25
40
0.5
40
0.5
40
1
40
1
40
1
40
1
41
1
10
64.1189244063252
20
-5.06940440007227
30
0
41
1
10
64.1616016153083
20
-5.00095504199467
30
0
41
1
10
64.2044694820236
20
-4.93138095846084
30
0
41
1
10
64.2905529857186
20
-4.7901557372239
30
0
41
1
10
64.3337694063819
20
-4.71850389814227
30
0
41
1
10
64.4640378291318
20
-4.50045417547125
30
0
41
1
10
64.5514725638463
20
-4.3513591753094
30
0
41
1
10
64.6397565932353
20
-4.19860841691346
30
0
0
SPLINE
5
111
100
AcDbEntity
8
1
62
256
6
ByLayer
370
18
48
1
60
0
100
AcDbSpline
70
4
71
3
72
32
73
28
40
0
40
0
40
0
40
0
40
0.124999999999997
40
0.124999999999997
40
0.187500000000017
40
0.187500000000017
40
0.250000000000037
40
0.250000000000037
40
0.375000000000077
40
0.375000000000077
40
0.43750000000007
40
0.43750000000007
40
0.500000000000062
40
0.500000000000062
40
0.625000000000046
40
0.625000000000046
40
0.687500000000039
40
0.687500000000039
40
0.750000000000031
40
0.750000000000031
40
0.812500000000023
40
0.812500000000023
40
0.875000000000015
40
0.875000000000015
40
0.937500000000008
40
0.937500000000008
40
1
40
1
40
1
40
1
41
1
10
64.6397565932352
20
-4.19860841691349
30
0
41
1
10
64.6507130049129
20
-4.17965141863596
30
0
41
1
10
64.6634856336132
20
-4.16316576315137
30
0
41
1
10
64.6846975427666
20
-4.14120468167079
30
0
41
1
10
64.6921188820701
20
-4.13435785663745
30
0
41
1
10
64.7076238164312
20
-4.12155962482399
30
0
41
1
10
64.715628405846
20
-4.11567734954895
30
0
41
1
10
64.7401144621768
20
-4.09959749279034
30
0
41
1
10
64.7571536354156
20
-4.09087067877451
30
0
41
1
10
64.783685659514
20
-4.08057963406864
30
0
41
1
10
64.7927246857058
20
-4.07761316770728
30
0
41
1
10
64.8109915063263
20
-4.07269203683842
30
0
41
1
10
64.8201586220518
20
-4.07074986482078
30
0
41
1
10
64.847747731488
20
-4.0664620493279
30
0
41
1
10
64.8662566618664
20
-4.06562973290235
30
0
41
1
10
64.8941582780942
20
-4.06776812455451
30
0
41
1
10
64.9035340430389
20
-4.06906452818569
30
0
41
1
10
64.9219916773656
20
-4.07287187605203
30
0
41
1
10
64.9310835655182
20
-4.07537540557007
30
0
41
1
10
64.9489626359145
20
-4.08168019398292
30
0
41
1
10
64.957750145929
20
-4.08548001898029
30
0
41
1
10
64.9749698039757
20
-4.09456491192327
30
0
41
1
10
64.9834103956471
20
-4.09987187055222
30
0
41
1
10
64.9993687984085
20
-4.11187631410348
30
0
41
1
10
65.0069502924986
20
-4.11860004443653
30
0
41
1
10
65.0211925166984
20
-4.13371979465069
30
0
41
1
10
65.0278710723567
20
-4.14216024385388
30
0
41
1
10
65.0338170704651
20
-4.15136693340887
30
0
0
SPLINE
5
112
100
AcDbEntity
8
1
62
256
6
ByLayer
370
18
48
1
60
0
100
AcDbSpline
70
4
71
3
72
12
73
8
40
0
40
0
40
0
40
0
40
0.500000000000001
40
0.500000000000001
40
0.75
40
0.75
40
1
40
1
40
1
40
1
41
1
10
65.033817070465
20
-4.15136693340929
30
0
41
1
10
65.1194308319765
20
-4.28392992947693
30
0
41
1
10
65.2044412211989
20
-4.41326952171587
30
0
41
1
10
65.3309897374062
20
-4.6018220389283
30
0
41
1
10
65.373008447588
20
-4.66375963850996
30
0
41
1
10
65.4566600327598
20
-4.78564306679064
30
0
41
1
10
65.4983086607092
20
-4.84561253566446
30
0
41
1
10
65.5398060186685
20
-4.90460420733081
30
0
0
SPLINE
5
113
100
AcDbEntity
8
1
62
256
6
ByLayer
370
18
48
1
60
0
100
AcDbSpline
70
4
71
3
72
8
73
4
40
0
40
0
40
0
40
0
40
1
40
1
40
1
40
1
41
1
10
65.6922907958489
20
-4.86363857253147
30
0
41
1
10
65.6414881594027
20
-4.87804371426847
30
0
41
1
10
65.5906677859194
20
-4.89169971106438
30
0
41
1
10
65.5398060186684
20
-4.90460420733092
30
0
0
SPLINE
5
114
100
AcDbEntity
8
1
62
256
6
ByLayer
370
18
48
1
60
0
100
AcDbSpline
70
4
71
3
72
14
73
10
40
0
40
0
40
0
40
0
40
0.25
40
0.25
40
0.5
40
0.5
40
0.75
40
0.75
40
1
40
1
40
1
40
1
41
1
10
65.6922907958481
20
-4.86363857251374
30
0
41
1
10
65.7349766230012
20
-4.78196825056628
30
0
41
1
10
65.777841910281
20
-4.69971951862718
30
0
41
1
10
65.8639311747212
20
-4.53423942999223
30
0
41
1
10
65.9071521462442
20
-4.45101385803605
30
0
41
1
10
65.994047527672
20
-4.28359089284734
30
0
41
1
10
66.0376956677922
20
-4.1994474196255
30
0
41
1
10
66.1253309616349
20
-4.03053221268686
30
0
41
1
10
66.1693319529774
20
-3.94573173169559
30
0
41
1
10
66.2135528906337
20
-3.86060000234005
30
0
0
SPLINE
5
115
100
AcDbEntity
8
1
62
256
6
ByLayer
370
18
48
1
60
0
100
AcDbSpline
70
4
71
3
72
32
73
28
40
0
40
0
40
0
40
0
40
0.125000000000092
40
0.125000000000092
40
0.187500000000116
40
0.187500000000116
40
0.250000000000141
40
0.250000000000141
40
0.375000000000191
40
0.375000000000191
40
0.437500000000189
40
0.437500000000189
40
0.500000000000188
40
0.500000000000188
40
0.625000000000182
40
0.625000000000182
40
0.687500000000151
40
0.687500000000151
40
0.750000000000121
40
0.750000000000121
40
0.81250000000009
40
0.81250000000009
40
0.875000000000059
40
0.875000000000059
40
0.937500000000029
40
0.937500000000029
40
1
40
1
40
1
40
1
41
1
10
66.2135528906337
20
-3.86060000234005
30
0
41
1
10
66.2245166380277
20
-3.83949319580583
30
0
41
1
10
66.2372973738243
20
-3.82037588778468
30
0
41
1
10
66.2585211460063
20
-3.79393249609873
30
0
41
1
10
66.265946418446
20
-3.78549988973026
30
0
41
1
10
66.2814591415049
20
-3.76935628009824
30
0
41
1
10
66.2894673833498
20
-3.7617314973007
30
0
41
1
10
66.3139635017764
20
-3.74027754079091
30
0
41
1
10
66.3310083103027
20
-3.72775506988182
30
0
41
1
10
66.3575471709227
20
-3.71145909589859
30
0
41
1
10
66.3665885207843
20
-3.70643115680426
30
0
41
1
10
66.3848575476425
20
-3.69730937104021
30
0
41
1
10
66.3940254906773
20
-3.69324157122341
30
0
41
1
10
66.4216162979591
20
-3.68249694493639
30
0
41
1
10
66.4401253725845
20
-3.67725514245967
30
0
41
1
10
66.4680250139265
20
-3.67258131526697
30
0
41
1
10
66.477399530443
20
-3.67156049017001
30
0
41
1
10
66.4958520329402
20
-3.67073844076808
30
0
41
1
10
66.5049411697199
20
-3.67092768213277
30
0
41
1
10
66.522814297754
20
-3.67260128731914
30
0
41
1
10
66.531598616855
20
-3.67408422254167
30
0
41
1
10
66.5488113615864
20
-3.67852937786424
30
0
41
1
10
66.5572483984178
20
-3.68151017088812
30
0
41
1
10
66.5731999395572
20
-3.6889944216654
30
0
41
1
10
66.5807780158542
20
-3.69350734309208
30
0
41
1
10
66.595013597171
20
-3.70431927305208
30
0
41
1
10
66.6016897206908
20
-3.71065627577914
30
0
41
1
10
66.6076343663449
20
-3.71788822142361
30
0
0
SPLINE
5
116
100
AcDbEntity
8
1
62
256
6
ByLayer
370
18
48
1
60
0
100
AcDbSpline
70
4
71
3
72
12
73
8
40
0
40
0
40
0
40
0
40
0.50000000000001
40
0.50000000000001
40
0.750000000000005
40
0.750000000000005
40
1
40
1
40
1
40
1
41
1
10
66.6076343663448
20
-3.71788822142474
30
0
41
1
10
66.6932350824374
20
-3.82202558501757
30
0
41
1
10
66.7782367650777
20
-3.92118446806802
30
0
41
1
10
66.9047919626315
20
-4.06206899013364
30
0
41
1
10
66.9468160806219
20
-4.1077189107782
30
0
41
1
10
67.0304877539503
20
-4.19629174847219
30
0
41
1
10
67.0721505961509
20
-4.23923192945321
30
0
41
1
10
67.1136660703176
20
-4.28082486450472
30
0
0
SPLINE
5
117
100
AcDbEntity
8
1
62
256
6
ByLayer
370
18
48
1
60
0
100
AcDbSpline
70
4
71
3
72
8
73
4
40
0
40
0
40
0
40
0
40
1
40
1
40
1
40
1
41
1
10
67.2662005950523
20
-4.19753294348996
30
0
41
1
10
67.2153746540375
20
-4.2259530541634
30
0
41
1
10
67.1645311409217
20
-4.25371672552933
30
0
41
1
10
67.1136660703175
20
-4.28082486450481
30
0
0
SPLINE
5
118
100
AcDbEntity
8
1
62
256
6
ByLayer
370
18
48
1
60
0
100
AcDbSpline
70
4
71
3
72
12
73
8
40
0
40
0
40
0
40
0
40
0.545935553775913
40
0.545935553775913
40
0.818903330663869
40
0.818903330663869
40
1
40
1
40
1
40
1
41
1
10
67.2662005950519
20
-4.19753294348206
30
0
41
1
10
67.3516954275891
20
-4.02357274551406
30
0
41
1
10
67.4378446143502
20
-3.84963918323541
30
0
41
1
10
67.5680774766162
20
-3.58969811189485
30
0
41
1
10
67.6116772213495
20
-3.50316459435197
30
0
41
1
10
67.6844657800697
20
-3.35973659826047
30
0
41
1
10
67.7135747569527
20
-3.30265632396973
30
0
41
1
10
67.7427735808473
20
-3.24570661443292
30
0
0
SPLINE
5
119
100
AcDbEntity
8
1
62
256
6
ByLayer
370
18
48
1
60
0
100
AcDbSpline
70
4
71
3
72
8
73
4
40
0
40
0
40
0
40
0
40
1
40
1
40
1
40
1
41
1
10
74.7852763559869
20
-0.815114587871392
30
0
41
1
10
74.7112885454225
20
-0.813295128863871
30
0
41
1
10
74.6376155392727
20
-0.805761535515188
30
0
41
1
10
74.5643346344152
20
-0.792785685610966
30
0
0
SPLINE
5
11A
100
AcDbEntity
8
1
62
256
6
ByLayer
370
18
48
1
60
0
100
AcDbSpline
70
4
71
3
72
12
73
8
40
0
40
0
40
0
40
0
40
0.499999999999982
40
0.499999999999982
40
0.749999999999991
40
0.749999999999991
40
1
40
1
40
1
40
1
41
1
10
74.5643346344153
20
-0.792785685611051
30
0
41
1
10
74.4592888502564
20
-0.710712008538735
30
0
41
1
10
74.3544508092884
20
-0.626685550679781
30
0
41
1
10
74.1973427605137
20
-0.497827475829098
30
0
41
1
10
74.1450713825536
20
-0.454464258573665
30
0
41
1
10
74.0409986065183
20
-0.367198783942115
30
0
41
1
10
73.989151596256
20
-0.323259125043876
30
0
41
1
10
73.9374794720245
20
-0.279027325078545
30
0
0
SPLINE
5
11B
100
AcDbEntity
8
1
62
256
6
ByLayer
370
18
48
1
60
0
100
AcDbSpline
70
4
71
3
72
10
73
6
40
0
40
0
40
0
40
0
40
0.5
40
0.5
40
1
40
1
40
1
40
1
41
1
10
73.9374794720246
20
-0.279027325078545
30
0
41
1
10
73.8826346034469
20
-0.200917942847156
30
0
41
1
10
73.8275159073672
20
-0.1251648077629
30
0
41
1
10
73.7169264015878
20
0.021061134712852
30
0
41
1
10
73.6614197446477
20
0.0915872725490203
30
0
41
1
10
73.6056316253131
20
0.15944683176798
30
0
0
SPLINE
5
11C
100
AcDbEntity
8
1
62
256
6
ByLayer
370
18
48
1
60
0
100
AcDbSpline
70
4
71
3
72
30
73
26
40
0
40
0
40
0
40
0
40
0.125000000000022
40
0.125000000000022
40
0.250000000000044
40
0.250000000000044
40
0.375000000000066
40
0.375000000000066
40
0.437500000000076
40
0.437500000000076
40
0.500000000000087
40
0.500000000000087
40
0.625000000000108
40
0.625000000000108
40
0.68750000000009
40
0.68750000000009
40
0.750000000000072
40
0.750000000000072
40
0.812500000000054
40
0.812500000000054
40
0.875000000000036
40
0.875000000000036
40
0.937500000000018
40
0.937500000000018
40
1
40
1
40
1
40
1
41
1
10
73.605631625313
20
0.159446831768179
30
0
41
1
10
73.5950577936312
20
0.172308630404586
30
0
41
1
10
73.5827806971345
20
0.185913216084458
30
0
41
1
10
73.555565663385
20
0.214232863218683
30
0
41
1
10
73.5404864548249
20
0.22906760887372
30
0
41
1
10
73.5088159988726
20
0.258865136057722
30
0
41
1
10
73.4921530729983
20
0.273911943335719
30
0
41
1
10
73.465970467326
20
0.296735137873497
30
0
41
1
10
73.4570398499438
20
0.304386569691559
30
0
41
1
10
73.4390879959591
20
0.319519799045793
30
0
41
1
10
73.4300290227118
20
0.327034928672333
30
0
41
1
10
73.4026109238003
20
0.349438707668327
30
0
41
1
10
73.3840145264821
20
0.364187449052167
30
0
41
1
10
73.3556152809813
20
0.386053073524465
30
0
41
1
10
73.3460596081292
20
0.393299756921635
30
0
41
1
10
73.3272280144143
20
0.407363756103905
30
0
41
1
10
73.3178976811247
20
0.41422365617936
30
0
41
1
10
73.2994381441181
20
0.427571922445878
30
0
41
1
10
73.2902814503893
20
0.434079742344068
30
0
41
1
10
73.2723312034381
20
0.446583478397571
30
0
41
1
10
73.2636828023349
20
0.452479129987921
30
0
41
1
10
73.2471236670741
20
0.463479454339534
30
0
41
1
10
73.2391786718001
20
0.468606116910792
30
0
41
1
10
73.2243241558938
20
0.477816094473439
30
0
41
1
10
73.2175360427935
20
0.481825765396422
30
0
41
1
10
73.2114696318988
20
0.485156579918595
30
0
0
SPLINE
5
11D
100
AcDbEntity
8
1
62
256
6
ByLayer
370
18
48
1
60
0
100
AcDbSpline
70
4
71
3
72
12
73
8
40
0
40
0
40
0
40
0
40
0.499999999999999
40
0.499999999999999
40
0.749999999999999
40
0.749999999999999
40
1
40
1
40
1
40
1
41
1
10
66.9161974119494
20
4.12221036493159
30
0
41
1
10
66.8313946359109
20
4.26900013768599
30
0
41
1
10
66.747010690562
20
4.41599742272979
30
0
41
1
10
66.6212147821325
20
4.63600993965144
30
0
41
1
10
66.5794094255326
20
4.70927191721074
30
0
41
1
10
66.4961365817984
20
4.85540052664322
30
0
41
1
10
66.4546517852067
20
4.92829740144239
30
0
41
1
10
66.4132956286377
20
5.00101849706016
30
0
0
SPLINE
5
11E
100
AcDbEntity
8
1
62
256
6
ByLayer
370
18
48
1
60
0
100
AcDbSpline
70
4
71
3
72
10
73
6
40
0
40
0
40
0
40
0
40
0.5
40
0.5
40
1
40
1
40
1
40
1
41
1
10
66.2613935281782
20
5.02378504643991
30
0
41
1
10
66.1751017897984
20
4.90115818068651
30
0
41
1
10
66.088318091788
20
4.77306735174128
30
0
41
1
10
65.9132785127761
20
4.50584521624913
30
0
41
1
10
65.8252869478054
20
4.36711056662688
30
0
41
1
10
65.7365529757445
20
4.22318548236257
30
0
0
SPLINE
5
11F
100
AcDbEntity
8
1
62
256
6
ByLayer
370
18
48
1
60
0
100
AcDbSpline
70
4
71
3
72
30
73
26
40
0
40
0
40
0
40
0
40
0.125000000000012
40
0.125000000000012
40
0.250000000000023
40
0.250000000000023
40
0.375000000000035
40
0.375000000000035
40
0.437500000000014
40
0.437500000000014
40
0.499999999999994
40
0.499999999999994
40
0.624999999999953
40
0.624999999999953
40
0.68749999999996
40
0.68749999999996
40
0.749999999999968
40
0.749999999999968
40
0.812499999999976
40
0.812499999999976
40
0.874999999999984
40
0.874999999999984
40
0.937499999999992
40
0.937499999999992
40
1
40
1
40
1
40
1
41
1
10
65.7365529757445
20
4.22318548236257
30
0
41
1
10
65.7259682523336
20
4.20601723018751
30
0
41
1
10
65.7136749362754
20
4.19111352919288
30
0
41
1
10
65.6864200984031
20
4.16479502248219
30
0
41
1
10
65.6713158161787
20
4.15335017519342
30
0
41
1
10
65.6395968493159
20
4.1343539983902
30
0
41
1
10
65.62291014052
20
4.12670260551778
30
0
41
1
10
65.5966959780863
20
4.11794668388757
30
0
41
1
10
65.5877582584102
20
4.11549240235055
30
0
41
1
10
65.5697952438633
20
4.11159860380386
30
0
41
1
10
65.5607321088443
20
4.11014501619684
30
0
41
1
10
65.5333059417098
20
4.10729230159569
30
0
41
1
10
65.5147098052908
20
4.10737126913054
30
0
41
1
10
65.4863228113416
20
4.1110150762276
30
0
41
1
10
65.4767820938037
20
4.1128332541474
30
0
41
1
10
65.4579802904319
20
4.11770713720682
30
0
41
1
10
65.4486653127727
20
4.12076679898629
30
0
41
1
10
65.4302367848494
20
4.12827991440454
30
0
41
1
10
65.4210933822305
20
4.13274864253307
30
0
41
1
10
65.4031810185224
20
4.14327164634159
30
0
41
1
10
65.394550291042
20
4.14924018870607
30
0
41
1
10
65.3780234905948
20
4.16276343249461
30
0
41
1
10
65.3700931924706
20
4.17035271365515
30
0
41
1
10
65.35526432723
20
4.18728570949474
30
0
41
1
10
65.3484857985262
20
4.196481710017
30
0
41
1
10
65.3424258864466
20
4.2065049936061
30
0
0
SPLINE
5
120
100
AcDbEntity
8
1
62
256
6
ByLayer
370
18
48
1
60
0
100
AcDbSpline
70
4
71
3
72
12
73
8
40
0
40
0
40
0
40
0
40
0.5
40
0.5
40
0.75
40
0.75
40
1
40
1
40
1
40
1
41
1
10
65.3424258864466
20
4.2065049936061
30
0
41
1
10
65.2577369090061
20
4.34658320375473
30
0
41
1
10
65.1734706575973
20
4.48458352434113
30
0
41
1
10
65.0478510588427
20
4.68786792643755
30
0
41
1
10
65.006104144302
20
4.75501485223435
30
0
41
1
10
64.9229467272289
20
4.88787902465288
30
0
41
1
10
64.8815187225155
20
4.95362464128186
30
0
41
1
10
64.8402175745665
20
5.01868660882948
30
0
0
SPLINE
5
121
100
AcDbEntity
8
1
62
256
6
ByLayer
370
18
48
1
60
0
100
AcDbSpline
70
4
71
3
72
8
73
4
40
0
40
0
40
0
40
0
40
1
40
1
40
1
40
1
41
1
10
64.6874945802368
20
4.99470445127565
30
0
41
1
10
64.7384154920009
20
5.0034521496847
30
0
41
1
10
64.7893193664106
20
5.01144641298472
30
0
41
1
10
64.8402175745665
20
5.01868660882943
30
0
0
SPLINE
5
122
100
AcDbEntity
8
1
62
256
6
ByLayer
370
18
48
1
60
0
100
AcDbSpline
70
4
71
3
72
10
73
6
40
0
40
0
40
0
40
0
40
0.5
40
0.5
40
1
40
1
40
1
40
1
41
1
10
64.6874945802368
20
4.99470445127565
30
0
41
1
10
64.6011778272839
20
4.83662677656858
30
0
41
1
10
64.514370991589
20
4.67508324625064
30
0
41
1
10
64.3393318362772
20
4.34514635711807
30
0
41
1
10
64.2513723294142
20
4.17726680494141
30
0
41
1
10
64.1627244581415
20
4.00648636215388
30
0
0
SPLINE
5
123
100
AcDbEntity
8
1
62
256
6
ByLayer
370
18
48
1
60
0
100
AcDbSpline
70
4
71
3
72
30
73
26
40
0
40
0
40
0
40
0
40
0.125000000000082
40
0.125000000000082
40
0.250000000000164
40
0.250000000000164
40
0.375000000000246
40
0.375000000000246
40
0.437500000000261
40
0.437500000000261
40
0.500000000000276
40
0.500000000000276
40
0.62500000000025
40
0.62500000000025
40
0.687500000000209
40
0.687500000000209
40
0.750000000000167
40
0.750000000000167
40
0.812500000000125
40
0.812500000000125
40
0.875000000000083
40
0.875000000000083
40
0.937500000000042
40
0.937500000000042
40
1
40
1
40
1
40
1
41
1
10
64.1627244581416
20
4.00648636215399
30
0
41
1
10
64.1521392656235
20
3.98609395070338
30
0
41
1
10
64.1398480057171
20
3.96764859413219
30
0
41
1
10
64.1126042494927
20
3.93376328363291
30
0
41
1
10
64.0975100684382
20
3.91825850321055
30
0
41
1
10
64.0658144377513
20
3.89093627179497
30
0
41
1
10
64.0491406394217
20
3.87899741567537
30
0
41
1
10
64.0229454035151
20
3.86361543950815
30
0
41
1
10
64.0140133611383
20
3.85891938026947
30
0
41
1
10
63.9960600454366
20
3.85055004138849
30
0
41
1
10
63.9870010729999
20
3.84685313741028
30
0
41
1
10
63.959584936216
20
3.83724952643473
30
0
41
1
10
63.9409922236946
20
3.83280069256324
30
0
41
1
10
63.9126038445847
20
3.82958505052113
30
0
41
1
10
63.9030565512307
20
3.82910615608921
30
0
41
1
10
63.8842402574406
20
3.82946824900489
30
0
41
1
10
63.8749171134398
20
3.83029992725361
30
0
41
1
10
63.8564706315946
20
3.83341646777294
30
0
41
1
10
63.8473186442146
20
3.83570904859192
30
0
41
1
10
63.8293821551658
20
3.84197992082954
30
0
41
1
10
63.8207394446342
20
3.84590431145713
30
0
41
1
10
63.8041895888438
20
3.85552065108752
30
0
41
1
10
63.7962480047551
20
3.86123921297406
30
0
41
1
10
63.7813992229616
20
3.87468262262146
30
0
41
1
10
63.7746125367207
20
3.88228757565068
30
0
41
1
10
63.7685464085415
20
3.89089503825065
30
0
0
SPLINE
5
124
100
AcDbEntity
8
1
62
256
6
ByLayer
370
18
48
1
60
0
100
AcDbSpline
70
4
71
3
72
12
73
8
40
0
40
0
40
0
40
0
40
0.49999999999999
40
0.49999999999999
40
0.749999999999995
40
0.749999999999995
40
1
40
1
40
1
40
1
41
1
10
63.7685464085415
20
3.8908950382507
30
0
41
1
10
63.6838146892572
20
4.01112413384951
30
0
41
1
10
63.59950075052
20
4.12717554087371
30
0
41
1
10
63.4738159783327
20
4.29460229978105
30
0
41
1
10
63.4320483377667
20
4.34930706868283
30
0
41
1
10
63.3488527563886
20
4.45637713326957
30
0
41
1
10
63.3074070818119
20
4.50876618302408
30
0
41
1
10
63.2660896021587
20
4.56002586292891
30
0
0
SPLINE
5
125
100
AcDbEntity
8
1
62
256
6
ByLayer
370
18
48
1
60
0
100
AcDbSpline
70
4
71
3
72
8
73
4
40
0
40
0
40
0
40
0
40
1
40
1
40
1
40
1
41
1
10
63.1141718286077
20
4.4918127840557
30
0
41
1
10
63.1648246998039
20
4.51522757191773
30
0
41
1
10
63.2154602334344
20
4.53796661561231
30
0
41
1
10
63.2660896021587
20
4.56002586292888
30
0
0
SPLINE
5
126
100
AcDbEntity
8
1
62
256
6
ByLayer
370
18
48
1
60
0
100
AcDbSpline
70
4
71
3
72
10
73
6
40
0
40
0
40
0
40
0
40
0.5
40
0.5
40
1
40
1
40
1
40
1
41
1
10
63.1141718286077
20
4.4918127840557
30
0
41
1
10
63.0278021103895
20
4.31333717932296
30
0
41
1
10
62.9409156419371
20
4.13372548321496
30
0
41
1
10
62.7657201166857
20
3.77243030847788
30
0
41
1
10
62.6776845239503
20
3.59130710650268
30
0
41
1
10
62.588981975067
20
3.40980100084653
30
0
0
SPLINE
5
127
100
AcDbEntity
8
1
62
256
6
ByLayer
370
18
48
1
60
0
100
AcDbSpline
70
4
71
3
72
12
73
8
40
0
40
0
40
0
40
0
40
0.351323400407881
40
0.351323400407881
40
0.702646800815761
40
0.702646800815761
40
1
40
1
40
1
40
1
41
1
10
62.5889819750671
20
3.40980100084656
30
0
41
1
10
62.5783730787944
20
3.38809272445525
30
0
41
1
10
62.566052542218
20
3.36783551631882
30
0
41
1
10
62.5387454241372
20
3.32956990461776
30
0
41
1
10
62.5236045172728
20
3.31145794971985
30
0
41
1
10
62.4943598276578
20
3.2810191216029
30
0
41
1
10
62.4803948925031
20
3.26812501091425
30
0
41
1
10
62.4658994349055
20
3.25625171982125
30
0
0
SPLINE
5
128
100
AcDbEntity
8
1
62
256
6
ByLayer
370
18
48
1
60
0
100
AcDbSpline
70
4
71
3
72
32
73
28
40
0
40
0
40
0
40
0
40
0.124999999999966
40
0.124999999999966
40
0.187499999999948
40
0.187499999999948
40
0.24999999999993
40
0.24999999999993
40
0.374999999999943
40
0.374999999999943
40
0.437499999999949
40
0.437499999999949
40
0.499999999999955
40
0.499999999999955
40
0.624999999999966
40
0.624999999999966
40
0.687499999999972
40
0.687499999999972
40
0.749999999999977
40
0.749999999999977
40
0.812499999999983
40
0.812499999999983
40
0.874999999999989
40
0.874999999999989
40
0.937499999999994
40
0.937499999999994
40
1
40
1
40
1
40
1
41
1
10
67.2625562402271
20
-0.416941433490962
30
0
41
1
10
67.2735364270426
20
-0.427165096756028
30
0
41
1
10
67.2863365054177
20
-0.438597298182657
30
0
41
1
10
67.3075867100338
20
-0.457075328425162
30
0
41
1
10
67.3150204318919
20
-0.46346287068198
30
0
41
1
10
67.3305484088089
20
-0.476670398901632
30
0
41
1
10
67.3385598197411
20
-0.483419753784716
30
0
41
1
10
67.3630673558347
20
-0.503905127182605
30
0
41
1
10
67.3801162383016
20
-0.517946836579569
30
0
41
1
10
67.4066542307671
20
-0.539587224772077
30
0
41
1
10
67.4156938740741
20
-0.546923346160668
30
0
41
1
10
67.4339581228394
20
-0.561690093192055
30
0
41
1
10
67.4431231602051
20
-0.569072877363794
30
0
41
1
10
67.4707034763325
20
-0.591235007355436
30
0
41
1
10
67.4892031689493
20
-0.606027141376842
30
0
41
1
10
67.5170855042355
20
-0.628313710641208
30
0
41
1
10
67.5264536387283
20
-0.635800699820152
30
0
41
1
10
67.5449005370486
20
-0.650560640440574
30
0
41
1
10
67.5539874105767
20
-0.657840117085016
30
0
41
1
10
67.5718574720547
20
-0.672191681434327
30
0
41
1
10
67.5806410154177
20
-0.679263966782315
30
0
41
1
10
67.5978543379297
20
-0.693178522134559
30
0
41
1
10
67.606296734623
20
-0.700031635291623
30
0
41
1
10
67.6222627232807
20
-0.713064121348793
30
0
41
1
10
67.6298493359207
20
-0.719294355477103
30
0
41
1
10
67.6441038831037
20
-0.731089942996363
30
0
41
1
10
67.6507921645783
20
-0.736673081374818
30
0
41
1
10
67.6567488819488
20
-0.741699934237147
30
0
0
SPLINE
5
129
100
AcDbEntity
8
1
62
256
6
ByLayer
370
18
48
1
60
0
100
AcDbSpline
70
4
71
3
72
12
73
8
40
0
40
0
40
0
40
0
40
0.499999999999999
40
0.499999999999999
40
0.75
40
0.75
40
1
40
1
40
1
40
1
41
1
10
67.6567488819487
20
-0.741699934235044
30
0
41
1
10
67.7423775892408
20
-0.813961699494712
30
0
41
1
10
67.8274115017929
20
-0.892541553728989
30
0
41
1
10
67.9540316531017
20
-1.01928455796093
30
0
41
1
10
67.9960798129457
20
-1.06300813066522
30
0
41
1
10
68.0798082173494
20
-1.15324273862987
30
0
41
1
10
68.1215034281992
20
-1.19976707143255
30
0
41
1
10
68.1630563427292
20
-1.24767025573883
30
0
0
SPLINE
5
12A
100
AcDbEntity
8
1
62
256
6
ByLayer
370
18
48
1
60
0
100
AcDbSpline
70
4
71
3
72
12
73
8
40
0
40
0
40
0
40
0
40
0.500000000000001
40
0.500000000000001
40
0.75
40
0.75
40
1
40
1
40
1
40
1
41
1
10
68.3162109731801
20
-1.39454225157962
30
0
41
1
10
68.4015052413126
20
-1.4559472636906
30
0
41
1
10
68.4874854652869
20
-1.510130453492
30
0
41
1
10
68.6174961624435
20
-1.58019847081823
30
0
41
1
10
68.6610257711143
20
-1.60169856563911
30
0
41
1
10
68.7483764232777
20
-1.64087196833614
30
0
41
1
10
68.7922154851107
20
-1.65855378255787
30
0
41
1
10
68.8362552174805
20
-1.6742985943483
30
0
0
SPLINE
5
12B
100
AcDbEntity
8
1
62
256
6
ByLayer
370
18
48
1
60
0
100
AcDbSpline
70
4
71
3
72
32
73
28
40
0
40
0
40
0
40
0
40
0.12500000000002
40
0.12500000000002
40
0.187500000000052
40
0.187500000000052
40
0.250000000000085
40
0.250000000000085
40
0.375000000000099
40
0.375000000000099
40
0.437500000000107
40
0.437500000000107
40
0.500000000000114
40
0.500000000000114
40
0.625000000000129
40
0.625000000000129
40
0.687500000000107
40
0.687500000000107
40
0.750000000000086
40
0.750000000000086
40
0.812500000000064
40
0.812500000000064
40
0.875000000000043
40
0.875000000000043
40
0.937500000000022
40
0.937500000000022
40
1
40
1
40
1
40
1
41
1
10
68.8362552174805
20
-1.6742985943483
30
0
41
1
10
68.8472285542542
20
-1.67822171360714
30
0
41
1
10
68.860022360765
20
-1.68405432806804
30
0
41
1
10
68.8812660720998
20
-1.69491784957796
30
0
41
1
10
68.8886981116036
20
-1.69890148607999
30
0
41
1
10
68.9042239329227
20
-1.70755502529599
30
0
41
1
10
68.9122369829662
20
-1.7121809029405
30
0
41
1
10
68.9367472081419
20
-1.72676063039722
30
0
41
1
10
68.9537989888656
20
-1.73745607861659
30
0
41
1
10
68.9803435118693
20
-1.75490362903071
30
0
41
1
10
68.989386290828
20
-1.76097804274065
30
0
41
1
10
69.0076549632184
20
-1.77352365485118
30
0
41
1
10
69.0168222389667
20
-1.77995374510545
30
0
41
1
10
69.0444091604447
20
-1.7997257575187
30
0
41
1
10
69.0629129683658
20
-1.8135408954744
30
0
41
1
10
69.0908020100395
20
-1.83538741479754
30
0
41
1
10
69.1001723235169
20
-1.84290208011441
30
0
41
1
10
69.1186164490172
20
-1.85809173828912
30
0
41
1
10
69.1277016554134
20
-1.86577315777089
30
0
41
1
10
69.1455675480729
20
-1.8813333769431
30
0
41
1
10
69.1543485590079
20
-1.88921197220907
30
0
41
1
10
69.1715554874563
20
-1.90520290672669
30
0
41
1
10
69.1799914660442
20
-1.91333059757983
30
0
41
1
10
69.1959433621792
20
-1.92937014615811
30
0
41
1
10
69.2035225479188
20
-1.93733843819197
30
0
41
1
10
69.217762173754
20
-1.95315430023294
30
0
41
1
10
69.2244423285478
20
-1.96103246166382
30
0
41
1
10
69.2303920539039
20
-1.96861759734813
30
0
0
SPLINE
5
12C
100
AcDbEntity
8
1
62
256
6
ByLayer
370
18
48
1
60
0
100
AcDbSpline
70
4
71
3
72
12
73
8
40
0
40
0
40
0
40
0
40
0.50000000000001
40
0.50000000000001
40
0.750000000000005
40
0.750000000000005
40
1
40
1
40
1
40
1
41
1
10
69.2303920539038
20
-1.96861759734625
30
0
41
1
10
69.3162113133934
20
-2.07802613111664
30
0
41
1
10
69.4014029111454
20
-2.19274052374462
30
0
41
1
10
69.5282014436194
20
-2.37194214870325
30
0
41
1
10
69.5703001249898
20
-2.43285137673578
30
0
41
1
10
69.654121847443
20
-2.55674976817372
30
0
41
1
10
69.6958615269161
20
-2.61975518606872
30
0
41
1
10
69.7374586518725
20
-2.6837792298098
30
0
0
SPLINE
5
12D
100
AcDbEntity
8
1
62
256
6
ByLayer
370
18
48
1
60
0
100
AcDbSpline
70
4
71
3
72
12
73
8
40
0
40
0
40
0
40
0
40
0.25
40
0.25
40
0.5
40
0.5
40
1
40
1
40
1
40
1
41
1
10
69.8888986419174
20
-2.810771500485
30
0
41
1
10
69.931585531768
20
-2.81540843780019
30
0
41
1
10
69.9744673180131
20
-2.81813566992469
30
0
41
1
10
70.0605853289202
20
-2.81974615004643
30
0
41
1
10
70.1038218630229
20
-2.81863096315217
30
0
41
1
10
70.2341527839059
20
-2.80949134159235
30
0
41
1
10
70.3216434154238
20
-2.79571267050156
30
0
41
1
10
70.409976612696
20
-2.774063103419
30
0
0
SPLINE
5
12E
100
AcDbEntity
8
1
62
256
6
ByLayer
370
18
48
1
60
0
100
AcDbSpline
70
4
71
3
72
32
73
28
40
0
40
0
40
0
40
0
40
0.125000000000019
40
0.125000000000019
40
0.187500000000005
40
0.187500000000005
40
0.249999999999992
40
0.249999999999992
40
0.374999999999964
40
0.374999999999964
40
0.43749999999995
40
0.43749999999995
40
0.499999999999937
40
0.499999999999937
40
0.624999999999909
40
0.624999999999909
40
0.687499999999925
40
0.687499999999925
40
0.74999999999994
40
0.74999999999994
40
0.812499999999955
40
0.812499999999955
40
0.87499999999997
40
0.87499999999997
40
0.937499999999985
40
0.937499999999985
40
1
40
1
40
1
40
1
41
1
10
70.409976612696
20
-2.774063103419
30
0
41
1
10
70.4209624472472
20
-2.77137058724816
30
0
41
1
10
70.4337720496122
20
-2.7711186871928
30
0
41
1
10
70.4550420588345
20
-2.77344820006604
30
0
41
1
10
70.4624833433899
20
-2.77468860801821
30
0
41
1
10
70.4780285961423
20
-2.77804689365988
30
0
41
1
10
70.4860534152103
20
-2.78014983586894
30
0
41
1
10
70.5105938828207
20
-2.78756215683626
30
0
41
1
10
70.5276634522159
20
-2.79397967010499
30
0
41
1
10
70.5542306387221
20
-2.80570465729656
30
0
41
1
10
70.5632814650174
20
-2.8099836297983
30
0
41
1
10
70.5815577611432
20
-2.81920112494041
30
0
41
1
10
70.5907278924285
20
-2.82410964832849
30
0
41
1
10
70.6183205748853
20
-2.83973721385348
30
0
41
1
10
70.6368245556337
20
-2.85134286463625
30
0
41
1
10
70.6647073627831
20
-2.87078932868283
30
0
41
1
10
70.6740732823458
20
-2.87765535182152
30
0
41
1
10
70.6924957852392
20
-2.89190020408461
30
0
41
1
10
70.7015693983089
20
-2.89928652290686
30
0
41
1
10
70.7194105060647
20
-2.91463849122928
30
0
41
1
10
70.7281783269233
20
-2.92260351596374
30
0
41
1
10
70.7453571972422
20
-2.93920297022351
30
0
41
1
10
70.7537755332663
20
-2.94785500636473
30
0
41
1
10
70.7696925612291
20
-2.96541308044453
30
0
41
1
10
70.7772544680101
20
-2.97437596264717
30
0
41
1
10
70.7914606476612
20
-2.99272655890763
30
0
41
1
10
70.798124938951
20
-3.00215552760841
30
0
41
1
10
70.8040619077296
20
-3.01157860647049
30
0
0
SPLINE
5
12F
100
AcDbEntity
8
1
62
256
6
ByLayer
370
18
48
1
60
0
100
AcDbSpline
70
4
71
3
72
12
73
8
40
0
40
0
40
0
40
0
40
0.500000000000009
40
0.500000000000009
40
0.750000000000005
40
0.750000000000005
40
1
40
1
40
1
40
1
41
1
10
70.8040619077295
20
-3.0115786064691
30
0
41
1
10
70.8896501504137
20
-3.14742314103907
30
0
41
1
10
70.9746318904293
20
-3.28668094485241
30
0
41
1
10
71.1011432562534
20
-3.49991442936869
30
0
41
1
10
71.1431503049512
20
-3.57170896103099
30
0
41
1
10
71.2267772918843
20
-3.71650345059905
30
0
41
1
10
71.2684125990754
20
-3.78953195946053
30
0
41
1
10
71.3098965950794
20
-3.86317342406423
30
0
0
SPLINE
5
130
100
AcDbEntity
8
1
62
256
6
ByLayer
370
18
48
1
60
0
100
AcDbSpline
70
4
71
3
72
12
73
8
40
0
40
0
40
0
40
0
40
0.250000000000004
40
0.250000000000004
40
0.500000000000008
40
0.500000000000008
40
1
40
1
40
1
40
1
41
1
10
71.4633976175169
20
-3.96100980269819
30
0
41
1
10
71.5060216734182
20
-3.93912219458099
30
0
41
1
10
71.5488385654031
20
-3.91538818272292
30
0
41
1
10
71.6348277315965
20
-3.86426618856834
30
0
41
1
10
71.678002070381
20
-3.83687864888475
30
0
41
1
10
71.8081564695095
20
-3.74922106874297
30
0
41
1
10
71.8955268420739
20
-3.68363421845515
30
0
41
1
10
71.9837783269467
20
-3.61081306228303
30
0
0
SPLINE
5
131
100
AcDbEntity
8
1
62
256
6
ByLayer
370
18
48
1
60
0
100
AcDbSpline
70
4
71
3
72
32
73
28
40
0
40
0
40
0
40
0
40
0.125000000000041
40
0.125000000000041
40
0.187500000000041
40
0.187500000000041
40
0.250000000000041
40
0.250000000000041
40
0.375000000000042
40
0.375000000000042
40
0.437500000000043
40
0.437500000000043
40
0.500000000000043
40
0.500000000000043
40
0.624999999999989
40
0.624999999999989
40
0.687499999999991
40
0.687499999999991
40
0.749999999999992
40
0.749999999999992
40
0.812499999999994
40
0.812499999999994
40
0.874999999999996
40
0.874999999999996
40
0.937499999999998
40
0.937499999999998
40
1
40
1
40
1
40
1
41
1
10
71.9837783269441
20
-3.61081306228002
30
0
41
1
10
71.9947572396312
20
-3.60175375731157
30
0
41
1
10
72.0075588582466
20
-3.5954262493272
30
0
41
1
10
72.0288168510046
20
-3.5889716966891
30
0
41
1
10
72.0362541152194
20
-3.58734033070149
30
0
41
1
10
72.0517915098508
20
-3.58506110498917
30
0
41
1
10
72.0598126477813
20
-3.58442793188962
30
0
41
1
10
72.0843430134479
20
-3.58393041223749
30
0
41
1
10
72.1014070864493
20
-3.5854349365971
30
0
41
1
10
72.1279684888496
20
-3.59028817359098
30
0
41
1
10
72.1370177809574
20
-3.59235297408375
30
0
41
1
10
72.1552921201795
20
-3.59734858698403
30
0
41
1
10
72.1644616067516
20
-3.60026113371555
30
0
41
1
10
72.19205328521
20
-3.61023858417505
30
0
41
1
10
72.2105578158361
20
-3.61852248737057
30
0
41
1
10
72.2384431316802
20
-3.63371501664909
30
0
41
1
10
72.2478102965812
20
-3.63928023547996
30
0
41
1
10
72.2662354022505
20
-3.65123931502183
30
0
41
1
10
72.2753103102465
20
-3.65763638650341
30
0
41
1
10
72.2931539277028
20
-3.6713397541362
30
0
41
1
10
72.3019229634989
20
-3.67864506386928
30
0
41
1
10
72.3191041105371
20
-3.69430047968115
30
0
41
1
10
72.3275233260173
20
-3.7026712722739
30
0
41
1
10
72.3434416822402
20
-3.72011445599992
30
0
41
1
10
72.3510040944434
20
-3.72923870280002
30
0
41
1
10
72.3652110873792
20
-3.74841888792574
30
0
41
1
10
72.3718756628251
20
-3.75852253102451
30
0
41
1
10
72.3778130054791
20
-3.76890632022148
30
0
0
SPLINE
5
132
100
AcDbEntity
8
1
62
256
6
ByLayer
370
18
48
1
60
0
100
AcDbSpline
70
4
71
3
72
12
73
8
40
0
40
0
40
0
40
0
40
0.499999999999991
40
0.499999999999991
40
0.749999999999995
40
0.749999999999995
40
1
40
1
40
1
40
1
41
1
10
72.377813005479
20
-3.76890632022057
30
0
41
1
10
72.455594918961
20
-3.90493872394194
30
0
41
1
10
72.532878677849
20
-4.04205223329598
30
0
41
1
10
72.6480054475646
20
-4.24870588108516
30
0
41
1
10
72.6862598103955
20
-4.31777530356814
30
0
41
1
10
72.7624436263648
20
-4.45603858540821
30
0
41
1
10
72.8003848808281
20
-4.5252534628014
30
0
41
1
10
72.8381953106377
20
-4.59454069283387
30
0
0
SPLINE
5
133
100
AcDbEntity
8
1
62
256
6
ByLayer
370
18
48
1
60
0
100
AcDbSpline
70
4
71
3
72
8
73
4
40
0
40
0
40
0
40
0
40
1
40
1
40
1
40
1
41
1
10
72.8381953106377
20
-4.59454069283387
30
0
41
1
10
72.9349790675197
20
-4.61032184515039
30
0
41
1
10
73.032160460297
20
-4.62300930038424
30
0
41
1
10
73.1297934016209
20
-4.63256090314422
30
0
0
SPLINE
5
134
100
AcDbEntity
8
1
62
256
6
ByLayer
370
18
48
1
60
0
100
AcDbSpline
70
4
71
3
72
12
73
8
40
0
40
0
40
0
40
0
40
0.250000000000004
40
0.250000000000004
40
0.500000000000009
40
0.500000000000009
40
1
40
1
40
1
40
1
41
1
10
73.1297934016209
20
-4.6325609031442
30
0
41
1
10
73.1649667725763
20
-4.59261199995908
30
0
41
1
10
73.2002388737613
20
-4.5516819272768
30
0
41
1
10
73.2710231283128
20
-4.46782959727781
30
0
41
1
10
73.3065492288916
20
-4.42488753404635
30
0
41
1
10
73.4134366362465
20
-4.29313954734783
30
0
41
1
10
73.4851349521172
20
-4.20136697598761
30
0
41
1
10
73.5574442367054
20
-4.10561063339108
30
0
0
SPLINE
5
135
100
AcDbEntity
8
1
62
256
6
ByLayer
370
18
48
1
60
0
100
AcDbSpline
70
4
71
3
72
32
73
28
40
0
40
0
40
0
40
0
40
0.124999999999966
40
0.124999999999966
40
0.187499999999947
40
0.187499999999947
40
0.249999999999929
40
0.249999999999929
40
0.374999999999942
40
0.374999999999942
40
0.437499999999948
40
0.437499999999948
40
0.499999999999954
40
0.499999999999954
40
0.624999999999966
40
0.624999999999966
40
0.687499999999972
40
0.687499999999972
40
0.749999999999978
40
0.749999999999978
40
0.812499999999983
40
0.812499999999983
40
0.874999999999989
40
0.874999999999989
40
0.937499999999994
40
0.937499999999994
40
1
40
1
40
1
40
1
41
1
10
73.5574442367054
20
-4.10561063339108
30
0
41
1
10
73.5684285190889
20
-4.09106458009944
30
0
41
1
10
73.5812349886272
20
-4.07928750379838
30
0
41
1
10
73.6024982042702
20
-4.06470186689427
30
0
41
1
10
73.6099368957234
20
-4.06036743777983
30
0
41
1
10
73.6254764287293
20
-4.05269513059307
30
0
41
1
10
73.633497210072
20
-4.04940041297365
30
0
41
1
10
73.6580276238687
20
-4.04108151490883
30
0
41
1
10
73.675091221168
20
-4.03755606866534
30
0
41
1
10
73.7016515987075
20
-4.0351119255121
30
0
41
1
10
73.7107002247221
20
-4.03477765336368
30
0
41
1
10
73.7289747974074
20
-4.03509772060983
30
0
41
1
10
73.7381445291343
20
-4.03574734283322
30
0
41
1
10
73.7657372800668
20
-4.03915385010546
30
0
41
1
10
73.7842429901243
20
-4.04334415570858
30
0
41
1
10
73.8121304844858
20
-4.05285685607774
30
0
41
1
10
73.8214987964682
20
-4.05659748765422
30
0
41
1
10
73.8399297654262
20
-4.06514458708943
30
0
41
1
10
73.8490076666562
20
-4.06994902001864
30
0
41
1
10
73.866857233386
20
-4.08070923766357
30
0
41
1
10
73.8756292255639
20
-4.08666377219848
30
0
41
1
10
73.8928160631647
20
-4.09989203451511
30
0
41
1
10
73.9012399438422
20
-4.10718929800603
30
0
41
1
10
73.9171672606867
20
-4.12286574961846
30
0
41
1
10
73.9247338442119
20
-4.131286600473
30
0
41
1
10
73.9389484060454
20
-4.14947671675074
30
0
41
1
10
73.9456174160326
20
-4.15929691953815
30
0
41
1
10
73.9515591643873
20
-4.16965723901845
30
0
0
SPLINE
5
136
100
AcDbEntity
8
1
62
256
6
ByLayer
370
18
48
1
60
0
100
AcDbSpline
70
4
71
3
72
8
73
4
40
0
40
0
40
0
40
0
40
1
40
1
40
1
40
1
41
1
10
73.9515591643873
20
-4.16965723901816
30
0
41
1
10
74.0361669711451
20
-4.31718349832951
30
0
41
1
10
74.1201820917092
20
-4.4638187744977
30
0
41
1
10
74.2035735154057
20
-4.60908837762969
30
0
0
SPLINE
5
137
100
AcDbEntity
8
1
62
256
6
ByLayer
370
18
48
1
60
0
100
AcDbSpline
70
4
71
3
72
8
73
4
40
0
40
0
40
0
40
0
40
1
40
1
40
1
40
1
41
1
10
74.2035735154057
20
-4.60908837762969
30
0
41
1
10
74.4657321124581
20
-4.57337893434217
30
0
41
1
10
74.7295022179225
20
-4.51688319129082
30
0
41
1
10
74.9956499395392
20
-4.43998865591973
30
0
0
SPLINE
5
138
100
AcDbEntity
8
1
62
256
6
ByLayer
370
18
48
1
60
0
100
AcDbSpline
70
4
71
3
72
8
73
4
40
0
40
0
40
0
40
0
40
1
40
1
40
1
40
1
41
1
10
74.9956499395391
20
-4.43998865591979
30
0
41
1
10
75.040651814961
20
-4.36503057727927
30
0
41
1
10
75.0858187396697
20
-4.2890937210455
30
0
41
1
10
75.13119813228
20
-4.21215529214714
30
0
0
SPLINE
5
139
100
AcDbEntity
8
1
62
256
6
ByLayer
370
18
48
1
60
0
100
AcDbSpline
70
4
71
3
72
32
73
28
40
0
40
0
40
0
40
0
40
0.125000000000016
40
0.125000000000016
40
0.187500000000024
40
0.187500000000024
40
0.250000000000032
40
0.250000000000032
40
0.374999999999998
40
0.374999999999998
40
0.437499999999981
40
0.437499999999981
40
0.499999999999964
40
0.499999999999964
40
0.62499999999993
40
0.62499999999993
40
0.687499999999942
40
0.687499999999942
40
0.749999999999953
40
0.749999999999953
40
0.812499999999965
40
0.812499999999965
40
0.874999999999977
40
0.874999999999977
40
0.937499999999988
40
0.937499999999988
40
1
40
1
40
1
40
1
41
1
10
75.13119813228
20
-4.21215529214714
30
0
41
1
10
75.1422028437331
20
-4.19349736922263
30
0
41
1
10
75.1550305568785
20
-4.1773983908914
30
0
41
1
10
75.1763188970962
20
-4.15609285458166
30
0
41
1
10
75.1837649567443
20
-4.14947780035817
30
0
41
1
10
75.199316710006
20
-4.13716577797271
30
0
41
1
10
75.2073400514275
20
-4.13153770679367
30
0
41
1
10
75.2318774504554
20
-4.1162331475422
30
0
41
1
10
75.2489417694806
20
-4.10804515555165
30
0
41
1
10
75.2754994542721
20
-4.09858538239635
30
0
41
1
10
75.2845463143246
20
-4.09590070764034
30
0
41
1
10
75.3028165362672
20
-4.09154781852459
30
0
41
1
10
75.3119837421576
20
-4.0898889427271
30
0
41
1
10
75.3395676006971
20
-4.0864480083446
30
0
41
1
10
75.3580656874596
20
-4.08617640549352
30
0
41
1
10
75.3859379239715
20
-4.08914565968774
30
0
41
1
10
75.3953006273337
20
-4.09071877155714
30
0
41
1
10
75.4137239799803
20
-4.09506297066579
30
0
41
1
10
75.4227979044039
20
-4.09782770666172
30
0
41
1
10
75.440638933967
20
-4.10463838291807
30
0
41
1
10
75.4494063651415
20
-4.10868293700756
30
0
41
1
10
75.4665832901542
20
-4.11823639356629
30
0
41
1
10
75.475005666216
20
-4.12376986896427
30
0
41
1
10
75.4909309656243
20
-4.13619341056207
30
0
41
1
10
75.4984964647238
20
-4.14311069335815
30
0
41
1
10
75.5127088043459
20
-4.15857789206839
30
0
41
1
10
75.5193792092971
20
-4.16717834487469
30
0
41
1
10
75.5253240855482
20
-4.17652815377255
30
0
0
SPLINE
5
13A
100
AcDbEntity
8
1
62
256
6
ByLayer
370
18
48
1
60
0
100
AcDbSpline
70
4
71
3
72
8
73
4
40
0
40
0
40
0
40
0
40
1
40
1
40
1
40
1
41
1
10
75.5253240855482
20
-4.17652815377278
30
0
41
1
10
75.5398698004203
20
-4.1994049385186
30
0
41
1
10
75.5543965864306
20
-4.22219231240766
30
0
41
1
10
75.5689054790002
20
-4.24489023499507
30
0
0
SPLINE
5
13B
100
AcDbEntity
8
1
62
256
6
ByLayer
370
18
48
1
60
0
100
AcDbSpline
70
4
71
3
72
16
73
12
40
0
40
0
40
0
40
0
40
0.125
40
0.125
40
0.250000000000001
40
0.250000000000001
40
0.5
40
0.5
40
0.75
40
0.75
40
1
40
1
40
1
40
1
41
1
10
75.5689054790002
20
-4.24489023499507
30
0
41
1
10
75.6071301490355
20
-4.23000842240793
30
0
41
1
10
75.6454663769763
20
-4.21472733266026
30
0
41
1
10
75.7223730864276
20
-4.18337265181574
30
0
41
1
10
75.7609545785125
20
-4.16729390320975
30
0
41
1
10
75.8767562694937
20
-4.11801114685264
30
0
41
1
10
75.9541331285347
20
-4.08372231918156
30
0
41
1
10
76.109288374784
20
-4.01237327758648
30
0
41
1
10
76.1870613235745
20
-3.97531284791805
30
0
41
1
10
76.3430395165266
20
-3.89849102611473
30
0
41
1
10
76.4212993032985
20
-3.85873212767584
30
0
41
1
10
76.4999998896745
20
-3.81768680396095
30
0
0
SPLINE
5
13C
100
AcDbEntity
8
1
62
256
6
ByLayer
370
18
48
1
60
0
100
AcDbSpline
70
4
71
3
72
10
73
6
40
0
40
0
40
0
40
0
40
0.5
40
0.5
40
1
40
1
40
1
40
1
41
1
10
76.4999998896745
20
-3.81768680396095
30
0
41
1
10
76.5794387883596
20
-3.71893838223715
30
0
41
1
10
76.6605458864821
20
-3.61891751267098
30
0
41
1
10
76.827326556664
20
-3.41700160766706
30
0
41
1
10
76.9126115316658
20
-3.3155479904571
30
0
41
1
10
76.9999999999999
20
-3.21473691622069
30
0
0
SPLINE
5
13D
100
AcDbEntity
8
1
62
256
6
ByLayer
370
18
48
1
60
0
100
AcDbSpline
70
4
71
3
72
26
73
22
40
0
40
0
40
0
40
0
40
0.0428394031673373
40
0.0428394031673373
40
0.0856788063346746
40
0.0856788063346746
40
0.171357612669349
40
0.171357612669349
40
0.342715225338699
40
0.342715225338699
40
0.385554628506037
40
0.385554628506037
40
0.428394031673374
40
0.428394031673374
40
0.51407283800805
40
0.51407283800805
40
0.556912241175388
40
0.556912241175388
40
0.599751644342726
40
0.685430450677401
40
1
40
1
40
1
40
1
41
1
10
76.9999999999999
20
-3.21473691622069
30
0
41
1
10
77
20
-3.19208419594992
30
0
41
1
10
77
20
-3.16962393071927
30
0
41
1
10
77
20
-3.12509755408647
30
0
41
1
10
77
20
-3.10308113918762
30
0
41
1
10
77
20
-3.03830797360905
30
0
41
1
10
76.9999999999999
20
-2.99660696402157
30
0
41
1
10
76.9999999999999
20
-2.87581744588516
30
0
41
1
10
77
20
-2.80105735218913
30
0
41
1
10
77
20
-2.71468928491475
30
0
41
1
10
77
20
-2.6977725286564
30
0
41
1
10
77
20
-2.66466433174369
30
0
41
1
10
77
20
-2.64849875635983
30
0
41
1
10
77
20
-2.60052177334839
30
0
41
1
10
77
20
-2.56917605349875
30
0
41
1
10
77
20
-2.52313238390488
30
0
41
1
10
77
20
-2.50794791232099
30
0
41
1
10
77
20
-2.47802516996336
30
0
41
1
10
76.9999999999998
20
-2.43376626481739
30
0
41
1
10
77.0000000000001
20
-2.28755243716515
30
0
41
1
10
77
20
-2.17318620449635
30
0
41
1
10
77
20
-2.0940319162182
30
0
0
SPLINE
5
13E
100
AcDbEntity
8
1
62
256
6
ByLayer
370
18
48
1
60
0
100
AcDbSpline
70
4
71
3
72
12
73
8
40
0
40
0
40
0
40
0
40
0.499999999999982
40
0.499999999999982
40
0.749999999999991
40
0.749999999999991
40
1
40
1
40
1
40
1
41
1
10
76.9999999999999
20
-2.03952634025572
30
0
41
1
10
76.9182869762712
20
-2.03938225427214
30
0
41
1
10
76.8357263335164
20
-2.03962111652959
30
0
41
1
10
76.7107071826833
20
-2.04115882948042
30
0
41
1
10
76.668838664728
20
-2.04187573067884
30
0
41
1
10
76.5847138968948
20
-2.0438621757196
30
0
41
1
10
76.5424479941734
20
-2.04517955825153
30
0
41
1
10
76.5000000515221
20
-2.04681906355293
30
0
0
SPLINE
5
13F
100
AcDbEntity
8
1
62
256
6
ByLayer
370
18
48
1
60
0
100
AcDbSpline
70
4
71
3
72
14
73
10
40
0
40
0
40
0
40
0
40
0.124999999999995
40
0.124999999999995
40
0.24999999999999
40
0.24999999999999
40
0.5
40
0.5
40
1
40
1
40
1
40
1
41
1
10
76.5000000515216
20
-2.04681906355114
30
0
41
1
10
76.4486610563708
20
-2.02075747130593
30
0
41
1
10
76.3974460138072
20
-1.99424080075454
30
0
41
1
10
76.2953781950552
20
-1.94015193295101
30
0
41
1
10
76.2445170188607
20
-1.91258965132283
30
0
41
1
10
76.0923978789651
20
-1.82840411779568
30
0
41
1
10
75.991607641559
20
-1.77027815901334
30
0
41
1
10
75.6907824058844
20
-1.59019627940378
30
0
41
1
10
75.4922845716527
20
-1.46255150272381
30
0
41
1
10
75.2950850499436
20
-1.32795740554747
30
0
0
SPLINE
5
140
100
AcDbEntity
8
1
62
256
6
ByLayer
370
18
48
1
60
0
100
AcDbSpline
70
4
71
3
72
8
73
4
40
0
40
0
40
0
40
0
40
1
40
1
40
1
40
1
41
1
10
75.2950850499436
20
-1.32795740554747
30
0
41
1
10
75.256669235482
20
-1.2619253034506
30
0
41
1
10
75.218135280736
20
-1.19681376240189
30
0
41
1
10
75.1794596767963
20
-1.13264639679676
30
0
0
SPLINE
5
141
100
AcDbEntity
8
1
62
256
6
ByLayer
370
18
48
1
60
0
100
AcDbSpline
70
4
71
3
72
30
73
26
40
0
40
0
40
0
40
0
40
0.124999999999973
40
0.124999999999973
40
0.249999999999946
40
0.249999999999946
40
0.374999999999919
40
0.374999999999919
40
0.437499999999905
40
0.437499999999905
40
0.499999999999892
40
0.499999999999892
40
0.62499999999992
40
0.62499999999992
40
0.687499999999933
40
0.687499999999933
40
0.749999999999947
40
0.749999999999947
40
0.81249999999996
40
0.81249999999996
40
0.874999999999973
40
0.874999999999973
40
0.937499999999987
40
0.937499999999987
40
1
40
1
40
1
40
1
41
1
10
75.1794596767961
20
-1.13264639679656
30
0
41
1
10
75.168881677037
20
-1.1150962538442
30
0
41
1
10
75.156597341886
20
-1.09752313124818
30
0
41
1
10
75.1293612444529
20
-1.06237293971341
30
0
41
1
10
75.1142672904433
20
-1.04467159219215
30
0
41
1
10
75.0825664815868
20
-1.0103274367921
30
0
41
1
10
75.0658887019895
20
-0.993573106345679
30
0
41
1
10
75.0396853687754
20
-0.969023331695837
30
0
41
1
10
75.0307486520096
20
-0.960939215636898
30
0
41
1
10
75.0127864980332
20
-0.945240769600275
30
0
41
1
10
75.0037232492713
20
-0.937590142678175
30
0
41
1
10
74.9762958814163
20
-0.915229362623109
30
0
41
1
10
74.9576982759627
20
-0.901099218727097
30
0
41
1
10
74.9293052118182
20
-0.881216352970739
30
0
41
1
10
74.9197565606793
20
-0.874814395879071
30
0
41
1
10
74.9009387835314
20
-0.862797933044277
30
0
41
1
10
74.8916155043773
20
-0.857143807619195
30
0
41
1
10
74.8731708389279
20
-0.846614047171585
30
0
41
1
10
74.8640209064437
20
-0.841723507536443
30
0
41
1
10
74.8460888603411
20
-0.832919389217778
30
0
41
1
10
74.8374488375149
20
-0.829073726604179
30
0
41
1
10
74.8209046588679
20
-0.822624036837084
30
0
41
1
10
74.8129659564917
20
-0.820009324434409
30
0
41
1
10
74.7981233082136
20
-0.816316613145119
30
0
41
1
10
74.7913396555703
20
-0.815263692500395
30
0
41
1
10
74.7852763559869
20
-0.81511458787142
30
0
0
SPLINE
5
142
100
AcDbEntity
8
1
62
256
6
ByLayer
370
18
48
1
60
0
100
AcDbSpline
70
4
71
3
72
12
73
8
40
0
40
0
40
0
40
0
40
0.49899562230688
40
0.49899562230688
40
0.997991244613759
40
0.997991244613759
40
1
40
1
40
1
40
1
41
1
10
63.9663505122052
20
-5.06377762130896
30
0
41
1
10
63.9683996006186
20
-5.06604471218984
30
0
41
1
10
63.9704531172306
20
-5.06775333390186
30
0
41
1
10
63.9745704736181
20
-5.07004041855279
30
0
41
1
10
63.9766313273755
20
-5.07061563608178
30
0
41
1
10
63.9786946744962
20
-5.07062435301847
30
0
41
1
10
63.9787029473447
20
-5.07062437881834
30
0
41
1
10
63.9787112201405
20
-5.07062439546826
30
0
0
SPLINE
5
143
100
AcDbEntity
8
1
62
256
6
ByLayer
370
18
48
1
60
0
100
AcDbSpline
70
4
71
3
72
12
73
8
40
0
40
0
40
0
40
0
40
0.0525726682854755
40
0.0525726682854755
40
0.242058134628379
40
0.242058134628379
40
1
40
1
40
1
40
1
41
1
10
66.228903254841
20
5.070624420191
30
0
41
1
10
66.2294787404198
20
5.07062362496433
30
0
41
1
10
66.2300544203665
20
5.07057916317416
30
0
41
1
10
66.232705913445
20
5.07017273597987
30
0
41
1
10
66.2347797177075
20
5.06928487382439
30
0
41
1
10
66.2451078641581
20
5.06203598939294
30
0
41
1
10
66.253270016629
20
5.04726586831677
30
0
41
1
10
66.2613935281782
20
5.02378504643988
30
0
0
SPLINE
5
144
100
AcDbEntity
8
1
62
256
6
ByLayer
370
18
48
1
60
0
100
AcDbSpline
70
4
71
3
72
9
73
5
40
0
40
0
40
0
40
0
40
0.618852886025375
40
1
40
1
40
1
40
1
41
1
10
66.4132956286377
20
5.00101849706013
30
0
41
1
10
66.4050267188059
20
5.0298031099571
30
0
41
1
10
66.3918750774748
20
5.0617499885567
30
0
41
1
10
66.3789160284799
20
5.07062269356152
30
0
41
1
10
66.3739821911731
20
5.07062834634695
30
0
0
SPLINE
5
145
100
AcDbEntity
8
1
62
256
6
ByLayer
370
18
48
1
60
0
100
AcDbSpline
70
4
71
3
72
18
73
14
40
0
40
0
40
0
40
0
40
0.0691906943146949
40
0.0691906943146949
40
0.379460462876463
40
0.379460462876463
40
0.689730231438232
40
0.689730231438232
40
0.844865115719116
40
0.844865115719116
40
0.922432557859558
40
0.922432557859558
40
1
40
1
40
1
40
1
41
1
10
62.6243854561439
20
-5.0706246839863
30
0
41
1
10
62.6225516590089
20
-5.0706284971177
30
0
41
1
10
62.6207193823575
20
-5.07018670476603
30
0
41
1
10
62.6106764047902
20
-5.06534018904014
30
0
41
1
10
62.6024836218652
20
-5.05250812273516
30
0
41
1
10
62.5860908851098
20
-5.00933605972006
30
0
41
1
10
62.5778963203143
20
-4.97899630381519
30
0
41
1
10
62.5655964188337
20
-4.92011168793709
30
0
41
1
10
62.5614931184004
20
-4.89824999868188
30
0
41
1
10
62.5553211343204
20
-4.86203519209263
30
0
41
1
10
62.5532629548561
20
-4.84940302006825
30
0
41
1
10
62.5491621956346
20
-4.82314446047138
30
0
41
1
10
62.5471168419688
20
-4.80950207550401
30
0
41
1
10
62.5450753250479
20
-4.79535200253966
30
0
0
SPLINE
5
146
100
AcDbEntity
8
1
62
256
6
ByLayer
370
18
48
1
60
0
100
AcDbSpline
70
4
71
3
72
14
73
10
40
0
40
0
40
0
40
0
40
0.284888526578694
40
0.284888526578694
40
0.569777053157387
40
0.569777053157387
40
0.85466557973608
40
0.85466557973608
40
1
40
1
40
1
40
1
41
1
10
62.3926541165744
20
-4.74398617045827
30
0
41
1
10
62.4007276673682
20
-4.80513041973632
30
0
41
1
10
62.4087791867487
20
-4.85788208098788
30
0
41
1
10
62.4250768877598
20
-4.94652475075966
30
0
41
1
10
62.433366479452
20
-4.98241735616523
30
0
41
1
10
62.4500878361484
20
-5.03672525681287
30
0
41
1
10
62.4583497546918
20
-5.0546673789965
30
0
41
1
10
62.4706709549171
20
-5.06833272335899
30
0
41
1
10
62.4748076991316
20
-5.0706350454995
30
0
41
1
10
62.4789374853539
20
-5.07062872961612
30
0
0
SPLINE
5
147
100
AcDbEntity
8
1
62
256
6
ByLayer
370
18
48
1
60
0
100
AcDbSpline
70
4
71
3
72
20
73
16
40
0
40
0
40
0
40
0
40
0.104704881268958
40
0.283763905015166
40
0.283763905015166
40
0.37329341688827
40
0.37329341688827
40
0.418058172824822
40
0.418058172824822
40
0.462822928761374
40
0.462822928761374
40
0.641881952507582
40
0.641881952507582
40
0.820940976253791
40
1
40
1
40
1
40
1
41
1
10
61.5045263693111
20
-4.41244125819279
30
0
41
1
10
61.5023729242224
20
-4.40869799599059
30
0
41
1
10
61.4965496558709
20
-4.39277538560529
30
0
41
1
10
61.4907736982317
20
-4.36134568130797
30
0
41
1
10
61.4852822186216
20
-4.32213810513909
30
0
41
1
10
61.4834469937204
20
-4.3074888619106
30
0
41
1
10
61.4806742615968
20
-4.28308594549193
30
0
41
1
10
61.4797466559689
20
-4.27454654613916
30
0
41
1
10
61.4778820353915
20
-4.25664458082841
30
0
41
1
10
61.4769438031695
20
-4.24726863269927
30
0
41
1
10
61.4722522269715
20
-4.19853991036979
30
0
41
1
10
61.4684912839459
20
-4.15360205516916
30
0
41
1
10
61.4609752014988
20
-4.05223302799607
30
0
41
1
10
61.4534648782681
20
-3.93936792635034
30
0
41
1
10
61.4459575173612
20
-3.80363201716131
30
0
41
1
10
61.4421888689522
20
-3.7299015240655
30
0
0
SPLINE
5
148
100
AcDbEntity
8
1
62
256
6
ByLayer
370
13
48
1
60
0
100
AcDbSpline
70
4
71
3
72
10
73
6
40
0
40
0
40
0
40
0
40
0.0677008693140183
40
0.505677307757499
40
1
40
1
40
1
40
1
41
1.04
10
61.6328802661103
20
-4.21022920246091
30
0
41
1.04
10
61.6297591390552
20
-4.21458087938757
30
0
41
1.04
10
61.606398701533
20
-4.23906157064905
30
0
41
1.04
10
61.5594292953941
20
-4.16726164227047
30
0
41
1.04
10
61.5156012452636
20
-3.88775531312122
30
0
41
1.04
10
61.4922957975901
20
-3.68671829385338
30
0
0
SPLINE
5
149
100
AcDbEntity
8
1
62
256
6
ByLayer
370
13
48
1
60
0
100
AcDbSpline
70
4
71
3
72
8
73
4
40
0
40
0
40
0
40
0
40
1
40
1
40
1
40
1
41
1
10
67.3103592026853
20
4.03957414254171
30
0
41
1
10
67.2792840086321
20
4.19916862483032
30
0
41
1
10
67.247997473675
20
4.2572282615784
30
0
41
1
10
67.2163618532911
20
4.20372024648995
30
0
0
SPLINE
5
14A
100
AcDbEntity
8
1
62
256
6
ByLayer
370
18
48
1
60
0
100
AcDbSpline
70
4
71
3
72
19
73
15
40
0
40
0
40
0
40
0
40
0.0753290913286735
40
0.0753290913286735
40
0.306496818496506
40
0.306496818496506
40
0.364288750288464
40
0.364288750288464
40
0.422080682080421
40
0.537664545664337
40
0.537664545664337
40
0.768832272832169
40
0.768832272832169
40
1
40
1
40
1
40
1
41
1
10
67.7291481322848
20
5.07062777466203
30
0
41
1
10
67.731852263955
20
5.07063274846388
30
0
41
1
10
67.7345521610629
20
5.06969415325892
30
0
41
1
10
67.7455178489757
20
5.06203369559825
30
0
41
1
10
67.7537423466813
20
5.04736621584169
30
0
41
1
10
67.7640014348602
20
5.01753702070781
30
0
41
1
10
67.7660523326759
20
5.01099297476921
30
0
41
1
10
67.7701304500231
20
4.99682932479161
30
0
41
1
10
67.7762212960652
20
4.97394515986781
30
0
41
1
10
67.7822441707191
20
4.94620148684018
30
0
41
1
10
67.7942366199346
20
4.88433455593795
30
0
41
1
10
67.8021573251563
20
4.83460010850132
30
0
41
1
10
67.8181218616138
20
4.71827392561349
30
0
41
1
10
67.826171527575
20
4.65168301047302
30
0
41
1
10
67.834459092964
20
4.57645849426061
30
0
0
SPLINE
5
14B
100
AcDbEntity
8
1
62
256
6
ByLayer
370
18
48
1
60
0
100
AcDbSpline
70
4
71
3
72
23
73
19
40
0
40
0
40
0
40
0
40
0.216573244569849
40
0.216573244569849
40
0.270716555712311
40
0.270716555712311
40
0.324859866854773
40
0.433146489139696
40
0.433146489139696
40
0.649719733709542
40
0.649719733709542
40
0.866292978279388
40
0.866292978279388
40
0.920436289421849
40
0.920436289421849
40
0.974579600564311
40
0.974579600564311
40
1
40
1
40
1
40
1
41
1
10
67.9882081297935
20
4.50839021522114
30
0
41
1
10
67.9801381766661
20
4.58767338479799
30
0
41
1
10
67.9718735564495
20
4.65926663963879
30
0
41
1
10
67.9614560719182
20
4.73885732407493
30
0
41
1
10
67.9593651351857
20
4.754298128915
30
0
41
1
10
67.9551889499038
20
4.78407996214929
30
0
41
1
10
67.9489406198784
20
4.82705285491139
30
0
41
1
10
67.9427452263454
20
4.86498974238725
30
0
41
1
10
67.9304186514391
20
4.93426399002013
30
0
41
1
10
67.9222924652054
20
4.97166441758591
30
0
41
1
10
67.9060353750467
20
5.02908341047188
30
0
41
1
10
67.8978973134625
20
5.049102274277
30
0
41
1
10
67.8875047630138
20
5.06303274198541
30
0
41
1
10
67.8854172974474
20
5.06526280724702
30
0
41
1
10
67.8812284269982
20
5.06859943495698
30
0
41
1
10
67.8791256589354
20
5.06970631455275
30
0
41
1
10
67.8760321412257
20
5.0704961360847
30
0
41
1
10
67.8750446735559
20
5.0706228475093
30
0
41
1
10
67.8740582269446
20
5.0706245641228
30
0
0
SPLINE
5
14C
100
AcDbEntity
8
1
62
256
6
ByLayer
370
13
48
1
60
0
100
AcDbSpline
70
4
71
3
72
9
73
5
40
0
40
0
40
0
40
0
40
0.158728661048054
40
1
40
1
40
1
40
1
41
1.04
10
68.4900291638022
20
3.64834871192622
30
0
41
1.04
10
68.4846219792763
20
3.69668406593921
30
0
41
1.04
10
68.4504234643958
20
3.98451943399765
30
0
41
1.04
10
68.4154620546531
20
4.15801903542126
30
0
41
1.04
10
68.3859143500726
20
4.20584312926238
30
0
0
SPLINE
5
14D
100
AcDbEntity
8
1
62
256
6
ByLayer
370
18
48
1
60
0
100
AcDbSpline
70
4
71
3
72
26
73
22
40
0
40
0
40
0
40
0
40
0.0830243677373914
40
0.0830243677373914
40
0.159439003759276
40
0.159439003759276
40
0.23585363978116
40
0.23585363978116
40
0.388682911824928
40
0.388682911824928
40
0.541512183868696
40
0.541512183868696
40
0.694341455912464
40
0.694341455912464
40
0.732548773923406
40
0.732548773923406
40
0.770756091934347
40
0.770756091934347
40
0.847170727956232
40
0.847170727956232
40
1
40
1
40
1
40
1
41
1
10
71.6239641311491
20
-5.07062879898743
30
0
41
1
10
71.6194341552367
20
-5.07062761437271
30
0
41
1
10
71.614923637511
20
-5.06799979028969
30
0
41
1
10
71.6063473218533
20
-5.0578953602151
30
0
41
1
10
71.602269658233
20
-5.05081702856012
30
0
41
1
10
71.5941568858273
20
-5.03212399634049
30
0
41
1
10
71.5901197561047
20
-5.02050154367879
30
0
41
1
10
71.5779829031877
20
-4.97872286537205
30
0
41
1
10
71.569914521329
20
-4.94211319335139
30
0
41
1
10
71.553631340696
20
-4.85200102625669
30
0
41
1
10
71.5454414493706
20
-4.79849657460122
30
0
41
1
10
71.5289856328878
20
-4.67465700400655
30
0
41
1
10
71.5207218468637
20
-4.60432292595459
30
0
41
1
10
71.5103571389665
20
-4.50558915051772
30
0
41
1
10
71.5082823454256
20
-4.48530019439471
30
0
41
1
10
71.5041287324069
20
-4.44362465015107
30
0
41
1
10
71.5020575402864
20
-4.4223141830596
30
0
41
1
10
71.4958665589554
20
-4.35705120399476
30
0
41
1
10
71.4917665707239
20
-4.31173776803439
30
0
41
1
10
71.479531788525
20
-4.17048182044587
30
0
41
1
10
71.4714677653257
20
-4.06923718618214
30
0
41
1
10
71.4633976175115
20
-3.96100980270575
30
0
0
SPLINE
5
14E
100
AcDbEntity
8
1
62
256
6
ByLayer
370
18
48
1
60
0
100
AcDbSpline
70
4
71
3
72
31
73
27
40
0
40
0
40
0
40
0
40
0.0365717294807072
40
0.0365717294807072
40
0.0731434589614144
40
0.146286917922829
40
0.146286917922829
40
0.292573835845657
40
0.292573835845657
40
0.438860753768486
40
0.438860753768486
40
0.475432483249193
40
0.475432483249193
40
0.5120042127299
40
0.5120042127299
40
0.585147671691314
40
0.585147671691314
40
0.731434589614141
40
0.731434589614141
40
0.877721507536969
40
0.877721507536969
40
0.950864966498383
40
0.950864966498383
40
0.98743669597909
40
0.98743669597909
40
1
40
1
40
1
40
1
41
1
10
71.3098965950794
20
-3.86317342406423
30
0
41
1
10
71.3119743363994
20
-3.89163176152886
30
0
41
1
10
71.3140599594165
20
-3.91963155060239
30
0
41
1
10
71.3182353880774
20
-3.97460557638692
30
0
41
1
10
71.3245090645301
20
-4.05558532894008
30
0
41
1
10
71.3308024344088
20
-4.13217076875208
30
0
41
1
10
71.3433894793385
20
-4.27956805415994
30
0
41
1
10
71.351778627901
20
-4.37014983841803
30
0
41
1
10
71.3684710600843
20
-4.53602673106269
30
0
41
1
10
71.3767735719853
20
-4.61132267666892
30
0
41
1
10
71.3871043369645
20
-4.6956297545525
30
0
41
1
10
71.3891683830954
20
-4.71199926355868
30
0
41
1
10
71.3932935578143
20
-4.74374274045564
30
0
41
1
10
71.39535173278
20
-4.7590925851982
30
0
41
1
10
71.4014898864348
20
-4.80339424443312
30
0
41
1
10
71.4055435078581
20
-4.83067866735232
30
0
41
1
10
71.4176210409294
20
-4.90590810926301
30
0
41
1
10
71.4255580356245
20
-4.94724636405675
30
0
41
1
10
71.4414552119509
20
-5.01253281904491
30
0
41
1
10
71.4494162481591
20
-5.03648109827034
30
0
41
1
10
71.4616519254135
20
-5.0591272536835
30
0
41
1
10
71.4657760020303
20
-5.06445902808443
30
0
41
1
10
71.4720193821172
20
-5.06906094474962
30
0
41
1
10
71.4741096961588
20
-5.07002618999002
30
0
41
1
10
71.4769133074566
20
-5.07055508729658
30
0
41
1
10
71.4776301019846
20
-5.07062319267456
30
0
41
1
10
71.4783468081893
20
-5.07062441736056
30
0
0
SPLINE
5
14F
100
AcDbEntity
8
1
62
256
6
ByLayer
370
18
48
1
60
0
100
AcDbSpline
70
4
71
3
72
12
73
8
40
0
40
0
40
0
40
0
40
0.0969294781577392
40
0.0969294781577392
40
0.397952985438492
40
0.397952985438492
40
1
40
1
40
1
40
1
41
1
10
37.6250181256407
20
3.34999989705633
30
0
41
1
10
37.6469034675343
20
3.34999944004599
30
0
41
1
10
37.6688376075027
20
3.34979894663377
30
0
41
1
10
37.7589845881017
20
3.34816576235235
30
0
41
1
10
37.827488478656
20
3.34503075744075
30
0
41
1
10
38.0338367837764
20
3.33013356128239
30
0
41
1
10
38.1724936566557
20
3.31288967220505
30
0
41
1
10
38.3122922911774
20
3.28865200745253
30
0
0
SPLINE
5
150
100
AcDbEntity
8
1
62
256
6
ByLayer
370
13
48
1
60
0
100
AcDbSpline
70
4
71
3
72
10
73
6
40
0
40
0
40
0
40
0
40
0.230459625306713
40
0.808669520745648
40
1
40
1
40
1
40
1
41
1
10
68.8842244480251
20
3.47210063593516
30
0
41
1
10
68.8723646788698
20
3.59188883267322
30
0
41
1
10
68.830346674999
20
3.97132160038316
30
0
41
1
10
68.7769506920766
20
4.22456837823506
30
0
41
1
10
68.7356344229062
20
4.22654328303892
30
0
41
1
10
68.72536161028
20
4.21545378436943
30
0
0
SPLINE
5
151
100
AcDbEntity
8
1
62
256
6
ByLayer
370
18
48
1
60
0
100
AcDbSpline
70
4
71
3
72
8
73
4
40
0
40
0
40
0
40
0
40
1
40
1
40
1
40
1
41
1
10
68.7253616020329
20
4.21545377546673
30
0
41
1
10
68.7224216295787
20
4.21228007416138
30
0
41
1
10
68.7194816270577
20
4.20815787624068
30
0
41
1
10
68.7165419132
20
4.2030952557601
30
0
0
SPLINE
5
152
100
AcDbEntity
8
1
62
256
6
ByLayer
370
18
48
1
60
0
100
AcDbSpline
70
4
71
3
72
30
73
26
40
0
40
0
40
0
40
0
40
0.0451329974081298
40
0.0451329974081298
40
0.181542569206968
40
0.181542569206968
40
0.317952141005807
40
0.317952141005807
40
0.352054533955516
40
0.352054533955516
40
0.386156926905226
40
0.386156926905226
40
0.454361712804645
40
0.454361712804645
40
0.590771284603484
40
0.590771284603484
40
0.727180856402322
40
0.727180856402322
40
0.795385642301742
40
0.795385642301742
40
0.829488035251452
40
0.829488035251452
40
0.863590428201161
40
0.863590428201161
40
1
40
1
40
1
40
1
41
1
10
69.2289362236863
20
5.07062460261466
30
0
41
1
10
69.2315990875233
20
5.07062868547746
30
0
41
1
10
69.2342585517746
20
5.06964862377691
30
0
41
1
10
69.2449700391503
20
5.06178920001369
30
0
41
1
10
69.2530986746035
20
5.04700512828364
30
0
41
1
10
69.2694420685831
20
4.99981610824821
30
0
41
1
10
69.2776323761736
20
4.96741174714211
30
0
41
1
10
69.2878688844149
20
4.91562491996959
30
0
41
1
10
69.2899166344868
20
4.90470205385074
30
0
41
1
10
69.2940145754601
20
4.88171268496032
30
0
41
1
10
69.2960672201499
20
4.86962992682786
30
0
41
1
10
69.3021993030093
20
4.83185514478831
30
0
41
1
10
69.3062606864285
20
4.80459711366564
30
0
41
1
10
69.318411651936
20
4.71672436479884
30
0
41
1
10
69.3264606478068
20
4.65002644376057
30
0
41
1
10
69.3428729283081
20
4.50067298407046
30
0
41
1
10
69.3512640267986
20
4.41801844322194
30
0
41
1
10
69.3639422497654
20
4.28188489074859
30
0
41
1
10
69.3681838462917
20
4.2344777729287
30
0
41
1
10
69.3745523234111
20
4.16026227441125
30
0
41
1
10
69.3766793196124
20
4.13496779031811
30
0
41
1
10
69.3809136674805
20
4.08357082781342
30
0
41
1
10
69.383021501524
20
4.05746456085592
30
0
41
1
10
69.3935108049521
20
3.92491732971297
30
0
41
1
10
69.4017355693165
20
3.81244487168936
30
0
41
1
10
69.4098078181124
20
3.69369815690371
30
0
0
SPLINE
5
153
100
AcDbEntity
8
1
62
256
6
ByLayer
370
13
48
1
60
0
100
AcDbSpline
70
4
71
3
72
10
73
6
40
0
40
0
40
0
40
0
40
0.146785038287264
40
0.72317988632806
40
1
40
1
40
1
40
1
41
1.04
10
70.0637956683772
20
2.82778035721455
30
0
41
1.04
10
70.055999428665
20
2.93023998143417
30
0
41
1.04
10
70.0175842822302
20
3.41288502220664
30
0
41
1.04
10
69.9642695985998
20
3.91414232505677
30
0
41
1.04
10
69.9186332691754
20
4.12109747252513
30
0
41
1.04
10
69.9037931916892
20
4.16437825972125
30
0
0
SPLINE
5
154
100
AcDbEntity
8
1
62
256
6
ByLayer
370
18
48
1
60
0
100
AcDbSpline
70
4
71
3
72
8
73
4
40
0
40
0
40
0
40
0
40
1
40
1
40
1
40
1
41
1.04
10
69.9037931196029
20
4.16437846995934
30
0
41
1.04
10
69.900778571328
20
4.17317032354462
30
0
41
1.04
10
69.8977626339564
20
4.18097743128893
30
0
41
1.04
10
69.8947451554091
20
4.18779451109125
30
0
0
SPLINE
5
155
100
AcDbEntity
8
1
62
256
6
ByLayer
370
18
48
1
60
0
100
AcDbSpline
70
4
71
3
72
29
73
25
40
0
40
0
40
0
40
0
40
0.131293598062501
40
0.131293598062501
40
0.262587196125002
40
0.262587196125002
40
0.328233995156252
40
0.328233995156252
40
0.361057394671877
40
0.361057394671877
40
0.393880794187502
40
0.393880794187502
40
0.525174392250003
40
0.525174392250003
40
0.656467990312504
40
0.656467990312504
40
0.787761588375005
40
0.787761588375005
40
0.82058498789063
40
0.82058498789063
40
0.853408387406256
40
0.919055186437506
40
0.919055186437506
40
1
40
1
40
1
40
1
41
1
10
69.5613700981513
20
3.5885949783891
30
0
41
1
10
69.5531426197866
20
3.71209212797024
30
0
41
1
10
69.5449562527789
20
3.82838092822593
30
0
41
1
10
69.5286364734112
20
4.04688475598542
30
0
41
1
10
69.52051508554
20
4.1490995015667
30
0
41
1
10
69.508345435756
20
4.29178366904387
30
0
41
1
10
69.5042900435058
20
4.3375685972874
30
0
41
1
10
69.4981945448766
20
4.40353855752659
30
0
41
1
10
69.4961605832665
20
4.42507707297304
30
0
41
1
10
69.4920852984206
20
4.46724113309813
30
0
41
1
10
69.4900410994154
20
4.48789427125539
30
0
41
1
10
69.4798436251598
20
4.58835251995055
30
0
41
1
10
69.4717452254097
20
4.65997458714281
30
0
41
1
10
69.4553884185049
20
4.78629571338692
30
0
41
1
10
69.4471054904458
20
4.84099309397922
30
0
41
1
10
69.4304496837589
20
4.93348545976747
30
0
41
1
10
69.4220808887704
20
4.97128177805826
30
0
41
1
10
69.4116011504851
20
5.00763587229739
30
0
41
1
10
69.4095009869069
20
5.01436923861999
30
0
41
1
10
69.405315184354
20
5.02668154972315
30
0
41
1
10
69.3990604346299
20
5.04341729947021
30
0
41
1
10
69.3928750508559
20
5.05501877118635
30
0
41
1
10
69.3837254622432
20
5.06727998465897
30
0
41
1
10
69.3787139613182
20
5.07064601958913
30
0
41
1
10
69.3737277798895
20
5.07062829815183
30
0
0
SPLINE
5
156
100
AcDbEntity
8
1
62
256
6
ByLayer
370
18
48
1
60
0
100
AcDbSpline
70
4
71
3
72
42
73
38
40
0
40
0
40
0
40
0
40
0.250000000000002
40
0.250000000000002
40
0.312500000000003
40
0.312500000000003
40
0.375000000000004
40
0.375000000000004
40
0.500000000000005
40
0.500000000000005
40
0.625000000000006
40
0.625000000000006
40
0.750000000000007
40
0.750000000000007
40
0.812500000000007
40
0.812500000000007
40
0.875000000000008
40
0.875000000000008
40
0.906250000000008
40
0.906250000000008
40
0.937500000000008
40
0.937500000000008
40
0.953125000000008
40
0.953125000000008
40
0.968750000000008
40
0.968750000000008
40
0.976562500000008
40
0.976562500000008
40
0.984375000000008
40
0.984375000000008
40
0.992187500000008
40
0.992187500000008
40
0.996093750000008
40
0.996093750000008
40
0.998046875000004
40
0.998046875000004
40
1
40
1
40
1
40
1
41
1
10
61.3327778960314
20
1.45599702567461
30
0
41
1
10
61.332534079605
20
1.63449363391766
30
0
41
1
10
61.332808686757
20
1.80886734502363
30
0
41
1
10
61.3339987207489
20
2.02160450087533
30
0
41
1
10
61.3342797384788
20
2.06389461675357
30
0
41
1
10
61.3349318362123
20
2.14755053552233
30
0
41
1
10
61.3353031317248
20
2.18896719367325
30
0
41
1
10
61.3365653520662
20
2.31199759530244
30
0
41
1
10
61.3376024057368
20
2.39241262704752
30
0
41
1
10
61.3401780048115
20
2.54998383377236
30
0
41
1
10
61.341709526363
20
2.62692052718325
30
0
41
1
10
61.3454850063428
20
2.77735417900149
30
0
41
1
10
61.3477180745409
20
2.8508844481193
30
0
41
1
10
61.3519966099342
20
2.95881876573847
30
0
41
1
10
61.3535796994802
20
2.99440316581308
30
0
41
1
10
61.3572276944513
20
3.06498121895785
30
0
41
1
10
61.3592829198408
20
3.09996349459689
30
0
41
1
10
61.3630140419264
20
3.15232885610817
30
0
41
1
10
61.3643675845456
20
3.16976805509739
30
0
41
1
10
61.3674160860271
20
3.20475706173076
30
0
41
1
10
61.3691041018375
20
3.22229875186878
30
0
41
1
10
61.3721009360926
20
3.24893858471631
30
0
41
1
10
61.3731784760456
20
3.25787440038394
30
0
41
1
10
61.3755813846273
20
3.27596377058589
30
0
41
1
10
61.3769024097791
20
3.28511709882932
30
0
41
1
10
61.3792214897161
20
3.29914608921845
30
0
41
1
10
61.38005223982
20
3.30387667843948
30
0
41
1
10
61.3818927936496
20
3.31349364979391
30
0
41
1
10
61.3829004373345
20
3.31838478003655
30
0
41
1
10
61.3852417431614
20
3.32843162969974
30
0
41
1
10
61.386555474733
20
3.33358778723274
30
0
41
1
10
61.3891370118352
20
3.34167941614197
30
0
41
1
10
61.390105663016
20
3.34445611732735
30
0
41
1
10
61.3918777289899
20
3.34865373952923
30
0
41
1
10
61.3925079446934
20
3.35002126769783
30
0
41
1
10
61.3938920545996
20
3.35265704548399
30
0
41
1
10
61.3946504699851
20
3.35392058778712
30
0
41
1
10
61.3954197896721
20
3.35498504393908
30
0
0
SPLINE
5
157
100
AcDbEntity
8
1
62
256
6
ByLayer
370
18
48
1
60
0
100
AcDbSpline
70
4
71
3
72
33
73
29
40
0
40
0
40
0
40
0
40
0.125
40
0.125
40
0.15625
40
0.15625
40
0.187499999999999
40
0.187499999999999
40
0.249999999999999
40
0.249999999999999
40
0.374999999999999
40
0.499999999999999
40
0.499999999999999
40
0.562499999999999
40
0.562499999999999
40
0.593749999999999
40
0.593749999999999
40
0.624999999999999
40
0.624999999999999
40
0.749999999999999
40
0.749999999999999
40
0.875
40
0.875
40
0.9375
40
0.9375
40
0.96875
40
0.96875
40
1
40
1
40
1
40
1
41
1
10
70.0862798526514
20
-5.00626122341984
30
0
41
1
10
70.0779257618931
20
-4.9787429654248
30
0
41
1
10
70.0695370332056
20
-4.94242936276038
30
0
41
1
10
70.0590618509272
20
-4.88573733052027
30
0
41
1
10
70.0569670398279
20
-4.87383247204303
30
0
41
1
10
70.0527779716538
20
-4.84887619430924
30
0
41
1
10
70.0506890561758
20
-4.83585555858511
30
0
41
1
10
70.0444553200077
20
-4.79528670653909
30
0
41
1
10
70.0403366033024
20
-4.76619055529483
30
0
41
1
10
70.0280765271121
20
-4.67286480462474
30
0
41
1
10
70.0119917630457
20
-4.53236179322127
30
0
41
1
10
69.9961228584979
20
-4.36014697157856
30
0
41
1
10
69.9841227116987
20
-4.21887764979769
30
0
41
1
10
69.9801056083693
20
-4.16976594480755
30
0
41
1
10
69.9740262908437
20
-4.09300102281827
30
0
41
1
10
69.9719927171429
20
-4.0669183679249
30
0
41
1
10
69.9679262017046
20
-4.01402220056247
30
0
41
1
10
69.9658904998502
20
-3.98717404802718
30
0
41
1
10
69.9556877954304
20
-3.85095450771587
30
0
41
1
10
69.9474038693643
20
-3.73566415641989
30
0
41
1
10
69.9306522703805
20
-3.49273224336238
30
0
41
1
10
69.922231108449
20
-3.36508876779672
30
0
41
1
10
69.9096756381358
20
-3.16426412547918
30
0
41
1
10
69.9055014459625
20
-3.09575968491413
30
0
41
1
10
69.899259079721
20
-2.99061898560686
30
0
41
1
10
69.8971813371865
20
-2.95517454462512
30
0
41
1
10
69.8930310420358
20
-2.88348144419282
30
0
41
1
10
69.8909579479121
20
-2.84722163833547
30
0
41
1
10
69.888898641906
20
-2.81077150049381
30
0
0
SPLINE
5
158
100
AcDbEntity
8
1
62
256
6
ByLayer
370
18
48
1
60
0
100
AcDbSpline
70
4
71
3
72
26
73
22
40
0
40
0
40
0
40
0
40
0.125
40
0.125
40
0.1875
40
0.1875
40
0.218749999999999
40
0.218749999999999
40
0.249999999999999
40
0.249999999999999
40
0.375
40
0.375
40
0.5
40
0.5
40
0.625
40
0.625
40
0.75
40
0.75
40
0.875
40
0.875
40
1
40
1
40
1
40
1
41
1
10
69.7374586518725
20
-2.6837792298098
30
0
41
1
10
69.74564286852
20
-2.8307608473051
30
0
41
1
10
69.7537724542984
20
-2.97299893938526
30
0
41
1
10
69.7659499533664
20
-3.17914191279942
30
0
41
1
10
69.7700066809352
20
-3.24665152842667
30
0
41
1
10
69.776100565081
20
-3.34607420389961
30
0
41
1
10
69.7781352698904
20
-3.37893842975868
30
0
41
1
10
69.782201638148
20
-3.44390787793966
30
0
41
1
10
69.7842286089229
20
-3.47593876611452
30
0
41
1
10
69.794339603243
20
-3.63385066792853
30
0
41
1
10
69.8023498880987
20
-3.75302239493917
30
0
41
1
10
69.8184305733414
20
-3.97742810867047
30
0
41
1
10
69.8265123692524
20
-4.08266091462866
30
0
41
1
10
69.8429586106034
20
-4.27911953732433
30
0
41
1
10
69.8512960259548
20
-4.37035781151667
30
0
41
1
10
69.868132306548
20
-4.53827379600398
30
0
41
1
10
69.8764839430588
20
-4.61349282665591
30
0
41
1
10
69.8930478771904
20
-4.74707616031642
30
0
41
1
10
69.9012600385281
20
-4.80543857782271
30
0
41
1
10
69.9176009603669
20
-4.90537503094276
30
0
41
1
10
69.9257294756147
20
-4.94695005633866
30
0
41
1
10
69.9338782186272
20
-4.97989696492542
30
0
0
SPLINE
5
159
100
AcDbEntity
8
1
62
256
6
ByLayer
370
13
48
1
60
0
100
AcDbSpline
70
4
71
3
72
10
73
6
40
0
40
0
40
0
40
0
40
0.242011221842516
40
0.758789513175572
40
1
40
1
40
1
40
1
41
1
10
70.4579935069567
20
2.57637103732716
30
0
41
1
10
70.4436532582148
20
2.7773591160215
30
0
41
1
10
70.3987247517118
20
3.36361772486168
30
0
41
1
10
70.3392594436776
20
3.91842285566011
30
0
41
1
10
70.2940406982973
20
4.12188045363322
30
0
41
1
10
70.2796196834112
20
4.16408087810294
30
0
0
SPLINE
5
15A
100
AcDbEntity
8
1
62
256
6
ByLayer
370
18
48
1
60
0
100
AcDbSpline
70
4
71
3
72
30
73
26
40
0
40
0
40
0
40
0
40
0.125
40
0.125
40
0.1875
40
0.1875
40
0.21875
40
0.21875
40
0.249999999999999
40
0.249999999999999
40
0.374999999999999
40
0.374999999999999
40
0.499999999999999
40
0.499999999999999
40
0.562499999999998
40
0.562499999999998
40
0.593749999999998
40
0.593749999999998
40
0.624999999999999
40
0.624999999999999
40
0.749999999999999
40
0.749999999999999
40
0.875
40
0.875
40
1
40
1
40
1
40
1
41
1
10
70.7859311676247
20
4.92571282485764
30
0
41
1
10
70.7939301086774
20
4.884564925034
30
0
41
1
10
70.8019382932565
20
4.83481292421442
30
0
41
1
10
70.8141909256403
20
4.74709467166929
30
0
41
1
10
70.818317155251
20
4.71566938714136
30
0
41
1
10
70.8245563513026
20
4.66518867662234
30
0
41
1
10
70.8266474258448
20
4.64777828619759
30
0
41
1
10
70.830828288586
20
4.61196923991744
30
0
41
1
10
70.8329169492511
20
4.59358198042366
30
0
41
1
10
70.8433479274233
20
4.49925985315613
30
0
41
1
10
70.8516488703264
20
4.41618691882843
30
0
41
1
10
70.8681451864954
20
4.23520141118436
30
0
41
1
10
70.8763404172571
20
4.13728795468262
30
0
41
1
10
70.8886257555641
20
3.97922428613489
30
0
41
1
10
70.8927205137137
20
3.92466721973437
30
0
41
1
10
70.8988796663293
20
3.8399865451448
30
0
41
1
10
70.9009356152999
20
3.81128523516043
30
0
41
1
10
70.9050570131611
20
3.75292391153158
30
0
41
1
10
70.9071248858456
20
3.72323030390621
30
0
41
1
10
70.9174621542275
20
3.57272771020135
30
0
41
1
10
70.9256626044413
20
3.44672589769726
30
0
41
1
10
70.9419659648055
20
3.18390985255041
30
0
41
1
10
70.9500687912991
20
3.04709448276571
30
0
41
1
10
70.9662733225639
20
2.76268527863377
30
0
41
1
10
70.9743748837466
20
2.61509214950016
30
0
41
1
10
70.982553413875
20
2.46195636320056
30
0
0
SPLINE
5
15B
100
AcDbEntity
8
1
62
256
6
ByLayer
370
13
48
1
60
0
100
AcDbSpline
70
4
71
3
72
9
73
5
40
0
40
0
40
0
40
0
40
0.341679812272109
40
1
40
1
40
1
40
1
41
1.04
10
71.6375973373272
20
1.73920582495571
30
0
41
1.04
10
71.6170523855864
20
2.07067853826378
30
0
41
1.04
10
71.5573864530744
20
2.9777339182155
30
0
41
1.04
10
71.4982503155436
20
3.62273052383844
30
0
41
1.04
10
71.4591616074161
20
3.89199139379886
30
0
0
SPLINE
5
15C
100
AcDbEntity
8
1
62
256
6
ByLayer
370
18
48
1
60
0
100
AcDbSpline
70
4
71
3
72
32
73
28
40
0
40
0
40
0
40
0
40
0.125000000000001
40
0.125000000000001
40
0.156250000000001
40
0.156250000000001
40
0.187500000000001
40
0.187500000000001
40
0.250000000000001
40
0.250000000000001
40
0.375
40
0.5
40
0.5
40
0.562499999999999
40
0.562499999999999
40
0.593749999999999
40
0.593749999999999
40
0.624999999999999
40
0.624999999999999
40
0.749999999999999
40
0.875
40
0.875
40
0.9375
40
0.9375
40
0.96875
40
0.96875
40
1
40
1
40
1
40
1
41
1
10
71.1352338977418
20
2.32788435029437
30
0
41
1
10
71.1271823734791
20
2.48188789290785
30
0
41
1
10
71.1191459291912
20
2.63208051037981
30
0
41
1
10
71.1089980637792
20
2.81492695423813
30
0
41
1
10
71.1069631730291
20
2.85125089669029
30
0
41
1
10
71.1028788618637
20
2.92340221332637
30
0
41
1
10
71.1008304917181
20
2.95920956344685
30
0
41
1
10
71.0946933491123
20
3.06526202476266
30
0
41
1
10
71.0906004273606
20
3.13434655459099
30
0
41
1
10
71.0782700205895
20
3.33684022344752
30
0
41
1
10
71.0617170392327
20
3.59416439110581
30
0
41
1
10
71.0451133907298
20
3.82652736731987
30
0
41
1
10
71.0326574034628
20
3.99127796728817
30
0
41
1
10
71.0285043214044
20
4.04460477645407
30
0
41
1
10
71.0222696318911
20
4.12215989148703
30
0
41
1
10
71.0201894909125
20
4.14761650445692
30
0
41
1
10
71.0160505785753
20
4.19742061305763
30
0
41
1
10
71.0139888401168
20
4.22180559125383
30
0
41
1
10
71.0037149664604
20
4.34117307637595
30
0
41
1
10
70.9875045093589
20
4.51583576221594
30
0
41
1
10
70.9714773547607
20
4.65859185287704
30
0
41
1
10
70.9593764541426
20
4.75359153882596
30
0
41
1
10
70.955328905444
20
4.78324297850634
30
0
41
1
10
70.9492135341083
20
4.82464816749336
30
0
41
1
10
70.9471677037964
20
4.83793763993376
30
0
41
1
10
70.9430570480539
20
4.86348057844231
30
0
41
1
10
70.9409898007322
20
4.87574649459529
30
0
41
1
10
70.9389221605628
20
4.88742580535126
30
0
0
SPLINE
5
15D
100
AcDbEntity
8
1
62
256
6
ByLayer
370
18
48
1
60
0
100
AcDbSpline
70
4
71
3
72
97
73
93
40
0
40
0
40
0
40
0
40
0.0625000000000097
40
0.0625000000000097
40
0.0937500000000146
40
0.0937500000000146
40
0.12500000000002
40
0.12500000000002
40
0.187500000000029
40
0.187500000000029
40
0.203125000000032
40
0.203125000000032
40
0.218750000000034
40
0.218750000000034
40
0.234375000000036
40
0.234375000000036
40
0.250000000000039
40
0.250000000000039
40
0.281250000000042
40
0.281250000000042
40
0.312500000000044
40
0.312500000000044
40
0.343750000000047
40
0.343750000000047
40
0.359375000000047
40
0.359375000000047
40
0.375000000000047
40
0.375000000000047
40
0.406250000000047
40
0.406250000000047
40
0.437500000000048
40
0.437500000000048
40
0.468750000000048
40
0.468750000000048
40
0.484375000000048
40
0.484375000000048
40
0.500000000000048
40
0.500000000000048
40
0.507812500000048
40
0.507812500000048
40
0.515625000000048
40
0.515625000000048
40
0.531250000000047
40
0.531250000000047
40
0.539062500000045
40
0.539062500000045
40
0.546875000000044
40
0.546875000000044
40
0.562500000000042
40
0.562500000000042
40
0.57812500000004
40
0.57812500000004
40
0.585937500000039
40
0.585937500000039
40
0.593750000000039
40
0.593750000000039
40
0.609375000000038
40
0.609375000000038
40
0.617187500000037
40
0.617187500000037
40
0.625000000000037
40
0.625000000000037
40
0.640625000000036
40
0.640625000000036
40
0.656250000000035
40
0.656250000000035
40
0.664062500000035
40
0.664062500000035
40
0.671875000000034
40
0.687500000000033
40
0.687500000000033
40
0.718750000000029
40
0.718750000000029
40
0.734375000000028
40
0.734375000000028
40
0.750000000000027
40
0.750000000000027
40
0.781250000000024
40
0.781250000000024
40
0.81250000000002
40
0.81250000000002
40
0.843750000000016
40
0.843750000000016
40
0.875000000000013
40
0.875000000000013
40
0.890625000000011
40
0.890625000000011
40
0.906250000000009
40
0.906250000000009
40
0.937500000000006
40
0.937500000000006
40
1
40
1
40
1
40
1
41
1
10
40.9151886014047
20
0.714130593310642
30
0
41
1
10
40.7546805227028
20
0.810354681433125
30
0
41
1
10
40.5917539922506
20
0.899678280805887
30
0
41
1
10
40.3426033568793
20
1.02155858772852
30
0
41
1
10
40.2587625152479
20
1.06017549605082
30
0
41
1
10
40.0893547008337
20
1.13320287901922
30
0
41
1
10
40.0037910662962
20
1.16762042263934
30
0
41
1
10
39.7441771971207
20
1.26403232344867
30
0
41
1
10
39.5672845352005
20
1.3193598340857
30
0
41
1
10
39.3399980499752
20
1.37496384726194
30
0
41
1
10
39.2942120474854
20
1.38540186857909
30
0
41
1
10
39.2020298839326
20
1.40479635393095
30
0
41
1
10
39.1558735318117
20
1.41370255848455
30
0
41
1
10
39.0634242411231
20
1.42988148393024
30
0
41
1
10
39.0171406074206
20
1.43726362093153
30
0
41
1
10
38.9244886076467
20
1.45101522912907
30
0
41
1
10
38.8781157889522
20
1.45733241390951
30
0
41
1
10
38.7388606861501
20
1.47466719864585
30
0
41
1
10
38.6458453254277
20
1.48411023664832
30
0
41
1
10
38.4594404202466
20
1.49863002224578
30
0
41
1
10
38.3660451616485
20
1.50364059562907
30
0
41
1
10
38.1788250694839
20
1.50868723822873
30
0
41
1
10
38.0850011838632
20
1.50873472286946
30
0
41
1
10
37.9438986062424
20
1.50455928430304
30
0
41
1
10
37.8968029506199
20
1.50245548208852
30
0
41
1
10
37.8024780854542
20
1.49669619719938
30
0
41
1
10
37.7552195618308
20
1.49303515013972
30
0
41
1
10
37.614163292331
20
1.47960027217712
30
0
41
1
10
37.5207986984018
20
1.46734670056515
30
0
41
1
10
37.3356346973367
20
1.43504566625455
30
0
41
1
10
37.2438372725287
20
1.41499184083838
30
0
41
1
10
37.0622419278215
20
1.36470228042984
30
0
41
1
10
36.9739274905198
20
1.33487745433558
30
0
41
1
10
36.8463486450981
20
1.28095930541937
30
0
41
1
10
36.8046405932026
20
1.26143672888253
30
0
41
1
10
36.7230726852579
20
1.21883251843522
30
0
41
1
10
36.6832105413454
20
1.19575566211554
30
0
41
1
10
36.6250622695121
20
1.1579211124423
30
0
41
1
10
36.6059580440572
20
1.1447646653927
30
0
41
1
10
36.5683470418793
20
1.11727096741259
30
0
41
1
10
36.5498044997317
20
1.10290041234831
30
0
41
1
10
36.4959348768956
20
1.05843859391348
30
0
41
1
10
36.4621243087556
20
1.02684371142692
30
0
41
1
10
36.4149949964852
20
0.976061320384161
30
0
41
1
10
36.3998842059442
20
0.958567536266855
30
0
41
1
10
36.3709507826107
20
0.922351385758219
30
0
41
1
10
36.3571106983491
20
0.903603421772601
30
0
41
1
10
36.3177898707797
20
0.845508293140512
30
0
41
1
10
36.2950895497222
20
0.805185132344349
30
0
41
1
10
36.2567475574498
20
0.721266843426264
30
0
41
1
10
36.2410975850337
20
0.677675254002565
30
0
41
1
10
36.2230265945067
20
0.609728101485757
30
0
41
1
10
36.2179000672748
20
0.586560866738381
30
0
41
1
10
36.2096191580783
20
0.540210269017877
30
0
41
1
10
36.2064351448617
20
0.516944673795507
30
0
41
1
10
36.1995717956625
20
0.446886412942831
30
0
41
1
10
36.1985748968681
20
0.399832660928638
30
0
41
1
10
36.2018574457448
20
0.32875927014976
30
0
41
1
10
36.2037610621792
20
0.30491067511224
30
0
41
1
10
36.2090048178682
20
0.257650556992587
30
0
41
1
10
36.2123419562935
20
0.234189399685761
30
0
41
1
10
36.2242794804728
20
0.16425935654695
30
0
41
1
10
36.2347968899577
20
0.118241696024739
30
0
41
1
10
36.2600592352268
20
0.0271951680391282
30
0
41
1
10
36.2748079205912
20
-0.0178327876266735
30
0
41
1
10
36.2996281707582
20
-0.0847479188522016
30
0
41
1
10
36.3083631685253
20
-0.106993525561848
30
0
41
1
10
36.3266004704563
20
-0.150919871284543
30
0
41
1
10
36.3551200764268
20
-0.216057309498694
30
0
41
1
10
36.3868412100094
20
-0.279121266893213
30
0
41
1
10
36.4539209703904
20
-0.402881321276908
30
0
41
1
10
36.5034628154578
20
-0.482248809587219
30
0
41
1
10
36.5831587115717
20
-0.59774478792832
30
0
41
1
10
36.6106468475454
20
-0.635635737531601
30
0
41
1
10
36.6671012089257
20
-0.710422714575429
30
0
41
1
10
36.6959272518632
20
-0.747141917721024
30
0
41
1
10
36.7836978044144
20
-0.855321426654029
30
0
41
1
10
36.8440104323887
20
-0.924940903518348
30
0
41
1
10
36.9672074172693
20
-1.06032348152794
30
0
41
1
10
37.0301000838411
20
-1.12607730789171
30
0
41
1
10
37.1578525139584
20
-1.25439960494583
30
0
41
1
10
37.2227161393923
20
-1.31696373468605
30
0
41
1
10
37.3540270119196
20
-1.4393287213943
30
0
41
1
10
37.4204762250867
20
-1.49912733812596
30
0
41
1
10
37.5211563915254
20
-1.58695011193342
30
0
41
1
10
37.5548853481569
20
-1.61591059600158
30
0
41
1
10
37.6226602573292
20
-1.67322644812478
30
0
41
1
10
37.6566997909136
20
-1.70157572272694
30
0
41
1
10
37.7589845881018
20
-1.7855118079296
30
0
41
1
10
37.8274884786561
20
-1.84007000408823
30
0
41
1
10
38.0338367837764
20
-1.99976569402153
30
0
41
1
10
38.1724936566557
20
-2.10095293584374
30
0
41
1
10
38.3122922911774
20
-2.19700220224482
30
0
0
SPLINE
5
15E
100
AcDbEntity
8
1
62
256
6
ByLayer
370
13
48
1
60
0
100
AcDbSpline
70
4
71
3
72
10
73
6
40
0
40
0
40
0
40
0
40
0.0886094663315663
40
0.77451249961853
40
1
40
1
40
1
40
1
41
1
10
64.6873641789981
20
-1.26647629973152
30
0
41
1
10
64.6817530897293
20
-1.17172294013398
30
0
41
1
10
64.6329292047186
20
-0.338485785101767
30
0
41
1
10
64.5737107755347
20
0.743694922434003
30
0
41
1
10
64.5220429496458
20
1.60010000151439
30
0
41
1
10
64.5093705553394
20
1.80260852544202
30
0
0
SPLINE
5
15F
100
AcDbEntity
8
1
62
256
6
ByLayer
370
18
48
1
60
0
100
AcDbSpline
70
4
71
3
72
8
73
4
40
0
40
0
40
0
40
0
40
1
40
1
40
1
40
1
41
1
10
61.3954197896724
20
3.35498504393712
30
0
41
1
10
61.5584542209565
20
3.58056487284458
30
0
41
1
10
61.7214922282577
20
3.80551256823156
30
0
41
1
10
61.884529946162
20
4.02982382801696
30
0
0
SPLINE
5
160
100
AcDbEntity
8
1
62
256
6
ByLayer
370
13
48
1
60
0
100
AcDbSpline
70
4
71
3
72
9
73
5
40
0
40
0
40
0
40
0
40
0.875963029626212
40
1
40
1
40
1
40
1
41
1
10
61.5397292495533
20
1.30361682230156
30
0
41
1
10
61.4999816018332
20
1.97408746251898
30
0
41
1
10
61.4526139901613
20
2.71084079940186
30
0
41
1
10
61.4017751714403
20
3.28654888330843
30
0
41
1
10
61.3954197896716
20
3.35498504394516
30
0
0
SPLINE
5
161
100
AcDbEntity
8
1
62
256
6
ByLayer
370
18
48
1
60
0
100
AcDbSpline
70
4
71
3
72
32
73
28
40
0
40
0
40
0
40
0
40
0.125
40
0.125
40
0.15625
40
0.15625
40
0.187500000000001
40
0.250000000000001
40
0.250000000000001
40
0.375000000000002
40
0.500000000000003
40
0.500000000000003
40
0.531250000000003
40
0.531250000000003
40
0.562500000000003
40
0.562500000000003
40
0.625000000000003
40
0.625000000000003
40
0.750000000000002
40
0.750000000000002
40
0.875000000000001
40
0.875000000000001
40
0.937500000000001
40
0.937500000000001
40
0.96875
40
0.96875
40
1
40
1
40
1
40
1
41
1
10
66.938445217267
20
-3.61148551527444
30
0
41
1
10
66.9301991565703
20
-3.48986408693597
30
0
41
1
10
66.9219589081758
20
-3.36162317271976
30
0
41
1
10
66.911620282072
20
-3.19278458125459
30
0
41
1
10
66.9095475567707
20
-3.15853899876097
30
0
41
1
10
66.9054165342863
20
-3.08951987207919
30
0
41
1
10
66.8992387368099
20
-2.98515562729335
30
0
41
1
10
66.8931088927276
20
-2.87831529133266
30
0
41
1
10
66.8808898030112
20
-2.66138843901018
30
0
41
1
10
66.8647066513345
20
-2.3635124947175
30
0
41
1
10
66.848476924361
20
-2.04852742097148
30
0
41
1
10
66.8382390303696
20
-1.84619804636608
30
0
41
1
10
66.8361867679908
20
-1.80545829686608
30
0
41
1
10
66.8320710572006
20
-1.72342527133608
30
0
41
1
10
66.8300047209709
20
-1.68207392505681
30
0
41
1
10
66.8238091323971
20
-1.55763681420174
30
0
41
1
10
66.8196888501665
20
-1.47429491211602
30
0
41
1
10
66.8073481560753
20
-1.22314236548294
30
0
41
1
10
66.7991683589496
20
-1.05420687089418
30
0
41
1
10
66.7829190004328
20
-0.713388225348723
30
0
41
1
10
66.7748481588528
20
-0.541505061882361
30
0
41
1
10
66.7626427117579
20
-0.281448352236623
30
0
41
1
10
66.7585547044624
20
-0.194390211127001
30
0
41
1
10
66.7523595025999
20
-0.0632352239893521
30
0
41
1
10
66.7502831189442
20
-0.0193828394802722
30
0
41
1
10
66.7461219561545
20
0.0683384548385106
30
0
41
1
10
66.7440422207874
20
0.112101281960577
30
0
41
1
10
66.7419642779744
20
0.155767496678663
30
0
0
SPLINE
5
162
100
AcDbEntity
8
1
62
256
6
ByLayer
370
13
48
1
60
0
100
AcDbSpline
70
4
71
3
72
9
73
5
40
0
40
0
40
0
40
0
40
0.76038436186421
40
1
40
1
40
1
40
1
41
1.04
10
67.4408225362018
20
-3.16074258421343
30
0
41
1.04
10
67.3967508508021
20
-2.64247324979939
30
0
41
1.04
10
67.3383301696031
20
-1.74349960791102
30
0
41
1.04
10
67.2772821012447
20
-0.676542589591378
30
0
41
1.04
10
67.2625562402271
20
-0.416941433490938
30
0
0
SPLINE
5
163
100
AcDbEntity
8
1
62
256
6
ByLayer
370
18
48
1
60
0
100
AcDbSpline
70
4
71
3
72
26
73
22
40
0
40
0
40
0
40
0
40
0.125
40
0.125
40
0.25
40
0.375
40
0.375
40
0.4375
40
0.4375
40
0.5
40
0.5
40
0.625
40
0.750000000000001
40
0.750000000000001
40
0.812500000000001
40
0.812500000000001
40
0.843750000000001
40
0.843750000000001
40
0.875000000000001
40
0.875000000000001
40
1
40
1
40
1
40
1
41
1
10
72.3602611780743
20
4.32554762370077
30
0
41
1
10
72.3685556821119
20
4.23384994094465
30
0
41
1
10
72.3767171176185
20
4.13517762062801
30
0
41
1
10
72.3928937784113
20
3.92437521509683
30
0
41
1
10
72.4089243327214
20
3.70011129738438
30
0
41
1
10
72.4250281501018
20
3.44903835296273
30
0
41
1
10
72.437318775577
20
3.25040130965172
30
0
41
1
10
72.4414647666602
20
3.18229584848274
30
0
41
1
10
72.4497527606147
20
3.0440847019814
30
0
41
1
10
72.4539004820626
20
2.97384679305338
30
0
41
1
10
72.4663402451436
20
2.75979724111204
30
0
41
1
10
72.4829129700979
20
2.46551927697683
30
0
41
1
10
72.4994152009112
20
2.15370405692849
30
0
41
1
10
72.5117987165206
20
1.91314030016596
30
0
41
1
10
72.5159281917781
20
1.83183316104726
30
0
41
1
10
72.5221333401245
20
1.7081570498716
30
0
41
1
10
72.5241990301921
20
1.66673574620603
30
0
41
1
10
72.5283135863997
20
1.58376856848264
30
0
41
1
10
72.5303644867845
20
1.54218220330603
30
0
41
1
10
72.5405919508352
20
1.33374201333976
30
0
41
1
10
72.5486869571736
20
1.16536715095091
30
0
41
1
10
72.5567616977343
20
0.995406803939375
30
0
0
SPLINE
5
164
100
AcDbEntity
8
1
62
256
6
ByLayer
370
13
48
1
60
0
100
AcDbSpline
70
4
71
3
72
9
73
5
40
0
40
0
40
0
40
0
40
0.450887662414482
40
1
40
1
40
1
40
1
41
1
10
72.0317750037605
20
1.43604186300058
30
0
41
1
10
72.0045676353957
20
1.88872364931259
30
0
41
1
10
71.9449528306149
20
2.82006108081433
30
0
41
1
10
71.8858659951542
20
3.48889238008673
30
0
41
1
10
71.8533560100021
20
3.75304803934358
30
0
0
SPLINE
5
165
100
AcDbEntity
8
1
62
256
6
ByLayer
370
18
48
1
60
0
100
AcDbSpline
70
4
71
3
72
29
73
25
40
0
40
0
40
0
40
0
40
0.125
40
0.125
40
0.25
40
0.25
40
0.375
40
0.375
40
0.406249999999999
40
0.406249999999999
40
0.437499999999999
40
0.499999999999999
40
0.499999999999999
40
0.624999999999998
40
0.624999999999998
40
0.749999999999998
40
0.749999999999998
40
0.781249999999998
40
0.781249999999998
40
0.812499999999998
40
0.812499999999998
40
0.874999999999999
40
0.874999999999999
40
1
40
1
40
1
40
1
41
1
10
72.7091734871372
20
0.846090253067672
30
0
41
1
10
72.7009548125589
20
1.01881533682084
30
0
41
1
10
72.6928030684878
20
1.18875143940252
30
0
41
1
10
72.6765071678026
20
1.52319510688576
30
0
41
1
10
72.6683618672607
20
1.68770226157307
30
0
41
1
10
72.6519427923162
20
2.01126169683849
30
0
41
1
10
72.6436826800098
20
2.17031519335356
30
0
41
1
10
72.6333022045631
20
2.36560090025446
30
0
41
1
10
72.6312290530154
20
2.40436778770152
30
0
41
1
10
72.6270969677211
20
2.48115380816088
30
0
41
1
10
72.6209156509717
20
2.59529424452308
30
0
41
1
10
72.6147791169041
20
2.70635305193602
30
0
41
1
10
72.6025429176134
20
2.92442022170411
30
0
41
1
10
72.5944369560247
20
3.0644082636893
30
0
41
1
10
72.5781453952112
20
3.33365216484245
30
0
41
1
10
72.5699348804687
20
3.46290778864858
30
0
41
1
10
72.5595593125608
20
3.61758742643937
30
0
41
1
10
72.5574797220342
20
3.64817801546667
30
0
41
1
10
72.5533124179994
20
3.7086603546482
30
0
41
1
10
72.5512276798154
20
3.73850778458882
30
0
41
1
10
72.5449972164946
20
3.82650114702304
30
0
41
1
10
72.5408651296107
20
3.88324945226901
30
0
41
1
10
72.5285298476342
20
4.04786046341653
30
0
41
1
10
72.5203903882472
20
4.15010391374636
30
0
41
1
10
72.5122888671616
20
4.2449516295143
30
0
0
SPLINE
5
166
100
AcDbEntity
8
1
62
256
6
ByLayer
370
13
48
1
60
0
100
AcDbSpline
70
4
71
3
72
10
73
6
40
0
40
0
40
0
40
0
40
0.663510129854865
40
0.997206190255465
40
1
40
1
40
1
40
1
41
1
10
66.2611352108208
20
-2.43178315264006
30
0
41
1
10
66.2236193147507
20
-1.88753001704708
30
0
41
1
10
66.1656122751646
20
-0.912434627743608
30
0
41
1
10
66.1042695299025
20
0.184039875791768
30
0
41
1
10
66.0832920328148
20
0.552743929115081
30
0
41
1
10
66.0831178374755
20
0.555805182386052
30
0
0
SPLINE
5
167
100
AcDbEntity
8
1
62
256
6
ByLayer
370
18
48
1
60
0
100
AcDbSpline
70
4
71
3
72
29
73
25
40
0
40
0
40
0
40
0
40
0.125000000000001
40
0.125000000000001
40
0.187500000000002
40
0.187500000000002
40
0.218750000000002
40
0.218750000000002
40
0.250000000000002
40
0.250000000000002
40
0.375000000000002
40
0.375000000000002
40
0.500000000000002
40
0.500000000000002
40
0.625000000000002
40
0.625000000000002
40
0.656250000000002
40
0.656250000000002
40
0.687500000000001
40
0.750000000000001
40
0.750000000000001
40
0.875
40
0.875
40
1
40
1
40
1
40
1
41
1
10
66.589496715671
20
0.306856058882147
30
0
41
1
10
66.597530628558
20
0.133963633749573
30
0
41
1
10
66.6055013918903
20
-0.039284765481284
30
0
41
1
10
66.6175226043179
20
-0.299688879089302
30
0
41
1
10
66.6215417849924
20
-0.386578948833659
30
0
41
1
10
66.6276225314149
20
-0.517047761696006
30
0
41
1
10
66.6296582189317
20
-0.560559657152851
30
0
41
1
10
66.6337542294434
20
-0.64762821711318
30
0
41
1
10
66.6358157050777
20
-0.691197552220586
30
0
41
1
10
66.6461269972819
20
-0.907882945188049
30
0
41
1
10
66.6544356227983
20
-1.07853995928164
30
0
41
1
10
66.6711073209676
20
-1.41464075165948
30
0
41
1
10
66.6794689402777
20
-1.58008416700511
30
0
41
1
10
66.6961820051581
20
-1.90575710147434
30
0
41
1
10
66.7045320055646
20
-2.06598713579695
30
0
41
1
10
66.714951319913
20
-2.2629094677803
30
0
41
1
10
66.7170366581965
20
-2.30216631287979
30
0
41
1
10
66.7211833530657
20
-2.37990720752924
30
0
41
1
10
66.7273746918801
20
-2.49549553446735
30
0
41
1
10
66.7334844378876
20
-2.60805095425528
30
0
41
1
10
66.7456157461166
20
-2.82918172491293
30
0
41
1
10
66.7535815367938
20
-2.97130585765302
30
0
41
1
10
66.7694669913914
20
-3.24504053491179
30
0
41
1
10
66.7773847706197
20
-3.37665149357662
30
0
41
1
10
66.7854544771779
20
-3.50287596593901
30
0
0
SPLINE
5
168
100
AcDbEntity
8
1
62
256
6
ByLayer
370
13
48
1
60
0
100
AcDbSpline
70
4
71
3
72
9
73
5
40
0
40
0
40
0
40
0
40
0.575105219390947
40
1
40
1
40
1
40
1
41
1
10
63.1135468171382
20
0.0192074562715163
30
0
41
1
10
63.08005604503
20
0.611884621476293
30
0
41
1
10
63.0208559227893
20
1.65891407361582
30
0
41
1
10
62.961110043512
20
2.54790171218048
30
0
41
1
10
62.9356232583096
20
2.87813195113628
30
0
0
SPLINE
5
169
100
AcDbEntity
8
1
62
256
6
ByLayer
370
18
48
1
60
0
100
AcDbSpline
70
4
71
3
72
28
73
24
40
0
40
0
40
0
40
0
40
0.124999999999998
40
0.124999999999998
40
0.187499999999997
40
0.187499999999997
40
0.218749999999997
40
0.218749999999997
40
0.249999999999997
40
0.249999999999997
40
0.374999999999997
40
0.374999999999997
40
0.499999999999998
40
0.499999999999998
40
0.624999999999998
40
0.624999999999998
40
0.687499999999999
40
0.687499999999999
40
0.749999999999999
40
0.749999999999999
40
0.874999999999999
40
0.874999999999999
40
1
40
1
40
1
40
1
41
1
10
63.4419166025783
20
3.18436050958638
30
0
41
1
10
63.4500337113499
20
3.04953472238401
30
0
41
1
10
63.4580755815749
20
2.90937516402741
30
0
41
1
10
63.4701557149264
20
2.69109577488228
30
0
41
1
10
63.4741862239484
20
2.61699341606561
30
0
41
1
10
63.4802628191969
20
2.50379734248824
30
0
41
1
10
63.4822935548265
20
2.46572472580255
30
0
41
1
10
63.4863704469075
20
2.38889141392829
30
0
41
1
10
63.4884185231156
20
2.35009417014987
30
0
41
1
10
63.4986898903943
20
2.15477724604497
30
0
41
1
10
63.506974699153
20
1.99573455078416
30
0
41
1
10
63.5236233206876
20
1.67226321865215
30
0
41
1
10
63.5319573427431
20
1.50783270712873
30
0
41
1
10
63.5485186039839
20
1.17359437091329
30
0
41
1
10
63.5567450916585
20
1.00378683224008
30
0
41
1
10
63.5690258652633
20
0.744927603572563
30
0
41
1
10
63.5731197083566
20
0.657756732233395
30
0
41
1
10
63.5812213551501
20
0.483934504989236
30
0
41
1
10
63.585238484181
20
0.397090220123829
30
0
41
1
10
63.5972386420224
20
0.136756524378654
30
0
41
1
10
63.6051647462891
20
-0.0365345099120589
30
0
41
1
10
63.6212631530258
20
-0.382575046376161
30
0
41
1
10
63.6295075041276
20
-0.555321178312511
30
0
41
1
10
63.6379042974601
20
-0.727790075551269
30
0
0
SPLINE
5
16A
100
AcDbEntity
8
1
62
256
6
ByLayer
370
18
48
1
60
0
100
AcDbSpline
70
4
71
3
72
28
73
24
40
0
40
0
40
0
40
0
40
0.125000000000001
40
0.250000000000003
40
0.250000000000003
40
0.375000000000004
40
0.375000000000004
40
0.406250000000004
40
0.406250000000004
40
0.437500000000004
40
0.437500000000004
40
0.500000000000004
40
0.500000000000004
40
0.625000000000003
40
0.625000000000003
40
0.750000000000002
40
0.750000000000002
40
0.812500000000001
40
0.843750000000001
40
0.843750000000001
40
0.875000000000001
40
0.875000000000001
40
1
40
1
40
1
40
1
41
1
10
61.8845299461613
20
4.02982382802711
30
0
41
1
10
61.8920219424543
20
3.93274586311193
30
0
41
1
10
61.9068115412642
20
3.72786692198287
30
0
41
1
10
61.9216585285757
20
3.50210344703888
30
0
41
1
10
61.936618962176
20
3.26589533103021
30
0
41
1
10
61.9441549158566
20
3.14256958712812
30
0
41
1
10
61.9536659732363
20
2.98170684434669
30
0
41
1
10
61.9555726576299
20
2.94919828949074
30
0
41
1
10
61.9593952403902
20
2.88350169258257
30
0
41
1
10
61.9613060601591
20
2.85040056605203
30
0
41
1
10
61.9670257310287
20
2.75054546534651
30
0
41
1
10
61.9708267019022
20
2.68315587853948
30
0
41
1
10
61.9821945859545
20
2.47857142850646
30
0
41
1
10
61.9897256472154
20
2.33896609467408
30
0
41
1
10
62.0047084299559
20
2.05341988118252
30
0
41
1
10
62.0121589633626
20
1.90747888969642
30
0
41
1
10
62.0233155146853
20
1.68376240720116
30
0
41
1
10
62.028889607838
20
1.57070099011872
30
0
41
1
10
62.0344731078344
20
1.45580670382142
30
0
41
1
10
62.0381999988626
20
1.37879875375435
30
0
41
1
10
62.040067037876
20
1.34006060711374
30
0
41
1
10
62.0493714792563
20
1.14635195043652
30
0
41
1
10
62.056757643405
20
0.990585267602597
30
0
41
1
10
62.0641766145345
20
0.834047185873914
30
0
0
SPLINE
5
16B
100
AcDbEntity
8
1
62
256
6
ByLayer
370
18
48
1
60
0
100
AcDbSpline
70
4
71
3
72
28
73
24
40
0
40
0
40
0
40
0
40
0.125
40
0.249999999999999
40
0.249999999999999
40
0.312499999999999
40
0.312499999999999
40
0.343749999999999
40
0.343749999999999
40
0.374999999999999
40
0.374999999999999
40
0.499999999999998
40
0.624999999999997
40
0.624999999999997
40
0.687499999999997
40
0.687499999999997
40
0.718749999999997
40
0.718749999999997
40
0.749999999999997
40
0.749999999999997
40
0.874999999999998
40
0.874999999999998
40
1
40
1
40
1
40
1
41
1
10
62.2165658354665
20
0.683867564666059
30
0
41
1
10
62.208309295567
20
0.856161174752998
30
0
41
1
10
62.1920650201779
20
1.19659512725383
30
0
41
1
10
62.1761083838072
20
1.52883174821468
30
0
41
1
10
62.164045872795
20
1.77487375036094
30
0
41
1
10
62.1600080870008
20
1.85636411629054
30
0
41
1
10
62.1538904368027
20
1.97779644427021
30
0
41
1
10
62.1518393698531
20
2.01817032108062
30
0
41
1
10
62.1477337150799
20
2.09818777412983
30
0
41
1
10
62.1456760033302
20
2.13788565807195
30
0
41
1
10
62.1353709236772
20
2.33483829752041
30
0
41
1
10
62.1187892112684
20
2.64015309727995
30
0
41
1
10
62.1022945223138
20
2.92632018976931
30
0
41
1
10
62.0899661994926
20
3.13370840432015
30
0
41
1
10
62.0858629366725
20
3.2016292473379
30
0
41
1
10
62.0797100553713
20
3.30166834865551
30
0
41
1
10
62.0776593706447
20
3.33470752911347
30
0
41
1
10
62.073556610741
20
3.40016463899528
30
0
41
1
10
62.0715017719193
20
3.43262521525446
30
0
41
1
10
62.0612706534915
20
3.59253662430353
30
0
41
1
10
62.0532026755213
20
3.71323068156016
30
0
41
1
10
62.0370804667795
20
3.94060973529372
30
0
41
1
10
62.0290175231503
20
4.04729317874188
30
0
41
1
10
62.020832946263
20
4.14697535775164
30
0
0
SPLINE
5
16C
100
AcDbEntity
8
1
62
256
6
ByLayer
370
13
48
1
60
0
100
AcDbSpline
70
4
71
3
72
9
73
5
40
0
40
0
40
0
40
0
40
0.464845952909933
40
1
40
1
40
1
40
1
41
1.04
10
62.7193524281749
20
0.346396413905208
30
0
41
1.04
10
62.6922185889704
20
0.824946768321438
30
0
41
1.04
10
62.6331736418299
20
1.85166907399866
30
0
41
1.04
10
62.5735870553175
20
2.72329302869942
30
0
41
1.04
10
62.5415388798059
20
3.10771150070497
30
0
0
SPLINE
5
16D
100
AcDbEntity
8
1
62
256
6
ByLayer
370
18
48
1
60
0
100
AcDbSpline
70
4
71
3
72
34
73
30
40
0
40
0
40
0
40
0
40
0.0312499999999998
40
0.0312499999999998
40
0.0624999999999997
40
0.0624999999999997
40
0.125
40
0.125
40
0.249999999999999
40
0.249999999999999
40
0.374999999999999
40
0.374999999999999
40
0.437499999999999
40
0.437499999999999
40
0.468749999999999
40
0.468749999999999
40
0.499999999999999
40
0.499999999999999
40
0.624999999999999
40
0.624999999999999
40
0.75
40
0.75
40
0.8125
40
0.8125
40
0.84375
40
0.84375
40
0.875
40
0.875
40
1
40
1
40
1
40
1
41
1
10
65.0155179495381
20
1.83334546924226
30
0
41
1
10
65.0175797028609
20
1.79260444196521
30
0
41
1
10
65.0196458912653
20
1.75158433198916
30
0
41
1
10
65.023788307652
20
1.66897921027146
30
0
41
1
10
65.0258571765108
20
1.627540850228
30
0
41
1
10
65.0320502380567
20
1.50298020590446
30
0
41
1
10
65.0361645756755
20
1.41954418572126
30
0
41
1
10
65.048469448654
20
1.16807115095514
30
0
41
1
10
65.0566166045026
20
0.998871919229003
30
0
41
1
10
65.0728604509037
20
0.657414302135066
30
0
41
1
10
65.0809584107828
20
0.485156015384575
30
0
41
1
10
65.0931688406653
20
0.224435450960016
30
0
41
1
10
65.097250001753
20
0.137139004387024
30
0
41
1
10
65.1034035953826
20
0.0055979421446466
30
0
41
1
10
65.1054568126109
20
-0.0382777512144798
30
0
41
1
10
65.1095535214922
20
-0.125739416135474
30
0
41
1
10
65.1115994302547
20
-0.169377038070792
30
0
41
1
10
65.1218228615234
20
-0.387103674635057
30
0
41
1
10
65.1299841516728
20
-0.559811872853658
30
0
41
1
10
65.1463986371377
20
-0.902339622728874
30
0
41
1
10
65.1546589788096
20
-1.0721587605891
30
0
41
1
10
65.1671415063587
20
-1.32469855929
30
0
41
1
10
65.1713075930249
20
-1.40851343904433
30
0
41
1
10
65.1775357989277
20
-1.53368016516126
30
0
41
1
10
65.179608685043
20
-1.57530974573513
30
0
41
1
10
65.1837468610807
20
-1.65838147963439
30
0
41
1
10
65.185811820556
20
-1.69981688216907
30
0
41
1
10
65.1960601874631
20
-1.90531292489584
30
0
41
1
10
65.2040430685799
20
-2.06532297867102
30
0
41
1
10
65.2120245196585
20
-2.22107002609849
30
0
0
SPLINE
5
16E
100
AcDbEntity
8
1
62
256
6
ByLayer
370
18
48
1
60
0
100
AcDbSpline
70
4
71
3
72
33
73
29
40
0
40
0
40
0
40
0
40
0.125000000000001
40
0.125000000000001
40
0.156250000000001
40
0.156250000000001
40
0.187500000000001
40
0.25
40
0.25
40
0.375
40
0.375
40
0.499999999999999
40
0.499999999999999
40
0.531249999999999
40
0.531249999999999
40
0.562499999999998
40
0.562499999999998
40
0.624999999999999
40
0.624999999999999
40
0.749999999999999
40
0.749999999999999
40
0.875
40
0.875
40
0.9375
40
0.9375
40
0.96875
40
0.96875
40
1
40
1
40
1
40
1
41
1
10
63.7909327352183
20
-0.878360776843834
30
0
41
1
10
63.7828252943695
20
-0.707660158292811
30
0
41
1
10
63.7746339872311
20
-0.534876990466302
30
0
41
1
10
63.7642694378349
20
-0.316201610241961
30
0
41
1
10
63.7621959383102
20
-0.272449827452959
30
0
41
1
10
63.758057819784
20
-0.185128852204997
30
0
41
1
10
63.7518590944516
20
-0.0543189853774777
30
0
41
1
10
63.7456848673198
20
0.0759817540350411
30
0
41
1
10
63.7333655600521
20
0.335914083854135
30
0
41
1
10
63.7251934845725
20
0.508311922690609
30
0
41
1
10
63.7088821623447
20
0.851333901862461
30
0
41
1
10
63.7007447941839
20
1.0219582228622
30
0
41
1
10
63.6905128866457
20
1.23409676905433
30
0
41
1
10
63.6884632072747
20
1.27646722732462
30
0
41
1
10
63.6843538732528
20
1.36109214389648
30
0
41
1
10
63.6822959100077
20
1.40330782263197
30
0
41
1
10
63.6761389367192
20
1.529053531485
30
0
41
1
10
63.672045717726
20
1.61191415336577
30
0
41
1
10
63.659782746096
20
1.85764096207814
30
0
41
1
10
63.6516289920369
20
2.01765942487583
30
0
41
1
10
63.6353004896018
20
2.33020260583038
30
0
41
1
10
63.6271268339166
20
2.48272743255004
30
0
41
1
10
63.6148112842343
20
2.7057950655653
30
0
41
1
10
63.6106968966914
20
2.77919582274222
30
0
41
1
10
63.6045051603313
20
2.88783404466645
30
0
41
1
10
63.6024370580551
20
2.92381586608724
30
0
41
1
10
63.5983170275936
20
2.99487202281361
30
0
41
1
10
63.5962621199811
20
3.0299990359328
30
0
41
1
10
63.5942116302081
20
3.0647293022156
30
0
0
SPLINE
5
16F
100
AcDbEntity
8
1
62
256
6
ByLayer
370
13
48
1
60
0
100
AcDbSpline
70
4
71
3
72
9
73
5
40
0
40
0
40
0
40
0
40
0.662275441578386
40
1
40
1
40
1
40
1
41
1.04
10
64.2931743960031
20
-0.95073345622862
30
0
41
1.04
10
64.2512948547018
20
-0.229472279634471
30
0
41
1.04
10
64.1913751615385
20
0.864094938587648
30
0
41
1.04
10
64.1342986500177
20
1.79898567666399
30
0
41
1.04
10
64.1152413594976
20
2.09162181664419
30
0
0
SPLINE
5
170
100
AcDbEntity
8
1
62
256
6
ByLayer
370
18
48
1
60
0
100
AcDbSpline
70
4
71
3
72
29
73
25
40
0
40
0
40
0
40
0
40
0.125000000000001
40
0.125000000000001
40
0.250000000000002
40
0.250000000000002
40
0.312500000000002
40
0.312500000000002
40
0.343750000000002
40
0.343750000000002
40
0.375000000000002
40
0.375000000000002
40
0.500000000000002
40
0.500000000000002
40
0.625000000000003
40
0.625000000000003
40
0.750000000000003
40
0.750000000000003
40
0.781250000000003
40
0.781250000000003
40
0.812500000000003
40
0.875000000000002
40
0.875000000000002
40
1
40
1
40
1
40
1
41
1
10
68.5124268873274
20
-4.52359385797999
30
0
41
1
10
68.5043542302303
20
-4.4447130272514
30
0
41
1
10
68.4963307674175
20
-4.35832024714071
30
0
41
1
10
68.4801549808915
20
-4.17085587604561
30
0
41
1
10
68.4719777604099
20
-4.06978449566
30
0
41
1
10
68.4595455889789
20
-3.90707332117887
30
0
41
1
10
68.4553785181362
20
-3.85098185326135
30
0
41
1
10
68.4490992108971
20
-3.76401697225336
30
0
41
1
10
68.4470012887756
20
-3.73455715608455
30
0
41
1
10
68.442796338243
20
-3.67468376574578
30
0
41
1
10
68.4406876540048
20
-3.64424480661296
30
0
41
1
10
68.4301825814537
20
-3.49053055339149
30
0
41
1
10
68.4218588466617
20
-3.36208610554559
30
0
41
1
10
68.4053477972014
20
-3.09459438871616
30
0
41
1
10
68.3971599843798
20
-2.95554621378409
30
0
41
1
10
68.3808458013181
20
-2.66684711175984
30
0
41
1
10
68.3727189858444
20
-2.51719709082968
30
0
41
1
10
68.3625296550164
20
-2.32329678375754
30
0
41
1
10
68.3604874931087
20
-2.28412151606918
30
0
41
1
10
68.3564192595182
20
-2.20548960172672
30
0
41
1
10
68.3503363372918
20
-2.0870283285465
30
0
41
1
10
68.3443008674896
20
-1.96704574086067
30
0
41
1
10
68.3322565744817
20
-1.72508673007624
30
0
41
1
10
68.3242617017738
20
-1.56112743382974
30
0
41
1
10
68.3162109731703
20
-1.39454225158531
30
0
0
SPLINE
5
171
100
AcDbEntity
8
1
62
256
6
ByLayer
370
18
48
1
60
0
100
AcDbSpline
70
4
71
3
72
32
73
28
40
0
40
0
40
0
40
0
40
0.0312499999999998
40
0.0312499999999998
40
0.0624999999999995
40
0.124999999999999
40
0.124999999999999
40
0.249999999999998
40
0.249999999999998
40
0.374999999999997
40
0.374999999999997
40
0.406249999999997
40
0.406249999999997
40
0.437499999999997
40
0.437499999999997
40
0.499999999999997
40
0.499999999999997
40
0.624999999999997
40
0.749999999999998
40
0.749999999999998
40
0.812499999999998
40
0.812499999999998
40
0.843749999999998
40
0.843749999999998
40
0.874999999999999
40
0.874999999999999
40
1
40
1
40
1
40
1
41
1
10
68.1630563427292
20
-1.24767025573883
30
0
41
1
10
68.1651072270175
20
-1.29011065076651
30
0
41
1
10
68.1671655210221
20
-1.33255137415503
30
0
41
1
10
68.1712759579017
20
-1.41687922735548
30
0
41
1
10
68.177437619619
20
-1.54264956551617
30
0
41
1
10
68.1835921330552
20
-1.666281316332
30
0
41
1
10
68.1959005951193
20
-1.9107394301858
30
0
41
1
10
68.2041057553206
20
-2.0699782095017
30
0
41
1
10
68.2205443808796
20
-2.38105346633071
30
0
41
1
10
68.2287768499832
20
-2.53289026032527
30
0
41
1
10
68.2391038603706
20
-2.71795260485811
30
0
41
1
10
68.2411711308416
20
-2.7547277912908
30
0
41
1
10
68.2453101560855
20
-2.82779842964726
30
0
41
1
10
68.2473849515848
20
-2.86414648952353
30
0
41
1
10
68.2535908597246
20
-2.97200173610901
30
0
41
1
10
68.2577022931566
20
-3.04230529866402
30
0
41
1
10
68.2699731614762
20
-3.24851522431635
30
0
41
1
10
68.2861630045236
20
-3.51095097221256
30
0
41
1
10
68.3022111155919
20
-3.74879608647313
30
0
41
1
10
68.3143069967799
20
-3.91782627247471
30
0
41
1
10
68.3183493545647
20
-3.97260769912887
30
0
41
1
10
68.324447064949
20
-4.05239159235251
30
0
41
1
10
68.3264877824131
20
-4.07861830756315
30
0
41
1
10
68.3305726709652
20
-4.1301202543965
30
0
41
1
10
68.3326135780801
20
-4.15535556971304
30
0
41
1
10
68.3428192898203
20
-4.27898391754283
30
0
41
1
10
68.3509965679722
20
-4.36975272153541
30
0
41
1
10
68.3592743949937
20
-4.45260167116751
30
0
0
SPLINE
5
172
100
AcDbEntity
8
1
62
256
6
ByLayer
370
18
48
1
60
0
100
AcDbSpline
70
4
71
3
72
28
73
24
40
0
40
0
40
0
40
0
40
0.124999999999999
40
0.124999999999999
40
0.249999999999999
40
0.249999999999999
40
0.312499999999998
40
0.312499999999998
40
0.343749999999998
40
0.343749999999998
40
0.374999999999998
40
0.374999999999998
40
0.499999999999999
40
0.499999999999999
40
0.624999999999999
40
0.624999999999999
40
0.749999999999999
40
0.749999999999999
40
0.812499999999999
40
0.812499999999999
40
0.874999999999999
40
0.874999999999999
40
1
40
1
40
1
40
1
41
1
10
65.3640021669095
20
-2.35616296154231
30
0
41
1
10
65.3558684688024
20
-2.2018126378091
30
0
41
1
10
65.3478532300429
20
-2.04418573526561
30
0
41
1
10
65.3318772486081
20
-1.722507407942
30
0
41
1
10
65.3239155657083
20
-1.55845591624902
30
0
41
1
10
65.3118519200724
20
-1.30750486396943
30
0
41
1
10
65.3078103555118
20
-1.22304064777202
30
0
41
1
10
65.3016968725357
20
-1.09510172572357
30
0
41
1
10
65.2996493506
20
-1.05222365261997
30
0
41
1
10
65.295538864227
20
-0.966152308729846
30
0
41
1
10
65.2934824992071
20
-0.923097383064572
30
0
41
1
10
65.2831878540355
20
-0.707727988839139
30
0
41
1
10
65.2748835552308
20
-0.535131319444275
30
0
41
1
10
65.2582503590259
20
-0.189347021575145
30
0
41
1
10
65.2499384746719
20
-0.0161585420157735
30
0
41
1
10
65.2333752014257
20
0.330815939594288
30
0
41
1
10
65.2251221919239
20
0.504601803771209
30
0
41
1
10
65.2127154835586
20
0.765741577378662
30
0
41
1
10
65.2086080999413
20
0.85216677198909
30
0
41
1
10
65.2004436292822
20
1.02359224685796
30
0
41
1
10
65.1963848445563
20
1.1086274339587
30
0
41
1
10
65.1842503868417
20
1.36172789707516
30
0
41
1
10
65.1762169204864
20
1.52779324980926
30
0
41
1
10
65.1681548558087
20
1.69119922252128
30
0
0
SPLINE
5
173
100
AcDbEntity
8
1
62
256
6
ByLayer
370
13
48
1
60
0
100
AcDbSpline
70
4
71
3
72
10
73
6
40
0
40
0
40
0
40
0
40
0.554533285421453
40
0.891788225728264
40
1
40
1
40
1
40
1
41
1.04
10
65.8669837138617
20
-2.15698921379607
30
0
41
1.04
10
65.8356433147422
20
-1.67961214949565
30
0
41
1.04
10
65.7839934828511
20
-0.806203595601054
30
0
41
1.04
10
65.7232981410172
20
0.278702550686478
30
0
41
1.04
10
65.6956833266362
20
0.761930149581803
30
0
41
1.04
10
65.6889360114422
20
0.878894336440794
30
0
0
SPLINE
5
174
100
AcDbEntity
8
1
62
256
6
ByLayer
370
18
48
1
60
0
100
AcDbSpline
70
4
71
3
72
14
73
10
40
0
40
0
40
0
40
0
40
0.34677897015027
40
0.34677897015027
40
0.510084227612689
40
0.510084227612689
40
0.673389485075109
40
0.673389485075109
40
1
40
1
40
1
40
1
41
1
10
60.6275830352143
20
-3.46032325496978
30
0
41
1
10
60.5679089581959
20
-3.43504406419231
30
0
41
1
10
60.5066060851617
20
-3.41325477726278
30
0
41
1
10
60.4145820719245
20
-3.38643976704273
30
0
41
1
10
60.384838611421
20
-3.37864325056546
30
0
41
1
10
60.3248541138217
20
-3.36464041397679
30
0
41
1
10
60.2947165286885
20
-3.35845932436473
30
0
41
1
10
60.2041650171415
20
-3.34237614491542
30
0
41
1
10
60.1435313511622
20
-3.33490861698348
30
0
41
1
10
60.0828365983202
20
-3.33061673898004
30
0
0
SPLINE
5
175
100
AcDbEntity
8
1
62
256
6
ByLayer
370
18
48
1
60
0
100
AcDbSpline
70
4
71
3
72
118
73
114
40
0
40
0
40
0
40
0
40
0.0156958769016963
40
0.0156958769016963
40
0.0313917538033925
40
0.0313917538033925
40
0.0627835076067866
40
0.0627835076067866
40
0.0784793845084836
40
0.0784793845084836
40
0.0941752614101806
40
0.0941752614101806
40
0.109871138311878
40
0.109871138311878
40
0.125567015213575
40
0.125567015213575
40
0.156958769016967
40
0.156958769016967
40
0.164806707467815
40
0.164806707467815
40
0.172654645918662
40
0.188350522820357
40
0.188350522820357
40
0.204046399722051
40
0.204046399722051
40
0.219742276623746
40
0.219742276623746
40
0.251134030427136
40
0.251134030427136
40
0.282525784230525
40
0.282525784230525
40
0.29822166113222
40
0.29822166113222
40
0.313917538033915
40
0.313917538033915
40
0.321765476484762
40
0.321765476484762
40
0.329613414935608
40
0.329613414935608
40
0.345309291837301
40
0.345309291837301
40
0.376701045640688
40
0.376701045640688
40
0.392396922542382
40
0.392396922542382
40
0.408092799444076
40
0.408092799444076
40
0.439484553247465
40
0.439484553247465
40
0.470876307050855
40
0.470876307050855
40
0.486572183952549
40
0.486572183952549
40
0.494420122403397
40
0.494420122403397
40
0.502268060854245
40
0.502268060854245
40
0.517963937755939
40
0.517963937755939
40
0.533659814657633
40
0.533659814657633
40
0.565051568461019
40
0.565051568461019
40
0.580747445362713
40
0.580747445362713
40
0.596443322264406
40
0.596443322264406
40
0.612139199166099
40
0.612139199166099
40
0.627835076067792
40
0.627835076067792
40
0.643530952969485
40
0.643530952969485
40
0.651378891420332
40
0.651378891420332
40
0.659226829871179
40
0.659226829871179
40
0.690618583674565
40
0.690618583674565
40
0.698466522125411
40
0.698466522125411
40
0.706314460576258
40
0.706314460576258
40
0.72201033747795
40
0.72201033747795
40
0.753402091281337
40
0.753402091281337
40
0.784793845084723
40
0.784793845084723
40
0.800489721986417
40
0.800489721986417
40
0.81618559888811
40
0.81618559888811
40
0.824033537338957
40
0.824033537338957
40
0.831881475789805
40
0.847577352691499
40
0.847577352691499
40
0.87896910649489
40
0.87896910649489
40
0.894664983396585
40
0.894664983396585
40
0.91036086029828
40
0.91036086029828
40
0.94175261410167
40
0.94175261410167
40
0.973144367905059
40
0.973144367905059
40
0.980992306355907
40
0.980992306355907
40
0.988840244806755
40
0.988840244806755
40
1
40
1
40
1
40
1
41
1
10
60.0828365983202
20
-3.33061673898004
30
0
41
1
10
59.9820204941733
20
-3.32348777972871
30
0
41
1
10
59.8813894213442
20
-3.31443799945654
30
0
41
1
10
59.6806989417906
20
-3.29251376814935
30
0
41
1
10
59.5805816512949
20
-3.27965106424887
30
0
41
1
10
59.2808735176075
20
-3.23541446594305
30
0
41
1
10
59.08189529758
20
-3.19839278041627
30
0
41
1
10
58.7838624306138
20
-3.13198637272367
30
0
41
1
10
58.6845909102338
20
-3.10803919904308
30
0
41
1
10
58.486045692678
20
-3.05661252700173
30
0
41
1
10
58.3867645146439
20
-3.02913595551888
30
0
41
1
10
58.1879228221343
20
-2.97085157195605
30
0
41
1
10
58.0883261127638
20
-2.94007513919794
30
0
41
1
10
57.8889931470903
20
-2.87511358610357
30
0
41
1
10
57.7892925977318
20
-2.84089680022382
30
0
41
1
10
57.4899439832237
20
-2.73307289559236
30
0
41
1
10
57.290007728639
20
-2.65431719554437
30
0
41
1
10
57.0388326378446
20
-2.54773895147304
30
0
41
1
10
56.9885000666352
20
-2.52600159896968
30
0
41
1
10
56.8878543917595
20
-2.4817991803788
30
0
41
1
10
56.7370835744553
20
-2.41447992988313
30
0
41
1
10
56.5868203265098
20
-2.34422604193818
30
0
41
1
10
56.3867522426276
20
-2.24817107749499
30
0
41
1
10
56.2868279370993
20
-2.1989891280943
30
0
41
1
10
56.0871125909653
20
-2.09845828373193
30
0
41
1
10
55.9873796829729
20
-2.04704108252096
30
0
41
1
10
55.6886793343176
20
-1.88918672790189
30
0
41
1
10
55.4901112801005
20
-1.77925848746472
30
0
41
1
10
55.0928824213299
20
-1.5515546651967
30
0
41
1
10
54.8942466528372
20
-1.43374757596797
30
0
41
1
10
54.5954326547219
20
-1.25220546659486
30
0
41
1
10
54.4956804405074
20
-1.1908923325023
30
0
41
1
10
54.2956888818351
20
-1.06694277714945
30
0
41
1
10
54.1954007119267
20
-1.00438230589964
30
0
41
1
10
54.0447212470738
20
-0.90936246721617
30
0
41
1
10
53.9944520129807
20
-0.877494239394224
30
0
41
1
10
53.8938072219386
20
-0.813394304330757
30
0
41
1
10
53.8433858568501
20
-0.781132723622903
30
0
41
1
10
53.692353683939
20
-0.684106140736304
30
0
41
1
10
53.59196820673
20
-0.619097382785327
30
0
41
1
10
53.2915152148398
20
-0.423413901801467
30
0
41
1
10
53.0921783432615
20
-0.292039931972255
30
0
41
1
10
52.7937412933587
20
-0.0949560132770557
30
0
41
1
10
52.6943422254725
20
-0.0292804081340137
30
0
41
1
10
52.4954717496198
20
0.101677287111613
30
0
41
1
10
52.3959620849392
20
0.166900741286383
30
0
41
1
10
52.0974131161797
20
0.362122860243176
30
0
41
1
10
51.8986520256369
20
0.492129960971283
30
0
41
1
10
51.5005857004231
20
0.75017705976154
30
0
41
1
10
51.3012938193853
20
0.878237386388435
30
0
41
1
10
51.0011288531587
20
1.06759035040909
30
0
41
1
10
50.9008612992209
20
1.13023964119421
30
0
41
1
10
50.7500031902158
20
1.22330101006258
30
0
41
1
10
50.6995961653741
20
1.2541963378832
30
0
41
1
10
50.5989125505195
20
1.31546322973656
30
0
41
1
10
50.5486198049771
20
1.34584159150592
30
0
41
1
10
50.3978779687455
20
1.43620728099612
30
0
41
1
10
50.2975615263051
20
1.49542218003063
30
0
41
1
10
50.0974219287164
20
1.61202095926385
30
0
41
1
10
49.9975801006782
20
1.66937609831993
30
0
41
1
10
49.6985560507565
20
1.83837344149265
30
0
41
1
10
49.4998809331111
20
1.94695149202516
30
0
41
1
10
49.2020591696858
20
2.10266763583138
30
0
41
1
10
49.102812679848
20
2.15337648231557
30
0
41
1
10
48.9042247735825
20
2.25222725967041
30
0
41
1
10
48.8048997108451
20
2.30038610043991
30
0
41
1
10
48.6058217380576
20
2.39377458585958
30
0
41
1
10
48.5060927549711
20
2.43903698030488
30
0
41
1
10
48.3065431062017
20
2.52699930966745
30
0
41
1
10
48.2066960456245
20
2.56966765165495
30
0
41
1
10
48.006730162655
20
2.65220914216505
30
0
41
1
10
47.9066076445412
20
2.69207866046438
30
0
41
1
10
47.7561180286763
20
2.74965562670519
30
0
41
1
10
47.7059043348842
20
2.76847719340955
30
0
41
1
10
47.6053596250673
20
2.80535773227823
30
0
41
1
10
47.5549867477133
20
2.82343016451347
30
0
41
1
10
47.3035902004721
20
2.91153407737295
30
0
41
1
10
47.103562908948
20
2.97493596690606
30
0
41
1
10
46.8539774810793
20
3.04496839940669
30
0
41
1
10
46.8040834943115
20
3.05851510173036
30
0
41
1
10
46.7043008824341
20
3.0846727764189
30
0
41
1
10
46.6544009067303
20
3.09727782015958
30
0
41
1
10
46.5048432989315
20
3.13378123920322
30
0
41
1
10
46.4052992919189
20
3.15634778257839
30
0
41
1
10
46.107007168813
20
3.21864256200465
30
0
41
1
10
45.9085712741685
20
3.25294146390976
30
0
41
1
10
45.5113223354334
20
3.30646355185951
30
0
41
1
10
45.3125176736019
20
3.3256889635411
30
0
41
1
10
45.0131071790893
20
3.34293784749755
30
0
41
1
10
44.9130963754867
20
3.34675698214613
30
0
41
1
10
44.7125056291425
20
3.35051449085572
30
0
41
1
10
44.611935954891
20
3.3504601312728
30
0
41
1
10
44.460873556684
20
3.34742597324814
30
0
41
1
10
44.4104377908374
20
3.34591937149895
30
0
41
1
10
44.309791675624
20
3.34192533652026
30
0
41
1
10
44.159057341916
20
3.33446347644764
30
0
41
1
10
44.0089325088493
20
3.32261768841252
30
0
41
1
10
43.7092530087729
20
3.29317961001388
30
0
41
1
10
43.5102259002044
20
3.26588635970055
30
0
41
1
10
43.2119096426088
20
3.21395729814716
30
0
41
1
10
43.1125089002509
20
3.19481748419102
30
0
41
1
10
42.9136310344826
20
3.15298311308433
30
0
41
1
10
42.8141218049512
20
3.13030908063109
30
0
41
1
10
42.5156575530008
20
3.05688766705663
30
0
41
1
10
42.3168099271614
20
3.00069629113284
30
0
41
1
10
41.9183757406291
20
2.87415612641163
30
0
41
1
10
41.7187824738302
20
2.8038023066087
30
0
41
1
10
41.4679708057358
20
2.70749989142561
30
0
41
1
10
41.4177417333394
20
2.6878228166502
30
0
41
1
10
41.3171275645931
20
2.64765238869458
30
0
41
1
10
41.2667145972637
20
2.62714655094985
30
0
41
1
10
41.1448466997995
20
2.57670570236982
30
0
41
1
10
41.0733809368736
20
2.54643623637179
30
0
41
1
10
41.0020232243591
20
2.51549706970152
30
0
0
SPLINE
5
176
100
AcDbEntity
8
1
62
256
6
ByLayer
370
18
48
1
60
0
100
AcDbSpline
70
4
71
3
72
114
73
110
40
0
40
0
40
0
40
0
40
0.0181854548552081
40
0.0181854548552081
40
0.0363709097104161
40
0.0363709097104161
40
0.0454636371380201
40
0.0454636371380201
40
0.0545563645656241
40
0.0545563645656241
40
0.0727418194208314
40
0.0727418194208314
40
0.0818345468484343
40
0.0818345468484343
40
0.0909272742760371
40
0.0909272742760371
40
0.109112729131244
40
0.109112729131244
40
0.145483638841659
40
0.145483638841659
40
0.154576366269263
40
0.154576366269263
40
0.163669093696868
40
0.163669093696868
40
0.181854548552078
40
0.181854548552078
40
0.218225458262501
40
0.218225458262501
40
0.236410913117712
40
0.236410913117712
40
0.245503640545316
40
0.245503640545316
40
0.254596367972921
40
0.254596367972921
40
0.290967277683339
40
0.290967277683339
40
0.327338187393757
40
0.327338187393757
40
0.336430914821361
40
0.336430914821361
40
0.345523642248965
40
0.345523642248965
40
0.363709097104173
40
0.363709097104173
40
0.381894551959381
40
0.381894551959381
40
0.400080006814589
40
0.400080006814589
40
0.409172734242193
40
0.409172734242193
40
0.418265461669797
40
0.418265461669797
40
0.436450916525005
40
0.436450916525005
40
0.445543643952609
40
0.445543643952609
40
0.454636371380213
40
0.454636371380213
40
0.47282182623542
40
0.47282182623542
40
0.509192735945833
40
0.509192735945833
40
0.545563645656246
40
0.545563645656246
40
0.554656373083849
40
0.554656373083849
40
0.563749100511451
40
0.563749100511451
40
0.581934555366659
40
0.581934555366659
40
0.618305465077073
40
0.618305465077073
40
0.636490919932281
40
0.636490919932281
40
0.654676374787488
40
0.654676374787488
40
0.691047284497903
40
0.691047284497903
40
0.727418194208317
40
0.727418194208317
40
0.745603649063524
40
0.745603649063524
40
0.754696376491127
40
0.754696376491127
40
0.76378910391873
40
0.76378910391873
40
0.800160013629145
40
0.800160013629145
40
0.83653092333956
40
0.83653092333956
40
0.845623650767163
40
0.845623650767163
40
0.854716378194765
40
0.854716378194765
40
0.872901833049971
40
0.872901833049971
40
0.909272742760381
40
0.909272742760381
40
0.918365470187984
40
0.918365470187984
40
0.927458197615587
40
0.927458197615587
40
0.945643652470794
40
0.945643652470794
40
0.963829107326
40
0.963829107326
40
0.982014562181207
40
0.982014562181207
40
1
40
1
40
1
40
1
41
1
10
38.3122930005857
20
3.28865146479672
30
0
41
1
10
38.4266919542821
20
3.27442825438237
30
0
41
1
10
38.541021458917
20
3.25774621412168
30
0
41
1
10
38.7695509670272
20
3.219413266071
30
0
41
1
10
38.8838124441903
20
3.19774840407973
30
0
41
1
10
39.0547277149455
20
3.16149859028437
30
0
41
1
10
39.111626032591
20
3.14878594707432
30
0
41
1
10
39.2254719967125
20
3.12220016424189
30
0
41
1
10
39.2824374496299
20
3.10833737737889
30
0
41
1
10
39.453602033031
20
3.06514749311606
30
0
41
1
10
39.5679282059499
20
3.03414436579112
30
0
41
1
10
39.7396049495965
20
2.98428049909481
30
0
41
1
10
39.7968565597903
20
2.96710632384145
30
0
41
1
10
39.9111394752649
20
2.93174331009339
30
0
41
1
10
39.9682075768805
20
2.91354398188898
30
0
41
1
10
40.1391868471989
20
2.85739995372308
30
0
41
1
10
40.2528622121304
20
2.81790124915372
30
0
41
1
10
40.593039128267
20
2.69330031832368
30
0
41
1
10
40.8186625288138
20
2.60207029351898
30
0
41
1
10
41.0998231315921
20
2.47828845965339
30
0
41
1
10
41.1560719285054
20
2.45310592611301
30
0
41
1
10
41.2686954462895
20
2.40199754185923
30
0
41
1
10
41.3250517520129
20
2.37605275001798
30
0
41
1
10
41.4942139558971
20
2.29701539631014
30
0
41
1
10
41.6071284507635
20
2.24273753262628
30
0
41
1
10
41.9462892972923
20
2.0751850987846
30
0
41
1
10
42.1729050521311
20
1.9571605165043
30
0
41
1
10
42.5135593198613
20
1.77030907344633
30
0
41
1
10
42.6272175484281
20
1.70636226406944
30
0
41
1
10
42.7979381674358
20
1.60795386288567
30
0
41
1
10
42.8549290611401
20
1.57470806975465
30
0
41
1
10
42.9688874629024
20
1.50765907164569
30
0
41
1
10
43.0258082410262
20
1.47393366522505
30
0
41
1
10
43.3102464358293
20
1.3044952740062
30
0
41
1
10
43.5371837775563
20
1.1662356307435
30
0
41
1
10
43.9901173725539
20
0.884885782441557
30
0
41
1
10
44.2161024121864
20
0.741780063605972
30
0
41
1
10
44.4979380711501
20
0.559785839042377
30
0
41
1
10
44.5542686788853
20
0.523224497327021
30
0
41
1
10
44.6668328727942
20
0.449737593885175
30
0
41
1
10
44.7230484370484
20
0.412784120701929
30
0
41
1
10
44.8917320742049
20
0.301653769343403
30
0
41
1
10
45.0043836757025
20
0.227433609867148
30
0
41
1
10
45.2303367016328
20
0.0791389734533539
30
0
41
1
10
45.3436023613805
20
0.0050096563322484
30
0
41
1
10
45.5706480249824
20
-0.143311667279818
30
0
41
1
10
45.6844377047065
20
-0.217488767194027
30
0
41
1
10
45.8555717868763
20
-0.32870751890087
30
0
41
1
10
45.9126911235289
20
-0.365773117993655
30
0
41
1
10
46.0270794616565
20
-0.43989117348977
30
0
41
1
10
46.0843632550672
20
-0.476953092573296
30
0
41
1
10
46.2557354807071
20
-0.587679769378752
30
0
41
1
10
46.3695761193169
20
-0.66103285212381
30
0
41
1
10
46.539665771642
20
-0.770455567530433
30
0
41
1
10
46.5962474181877
20
-0.806832715265813
30
0
41
1
10
46.709239968719
20
-0.879299617879269
30
0
41
1
10
46.765641909814
20
-0.915402168993523
30
0
41
1
10
46.9349994591261
20
-1.02266888285436
30
0
41
1
10
47.0479477892807
20
-1.09303702130151
30
0
41
1
10
47.3867788218125
20
-1.30101092088478
30
0
41
1
10
47.6127449763969
20
-1.4353617874489
30
0
41
1
10
48.0643488095256
20
-1.69620550322827
30
0
41
1
10
48.2900796477955
20
-1.82255737816817
30
0
41
1
10
48.5724737651583
20
-1.9747711364237
30
0
41
1
10
48.6289679049756
20
-2.00492146589536
30
0
41
1
10
48.7421339581699
20
-2.06444702657365
30
0
41
1
10
48.7988433003312
20
-2.09377567690933
30
0
41
1
10
48.969382152235
20
-2.18042809479016
30
0
41
1
10
49.083541096434
20
-2.23654867697957
30
0
41
1
10
49.427026534126
20
-2.40018229668857
30
0
41
1
10
49.6548008448613
20
-2.50157160005554
30
0
41
1
10
49.9947599315429
20
-2.64228566283492
30
0
41
1
10
50.1077978412852
20
-2.68728567950464
30
0
41
1
10
50.3333834876326
20
-2.77338647088246
30
0
41
1
10
50.4458988254197
20
-2.81450815378909
30
0
41
1
10
50.7835548557089
20
-2.93127960327055
30
0
41
1
10
51.0091966832715
20
-3.00008786362136
30
0
41
1
10
51.4614247604802
20
-3.12010758410466
30
0
41
1
10
51.6878988819419
20
-3.17137423306008
30
0
41
1
10
52.0285032648778
20
-3.23454982041645
30
0
41
1
10
52.1421856218877
20
-3.25331767417012
30
0
41
1
10
52.3129399340578
20
-3.27791652937972
30
0
41
1
10
52.3699332916668
20
-3.28553594863882
30
0
41
1
10
52.4837910414949
20
-3.29946770752525
30
0
41
1
10
52.5406900873708
20
-3.30577914830656
30
0
41
1
10
52.8250746914865
20
-3.33412698102916
30
0
41
1
10
53.0522316814016
20
-3.34661252113091
30
0
41
1
10
53.5050321331668
20
-3.35219247484767
30
0
41
1
10
53.7308070174233
20
-3.34523668126843
30
0
41
1
10
54.0124798143883
20
-3.32427831274941
30
0
41
1
10
54.0687852538121
20
-3.319471439697
30
0
41
1
10
54.1813397789459
20
-3.30861656789421
30
0
41
1
10
54.2375774008754
20
-3.3025647179775
30
0
41
1
10
54.4063939304374
20
-3.28258125900587
30
0
41
1
10
54.5191880943771
20
-3.26685931688317
30
0
41
1
10
54.8583659926195
20
-3.21259833940059
30
0
41
1
10
55.0854555153613
20
-3.16695708306204
30
0
41
1
10
55.370697021729
20
-3.09796005288084
30
0
41
1
10
55.4278172565248
20
-3.08356295200451
30
0
41
1
10
55.5422083432383
20
-3.05356431383529
30
0
41
1
10
55.5994354699179
20
-3.03797284706101
30
0
41
1
10
55.7706556928218
20
-2.98957186146592
30
0
41
1
10
55.8843999907928
20
-2.95508517484905
30
0
41
1
10
56.1110211517923
20
-2.8816182091382
30
0
41
1
10
56.2238665712089
20
-2.84259937963685
30
0
41
1
10
56.4496224923391
20
-2.760842901046
30
0
41
1
10
56.5625537173964
20
-2.71813798528399
30
0
41
1
10
56.787146616727
20
-2.62953991935174
30
0
41
1
10
56.89881494931
20
-2.58369576781135
30
0
41
1
10
57.0104875019634
20
-2.53607999227646
30
0
0
SPLINE
5
177
100
AcDbEntity
8
1
62
256
6
ByLayer
370
18
48
1
60
0
100
AcDbSpline
70
4
71
3
72
32
73
28
40
0
40
0
40
0
40
0
40
0.019436366175446
40
0.019436366175446
40
0.0894766257343248
40
0.0894766257343248
40
0.159516885293203
40
0.159516885293203
40
0.299597404410961
40
0.299597404410961
40
0.369637663969839
40
0.369637663969839
40
0.439677923528718
40
0.439677923528718
40
0.579758442646538
40
0.579758442646538
40
0.649798702205449
40
0.649798702205449
40
0.719838961764359
40
0.719838961764359
40
0.789879221323269
40
0.789879221323269
40
0.85991948088218
40
0.85991948088218
40
0.92995974044109
40
0.92995974044109
40
1
40
1
40
1
40
1
41
1
10
69.9176414250235
20
4.16213050506474
30
0
41
1
10
69.9195530706422
20
4.16005513476486
30
0
41
1
10
69.9214922649551
20
4.158017453328
30
0
41
1
10
69.9305407468329
20
4.14880245392172
30
0
41
1
10
69.9379744159462
20
4.14206891695167
30
0
41
1
10
69.9535036602784
20
4.12950826126743
30
0
41
1
10
69.9615192908906
20
4.12374969605332
30
0
41
1
10
69.986035631654
20
4.10804895577908
30
0
41
1
10
70.003091116159
20
4.09958701553555
30
0
41
1
10
70.0296414135025
20
4.08970681753263
30
0
41
1
10
70.038686403387
20
4.0868798952846
30
0
41
1
10
70.0569575843791
20
4.08224121714017
30
0
41
1
10
70.06612598563
20
4.08044014431962
30
0
41
1
10
70.0937161256012
20
4.07657490298908
30
0
41
1
10
70.112222006456
20
4.07602339670473
30
0
41
1
10
70.1401125984164
20
4.07857963364776
30
0
41
1
10
70.1494828317142
20
4.08001552855583
30
0
41
1
10
70.1679222677733
20
4.08409322456581
30
0
41
1
10
70.1770046551959
20
4.0867283945615
30
0
41
1
10
70.1948637896217
20
4.09328843695269
30
0
41
1
10
70.2036408666805
20
4.09721189916067
30
0
41
1
10
70.2208386027257
20
4.10653406129475
30
0
41
1
10
70.2292684201501
20
4.11195508444573
30
0
41
1
10
70.2452069333793
20
4.12417001697656
30
0
41
1
10
70.2527789253257
20
4.13099088740233
30
0
41
1
10
70.2670035169656
20
4.14628479609115
30
0
41
1
10
70.2736762067491
20
4.15480466562093
30
0
41
1
10
70.2796196834113
20
4.1640808781026
30
0
0
SPLINE
5
178
100
AcDbEntity
8
1
62
256
6
ByLayer
370
18
48
1
60
0
100
AcDbSpline
70
4
71
3
72
12
73
8
40
0
40
0
40
0
40
0
40
0.50000000000001
40
0.50000000000001
40
0.750000000000005
40
0.750000000000005
40
1
40
1
40
1
40
1
41
1
10
70.2796196834112
20
4.16408087810294
30
0
41
1
10
70.3652727379231
20
4.29776289260477
30
0
41
1
10
70.4503231142951
20
4.42834655191703
30
0
41
1
10
70.5769474880003
20
4.6189876404832
30
0
41
1
10
70.6189937358174
20
4.68165762990816
30
0
41
1
10
70.7027094854543
20
4.80508620607111
30
0
41
1
10
70.7443941098118
20
4.86586771717612
30
0
41
1
10
70.7859311676248
20
4.92571282485773
30
0
0
SPLINE
5
179
100
AcDbEntity
8
1
62
256
6
ByLayer
370
18
48
1
60
0
100
AcDbSpline
70
4
71
3
72
8
73
4
40
0
40
0
40
0
40
0
40
1
40
1
40
1
40
1
41
1
10
70.9389221605671
20
4.88742580535117
30
0
41
1
10
70.8879374224846
20
4.90092960509426
30
0
41
1
10
70.8369408949308
20
4.91369134800306
30
0
41
1
10
70.7859311676248
20
4.92571282485764
30
0
0
SPLINE
5
17A
100
AcDbEntity
8
1
62
256
6
ByLayer
370
18
48
1
60
0
100
AcDbSpline
70
4
71
3
72
12
73
8
40
0
40
0
40
0
40
0
40
0.500000000000008
40
0.500000000000008
40
0.750000000000004
40
0.750000000000004
40
1
40
1
40
1
40
1
41
1
10
70.9389221605667
20
4.88742580534449
30
0
41
1
10
71.0243336465566
20
4.72546787845098
30
0
41
1
10
71.1103790792335
20
4.56117427910854
30
0
41
1
10
71.2404136064602
20
4.31204947314819
30
0
41
1
10
71.2839403037639
20
4.22851867449933
30
0
41
1
10
71.3712820758641
20
4.06079411860321
30
0
41
1
10
71.4151140691784
20
3.9765707713976
30
0
41
1
10
71.4591616074161
20
3.8919913937988
30
0
0
SPLINE
5
17B
100
AcDbEntity
8
1
62
256
6
ByLayer
370
18
48
1
60
0
100
AcDbSpline
70
4
71
3
72
32
73
28
40
0
40
0
40
0
40
0
40
0.125000000000037
40
0.125000000000037
40
0.187500000000056
40
0.187500000000056
40
0.250000000000075
40
0.250000000000075
40
0.375000000000062
40
0.375000000000062
40
0.437500000000056
40
0.437500000000056
40
0.50000000000005
40
0.50000000000005
40
0.625000000000038
40
0.625000000000038
40
0.687500000000031
40
0.687500000000031
40
0.750000000000025
40
0.750000000000025
40
0.812500000000019
40
0.812500000000019
40
0.875000000000013
40
0.875000000000013
40
0.937500000000006
40
0.937500000000006
40
1
40
1
40
1
40
1
41
1
10
71.4591616074161
20
3.8919913937988
30
0
41
1
10
71.4701420422013
20
3.87090693875203
30
0
41
1
10
71.4829407836327
20
3.8518518846725
30
0
41
1
10
71.5041878423251
20
3.82553881036031
30
0
41
1
10
71.5116203531575
20
3.81715609908048
30
0
41
1
10
71.5271459712852
20
3.80112371526994
30
0
41
1
10
71.535157253356
20
3.7935621093761
30
0
41
1
10
71.5596633538623
20
3.77230485832706
30
0
41
1
10
71.5767117915921
20
3.75992811940114
30
0
41
1
10
71.6032516564666
20
3.74386933796813
30
0
41
1
10
71.6122923436325
20
3.73892402958188
30
0
41
1
10
71.6305598343347
20
3.72997191097053
30
0
41
1
10
71.639726798416
20
3.72599063334297
30
0
41
1
10
71.6673137641534
20
3.71551058880186
30
0
41
1
10
71.6858190455481
20
3.71045175923723
30
0
41
1
10
71.7137109380953
20
3.70606356275852
30
0
41
1
10
71.7230825761608
20
3.70514024038871
30
0
41
1
10
71.7415345782843
20
3.70451368528856
30
0
41
1
10
71.7506236024325
20
3.704801245347
30
0
41
1
10
71.7684965357907
20
3.70667258540755
30
0
41
1
10
71.7772807719266
20
3.70825494423451
30
0
41
1
10
71.7944931351959
20
3.71289965081539
30
0
41
1
10
71.8029338940107
20
3.71598194638295
30
0
41
1
10
71.8188939656865
20
3.72366634626738
30
0
41
1
10
71.8264763189905
20
3.72827819307494
30
0
41
1
10
71.8407203144539
20
3.73928450782705
30
0
41
1
10
71.8474032953408
20
3.74571930337521
30
0
41
1
10
71.8533560100022
20
3.75304803934273
30
0
0
SPLINE
5
17C
100
AcDbEntity
8
1
62
256
6
ByLayer
370
18
48
1
60
0
100
AcDbSpline
70
4
71
3
72
12
73
8
40
0
40
0
40
0
40
0
40
0.499999999999999
40
0.499999999999999
40
0.75
40
0.75
40
1
40
1
40
1
40
1
41
1
10
71.8533560100021
20
3.75304803934358
30
0
41
1
10
71.9391005447438
20
3.85861316240411
30
0
41
1
10
72.0242456855826
20
3.95927066469756
30
0
41
1
10
72.1510183318694
20
4.10253269326034
30
0
41
1
10
72.1931147922629
20
4.14899645285885
30
0
41
1
10
72.2769336166297
20
4.23924973264113
30
0
41
1
10
72.318670886048
20
4.28305632427617
30
0
41
1
10
72.3602611780743
20
4.32554762370094
30
0
0
SPLINE
5
17D
100
AcDbEntity
8
1
62
256
6
ByLayer
370
18
48
1
60
0
100
AcDbSpline
70
4
71
3
72
8
73
4
40
0
40
0
40
0
40
0
40
1
40
1
40
1
40
1
41
1
10
72.5122888671736
20
4.24495162951467
30
0
41
1
10
72.4616651816986
20
4.27242555864657
30
0
41
1
10
72.4109912699944
20
4.2992929339085
30
0
41
1
10
72.3602611780744
20
4.32554762370077
30
0
0
SPLINE
5
17E
100
AcDbEntity
8
1
62
256
6
ByLayer
370
18
48
1
60
0
100
AcDbSpline
70
4
71
3
72
12
73
8
40
0
40
0
40
0
40
0
40
0.5
40
0.5
40
0.75
40
0.75
40
1
40
1
40
1
40
1
41
1
10
72.5122888671714
20
4.24495162950026
30
0
41
1
10
72.5976732324596
20
4.07177970940165
30
0
41
1
10
72.6837413528763
20
3.89856471602153
30
0
41
1
10
72.8138611262718
20
3.63959296165382
30
0
41
1
10
72.8574266520913
20
3.55336558817623
30
0
41
1
10
72.9448534084661
20
3.38144795852216
30
0
41
1
10
72.9887287226444
20
3.29572985949017
30
0
41
1
10
73.032802386795
20
3.21027406281323
30
0
0
SPLINE
5
17F
100
AcDbEntity
8
1
62
256
6
ByLayer
370
18
48
1
60
0
100
AcDbSpline
70
4
71
3
72
8
73
4
40
0
40
0
40
0
40
0
40
1
40
1
40
1
40
1
41
1
10
68.3592743949938
20
-4.4526016711676
30
0
41
1
10
68.4103185666102
20
-4.4769396198289
30
0
41
1
10
68.4613654807744
20
-4.50060567774284
30
0
41
1
10
68.5124268873274
20
-4.52359385797999
30
0
0
SPLINE
5
180
100
AcDbEntity
8
1
62
256
6
ByLayer
370
18
48
1
60
0
100
AcDbSpline
70
4
71
3
72
30
73
26
40
0
40
0
40
0
40
0
40
0.125
40
0.125
40
0.25
40
0.25
40
0.375
40
0.375
40
0.4375
40
0.4375
40
0.5
40
0.5
40
0.624999999999999
40
0.624999999999999
40
0.687499999999999
40
0.687499999999999
40
0.75
40
0.75
40
0.8125
40
0.8125
40
0.875
40
0.875
40
0.9375
40
0.9375
40
1
40
1
40
1
40
1
41
1
10
67.8349617595527
20
-3.36817097778481
30
0
41
1
10
67.8243889192179
20
-3.34648017306
30
0
41
1
10
67.812112206463
20
-3.32619662223365
30
0
41
1
10
67.7848969015504
20
-3.28781725143341
30
0
41
1
10
67.7698168894464
20
-3.26962587946821
30
0
41
1
10
67.7381439681972
20
-3.23634389384588
30
0
41
1
10
67.7214790497252
20
-3.22112197322252
30
0
41
1
10
67.6952915953312
20
-3.20036165333227
30
0
41
1
10
67.6863594442412
20
-3.19379437519842
30
0
41
1
10
67.6684048448728
20
-3.18159090207968
30
0
41
1
10
67.6593445506534
20
-3.17592330341958
30
0
41
1
10
67.6319226060329
20
-3.16023936424906
30
0
41
1
10
67.6133235852159
20
-3.15151653022912
30
0
41
1
10
67.5849247435157
20
-3.1414724714563
30
0
41
1
10
67.5753710196294
20
-3.13864511951516
30
0
41
1
10
67.5565440184011
20
-3.13426167947597
30
0
41
1
10
67.5472163077432
20
-3.1326833323391
30
0
41
1
10
67.5287625027996
20
-3.13089126719342
30
0
41
1
10
67.5196091339059
20
-3.13067721628272
30
0
41
1
10
67.5016654399301
20
-3.13185973115708
30
0
41
1
10
67.4930203351767
20
-3.13324307502597
30
0
41
1
10
67.4764674442426
20
-3.13778173323968
30
0
41
1
10
67.4685258926712
20
-3.14095198412369
30
0
41
1
10
67.4536751932122
20
-3.14935423082082
30
0
41
1
10
67.4468883440919
20
-3.15450755279863
30
0
41
1
10
67.4408225362018
20
-3.16074258421338
30
0
0
SPLINE
5
181
100
AcDbEntity
8
1
62
256
6
ByLayer
370
18
48
1
60
0
100
AcDbSpline
70
4
71
3
72
12
73
8
40
0
40
0
40
0
40
0
40
0.5
40
0.5
40
0.75
40
0.75
40
1
40
1
40
1
40
1
41
1
10
67.4408225362018
20
-3.16074258421341
30
0
41
1
10
67.3561055429253
20
-3.24782300680769
30
0
41
1
10
67.2718081318838
20
-3.32893418399712
30
0
41
1
10
67.1461444134769
20
-3.44164053111754
30
0
41
1
10
67.1043831823859
20
-3.47771749589882
30
0
41
1
10
67.021198892323
20
-3.54683894724056
30
0
41
1
10
66.9797582138924
20
-3.57989947977907
30
0
41
1
10
66.938445217267
20
-3.61148551527444
30
0
0
SPLINE
5
182
100
AcDbEntity
8
1
62
256
6
ByLayer
370
18
48
1
60
0
100
AcDbSpline
70
4
71
3
72
8
73
4
40
0
40
0
40
0
40
0
40
1
40
1
40
1
40
1
41
1
10
66.7854544771729
20
-3.50287596594038
30
0
41
1
10
66.8364451746208
20
-3.53960885618162
30
0
41
1
10
66.8874383862563
20
-3.57581483174596
30
0
41
1
10
66.938445217267
20
-3.61148551527444
30
0
0
SPLINE
5
183
100
AcDbEntity
8
1
62
256
6
ByLayer
370
18
48
1
60
0
100
AcDbSpline
70
4
71
3
72
10
73
6
40
0
40
0
40
0
40
0
40
0.5
40
0.5
40
1
40
1
40
1
40
1
41
1
10
66.7854544771737
20
-3.50287596593483
30
0
41
1
10
66.6991913941242
20
-3.3210456619372
30
0
41
1
10
66.6124672744537
20
-3.14061069151549
30
0
41
1
10
66.4375984333245
20
-2.78290792109342
30
0
41
1
10
66.3497239611746
20
-2.60619076222443
30
0
41
1
10
66.2611352066
20
-2.43178309140805
30
0
0
SPLINE
5
184
100
AcDbEntity
8
1
62
256
6
ByLayer
370
18
48
1
60
0
100
AcDbSpline
70
4
71
3
72
30
73
26
40
0
40
0
40
0
40
0
40
0.125000000000033
40
0.125000000000033
40
0.250000000000067
40
0.250000000000067
40
0.3750000000001
40
0.3750000000001
40
0.43750000000009
40
0.43750000000009
40
0.500000000000079
40
0.500000000000079
40
0.62500000000006
40
0.62500000000006
40
0.68750000000005
40
0.68750000000005
40
0.75000000000004
40
0.75000000000004
40
0.81250000000003
40
0.81250000000003
40
0.87500000000002
40
0.87500000000002
40
0.93750000000001
40
0.93750000000001
40
1
40
1
40
1
40
1
41
1
10
66.2611352066
20
-2.43178309140802
30
0
41
1
10
66.2505576861338
20
-2.41095876989709
30
0
41
1
10
66.238275506559
20
-2.3908978850076
30
0
41
1
10
66.2110500843585
20
-2.35197830684353
30
0
41
1
10
66.1959655913345
20
-2.33300471782926
30
0
41
1
10
66.164287637447
20
-2.29730072124792
30
0
41
1
10
66.1476216441633
20
-2.28044165054473
30
0
41
1
10
66.1214360330339
20
-2.25658831616335
30
0
41
1
10
66.1125060994432
20
-2.24888219565412
30
0
41
1
10
66.0945565870271
20
-2.23421937140088
30
0
41
1
10
66.0854992718267
20
-2.22722711842201
30
0
41
1
10
66.0580873128359
20
-2.2072752191809
30
0
41
1
10
66.0394964640818
20
-2.19532096104268
30
0
41
1
10
66.0111079645301
20
-2.17972875322985
30
0
41
1
10
66.0015587395998
20
-2.17493215854995
30
0
41
1
10
65.9827379396485
20
-2.16643800546135
30
0
41
1
10
65.9734121176336
20
-2.16270827304052
30
0
41
1
10
65.9549591534214
20
-2.1563971279686
30
0
41
1
10
65.9458033737772
20
-2.15380800167017
30
0
41
1
10
65.9278578365577
20
-2.15001448383305
30
0
41
1
10
65.9192102235074
20
-2.14883697714734
30
0
41
1
10
65.9026499592971
20
-2.14808912566653
30
0
41
1
10
65.8947021774153
20
-2.14852200392059
30
0
41
1
10
65.8798441393707
20
-2.151302005069
30
0
41
1
10
65.8730532890376
20
-2.15361873570112
30
0
41
1
10
65.8669837132385
20
-2.15698920430233
30
0
0
SPLINE
5
185
100
AcDbEntity
8
1
62
256
6
ByLayer
370
18
48
1
60
0
100
AcDbSpline
70
4
71
3
72
12
73
8
40
0
40
0
40
0
40
0
40
0.499999999999999
40
0.499999999999999
40
0.749999999999999
40
0.749999999999999
40
1
40
1
40
1
40
1
41
1
10
65.8669837132385
20
-2.15698920430231
30
0
41
1
10
65.7821524793117
20
-2.20409645196111
30
0
41
1
10
65.697738783693
20
-2.24421668217454
30
0
41
1
10
65.5719200170923
20
-2.29394147564309
30
0
41
1
10
65.5301103071085
20
-2.30877908596119
30
0
41
1
10
65.4468361701736
20
-2.3350187891983
30
0
41
1
10
65.4053538774517
20
-2.3464282763716
30
0
41
1
10
65.3640021669095
20
-2.35616296154234
30
0
0
SPLINE
5
186
100
AcDbEntity
8
1
62
256
6
ByLayer
370
18
48
1
60
0
100
AcDbSpline
70
4
71
3
72
8
73
4
40
0
40
0
40
0
40
0
40
1
40
1
40
1
40
1
41
1
10
65.2120245196483
20
-2.22107002609965
30
0
41
1
10
65.2626782976894
20
-2.26643300482624
30
0
41
1
10
65.3133341657934
20
-2.31146708665844
30
0
41
1
10
65.3640021669095
20
-2.35616296154231
30
0
0
SPLINE
5
187
100
AcDbEntity
8
1
62
256
6
ByLayer
370
18
48
1
60
0
100
AcDbSpline
70
4
71
3
72
10
73
6
40
0
40
0
40
0
40
0
40
0.5
40
0.5
40
1
40
1
40
1
40
1
41
1
10
65.21202451965
20
-2.2210700260917
30
0
41
1
10
65.1257679192261
20
-2.05402553196296
30
0
41
1
10
65.039020419453
20
-1.8907030720683
30
0
41
1
10
64.8640314353436
20
-1.57188578469828
30
0
41
1
10
64.7760580034911
20
-1.41688070775129
30
0
41
1
10
64.6873641789981
20
-1.26647629973152
30
0
0
SPLINE
5
188
100
AcDbEntity
8
1
62
256
6
ByLayer
370
18
48
1
60
0
100
AcDbSpline
70
4
71
3
72
30
73
26
40
0
40
0
40
0
40
0
40
0.125000000000005
40
0.125000000000005
40
0.25000000000001
40
0.25000000000001
40
0.375000000000015
40
0.375000000000015
40
0.437499999999991
40
0.437499999999991
40
0.499999999999967
40
0.499999999999967
40
0.624999999999974
40
0.624999999999974
40
0.687499999999979
40
0.687499999999979
40
0.749999999999983
40
0.749999999999983
40
0.812499999999988
40
0.812499999999988
40
0.874999999999992
40
0.874999999999992
40
0.937499999999996
40
0.937499999999996
40
1
40
1
40
1
40
1
41
1
10
64.6873641789981
20
-1.26647629973152
30
0
41
1
10
64.6767603188976
20
-1.248494582174
30
0
41
1
10
64.6644447202282
20
-1.23056031839039
30
0
41
1
10
64.6371452396832
20
-1.19479531885096
30
0
41
1
10
64.6220066987339
20
-1.17682857376096
30
0
41
1
10
64.5903316877653
20
-1.14218486243061
30
0
41
1
10
64.5737127713244
20
-1.12538018217074
30
0
41
1
10
64.547683378686
20
-1.10088984569322
30
0
41
1
10
64.5388216194127
20
-1.09284695334785
30
0
41
1
10
64.520717680324
20
-1.07700555838076
30
0
41
1
10
64.5115832555491
20
-1.06930214771501
30
0
41
1
10
64.4840579458901
20
-1.0469289179691
30
0
41
1
10
64.4654980342175
20
-1.03294177890587
30
0
41
1
10
64.4373579862182
20
-1.01348120978381
30
0
41
1
10
64.427927503546
20
-1.00725012585622
30
0
41
1
10
64.4089605586554
20
-0.995365592266836
30
0
41
1
10
64.3995657282316
20
-0.989802515629236
30
0
41
1
10
64.3811014007663
20
-0.979568276310175
30
0
41
1
10
64.3720127863204
20
-0.974884264935554
30
0
41
1
10
64.3541760932539
20
-0.966509673710107
30
0
41
1
10
64.3453900468152
20
-0.962811208847768
30
0
41
1
10
64.3287886387086
20
-0.956811251542206
30
0
41
1
10
64.3209077529283
20
-0.954473507146531
30
0
41
1
10
64.3061266432696
20
-0.951342948395194
30
0
41
1
10
64.2992472473053
20
-0.950567997788539
30
0
41
1
10
64.2931743960031
20
-0.950733456228619
30
0
0
SPLINE
5
189
100
AcDbEntity
8
1
62
256
6
ByLayer
370
18
48
1
60
0
100
AcDbSpline
70
4
71
3
72
12
73
8
40
0
40
0
40
0
40
0
40
0.499999999999989
40
0.499999999999989
40
0.749999999999994
40
0.749999999999994
40
1
40
1
40
1
40
1
41
1
10
64.2931743960032
20
-0.950733456228619
30
0
41
1
10
64.2084834684752
20
-0.953040910842873
30
0
41
1
10
64.1242102954302
20
-0.947980213177033
30
0
41
1
10
63.9985780844529
20
-0.929749616456093
30
0
41
1
10
63.9568267737807
20
-0.921897449199861
30
0
41
1
10
63.8736630705002
20
-0.902724031762574
30
0
41
1
10
63.8322333007882
20
-0.891399710099137
30
0
41
1
10
63.7909327352182
20
-0.878360776843778
30
0
0
SPLINE
5
18A
100
AcDbEntity
8
1
62
256
6
ByLayer
370
18
48
1
60
0
100
AcDbSpline
70
4
71
3
72
8
73
4
40
0
40
0
40
0
40
0
40
1
40
1
40
1
40
1
41
1
10
63.6379042974601
20
-0.727790075551269
30
0
41
1
10
63.6889133419108
20
-0.778087246304437
30
0
41
1
10
63.7399185814561
20
-0.828281746268544
30
0
41
1
10
63.7909327352182
20
-0.878360776843778
30
0
0
SPLINE
5
18B
100
AcDbEntity
8
1
62
256
6
ByLayer
370
18
48
1
60
0
100
AcDbSpline
70
4
71
3
72
10
73
6
40
0
40
0
40
0
40
0
40
0.5
40
0.5
40
1
40
1
40
1
40
1
41
1
10
63.6379042974601
20
-0.727790075551297
30
0
41
1
10
63.551594484632
20
-0.591382258095393
30
0
41
1
10
63.4647958474834
20
-0.460700876348057
30
0
41
1
10
63.2898956816606
20
-0.211193059712059
30
0
41
1
10
63.2020584567601
20
-0.0927554536503408
30
0
41
1
10
63.1135468171382
20
0.0192074562715163
30
0
0
SPLINE
5
18C
100
AcDbEntity
8
1
62
256
6
ByLayer
370
18
48
1
60
0
100
AcDbSpline
70
4
71
3
72
30
73
26
40
0
40
0
40
0
40
0
40
0.124999999999938
40
0.124999999999938
40
0.249999999999877
40
0.249999999999877
40
0.374999999999815
40
0.374999999999815
40
0.437499999999811
40
0.437499999999811
40
0.499999999999807
40
0.499999999999807
40
0.624999999999855
40
0.624999999999855
40
0.687499999999879
40
0.687499999999879
40
0.749999999999904
40
0.749999999999904
40
0.812499999999928
40
0.812499999999928
40
0.874999999999952
40
0.874999999999952
40
0.937499999999976
40
0.937499999999976
40
1
40
1
40
1
40
1
41
1
10
63.1135468171382
20
0.0192074562715163
30
0
41
1
10
63.10296065872
20
0.0325984306841463
30
0
41
1
10
63.0906673815637
20
0.0466694165192507
30
0
41
1
10
63.0634187791421
20
0.0758258788503952
30
0
41
1
10
63.048322094427
20
0.0910320858999398
30
0
41
1
10
63.0166229222637
20
0.121461001580059
30
0
41
1
10
62.9999475296042
20
0.13677101424932
30
0
41
1
10
62.9737509287243
20
0.159912272656015
30
0
41
1
10
62.9648191259266
20
0.167654648515594
30
0
41
1
10
62.9468665854219
20
0.182942261899086
30
0
41
1
10
62.9378081702312
20
0.190521146618181
30
0
41
1
10
62.9103942652781
20
0.213074682011864
30
0
41
1
10
62.8918038141135
20
0.227868565609555
30
0
41
1
10
62.8634198128429
20
0.249704738237341
30
0
41
1
10
62.8538749096298
20
0.25692155337066
30
0
41
1
10
62.8350627166793
20
0.270891461954761
30
0
41
1
10
62.8257413951536
20
0.277686727019272
30
0
41
1
10
62.8072977596427
20
0.290865033076102
30
0
41
1
10
62.7981468692309
20
0.297267976822781
30
0
41
1
10
62.7802109749378
20
0.309511387081159
30
0
41
1
10
62.7715676056309
20
0.315256081438207
30
0
41
1
10
62.7550142832754
20
0.325906293232691
30
0
41
1
10
62.7470695955418
20
0.330833164152125
30
0
41
1
10
62.7322138607782
20
0.339586854671211
30
0
41
1
10
62.7254229597094
20
0.343344865311821
30
0
41
1
10
62.7193524281749
20
0.346396413905268
30
0
0
SPLINE
5
18D
100
AcDbEntity
8
1
62
256
6
ByLayer
370
18
48
1
60
0
100
AcDbSpline
70
4
71
3
72
12
73
8
40
0
40
0
40
0
40
0
40
0.5
40
0.5
40
0.75
40
0.75
40
1
40
1
40
1
40
1
41
1
10
62.719352428175
20
0.346396413905239
30
0
41
1
10
62.6345673405862
20
0.389016374498198
30
0
41
1
10
62.5502008172982
20
0.438763305847203
30
0
41
1
10
62.4244327703602
20
0.523382248613501
30
0
41
1
10
62.3826369374222
20
0.553257453694386
30
0
41
1
10
62.2993843017787
20
0.616180190547624
30
0
41
1
10
62.2579101777458
20
0.649239058890657
30
0
41
1
10
62.2165658354665
20
0.683867564666258
30
0
0
SPLINE
5
18E
100
AcDbEntity
8
1
62
256
6
ByLayer
370
18
48
1
60
0
100
AcDbSpline
70
4
71
3
72
8
73
4
40
0
40
0
40
0
40
0
40
1
40
1
40
1
40
1
41
1
10
62.0641766145345
20
0.834047185873914
30
0
41
1
10
62.1149884117441
20
0.784090334974735
30
0
41
1
10
62.165780765512
20
0.734026389194298
30
0
41
1
10
62.2165658354667
20
0.683867564666173
30
0
0
SPLINE
5
18F
100
AcDbEntity
8
1
62
256
6
ByLayer
370
18
48
1
60
0
100
AcDbSpline
70
4
71
3
72
10
73
6
40
0
40
0
40
0
40
0
40
0.5
40
0.5
40
1
40
1
40
1
40
1
41
1
10
62.0641766145346
20
0.834047185873942
30
0
41
1
10
61.9779444189132
20
0.927027657096318
30
0
41
1
10
61.8912246417149
20
1.01287269095855
30
0
41
1
10
61.7162971394607
20
1.1697543466496
30
0
41
1
10
61.62836544815
20
1.24055339169846
30
0
41
1
10
61.5397292495533
20
1.30361682230156
30
0
0
SPLINE
5
190
100
AcDbEntity
8
1
62
256
6
ByLayer
370
18
48
1
60
0
100
AcDbSpline
70
4
71
3
72
17
73
13
40
0
40
0
40
0
40
0
40
0.249999999999999
40
0.249999999999999
40
0.374999999999999
40
0.374999999999999
40
0.5
40
0.625
40
0.625
40
0.75
40
0.75
40
1
40
1
40
1
40
1
41
1
10
61.5397292495533
20
1.30361682230156
30
0
41
1
10
61.5280859043893
20
1.3119009015081
30
0
41
1
10
61.514384325184
20
1.32179700282967
30
0
41
1
10
61.4914558094421
20
1.33844983869838
30
0
41
1
10
61.4833720148145
20
1.34433678805925
30
0
41
1
10
61.4665948803818
20
1.35658456460268
30
0
41
1
10
61.4492868885171
20
1.36924860956742
30
0
41
1
10
61.4309934159523
20
1.38270119861775
30
0
41
1
10
61.4122204726918
20
1.39655074484517
30
0
41
1
10
61.40254975757
20
1.40370707893763
30
0
41
1
10
61.3731516605876
20
1.42555265433262
30
0
41
1
10
61.3531534869794
20
1.44052848194573
30
0
41
1
10
61.3327778960315
20
1.45599702567458
30
0
0
SPLINE
5
191
100
AcDbEntity
8
1
62
256
6
ByLayer
370
18
48
1
60
0
100
AcDbSpline
70
4
71
3
72
8
73
4
40
0
40
0
40
0
40
0
40
1
40
1
40
1
40
1
41
1
10
61.3327778960315
20
1.45599702567458
30
0
41
1
10
61.3202909518881
20
1.46349030976688
30
0
41
1
10
61.307809788289
20
1.47086740772178
30
0
41
1
10
61.2952721636185
20
1.4779419488201
30
0
0
SPLINE
5
192
100
AcDbEntity
8
1
62
256
6
ByLayer
370
18
48
1
60
0
100
AcDbSpline
70
4
71
3
72
26
73
22
40
0
40
0
40
0
40
0
40
0.0625000000000001
40
0.0625000000000001
40
0.125
40
0.125
40
0.249999999999988
40
0.249999999999988
40
0.374999999999976
40
0.374999999999976
40
0.437499999999978
40
0.437499999999978
40
0.49999999999998
40
0.49999999999998
40
0.74999999999999
40
0.74999999999999
40
0.812499999999988
40
0.812499999999988
40
0.874999999999985
40
0.874999999999985
40
1
40
1
40
1
40
1
41
1
10
61.2952721636184
20
1.4779419488201
30
0
41
1
10
61.2799654806588
20
1.48657897222159
30
0
41
1
10
61.2638557014555
20
1.49510507344377
30
0
41
1
10
61.230019997903
20
1.51182733465339
30
0
41
1
10
61.2123016543164
20
1.520053537709
30
0
41
1
10
61.1568135327139
20
1.5445223138496
30
0
41
1
10
61.1167119787025
20
1.5605501035005
30
0
41
1
10
61.0305516663603
20
1.59296664111881
30
0
41
1
10
60.9844927262297
20
1.60935952344536
30
0
41
1
10
60.9111277587206
20
1.63502576893777
30
0
41
1
10
60.8858903723483
20
1.6437856723125
30
0
41
1
10
60.8344959672786
20
1.66164621450261
30
0
41
1
10
60.8083211606159
20
1.67075347241368
30
0
41
1
10
60.6752699515455
20
1.71748583225357
30
0
41
1
10
60.5618911275755
20
1.75875020369753
30
0
41
1
10
60.4145820719245
20
1.81967913803774
30
0
41
1
10
60.384838611421
20
1.83232841039674
30
0
41
1
10
60.3248541138217
20
1.85865085056156
30
0
41
1
10
60.2947165286885
20
1.8722794166188
30
0
41
1
10
60.2041650171415
20
1.91457526921275
30
0
41
1
10
60.1435313511622
20
1.94469190542978
30
0
41
1
10
60.0828365983202
20
1.97694775005527
30
0
0
SPLINE
5
193
100
AcDbEntity
8
1
62
256
6
ByLayer
370
18
48
1
60
0
100
AcDbSpline
70
4
71
3
72
55
73
51
40
0
40
0
40
0
40
0
40
0.0356264915271472
40
0.0356264915271472
40
0.0712529830542944
40
0.0712529830542944
40
0.142505966108589
40
0.142505966108589
40
0.178132457635736
40
0.178132457635736
40
0.213758949162883
40
0.213758949162883
40
0.24938544069003
40
0.24938544069003
40
0.285011932217178
40
0.285011932217178
40
0.356264915271468
40
0.356264915271468
40
0.37407816103504
40
0.37407816103504
40
0.391891406798612
40
0.427517898325756
40
0.427517898325756
40
0.4631443898529
40
0.4631443898529
40
0.498770881380043
40
0.498770881380043
40
0.570023864434331
40
0.570023864434331
40
0.641276847488618
40
0.641276847488618
40
0.676903339015762
40
0.676903339015762
40
0.712529830542906
40
0.712529830542906
40
0.730343076306476
40
0.730343076306476
40
0.748156322070046
40
0.748156322070046
40
0.783782813597186
40
0.783782813597186
40
0.855035796651467
40
0.855035796651467
40
0.890662288178606
40
0.890662288178606
40
0.926288779705744
40
0.926288779705744
40
0.997541762760025
40
0.997541762760025
40
1
40
1
40
1
40
1
41
1
10
60.0828365983202
20
1.97694775005527
30
0
41
1
10
59.9820204941732
20
2.03052583446697
30
0
41
1
10
59.8813894213442
20
2.08268114924184
30
0
41
1
10
59.6806989417906
20
2.18445507689972
30
0
41
1
10
59.580581651295
20
2.23399966163038
30
0
41
1
10
59.2808735176075
20
2.37859475393535
30
0
41
1
10
59.0818952975801
20
2.46956185569206
30
0
41
1
10
58.7838624306138
20
2.59706452362352
30
0
41
1
10
58.6845909102338
20
2.63807514057638
30
0
41
1
10
58.486045692678
20
2.7169807597424
30
0
41
1
10
58.3867645146439
20
2.75486743584628
30
0
41
1
10
58.1879228221343
20
2.82729833080046
30
0
41
1
10
58.0883261127638
20
2.86181743656061
30
0
41
1
10
57.8889931470903
20
2.92764872525902
30
0
41
1
10
57.7892925977318
20
2.95898505778851
30
0
41
1
10
57.4899439832236
20
3.04807547117872
30
0
41
1
10
57.290007728639
20
3.1008728738806
30
0
41
1
10
57.0388326378446
20
3.15787372178335
30
0
41
1
10
56.9885000666352
20
3.16883185553323
30
0
41
1
10
56.8878543917595
20
3.18979920122632
30
0
41
1
10
56.7370835744553
20
3.21979420969643
30
0
41
1
10
56.5868203265098
20
3.24541743350005
30
0
41
1
10
56.3867522426277
20
3.27569728196059
30
0
41
1
10
56.2868279370993
20
3.28888479503695
30
0
41
1
10
56.0871125909653
20
3.31140709601519
30
0
41
1
10
55.9873796829729
20
3.32075990635883
30
0
41
1
10
55.6886793343176
20
3.34312864890182
30
0
41
1
10
55.4901112801005
20
3.35041519931136
30
0
41
1
10
55.0928824213299
20
3.34954823999593
30
0
41
1
10
54.8942466528372
20
3.34139844402372
30
0
41
1
10
54.5954326547219
20
3.31759038709353
30
0
41
1
10
54.4956804405074
20
3.30772496606141
30
0
41
1
10
54.2956888818351
20
3.28417121431477
30
0
41
1
10
54.1954007119268
20
3.27050373534169
30
0
41
1
10
54.0447212470738
20
3.24707926781585
30
0
41
1
10
53.9944520129807
20
3.23878295889548
30
0
41
1
10
53.8938072219386
20
3.2212113349658
30
0
41
1
10
53.84338585685
20
3.2119267642546
30
0
41
1
10
53.692353683939
20
3.18268278379327
30
0
41
1
10
53.59196820673
20
3.16133663998588
30
0
41
1
10
53.2915152148398
20
3.09190455243791
30
0
41
1
10
53.0921783432615
20
3.03840422634306
30
0
41
1
10
52.7937412933587
20
2.94805671043153
30
0
41
1
10
52.6943422254724
20
2.91626870861143
30
0
41
1
10
52.4954717496198
20
2.84956430811732
30
0
41
1
10
52.3959620849392
20
2.81468254248881
30
0
41
1
10
52.0974131161798
20
2.70533604365178
30
0
41
1
10
51.8986520256369
20
2.62589618109564
30
0
41
1
10
51.6927521928733
20
2.53734745835712
30
0
41
1
10
51.6858852147748
20
2.53438705359665
30
0
41
1
10
51.6790179057639
20
2.53141932432487
30
0
0
SPLINE
5
194
100
AcDbEntity
8
1
62
256
6
ByLayer
370
18
48
1
60
0
100
AcDbSpline
70
4
71
3
72
74
73
70
40
0
40
0
40
0
40
0
40
0.0406049771372637
40
0.0406049771372637
40
0.0547137274734829
40
0.0547137274734829
40
0.0688224778097019
40
0.0688224778097019
40
0.0970399784821401
40
0.0970399784821401
40
0.153474979827017
40
0.153474979827017
40
0.181692480499455
40
0.181692480499455
40
0.209909981171893
40
0.209909981171893
40
0.266344982516767
40
0.266344982516767
40
0.322779983861641
40
0.322779983861641
40
0.350997484534077
40
0.350997484534077
40
0.365106234870295
40
0.365106234870295
40
0.379214985206513
40
0.379214985206513
40
0.435649986551387
40
0.435649986551387
40
0.492084987896261
40
0.492084987896261
40
0.506193738232479
40
0.506193738232479
40
0.520302488568696
40
0.520302488568696
40
0.548519989241128
40
0.548519989241128
40
0.60495499058599
40
0.60495499058599
40
0.619063740922204
40
0.619063740922204
40
0.633172491258419
40
0.633172491258419
40
0.661389991930847
40
0.661389991930847
40
0.689607492603276
40
0.689607492603276
40
0.717824993275704
40
0.717824993275704
40
0.774259994620562
40
0.774259994620562
40
0.802477495292991
40
0.802477495292991
40
0.830694995965421
40
0.830694995965421
40
0.844803746301636
40
0.844803746301636
40
0.858912496637851
40
0.858912496637851
40
0.873021246974066
40
0.873021246974066
40
0.887129997310281
40
0.887129997310281
40
0.943564998655138
40
0.943564998655138
40
0.971782499327568
40
0.971782499327568
40
0.985891249663784
40
0.985891249663784
40
1
40
1
40
1
40
1
41
1
10
48.0285481439399
20
3.3500033941352
30
0
41
1
10
48.1909983734619
20
3.3500231447502
30
0
41
1
10
48.3534489130729
20
3.34496960757954
30
0
41
1
10
48.5724737651583
20
3.33112880719148
30
0
41
1
10
48.6289679049756
20
3.32692736939143
30
0
41
1
10
48.74213395817
20
3.31727746518806
30
0
41
1
10
48.7988433003312
20
3.31183773160183
30
0
41
1
10
48.969382152235
20
3.29370147011966
30
0
41
1
10
49.083541096434
20
3.27916642727408
30
0
41
1
10
49.427026534126
20
3.22814123105329
30
0
41
1
10
49.6548008448613
20
3.18469097442176
30
0
41
1
10
49.9947599315429
20
3.10572884812663
30
0
41
1
10
50.1077978412852
20
3.07710381654366
30
0
41
1
10
50.3333834876326
20
3.01526955015785
30
0
41
1
10
50.4458988254198
20
2.98203107978878
30
0
41
1
10
50.783554855709
20
2.87600634767986
30
0
41
1
10
51.0091966832714
20
2.7972681142659
30
0
41
1
10
51.4614247604802
20
2.62395344396603
30
0
41
1
10
51.6878988819419
20
2.5292589548543
30
0
41
1
10
52.0285032648778
20
2.37510505054277
30
0
41
1
10
52.1421856218877
20
2.32169649662879
30
0
41
1
10
52.3129399340578
20
2.23844741059696
30
0
41
1
10
52.3699332916668
20
2.21011662439014
30
0
41
1
10
52.4837910414949
20
2.15280340992169
30
0
41
1
10
52.5406900873708
20
2.12384253103085
30
0
41
1
10
52.8250746914865
20
1.97759414244624
30
0
41
1
10
53.0522316814016
20
1.85601028292547
30
0
41
1
10
53.5050321331668
20
1.602976517716
30
0
41
1
10
53.7308070174233
20
1.4716838521432
30
0
41
1
10
54.0124798143883
20
1.30188400360601
30
0
41
1
10
54.0687852538121
20
1.26763654814354
30
0
41
1
10
54.1813397789459
20
1.19856488611592
30
0
41
1
10
54.2375774008753
20
1.16372364366214
30
0
41
1
10
54.4063939304374
20
1.05860258142556
30
0
41
1
10
54.5191880943771
20
0.987891295495615
30
0
41
1
10
54.8583659926195
20
0.773969647623233
30
0
41
1
10
55.0854555153614
20
0.628847610167355
30
0
41
1
10
55.370697021729
20
0.444489753208245
30
0
41
1
10
55.4278172565248
20
0.407474234825827
30
0
41
1
10
55.5422083432383
20
0.333160771146567
30
0
41
1
10
55.5994354699179
20
0.295890554974022
30
0
41
1
10
55.7706556928218
20
0.184094839357783
30
0
41
1
10
55.8843999907928
20
0.109450406097608
30
0
41
1
10
56.1110211517923
20
-0.0401635089992851
30
0
41
1
10
56.2238665712089
20
-0.115178941726356
30
0
41
1
10
56.4496224923391
20
-0.264070831865496
30
0
41
1
10
56.5625537173964
20
-0.33791901795351
30
0
41
1
10
56.901305989981
20
-0.558021880978231
30
0
41
1
10
57.1271116291641
20
-0.702797968713185
30
0
41
1
10
57.4659172255043
20
-0.916832820373202
30
0
41
1
10
57.5788687792659
20
-0.987654785367084
30
0
41
1
10
57.804777436944
20
-1.12827799656941
30
0
41
1
10
57.9177060795816
20
-1.19812073291456
30
0
41
1
10
58.0871725090182
20
-1.30199527584605
30
0
41
1
10
58.1436917492121
20
-1.33644512275475
30
0
41
1
10
58.2569357019154
20
-1.40478409913186
30
0
41
1
10
58.3136744234647
20
-1.43865320105712
30
0
41
1
10
58.4274080540633
20
-1.50575992697361
30
0
41
1
10
58.4843967964996
20
-1.53900649135983
30
0
41
1
10
58.5985905153419
20
-1.60492610971548
30
0
41
1
10
58.6558287435838
20
-1.63761914551645
30
0
41
1
10
58.9420760208287
20
-1.7995344694497
30
0
41
1
10
59.1705819662265
20
-1.92362012366874
30
0
41
1
10
59.5128538309646
20
-2.10126423258043
30
0
41
1
10
59.6268207024909
20
-2.15911035679449
30
0
41
1
10
59.797791961447
20
-2.24355041088444
30
0
41
1
10
59.8547965201904
20
-2.27129737950591
30
0
41
1
10
59.968770841426
20
-2.32605640823905
30
0
41
1
10
60.0257573513948
20
-2.35304840209531
30
0
41
1
10
60.0828365983202
20
-2.37954948811014
30
0
0
SPLINE
5
195
100
AcDbEntity
8
1
62
256
6
ByLayer
370
18
48
1
60
0
100
AcDbSpline
70
4
71
3
72
26
73
22
40
0
40
0
40
0
40
0
40
0.125000000000009
40
0.125000000000009
40
0.250000000000019
40
0.250000000000019
40
0.375000000000028
40
0.375000000000028
40
0.437500000000032
40
0.437500000000032
40
0.500000000000037
40
0.500000000000037
40
0.625000000000028
40
0.625000000000028
40
0.750000000000018
40
0.750000000000018
40
0.812500000000014
40
0.812500000000014
40
0.875000000000009
40
0.875000000000009
40
1
40
1
40
1
40
1
41
1
10
60.0828365983202
20
-2.37954948811017
30
0
41
1
10
60.1423557507845
20
-2.40718338771373
30
0
41
1
10
60.201221468719
20
-2.43713783788581
30
0
41
1
10
60.3174115271537
20
-2.50169289490458
30
0
41
1
10
60.3747370116706
20
-2.53629117076252
30
0
41
1
10
60.4877004066118
20
-2.61019095712317
30
0
41
1
10
60.543339006908
20
-2.64948959689264
30
0
41
1
10
60.6254627995449
20
-2.71210841940839
30
0
41
1
10
60.652672150911
20
-2.73364167195169
30
0
41
1
10
60.7063109292516
20
-2.77770412966859
30
0
41
1
10
60.7327366246865
20
-2.80022572754882
30
0
41
1
10
60.8108359674221
20
-2.86927442912747
30
0
41
1
10
60.8613357654708
20
-2.91727745593204
30
0
41
1
10
60.9591303485824
20
-3.01746624092141
30
0
41
1
10
61.006427284026
20
-3.06964703356607
30
0
41
1
10
61.0747999970471
20
-3.15146927871896
30
0
41
1
10
61.0972220442171
20
-3.17942307094776
30
0
41
1
10
61.1406337825564
20
-3.23593851078246
30
0
41
1
10
61.1616696577111
20
-3.26454862273599
30
0
41
1
10
61.2226803873448
20
-3.35144642652244
30
0
41
1
10
61.2605742477574
20
-3.41079975094252
30
0
41
1
10
61.2952721636184
20
-3.47166066289321
30
0
0
SPLINE
5
196
100
AcDbEntity
8
1
62
256
6
ByLayer
370
18
48
1
60
0
100
AcDbSpline
70
4
71
3
72
12
73
8
40
0
40
0
40
0
40
0
40
0.249999999999984
40
0.249999999999984
40
0.499999999999967
40
0.499999999999967
40
1
40
1
40
1
40
1
41
1
10
61.2952721636185
20
-3.47166066289333
30
0
41
1
10
61.3075214433218
20
-3.4931461704513
30
0
41
1
10
61.319820412936
20
-3.51456453853191
30
0
41
1
10
61.3443994130931
20
-3.55744066258816
30
0
41
1
10
61.3566656865384
20
-3.5789190970917
30
0
41
1
10
61.3934093240543
20
-3.64345579953164
30
0
41
1
10
61.4178322195219
20
-3.68661434490187
30
0
41
1
10
61.4421888689523
20
-3.72990152406558
30
0
0
SPLINE
5
197
100
AcDbEntity
8
1
62
256
6
ByLayer
370
18
48
1
60
0
100
AcDbSpline
70
4
71
3
72
8
73
4
40
0
40
0
40
0
40
0
40
1
40
1
40
1
40
1
41
1
10
61.4421888689521
20
-3.72990152406564
30
0
41
1
10
61.4588652512879
20
-3.71575680809329
30
0
41
1
10
61.4755669118496
20
-3.70136273026375
30
0
41
1
10
61.49229579759
20
-3.68671829385346
30
0
0
SPLINE
5
198
100
AcDbEntity
8
1
62
256
6
ByLayer
370
18
48
1
60
0
100
AcDbSpline
70
4
71
3
72
32
73
28
40
0
40
0
40
0
40
0
40
0.125000000000047
40
0.125000000000047
40
0.187500000000072
40
0.187500000000072
40
0.250000000000096
40
0.250000000000096
40
0.375000000000145
40
0.375000000000145
40
0.43750000000017
40
0.43750000000017
40
0.500000000000194
40
0.500000000000194
40
0.625000000000188
40
0.625000000000188
40
0.687500000000157
40
0.687500000000157
40
0.750000000000126
40
0.750000000000126
40
0.812500000000094
40
0.812500000000094
40
0.875000000000063
40
0.875000000000063
40
0.937500000000032
40
0.937500000000032
40
1
40
1
40
1
40
1
41
1
10
61.49229579759
20
-3.68671829385343
30
0
41
1
10
61.5032583871919
20
-3.67712166268461
30
0
41
1
10
61.5160356519186
20
-3.67024103236065
30
0
41
1
10
61.5372499123919
20
-3.66294863698559
30
0
41
1
10
61.5446712572593
20
-3.66103644029746
30
0
41
1
10
61.5601741220424
20
-3.65819305426888
30
0
41
1
10
61.5681729215695
20
-3.65727980920349
30
0
41
1
10
61.592646612609
20
-3.65595297622897
30
0
41
1
10
61.6096765872852
20
-3.65691775425222
30
0
41
1
10
61.6361917130105
20
-3.66098446950227
30
0
41
1
10
61.6452232196171
20
-3.66278925444374
30
0
41
1
10
61.6634810046259
20
-3.66728186351344
30
0
41
1
10
61.6726437336001
20
-3.669951162996
30
0
41
1
10
61.7002204956301
20
-3.67922319670993
30
0
41
1
10
61.7187223058765
20
-3.68706872546215
30
0
41
1
10
61.7466163269187
20
-3.70165900545615
30
0
41
1
10
61.7559905355191
20
-3.70703244438548
30
0
41
1
10
61.774463189717
20
-3.71865646039592
30
0
41
1
10
61.7835638559191
20
-3.7249009933289
30
0
41
1
10
61.8014632439703
20
-3.73833257840781
30
0
41
1
10
61.8102622940187
20
-3.74551858407588
30
0
41
1
10
61.8275080574815
20
-3.76097514825804
30
0
41
1
10
61.8359680456404
20
-3.76927243952451
30
0
41
1
10
61.8519669296471
20
-3.78662186555357
30
0
41
1
10
61.8595691958891
20
-3.79572435965042
30
0
41
1
10
61.8738525104758
20
-3.81492192286592
30
0
41
1
10
61.8805520177376
20
-3.82506346001088
30
0
41
1
10
61.8865155490977
20
-3.83551436205477
30
0
0
SPLINE
5
199
100
AcDbEntity
8
1
62
256
6
ByLayer
370
18
48
1
60
0
100
AcDbSpline
70
4
71
3
72
8
73
4
40
0
40
0
40
0
40
0
40
1
40
1
40
1
40
1
41
1
10
62.5450753250564
20
-4.79535200253977
30
0
41
1
10
62.4942349089662
20
-4.77894157208172
30
0
41
1
10
62.4434226469222
20
-4.76181787064294
30
0
41
1
10
62.3926541165743
20
-4.74398617045827
30
0
0
SPLINE
5
19A
100
AcDbEntity
8
1
62
256
6
ByLayer
370
18
48
1
60
0
100
AcDbSpline
70
4
71
3
72
8
73
4
40
0
40
0
40
0
40
0
40
1
40
1
40
1
40
1
41
1
10
64.1189244063255
20
-5.06940440008057
30
0
41
1
10
64.0680208077607
20
-5.06829125780882
30
0
41
1
10
64.01716499029
20
-5.06641627055262
30
0
41
1
10
63.9663505122052
20
-5.06377762130896
30
0
0
SPLINE
5
19B
100
AcDbEntity
8
1
62
256
6
ByLayer
370
18
48
1
60
0
100
AcDbSpline
70
4
71
3
72
12
73
8
40
0
40
0
40
0
40
0
40
0.5
40
0.5
40
0.75
40
0.75
40
1
40
1
40
1
40
1
41
1
10
73.2114696318988
20
0.485156579918595
30
0
41
1
10
73.1267665580252
20
0.531663523385816
30
0
41
1
10
73.0424829619859
20
0.585373558410026
30
0
41
1
10
72.9168396247464
20
0.675903391875039
30
0
41
1
10
72.8750850010575
20
0.707744094300978
30
0
41
1
10
72.7919139048881
20
0.774563500661941
30
0
41
1
10
72.7504798385771
20
0.809554705341611
30
0
41
1
10
72.7091734871372
20
0.846090253067644
30
0
0
SPLINE
5
19C
100
AcDbEntity
8
1
62
256
6
ByLayer
370
18
48
1
60
0
100
AcDbSpline
70
4
71
3
72
8
73
4
40
0
40
0
40
0
40
0
40
1
40
1
40
1
40
1
41
1
10
72.5567616977343
20
0.995406803939375
30
0
41
1
10
72.6075788702512
20
0.945761327371116
30
0
41
1
10
72.6583790357109
20
0.895985363221911
30
0
41
1
10
72.7091734871372
20
0.846090253067644
30
0
0
SPLINE
5
19D
100
AcDbEntity
8
1
62
256
6
ByLayer
370
18
48
1
60
0
100
AcDbSpline
70
4
71
3
72
10
73
6
40
0
40
0
40
0
40
0
40
0.5
40
0.5
40
1
40
1
40
1
40
1
41
1
10
72.5567616977343
20
0.995406803939403
30
0
41
1
10
72.4704195004533
20
1.08361316508083
30
0
41
1
10
72.3835821861745
20
1.16463548245596
30
0
41
1
10
72.2084730846865
20
1.31188932994823
30
0
41
1
10
72.1204738590642
20
1.37789679426774
30
0
41
1
10
72.0317750037598
20
1.43604186301064
30
0
0
SPLINE
5
19E
100
AcDbEntity
8
1
62
256
6
ByLayer
370
18
48
1
60
0
100
AcDbSpline
70
4
71
3
72
30
73
26
40
0
40
0
40
0
40
0
40
0.125
40
0.125
40
0.250000000000001
40
0.250000000000001
40
0.375000000000001
40
0.375000000000001
40
0.437500000000001
40
0.437500000000001
40
0.500000000000002
40
0.500000000000002
40
0.625000000000002
40
0.625000000000002
40
0.687500000000002
40
0.687500000000002
40
0.750000000000001
40
0.750000000000001
40
0.812500000000001
40
0.812500000000001
40
0.875000000000001
40
0.875000000000001
40
0.9375
40
0.9375
40
1
40
1
40
1
40
1
41
1
10
72.0317750037595
20
1.43604186301141
30
0
41
1
10
72.021194902258
20
1.44297747370223
30
0
41
1
10
72.0089103480163
20
1.45130675420589
30
0
41
1
10
71.9816808510049
20
1.47008022745993
30
0
41
1
10
71.9665947560083
20
1.48062858505108
30
0
41
1
10
71.9349141044054
20
1.50303169397435
30
0
41
1
10
71.9182470137136
20
1.51493539423666
30
0
41
1
10
71.8920608687839
20
1.53385947408498
30
0
41
1
10
71.8831307525856
20
1.54034943987764
30
0
41
1
10
71.8651807462503
20
1.5534791394746
30
0
41
1
10
71.8561230990649
20
1.56014596619104
30
0
41
1
10
71.8287097310096
20
1.58047278499569
30
0
41
1
10
71.8101173106575
20
1.59445137128173
30
0
41
1
10
71.7817262223579
20
1.61625342845682
30
0
41
1
10
71.772175397481
20
1.62366506605096
30
0
41
1
10
71.7533521374046
20
1.63846157121844
30
0
41
1
10
71.7440254333205
20
1.64588764942979
30
0
41
1
10
71.725571509748
20
1.66081424497781
30
0
41
1
10
71.7164161269293
20
1.66833785341947
30
0
41
1
10
71.6984696069676
20
1.68338503975272
30
0
41
1
10
71.6898218473872
20
1.69078791801661
30
0
41
1
10
71.6732617568221
20
1.70533005606711
30
0
41
1
10
71.6653145083782
20
1.71250128281517
30
0
41
1
10
71.6504567629371
20
1.72638971932844
30
0
41
1
10
71.6436663077264
20
1.73299298199831
30
0
41
1
10
71.637597337327
20
1.73920582495768
30
0
0
SPLINE
5
19F
100
AcDbEntity
8
1
62
256
6
ByLayer
370
18
48
1
60
0
100
AcDbSpline
70
4
71
3
72
12
73
8
40
0
40
0
40
0
40
0
40
0.499999999999991
40
0.499999999999991
40
0.749999999999995
40
0.749999999999995
40
1
40
1
40
1
40
1
41
1
10
71.6375973373254
20
1.73920582496132
30
0
41
1
10
71.5528820556614
20
1.82592938869504
30
0
41
1
10
71.4685797374761
20
1.91869799854212
30
0
41
1
10
71.3429133483515
20
2.06616719046824
30
0
41
1
10
71.3011524492211
20
2.11671680506078
30
0
41
1
10
71.2179745791585
20
2.22037359705959
30
0
41
1
10
71.1765396073768
20
2.2734999357528
30
0
41
1
10
71.1352338977417
20
2.32788435029443
30
0
0
SPLINE
5
1A0
100
AcDbEntity
8
1
62
256
6
ByLayer
370
18
48
1
60
0
100
AcDbSpline
70
4
71
3
72
8
73
4
40
0
40
0
40
0
40
0
40
1
40
1
40
1
40
1
41
1
10
70.9825534138751
20
2.46195636320056
30
0
41
1
10
71.0334617756888
20
2.41761657175382
30
0
41
1
10
71.0843517354319
20
2.37292261674588
30
0
41
1
10
71.1352338977417
20
2.32788435029443
30
0
0
SPLINE
5
1A1
100
AcDbEntity
8
1
62
256
6
ByLayer
370
18
48
1
60
0
100
AcDbSpline
70
4
71
3
72
10
73
6
40
0
40
0
40
0
40
0
40
0.5
40
0.5
40
1
40
1
40
1
40
1
41
1
10
70.982553413875
20
2.46195636320056
30
0
41
1
10
70.8962768190567
20
2.49702634842922
30
0
41
1
10
70.8095060262988
20
2.52421739899154
30
0
41
1
10
70.6345370667196
20
2.56252709796249
30
0
41
1
10
70.5466100390736
20
2.57358797047479
30
0
41
1
10
70.4579935028129
20
2.57637109540377
30
0
0
SPLINE
5
1A2
100
AcDbEntity
8
1
62
256
6
ByLayer
370
18
48
1
60
0
100
AcDbSpline
70
4
71
3
72
30
73
26
40
0
40
0
40
0
40
0
40
0.125000000000055
40
0.125000000000055
40
0.25000000000011
40
0.25000000000011
40
0.375000000000165
40
0.375000000000165
40
0.437500000000166
40
0.437500000000166
40
0.500000000000167
40
0.500000000000167
40
0.625000000000169
40
0.625000000000169
40
0.687500000000141
40
0.687500000000141
40
0.750000000000113
40
0.750000000000113
40
0.812500000000084
40
0.812500000000084
40
0.875000000000056
40
0.875000000000056
40
0.937500000000028
40
0.937500000000028
40
1
40
1
40
1
40
1
41
1
10
70.457993502813
20
2.57637109540377
30
0
41
1
10
70.4474104449166
20
2.57670347097948
30
0
41
1
10
70.4351219110371
20
2.57894771500472
30
0
41
1
10
70.407883937309
20
2.58635364580752
30
0
41
1
10
70.3927933844973
20
2.59159414015826
30
0
41
1
10
70.3611052293818
20
2.60443623265237
30
0
41
1
10
70.3444347600035
20
2.61204695097322
30
0
41
1
10
70.3182445909327
20
2.62524465792947
30
0
41
1
10
70.3093139031487
20
2.62994719295077
30
0
41
1
10
70.2913631376007
20
2.63980658993157
30
0
41
1
10
70.2823053604033
20
2.64498185685784
30
0
41
1
10
70.2548923322465
20
2.66127082643246
30
0
41
1
10
70.2363009994207
20
2.67313137005911
30
0
41
1
10
70.207913432497
20
2.69276766852158
30
0
41
1
10
70.1983648960988
20
2.69963007274802
30
0
41
1
10
70.1795456850602
20
2.71373319641629
30
0
41
1
10
70.1702208598827
20
2.72100994525243
30
0
41
1
10
70.1517701116358
20
2.73607774356182
30
0
41
1
10
70.1426159947344
20
2.74389307988355
30
0
41
1
10
70.1246718626629
20
2.76003885679935
30
0
41
1
10
70.116024759756
20
2.76823891969605
30
0
41
1
10
70.0994649020595
20
2.78493047260855
30
0
41
1
10
70.091517110317
20
2.79346058843046
30
0
41
1
10
70.0766577903019
20
2.81070422642137
30
0
41
1
10
70.0698660945381
20
2.81927367279698
30
0
41
1
10
70.0637956682327
20
2.82778035911389
30
0
0
SPLINE
5
1A3
100
AcDbEntity
8
1
62
256
6
ByLayer
370
18
48
1
60
0
100
AcDbSpline
70
4
71
3
72
12
73
8
40
0
40
0
40
0
40
0
40
0.49999999999999
40
0.49999999999999
40
0.749999999999995
40
0.749999999999995
40
1
40
1
40
1
40
1
41
1
10
70.0637956682327
20
2.82778035911392
30
0
41
1
10
69.979079554765
20
2.94649581121038
30
0
41
1
10
69.8947760046784
20
3.06966314685684
30
0
41
1
10
69.7690964445348
20
3.26020460722768
30
0
41
1
10
69.727328993558
20
3.32468888520393
30
0
41
1
10
69.6441329118198
20
3.4553461890363
30
0
41
1
10
69.6026868253068
20
3.52154562697339
30
0
41
1
10
69.5613700981512
20
3.58859497838912
30
0
0
SPLINE
5
1A4
100
AcDbEntity
8
1
62
256
6
ByLayer
370
18
48
1
60
0
100
AcDbSpline
70
4
71
3
72
8
73
4
40
0
40
0
40
0
40
0
40
1
40
1
40
1
40
1
41
1
10
69.4098078181124
20
3.69369815690371
30
0
41
1
10
69.4603437280975
20
3.65919619592074
30
0
41
1
10
69.5108605978853
20
3.62415885605688
30
0
41
1
10
69.5613700981513
20
3.58859497838907
30
0
0
SPLINE
5
1A5
100
AcDbEntity
8
1
62
256
6
ByLayer
370
18
48
1
60
0
100
AcDbSpline
70
4
71
3
72
10
73
6
40
0
40
0
40
0
40
0
40
0.5
40
0.5
40
1
40
1
40
1
40
1
41
1
10
69.4098078181124
20
3.69369815690374
30
0
41
1
10
69.3234602851201
20
3.67249474827815
30
0
41
1
10
69.2365572982015
20
3.6434763808212
30
0
41
1
10
69.061228115886
20
3.56957581747236
30
0
41
1
10
68.9730767636682
20
3.52481542114475
30
0
41
1
10
68.8842244480252
20
3.47210063593516
30
0
0
SPLINE
5
1A6
100
AcDbEntity
8
1
62
256
6
ByLayer
370
18
48
1
60
0
100
AcDbSpline
70
4
71
3
72
30
73
26
40
0
40
0
40
0
40
0
40
0.124999999999978
40
0.124999999999978
40
0.249999999999956
40
0.249999999999956
40
0.374999999999935
40
0.374999999999935
40
0.437499999999924
40
0.437499999999924
40
0.499999999999913
40
0.499999999999913
40
0.624999999999892
40
0.624999999999892
40
0.68749999999991
40
0.68749999999991
40
0.749999999999928
40
0.749999999999928
40
0.812499999999946
40
0.812499999999946
40
0.874999999999964
40
0.874999999999964
40
0.937499999999982
40
0.937499999999982
40
1
40
1
40
1
40
1
41
1
10
68.8842244480251
20
3.47210063593516
30
0
41
1
10
68.8736169261761
20
3.46580734766428
30
0
41
1
10
68.861296769244
20
3.4617736119101
30
0
41
1
10
68.833987320867
20
3.45716344420544
30
0
41
1
10
68.8188430360161
20
3.45663648128999
30
0
41
1
10
68.7871570482907
20
3.45877059102793
30
0
41
1
10
68.7705330606509
20
3.46139685136737
30
0
41
1
10
68.7444973763564
20
3.46761726342225
30
0
41
1
10
68.7356337594744
20
3.47007505628366
30
0
41
1
10
68.7175266327387
20
3.4758013306311
30
0
41
1
10
68.7083911038359
20
3.47903674115793
30
0
41
1
10
68.6808630393784
20
3.48983499474957
30
0
41
1
10
68.6623023243635
20
3.49848510208824
30
0
41
1
10
68.6341633175322
20
3.51399090803315
30
0
41
1
10
68.6247335792905
20
3.51958545502293
30
0
41
1
10
68.6057690299169
20
3.5317648894285
30
0
41
1
10
68.5963770298958
20
3.53826056434664
30
0
41
1
10
68.5779178655514
20
3.55206803565844
30
0
41
1
10
68.5688321649239
20
3.55939041405716
30
0
41
1
10
68.5510018951694
20
3.57501168401853
30
0
41
1
10
68.5422195275436
20
3.58335920266251
30
0
41
1
10
68.5256256611748
20
3.60066658861084
30
0
41
1
10
68.5177486130425
20
3.60967566443438
30
0
41
1
10
68.5029750292895
20
3.62852373881697
30
0
41
1
10
68.4960990820653
20
3.63835775689105
30
0
41
1
10
68.4900291638021
20
3.64834871192619
30
0
0
SPLINE
5
1A7
100
AcDbEntity
8
1
62
256
6
ByLayer
370
18
48
1
60
0
100
AcDbSpline
70
4
71
3
72
12
73
8
40
0
40
0
40
0
40
0
40
0.50000000000001
40
0.50000000000001
40
0.750000000000005
40
0.750000000000005
40
1
40
1
40
1
40
1
41
1
10
68.4900291638021
20
3.64834871192619
30
0
41
1
10
68.405414421723
20
3.78762275925092
30
0
41
1
10
68.3212188865149
20
3.92934585043008
30
0
41
1
10
68.1956965662995
20
4.14470225912285
30
0
41
1
10
68.1539805690329
20
4.21695555174739
30
0
41
1
10
68.0708820564344
20
4.36213351967004
30
0
41
1
10
68.0294822249076
20
4.43508777218327
30
0
41
1
10
67.9882081297934
20
4.50839021522125
30
0
0
SPLINE
5
1A8
100
AcDbEntity
8
1
62
256
6
ByLayer
370
18
48
1
60
0
100
AcDbSpline
70
4
71
3
72
8
73
4
40
0
40
0
40
0
40
0
40
1
40
1
40
1
40
1
41
1
10
67.834459092964
20
4.57645849426061
30
0
41
1
10
67.8857229505384
20
4.55445610058845
30
0
41
1
10
67.9369684893376
20
4.53176448653642
30
0
41
1
10
67.9882081297934
20
4.50839021522117
30
0
0
SPLINE
5
1A9
100
AcDbEntity
8
1
62
256
6
ByLayer
370
18
48
1
60
0
100
AcDbSpline
70
4
71
3
72
10
73
6
40
0
40
0
40
0
40
0
40
0.5
40
0.5
40
1
40
1
40
1
40
1
41
1
10
67.834459092964
20
4.57645849426055
30
0
41
1
10
67.7482236203963
20
4.50106957467312
30
0
41
1
10
67.6615441391068
20
4.41862908796654
30
0
41
1
10
67.4867404433499
20
4.23939128635973
30
0
41
1
10
67.3988999252641
20
4.14291194407133
30
0
41
1
10
67.3103592026853
20
4.03957414254165
30
0
0
SPLINE
5
1AA
100
AcDbEntity
8
1
62
256
6
ByLayer
370
18
48
1
60
0
100
AcDbSpline
70
4
71
3
72
30
73
26
40
0
40
0
40
0
40
0
40
0.124999999999966
40
0.124999999999966
40
0.249999999999933
40
0.249999999999933
40
0.374999999999899
40
0.374999999999899
40
0.437499999999908
40
0.437499999999908
40
0.499999999999918
40
0.499999999999918
40
0.624999999999938
40
0.624999999999938
40
0.687499999999948
40
0.687499999999948
40
0.749999999999958
40
0.749999999999958
40
0.812499999999969
40
0.812499999999969
40
0.874999999999979
40
0.874999999999979
40
0.93749999999999
40
0.93749999999999
40
1
40
1
40
1
40
1
41
1
10
67.3103592026853
20
4.0395741425416
30
0
41
1
10
67.2997801504587
20
4.02722710077902
30
0
41
1
10
67.2874945360837
20
4.01724352515083
30
0
41
1
10
67.2602590075356
20
4.00090846857466
30
0
41
1
10
67.2451675335424
20
3.99456531078477
30
0
41
1
10
67.2134751257722
20
3.98559455645327
30
0
41
1
10
67.1968016984461
20
3.98289759581903
30
0
41
1
10
67.1706061297105
20
3.98149902044159
30
0
41
1
10
67.1616733181632
20
3.98148404724
30
0
41
1
10
67.1437188598122
20
3.98236253736212
30
0
41
1
10
67.1346594435665
20
3.98325268944973
30
0
41
1
10
67.1072424493667
20
3.98730664658814
30
0
41
1
10
67.0886497966884
20
3.99182603594716
30
0
41
1
10
67.0602626740121
20
4.00186376295966
30
0
41
1
10
67.0507160129266
20
4.00576822016083
30
0
41
1
10
67.0319011612812
20
4.01462086018327
30
0
41
1
10
67.0225788225828
20
4.01958535932133
30
0
41
1
10
67.0041337661785
20
4.0307231815558
30
0
41
1
10
66.9949825723727
20
4.03691623046169
30
0
41
1
10
66.9770462050444
20
4.0506540568135
30
0
41
1
10
66.9684031097827
20
4.05808626381113
30
0
41
1
10
66.9518511842566
20
4.07421713187671
30
0
41
1
10
66.943907558591
20
4.08295583688999
30
0
41
1
10
66.9290549236799
20
4.10178122919038
30
0
41
1
10
66.92226593659
20
4.11170602303926
30
0
41
1
10
66.9161974119494
20
4.12221036493159
30
0
0
SPLINE
5
1AB
100
AcDbEntity
8
1
62
256
6
ByLayer
370
18
48
1
60
0
100
AcDbSpline
70
4
71
3
72
8
73
4
40
0
40
0
40
0
40
0
40
1
40
1
40
1
40
1
41
1
10
66.2613935281782
20
5.02378504643988
30
0
41
1
10
66.3120407283924
20
5.01693953781304
30
0
41
1
10
66.362670724791
20
5.00934969261019
30
0
41
1
10
66.4132956286377
20
5.00101849706013
30
0
0
SPLINE
5
1AC
100
AcDbEntity
8
1
62
256
6
ByLayer
370
18
48
1
60
0
100
AcDbSpline
70
4
71
3
72
61
73
57
40
0
40
0
40
0
40
0
40
0.0098683445792423
40
0.0098683445792423
40
0.0758771216072858
40
0.0758771216072858
40
0.108881510121307
40
0.108881510121307
40
0.141885898635329
40
0.141885898635329
40
0.174890287149351
40
0.174890287149351
40
0.207894675663373
40
0.207894675663373
40
0.240899064177394
40
0.240899064177394
40
0.257401258434405
40
0.257401258434405
40
0.273903452691416
40
0.273903452691416
40
0.339912229719459
40
0.339912229719459
40
0.356414423976472
40
0.356414423976472
40
0.372916618233484
40
0.372916618233484
40
0.405921006747512
40
0.405921006747512
40
0.471929783775568
40
0.471929783775568
40
0.537938560803625
40
0.537938560803625
40
0.570942949317653
40
0.570942949317653
40
0.603947337831681
40
0.603947337831681
40
0.620449532088695
40
0.620449532088695
40
0.636951726345709
40
0.669956114859737
40
0.669956114859737
40
0.735964891887794
40
0.735964891887794
40
0.76896928040182
40
0.76896928040182
40
0.801973668915847
40
0.801973668915847
40
0.8679824459439
40
0.8679824459439
40
0.933991222971953
40
0.933991222971953
40
0.950493417228964
40
0.950493417228964
40
0.966995611485975
40
0.966995611485975
40
1
40
1
40
1
40
1
41
1
10
49.9873603569317
20
-3.34999997635092
30
0
41
1
10
49.9575260167737
20
-3.35000062164806
30
0
41
1
10
49.9277082455702
20
-3.34982824795554
30
0
41
1
10
49.6985560507565
20
-3.34717378774124
30
0
41
1
10
49.4998809331111
20
-3.3371247773191
30
0
41
1
10
49.2020591696858
20
-3.31058110778358
30
0
41
1
10
49.102812679848
20
-3.29982342559154
30
0
41
1
10
48.9042247735825
20
-3.2745332890982
30
0
41
1
10
48.8048997108451
20
-3.25999273735607
30
0
41
1
10
48.6058217380577
20
-3.22727378378127
30
0
41
1
10
48.5060927549711
20
-3.20909593307996
30
0
41
1
10
48.3065431062018
20
-3.16896555890605
30
0
41
1
10
48.2066960456245
20
-3.14701944760404
30
0
41
1
10
48.006730162655
20
-3.09936968650797
30
0
41
1
10
47.9066076445412
20
-3.07366816260901
30
0
41
1
10
47.7561180286763
20
-3.03230887068332
30
0
41
1
10
47.7059043348842
20
-3.01805430701637
30
0
41
1
10
47.6053596250673
20
-2.9886105319251
30
0
41
1
10
47.5549867477133
20
-2.9734083865913
30
0
41
1
10
47.3035902004721
20
-2.89534070567663
30
0
41
1
10
47.103562908948
20
-2.8261874387637
30
0
41
1
10
46.8539774810793
20
-2.73236506018091
30
0
41
1
10
46.8040834943115
20
-2.71323151501249
30
0
41
1
10
46.7043008824341
20
-2.67427088950725
30
0
41
1
10
46.6544009067303
20
-2.65445515379537
30
0
41
1
10
46.5048432989315
20
-2.59384938402786
30
0
41
1
10
46.405299291919
20
-2.55192570328254
30
0
41
1
10
46.1070071688131
20
-2.42172166427571
30
0
41
1
10
45.9085712741685
20
-2.32902861851136
30
0
41
1
10
45.5113223354334
20
-2.13310967169986
30
0
41
1
10
45.3125176736019
20
-2.02987381443163
30
0
41
1
10
45.0131071790893
20
-1.86818603409009
30
0
41
1
10
44.9130963754867
20
-1.81316116756344
30
0
41
1
10
44.7125056291424
20
-1.7010526855106
30
0
41
1
10
44.6119359548909
20
-1.64396020221918
30
0
41
1
10
44.4608735566841
20
-1.55644386913488
30
0
41
1
10
44.4104377908374
20
-1.52695367802915
30
0
41
1
10
44.309791675624
20
-1.46761230912034
30
0
41
1
10
44.159057341916
20
-1.37800196698518
30
0
41
1
10
44.0089325088494
20
-1.28673701235803
30
0
41
1
10
43.7092530087729
20
-1.10236358269458
30
0
41
1
10
43.5102259002044
20
-0.976990299757915
30
0
41
1
10
43.2119096426088
20
-0.786636506455494
30
0
41
1
10
43.1125089002509
20
-0.722802316328199
30
0
41
1
10
42.9136310344827
20
-0.594603790849561
30
0
41
1
10
42.8141218049512
20
-0.530288805261137
30
0
41
1
10
42.5156575530008
20
-0.336283390278197
30
0
41
1
10
42.3168099271614
20
-0.205461953957098
30
0
41
1
10
41.9183757406291
20
0.0576740378772342
30
0
41
1
10
41.7187824738302
20
0.189979959974266
30
0
41
1
10
41.4679708057358
20
0.354987217093623
30
0
41
1
10
41.4177417333394
20
0.387968612242133
30
0
41
1
10
41.317127564593
20
0.453856186563001
30
0
41
1
10
41.2667145972636
20
0.486780827391385
30
0
41
1
10
41.1157633388405
20
0.585024878068907
30
0
41
1
10
41.0152974060572
20
0.649850160514347
30
0
41
1
10
40.915063709625
20
0.714127497085173
30
0
0
SPLINE
5
1AD
100
AcDbEntity
8
1
62
256
6
ByLayer
370
18
48
1
60
0
100
AcDbSpline
70
4
71
3
72
34
73
30
40
0
40
0
40
0
40
0
40
0.103304293614623
40
0.103304293614623
40
0.167011368698012
40
0.167011368698012
40
0.2307184437814
40
0.2307184437814
40
0.294425518864788
40
0.294425518864788
40
0.358132593948177
40
0.358132593948177
40
0.421839669031565
40
0.421839669031565
40
0.485546744114953
40
0.485546744114953
40
0.549253819198342
40
0.549253819198342
40
0.61296089428173
40
0.61296089428173
40
0.740375044448504
40
0.740375044448504
40
0.867789194615278
40
0.867789194615278
40
0.931496269698667
40
0.931496269698667
40
0.995203344782055
40
0.995203344782055
40
1
40
1
40
1
40
1
41
1
10
40.9151769044318
20
0.714132383902239
30
0
41
1
10
40.8414414138442
20
0.725419004061706
30
0
41
1
10
40.7585236001382
20
0.720550827741761
30
0
41
1
10
40.6079952568438
20
0.683694245412795
30
0
41
1
10
40.5464571298263
20
0.66248495763287
30
0
41
1
10
40.4200005252322
20
0.606444424462609
30
0
41
1
10
40.3545113770334
20
0.571591087639405
30
0
41
1
10
40.2183653580897
20
0.486265741750685
30
0
41
1
10
40.14800980008
20
0.437859871150266
30
0
41
1
10
40.0073618048046
20
0.333788730197824
30
0
41
1
10
39.9368911265354
20
0.277808775701033
30
0
41
1
10
39.7956436293757
20
0.157616449350002
30
0
41
1
10
39.7248670964927
20
0.0934117685193598
30
0
41
1
10
39.582981633437
20
-0.0439360776970261
30
0
41
1
10
39.5123025032772
20
-0.116751954383886
30
0
41
1
10
39.3753938511078
20
-0.266695871149409
30
0
41
1
10
39.3085901654322
20
-0.344350929037717
30
0
41
1
10
39.1784087305607
20
-0.505229870359017
30
0
41
1
10
39.1146150181756
20
-0.589063742103889
30
0
41
1
10
38.9314712004708
20
-0.844648983228097
30
0
41
1
10
38.8219739289542
20
-1.01746433478741
30
0
41
1
10
38.6255055294947
20
-1.36743124718515
30
0
41
1
10
38.541687221944
20
-1.53925609600742
30
0
41
1
10
38.4346319138677
20
-1.79079257632947
30
0
41
1
10
38.4021968589086
20
-1.8743566911983
30
0
41
1
10
38.3507444663425
20
-2.03283071899969
30
0
41
1
10
38.3307233514054
20
-2.10836662456447
30
0
41
1
10
38.3144820826499
20
-2.18615973952515
30
0
41
1
10
38.3133731341314
20
-2.19158968772308
30
0
41
1
10
38.3122922903404
20
-2.19700220643614
30
0
0
SPLINE
5
1AE
100
AcDbEntity
8
1
62
256
6
ByLayer
370
18
48
1
60
0
100
AcDbSpline
70
4
71
3
72
58
73
54
40
0
40
0
40
0
40
0
40
0.042387248464866
40
0.042387248464866
40
0.084774496929732
40
0.084774496929732
40
0.105968121162166
40
0.105968121162166
40
0.1271617453946
40
0.1271617453946
40
0.169548993859468
40
0.169548993859468
40
0.1907426180919
40
0.1907426180919
40
0.211936242324332
40
0.211936242324332
40
0.2543234907892
40
0.2543234907892
40
0.339097987718933
40
0.339097987718933
40
0.360291611951367
40
0.360291611951367
40
0.381485236183802
40
0.381485236183802
40
0.423872484648676
40
0.423872484648676
40
0.508646981578426
40
0.508646981578426
40
0.551034230043301
40
0.551034230043301
40
0.572227854275737
40
0.572227854275737
40
0.593421478508173
40
0.593421478508173
40
0.67819597543792
40
0.67819597543792
40
0.762970472367667
40
0.762970472367667
40
0.784164096600103
40
0.784164096600103
40
0.805357720832539
40
0.805357720832539
40
0.84774496929741
40
0.84774496929741
40
0.890132217762282
40
0.890132217762282
40
0.932519466227153
40
0.932519466227153
40
0.953713090459587
40
0.953713090459587
40
0.974906714692021
40
0.974906714692021
40
1
40
1
40
1
40
1
41
1
10
38.3122930005857
20
-2.19700435268143
30
0
41
1
10
38.426691954282
20
-2.25336794813319
30
0
41
1
10
38.541021458917
20
-2.30814044464634
30
0
41
1
10
38.7695509670271
20
-2.4144554008588
30
0
41
1
10
38.8838124441904
20
-2.466024745282
30
0
41
1
10
39.0547277149455
20
-2.54076898209931
30
0
41
1
10
39.111626032591
20
-2.56525338898081
30
0
41
1
10
39.2254719967126
20
-2.6131664626638
30
0
41
1
10
39.2824374496299
20
-2.63657864705863
30
0
41
1
10
39.453602033031
20
-2.70507413496816
30
0
41
1
10
39.5679282059499
20
-2.74855349409611
30
0
41
1
10
39.7396049495966
20
-2.81065313840648
30
0
41
1
10
39.7968565597903
20
-2.83081997127542
30
0
41
1
10
39.9111394752649
20
-2.87000080904772
30
0
41
1
10
39.9682075768805
20
-2.88902832247695
30
0
41
1
10
40.1391868471989
20
-2.94444155391597
30
0
41
1
10
40.2528622121304
20
-2.97916748029928
30
0
41
1
10
40.593039128267
20
-3.07667943417832
30
0
41
1
10
40.8186625288138
20
-3.13282312218192
30
0
41
1
10
41.0998231315921
20
-3.19144552053459
30
0
41
1
10
41.1560719285053
20
-3.2025615148307
30
0
41
1
10
41.2686954462895
20
-3.2235496768179
30
0
41
1
10
41.3250517520129
20
-3.23343090441711
30
0
41
1
10
41.4942139558971
20
-3.26126986416739
30
0
41
1
10
41.6071284507635
20
-3.27741795313847
30
0
41
1
10
41.9462892972922
20
-3.31868601725589
30
0
41
1
10
42.1729050521312
20
-3.33667797310244
30
0
41
1
10
42.5135593198613
20
-3.34899935487448
30
0
41
1
10
42.6272175484281
20
-3.35065338889817
30
0
41
1
10
42.7979381674358
20
-3.34932562712655
30
0
41
1
10
42.8549290611402
20
-3.34824549902456
30
0
41
1
10
42.9688874629024
20
-3.34480759682958
30
0
41
1
10
43.0258082410262
20
-3.34245549479385
30
0
41
1
10
43.3102464358294
20
-3.32759773632998
30
0
41
1
10
43.5371837775563
20
-3.30583204279875
30
0
41
1
10
43.9901173725539
20
-3.24351139949931
30
0
41
1
10
44.2161024121864
20
-3.20295911056394
30
0
41
1
10
44.49793807115
20
-3.14046646654404
30
0
41
1
10
44.5542686788853
20
-3.12737331131447
30
0
41
1
10
44.6668328727942
20
-3.0999707858542
30
0
41
1
10
44.7230484370484
20
-3.08564964299137
30
0
41
1
10
44.8917320742049
20
-3.04094761783529
30
0
41
1
10
45.0043836757025
20
-3.00892189001576
30
0
41
1
10
45.2303367016328
20
-2.94065717706269
30
0
41
1
10
45.3436023613805
20
-2.90439779460354
30
0
41
1
10
45.5706480249823
20
-2.82758509040684
30
0
41
1
10
45.6844377047065
20
-2.78703766403439
30
0
41
1
10
45.8555717868763
20
-2.72301133658991
30
0
41
1
10
45.9126911235289
20
-2.70113453327534
30
0
41
1
10
46.0270794616565
20
-2.65630057060503
30
0
41
1
10
46.0843632550672
20
-2.63333614419005
30
0
41
1
10
46.209122327559
20
-2.58219516468617
30
0
41
1
10
46.2766145062266
20
-2.55380751914987
30
0
41
1
10
46.3439555620246
20
-2.52474758324655
30
0
0
SPLINE
5
1AF
100
AcDbEntity
8
1
62
256
6
ByLayer
370
18
48
1
60
0
100
AcDbSpline
70
4
71
3
72
14
73
10
40
0
40
0
40
0
40
0
40
0.496855508161452
40
0.496855508161452
40
0.748427754080715
40
0.748427754080715
40
0.874213877040358
40
0.874213877040358
40
1
40
1
40
1
40
1
41
1
10
58.7216649468315
20
3.35000001108546
30
0
41
1
10
58.9477883258302
20
3.35000807894565
30
0
41
1
10
59.1734340855222
20
3.34029899130812
30
0
41
1
10
59.5128538309646
20
3.31106928050349
30
0
41
1
10
59.6268207024909
20
3.29873991242221
30
0
41
1
10
59.797791961447
20
3.27648914787193
30
0
41
1
10
59.8547965201904
20
3.26845051765207
30
0
41
1
10
59.9687708414259
20
3.25109756742384
30
0
41
1
10
60.0257573513949
20
3.241787026477
30
0
41
1
10
60.0828365983202
20
3.23187737987587
30
0
0
SPLINE
5
1B0
100
AcDbEntity
8
1
62
256
6
ByLayer
370
18
48
1
60
0
100
AcDbSpline
70
4
71
3
72
26
73
22
40
0
40
0
40
0
40
0
40
0.125000000000002
40
0.125000000000002
40
0.250000000000003
40
0.250000000000003
40
0.375000000000005
40
0.375000000000005
40
0.437500000000006
40
0.437500000000006
40
0.500000000000007
40
0.500000000000007
40
0.625000000000009
40
0.625000000000009
40
0.750000000000011
40
0.750000000000011
40
0.812500000000012
40
0.812500000000012
40
0.875000000000013
40
0.875000000000013
40
1
40
1
40
1
40
1
41
1
10
60.0828365983202
20
3.23187737987587
30
0
41
1
10
60.1423557507844
20
3.22154413620694
30
0
41
1
10
60.201221468719
20
3.21415231896518
30
0
41
1
10
60.3174115271538
20
3.20473268727096
30
0
41
1
10
60.3747370116706
20
3.20270301706782
30
0
41
1
10
60.4877004066118
20
3.20378679291858
30
0
41
1
10
60.543339006908
20
3.20689633314922
30
0
41
1
10
60.6254627995449
20
3.21553661235092
30
0
41
1
10
60.6526721509109
20
3.21909276956401
30
0
41
1
10
60.7063109292515
20
3.22755251927083
30
0
41
1
10
60.7327366246865
20
3.23245163000791
30
0
41
1
10
60.810835967422
20
3.24923433799361
30
0
41
1
10
60.8613357654707
20
3.2631812877313
30
0
41
1
10
60.9591303485823
20
3.29746054697563
30
0
41
1
10
61.0064272840259
20
3.31777796089961
30
0
41
1
10
61.074799997047
20
3.35433084506241
30
0
41
1
10
61.097222044217
20
3.36758233586195
30
0
41
1
10
61.1406337825563
20
3.39611387181807
30
0
41
1
10
61.1616696577111
20
3.41141121213326
30
0
41
1
10
61.2226803873447
20
3.46080235526128
30
0
41
1
10
61.2605742477575
20
3.4983209261695
30
0
41
1
10
61.2952721636186
20
3.54208451657396
30
0
0
SPLINE
5
1B1
100
AcDbEntity
8
1
62
256
6
ByLayer
370
18
48
1
60
0
100
AcDbSpline
70
4
71
3
72
15
73
11
40
0
40
0
40
0
40
0
40
0.0624999999999974
40
0.0624999999999974
40
0.124999999999995
40
0.250000000000005
40
0.250000000000005
40
0.500000000000008
40
0.500000000000008
40
1
40
1
40
1
40
1
41
1
10
61.2952721636184
20
3.54208451657391
30
0
41
1
10
61.3077374265891
20
3.5578066327125
30
0
41
1
10
61.320254451799
20
3.57371992451792
30
0
41
1
10
61.3452654945012
20
3.60538862731212
30
0
41
1
10
61.3827093423137
20
3.65248440349205
30
0
41
1
10
61.4199840745126
20
3.69854467534671
30
0
41
1
10
61.4943280697668
20
3.78930308108542
30
0
41
1
10
61.5436154135086
20
3.84798687474134
30
0
41
1
10
61.690774380876
20
4.01854674954998
30
0
41
1
10
61.787935952045
20
4.12489092218868
30
0
41
1
10
61.884529946162
20
4.22403465838454
30
0
0
SPLINE
5
1B2
100
AcDbEntity
8
1
62
256
6
ByLayer
370
18
48
1
60
0
100
AcDbSpline
70
4
71
3
72
8
73
4
40
0
40
0
40
0
40
0
40
1
40
1
40
1
40
1
41
1
10
62.0208329462694
20
4.14697535775247
30
0
41
1
10
61.9753858856641
20
4.17315836859859
30
0
41
1
10
61.9299632760136
20
4.19885163878325
30
0
41
1
10
61.884529946162
20
4.22403465838451
30
0
0
SPLINE
5
1B3
100
AcDbEntity
8
1
62
256
6
ByLayer
370
18
48
1
60
0
100
AcDbSpline
70
4
71
3
72
12
73
8
40
0
40
0
40
0
40
0
40
0.25
40
0.25
40
0.500000000000001
40
0.500000000000001
40
1
40
1
40
1
40
1
41
1
10
62.0208329462687
20
4.14697535774383
30
0
41
1
10
62.0635022364041
20
4.05977123378111
30
0
41
1
10
62.106360238197
20
3.97258697984572
30
0
41
1
10
62.1924219168509
20
3.79849415148277
30
0
41
1
10
62.2356279247651
20
3.71157978956512
30
0
41
1
10
62.3658633312982
20
3.45130457504709
30
0
41
1
10
62.4532682109183
20
3.27888404539164
30
0
41
1
10
62.5415388798059
20
3.10771150070502
30
0
0
SPLINE
5
1B4
100
AcDbEntity
8
1
62
256
6
ByLayer
370
18
48
1
60
0
100
AcDbSpline
70
4
71
3
72
32
73
28
40
0
40
0
40
0
40
0
40
0.12500000000002
40
0.12500000000002
40
0.18750000000003
40
0.18750000000003
40
0.250000000000039
40
0.250000000000039
40
0.375000000000061
40
0.375000000000061
40
0.437500000000072
40
0.437500000000072
40
0.500000000000083
40
0.500000000000083
40
0.625000000000107
40
0.625000000000107
40
0.687500000000089
40
0.687500000000089
40
0.750000000000071
40
0.750000000000071
40
0.812500000000053
40
0.812500000000053
40
0.875000000000036
40
0.875000000000036
40
0.937500000000018
40
0.937500000000018
40
1
40
1
40
1
40
1
41
1
10
62.5415388798059
20
3.10771150070502
30
0
41
1
10
62.5524818284341
20
3.08649117478396
30
0
41
1
10
62.5652367670151
20
3.06653415427951
30
0
41
1
10
62.5864197126003
20
3.03802793531887
30
0
41
1
10
62.5938309212759
20
3.02876999484047
30
0
41
1
10
62.6093149163428
20
3.01071529215025
30
0
41
1
10
62.6173085141742
20
3.00201410202195
30
0
41
1
10
62.6417650168078
20
2.97702375808288
30
0
41
1
10
62.6587871416164
20
2.96172941733994
30
0
41
1
10
62.6852985306248
20
2.94068584758495
30
0
41
1
10
62.6943302199169
20
2.93397080496223
30
0
41
1
10
62.7125914578392
20
2.92128940981806
30
0
41
1
10
62.7217566999781
20
2.91536461155607
30
0
41
1
10
62.7493432137254
20
2.89881626683663
30
0
41
1
10
62.7678544759372
20
2.88939907340645
30
0
41
1
10
62.7957660320536
20
2.87793302451004
30
0
41
1
10
62.805146963914
20
2.87454446371962
30
0
41
1
10
62.8236267626905
20
2.86887012179849
30
0
41
1
10
62.8327302232856
20
2.86657547354727
30
0
41
1
10
62.8506333610351
20
2.86315390792015
30
0
41
1
10
62.8594333671975
20
2.8620256876512
30
0
41
1
10
62.8766788567071
20
2.86110126911325
30
0
41
1
10
62.8851343623685
20
2.86131831725169
30
0
41
1
10
62.9011206488042
20
2.86327249659342
30
0
41
1
10
62.9087153171763
20
2.86500022302963
30
0
41
1
10
62.922981667575
20
2.87019657637794
30
0
41
1
10
62.9296703095358
20
2.87369147526513
30
0
41
1
10
62.9356232583098
20
2.87813195113435
30
0
0
SPLINE
5
1B5
100
AcDbEntity
8
1
62
256
6
ByLayer
370
18
48
1
60
0
100
AcDbSpline
70
4
71
3
72
12
73
8
40
0
40
0
40
0
40
0
40
0.49999999999999
40
0.49999999999999
40
0.749999999999995
40
0.749999999999995
40
1
40
1
40
1
40
1
41
1
10
62.9356232583096
20
2.87813195113625
30
0
41
1
10
63.0212639424178
20
2.94201380291278
30
0
41
1
10
63.1063142463733
20
2.9995433129051
30
0
41
1
10
63.2329399219984
20
3.07614871713309
30
0
41
1
10
63.2749872894127
20
3.10006893213895
30
0
41
1
10
63.3587016715203
20
3.14464538432313
30
0
41
1
10
63.4003841474219
20
3.16531128229227
30
0
41
1
10
63.4419166025783
20
3.1843605095863
30
0
0
SPLINE
5
1B6
100
AcDbEntity
8
1
62
256
6
ByLayer
370
18
48
1
60
0
100
AcDbSpline
70
4
71
3
72
8
73
4
40
0
40
0
40
0
40
0
40
1
40
1
40
1
40
1
41
1
10
63.5942116302139
20
3.06472930221554
30
0
41
1
10
63.5434724968734
20
3.10510926783289
30
0
41
1
10
63.4927088238843
20
3.14498653581504
30
0
41
1
10
63.4419166025782
20
3.18436050958638
30
0
0
SPLINE
5
1B7
100
AcDbEntity
8
1
62
256
6
ByLayer
370
18
48
1
60
0
100
AcDbSpline
70
4
71
3
72
12
73
8
40
0
40
0
40
0
40
0
40
0.500000000000008
40
0.500000000000008
40
0.750000000000004
40
0.750000000000004
40
1
40
1
40
1
40
1
41
1
10
63.5942116302134
20
3.0647293022094
30
0
41
1
10
63.6796488994412
20
2.89676831621301
30
0
41
1
10
63.7657235773884
20
2.73116061541421
30
0
41
1
10
63.8959376878767
20
2.4874728973318
30
0
41
1
10
63.9395544654208
20
2.40699973586897
30
0
41
1
10
64.0271111394441
20
2.24793645510917
30
0
41
1
10
64.0710683776801
20
2.16931216389662
30
0
41
1
10
64.1152413594976
20
2.09162181664419
30
0
0
SPLINE
5
1B8
100
AcDbEntity
8
1
62
256
6
ByLayer
370
18
48
1
60
0
100
AcDbSpline
70
4
71
3
72
32
73
28
40
0
40
0
40
0
40
0
40
0.125000000000001
40
0.125000000000001
40
0.187500000000003
40
0.187500000000003
40
0.250000000000005
40
0.250000000000005
40
0.374999999999958
40
0.374999999999958
40
0.437499999999962
40
0.437499999999962
40
0.499999999999966
40
0.499999999999966
40
0.624999999999974
40
0.624999999999974
40
0.687499999999978
40
0.687499999999978
40
0.749999999999983
40
0.749999999999983
40
0.812499999999987
40
0.812499999999987
40
0.874999999999991
40
0.874999999999991
40
0.937499999999996
40
0.937499999999996
40
1
40
1
40
1
40
1
41
1
10
64.1152413594976
20
2.09162181664419
30
0
41
1
10
64.1261944687131
20
2.07235775921734
30
0
41
1
10
64.1389603467557
20
2.05355855859244
30
0
41
1
10
64.1601587209963
20
2.02589973166965
30
0
41
1
10
64.1675749576349
20
2.01677194573406
30
0
41
1
10
64.1830686888966
20
1.99868941492301
30
0
41
1
10
64.1910664772934
20
1.98983011487144
30
0
41
1
10
64.2155348344994
20
1.96397278091212
30
0
41
1
10
64.2325634822034
20
1.94758280312649
30
0
41
1
10
64.2590824968067
20
1.92415945585694
30
0
41
1
10
64.2681164991286
20
1.91652343453762
30
0
41
1
10
64.2863807034762
20
1.9017577432308
30
0
41
1
10
64.2955471407338
20
1.89467725762452
30
0
41
1
10
64.3231362571416
20
1.87432121371552
30
0
41
1
10
64.3416479905283
20
1.86191723868004
30
0
41
1
10
64.3695572457909
20
1.84520413091815
30
0
41
1
10
64.3789367678468
20
1.83992552125969
30
0
41
1
10
64.3974125914257
20
1.83024762357002
30
0
41
1
10
64.4065137530713
20
1.82584038550087
30
0
41
1
10
64.4244115009731
20
1.81795111873063
30
0
41
1
10
64.4332084161485
20
1.81446806022197
30
0
41
1
10
64.4504467464709
20
1.80855387970701
30
0
41
1
10
64.458899389783
20
1.80612867657339
30
0
41
1
10
64.4748799638926
20
1.80263391946707
30
0
41
1
10
64.4824715514276
20
1.80153819269162
30
0
41
1
10
64.4967314986456
20
1.80085736607111
30
0
41
1
10
64.503418273224
20
1.80128553047695
30
0
41
1
10
64.5093705553396
20
1.80260852543992
30
0
0
SPLINE
5
1B9
100
AcDbEntity
8
1
62
256
6
ByLayer
370
18
48
1
60
0
100
AcDbSpline
70
4
71
3
72
12
73
8
40
0
40
0
40
0
40
0
40
0.499999999999991
40
0.499999999999991
40
0.749999999999996
40
0.749999999999996
40
1
40
1
40
1
40
1
41
1
10
64.5093705553394
20
1.80260852544202
30
0
41
1
10
64.5949683447031
20
1.82163407597392
30
0
41
1
10
64.6799780517264
20
1.83363196302526
30
0
41
1
10
64.806561360166
20
1.84123971110034
30
0
41
1
10
64.848597802006
20
1.84204603765562
30
0
41
1
10
64.932300304168
20
1.84024592045714
30
0
41
1
10
64.9739815336725
20
1.8376407038142
30
0
41
1
10
65.0155179495381
20
1.83334546924232
30
0
0
SPLINE
5
1BA
100
AcDbEntity
8
1
62
256
6
ByLayer
370
18
48
1
60
0
100
AcDbSpline
70
4
71
3
72
8
73
4
40
0
40
0
40
0
40
0
40
1
40
1
40
1
40
1
41
1
10
65.1681548558087
20
1.69119922252125
30
0
41
1
10
65.1172856833597
20
1.7388683473325
30
0
41
1
10
65.0663961613665
20
1.78626113359809
30
0
41
1
10
65.0155179495381
20
1.83334546924229
30
0
0
SPLINE
5
1BB
100
AcDbEntity
8
1
62
256
6
ByLayer
370
18
48
1
60
0
100
AcDbSpline
70
4
71
3
72
14
73
10
40
0
40
0
40
0
40
0
40
0.25
40
0.25
40
0.5
40
0.5
40
0.75
40
0.75
40
1
40
1
40
1
40
1
41
1
10
65.1681548558087
20
1.69119922252128
30
0
41
1
10
65.2108843084881
20
1.61868545399349
30
0
41
1
10
65.2537632757693
20
1.54730543221771
30
0
41
1
10
65.3398820343458
20
1.40685836406055
30
0
41
1
10
65.3831235069968
20
1.33778975163381
30
0
41
1
10
65.4699125685272
20
1.20220568373915
30
0
41
1
10
65.5134898489583
20
1.1356422524141
30
0
41
1
10
65.6009587767855
20
1.00521882620157
30
0
41
1
10
65.6448483909451
20
0.941355125564343
30
0
41
1
10
65.6889360114423
20
0.878894336440794
30
0
0
SPLINE
5
1BC
100
AcDbEntity
8
1
62
256
6
ByLayer
370
18
48
1
60
0
100
AcDbSpline
70
4
71
3
72
32
73
28
40
0
40
0
40
0
40
0
40
0.124999999999968
40
0.124999999999968
40
0.187499999999973
40
0.187499999999973
40
0.249999999999979
40
0.249999999999979
40
0.37499999999999
40
0.37499999999999
40
0.437499999999968
40
0.437499999999968
40
0.499999999999946
40
0.499999999999946
40
0.624999999999958
40
0.624999999999958
40
0.687499999999965
40
0.687499999999965
40
0.749999999999972
40
0.749999999999972
40
0.812499999999979
40
0.812499999999979
40
0.874999999999986
40
0.874999999999986
40
0.937499999999993
40
0.937499999999993
40
1
40
1
40
1
40
1
41
1
10
65.6889360114423
20
0.878894336440823
30
0
41
1
10
65.6999033737667
20
0.863356412242126
30
0
41
1
10
65.7126831576198
20
0.847427496383631
30
0
41
1
10
65.7338948425614
20
0.823119148080536
30
0
41
1
10
65.7413143367714
20
0.814944721935433
30
0
41
1
10
65.7568115132327
20
0.798459972895301
30
0
41
1
10
65.7648065331878
20
0.790238822319537
30
0
41
1
10
65.7892667037385
20
0.765826768016154
30
0
41
1
10
65.8062848112045
20
0.7497957814561
30
0
41
1
10
65.8327821965118
20
0.726059170058761
30
0
41
1
10
65.8418072316176
20
0.718174405224289
30
0
41
1
10
65.8600562069685
20
0.702616785470127
30
0
41
1
10
65.8692151271609
20
0.694998045963445
30
0
41
1
10
65.8967828760411
20
0.672603859805236
30
0
41
1
10
65.9152819405321
20
0.65828368630136
30
0
41
1
10
65.9431785745062
20
0.637759787258318
30
0
41
1
10
65.9525550718802
20
0.631043418680605
30
0
41
1
10
65.971038145266
20
0.618182438917017
30
0
41
1
10
65.980144299635
20
0.612035108474061
30
0
41
1
10
65.9980537133228
20
0.60034136557465
30
0
41
1
10
66.0068573023277
20
0.594794284751657
30
0
41
1
10
66.0241097200847
20
0.584378013205111
30
0
41
1
10
66.0325733528414
20
0.579504766001861
30
0
41
1
10
66.0485759310559
20
0.570828460892585
30
0
41
1
10
66.0561781524522
20
0.566984875685279
30
0
41
1
10
66.0704578774952
20
0.560442963803638
30
0
41
1
10
66.0771555365232
20
0.557742337826539
30
0
41
1
10
66.0831178374756
20
0.555805182384006
30
0
0
SPLINE
5
1BD
100
AcDbEntity
8
1
62
256
6
ByLayer
370
18
48
1
60
0
100
AcDbSpline
70
4
71
3
72
12
73
8
40
0
40
0
40
0
40
0
40
0.49999999999999
40
0.49999999999999
40
0.749999999999995
40
0.749999999999995
40
1
40
1
40
1
40
1
41
1
10
66.0831178374755
20
0.555805182386052
30
0
41
1
10
66.1687672394942
20
0.527977636176246
30
0
41
1
10
66.2538205156737
20
0.493116052788764
30
0
41
1
10
66.3804591363009
20
0.430686742716091
30
0
41
1
10
66.4225121970454
20
0.408191959044757
30
0
41
1
10
66.5062473026322
20
0.35995588533973
30
0
41
1
10
66.5479443043893
20
0.334207621315244
30
0
41
1
10
66.589496715671
20
0.30685605888209
30
0
0
SPLINE
5
1BE
100
AcDbEntity
8
1
62
256
6
ByLayer
370
18
48
1
60
0
100
AcDbSpline
70
4
71
3
72
8
73
4
40
0
40
0
40
0
40
0
40
1
40
1
40
1
40
1
41
1
10
66.7419642779785
20
0.155767496678607
30
0
41
1
10
66.6911193423327
20
0.206180584153799
30
0
41
1
10
66.6402981827077
20
0.256544761996423
30
0
41
1
10
66.589496715671
20
0.306856058882118
30
0
0
SPLINE
5
1BF
100
AcDbEntity
8
1
62
256
6
ByLayer
370
18
48
1
60
0
100
AcDbSpline
70
4
71
3
72
12
73
8
40
0
40
0
40
0
40
0
40
0.499999999999999
40
0.499999999999999
40
0.75
40
0.75
40
1
40
1
40
1
40
1
41
1
10
66.7419642779783
20
0.155767496677726
30
0
41
1
10
66.8274060370939
20
0.0475005000641033
30
0
41
1
10
66.9135193045956
20
-0.0546535474294672
30
0
41
1
10
67.0436821643915
20
-0.198070131463624
30
0
41
1
10
67.0872404298535
20
-0.244246232528866
30
0
41
1
10
67.1746413194686
20
-0.333161961267678
30
0
41
1
10
67.2184999561568
20
-0.375920581968813
30
0
41
1
10
67.2625562402271
20
-0.416941433490933
30
0
0
SPLINE
5
1C0
100
AcDbEntity
8
1
62
256
6
ByLayer
370
18
48
1
60
0
100
AcDbSpline
70
4
71
3
72
8
73
4
40
0
40
0
40
0
40
0
40
1
40
1
40
1
40
1
41
1
10
68.3162109731807
20
-1.39454225158269
30
0
41
1
10
68.2651237410519
20
-1.34578120806267
30
0
41
1
10
68.2140740351314
20
-1.29682207346244
30
0
41
1
10
68.1630563427292
20
-1.24767025573883
30
0
0
SPLINE
5
1C1
100
AcDbEntity
8
1
62
256
6
ByLayer
370
18
48
1
60
0
100
AcDbSpline
70
4
71
3
72
8
73
4
40
0
40
0
40
0
40
0
40
1
40
1
40
1
40
1
41
1
10
69.8888986419182
20
-2.81077150049438
30
0
41
1
10
69.8383748273745
20
-2.76886506742485
30
0
41
1
10
69.7878966603717
20
-2.72653308296898
30
0
41
1
10
69.7374586518725
20
-2.6837792298098
30
0
0
SPLINE
5
1C2
100
AcDbEntity
8
1
62
256
6
ByLayer
370
18
48
1
60
0
100
AcDbSpline
70
4
71
3
72
8
73
4
40
0
40
0
40
0
40
0
40
1
40
1
40
1
40
1
41
1
10
71.4633976175173
20
-3.96100980270504
30
0
41
1
10
71.4122103677592
20
-3.92899745127608
30
0
41
1
10
71.3610705477923
20
-3.89636768341705
30
0
41
1
10
71.3098965950794
20
-3.86317342406423
30
0
0
SPLINE
5
1C3
100
AcDbEntity
8
SK1
62
256
6
ByLayer
370
18
48
1
60
0
100
AcDbSpline
70
4
71
3
72
22
73
18
40
0
40
0
40
0
40
0
40
0.124983808859138
40
0.124983808859138
40
0.249967617718276
40
0.249967617718276
40
0.499935235436552
40
0.499935235436552
40
0.749902853154828
40
0.749902853154828
40
0.781148805369613
40
0.781148805369613
40
0.812394757584397
40
0.874886662013966
40
0.874886662013966
40
0.999870470873105
40
1
40
1
40
1
40
1
41
1
10
-21.6
20
2.74999999999997
30
0
41
1
10
-21.6425101242836
20
2.74999999999997
30
0
41
1
10
-21.6838915937518
20
2.74999999999997
30
0
41
1
10
-21.7638322771203
20
2.74999999999997
30
0
41
1
10
-21.8021926489972
20
2.74999999999997
30
0
41
1
10
-21.9116128118806
20
2.74999999999997
30
0
41
1
10
-21.9770645254946
20
2.74999999999997
30
0
41
1
10
-22.0873601599756
20
2.74999999999997
30
0
41
1
10
-22.1321961551575
20
2.74999999999997
30
0
41
1
10
-22.1669769105785
20
2.74999999999997
30
0
41
1
10
-22.1706219029563
20
2.74999999999997
30
0
41
1
10
-22.1774281181226
20
2.74999999999997
30
0
41
1
10
-22.1869271078174
20
2.74999999999997
30
0
41
1
10
-22.1942720192454
20
2.74999999999997
30
0
41
1
10
-22.2060439582791
20
2.74999999999997
30
0
41
1
10
-22.2099985885455
20
2.74999999999994
30
0
41
1
10
-22.2100009994299
20
2.74999999999994
30
0
41
1
10
-22.2099994099143
20
2.74999999999994
30
0
0
SPLINE
5
1C4
100
AcDbEntity
8
SK1
62
256
6
ByLayer
370
18
48
1
60
0
100
AcDbSpline
70
4
71
3
72
22
73
18
40
0
40
0
40
0
40
0
40
0.0001293325239024
40
0.125113165958414
40
0.125113165958414
40
0.18760508267567
40
0.218851041034298
40
0.218851041034298
40
0.250096999392927
40
0.250096999392927
40
0.500064666261951
40
0.500064666261951
40
0.750032333130976
40
0.750032333130976
40
0.875016166565488
40
0.875016166565488
40
1
40
1
40
1
40
1
41
1
10
-22.2099994130275
20
-2.75000000000003
30
0
41
1
10
-22.2100009994274
20
-2.75000000000003
30
0
41
1
10
-22.2099985854272
20
-2.75000000000003
30
0
41
1
10
-22.2060439582791
20
-2.75000000000003
30
0
41
1
10
-22.1942720192453
20
-2.75000000000003
30
0
41
1
10
-22.1869271078174
20
-2.75000000000003
30
0
41
1
10
-22.1774281181226
20
-2.75000000000003
30
0
41
1
10
-22.1706219029563
20
-2.75000000000003
30
0
41
1
10
-22.1669769105785
20
-2.75000000000003
30
0
41
1
10
-22.1321961551575
20
-2.75000000000003
30
0
41
1
10
-22.0873601599755
20
-2.75000000000003
30
0
41
1
10
-21.9770645254945
20
-2.75000000000003
30
0
41
1
10
-21.9116128118806
20
-2.75000000000003
30
0
41
1
10
-21.8021926489971
20
-2.75000000000003
30
0
41
1
10
-21.7638322771202
20
-2.75000000000003
30
0
41
1
10
-21.6838915937517
20
-2.75000000000003
30
0
41
1
10
-21.6425101242835
20
-2.75000000000003
30
0
41
1
10
-21.6
20
-2.75000000000003
30
0
0
SPLINE
5
1C5
100
AcDbEntity
8
SK1
62
256
6
ByLayer
370
18
48
1
60
0
100
AcDbSpline
70
4
71
3
72
34
73
30
40
0
40
0
40
0
40
0
40
0.0625000000000001
40
0.0625000000000001
40
0.125
40
0.125
40
0.25
40
0.25
40
0.375
40
0.375
40
0.40625
40
0.40625
40
0.4375
40
0.4375
40
0.5
40
0.5625
40
0.5625
40
0.593750000000001
40
0.609375000000001
40
0.609375000000001
40
0.625000000000001
40
0.625000000000001
40
0.75
40
0.75
40
0.875
40
0.875
40
0.9375
40
0.9375
40
1
40
1
40
1
40
1
41
1
10
-21.6
20
-1.93056986405574
30
0
41
1
10
-21.6424853000041
20
-1.85662765110013
30
0
41
1
10
-21.6838381892748
20
-1.7818222426024
30
0
41
1
10
-21.7638065531685
20
-1.63012479391835
30
0
41
1
10
-21.8021885370536
20
-1.55367034926087
30
0
41
1
10
-21.911653350069
20
-1.32226720929202
30
0
41
1
10
-21.9771267451505
20
-1.16526228136479
30
0
41
1
10
-22.0874442974362
20
-0.84372957409758
30
0
41
1
10
-22.1322804090831
20
-0.679198860789256
30
0
41
1
10
-22.1709099891249
20
-0.467184547840503
30
0
41
1
10
-22.177724945591
20
-0.424646536716551
30
0
41
1
10
-22.1894189595335
20
-0.339690306825901
30
0
41
1
10
-22.1943092422736
20
-0.29721130241677
30
0
41
1
10
-22.2060636127594
20
-0.169771577748264
30
0
41
1
10
-22.2139462093349
20
0.0001552973887158
30
0
41
1
10
-22.2060439582791
20
0.170096847653895
30
0
41
1
10
-22.1942720192453
20
0.297558444665896
30
0
41
1
10
-22.1869271078174
20
0.361290599546067
30
0
41
1
10
-22.1774281181226
20
0.425024757066723
30
0
41
1
10
-22.1706219029563
20
0.467514635676906
30
0
41
1
10
-22.1669769105785
20
0.488786496404913
30
0
41
1
10
-22.1321961551575
20
0.679534613236967
30
0
41
1
10
-22.0873601599755
20
0.844004884015021
30
0
41
1
10
-21.9770645254945
20
1.16541350550278
30
0
41
1
10
-21.9116128118806
20
1.32235475073611
30
0
41
1
10
-21.8021926489971
20
1.5536607337431
30
0
41
1
10
-21.7638322771202
20
1.63007358631245
30
0
41
1
10
-21.6838915937517
20
1.78172334370566
30
0
41
1
10
-21.6425101242835
20
1.85658444645856
30
0
41
1
10
-21.5999999999999
20
1.9305698640558
30
0
0
SPLINE
5
1C6
100
AcDbEntity
8
1
62
256
6
ByLayer
370
18
48
1
60
0
100
AcDbSpline
70
4
71
2
72
6
73
3
40
0
40
0
40
0
40
1
40
1
40
1
41
1
10
69.1101482513934
20
4.88178542900474
30
0
41
1
10
68.9135226735475
20
4.54235168461602
30
0
41
1
10
68.7165380667713
20
4.20308863110606
30
0
0
SPLINE
5
1C7
100
AcDbEntity
8
1
62
256
6
ByLayer
370
18
48
1
60
0
100
AcDbSpline
70
4
71
2
72
6
73
3
40
0
40
0
40
0
40
1
40
1
40
1
41
1
10
75.0082258589925
20
-4.42525624538163
30
0
41
1
10
75.0728359805625
20
-4.31401685352225
30
0
41
1
10
75.137484494105
20
-4.20280249235165
30
0
0
SPLINE
5
1C8
100
AcDbEntity
8
1
62
256
6
ByLayer
370
18
48
1
60
0
100
AcDbSpline
70
4
71
2
72
6
73
3
40
0
40
0
40
0
40
1
40
1
40
1
41
1
10
65.7162492336209
20
4.20349934732005
30
0
41
1
10
65.7107837768606
20
4.17091702967821
30
0
41
1
10
65.6480359577448
20
4.14117541170805
30
0
0
SPLINE
5
1C9
100
AcDbEntity
8
1
62
256
6
ByLayer
370
18
48
1
60
0
100
AcDbSpline
70
4
71
1
72
4
73
2
40
0
40
0
40
1
40
1
41
1
10
76.9999999999999
20
3.60059282729026
30
0
41
1
10
76.6186788251368
20
3.98187179915092
30
0
0
SPLINE
5
1CA
100
AcDbEntity
8
1
62
256
6
ByLayer
370
18
48
1
60
0
100
AcDbSpline
70
4
71
1
72
4
73
2
40
0
40
0
40
1
40
1
41
1
10
63.4664294607423
20
-4.20364846186672
30
0
41
1
10
63.7131319634959
20
-4.62892866996827
30
0
0
SPLINE
5
1CB
100
AcDbEntity
8
1
62
256
6
ByLayer
370
18
48
1
60
0
100
AcDbSpline
70
4
71
1
72
4
73
2
40
0
40
0
40
1
40
1
41
1
10
74.2475560010689
20
-4.63760949625669
30
0
41
1
10
75.000346327502
20
-4.43654696519263
30
0
0
SPLINE
5
1CC
100
AcDbEntity
8
1
62
256
6
ByLayer
370
18
48
1
60
0
100
AcDbSpline
70
4
71
2
72
6
73
3
40
0
40
0
40
0
40
1
40
1
40
1
41
1
10
73.9663714372828
20
-4.20318846864851
30
0
41
1
10
74.0900386860972
20
-4.41620932351475
30
0
41
1
10
74.2135895506269
20
-4.62930227934854
30
0
0
SPLINE
5
1CD
100
AcDbEntity
8
1
62
256
6
ByLayer
370
18
48
1
60
0
100
AcDbSpline
70
4
71
2
72
6
73
3
40
0
40
0
40
0
40
1
40
1
40
1
41
1
10
66.2110099290611
20
5.0566762152574
30
0
41
1
10
65.9637956940639
20
4.62994106887507
30
0
41
1
10
65.7164143370572
20
4.20378274948945
30
0
0
SPLINE
5
1CE
100
AcDbEntity
8
1
62
256
6
ByLayer
370
18
48
1
60
0
100
AcDbSpline
70
4
71
3
72
11
73
7
40
0
40
0
40
0
40
0
40
0.25388528005627
40
0.520878482251623
40
0.788246322812405
40
1
40
1
40
1
40
1
41
1
10
63.1347366701524
20
-4.20773396831439
30
0
41
1
10
63.1499508777163
20
-4.17995841198552
30
0
41
1
10
63.1919470023132
20
-4.13727167546929
30
0
41
1
10
63.3062556772164
20
-4.10185773386823
30
0
41
1
10
63.4142257150918
20
-4.14025625594587
30
0
41
1
10
63.455129296823
20
-4.18102645048816
30
0
41
1
10
63.469204458012
20
-4.20357869706527
30
0
0
SPLINE
5
1CF
100
AcDbEntity
8
1
62
256
6
ByLayer
370
18
48
1
60
0
100
AcDbSpline
70
4
71
2
72
6
73
3
40
0
40
0
40
0
40
1
40
1
40
1
41
1
10
66.8777578357611
20
4.21570516997159
30
0
41
1
10
66.6302894019645
20
4.64236562245429
30
0
41
1
10
66.3829569652063
20
5.06932514110576
30
0
0
SPLINE
5
1D0
100
AcDbEntity
8
1
62
256
6
ByLayer
370
18
48
1
60
0
100
AcDbSpline
70
4
71
3
72
11
73
7
40
0
40
0
40
0
40
0
40
0.245649722693564
40
0.496394500124752
40
0.751926667027144
40
1
40
1
40
1
40
1
41
1
10
73.6371511438355
20
-4.20359658572832
30
0
41
1
10
73.6442873171126
20
-4.18555489900714
30
0
41
1
10
73.6733902614552
20
-4.15556867829937
30
0
41
1
10
73.7670597135236
20
-4.10528439325932
30
0
41
1
10
73.8976136353957
20
-4.12507873690055
30
0
41
1
10
73.949595038439
20
-4.17607580721059
30
0
41
1
10
73.971522618375
20
-4.2110884619012
30
0
0
SPLINE
5
1D1
100
AcDbEntity
8
1
62
256
6
ByLayer
370
18
48
1
60
0
100
AcDbSpline
70
4
71
3
72
11
73
7
40
0
40
0
40
0
40
0
40
0.233107205457792
40
0.480879171247428
40
0.738967648928166
40
1
40
1
40
1
40
1
41
1
10
67.2159751329629
20
4.20306062552655
30
0
41
1
10
67.2044279668518
20
4.18060954592946
30
0
41
1
10
67.1690917945824
20
4.1444887884962
30
0
41
1
10
67.0641672951956
20
4.1028232006241
30
0
41
1
10
66.9453399007682
20
4.13400384738688
30
0
41
1
10
66.9028474735633
20
4.17450157609099
30
0
41
1
10
66.8873091172403
20
4.20248065022073
30
0
0
SPLINE
5
1D2
100
AcDbEntity
8
1
62
256
6
ByLayer
370
18
48
1
60
0
100
AcDbSpline
70
4
71
2
72
6
73
3
40
0
40
0
40
0
40
1
40
1
40
1
41
1
10
62.6404978612051
20
-5.05958603904469
30
0
41
1
10
62.889020957237
20
-4.63078485131112
30
0
41
1
10
63.1382088663776
20
-4.20195623583896
30
0
0
SPLINE
5
1D3
100
AcDbEntity
8
1
62
256
6
ByLayer
370
18
48
1
60
0
100
AcDbSpline
70
4
71
2
72
6
73
3
40
0
40
0
40
0
40
1
40
1
40
1
41
1
10
73.2293658470779
20
-4.90601622379546
30
0
41
1
10
73.43267887246
20
-4.55543119193973
30
0
41
1
10
73.6361636362487
20
-4.20524538699706
30
0
0
SPLINE
5
1D4
100
AcDbEntity
8
1
62
256
6
ByLayer
370
18
48
1
60
0
100
AcDbSpline
70
4
71
2
72
6
73
3
40
0
40
0
40
0
40
1
40
1
40
1
41
1
10
61.9652844793661
20
-4.20147980126697
30
0
41
1
10
62.2141115219421
20
-4.63014666107108
30
0
41
1
10
62.4626994244762
20
-5.05930858971396
30
0
0
SPLINE
5
1D5
100
AcDbEntity
8
1
62
256
6
ByLayer
370
18
48
1
60
0
100
AcDbSpline
70
4
71
1
72
4
73
2
40
0
40
0
40
1
40
1
41
1
10
72.9377011693377
20
-4.99144336373388
30
0
41
1
10
73.215855434169
20
-4.91707611810654
30
0
0
SPLINE
5
1D6
100
AcDbEntity
8
1
62
256
6
ByLayer
370
18
48
1
60
0
100
AcDbSpline
70
4
71
2
72
6
73
3
40
0
40
0
40
0
40
1
40
1
40
1
41
1
10
72.4663580704862
20
-4.20287807688686
30
0
41
1
10
72.6920770275584
20
-4.59164830319486
30
0
41
1
10
72.9174252177721
20
-4.9806080468536
30
0
0
SPLINE
5
1D7
100
AcDbEntity
8
1
62
256
6
ByLayer
370
18
48
1
60
0
100
AcDbSpline
70
4
71
3
72
11
73
7
40
0
40
0
40
0
40
0
40
0.227733428684019
40
0.473267879759295
40
0.733309836320202
40
1
40
1
40
1
40
1
41
1
10
61.6386509514596
20
-4.20094991540049
30
0
41
1
10
61.6488004545782
20
-4.18081581828002
30
0
41
1
10
61.6816099303352
20
-4.14752538546855
30
0
41
1
10
61.7816878267187
20
-4.10379166083644
30
0
41
1
10
61.9045666798494
20
-4.13140609229467
30
0
41
1
10
61.949262834248
20
-4.17344383810922
30
0
41
1
10
61.9662327336131
20
-4.20314577160968
30
0
0
SPLINE
5
1D8
100
AcDbEntity
8
1
62
256
6
ByLayer
370
18
48
1
60
0
100
AcDbSpline
70
4
71
2
72
6
73
3
40
0
40
0
40
0
40
1
40
1
40
1
41
1
10
61.5181888653732
20
-4.40782456106967
30
0
41
1
10
61.575578054705
20
-4.30893959586493
30
0
41
1
10
61.6329786984014
20
-4.21009160272175
30
0
0
SPLINE
5
1D9
100
AcDbEntity
8
1
62
256
6
ByLayer
370
18
48
1
60
0
100
AcDbSpline
70
4
71
2
72
6
73
3
40
0
40
0
40
0
40
1
40
1
40
1
41
1
10
67.7128281843928
20
5.05986387643534
30
0
41
1
10
67.4647035431461
20
4.63151002989159
30
0
41
1
10
67.2162025987599
20
4.20344994830674
30
0
0
SPLINE
5
1DA
100
AcDbEntity
8
1
62
256
6
ByLayer
370
18
48
1
60
0
100
AcDbSpline
70
4
71
3
72
11
73
7
40
0
40
0
40
0
40
0
40
0.260228214746126
40
0.519281495047626
40
0.766267500242978
40
1
40
1
40
1
40
1
41
1
10
72.1355331974848
20
-4.2065509502724
30
0
41
1
10
72.1560881184267
20
-4.17312529465659
30
0
41
1
10
72.2059886857305
20
-4.12582474094083
30
0
41
1
10
72.3352548177493
20
-4.1050680668416
30
0
41
1
10
72.4290789834583
20
-4.15401626975546
30
0
41
1
10
72.458386921354
20
-4.18450147690803
30
0
41
1
10
72.4661583842065
20
-4.20253431021854
30
0
0
SPLINE
5
1DB
100
AcDbEntity
8
1
62
256
6
ByLayer
370
18
48
1
60
0
100
AcDbSpline
70
4
71
2
72
6
73
3
40
0
40
0
40
0
40
1
40
1
40
1
41
1
10
68.3868938661428
20
4.20422173440849
30
0
41
1
10
68.1381747178862
20
4.63222779810724
30
0
41
1
10
67.8898507354702
20
5.0606234133231
30
0
0
SPLINE
5
1DC
100
AcDbEntity
8
1
62
256
6
ByLayer
370
18
48
1
60
0
100
AcDbSpline
70
4
71
3
72
11
73
7
40
0
40
0
40
0
40
0
40
0.245676816704203
40
0.501327285775391
40
0.752971780869426
40
1
40
1
40
1
40
1
41
1
10
68.7245340886221
20
4.2145354334298
30
0
41
1
10
68.7020828320116
20
4.17855249597753
30
0
41
1
10
68.6491735851045
20
4.12555430204998
30
0
41
1
10
68.5182876575369
20
4.10505678779941
30
0
41
1
10
68.4241074845262
20
4.1549649494674
30
0
41
1
10
68.3946501067034
20
4.18513311174573
30
0
41
1
10
68.3873835131809
20
4.20338424191382
30
0
0
SPLINE
5
1DD
100
AcDbEntity
8
1
62
256
6
ByLayer
370
18
48
1
60
0
100
AcDbSpline
70
4
71
2
72
6
73
3
40
0
40
0
40
0
40
1
40
1
40
1
41
1
10
70.8990768537885
20
-4.1415085213377
30
0
41
1
10
70.9155910271118
20
-4.14974796896522
30
0
41
1
10
70.9267203465953
20
-4.15578751396143
30
0
0
SPLINE
5
1DE
100
AcDbEntity
8
1
62
256
6
ByLayer
370
18
48
1
60
0
100
AcDbSpline
70
4
71
1
72
4
73
2
40
0
40
0
40
1
40
1
41
1
10
70.947254033669
20
-4.16832558962471
30
0
41
1
10
70.9518262772736
20
-4.1711174437097
30
0
0
SPLINE
5
1DF
100
AcDbEntity
8
1
62
256
6
ByLayer
370
18
48
1
60
0
100
AcDbSpline
70
4
71
2
72
6
73
3
40
0
40
0
40
0
40
1
40
1
40
1
41
1
10
70.9666460321445
20
-4.20477246796037
30
0
41
1
10
71.2142500687659
20
-4.63143483200085
30
0
41
1
10
71.4616830615789
20
-5.05866152781252
30
0
0
SPLINE
5
1E0
100
AcDbEntity
8
1
62
256
6
ByLayer
370
18
48
1
60
0
100
AcDbSpline
70
4
71
2
72
6
73
3
40
0
40
0
40
0
40
1
40
1
40
1
41
1
10
69.8948432578427
20
4.18757252828416
30
0
41
1
10
69.647472230279
20
4.61188124206734
30
0
41
1
10
69.4002255685253
20
5.03717295038399
30
0
0
SPLINE
5
1E1
100
AcDbEntity
8
1
62
256
6
ByLayer
370
18
48
1
60
0
100
AcDbSpline
70
4
71
2
72
6
73
3
40
0
40
0
40
0
40
1
40
1
40
1
41
1
10
71.629928313428
20
-5.07301706445944
30
0
41
1
10
71.8771741586493
20
-4.64610639979813
30
0
41
1
10
72.1245227749547
20
-4.21938413778548
30
0
0
LINE
5
7F
100
AcDbEntity
8
80
62
256
6
ByLayer
370
18
48
1
60
0
100
AcDbLine
10
0
20
0
30
0
11
-5
21
0
31
0
39
0
210
0
220
0
230
1
0
LINE
5
80
100
AcDbEntity
8
4
62
256
6
ByLayer
370
18
48
0.05
60
0
100
AcDbLine
10
0
20
0
30
0
11
78.65
21
0
31
0
39
0
210
0
220
0
230
1
0
LINE
5
82
100
AcDbEntity
8
81
62
256
6
ByLayer
370
18
48
1
60
0
100
AcDbLine
10
78.65
20
0
30
0
11
83.65
21
0
31
0
39
0
210
0
220
0
230
1
0
LINE
5
83
100
AcDbEntity
8
SK4
62
256
6
ByLayer
370
18
48
0.05
60
0
100
AcDbLine
10
-23
20
0
30
0
11
78.65
21
0
31
0
39
0
210
0
220
0
230
1
0
LINE
5
85
100
AcDbEntity
8
1
62
256
6
ByLayer
370
18
48
1
60
0
100
AcDbLine
10
0
20
3.5
30
0
11
0
21
-3.5
31
0
39
0
210
0
220
0
230
1
0
LINE
5
86
100
AcDbEntity
8
1
62
256
6
ByLayer
370
18
48
1
60
0
100
AcDbLine
10
74.999422
20
-4.436797
30
0
11
74.99565
21
-4.439989
31
0
39
0
210
0
220
0
230
1
0
LINE
5
87
100
AcDbEntity
8
1
62
256
6
ByLayer
370
18
48
1
60
0
100
AcDbLine
10
63.1382
20
-4.201972
30
0
11
63.134314
21
-4.208377
31
0
39
0
210
0
220
0
230
1
0
LINE
5
88
100
AcDbEntity
8
1
62
256
6
ByLayer
370
18
48
1
60
0
100
AcDbLine
10
61.968204
20
-4.2064
30
0
11
61.965292
21
-4.201493
31
0
39
0
210
0
220
0
230
1
0
LINE
5
89
100
AcDbEntity
8
1
62
256
6
ByLayer
370
18
48
1
60
0
100
AcDbLine
10
64.124096
20
-5.070626
30
0
11
64.118924
21
-5.069404
31
0
39
0
210
0
220
0
230
1
0
LINE
5
8A
100
AcDbEntity
8
1
62
256
6
ByLayer
370
18
48
1
60
0
100
AcDbLine
10
61.636902
20
-4.204023
30
0
11
61.63288
21
-4.21023
31
0
39
0
210
0
220
0
230
1
0
LINE
5
8B
100
AcDbEntity
8
1
62
256
6
ByLayer
370
13
48
1
60
0
100
AcDbLine
10
61.295272
20
-4.05
30
0
11
61.295272
21
-3.471661
31
0
39
0
210
0
220
0
230
1
0
LINE
5
8C
100
AcDbEntity
8
1
62
256
6
ByLayer
370
13
48
1
60
0
100
AcDbLine
10
60.082837
20
-3.330617
30
0
11
60.082837
21
-2.379549
31
0
39
0
210
0
220
0
230
1
0
LINE
5
8D
100
AcDbEntity
8
1
62
256
6
ByLayer
370
13
48
1
60
0
100
AcDbLine
10
29.653835
20
-3.35
30
0
11
29.653835
21
3.35
31
0
39
0
210
0
220
0
230
1
0
LINE
5
8E
100
AcDbEntity
8
1
62
256
6
ByLayer
370
18
48
1
60
0
100
AcDbLine
10
29
20
3.5
30
0
11
29
21
-3.5
31
0
39
0
210
0
220
0
230
1
0
LINE
5
8F
100
AcDbEntity
8
1
62
256
6
ByLayer
370
13
48
1
60
0
100
AcDbLine
10
60.082837
20
1.976948
30
0
11
60.082837
21
3.231877
31
0
39
0
210
0
220
0
230
1
0
LINE
5
90
100
AcDbEntity
8
1
62
256
6
ByLayer
370
13
48
1
60
0
100
AcDbLine
10
61.295272
20
3.542085
30
0
11
61.295272
21
1.477942
31
0
39
0
210
0
220
0
230
1
0
LINE
5
91
100
AcDbEntity
8
1
62
256
6
ByLayer
370
18
48
1
60
0
100
AcDbLine
10
61.88453
20
4.224035
30
0
11
61.88453
21
4.029824
31
0
39
0
210
0
220
0
230
1
0
LINE
5
92
100
AcDbEntity
8
SK1
62
256
6
ByLayer
370
18
48
1
60
0
100
AcDbLine
10
-23
20
1.96
30
0
11
-23
21
-1.96
31
0
39
0
210
0
220
0
230
1
0
LINE
5
94
100
AcDbEntity
8
SK1
62
256
6
ByLayer
370
18
48
1
60
0
100
AcDbLine
10
-15
20
1.93057
30
0
11
-15
21
-1.93057
31
0
39
0
210
0
220
0
230
1
0
LINE
5
95
100
AcDbEntity
8
SK1
62
256
6
ByLayer
370
18
48
1
60
0
100
AcDbLine
10
-15
20
2.75
30
0
11
-14.39
21
3.36
31
0
39
0
210
0
220
0
230
1
0
LINE
5
96
100
AcDbEntity
8
SK1
62
256
6
ByLayer
370
18
48
1
60
0
100
AcDbLine
10
-21.6
20
2.75
30
0
11
-15
21
2.75
31
0
39
0
210
0
220
0
230
1
0
LINE
5
97
100
AcDbEntity
8
SK1
62
256
6
ByLayer
370
18
48
1
60
0
100
AcDbLine
10
-21.6
20
1.93057
30
0
11
-21.6
21
2.75
31
0
39
0
210
0
220
0
230
1
0
LINE
5
98
100
AcDbEntity
8
SK1
62
256
6
ByLayer
370
18
48
1
60
0
100
AcDbLine
10
-15
20
1.93057
30
0
11
-21.6
21
1.93057
31
0
39
0
210
0
220
0
230
1
0
LINE
5
99
100
AcDbEntity
8
SK1
62
256
6
ByLayer
370
18
48
1
60
0
100
AcDbLine
10
-21.6
20
-1.93057
30
0
11
-15
21
-1.93057
31
0
39
0
210
0
220
0
230
1
0
LINE
5
9A
100
AcDbEntity
8
SK1
62
256
6
ByLayer
370
18
48
1
60
0
100
AcDbLine
10
-21.6
20
-2.75
30
0
11
-21.6
21
-1.93057
31
0
39
0
210
0
220
0
230
1
0
LINE
5
9B
100
AcDbEntity
8
SK1
62
256
6
ByLayer
370
18
48
1
60
0
100
AcDbLine
10
-15
20
-2.75
30
0
11
-21.6
21
-2.75
31
0
39
0
210
0
220
0
230
1
0
LINE
5
9C
100
AcDbEntity
8
SK1
62
256
6
ByLayer
370
18
48
1
60
0
100
AcDbLine
10
-15
20
-2.75
30
0
11
-14.39
21
-3.36
31
0
39
0
210
0
220
0
230
1
0
LINE
5
9D
100
AcDbEntity
8
SK1
62
256
6
ByLayer
370
18
48
1
60
0
100
AcDbLine
10
-14.2
20
3.36
30
0
11
-14.2
21
-3.36
31
0
39
0
210
0
220
0
230
1
0
LINE
5
9E
100
AcDbEntity
8
SK1
62
256
6
ByLayer
370
18
48
1
60
0
100
AcDbLine
10
0
20
3.5
30
0
11
0
21
-3.5
31
0
39
0
210
0
220
0
230
1
0
LINE
5
9F
100
AcDbEntity
8
SK1
62
256
6
ByLayer
370
18
48
1
60
0
100
AcDbLine
10
-14.06
20
-3.5
30
0
11
-14.06
21
3.5
31
0
39
0
210
0
220
0
230
1
0
LINE
5
A0
100
AcDbEntity
8
1
62
256
6
ByLayer
370
18
48
1
60
0
100
AcDbLine
10
29
20
3.5
30
0
11
0
21
3.5
31
0
39
0
210
0
220
0
230
1
0
LINE
5
A1
100
AcDbEntity
8
1
62
256
6
ByLayer
370
18
48
1
60
0
100
AcDbLine
10
0
20
-3.5
30
0
11
29
21
-3.5
31
0
39
0
210
0
220
0
230
1
0
LINE
5
A2
100
AcDbEntity
8
1
62
256
6
ByLayer
370
18
48
1
60
0
100
AcDbLine
10
69.916572
20
4.162535
30
0
11
69.914612
21
4.162601
31
0
39
0
210
0
220
0
230
1
0
LINE
5
A3
100
AcDbEntity
8
1
62
256
6
ByLayer
370
18
48
1
60
0
100
AcDbLine
10
63.97873
20
-5.070624
30
0
11
64.12415
21
-5.070624
31
0
39
0
210
0
220
0
230
1
0
LINE
5
A4
100
AcDbEntity
8
1
62
256
6
ByLayer
370
18
48
1
60
0
100
AcDbLine
10
66.373984
20
5.070624
30
0
11
66.228892
21
5.070624
31
0
39
0
210
0
220
0
230
1
0
LINE
5
A5
100
AcDbEntity
8
1
62
256
6
ByLayer
370
18
48
1
60
0
100
AcDbLine
10
78.65
20
0
30
0
11
77
21
1.65
31
0
39
0
210
0
220
0
230
1
0
LINE
5
A6
100
AcDbEntity
8
1
62
256
6
ByLayer
370
18
48
1
60
0
100
AcDbLine
10
77
20
-1.65
30
0
11
78.65
21
0
31
0
39
0
210
0
220
0
230
1
0
LINE
5
A7
100
AcDbEntity
8
1
62
256
6
ByLayer
370
18
48
1
60
0
100
AcDbLine
10
62.478902
20
-5.070624
30
0
11
62.62434
21
-5.070624
31
0
39
0
210
0
220
0
230
1
0
LINE
5
A8
100
AcDbEntity
8
1
62
256
6
ByLayer
370
18
48
1
60
0
100
AcDbLine
10
61.295272
20
-4.05
30
0
11
61.498511
21
-4.40202
31
0
39
0
210
0
220
0
230
1
0
LINE
5
A9
100
AcDbEntity
8
1
62
256
6
ByLayer
370
18
48
1
60
0
100
AcDbLine
10
67.874076
20
5.070624
30
0
11
67.729095
21
5.070624
31
0
39
0
210
0
220
0
230
1
0
LINE
5
AA
100
AcDbEntity
8
1
62
256
6
ByLayer
370
18
48
1
60
0
100
AcDbLine
10
71.478383
20
-5.070624
30
0
11
71.62396
21
-5.070624
31
0
39
0
210
0
220
0
230
1
0
LINE
5
AB
100
AcDbEntity
8
1
62
256
6
ByLayer
370
18
48
1
60
0
100
AcDbLine
10
29.653835
20
-3.35
30
0
11
42.680103
21
-3.35
31
0
39
0
210
0
220
0
230
1
0
LINE
5
AC
100
AcDbEntity
8
1
62
256
6
ByLayer
370
18
48
1
60
0
100
AcDbLine
10
49.987203
20
-3.35
30
0
11
53.374973
21
-3.35
31
0
39
0
210
0
220
0
230
1
0
LINE
5
AD
100
AcDbEntity
8
1
62
256
6
ByLayer
370
18
48
1
60
0
100
AcDbLine
10
58.721847
20
3.35
30
0
11
55.308413
21
3.35
31
0
39
0
210
0
220
0
230
1
0
LINE
5
AE
100
AcDbEntity
8
1
62
256
6
ByLayer
370
18
48
1
60
0
100
AcDbLine
10
48.02815
20
3.35
30
0
11
44.666731
21
3.35
31
0
39
0
210
0
220
0
230
1
0
LINE
5
AF
100
AcDbEntity
8
1
62
256
6
ByLayer
370
18
48
1
60
0
100
AcDbLine
10
37.625154
20
3.35
30
0
11
29.653835
21
3.35
31
0
39
0
210
0
220
0
230
1
0
LINE
5
B0
100
AcDbEntity
8
1
62
256
6
ByLayer
370
18
48
1
60
0
100
AcDbLine
10
69.373856
20
5.070624
30
0
11
69.229012
21
5.070624
31
0
39
0
210
0
220
0
230
1
0
LINE
5
B1
100
AcDbEntity
8
SK1
62
256
6
ByLayer
370
18
48
1
60
0
100
AcDbLine
10
-23
20
-1.96
30
0
11
-22.21
21
-2.75
31
0
39
0
210
0
220
0
230
1
0
LINE
5
B2
100
AcDbEntity
8
SK1
62
256
6
ByLayer
370
18
48
1
60
0
100
AcDbLine
10
-22.21
20
2.75
30
0
11
-23
21
1.96
31
0
39
0
210
0
220
0
230
1
0
LINE
5
B3
100
AcDbEntity
8
SK1
62
256
6
ByLayer
370
18
48
1
60
0
100
AcDbLine
10
-14.2
20
3.36
30
0
11
-14.39
21
3.36
31
0
39
0
210
0
220
0
230
1
0
LINE
5
B4
100
AcDbEntity
8
SK1
62
256
6
ByLayer
370
18
48
1
60
0
100
AcDbLine
10
-14.39
20
-3.36
30
0
11
-14.2
21
-3.36
31
0
39
0
210
0
220
0
230
1
0
LINE
5
B5
100
AcDbEntity
8
SK1
62
256
6
ByLayer
370
18
48
1
60
0
100
AcDbLine
10
-14.2
20
-3.36
30
0
11
-14.06
21
-3.5
31
0
39
0
210
0
220
0
230
1
0
LINE
5
B6
100
AcDbEntity
8
SK1
62
256
6
ByLayer
370
18
48
1
60
0
100
AcDbLine
10
-14.06
20
3.5
30
0
11
-14.2
21
3.36
31
0
39
0
210
0
220
0
230
1
0
LINE
5
B7
100
AcDbEntity
8
SK1
62
256
6
ByLayer
370
18
48
1
60
0
100
AcDbLine
10
0
20
3.5
30
0
11
-14.06
21
3.5
31
0
39
0
210
0
220
0
230
1
0
LINE
5
B8
100
AcDbEntity
8
SK1
62
256
6
ByLayer
370
18
48
1
60
0
100
AcDbLine
10
-14.06
20
-3.5
30
0
11
0
21
-3.5
31
0
39
0
210
0
220
0
230
1
0
LINE
5
B9
100
AcDbEntity
8
SK2
62
256
6
ByLayer
370
18
48
1
60
0
100
AcDbLine
10
15.47
20
16.341828
30
0
11
15.47
21
-11
31
0
39
0
210
0
220
0
230
1
0
LINE
5
BB
100
AcDbEntity
8
1
62
256
6
ByLayer
370
18
48
1
60
1
100
AcDbLine
10
15.47
20
3.5
30
0
11
15.009216
21
6.999998
31
0
39
0
210
0
220
0
230
1
0
LINE
5
BC
100
AcDbEntity
8
1
62
256
6
ByLayer
370
18
48
1
60
1
100
AcDbLine
10
15.009216
20
6.999998
30
0
11
15.930784
21
7.000002
31
0
39
0
210
0
220
0
230
1
0
LINE
5
BD
100
AcDbEntity
8
1
62
256
6
ByLayer
370
18
48
1
60
1
100
AcDbLine
10
15.930784
20
7.000002
30
0
11
15.47
21
3.5
31
0
39
0
210
0
220
0
230
1
0
LINE
5
BE
100
AcDbEntity
8
1
62
256
6
ByLayer
370
18
48
1
60
1
100
AcDbLine
10
15.47
20
-3.5
30
0
11
15.930784
21
-6.999998
31
0
39
0
210
0
220
0
230
1
0
LINE
5
BF
100
AcDbEntity
8
1
62
256
6
ByLayer
370
18
48
1
60
1
100
AcDbLine
10
15.930784
20
-6.999998
30
0
11
15.009216
21
-7.000002
31
0
39
0
210
0
220
0
230
1
0
LINE
5
C0
100
AcDbEntity
8
1
62
256
6
ByLayer
370
18
48
1
60
1
100
AcDbLine
10
15.009216
20
-7.000002
30
0
11
15.47
21
-3.5
31
0
39
0
210
0
220
0
230
1
0
LINE
5
C1
100
AcDbEntity
8
2
62
256
6
ByLayer
370
18
48
1
60
0
100
AcDbLine
10
77
20
-42.570624
30
0
11
-23
21
-42.570624
31
0
39
0
210
0
220
0
230
1
0
LINE
5
C3
100
AcDbEntity
8
2
62
256
6
ByLayer
370
18
48
1
60
0
100
AcDbLine
10
-23
20
-3.5475
30
0
11
-23
21
-44.570624
31
0
39
0
210
0
220
0
230
1
0
LINE
5
C4
100
AcDbEntity
8
2
62
256
6
ByLayer
370
18
48
1
60
0
100
AcDbLine
10
77
20
-6.658124
30
0
11
77
21
-44.570624
31
0
39
0
210
0
220
0
230
1
0
LINE
5
C5
100
AcDbEntity
8
1
62
256
6
ByLayer
370
18
48
1
60
1
100
AcDbLine
10
-23
20
-42.570624
30
0
11
-19.500002
21
-42.109841
31
0
39
0
210
0
220
0
230
1
0
LINE
5
C6
100
AcDbEntity
8
1
62
256
6
ByLayer
370
18
48
1
60
1
100
AcDbLine
10
-19.500002
20
-42.109841
30
0
11
-19.499998
21
-43.031408
31
0
39
0
210
0
220
0
230
1
0
LINE
5
C7
100
AcDbEntity
8
1
62
256
6
ByLayer
370
18
48
1
60
1
100
AcDbLine
10
-19.499998
20
-43.031408
30
0
11
-23
21
-42.570624
31
0
39
0
210
0
220
0
230
1
0
LINE
5
C8
100
AcDbEntity
8
1
62
256
6
ByLayer
370
18
48
1
60
1
100
AcDbLine
10
77
20
-42.570624
30
0
11
73.500002
21
-43.031408
31
0
39
0
210
0
220
0
230
1
0
LINE
5
C9
100
AcDbEntity
8
1
62
256
6
ByLayer
370
18
48
1
60
1
100
AcDbLine
10
73.500002
20
-43.031408
30
0
11
73.499998
21
-42.109841
31
0
39
0
210
0
220
0
230
1
0
LINE
5
CA
100
AcDbEntity
8
1
62
256
6
ByLayer
370
18
48
1
60
1
100
AcDbLine
10
73.499998
20
-42.109841
30
0
11
77
21
-42.570624
31
0
39
0
210
0
220
0
230
1
0
LINE
5
1E6
100
AcDbEntity
8
1
62
256
6
ByLayer
370
18
48
1
60
1
100
AcDbLine
10
15.47
20
3.5
30
0
11
15.009216
21
6.999998
31
0
39
0
210
0
220
0
230
1
0
LINE
5
1E7
100
AcDbEntity
8
1
62
256
6
ByLayer
370
18
48
1
60
1
100
AcDbLine
10
15.009216
20
6.999998
30
0
11
15.930784
21
7.000002
31
0
39
0
210
0
220
0
230
1
0
LINE
5
1E8
100
AcDbEntity
8
1
62
256
6
ByLayer
370
18
48
1
60
1
100
AcDbLine
10
15.930784
20
7.000002
30
0
11
15.47
21
3.5
31
0
39
0
210
0
220
0
230
1
0
LINE
5
1EA
100
AcDbEntity
8
1
62
256
6
ByLayer
370
18
48
1
60
1
100
AcDbLine
10
15.47
20
-3.5
30
0
11
15.930784
21
-6.999998
31
0
39
0
210
0
220
0
230
1
0
LINE
5
1EB
100
AcDbEntity
8
1
62
256
6
ByLayer
370
18
48
1
60
1
100
AcDbLine
10
15.930784
20
-6.999998
30
0
11
15.009216
21
-7.000002
31
0
39
0
210
0
220
0
230
1
0
LINE
5
1EC
100
AcDbEntity
8
1
62
256
6
ByLayer
370
18
48
1
60
1
100
AcDbLine
10
15.009216
20
-7.000002
30
0
11
15.47
21
-3.5
31
0
39
0
210
0
220
0
230
1
0
LINE
5
1EF
100
AcDbEntity
8
1
62
256
6
ByLayer
370
18
48
1
60
1
100
AcDbLine
10
-23
20
-42.570624
30
0
11
-19.500002
21
-42.109841
31
0
39
0
210
0
220
0
230
1
0
LINE
5
1F0
100
AcDbEntity
8
1
62
256
6
ByLayer
370
18
48
1
60
1
100
AcDbLine
10
-19.500002
20
-42.109841
30
0
11
-19.499998
21
-43.031408
31
0
39
0
210
0
220
0
230
1
0
LINE
5
1F1
100
AcDbEntity
8
1
62
256
6
ByLayer
370
18
48
1
60
1
100
AcDbLine
10
-19.499998
20
-43.031408
30
0
11
-23
21
-42.570624
31
0
39
0
210
0
220
0
230
1
0
LINE
5
1F3
100
AcDbEntity
8
1
62
256
6
ByLayer
370
18
48
1
60
1
100
AcDbLine
10
77
20
-42.570624
30
0
11
73.500002
21
-43.031408
31
0
39
0
210
0
220
0
230
1
0
LINE
5
1F4
100
AcDbEntity
8
1
62
256
6
ByLayer
370
18
48
1
60
1
100
AcDbLine
10
73.500002
20
-43.031408
30
0
11
73.499998
21
-42.109841
31
0
39
0
210
0
220
0
230
1
0
LINE
5
1F5
100
AcDbEntity
8
1
62
256
6
ByLayer
370
18
48
1
60
1
100
AcDbLine
10
73.499998
20
-42.109841
30
0
11
77
21
-42.570624
31
0
39
0
210
0
220
0
230
1
0
MTEXT
5
1E2
100
AcDbEntity
8
SK2
62
256
6
ByLayer
370
18
48
1
60
0
100
AcDbMText
10
14.128886
20
9.158437
30
0
210
0
220
0
230
1
1
%%c
40
3
41
0
44
1.084337
50
90
71
7
72
5
7
iso_b_vert
0
MTEXT
5
1E5
100
AcDbEntity
8
SK2
62
256
6
ByLayer
370
18
48
1
60
0
100
AcDbMText
10
14.128886
20
15.135
30
0
210
0
220
0
230
1
1
\W0.5404;7
40
3
41
0
44
1.084337
50
90
71
7
72
5
7
iso_b_vert
0
MTEXT
5
1EE
100
AcDbEntity
8
2
62
256
6
ByLayer
370
18
48
1
60
0
100
AcDbMText
10
24.621201
20
-41.68551
30
0
210
0
220
0
230
1
1
\W0.6217;100
40
3
41
0
44
1.084337
50
0
71
7
72
5
7
iso_b_vert
0
MTEXT
5
1F7
100
AcDbEntity
8
SK6
62
256
6
ByLayer
370
18
48
1
60
0
100
AcDbMText
10
9.416859
20
-82.114886
30
0
210
0
220
0
230
1
1
\W0.7295;T300-XM101DA-M10    C145
40
3
41
0
44
1.084337
50
0
71
7
72
5
7
iso_b_vert
0
HATCH
5
1E9
100
AcDbEntity
8
SK2
62
256
6
ByLayer
370
13
48
1
60
0
100
AcDbHatch
10
0
20
0
30
0
210
0
220
0
230
1
2
ANSI31
70
0
71
0
91
1
92
5
93
3
72
1
10
15.47
20
3.50000000000003
11
15.0092162584472
21
6.99999830744684
72
1
10
15.0092162584472
20
6.99999830744684
11
15.9307837415528
21
7.00000169255321
72
1
10
15.9307837415528
20
7.00000169255321
11
15.47
21
3.50000000000003
97
0
75
0
76
1
52
0
41
0.0062
77
0
78
1
53
45
43
0
44
0
45
-0.0139193969876572
46
0.0139193969876572
79
0
47
0
98
1
10
0
20
0
0
HATCH
5
1ED
100
AcDbEntity
8
SK2
62
256
6
ByLayer
370
13
48
1
60
0
100
AcDbHatch
10
0
20
0
30
0
210
0
220
0
230
1
2
ANSI31
70
0
71
0
91
1
92
5
93
3
72
1
10
15.47
20
-3.49999999999997
11
15.9307837415528
21
-6.99999830744679
72
1
10
15.9307837415528
20
-6.99999830744679
11
15.0092162584472
21
-7.00000169255316
72
1
10
15.0092162584472
20
-7.00000169255316
11
15.47
21
-3.49999999999997
97
0
75
0
76
1
52
0
41
0.0062
77
0
78
1
53
45
43
0
44
0
45
-0.0139193969876572
46
0.0139193969876572
79
0
47
0
98
1
10
0
20
0
0
HATCH
5
1F2
100
AcDbEntity
8
2
62
256
6
ByLayer
370
13
48
1
60
0
100
AcDbHatch
10
0
20
0
30
0
210
0
220
0
230
1
2
ANSI31
70
0
71
0
91
1
92
5
93
3
72
1
10
-23
20
-42.5706244181208
11
-19.5000016925532
21
-42.1098406765681
72
1
10
-19.5000016925532
20
-42.1098406765681
11
-19.4999983074468
21
-43.0314081596736
72
1
10
-19.4999983074468
20
-43.0314081596736
11
-23
21
-42.5706244181208
97
0
75
0
76
1
52
0
41
0.0062
77
0
78
1
53
45
43
0
44
0
45
-0.0139193969876572
46
0.0139193969876572
79
0
47
0
98
1
10
0
20
0
0
HATCH
5
1F6
100
AcDbEntity
8
2
62
256
6
ByLayer
370
13
48
1
60
0
100
AcDbHatch
10
0
20
0
30
0
210
0
220
0
230
1
2
ANSI31
70
0
71
0
91
1
92
5
93
3
72
1
10
77
20
-42.5706244181208
11
73.5000016925532
21
-43.0314081596736
72
1
10
73.5000016925532
20
-43.0314081596736
11
73.4999983074468
21
-42.1098406765681
72
1
10
73.4999983074468
20
-42.1098406765681
11
77
21
-42.5706244181208
97
0
75
0
76
1
52
0
41
0.0062
77
0
78
1
53
45
43
0
44
0
45
-0.0139193969876572
46
0.0139193969876572
79
0
47
0
98
1
10
0
20
0
0
DIMENSION
5
1FA
100
AcDbEntity
8
2
62
256
6
ByLayer
370
18
48
1
60
0
100
AcDbDimension
2
_U0
10
96.5
20
-5.070624
30
0
11
96.5
21
23.356339
31
0
70
32
71
1
72
1
41
1
210
0
220
0
230
1
3
Standard
100
AcDbAlignedDimension
13
77
23
5.070624
33
0
14
77
24
-5.070624
34
0
50
90
100
AcDbRotatedDimension
1001
ACAD
1000
DSTYLE
1002
{
1070
   371
1070
    13
1070
   372
1070
    13
1070
     3
1000

1070
   170
1070
     0
1070
   144
1040
1.0
1070
   277
1070
     2
1070
   284
1070
     8
1070
   278
1070
    46
1070
   146
1040
1.166667
1070
   345
1005
16
1070
   347
1005
16
1070
   346
1005
16
1070
   344
1005
0
1070
   343
1005
0
1070
   172
1070
     1
1070
    76
1070
     0
1070
    75
1070
     0
1070
   282
1070
     0
1070
   281
1070
     0
1070
    71
1070
     0
1070
    74
1070
     0
1070
   279
1070
     0
1070
   173
1070
     1
1070
   340
1005
1E3
1070
   271
1070
     3
1070
   272
1070
     3
1070
    77
1070
     1
1070
    73
1070
     0
1070
   171
1070
     3
1070
   274
1070
     4
1070
   177
1070
     2
1070
   176
1070
     2
1070
   178
1070
     2
1070
    78
1070
     8
1070
    48
1040
-0.1
1070
    41
1040
3.5
1070
   147
1040
1.5
1070
    42
1040
1.5875
1070
    44
1040
2.0
1070
   140
1040
3.0
1002
}
1001
ACAD_DSTYLE_DIM_LINETYPE
1070
   380
1005
16
1001
ACAD_DSTYLE_DIM_EXT1_LINETYPE
1070
   381
1005
16
1001
ACAD_DSTYLE_DIM_EXT2_LINETYPE
1070
   382
1005
16
0
DIMENSION
5
215
100
AcDbEntity
8
SK2
62
256
6
ByLayer
370
18
48
1
60
0
100
AcDbDimension
2
_U1
10
72.87
20
14.032007
30
0
11
74.935
21
14.032007
31
0
70
32
71
1
72
1
41
1
210
0
220
0
230
1
3
Standard
100
AcDbAlignedDimension
13
77
23
5.070624
33
0
14
72.87
24
0
34
0
50
0
100
AcDbRotatedDimension
1001
ACAD
1000
DSTYLE
1002
{
1070
   371
1070
    13
1070
   372
1070
    13
1070
   170
1070
     0
1070
   144
1040
1.0
1070
   277
1070
     2
1070
   284
1070
     8
1070
   278
1070
    46
1070
   146
1040
1.166667
1070
   345
1005
16
1070
   347
1005
16
1070
   346
1005
16
1070
   344
1005
0
1070
   343
1005
0
1070
   172
1070
     1
1070
    76
1070
     0
1070
    75
1070
     0
1070
   282
1070
     0
1070
   281
1070
     0
1070
    71
1070
     0
1070
    74
1070
     0
1070
   279
1070
     0
1070
   173
1070
     1
1070
   340
1005
1E3
1070
   271
1070
     3
1070
   272
1070
     3
1070
    77
1070
     1
1070
    73
1070
     1
1070
   171
1070
     3
1070
   274
1070
     4
1070
   177
1070
     2
1070
   176
1070
     2
1070
   178
1070
     2
1070
    78
1070
     8
1070
    48
1040
-0.1
1070
    41
1040
3.5
1070
   147
1040
1.5
1070
    42
1040
1.5875
1070
    44
1040
2.0
1070
   140
1040
3.0
1002
}
1001
ACAD_DSTYLE_DIM_LINETYPE
1070
   380
1005
16
1001
ACAD_DSTYLE_DIM_EXT1_LINETYPE
1070
   381
1005
16
1001
ACAD_DSTYLE_DIM_EXT2_LINETYPE
1070
   382
1005
16
0
DIMENSION
5
22F
100
AcDbEntity
8
SK2
62
256
6
ByLayer
370
18
48
1
60
0
100
AcDbDimension
2
_U2
10
62
20
-12.070624
30
0
11
90.714286
21
-12.070624
31
0
70
32
71
1
72
1
41
1
210
0
220
0
230
1
3
Standard
100
AcDbAlignedDimension
13
77
23
-5.070624
33
0
14
62
24
-5.070624
34
0
50
0
100
AcDbRotatedDimension
1001
ACAD
1000
DSTYLE
1002
{
1070
   371
1070
    13
1070
   372
1070
    13
1070
   170
1070
     0
1070
   144
1040
1.0
1070
   277
1070
     2
1070
   284
1070
     8
1070
   278
1070
    46
1070
   146
1040
0.833333
1070
   345
1005
16
1070
   347
1005
16
1070
   346
1005
16
1070
   344
1005
0
1070
   343
1005
0
1070
   172
1070
     1
1070
    76
1070
     0
1070
    75
1070
     0
1070
   282
1070
     0
1070
   281
1070
     0
1070
    47
1040
0.5
1070
    72
1070
     0
1070
    71
1070
     1
1070
    74
1070
     0
1070
   279
1070
     0
1070
   173
1070
     1
1070
   340
1005
1E3
1070
   271
1070
     1
1070
   272
1070
     3
1070
    77
1070
     1
1070
    73
1070
     1
1070
   171
1070
     3
1070
   274
1070
     4
1070
   177
1070
     2
1070
   176
1070
     2
1070
   178
1070
     2
1070
    78
1070
     8
1070
    48
1040
0.5
1070
    41
1040
3.5
1070
   147
1040
1.5
1070
    42
1040
1.5875
1070
    44
1040
2.0
1070
   140
1040
3.0
1002
}
1001
ACAD_DSTYLE_DIM_LINETYPE
1070
   380
1005
16
1001
ACAD_DSTYLE_DIM_EXT1_LINETYPE
1070
   381
1005
16
1001
ACAD_DSTYLE_DIM_EXT2_LINETYPE
1070
   382
1005
16
0
DIMENSION
5
24A
100
AcDbEntity
8
SK2
62
256
6
ByLayer
370
18
48
1
60
0
100
AcDbDimension
2
_U3
10
29
20
-34.570624
30
0
11
53
21
-34.570624
31
0
70
32
71
1
72
1
41
1
210
0
220
0
230
1
3
Standard
100
AcDbAlignedDimension
13
77
23
-5.070624
33
0
14
29
24
-3.35
34
0
50
0
100
AcDbRotatedDimension
1001
ACAD
1000
DSTYLE
1002
{
1070
   371
1070
    13
1070
   372
1070
    13
1070
   170
1070
     0
1070
   144
1040
1.0
1070
   277
1070
     2
1070
   284
1070
     8
1070
   278
1070
    46
1070
   146
1040
1.166667
1070
   345
1005
16
1070
   347
1005
16
1070
   346
1005
16
1070
   344
1005
0
1070
   343
1005
0
1070
   172
1070
     1
1070
    76
1070
     0
1070
    75
1070
     0
1070
   282
1070
     0
1070
   281
1070
     0
1070
    71
1070
     0
1070
    74
1070
     0
1070
   279
1070
     0
1070
   173
1070
     1
1070
   340
1005
1E3
1070
   271
1070
     1
1070
   272
1070
     3
1070
    77
1070
     1
1070
    73
1070
     1
1070
   171
1070
     3
1070
   274
1070
     4
1070
   177
1070
     2
1070
   176
1070
     2
1070
   178
1070
     2
1070
    78
1070
     8
1070
    48
1040
-0.1
1070
    41
1040
3.5
1070
   147
1040
1.5
1070
    42
1040
1.5875
1070
    44
1040
2.0
1070
   140
1040
3.0
1002
}
1001
ACAD_DSTYLE_DIM_LINETYPE
1070
   380
1005
16
1001
ACAD_DSTYLE_DIM_EXT1_LINETYPE
1070
   381
1005
16
1001
ACAD_DSTYLE_DIM_EXT2_LINETYPE
1070
   382
1005
16
0
DIMENSION
5
262
100
AcDbEntity
8
2
62
256
6
ByLayer
370
18
48
1
60
0
100
AcDbDimension
2
_U4
10
36.2
20
-23.570624
30
0
11
56.6
21
-23.570624
31
0
70
32
71
1
72
1
41
1
210
0
220
0
230
1
3
Standard
100
AcDbAlignedDimension
13
77
23
-5.070624
33
0
14
36.2
24
0
34
0
50
0
100
AcDbRotatedDimension
1001
ACAD
1000
DSTYLE
1002
{
1070
   371
1070
    13
1070
   372
1070
    13
1070
   170
1070
     0
1070
   144
1040
1.0
1070
   277
1070
     2
1070
   284
1070
     8
1070
   278
1070
    46
1070
   146
1040
1.166667
1070
   345
1005
16
1070
   347
1005
16
1070
   346
1005
16
1070
   344
1005
0
1070
   343
1005
0
1070
   172
1070
     1
1070
    76
1070
     0
1070
    75
1070
     0
1070
   282
1070
     0
1070
   281
1070
     0
1070
    71
1070
     0
1070
    74
1070
     0
1070
   279
1070
     0
1070
   173
1070
     1
1070
   340
1005
1E3
1070
   271
1070
     1
1070
   272
1070
     3
1070
    77
1070
     1
1070
    73
1070
     1
1070
   171
1070
     3
1070
   274
1070
     4
1070
   177
1070
     2
1070
   176
1070
     2
1070
   178
1070
     2
1070
    78
1070
     8
1070
    48
1040
-0.1
1070
    41
1040
3.5
1070
   147
1040
1.5
1070
    42
1040
1.5875
1070
    44
1040
2.0
1070
   140
1040
3.0
1002
}
1001
ACAD_DSTYLE_DIM_LINETYPE
1070
   380
1005
16
1001
ACAD_DSTYLE_DIM_EXT1_LINETYPE
1070
   381
1005
16
1001
ACAD_DSTYLE_DIM_EXT2_LINETYPE
1070
   382
1005
16
0
ENDSEC
0
SECTION
2
OBJECTS
0
DICTIONARY
5
2ea
330
0
100
AcDbDictionary
280
0
281
1
3
ACAD_GROUP
350
2eb
3
ACAD_MLINESTYLE
350
2ec
0
DICTIONARY
5
2eb
330
0
100
AcDbDictionary
280
0
281
1
0
DICTIONARY
5
2ec
330
0
100
AcDbDictionary
280
0
281
1
3
Standard
350
18
0
MLINESTYLE
5
18
330
2ec
100
AcDbMlineStyle
2
Standard
70
0
3

62
256
51
90
52
90
71
2
49
-0.5
62
256
6
ByLayer
49
0.5
62
256
6
ByLayer
0
RASTERVARIABLES
5
2d8
330

100
AcDbRasterVariables
90
0
70
1
71
1
72
1
0
ENDSEC
0
EOF
