0
SECTION
2
HEADER
9
$ACADVER
1
AC1015
9
$DWGCODEPAGE
3
ANSI_1252
9
$HANDSEED
5
2df
9
$ANGBASE
50
0
9
$ANGDIR
70
0
9
$ATTMODE
70
1
9
$AUNITS
70
0
9
$AUPREC
70
0
9
$CECOLOR
62
256
9
$CELTSCALE
40
1
9
$CELTYPE
6
ByLayer
9
$CELWEIGHT
370
18
9
$CLAYER
8
0
9
$CMLJUST
70
0
9
$CMLSCALE
40
1
9
$CMLSTYLE
2
Standard
9
$DIMSTYLE
2
Standard
9
$TEXTSIZE
40
0.2
9
$TEXTSTYLE
7
Standard
9
$LUNITS
70
2
9
$LUPREC
70
4
9
$EXTNAMES
290
1
9
$INSUNITS
70
4
9
$LTSCALE
40
1
9
$LWDISPLAY
290
1
9
$PDMODE
70
0
9
$PDSIZE
40
0
9
$PLINEGEN
70
0
0
ENDSEC
0
SECTION
2
CLASSES
0
CLASS
1
RASTERVARIABLES
2
AcDbRasterVariables
3
ISM
90
0
280
0
281
0
0
ENDSEC
0
SECTION
2
TABLES
0
TABLE
2
VPORT
5
2d5
100
AcDbSymbolTable
0
VPORT
5
1
100
AcDbSymbolTableRecord
100
AcDbViewportTableRecord
2
*Active
70
0
10
0
20
0
11
1
21
1
12
-1
22
1
13
0
23
0
14
0.5
24
0.5
15
10
25
10
16
0
26
0
36
1
17
0
27
0
37
0
0
ENDTAB
0
TABLE
2
LTYPE
5
2d6
100
AcDbSymbolTable
0
LTYPE
5
14
100
AcDbSymbolTableRecord
100
AcDbLinetypeTableRecord
70
0
2
ByBlock
3

72
65
73
0
40
0
0
LTYPE
5
15
100
AcDbSymbolTableRecord
100
AcDbLinetypeTableRecord
70
0
2
ByLayer
3

72
65
73
0
40
0
0
LTYPE
5
16
100
AcDbSymbolTableRecord
100
AcDbLinetypeTableRecord
70
0
2
Continuous
3
Solid line
72
65
73
0
40
0
0
LTYPE
5
6E
100
AcDbSymbolTableRecord
100
AcDbLinetypeTableRecord
70
0
2
CENTER
3
____ _ ____ _ ____ _ ____
72
65
73
4
40
47.5
49
22
74
0
49
-8.5
74
0
49
8.5
74
0
49
-8.5
74
0
0
LTYPE
5
6F
100
AcDbSymbolTableRecord
100
AcDbLinetypeTableRecord
70
0
2
DASHED
3
__ __ __ __ __ __ __ __ __
72
65
73
2
40
25.72
49
12.86
74
0
49
-12.86
74
0
0
ENDTAB
0
TABLE
2
LAYER
5
2d7
100
AcDbSymbolTable
0
LAYER
5
10
100
AcDbSymbolTableRecord
100
AcDbLayerTableRecord
2
0
70
0
62
7
6
Continuous
290
1
370
-3
390
0
0
LAYER
5
71
100
AcDbSymbolTableRecord
100
AcDbLayerTableRecord
2
80
70
0
62
-6
6
Continuous
290
1
370
-3
390
0
0
LAYER
5
73
100
AcDbSymbolTableRecord
100
AcDbLayerTableRecord
2
81
70
0
62
-3
6
Continuous
290
1
370
-3
390
0
0
LAYER
5
75
100
AcDbSymbolTableRecord
100
AcDbLayerTableRecord
2
1
70
0
62
4
6
Continuous
290
1
370
-3
390
0
0
LAYER
5
81
100
AcDbSymbolTableRecord
100
AcDbLayerTableRecord
2
4
70
0
62
-2
6
CENTER
290
1
370
-3
390
0
0
LAYER
5
BC
100
AcDbSymbolTableRecord
100
AcDbLayerTableRecord
2
2
70
0
62
7
6
Continuous
290
1
370
-3
390
0
0
LAYER
5
1E7
100
AcDbSymbolTableRecord
100
AcDbLayerTableRecord
2
Defpoints
70
0
62
7
6
Continuous
290
0
370
-3
390
0
0
LAYER
5
2c1
100
AcDbSymbolTableRecord
100
AcDbLayerTableRecord
2
SK4
70
0
62
2
6
CENTER
290
1
370
-3
390
0
0
LAYER
5
2c2
100
AcDbSymbolTableRecord
100
AcDbLayerTableRecord
2
SK1
70
0
62
4
6
Continuous
290
1
370
-3
390
0
0
LAYER
5
2c3
100
AcDbSymbolTableRecord
100
AcDbLayerTableRecord
2
SK2
70
0
62
7
6
Continuous
290
1
370
-3
390
0
0
LAYER
5
2c4
100
AcDbSymbolTableRecord
100
AcDbLayerTableRecord
2
SK6
70
0
62
5
6
Continuous
290
1
370
-3
390
0
0
ENDTAB
0
TABLE
2
STYLE
5
2d8
100
AcDbSymbolTable
0
STYLE
5
11
100
AcDbSymbolTableRecord
100
AcDbTextStyleTableRecord
2
Standard
3
txt
70
0
71
0
40
0
41
1
42
0
50
0
0
STYLE
5
1CD
100
AcDbSymbolTableRecord
100
AcDbTextStyleTableRecord
2
iso_b_vert
3
simplex.shx
70
0
71
0
40
0
41
1
42
0
50
0
0
STYLE
5
1CE
100
AcDbSymbolTableRecord
100
AcDbTextStyleTableRecord
2
DWGDirectTextStyle
3
simplex
70
0
71
0
40
0
41
1
42
0
50
0
0
ENDTAB
0
TABLE
2
DIMSTYLE
5
2d9
100
AcDbSymbolTable
100
AcDbDimStyleTable
0
DIMSTYLE
105
27
100
AcDbSymbolTableRecord
100
AcDbDimStyleTableRecord
2
Standard
70
0
3
<>
41
0.18
42
0.0625
44
0.18
140
0.18
147
0.09
73
0
74
0
77
1
271
2
275
0
278
52
280
0
340
11
0
ENDTAB
0
TABLE
2
VIEW
5
2da
100
AcDbSymbolTable
0
ENDTAB
0
TABLE
2
UCS
5
2db
100
AcDbSymbolTable
0
ENDTAB
0
TABLE
2
APPID
5
2dc
100
AcDbSymbolTable
0
APPID
5
12
100
AcDbSymbolTableRecord
100
AcDbRegAppTableRecord
2
ACAD
70
0
0
APPID
5
1E3
100
AcDbSymbolTableRecord
100
AcDbRegAppTableRecord
2
ACAD_DSTYLE_DIMBREAK
70
0
0
APPID
5
280
100
AcDbSymbolTableRecord
100
AcDbRegAppTableRecord
2
ACAD_DSTYLE_DIM_LINETYPE
70
0
0
APPID
5
281
100
AcDbSymbolTableRecord
100
AcDbRegAppTableRecord
2
ACAD_DSTYLE_DIM_EXT1_LINETYPE
70
0
0
APPID
5
282
100
AcDbSymbolTableRecord
100
AcDbRegAppTableRecord
2
ACAD_DSTYLE_DIM_EXT2_LINETYPE
70
0
0
APPID
5
2BD
100
AcDbSymbolTableRecord
100
AcDbRegAppTableRecord
2
ACAD_MLEADERVER
70
0
0
ENDTAB
0
TABLE
2
BLOCK_RECORD
5
2dd
100
AcDbSymbolTable
0
BLOCK_RECORD
5
1F
100
AcDbSymbolTableRecord
100
AcDbBlockTableRecord
2
*Model_Space
340
0
70
0
0
BLOCK_RECORD
5
1B
100
AcDbSymbolTableRecord
100
AcDbBlockTableRecord
2
*Paper_Space
340
0
70
0
0
BLOCK_RECORD
5
23
100
AcDbSymbolTableRecord
100
AcDbBlockTableRecord
2
*Paper_Space0
340
0
70
0
0
BLOCK_RECORD
5
1E8
100
AcDbSymbolTableRecord
100
AcDbBlockTableRecord
2
*D1
340
0
70
0
0
BLOCK_RECORD
5
1F6
100
AcDbSymbolTableRecord
100
AcDbBlockTableRecord
2
_U0
340
0
70
0
0
BLOCK_RECORD
5
202
100
AcDbSymbolTableRecord
100
AcDbBlockTableRecord
2
*D3
340
0
70
0
0
BLOCK_RECORD
5
20F
100
AcDbSymbolTableRecord
100
AcDbBlockTableRecord
2
_U1
340
0
70
0
0
BLOCK_RECORD
5
21C
100
AcDbSymbolTableRecord
100
AcDbBlockTableRecord
2
*D5
340
0
70
0
0
BLOCK_RECORD
5
228
100
AcDbSymbolTableRecord
100
AcDbBlockTableRecord
2
_U2
340
0
70
0
0
BLOCK_RECORD
5
235
100
AcDbSymbolTableRecord
100
AcDbBlockTableRecord
2
*D7
340
0
70
0
0
BLOCK_RECORD
5
241
100
AcDbSymbolTableRecord
100
AcDbBlockTableRecord
2
_U3
340
0
70
0
0
BLOCK_RECORD
5
24D
100
AcDbSymbolTableRecord
100
AcDbBlockTableRecord
2
*D9
340
0
70
0
0
BLOCK_RECORD
5
259
100
AcDbSymbolTableRecord
100
AcDbBlockTableRecord
2
_U4
340
0
70
0
0
ENDTAB
0
ENDSEC
0
SECTION
2
BLOCKS
0
BLOCK
5
20
100
AcDbEntity
8
0
100
AcDbBlockBegin
2
*Model_Space
70
0
10
0
20
0
30
0
3
*Model_Space
0
ENDBLK
5
21
100
AcDbEntity
8
0
100
AcDbBlockEnd
0
BLOCK
5
1C
100
AcDbEntity
8
0
100
AcDbBlockBegin
2
*Paper_Space
70
0
10
0
20
0
30
0
3
*Paper_Space
0
ENDBLK
5
1D
100
AcDbEntity
8
0
100
AcDbBlockEnd
0
BLOCK
5
24
100
AcDbEntity
8
0
100
AcDbBlockBegin
2
*Paper_Space0
70
0
10
0
20
0
30
0
3
*Paper_Space0
0
ENDBLK
5
25
100
AcDbEntity
8
0
100
AcDbBlockEnd
0
BLOCK
5
1E9
100
AcDbEntity
8
0
100
AcDbBlockBegin
2
*D1
70
1
10
0
20
0
30
0
3
*D1
0
LINE
5
1EB
100
AcDbEntity
8
0
62
256
6
ByLayer
370
-2
48
1
60
0
100
AcDbLine
10
83.4075
20
6.423466
30
0
11
103.32
21
6.423466
31
0
39
0
210
0
220
0
230
1
0
LINE
5
1EC
100
AcDbEntity
8
0
62
256
6
ByLayer
370
-2
48
1
60
0
100
AcDbLine
10
83.4075
20
-6.423466
30
0
11
103.32
21
-6.423466
31
0
39
0
210
0
220
0
230
1
0
LINE
5
1ED
100
AcDbEntity
8
0
62
256
6
ByLayer
370
-2
48
1
60
0
100
AcDbLine
10
101.32
20
6.423466
30
0
11
101.32
21
38.581465
31
0
39
0
210
0
220
0
230
1
0
LINE
5
1EE
100
AcDbEntity
8
0
62
256
6
ByLayer
370
-2
48
1
60
0
100
AcDbLine
10
101.32
20
9.923466
30
0
11
101.32
21
13.423466
31
0
39
0
210
0
220
0
230
1
0
LINE
5
1EF
100
AcDbEntity
8
0
62
256
6
ByLayer
370
-2
48
1
60
0
100
AcDbLine
10
101.32
20
-9.923466
30
0
11
101.32
21
-13.423466
31
0
39
0
210
0
220
0
230
1
0
SOLID
5
1F0
100
AcDbEntity
8
0
62
256
6
ByLayer
370
-1
48
1
60
0
100
AcDbTrace
10
100.736667
20
9.923466
30
0
11
101.903333
21
9.923466
31
0
12
101.32
22
6.423466
32
0
13
101.32
23
6.423466
33
0
39
0
210
0
220
0
230
1
0
SOLID
5
1F1
100
AcDbEntity
8
0
62
256
6
ByLayer
370
-1
48
1
60
0
100
AcDbTrace
10
101.903333
20
-9.923466
30
0
11
100.736667
21
-9.923466
31
0
12
101.32
22
-6.423466
32
0
13
101.32
23
-6.423466
33
0
39
0
210
0
220
0
230
1
0
MTEXT
5
1F2
100
AcDbEntity
8
0
62
256
6
ByLayer
370
18
48
1
60
0
100
AcDbMText
10
95.32
20
26.867179
30
0
210
0
220
0
230
1
1
\A1;12.847
40
3
41
0
44
1
50
90
71
5
72
5
7
iso_b_vert
0
POINT
5
1F3
100
AcDbEntity
8
Defpoints
62
0
6
ByLayer
370
-1
48
1
60
0
100
AcDbPoint
10
81.82
20
6.423466
30
0
39
0
210
0
220
0
230
1
50
360
0
POINT
5
1F4
100
AcDbEntity
8
Defpoints
62
0
6
ByLayer
370
-1
48
1
60
0
100
AcDbPoint
10
81.82
20
-6.423466
30
0
39
0
210
0
220
0
230
1
50
360
0
POINT
5
1F5
100
AcDbEntity
8
Defpoints
62
0
6
ByLayer
370
-1
48
1
60
0
100
AcDbPoint
10
101.32
20
-6.423466
30
0
39
0
210
0
220
0
230
1
50
360
0
ENDBLK
5
1EA
100
AcDbEntity
8
0
100
AcDbBlockEnd
0
BLOCK
5
1FD
100
AcDbEntity
8
0
100
AcDbBlockBegin
2
_U0
70
0
10
0
20
0
30
0
3
_U0
0
MTEXT
5
1F7
100
AcDbEntity
8
2
62
256
6
ByLayer
370
18
48
1
60
0
100
AcDbMText
10
100.728886
20
16.558466
30
0
210
0
220
0
230
1
1
\W0.6920;UNC 1/2-13
40
3
41
0
44
1.084337
50
90
71
7
72
5
7
iso_b_vert
0
LINE
5
1F8
100
AcDbEntity
8
2
62
256
6
ByLayer
370
13
48
1
60
0
100
AcDbLine
10
83.4075
20
6.423466
30
0
11
103.32
21
6.423466
31
0
39
0
210
0
220
0
230
1
0
LINE
5
1F9
100
AcDbEntity
8
2
62
256
6
ByLayer
370
13
48
1
60
0
100
AcDbLine
10
83.4075
20
-6.423466
30
0
11
103.32
21
-6.423466
31
0
39
0
210
0
220
0
230
1
0
LINE
5
1FA
100
AcDbEntity
8
2
62
256
6
ByLayer
370
13
48
1
60
0
100
AcDbLine
10
101.32
20
-6.423466
30
0
11
101.32
21
37.310892
31
0
39
0
210
0
220
0
230
1
0
SOLID
5
1FB
100
AcDbEntity
8
2
62
256
6
ByLayer
370
18
48
1
60
0
100
AcDbTrace
10
101.32
20
6.423466
30
0
11
101.780784
21
2.923468
31
0
12
100.859216
22
2.923465
32
0
13
100.859216
23
2.923465
33
0
39
0
210
0
220
0
230
1
0
SOLID
5
1FC
100
AcDbEntity
8
2
62
256
6
ByLayer
370
18
48
1
60
0
100
AcDbTrace
10
101.32
20
-6.423466
30
0
11
100.859216
21
-2.923468
31
0
12
101.780784
22
-2.923465
32
0
13
101.780784
23
-2.923465
33
0
39
0
210
0
220
0
230
1
0
ENDBLK
5
1FE
100
AcDbEntity
8
0
100
AcDbBlockEnd
0
BLOCK
5
203
100
AcDbEntity
8
0
100
AcDbBlockBegin
2
*D3
70
1
10
0
20
0
30
0
3
*D3
0
LINE
5
205
100
AcDbEntity
8
0
62
256
6
ByLayer
370
-2
48
1
60
0
100
AcDbLine
10
81.82
20
8.010966
30
0
11
81.82
21
17.976043
31
0
39
0
210
0
220
0
230
1
0
LINE
5
206
100
AcDbEntity
8
0
62
256
6
ByLayer
370
-2
48
1
60
0
100
AcDbLine
10
76.45
20
1.5875
30
0
11
76.45
21
17.976043
31
0
39
0
210
0
220
0
230
1
0
LINE
5
207
100
AcDbEntity
8
0
62
256
6
ByLayer
370
-2
48
1
60
0
100
AcDbLine
10
85.32
20
15.976043
30
0
11
88.82
21
15.976043
31
0
39
0
210
0
220
0
230
1
0
LINE
5
208
100
AcDbEntity
8
0
62
256
6
ByLayer
370
-2
48
1
60
0
100
AcDbLine
10
72.95
20
15.976043
30
0
11
69.45
21
15.976043
31
0
39
0
210
0
220
0
230
1
0
SOLID
5
209
100
AcDbEntity
8
0
62
256
6
ByLayer
370
-1
48
1
60
0
100
AcDbTrace
10
85.32
20
16.559376
30
0
11
85.32
21
15.39271
31
0
12
81.82
22
15.976043
32
0
13
81.82
23
15.976043
33
0
39
0
210
0
220
0
230
1
0
SOLID
5
20A
100
AcDbEntity
8
0
62
256
6
ByLayer
370
-1
48
1
60
0
100
AcDbTrace
10
72.95
20
15.39271
30
0
11
72.95
21
16.559376
31
0
12
76.45
22
15.976043
32
0
13
76.45
23
15.976043
33
0
39
0
210
0
220
0
230
1
0
MTEXT
5
20B
100
AcDbEntity
8
0
62
256
6
ByLayer
370
18
48
1
60
0
100
AcDbMText
10
79.135
20
21.976043
30
0
210
0
220
0
230
1
1
\A1;5.37
40
3
41
0
44
1
50
0
71
5
72
5
7
iso_b_vert
0
POINT
5
20C
100
AcDbEntity
8
Defpoints
62
0
6
ByLayer
370
-1
48
1
60
0
100
AcDbPoint
10
81.82
20
6.423466
30
0
39
0
210
0
220
0
230
1
50
360
0
POINT
5
20D
100
AcDbEntity
8
Defpoints
62
0
6
ByLayer
370
-1
48
1
60
0
100
AcDbPoint
10
76.45
20
0
30
0
39
0
210
0
220
0
230
1
50
360
0
POINT
5
20E
100
AcDbEntity
8
Defpoints
62
0
6
ByLayer
370
-1
48
1
60
0
100
AcDbPoint
10
76.45
20
15.976043
30
0
39
0
210
0
220
0
230
1
50
360
0
ENDBLK
5
204
100
AcDbEntity
8
0
100
AcDbBlockEnd
0
BLOCK
5
217
100
AcDbEntity
8
0
100
AcDbBlockBegin
2
_U1
70
0
10
0
20
0
30
0
3
_U1
0
MTEXT
5
210
100
AcDbEntity
8
SK2
62
256
6
ByLayer
370
18
48
1
60
0
100
AcDbMText
10
75.800044
20
16.758676
30
0
210
0
220
0
230
1
1
\W0.6474;'C'
40
3.5
41
0
44
1.084337
50
0
71
7
72
5
7
iso_b_vert
0
MTEXT
5
211
100
AcDbEntity
8
SK2
62
256
6
ByLayer
370
18
48
1
60
0
100
AcDbMText
10
75.773544
20
23.861157
30
0
210
0
220
0
230
1
1
\W0.7346;5.37
40
3
41
0
44
1.084337
50
0
71
7
72
5
7
iso_b_vert
0
LINE
5
212
100
AcDbEntity
8
SK2
62
256
6
ByLayer
370
13
48
1
60
0
100
AcDbLine
10
81.82
20
8.010966
30
0
11
81.82
21
17.976043
31
0
39
0
210
0
220
0
230
1
0
LINE
5
213
100
AcDbEntity
8
SK2
62
256
6
ByLayer
370
13
48
1
60
0
100
AcDbLine
10
76.45
20
1.5875
30
0
11
76.45
21
17.976043
31
0
39
0
210
0
220
0
230
1
0
LINE
5
214
100
AcDbEntity
8
SK2
62
256
6
ByLayer
370
13
48
1
60
0
100
AcDbLine
10
89.32
20
15.976043
30
0
11
68.95
21
15.976043
31
0
39
0
210
0
220
0
230
1
0
SOLID
5
215
100
AcDbEntity
8
SK2
62
256
6
ByLayer
370
18
48
1
60
0
100
AcDbTrace
10
81.82
20
15.976043
30
0
11
85.319998
21
16.436827
31
0
12
85.320002
22
15.515259
32
0
13
85.320002
23
15.515259
33
0
39
0
210
0
220
0
230
1
0
SOLID
5
216
100
AcDbEntity
8
SK2
62
256
6
ByLayer
370
18
48
1
60
0
100
AcDbTrace
10
76.45
20
15.976043
30
0
11
72.950002
21
15.515259
31
0
12
72.949998
22
16.436827
32
0
13
72.949998
23
16.436827
33
0
39
0
210
0
220
0
230
1
0
ENDBLK
5
218
100
AcDbEntity
8
0
100
AcDbBlockEnd
0
BLOCK
5
21D
100
AcDbEntity
8
0
100
AcDbBlockBegin
2
*D5
70
1
10
0
20
0
30
0
3
*D5
0
LINE
5
21F
100
AcDbEntity
8
0
62
256
6
ByLayer
370
-2
48
1
60
0
100
AcDbLine
10
81.82
20
-8.010966
30
0
11
81.82
21
-15.423466
31
0
39
0
210
0
220
0
230
1
0
LINE
5
220
100
AcDbEntity
8
0
62
256
6
ByLayer
370
-2
48
1
60
0
100
AcDbLine
10
63.82
20
-8.010966
30
0
11
63.82
21
-15.423466
31
0
39
0
210
0
220
0
230
1
0
LINE
5
221
100
AcDbEntity
8
0
62
256
6
ByLayer
370
-2
48
1
60
0
100
AcDbLine
10
78.32
20
-13.423466
30
0
11
67.32
21
-13.423466
31
0
39
0
210
0
220
0
230
1
0
SOLID
5
222
100
AcDbEntity
8
0
62
256
6
ByLayer
370
-1
48
1
60
0
100
AcDbTrace
10
78.32
20
-14.0068
30
0
11
78.32
21
-12.840133
31
0
12
81.82
22
-13.423466
32
0
13
81.82
23
-13.423466
33
0
39
0
210
0
220
0
230
1
0
SOLID
5
223
100
AcDbEntity
8
0
62
256
6
ByLayer
370
-1
48
1
60
0
100
AcDbTrace
10
67.32
20
-12.840133
30
0
11
67.32
21
-14.0068
31
0
12
63.82
22
-13.423466
32
0
13
63.82
23
-13.423466
33
0
39
0
210
0
220
0
230
1
0
MTEXT
5
224
100
AcDbEntity
8
0
62
256
6
ByLayer
370
18
48
1
60
0
100
AcDbMText
10
73.248571
20
-7.423466
30
0
210
0
220
0
230
1
1
\A1;18
40
3
41
0
44
1
50
0
71
5
72
5
7
iso_b_vert
0
POINT
5
225
100
AcDbEntity
8
Defpoints
62
0
6
ByLayer
370
-1
48
1
60
0
100
AcDbPoint
10
81.82
20
-6.423466
30
0
39
0
210
0
220
0
230
1
50
360
0
POINT
5
226
100
AcDbEntity
8
Defpoints
62
0
6
ByLayer
370
-1
48
1
60
0
100
AcDbPoint
10
63.82
20
-6.423466
30
0
39
0
210
0
220
0
230
1
50
360
0
POINT
5
227
100
AcDbEntity
8
Defpoints
62
0
6
ByLayer
370
-1
48
1
60
0
100
AcDbPoint
10
63.82
20
-13.423466
30
0
39
0
210
0
220
0
230
1
50
360
0
ENDBLK
5
21E
100
AcDbEntity
8
0
100
AcDbBlockEnd
0
BLOCK
5
230
100
AcDbEntity
8
0
100
AcDbBlockBegin
2
_U2
70
0
10
0
20
0
30
0
3
_U2
0
MTEXT
5
229
100
AcDbEntity
8
SK2
62
256
6
ByLayer
370
18
48
1
60
0
100
AcDbMText
10
67.116068
20
-12.538352
30
0
210
0
220
0
230
1
1
\W0.5321;18
40
3
41
0
44
1.084337
50
0
71
7
72
5
7
iso_b_vert
0
MTEXT
5
22A
100
AcDbEntity
8
SK2
62
256
6
ByLayer
370
18
48
1
60
0
100
AcDbMText
10
72.423338
20
-12.185871
30
0
210
0
220
0
230
1
1
\W0.8315;\W0.4158;%%p\W0.8315;0.5
40
2.5
41
0
44
1.084337
50
0
71
7
72
5
7
iso_b_vert
0
LINE
5
22B
100
AcDbEntity
8
SK2
62
256
6
ByLayer
370
13
48
1
60
0
100
AcDbLine
10
81.82
20
-8.010966
30
0
11
81.82
21
-15.423466
31
0
39
0
210
0
220
0
230
1
0
LINE
5
22C
100
AcDbEntity
8
SK2
62
256
6
ByLayer
370
13
48
1
60
0
100
AcDbLine
10
63.82
20
-8.010966
30
0
11
63.82
21
-15.423466
31
0
39
0
210
0
220
0
230
1
0
LINE
5
22D
100
AcDbEntity
8
SK2
62
256
6
ByLayer
370
13
48
1
60
0
100
AcDbLine
10
81.82
20
-13.423466
30
0
11
63.82
21
-13.423466
31
0
39
0
210
0
220
0
230
1
0
SOLID
5
22E
100
AcDbEntity
8
SK2
62
256
6
ByLayer
370
18
48
1
60
0
100
AcDbTrace
10
81.82
20
-13.423466
30
0
11
78.320002
21
-13.88425
31
0
12
78.319998
22
-12.962682
32
0
13
78.319998
23
-12.962682
33
0
39
0
210
0
220
0
230
1
0
SOLID
5
22F
100
AcDbEntity
8
SK2
62
256
6
ByLayer
370
18
48
1
60
0
100
AcDbTrace
10
63.82
20
-13.423466
30
0
11
67.319998
21
-12.962682
31
0
12
67.320002
22
-13.88425
32
0
13
67.320002
23
-13.88425
33
0
39
0
210
0
220
0
230
1
0
ENDBLK
5
231
100
AcDbEntity
8
0
100
AcDbBlockEnd
0
BLOCK
5
236
100
AcDbEntity
8
0
100
AcDbBlockBegin
2
*D7
70
1
10
0
20
0
30
0
3
*D7
0
LINE
5
238
100
AcDbEntity
8
0
62
256
6
ByLayer
370
-2
48
1
60
0
100
AcDbLine
10
81.82
20
-8.010966
30
0
11
81.82
21
-37.923466
31
0
39
0
210
0
220
0
230
1
0
LINE
5
239
100
AcDbEntity
8
0
62
256
6
ByLayer
370
-2
48
1
60
0
100
AcDbLine
10
26.82
20
-6.0985
30
0
11
26.82
21
-37.923466
31
0
39
0
210
0
220
0
230
1
0
LINE
5
23A
100
AcDbEntity
8
0
62
256
6
ByLayer
370
-2
48
1
60
0
100
AcDbLine
10
78.32
20
-35.923466
30
0
11
30.32
21
-35.923466
31
0
39
0
210
0
220
0
230
1
0
SOLID
5
23B
100
AcDbEntity
8
0
62
256
6
ByLayer
370
-1
48
1
60
0
100
AcDbTrace
10
78.32
20
-36.5068
30
0
11
78.32
21
-35.340133
31
0
12
81.82
22
-35.923466
32
0
13
81.82
23
-35.923466
33
0
39
0
210
0
220
0
230
1
0
SOLID
5
23C
100
AcDbEntity
8
0
62
256
6
ByLayer
370
-1
48
1
60
0
100
AcDbTrace
10
30.32
20
-35.340133
30
0
11
30.32
21
-36.5068
31
0
12
26.82
22
-35.923466
32
0
13
26.82
23
-35.923466
33
0
39
0
210
0
220
0
230
1
0
MTEXT
5
23D
100
AcDbEntity
8
0
62
256
6
ByLayer
370
18
48
1
60
0
100
AcDbMText
10
54.32
20
-29.923466
30
0
210
0
220
0
230
1
1
\A1;55
40
3
41
0
44
1
50
0
71
5
72
5
7
iso_b_vert
0
POINT
5
23E
100
AcDbEntity
8
Defpoints
62
0
6
ByLayer
370
-1
48
1
60
0
100
AcDbPoint
10
81.82
20
-6.423466
30
0
39
0
210
0
220
0
230
1
50
360
0
POINT
5
23F
100
AcDbEntity
8
Defpoints
62
0
6
ByLayer
370
-1
48
1
60
0
100
AcDbPoint
10
26.82
20
-4.511
30
0
39
0
210
0
220
0
230
1
50
360
0
POINT
5
240
100
AcDbEntity
8
Defpoints
62
0
6
ByLayer
370
-1
48
1
60
0
100
AcDbPoint
10
26.82
20
-35.923466
30
0
39
0
210
0
220
0
230
1
50
360
0
ENDBLK
5
237
100
AcDbEntity
8
0
100
AcDbBlockEnd
0
BLOCK
5
248
100
AcDbEntity
8
0
100
AcDbBlockBegin
2
_U3
70
0
10
0
20
0
30
0
3
_U3
0
MTEXT
5
242
100
AcDbEntity
8
SK2
62
256
6
ByLayer
370
18
48
1
60
0
100
AcDbMText
10
52.687172
20
-35.038352
30
0
210
0
220
0
230
1
1
\W0.6740;55
40
3
41
0
44
1.084337
50
0
71
7
72
5
7
iso_b_vert
0
LINE
5
243
100
AcDbEntity
8
SK2
62
256
6
ByLayer
370
13
48
1
60
0
100
AcDbLine
10
81.82
20
-8.010966
30
0
11
81.82
21
-37.923466
31
0
39
0
210
0
220
0
230
1
0
LINE
5
244
100
AcDbEntity
8
SK2
62
256
6
ByLayer
370
13
48
1
60
0
100
AcDbLine
10
26.82
20
-6.0985
30
0
11
26.82
21
-37.923466
31
0
39
0
210
0
220
0
230
1
0
LINE
5
245
100
AcDbEntity
8
SK2
62
256
6
ByLayer
370
13
48
1
60
0
100
AcDbLine
10
81.82
20
-35.923466
30
0
11
26.82
21
-35.923466
31
0
39
0
210
0
220
0
230
1
0
SOLID
5
246
100
AcDbEntity
8
SK2
62
256
6
ByLayer
370
18
48
1
60
0
100
AcDbTrace
10
81.82
20
-35.923466
30
0
11
78.320002
21
-36.38425
31
0
12
78.319998
22
-35.462682
32
0
13
78.319998
23
-35.462682
33
0
39
0
210
0
220
0
230
1
0
SOLID
5
247
100
AcDbEntity
8
SK2
62
256
6
ByLayer
370
18
48
1
60
0
100
AcDbTrace
10
26.82
20
-35.923466
30
0
11
30.319998
21
-35.462682
31
0
12
30.320002
22
-36.38425
32
0
13
30.320002
23
-36.38425
33
0
39
0
210
0
220
0
230
1
0
ENDBLK
5
249
100
AcDbEntity
8
0
100
AcDbBlockEnd
0
BLOCK
5
24E
100
AcDbEntity
8
0
100
AcDbBlockBegin
2
*D9
70
1
10
0
20
0
30
0
3
*D9
0
LINE
5
250
100
AcDbEntity
8
0
62
256
6
ByLayer
370
-2
48
1
60
0
100
AcDbLine
10
81.82
20
-8.010966
30
0
11
81.82
21
-26.923466
31
0
39
0
210
0
220
0
230
1
0
LINE
5
251
100
AcDbEntity
8
0
62
256
6
ByLayer
370
-2
48
1
60
0
100
AcDbLine
10
35.07
20
-1.5875
30
0
11
35.07
21
-26.923466
31
0
39
0
210
0
220
0
230
1
0
LINE
5
252
100
AcDbEntity
8
0
62
256
6
ByLayer
370
-2
48
1
60
0
100
AcDbLine
10
78.32
20
-24.923466
30
0
11
38.57
21
-24.923466
31
0
39
0
210
0
220
0
230
1
0
SOLID
5
253
100
AcDbEntity
8
0
62
256
6
ByLayer
370
-1
48
1
60
0
100
AcDbTrace
10
78.32
20
-25.5068
30
0
11
78.32
21
-24.340133
31
0
12
81.82
22
-24.923466
32
0
13
81.82
23
-24.923466
33
0
39
0
210
0
220
0
230
1
0
SOLID
5
254
100
AcDbEntity
8
0
62
256
6
ByLayer
370
-1
48
1
60
0
100
AcDbTrace
10
38.57
20
-24.340133
30
0
11
38.57
21
-25.5068
31
0
12
35.07
22
-24.923466
32
0
13
35.07
23
-24.923466
33
0
39
0
210
0
220
0
230
1
0
MTEXT
5
255
100
AcDbEntity
8
0
62
256
6
ByLayer
370
18
48
1
60
0
100
AcDbMText
10
58.445
20
-18.923466
30
0
210
0
220
0
230
1
1
\A1;46.8
40
3
41
0
44
1
50
0
71
5
72
5
7
iso_b_vert
0
POINT
5
256
100
AcDbEntity
8
Defpoints
62
0
6
ByLayer
370
-1
48
1
60
0
100
AcDbPoint
10
81.82
20
-6.423466
30
0
39
0
210
0
220
0
230
1
50
360
0
POINT
5
257
100
AcDbEntity
8
Defpoints
62
0
6
ByLayer
370
-1
48
1
60
0
100
AcDbPoint
10
35.07
20
0
30
0
39
0
210
0
220
0
230
1
50
360
0
POINT
5
258
100
AcDbEntity
8
Defpoints
62
0
6
ByLayer
370
-1
48
1
60
0
100
AcDbPoint
10
35.07
20
-24.923466
30
0
39
0
210
0
220
0
230
1
50
360
0
ENDBLK
5
24F
100
AcDbEntity
8
0
100
AcDbBlockEnd
0
BLOCK
5
260
100
AcDbEntity
8
0
100
AcDbBlockBegin
2
_U4
70
0
10
0
20
0
30
0
3
_U4
0
MTEXT
5
25A
100
AcDbEntity
8
2
62
256
6
ByLayer
370
18
48
1
60
0
100
AcDbMText
10
54.925601
20
-24.038352
30
0
210
0
220
0
230
1
1
\W0.7640;46.8
40
3
41
0
44
1.084337
50
0
71
7
72
5
7
iso_b_vert
0
LINE
5
25B
100
AcDbEntity
8
2
62
256
6
ByLayer
370
13
48
1
60
0
100
AcDbLine
10
81.82
20
-8.010966
30
0
11
81.82
21
-26.923466
31
0
39
0
210
0
220
0
230
1
0
LINE
5
25C
100
AcDbEntity
8
2
62
256
6
ByLayer
370
13
48
1
60
0
100
AcDbLine
10
35.07
20
-1.5875
30
0
11
35.07
21
-26.923466
31
0
39
0
210
0
220
0
230
1
0
LINE
5
25D
100
AcDbEntity
8
2
62
256
6
ByLayer
370
13
48
1
60
0
100
AcDbLine
10
81.82
20
-24.923466
30
0
11
35.07
21
-24.923466
31
0
39
0
210
0
220
0
230
1
0
SOLID
5
25E
100
AcDbEntity
8
2
62
256
6
ByLayer
370
18
48
1
60
0
100
AcDbTrace
10
81.82
20
-24.923466
30
0
11
78.320002
21
-25.38425
31
0
12
78.319998
22
-24.462682
32
0
13
78.319998
23
-24.462682
33
0
39
0
210
0
220
0
230
1
0
SOLID
5
25F
100
AcDbEntity
8
2
62
256
6
ByLayer
370
18
48
1
60
0
100
AcDbTrace
10
35.07
20
-24.923466
30
0
11
38.569998
21
-24.462682
31
0
12
38.570002
22
-25.38425
32
0
13
38.570002
23
-25.38425
33
0
39
0
210
0
220
0
230
1
0
ENDBLK
5
261
100
AcDbEntity
8
0
100
AcDbBlockEnd
0
ENDSEC
0
SECTION
2
ENTITIES
0
ARC
5
C5
100
AcDbEntity
8
SK1
62
256
6
ByLayer
370
18
48
1
60
0
100
AcDbCircle
39
0
10
-20.495
20
0
30
0
40
4.47456000000013
210
0
220
0
230
1
100
AcDbArc
50
321.359785
51
38.640215
0
ARC
5
C6
100
AcDbEntity
8
1
62
256
6
ByLayer
370
18
48
1
60
0
100
AcDbCircle
39
0
10
61.792077
20
-5.911
30
0
40
1.4
210
0
220
0
230
1
100
AcDbArc
50
30
51
90
0
ARC
5
C7
100
AcDbEntity
8
1
62
256
6
ByLayer
370
18
48
1
60
0
100
AcDbCircle
39
0
10
27.473835
20
-6.011
30
0
40
1.5
210
0
220
0
230
1
100
AcDbArc
50
90
51
115.841933
0
ARC
5
C8
100
AcDbEntity
8
1
62
256
6
ByLayer
370
18
48
1
60
0
100
AcDbCircle
39
0
10
27.473835
20
6.011
30
0
40
1.5
210
0
220
0
230
1
100
AcDbArc
50
244.158067
51
270
0
POINT
5
70
100
AcDbEntity
8
80
62
256
6
ByLayer
370
18
48
1
60
0
100
AcDbPoint
10
0
20
0
30
0
39
0
210
0
220
0
230
1
50
360
0
POINT
5
72
100
AcDbEntity
8
81
62
256
6
ByLayer
370
18
48
1
60
0
100
AcDbPoint
10
81.82
20
0
30
0
39
0
210
0
220
0
230
1
50
360
0
POINT
5
74
100
AcDbEntity
8
1
62
256
6
ByLayer
370
18
48
1
60
1
100
AcDbPoint
10
81.82
20
6.423466
30
0
39
0
210
0
220
0
230
1
50
360
0
POINT
5
76
100
AcDbEntity
8
1
62
256
6
ByLayer
370
18
48
1
60
1
100
AcDbPoint
10
81.82
20
-6.423466
30
0
39
0
210
0
220
0
230
1
50
360
0
POINT
5
77
100
AcDbEntity
8
1
62
256
6
ByLayer
370
18
48
1
60
1
100
AcDbPoint
10
81.82
20
6.423466
30
0
39
0
210
0
220
0
230
1
50
360
0
POINT
5
78
100
AcDbEntity
8
1
62
256
6
ByLayer
370
18
48
1
60
1
100
AcDbPoint
10
76.45
20
0
30
0
39
0
210
0
220
0
230
1
50
360
0
POINT
5
79
100
AcDbEntity
8
1
62
256
6
ByLayer
370
18
48
1
60
1
100
AcDbPoint
10
81.82
20
-6.423466
30
0
39
0
210
0
220
0
230
1
50
360
0
POINT
5
7A
100
AcDbEntity
8
1
62
256
6
ByLayer
370
18
48
1
60
1
100
AcDbPoint
10
63.82
20
-6.423466
30
0
39
0
210
0
220
0
230
1
50
360
0
POINT
5
7B
100
AcDbEntity
8
1
62
256
6
ByLayer
370
18
48
1
60
1
100
AcDbPoint
10
81.82
20
-6.423466
30
0
39
0
210
0
220
0
230
1
50
360
0
POINT
5
7C
100
AcDbEntity
8
1
62
256
6
ByLayer
370
18
48
1
60
1
100
AcDbPoint
10
26.82
20
-4.511
30
0
39
0
210
0
220
0
230
1
50
360
0
POINT
5
7D
100
AcDbEntity
8
1
62
256
6
ByLayer
370
18
48
1
60
1
100
AcDbPoint
10
81.82
20
-6.423466
30
0
39
0
210
0
220
0
230
1
50
360
0
POINT
5
7E
100
AcDbEntity
8
1
62
256
6
ByLayer
370
18
48
1
60
1
100
AcDbPoint
10
35.07
20
0
30
0
39
0
210
0
220
0
230
1
50
360
0
SPLINE
5
C9
100
AcDbEntity
8
1
62
256
6
ByLayer
370
18
48
1
60
0
100
AcDbSpline
70
4
71
3
72
10
73
6
40
0
40
0
40
0
40
0
40
0.448196401745956
40
0.448196401745956
40
1
40
1
40
1
40
1
41
1
10
80.7716275011143
20
5.22793392214109
30
0
41
1
10
80.7755383326453
20
5.23813072460169
30
0
41
1
10
80.7794655576348
20
5.24701032927837
30
0
41
1
10
80.7882424203447
20
5.26375189371649
30
0
41
1
10
80.7931004020415
20
5.27092404052655
30
0
41
1
10
80.7979897844633
20
5.27602018535305
30
0
0
SPLINE
5
CA
100
AcDbEntity
8
1
62
256
6
ByLayer
370
13
48
1
60
0
100
AcDbSpline
70
4
71
3
72
9
73
5
40
0
40
0
40
0
40
0
40
0.400954644138973
40
1
40
1
40
1
40
1
41
1
10
67.1467622120712
20
5.31295423519543
30
0
41
1
10
67.1448481257737
20
5.31026114173056
30
0
41
1
10
67.1400766138211
20
5.30278527928837
30
0
41
1
10
67.1353144850611
20
5.29341930380241
30
0
41
1
10
67.1324658605897
20
5.28714827203717
30
0
0
SPLINE
5
CB
100
AcDbEntity
8
1
62
256
6
ByLayer
370
18
48
1
60
0
100
AcDbSpline
70
4
71
3
72
8
73
4
40
0
40
0
40
0
40
0
40
1
40
1
40
1
40
1
41
1.04
10
65.7427839011474
20
-5.28764976383633
30
0
41
1.04
10
65.7402988582668
20
-5.29297759393917
30
0
41
1.04
10
65.7378176388746
20
-5.29779038904404
30
0
41
1.04
10
65.7353401345599
20
-5.30209236499046
30
0
0
SPLINE
5
CC
100
AcDbEntity
8
1
62
256
6
ByLayer
370
13
48
1
60
0
100
AcDbSpline
70
4
71
3
72
8
73
4
40
0
40
0
40
0
40
0
40
1
40
1
40
1
40
1
41
1.04
10
65.7353401345582
20
-5.30209236499355
30
0
41
1.04
10
65.7257021194104
20
-5.31882796020078
30
0
41
1.04
10
65.7161203272929
20
-5.32783294926808
30
0
41
1.04
10
65.7065883756815
20
-5.32935553325245
30
0
0
SPLINE
5
CD
100
AcDbEntity
8
1
62
256
6
ByLayer
370
18
48
1
60
0
100
AcDbSpline
70
4
71
3
72
8
73
4
40
0
40
0
40
0
40
0
40
1
40
1
40
1
40
1
41
1
10
79.2197981365144
20
-5.62482469782765
30
0
41
1
10
79.2159287828767
20
-5.6277296894055
30
0
41
1
10
79.2120706669457
20
-5.62938764230279
30
0
41
1
10
79.2082218924553
20
-5.62980133611245
30
0
0
SPLINE
5
CE
100
AcDbEntity
8
1
62
256
6
ByLayer
370
18
48
1
60
0
100
AcDbSpline
70
4
71
3
72
10
73
6
40
0
40
0
40
0
40
0
40
0.993917333867242
40
0.993917333867242
40
1
40
1
40
1
40
1
41
1
10
78.1907138899556
20
-5.81460783284652
30
0
41
1
10
78.2008475724448
20
-5.84425991529494
30
0
41
1
10
78.2109940295018
20
-5.86419776177459
30
0
41
1
10
78.221214651215
20
-5.87452385000563
30
0
41
1
10
78.2212768199192
20
-5.87458629716161
30
0
41
1
10
78.2213389887041
20
-5.87464838127678
30
0
0
SPLINE
5
CF
100
AcDbEntity
8
1
62
256
6
ByLayer
370
13
48
1
60
0
100
AcDbSpline
70
4
71
3
72
8
73
4
40
0
40
0
40
0
40
0
40
1
40
1
40
1
40
1
41
1.04
10
68.683395785191
20
5.26337040282431
30
0
41
1.04
10
68.6773248449376
20
5.279858603739
30
0
41
1.04
10
68.671239865535
20
5.29338801502646
30
0
41
1.04
10
68.6651397205278
20
5.30388152560079
30
0
0
SPLINE
5
D0
100
AcDbEntity
8
1
62
256
6
ByLayer
370
18
48
1
60
0
100
AcDbSpline
70
4
71
3
72
8
73
4
40
0
40
0
40
0
40
0
40
1
40
1
40
1
40
1
41
1
10
77.9008662949549
20
-5.32146245770127
30
0
41
1
10
77.8970741983119
20
-5.3177609022446
30
0
41
1
10
77.8932854607982
20
-5.31287745960176
30
0
41
1
10
77.889499679288
20
-5.30682305188247
30
0
0
SPLINE
5
D1
100
AcDbEntity
8
1
62
256
6
ByLayer
370
13
48
1
60
0
100
AcDbSpline
70
4
71
3
72
8
73
4
40
0
40
0
40
0
40
0
40
1
40
1
40
1
40
1
41
1
10
77.8895002094695
20
-5.30682389976727
30
0
41
1
10
77.8779121189417
20
-5.28829199226968
30
0
41
1
10
77.8663517246229
20
-5.25878881900715
30
0
41
1
10
77.8548074651456
20
-5.21862761869943
30
0
0
SPLINE
5
D2
100
AcDbEntity
8
1
62
256
6
ByLayer
370
18
48
1
60
0
100
AcDbSpline
70
4
71
3
72
8
73
4
40
0
40
0
40
0
40
0
40
1
40
1
40
1
40
1
41
1
10
64.2208591470495
20
-5.31867948100503
30
0
41
1
10
64.2172671803373
20
-5.31467809333358
30
0
41
1
10
64.2136870704394
20
-5.30962513424811
30
0
41
1
10
64.2101183967636
20
-5.30354374206499
30
0
0
SPLINE
5
D3
100
AcDbEntity
8
1
62
256
6
ByLayer
370
13
48
1
60
0
100
AcDbSpline
70
4
71
3
72
8
73
4
40
0
40
0
40
0
40
0
40
1
40
1
40
1
40
1
41
1
10
64.2101183967636
20
-5.3035437420651
30
0
41
1
10
64.1966832992724
20
-5.28064893455863
30
0
41
1
10
64.1834102896638
20
-5.24317793725274
30
0
41
1
10
64.1702769258559
20
-5.19236537129308
30
0
0
SPLINE
5
D4
100
AcDbEntity
8
1
62
256
6
ByLayer
370
13
48
1
60
0
100
AcDbSpline
70
4
71
3
72
8
73
4
40
0
40
0
40
0
40
0
40
1
40
1
40
1
40
1
41
1.04
10
77.4558468722124
20
-5.30711277263338
30
0
41
1.04
10
77.4163239212454
20
-5.36999108405799
30
0
41
1.04
10
77.3773289451241
20
-5.30209943623774
30
0
41
1.04
10
77.3384170867302
20
-5.11529006639088
30
0
0
SPLINE
5
D5
100
AcDbEntity
8
1
62
256
6
ByLayer
370
13
48
1
60
0
100
AcDbSpline
70
4
71
3
72
8
73
4
40
0
40
0
40
0
40
0
40
1
40
1
40
1
40
1
41
1
10
69.1997683683532
20
5.17914785587163
30
0
41
1
10
69.1658794563691
20
5.31648098490672
30
0
41
1
10
69.1315992622296
20
5.36384034017217
30
0
41
1
10
69.0967281100434
20
5.30768693778731
30
0
0
SPLINE
5
D6
100
AcDbEntity
8
1
62
256
6
ByLayer
370
18
48
1
60
0
100
AcDbSpline
70
4
71
3
72
17
73
13
40
0
40
0
40
0
40
0
40
0.197942922599206
40
0.197942922599206
40
0.465295281732805
40
0.465295281732805
40
0.532133371516205
40
0.532133371516205
40
0.598971461299605
40
0.732647640866403
40
0.732647640866403
40
1
40
1
40
1
40
1
41
1
10
76.9105922859814
20
-6.22890900380085
30
0
41
1
10
76.902593495432
20
-6.23098360150206
30
0
41
1
10
76.8946106875856
20
-6.22712378521982
30
0
41
1
10
76.875791017991
20
-6.20423024164126
30
0
41
1
10
76.8649041054576
20
-6.18040659962131
30
0
41
1
10
76.8510957089042
20
-6.13699105469743
30
0
41
1
10
76.8483251159793
20
-6.12760873369268
30
0
41
1
10
76.8428002750559
20
-6.10753330728377
30
0
41
1
10
76.834529213594
20
-6.07543202530636
30
0
41
1
10
76.8263235626108
20
-6.03737041992306
30
0
41
1
10
76.8100128450545
20
-5.95329645999556
30
0
41
1
10
76.7992859939968
20
-5.88664852895781
30
0
41
1
10
76.7886245598863
20
-5.8093010298316
30
0
0
SPLINE
5
D7
100
AcDbEntity
8
1
62
256
6
ByLayer
370
18
48
1
60
0
100
AcDbSpline
70
4
71
3
72
18
73
14
40
0
40
0
40
0
40
0
40
0.296285226129971
40
0.296285226129971
40
0.592570452259942
40
0.592570452259942
40
0.666641758792434
40
0.666641758792434
40
0.740713065324926
40
0.740713065324926
40
0.888855678389911
40
0.888855678389911
40
1
40
1
40
1
40
1
41
1
10
76.4072987883347
20
-5.7518333732954
30
0
41
1
10
76.4180165550757
20
-5.84159979864026
30
0
41
1
10
76.4286760007577
20
-5.92106511870273
30
0
41
1
10
76.4496808122546
20
-6.05931449593891
30
0
41
1
10
76.4600301232897
20
-6.11810116841667
30
0
41
1
10
76.4729299196655
20
-6.1783921815919
30
0
41
1
10
76.4755089109037
20
-6.18978967832575
30
0
41
1
10
76.4806724938713
20
-6.21125245519812
30
0
41
1
10
76.4832563970415
20
-6.22131228590541
30
0
41
1
10
76.4909848681255
20
-6.24932857992874
30
0
41
1
10
76.496121708564
20
-6.26518910241563
30
0
41
1
10
76.5051545378302
20
-6.28815922861207
30
0
41
1
10
76.5090370541552
20
-6.29646249178532
30
0
41
1
10
76.5129341387167
20
-6.30321971623496
30
0
0
SPLINE
5
D8
100
AcDbEntity
8
1
62
256
6
ByLayer
370
13
48
1
60
0
100
AcDbSpline
70
4
71
3
72
9
73
5
40
0
40
0
40
0
40
0
40
0.946005922702589
40
1
40
1
40
1
40
1
41
1
10
75.9346297702895
20
-5.30591474398852
30
0
41
1
10
75.8913248863778
20
-5.23414560689082
30
0
41
1
10
75.846895276531
20
-4.99595106033271
30
0
41
1
10
75.8044662273271
20
-4.64086400193531
30
0
41
1
10
75.8021811520799
20
-4.62136178635251
30
0
0
SPLINE
5
D9
100
AcDbEntity
8
1
62
256
6
ByLayer
370
18
48
1
60
0
100
AcDbSpline
70
4
71
3
72
8
73
4
40
0
40
0
40
0
40
0
40
1
40
1
40
1
40
1
41
1.04
10
75.5038929448129
20
-5.30344990508399
30
0
41
1.04
10
75.5009278233419
20
-5.3085490144478
30
0
41
1.04
10
75.4979663942163
20
-5.31292442730203
30
0
41
1.04
10
75.4950090444276
20
-5.31657563338642
30
0
0
SPLINE
5
DA
100
AcDbEntity
8
1
62
256
6
ByLayer
370
13
48
1
60
0
100
AcDbSpline
70
4
71
3
72
10
73
6
40
0
40
0
40
0
40
0
40
0.12939514417547
40
0.83179376804557
40
1
40
1
40
1
40
1
41
1.04
10
75.4950090444276
20
-5.3165756333865
30
0
41
1.04
10
75.4855051228677
20
-5.32830937430437
30
0
41
1.04
10
75.4246816705394
20
-5.35565808133812
30
0
41
1.04
10
75.3542895247249
20
-5.01612427382977
30
0
41
1.04
10
75.2967581874059
20
-4.50030383594723
30
0
41
1.04
10
75.2857839994414
20
-4.39373588757191
30
0
0
SPLINE
5
DB
100
AcDbEntity
8
1
62
256
6
ByLayer
370
18
48
1
60
0
100
AcDbSpline
70
4
71
3
72
8
73
4
40
0
40
0
40
0
40
0
40
1
40
1
40
1
40
1
41
1
10
73.9726936592513
20
-5.28944711941963
30
0
41
1
10
73.9683250283936
20
-5.28035606245768
30
0
41
1
10
73.9639693734047
20
-5.26976529829446
30
0
41
1
10
73.9596287782556
20
-5.25771402572474
30
0
0
SPLINE
5
DC
100
AcDbEntity
8
1
62
256
6
ByLayer
370
13
48
1
60
0
100
AcDbSpline
70
4
71
3
72
10
73
6
40
0
40
0
40
0
40
0
40
0.141925247990555
40
0.844601718705552
40
1
40
1
40
1
40
1
41
1
10
73.9596287782555
20
-5.25771402572479
30
0
41
1
10
73.9489571660798
20
-5.22808525301699
30
0
41
1
10
73.8859917776647
20
-4.99922736860287
30
0
41
1
10
73.8165568928532
20
-4.38252022152807
30
0
41
1
10
73.759714578626
20
-3.68995924743962
30
0
41
1
10
73.7495008963486
20
-3.55985406471001
30
0
0
SPLINE
5
DD
100
AcDbEntity
8
1
62
256
6
ByLayer
370
18
48
1
60
0
100
AcDbSpline
70
4
71
3
72
11
73
7
40
0
40
0
40
0
40
0
40
0.172443306931452
40
0.534583162606274
40
0.959434918832575
40
1
40
1
40
1
40
1
41
1
10
81.82
20
0.563406093080346
30
0
41
1
10
81.82
20
0.376768398685215
30
0
41
1
10
81.82
20
-0.207487525033713
30
0
41
1
10
81.8199999999999
20
-1.26320039057123
30
0
41
1
10
81.82
20
-2.10867621782771
30
0
41
1
10
81.82
20
-2.5375791842267
30
0
41
1
10
81.82
20
-2.57459630874467
30
0
0
SPLINE
5
DE
100
AcDbEntity
8
1
62
256
6
ByLayer
370
13
48
1
60
0
100
AcDbSpline
70
4
71
3
72
10
73
6
40
0
40
0
40
0
40
0
40
0.137550127225975
40
0.747571582479613
40
1
40
1
40
1
40
1
41
1.04
10
73.4734337001488
20
-5.27148805360801
30
0
41
1.04
10
73.4614969788815
20
-5.24171432405716
30
0
41
1.04
10
73.3972142002481
20
-5.01954997990494
30
0
41
1.04
10
73.3172326151548
20
-4.31534095612491
30
0
41
1.04
10
73.2519228228052
20
-3.48746301328262
30
0
41
1.04
10
73.2330610959263
20
-3.23069489895021
30
0
0
SPLINE
5
DF
100
AcDbEntity
8
1
62
256
6
ByLayer
370
13
48
1
60
0
100
AcDbSpline
70
4
71
3
72
11
73
7
40
0
40
0
40
0
40
0
40
0.0033130973584458
40
0.466871912060661
40
0.925504613258037
40
1
40
1
40
1
40
1
41
1
10
71.9369043746304
20
-4.94028623520862
30
0
41
1
10
71.9366419840553
20
-4.93859989923203
30
0
41
1
10
71.8996656091092
20
-4.7002048804554
30
0
41
1
10
71.8260663083059
20
-4.01494600416376
30
0
41
1
10
71.7457805128182
20
-2.90315036129999
30
0
41
1
10
71.7028048009158
20
-2.23740937674069
30
0
41
1
10
71.696799769104
20
-2.14317648105745
30
0
0
SPLINE
5
E0
100
AcDbEntity
8
1
62
256
6
ByLayer
370
13
48
1
60
0
100
AcDbSpline
70
4
71
3
72
10
73
6
40
0
40
0
40
0
40
0
40
0.356259655934914
40
0.815637264063602
40
1
40
1
40
1
40
1
41
1.04
10
71.4205348497046
20
-4.76429330392437
30
0
41
1.04
10
71.3923070441686
20
-4.54722947356786
30
0
41
1.04
10
71.3274518878498
20
-3.91315635767887
30
0
41
1.04
10
71.2470296252832
20
-2.80382826253488
30
0
41
1.04
10
71.1952139107195
20
-1.98540589880091
30
0
41
1.04
10
71.1803808263854
20
-1.74517404705546
30
0
0
SPLINE
5
E1
100
AcDbEntity
8
1
62
256
6
ByLayer
370
13
48
1
60
0
100
AcDbSpline
70
4
71
3
72
11
73
7
40
0
40
0
40
0
40
0
40
0.056119052815966
40
0.516063754040524
40
0.822381334188854
40
1
40
1
40
1
40
1
41
1
10
69.8839836075164
20
-4.06508723497339
30
0
41
1
10
69.8795120295193
20
-4.01552468211861
30
0
41
1
10
69.8383587335193
20
-3.54778954987583
30
0
41
1
10
69.7723230102335
20
-2.63208377902009
30
0
41
1
10
69.6961915422254
20
-1.39504288362289
30
0
41
1
10
69.6580263607784
20
-0.748766011261154
30
0
41
1
10
69.6441122640768
20
-0.511591033225386
30
0
0
SPLINE
5
E2
100
AcDbEntity
8
1
62
256
6
ByLayer
370
18
48
1
60
0
100
AcDbSpline
70
4
71
3
72
32
73
28
40
0
40
0
40
0
40
0
40
0.0526687477792177
40
0.0526687477792177
40
0.125540382565424
40
0.125540382565424
40
0.271283652137795
40
0.271283652137795
40
0.344155286924003
40
0.344155286924003
40
0.417026921710212
40
0.417026921710212
40
0.562770191282629
40
0.562770191282629
40
0.635641826068863
40
0.635641826068863
40
0.708513460855097
40
0.708513460855097
40
0.781385095641331
40
0.781385095641331
40
0.854256730427565
40
0.854256730427565
40
0.890692547820683
40
0.890692547820683
40
0.927128365213801
40
0.927128365213801
40
1
40
1
40
1
40
1
41
1
10
73.9344637132828
20
-5.24768210905745
30
0
41
1
10
73.9278432800184
20
-5.24132262300392
30
0
41
1
10
73.9209931486189
20
-5.23525738773481
30
0
41
1
10
73.9041357875954
20
-5.22147855523312
30
0
41
1
10
73.8940172280595
20
-5.2141030231916
30
0
41
1
10
73.8628909249958
20
-5.19383159353143
30
0
41
1
10
73.8410539234735
20
-5.18271106702883
30
0
41
1
10
73.8067387957902
20
-5.16956041375883
30
0
41
1
10
73.7950328455015
20
-5.16577786120891
30
0
41
1
10
73.7715034722607
20
-5.15955197105384
30
0
41
1
10
73.7596304535009
20
-5.15708754432748
30
0
41
1
10
73.7236972161953
20
-5.15167717318772
30
0
41
1
10
73.6993276954106
20
-5.1506749753658
30
0
41
1
10
73.6621232644237
20
-5.15380589705603
30
0
41
1
10
73.6496059821512
20
-5.15564488634686
30
0
41
1
10
73.6249416853717
20
-5.16097816289226
30
0
41
1
10
73.6127232787317
20
-5.16447404238178
30
0
41
1
10
73.5885538964578
20
-5.17331937310149
30
0
41
1
10
73.5765692145284
20
-5.17868418410427
30
0
41
1
10
73.5530702084547
20
-5.19154158822784
30
0
41
1
10
73.5417507816497
20
-5.19892276160627
30
0
41
1
10
73.5254990777519
20
-5.21159448064606
30
0
41
1
10
73.5202035831124
20
-5.21608622654702
30
0
41
1
10
73.5098779594922
20
-5.22565297695604
30
0
41
1
10
73.5048309841777
20
-5.23074668189477
30
0
41
1
10
73.4902522946696
20
-5.24686782022076
30
0
41
1
10
73.4813704782879
20
-5.25861276915657
30
0
41
1
10
73.4734337001488
20
-5.27148805360801
30
0
0
SPLINE
5
E3
100
AcDbEntity
8
1
62
256
6
ByLayer
370
18
48
1
60
0
100
AcDbSpline
70
4
71
3
72
12
73
8
40
0
40
0
40
0
40
0
40
0.5
40
0.5
40
0.75
40
0.75
40
1
40
1
40
1
40
1
41
1
10
73.4734337001488
20
-5.27148805360801
30
0
41
1
10
73.3638696617509
20
-5.44922619058192
30
0
41
1
10
73.2548631611766
20
-5.62369614252941
30
0
41
1
10
73.0924014992866
20
-5.87978402544906
30
0
41
1
10
73.0384122637245
20
-5.96422415223481
30
0
41
1
10
72.9308871649583
20
-6.13098814817118
30
0
41
1
10
72.8773277437256
20
-6.21334919625667
30
0
41
1
10
72.8239396116707
20
-6.29469501584299
30
0
0
SPLINE
5
E4
100
AcDbEntity
8
1
62
256
6
ByLayer
370
18
48
1
60
0
100
AcDbSpline
70
4
71
3
72
8
73
4
40
0
40
0
40
0
40
0
40
1
40
1
40
1
40
1
41
1
10
72.6160076269484
20
-6.2501538635855
30
0
41
1
10
72.6853092640597
20
-6.26608554083001
30
0
41
1
10
72.7546139784538
20
-6.28093419474422
30
0
41
1
10
72.8239396116707
20
-6.29469501584299
30
0
0
SPLINE
5
E5
100
AcDbEntity
8
1
62
256
6
ByLayer
370
18
48
1
60
0
100
AcDbSpline
70
4
71
3
72
10
73
6
40
0
40
0
40
0
40
0
40
0.5
40
0.5
40
1
40
1
40
1
40
1
41
1
10
72.61600762695
20
-6.25015386357163
30
0
41
1
10
72.5043514985564
20
-6.03941077158794
30
0
41
1
10
72.3920309085228
20
-5.82466212731163
30
0
41
1
10
72.1654954870467
20
-5.38729481908095
30
0
41
1
10
72.0516494977553
20
-5.16538667423521
30
0
41
1
10
71.9369043746304
20
-4.94028623520899
30
0
0
SPLINE
5
E6
100
AcDbEntity
8
1
62
256
6
ByLayer
370
18
48
1
60
0
100
AcDbSpline
70
4
71
3
72
34
73
30
40
0
40
0
40
0
40
0
40
0.124999999999927
40
0.124999999999927
40
0.187499999999907
40
0.187499999999907
40
0.249999999999886
40
0.249999999999886
40
0.374999999999847
40
0.374999999999847
40
0.437499999999827
40
0.437499999999827
40
0.499999999999808
40
0.499999999999808
40
0.624999999999813
40
0.624999999999813
40
0.687499999999837
40
0.687499999999837
40
0.749999999999861
40
0.749999999999861
40
0.812499999999885
40
0.812499999999885
40
0.874999999999909
40
0.874999999999909
40
0.906249999999941
40
0.906249999999941
40
0.937499999999972
40
0.937499999999972
40
1
40
1
40
1
40
1
41
1
10
71.9369043746306
20
-4.94028623520941
30
0
41
1
10
71.9230350156952
20
-4.91307811777196
30
0
41
1
10
71.9069331742335
20
-4.88829643043437
30
0
41
1
10
71.8801671081513
20
-4.85393598025769
30
0
41
1
10
71.8708002206764
20
-4.84296183369173
30
0
41
1
10
71.8512174062998
20
-4.82192818859934
30
0
41
1
10
71.8410933019843
20
-4.81197026891974
30
0
41
1
10
71.8099527037507
20
-4.78381059038313
30
0
41
1
10
71.7881093861951
20
-4.76722822157703
30
0
41
1
10
71.7537913131513
20
-4.74556724164955
30
0
41
1
10
71.7420867341401
20
-4.73889389381932
30
0
41
1
10
71.7185607371836
20
-4.72687245488893
30
0
41
1
10
71.7066898971532
20
-4.72149112492761
30
0
41
1
10
71.6707644584286
20
-4.7072650373722
30
0
41
1
10
71.6464015456714
20
-4.70030087275308
30
0
41
1
10
71.6092086786823
20
-4.69430615418855
30
0
41
1
10
71.5966950926548
20
-4.69307064274628
30
0
41
1
10
71.5720369057897
20
-4.69232828042192
30
0
41
1
10
71.5598211605834
20
-4.69280557461676
30
0
41
1
10
71.5356561933989
20
-4.6956523127075
30
0
41
1
10
71.523673632462
20
-4.69802859156843
30
0
41
1
10
71.5001763667057
20
-4.70498693183183
30
0
41
1
10
71.4888571200148
20
-4.70950642159755
30
0
41
1
10
71.4726049808294
20
-4.71803177193536
30
0
41
1
10
71.4673092256198
20
-4.72116587177018
30
0
41
1
10
71.4569829143306
20
-4.72807059011376
30
0
41
1
10
71.4519355095217
20
-4.73185550776466
30
0
41
1
10
71.4373553389297
20
-4.7441707058328
30
0
41
1
10
71.4284725065748
20
-4.7535618960523
30
0
41
1
10
71.4205348497047
20
-4.7642933039246
30
0
0
SPLINE
5
E7
100
AcDbEntity
8
1
62
256
6
ByLayer
370
18
48
1
60
0
100
AcDbSpline
70
4
71
3
72
14
73
10
40
0
40
0
40
0
40
0
40
0.25
40
0.25
40
0.5
40
0.5
40
0.75
40
0.75
40
1
40
1
40
1
40
1
41
1
10
71.4205348497044
20
-4.76429330392432
30
0
41
1
10
71.3658067758328
20
-4.83828356230794
30
0
41
1
10
71.3112331049865
20
-4.91074070476606
30
0
41
1
10
71.2023435333116
20
-5.05264668365584
30
0
41
1
10
71.1480530909504
20
-5.12206076706843
30
0
41
1
10
71.0398261873677
20
-5.25773654891941
30
0
41
1
10
70.985873655188
20
-5.32401788539624
30
0
41
1
10
70.8784158719584
20
-5.45329256518411
30
0
41
1
10
70.8248869292028
20
-5.51631579551878
30
0
41
1
10
70.7715262604168
20
-5.57774637537511
30
0
0
SPLINE
5
E8
100
AcDbEntity
8
1
62
256
6
ByLayer
370
18
48
1
60
0
100
AcDbSpline
70
4
71
3
72
10
73
6
40
0
40
0
40
0
40
0
40
0.5
40
0.5
40
1
40
1
40
1
40
1
41
1
10
70.562774696716
20
-5.47168425283385
30
0
41
1
10
70.4511738975328
20
-5.23823355553625
30
0
41
1
10
70.3389261317509
20
-5.00398037138356
30
0
41
1
10
70.1125125747274
20
-4.53423973721266
30
0
41
1
10
69.9987161409626
20
-4.2995109250559
30
0
41
1
10
69.8839836075164
20
-4.06508723497336
30
0
0
SPLINE
5
E9
100
AcDbEntity
8
1
62
256
6
ByLayer
370
18
48
1
60
0
100
AcDbSpline
70
4
71
3
72
12
73
8
40
0
40
0
40
0
40
0
40
0.25
40
0.25
40
0.500000000000001
40
0.500000000000001
40
1
40
1
40
1
40
1
41
1
10
64.1702769258559
20
-5.19236537129308
30
0
41
1
10
64.2263879515625
20
-5.29252494606087
30
0
41
1
10
64.2822773061269
20
-5.39230283297866
30
0
41
1
10
64.3935421256126
20
-5.59080205782564
30
0
41
1
10
64.4489317531109
20
-5.68954911313287
30
0
41
1
10
64.6144946870703
20
-5.98423839284405
30
0
41
1
10
64.72380415759
20
-6.17816688788432
30
0
41
1
10
64.8322653690184
20
-6.36930028116672
30
0
0
SPLINE
5
EA
100
AcDbEntity
8
1
62
256
6
ByLayer
370
18
48
1
60
0
100
AcDbSpline
70
4
71
3
72
10
73
6
40
0
40
0
40
0
40
0
40
0.5
40
0.5
40
1
40
1
40
1
40
1
41
1
10
65.0401303265432
20
-6.39279848865502
30
0
41
1
10
65.1492950100326
20
-6.22533671749167
30
0
41
1
10
65.2592633586711
20
-6.05289240324575
30
0
41
1
10
65.4814676128653
20
-5.69799890192945
30
0
41
1
10
65.5933884740723
20
-5.5160110193425
30
0
41
1
10
65.7065883756815
20
-5.32935553325245
30
0
0
SPLINE
5
EB
100
AcDbEntity
8
1
62
256
6
ByLayer
370
18
48
1
60
0
100
AcDbSpline
70
4
71
3
72
37
73
33
40
0
40
0
40
0
40
0
40
0.0624999999999645
40
0.0624999999999645
40
0.124999999999929
40
0.124999999999929
40
0.156249999999911
40
0.156249999999911
40
0.187499999999894
40
0.24999999999986
40
0.24999999999986
40
0.312499999999826
40
0.312499999999826
40
0.374999999999793
40
0.374999999999793
40
0.499999999999768
40
0.499999999999768
40
0.562499999999778
40
0.562499999999778
40
0.624999999999788
40
0.624999999999788
40
0.749999999999807
40
0.749999999999807
40
0.781249999999832
40
0.781249999999832
40
0.812499999999856
40
0.812499999999856
40
0.874999999999904
40
0.874999999999904
40
0.937499999999952
40
0.937499999999952
40
1
40
1
40
1
40
1
41
1
10
65.7065883756815
20
-5.32935553325245
30
0
41
1
10
65.7140501925141
20
-5.3170517323816
30
0
41
1
10
65.7221979566315
20
-5.305698329184
30
0
41
1
10
65.7396433567189
20
-5.28457464999448
30
0
41
1
10
65.7489429610584
20
-5.27480745602341
30
0
41
1
10
65.7636695810918
20
-5.26122578237656
30
0
41
1
10
65.7687251795572
20
-5.25686481994086
30
0
41
1
10
65.7789912552616
20
-5.24856625245073
30
0
41
1
10
65.7946187261522
20
-5.23675117590756
30
0
41
1
10
65.8108781666135
20
-5.22669139540082
30
0
41
1
10
65.8330599233315
20
-5.21468790819242
30
0
41
1
10
65.844402389743
20
-5.2093918720266
30
0
41
1
10
65.8675585584507
20
-5.20014240008376
30
0
41
1
10
65.8794203547726
20
-5.19618042464481
30
0
41
1
10
65.9150913469435
20
-5.18644084058974
30
0
41
1
10
65.9391178565506
20
-5.18270394969406
30
0
41
1
10
65.9754454794889
20
-5.18107099121829
30
0
41
1
10
65.9876485658685
20
-5.18119945414955
30
0
41
1
10
66.0119303761514
20
-5.18283852909636
30
0
41
1
10
66.023942049234
20
-5.18433900518619
30
0
41
1
10
66.0595715926543
20
-5.1908876089492
30
0
41
1
10
66.0827915034062
20
-5.19794426978333
30
0
41
1
10
66.1109954377887
20
-5.21063562748657
30
0
41
1
10
66.1165945705872
20
-5.21337055074244
30
0
41
1
10
66.1277026782062
20
-5.21926145814805
30
0
41
1
10
66.1332141467547
20
-5.22242094379979
30
0
41
1
10
66.1493895352928
20
-5.23244359655754
30
0
41
1
10
66.1597673103662
20
-5.23988283291229
30
0
41
1
10
66.1796274611533
20
-5.25642695787377
30
0
41
1
10
66.1891111132353
20
-5.265529313119
30
0
41
1
10
66.2070307318346
20
-5.28568827855554
30
0
41
1
10
66.215396464841
20
-5.29668123682526
30
0
41
1
10
66.2229421770044
20
-5.30856621377092
30
0
0
SPLINE
5
EC
100
AcDbEntity
8
1
62
256
6
ByLayer
370
18
48
1
60
0
100
AcDbSpline
70
4
71
3
72
14
73
10
40
0
40
0
40
0
40
0
40
0.25
40
0.25
40
0.5
40
0.5
40
0.75
40
0.75
40
1
40
1
40
1
40
1
41
1
10
66.2229421770044
20
-5.30856621377092
30
0
41
1
10
66.2790104313565
20
-5.396877283148
30
0
41
1
10
66.3348583318359
20
-5.48409677068517
30
0
41
1
10
66.446044073365
20
-5.65608714750923
30
0
41
1
10
66.5013961054568
20
-5.74087919829751
30
0
41
1
10
66.6117014458014
20
-5.90804805700759
30
0
41
1
10
66.6666079066977
20
-5.99035381783227
30
0
41
1
10
66.7759135432188
20
-6.15225958157558
30
0
41
1
10
66.8303275133328
20
-6.23188210517915
30
0
41
1
10
66.8845397105824
20
-6.31016501485806
30
0
0
SPLINE
5
ED
100
AcDbEntity
8
1
62
256
6
ByLayer
370
18
48
1
60
0
100
AcDbSpline
70
4
71
3
72
8
73
4
40
0
40
0
40
0
40
0
40
1
40
1
40
1
40
1
41
1
10
67.0935009836558
20
-6.2679979206267
30
0
41
1
10
67.0238354859456
20
-6.283170042721
30
0
41
1
10
66.9541820200682
20
-6.29722306500886
30
0
41
1
10
66.8845397105824
20
-6.31016501485803
30
0
0
SPLINE
5
EE
100
AcDbEntity
8
1
62
256
6
ByLayer
370
18
48
1
60
0
100
AcDbSpline
70
4
71
3
72
14
73
10
40
0
40
0
40
0
40
0
40
0.25
40
0.25
40
0.5
40
0.5
40
0.75
40
0.75
40
1
40
1
40
1
40
1
41
1
10
67.0935009836563
20
-6.26799792061357
30
0
41
1
10
67.1480353816345
20
-6.16824384558981
30
0
41
1
10
67.2027700514752
20
-6.06791677440913
30
0
41
1
10
67.3127268216206
20
-5.86613203354565
30
0
41
1
10
67.3679578385841
20
-5.76466296149027
30
0
41
1
10
67.4789443956587
20
-5.56067128601248
30
0
41
1
10
67.5346284529425
20
-5.45829018176627
30
0
41
1
10
67.6465299297599
20
-5.25275067358172
30
0
41
1
10
67.7027392078028
20
-5.14959769412394
30
0
41
1
10
67.7592594689783
20
-5.04607683934472
30
0
0
SPLINE
5
EF
100
AcDbEntity
8
1
62
256
6
ByLayer
370
18
48
1
60
0
100
AcDbSpline
70
4
71
3
72
36
73
32
40
0
40
0
40
0
40
0
40
0.0624999999999541
40
0.0624999999999541
40
0.124999999999908
40
0.124999999999908
40
0.156249999999901
40
0.156249999999901
40
0.187499999999895
40
0.249999999999879
40
0.312499999999863
40
0.312499999999863
40
0.374999999999847
40
0.374999999999847
40
0.499999999999816
40
0.499999999999816
40
0.562499999999821
40
0.562499999999821
40
0.624999999999827
40
0.624999999999827
40
0.749999999999883
40
0.749999999999883
40
0.781249999999897
40
0.781249999999897
40
0.812499999999911
40
0.812499999999911
40
0.874999999999941
40
0.874999999999941
40
0.93749999999997
40
0.93749999999997
40
1
40
1
40
1
40
1
41
1
10
67.7592594689788
20
-5.04607683934441
30
0
41
1
10
67.7667230470176
20
-5.03240676843154
30
0
41
1
10
67.7748732753915
20
-5.01948123958948
30
0
41
1
10
67.7923244699921
20
-4.99487286100398
30
0
41
1
10
67.8016274087183
20
-4.9831923297458
30
0
41
1
10
67.8163594643247
20
-4.96651080071581
30
0
41
1
10
67.8214169935443
20
-4.96107444729051
30
0
41
1
10
67.8316852149965
20
-4.95057303824584
30
0
41
1
10
67.8473158192454
20
-4.93537400394035
30
0
41
1
10
67.8744192836536
20
-4.91259715986544
30
0
41
1
10
67.8971074422997
20
-4.89683625729802
30
0
41
1
10
67.9202665711398
20
-4.882243036924
30
0
41
1
10
67.9321287253306
20
-4.87551076940213
30
0
41
1
10
67.9677965542784
20
-4.85733867559486
30
0
41
1
10
67.991821140012
20
-4.84778721721921
30
0
41
1
10
68.0281468115622
20
-4.83712904954706
30
0
41
1
10
68.0403508708852
20
-4.83418620609243
30
0
41
1
10
68.0646251742476
20
-4.82962771217373
30
0
41
1
10
68.0766336004383
20
-4.82801816875701
30
0
41
1
10
68.1122548219968
20
-4.82519700039001
30
0
41
1
10
68.1354711439663
20
-4.82595495575387
30
0
41
1
10
68.1636723518868
20
-4.8306785359255
30
0
41
1
10
68.1692710291455
20
-4.83181512937296
30
0
41
1
10
68.180378392649
20
-4.83449881597343
30
0
41
1
10
68.1858879146882
20
-4.83604807450709
30
0
41
1
10
68.202057922795
20
-4.84128520493849
30
0
41
1
10
68.2124329154611
20
-4.84557396018746
30
0
41
1
10
68.2322888825151
20
-4.85590407862438
30
0
41
1
10
68.2417711335742
20
-4.86194274189896
30
0
41
1
10
68.2596891829493
20
-4.87607772793282
30
0
41
1
10
68.2680525637732
20
-4.88413077456784
30
0
41
1
10
68.2755975547021
20
-4.89321077950154
30
0
0
SPLINE
5
F0
100
AcDbEntity
8
1
62
256
6
ByLayer
370
18
48
1
60
0
100
AcDbSpline
70
4
71
3
72
12
73
8
40
0
40
0
40
0
40
0
40
0.250000000000004
40
0.250000000000004
40
0.500000000000007
40
0.500000000000007
40
1
40
1
40
1
40
1
41
1
10
68.2755975547021
20
-4.89321077950154
30
0
41
1
10
68.3317013412926
20
-4.96072877439849
30
0
41
1
10
68.3875871321962
20
-5.02655256562966
30
0
41
1
10
68.4988544161224
20
-5.15460492037047
30
0
41
1
10
68.5542500442194
20
-5.21684775511511
30
0
41
1
10
68.7198439999335
20
-5.39824271303485
30
0
41
1
10
68.8291752363972
20
-5.51176970780202
30
0
41
1
10
68.937678987606
20
-5.61785052697019
30
0
0
SPLINE
5
F1
100
AcDbEntity
8
1
62
256
6
ByLayer
370
18
48
1
60
0
100
AcDbSpline
70
4
71
3
72
8
73
4
40
0
40
0
40
0
40
0
40
1
40
1
40
1
40
1
41
1
10
69.1461758398781
20
-5.51442367017071
30
0
41
1
10
69.0766677674785
20
-5.54991033575706
30
0
41
1
10
69.0071683107876
20
-5.58438315630383
30
0
41
1
10
68.937678987606
20
-5.61785052697016
30
0
0
SPLINE
5
F2
100
AcDbEntity
8
1
62
256
6
ByLayer
370
18
48
1
60
0
100
AcDbSpline
70
4
71
3
72
10
73
6
40
0
40
0
40
0
40
0
40
0.5
40
0.5
40
1
40
1
40
1
40
1
41
1
10
69.1461758398781
20
-5.51442367017088
30
0
41
1
10
69.2552795867637
20
-5.30288710162063
30
0
41
1
10
69.3651759536781
20
-5.09194656951092
30
0
41
1
10
69.5871912067749
20
-4.67171316432757
30
0
41
1
10
69.6989864648977
20
-4.46310882995741
30
0
41
1
10
69.8120584363861
20
-4.25637376416651
30
0
0
SPLINE
5
F3
100
AcDbEntity
8
1
62
256
6
ByLayer
370
18
48
1
60
0
100
AcDbSpline
70
4
71
3
72
15
73
11
40
0
40
0
40
0
40
0
40
0.28040614728984
40
0.28040614728984
40
0.560812294579679
40
0.560812294579679
40
0.701015368224677
40
0.701015368224677
40
0.841218441869676
40
1
40
1
40
1
40
1
41
1
10
69.8120584363861
20
-4.25637376416648
30
0
41
1
10
69.8195261075167
20
-4.24272025249454
30
0
41
1
10
69.8276815284999
20
-4.22952922302053
30
0
41
1
10
69.8451448574037
20
-4.20392248646078
30
0
41
1
10
69.8544547482055
20
-4.1915081017317
30
0
41
1
10
69.8691985600821
20
-4.17341061008722
30
0
41
1
10
69.87426026398
20
-4.16744755496151
30
0
41
1
10
69.8845339685279
20
-4.1558052315543
30
0
41
1
10
69.8956507566706
20
-4.14368830480319
30
0
41
1
10
69.9070869170779
20
-4.13215577489834
30
0
41
1
10
69.9132450727836
20
-4.12618677827209
30
0
0
SPLINE
5
F4
100
AcDbEntity
8
1
62
256
6
ByLayer
370
18
48
1
60
0
100
AcDbSpline
70
4
71
3
72
57
73
53
40
0
40
0
40
0
40
0
40
0.0625
40
0.0625
40
0.0937500000000002
40
0.0937500000000002
40
0.125
40
0.125
40
0.156250000000001
40
0.156250000000001
40
0.187500000000001
40
0.187500000000001
40
0.250000000000001
40
0.250000000000001
40
0.312500000000001
40
0.312500000000001
40
0.343750000000002
40
0.343750000000002
40
0.359375000000001
40
0.359375000000001
40
0.375000000000001
40
0.375000000000001
40
0.500000000000001
40
0.500000000000001
40
0.562500000000001
40
0.562500000000001
40
0.593750000000001
40
0.593750000000001
40
0.609375000000001
40
0.609375000000001
40
0.625000000000001
40
0.687500000000001
40
0.687500000000001
40
0.750000000000001
40
0.750000000000001
40
0.765625000000001
40
0.765625000000001
40
0.781250000000001
40
0.781250000000001
40
0.796875000000001
40
0.796875000000001
40
0.812500000000001
40
0.812500000000001
40
0.875000000000001
40
0.875000000000001
40
0.906250000000001
40
0.906250000000001
40
0.921875000000001
40
0.921875000000001
40
0.937500000000001
40
0.937500000000001
40
1
40
1
40
1
40
1
41
1
10
81.82
20
0.563406093080346
30
0
41
1
10
81.82
20
0.569220186629025
30
0
41
1
10
81.82
20
0.581677375340917
30
0
41
1
10
81.8199999999999
20
0.610758896886097
30
0
41
1
10
81.8199999999999
20
0.622197772961471
30
0
41
1
10
81.82
20
0.648649377871749
30
0
41
1
10
81.8199999999999
20
0.663514810084251
30
0
41
1
10
81.8199999999999
20
0.696448200450931
30
0
41
1
10
81.82
20
0.714527318704739
30
0
41
1
10
81.8199999999999
20
0.753910045949311
30
0
41
1
10
81.82
20
0.775013930592564
30
0
41
1
10
81.8200000000001
20
0.841849128809713
30
0
41
1
10
81.82
20
0.89116055160946
30
0
41
1
10
81.8199999999999
20
0.999361231276112
30
0
41
1
10
81.8200000000001
20
1.05825587272477
30
0
41
1
10
81.8200000000001
20
1.15390653343147
30
0
41
1
10
81.82
20
1.18701204772805
30
0
41
1
10
81.8200000000001
20
1.238533533527
30
0
41
1
10
81.8200000000001
20
1.25600769534449
30
0
41
1
10
81.8200000000001
20
1.29142766574813
30
0
41
1
10
81.8200000000001
20
1.30939071425163
30
0
41
1
10
81.8200000000001
20
1.4733186295428
30
0
41
1
10
81.8199999999999
20
1.63502190829325
30
0
41
1
10
81.8199999999999
20
1.90101185531091
30
0
41
1
10
81.8200000000001
20
1.99360315952867
30
0
41
1
10
81.8200000000001
20
2.13847409443949
30
0
41
1
10
81.82
20
2.18776237025762
30
0
41
1
10
81.82
20
2.26321905085268
30
0
41
1
10
81.82
20
2.28863670236711
30
0
41
1
10
81.82
20
2.33979361362253
30
0
41
1
10
81.82
20
2.46859843215947
30
0
41
1
10
81.8200000000001
20
2.60193972133075
30
0
41
1
10
81.8200000000001
20
2.82100292448189
30
0
41
1
10
81.8200000000001
20
2.93336796686262
30
0
41
1
10
81.8200000000001
20
3.07748970151002
30
0
41
1
10
81.8199999999999
20
3.10649953165878
30
0
41
1
10
81.82
20
3.1648312538066
30
0
41
1
10
81.8200000000001
20
3.19414881209511
30
0
41
1
10
81.8200000000001
20
3.25357321844717
30
0
41
1
10
81.82
20
3.2837478743082
30
0
41
1
10
81.8200000000001
20
3.34449735554935
30
0
41
1
10
81.82
20
3.37506216755722
30
0
41
1
10
81.82
20
3.528810743967
30
0
41
1
10
81.82
20
3.65475893382185
30
0
41
1
10
81.82
20
3.84804722936744
30
0
41
1
10
81.82
20
3.91320328256575
30
0
41
1
10
81.82
20
4.01206250931426
30
0
41
1
10
81.8199999999999
20
4.04527701290701
30
0
41
1
10
81.8199999999999
20
4.111718751073
30
0
41
1
10
81.8200000000001
20
4.14489153389562
30
0
41
1
10
81.8200000000001
20
4.31052040195996
30
0
41
1
10
81.82
20
4.44227572511301
30
0
41
1
10
81.82
20
4.57329081423711
30
0
0
SPLINE
5
F5
100
AcDbEntity
8
1
62
256
6
ByLayer
370
18
48
1
60
0
100
AcDbSpline
70
4
71
3
72
14
73
10
40
0
40
0
40
0
40
0
40
0.50000000000003
40
0.50000000000003
40
0.750000000000031
40
0.750000000000031
40
0.875000000000015
40
0.875000000000015
40
1
40
1
40
1
40
1
41
1
10
81.82
20
4.57329081423714
30
0
41
1
10
81.7218186665598
20
4.67495135315866
30
0
41
1
10
81.6227078593608
20
4.77615006696911
30
0
41
1
10
81.4726838033717
20
4.92770587825851
30
0
41
1
10
81.4224539935113
20
4.97818009754417
30
0
41
1
10
81.3467878417627
20
5.05387411539351
30
0
41
1
10
81.3215144952226
20
5.07910015875669
30
0
41
1
10
81.2708469954022
20
5.12957043847138
30
0
41
1
10
81.2454329223015
20
5.15483585256263
30
0
41
1
10
81.2200000649827
20
5.18007194461336
30
0
0
SPLINE
5
F6
100
AcDbEntity
8
1
62
256
6
ByLayer
370
18
48
1
60
0
100
AcDbSpline
70
4
71
3
72
8
73
4
40
0
40
0
40
0
40
0
40
1
40
1
40
1
40
1
41
1
10
81.2200000649826
20
5.18007194461288
30
0
41
1
10
81.0783046838643
20
5.2154671037751
30
0
41
1
10
80.9376602223675
20
5.24746449223019
30
0
41
1
10
80.7979897844633
20
5.27602018535305
30
0
0
SPLINE
5
F7
100
AcDbEntity
8
1
62
256
6
ByLayer
370
18
48
1
60
0
100
AcDbSpline
70
4
71
3
72
34
73
30
40
0
40
0
40
0
40
0
40
0.0625000000000542
40
0.0625000000000542
40
0.125000000000108
40
0.125000000000108
40
0.250000000000219
40
0.250000000000219
40
0.312500000000252
40
0.312500000000252
40
0.375000000000286
40
0.375000000000286
40
0.500000000000306
40
0.500000000000306
40
0.562500000000292
40
0.562500000000292
40
0.625000000000279
40
0.625000000000279
40
0.750000000000204
40
0.750000000000204
40
0.812500000000166
40
0.812500000000166
40
0.875000000000129
40
0.875000000000129
40
0.906250000000088
40
0.906250000000088
40
0.937500000000047
40
0.937500000000047
40
1
40
1
40
1
40
1
41
1
10
80.7979897844633
20
5.27602018535305
30
0
41
1
10
80.7903228241444
20
5.26734614071947
30
0
41
1
10
80.7822758710335
20
5.25916253537559
30
0
41
1
10
80.7654698269579
20
5.24371236414729
30
0
41
1
10
80.7566756739893
20
5.23642119540582
30
0
41
1
10
80.7295333169744
20
5.21608975058362
30
0
41
1
10
80.7105000970672
20
5.20459555448022
30
0
41
1
10
80.6806702414632
20
5.1902118358839
30
0
41
1
10
80.6705116578556
20
5.18589831049354
30
0
41
1
10
80.6497640643351
20
5.17824774901857
30
0
41
1
10
80.6391704886043
20
5.17491509433236
30
0
41
1
10
80.6072436398642
20
5.16655850916621
30
0
41
1
10
80.5856047691095
20
5.16309080810461
30
0
41
1
10
80.5526356345046
20
5.16124378388815
30
0
41
1
10
80.54156014463
20
5.16119160024849
30
0
41
1
10
80.5192319135662
20
5.16231498220299
30
0
41
1
10
80.5079250070773
20
5.16349962598096
30
0
41
1
10
80.4741263655079
20
5.16907277067281
30
0
41
1
10
80.4519353599028
20
5.17538241208308
30
0
41
1
10
80.4193358708169
20
5.18961845871422
30
0
41
1
10
80.4085133319495
20
5.19521748922557
30
0
41
1
10
80.3876340063813
20
5.20803074957604
30
0
41
1
10
80.3775564436299
20
5.21523885377951
30
0
41
1
10
80.3630550853532
20
5.22740520173542
30
0
41
1
10
80.3583241855163
20
5.23168725257321
30
0
41
1
10
80.3490864014999
20
5.24074439035883
30
0
41
1
10
80.3445633370669
20
5.24553958016676
30
0
41
1
10
80.3315449824588
20
5.26052998684006
30
0
41
1
10
80.3235622909299
20
5.27134724313319
30
0
41
1
10
80.3163594645524
20
5.28309021128075
30
0
0
SPLINE
5
F8
100
AcDbEntity
8
1
62
256
6
ByLayer
370
18
48
1
60
0
100
AcDbSpline
70
4
71
3
72
8
73
4
40
0
40
0
40
0
40
0
40
1
40
1
40
1
40
1
41
1
10
80.3163594645524
20
5.28309021128075
30
0
41
1
10
80.2987220772293
20
5.31184493431402
30
0
41
1
10
80.2811001399081
20
5.34051668632517
30
0
41
1
10
80.2634928803658
20
5.36910571232403
30
0
0
SPLINE
5
F9
100
AcDbEntity
8
1
62
256
6
ByLayer
370
18
48
1
60
0
100
AcDbSpline
70
4
71
3
72
10
73
6
40
0
40
0
40
0
40
0
40
0.5
40
0.5
40
1
40
1
40
1
40
1
41
1
10
80.2634928803657
20
5.36910571232403
30
0
41
1
10
80.0547089075924
20
5.3990002427264
30
0
41
1
10
79.8474923151894
20
5.4209824790149
30
0
41
1
10
79.4360005649226
20
5.44829982449244
30
0
41
1
10
79.2316445946357
20
5.45363490004093
30
0
41
1
10
79.0281608910253
20
5.45045693273005
30
0
0
SPLINE
5
FA
100
AcDbEntity
8
1
62
256
6
ByLayer
370
18
48
1
60
0
100
AcDbSpline
70
4
71
3
72
8
73
4
40
0
40
0
40
0
40
0
40
1
40
1
40
1
40
1
41
1
10
79.0281608910252
20
5.45045693273005
30
0
41
1
10
78.9457999484098
20
5.29121178967867
30
0
41
1
10
78.8630827352383
20
5.13020555751464
30
0
41
1
10
78.7798738122628
20
4.96746524081692
30
0
0
SPLINE
5
FB
100
AcDbEntity
8
1
62
256
6
ByLayer
370
18
48
1
60
0
100
AcDbSpline
70
4
71
3
72
34
73
30
40
0
40
0
40
0
40
0
40
0.124999999999936
40
0.124999999999936
40
0.187499999999904
40
0.187499999999904
40
0.249999999999872
40
0.249999999999872
40
0.374999999999807
40
0.374999999999807
40
0.437499999999796
40
0.437499999999796
40
0.499999999999785
40
0.499999999999785
40
0.624999999999805
40
0.624999999999805
40
0.687499999999838
40
0.687499999999838
40
0.74999999999987
40
0.74999999999987
40
0.812499999999902
40
0.812499999999902
40
0.874999999999935
40
0.874999999999935
40
0.906249999999951
40
0.906249999999951
40
0.937499999999967
40
0.937499999999967
40
1
40
1
40
1
40
1
41
1
10
78.7798738122628
20
4.96746524081692
30
0
41
1
10
78.7660128471221
20
4.94035591436383
30
0
41
1
10
78.7499212225355
20
4.91569489994473
30
0
41
1
10
78.7231707070519
20
4.88154312252891
30
0
41
1
10
78.7138090764778
20
4.87064321846202
30
0
41
1
10
78.6942367815898
20
4.84976728284261
30
0
41
1
10
78.6841188408413
20
4.83989300343282
30
0
41
1
10
78.6529944060642
20
4.81199193803832
30
0
41
1
10
78.6311604824964
20
4.79559480356815
30
0
41
1
10
78.5968542747139
20
4.77423248921909
30
0
41
1
10
78.5851524053586
20
4.76766172111843
30
0
41
1
10
78.5616314315436
20
4.75584934421431
30
0
41
1
10
78.5497629372986
20
4.75057488301221
30
0
41
1
10
78.5138444751516
20
4.736676334527
30
0
41
1
10
78.4894865237587
20
4.72993925667413
30
0
41
1
10
78.4522977787258
20
4.72430308764626
30
0
41
1
10
78.4397825209861
20
4.72319001220998
30
0
41
1
10
78.4151184338247
20
4.72269575829367
30
0
41
1
10
78.4028985719242
20
4.72329929513401
30
0
41
1
10
78.3787224948704
20
4.72640501126449
30
0
41
1
10
78.366732827023
20
4.72891444230524
30
0
41
1
10
78.3432187629588
20
4.73614659080488
30
0
41
1
10
78.3318901414219
20
4.74080438585904
30
0
41
1
10
78.3156228310188
20
4.74954084835312
30
0
41
1
10
78.3103218360965
20
4.75274593303016
30
0
41
1
10
78.2999847832088
20
4.75979420555504
30
0
41
1
10
78.294931305238
20
4.76365245829192
30
0
41
1
10
78.2803380802487
20
4.77618421811994
30
0
41
1
10
78.2714476135687
20
4.78571818315092
30
0
41
1
10
78.2635039198196
20
4.79659059731364
30
0
0
SPLINE
5
FC
100
AcDbEntity
8
1
62
256
6
ByLayer
370
18
48
1
60
0
100
AcDbSpline
70
4
71
3
72
10
73
6
40
0
40
0
40
0
40
0
40
0.5
40
0.5
40
1
40
1
40
1
40
1
41
1
10
78.2635039198196
20
4.79659059731364
30
0
41
1
10
78.194519296918
20
4.89100881316239
30
0
41
1
10
78.1257630070206
20
4.98309324008594
30
0
41
1
10
77.9886870769387
20
5.16256466710348
30
0
41
1
10
77.9204114505897
20
5.2498942258932
30
0
41
1
10
77.8524263669514
20
5.33473058174476
30
0
0
SPLINE
5
FD
100
AcDbEntity
8
1
62
256
6
ByLayer
370
18
48
1
60
0
100
AcDbSpline
70
4
71
3
72
8
73
4
40
0
40
0
40
0
40
0
40
1
40
1
40
1
40
1
41
1
10
77.8524263669514
20
5.33473058174474
30
0
41
1
10
77.649727286958
20
5.29754220619935
30
0
41
1
10
77.4494332769498
20
5.25156464635467
30
0
41
1
10
77.251033214699
20
5.19704143093276
30
0
0
SPLINE
5
FE
100
AcDbEntity
8
1
62
256
6
ByLayer
370
18
48
1
60
0
100
AcDbSpline
70
4
71
3
72
12
73
8
40
0
40
0
40
0
40
0
40
0.250000000000004
40
0.250000000000004
40
0.500000000000009
40
0.500000000000009
40
1
40
1
40
1
40
1
41
1
10
77.251033214699
20
5.19704143093273
30
0
41
1
10
77.2078186682775
20
5.10703036457593
30
0
41
1
10
77.1644918625827
20
5.0168843910709
30
0
41
1
10
77.0775785655085
20
4.83633587497474
30
0
41
1
10
77.0339879646653
20
4.74592490917018
30
0
41
1
10
76.903002306235
20
4.4748048239577
30
0
41
1
10
76.8153207750773
20
4.29405086426314
30
0
41
1
10
76.7270889228999
20
4.1133808940242
30
0
0
SPLINE
5
FF
100
AcDbEntity
8
1
62
256
6
ByLayer
370
18
48
1
60
0
100
AcDbSpline
70
4
71
3
72
34
73
30
40
0
40
0
40
0
40
0
40
0.125000000000008
40
0.125000000000008
40
0.187499999999996
40
0.187499999999996
40
0.249999999999983
40
0.249999999999983
40
0.374999999999958
40
0.374999999999958
40
0.437499999999946
40
0.437499999999946
40
0.499999999999933
40
0.499999999999933
40
0.62499999999995
40
0.62499999999995
40
0.687499999999958
40
0.687499999999958
40
0.749999999999967
40
0.749999999999967
40
0.812499999999975
40
0.812499999999975
40
0.874999999999983
40
0.874999999999983
40
0.906249999999987
40
0.906249999999987
40
0.937499999999992
40
0.937499999999992
40
1
40
1
40
1
40
1
41
1
10
69.1997683683583
20
5.17914785585123
30
0
41
1
10
69.1858845607189
20
5.16168101998474
30
0
41
1
10
69.1697626674973
20
5.14730964251027
30
0
41
1
10
69.1429613447183
20
5.12931785904053
30
0
41
1
10
69.1335818134846
20
5.12392887278125
30
0
41
1
10
69.1139722952302
20
5.11431181830497
30
0
41
1
10
69.1038344853271
20
5.11013156825848
30
0
41
1
10
69.0726547595474
20
5.09941295526028
30
0
41
1
10
69.0507870540564
20
5.09463872192782
30
0
41
1
10
69.0164383575823
20
5.09098265428972
30
0
41
1
10
69.0047279556853
20
5.09036166250698
30
0
41
1
10
68.9811930074185
20
5.09034221780405
30
0
41
1
10
68.9693190019288
20
5.09093681030268
30
0
41
1
10
68.9333883489103
20
5.09457341606782
30
0
41
1
10
68.9090277922273
20
5.09943107675608
30
0
41
1
10
68.8718465858684
20
5.11107418517798
30
0
41
1
10
68.8593485799884
20
5.11570054254702
30
0
41
1
10
68.8347204062491
20
5.12637475518508
30
0
41
1
10
68.8225196183903
20
5.13244107241886
30
0
41
1
10
68.7983838499759
20
5.14620991809193
30
0
41
1
10
68.7864120302806
20
5.15393681453622
30
0
41
1
10
68.7629509274943
20
5.17122813796124
30
0
41
1
10
68.7516476752673
20
5.18065048035047
30
0
41
1
10
68.735416220847
20
5.19609228900433
30
0
41
1
10
68.7301268088596
20
5.20145855736178
30
0
41
1
10
68.7198120456483
20
5.21266834576829
30
0
41
1
10
68.7147695841479
20
5.21853338262486
30
0
41
1
10
68.7002052173914
20
5.23677089806179
30
0
41
1
10
68.6913293876173
20
5.24965808416957
30
0
41
1
10
68.6833957852031
20
5.26337040279159
30
0
0
SPLINE
5
100
100
AcDbEntity
8
1
62
256
6
ByLayer
370
18
48
1
60
0
100
AcDbSpline
70
4
71
3
72
12
73
8
40
0
40
0
40
0
40
0
40
0.5
40
0.5
40
0.75
40
0.75
40
1
40
1
40
1
40
1
41
1
10
68.6833957852031
20
5.26337040279159
30
0
41
1
10
68.5739389626039
20
5.45255392226628
30
0
41
1
10
68.4650351971413
20
5.64142178882142
30
0
41
1
10
68.3027130666013
20
5.92321864061663
30
0
41
1
10
68.2487679768439
20
6.01691595804886
30
0
41
1
10
68.1413261357753
20
6.20350148630618
30
0
41
1
10
68.0878060424863
20
6.29643019407001
30
0
41
1
10
68.0344555682829
20
6.38898532714211
30
0
0
SPLINE
5
101
100
AcDbEntity
8
1
62
256
6
ByLayer
370
18
48
1
60
0
100
AcDbSpline
70
4
71
3
72
10
73
6
40
0
40
0
40
0
40
0
40
0.5
40
0.5
40
1
40
1
40
1
40
1
41
1
10
67.8248261992557
20
6.4072202110205
30
0
41
1
10
67.713295674424
20
6.23809799488149
30
0
41
1
10
67.6011608348571
20
6.0622259843411
30
0
41
1
10
67.3750093950429
20
5.6968288622115
30
0
41
1
10
67.2613447905064
20
5.50795046464611
30
0
41
1
10
67.1467622120711
20
5.31295423519538
30
0
0
SPLINE
5
102
100
AcDbEntity
8
1
62
256
6
ByLayer
370
18
48
1
60
0
100
AcDbSpline
70
4
71
3
72
34
73
30
40
0
40
0
40
0
40
0
40
0.125000000000026
40
0.125000000000026
40
0.187500000000022
40
0.187500000000022
40
0.250000000000019
40
0.250000000000019
40
0.374999999999974
40
0.374999999999974
40
0.437499999999952
40
0.437499999999952
40
0.49999999999993
40
0.49999999999993
40
0.624999999999929
40
0.624999999999929
40
0.687499999999928
40
0.687499999999928
40
0.749999999999928
40
0.749999999999928
40
0.812499999999927
40
0.812499999999927
40
0.874999999999926
40
0.874999999999926
40
0.906249999999945
40
0.906249999999945
40
0.937499999999964
40
0.937499999999964
40
1
40
1
40
1
40
1
41
1
10
67.1467622120711
20
5.31295423519543
30
0
41
1
10
67.1328920321076
20
5.28935001165985
30
0
41
1
10
67.1167867057577
20
5.26863278688151
30
0
41
1
10
67.0900129354268
20
5.24089179510295
30
0
41
1
10
67.0806430741693
20
5.23221350135762
30
0
41
1
10
67.061053898667
20
5.21594204828028
30
0
41
1
10
67.0509268433168
20
5.20842837561162
30
0
41
1
10
67.0197777080368
20
5.18774061083636
30
0
41
1
10
66.997929465904
20
5.17633963352299
30
0
41
1
10
66.9636072353937
20
5.1627586367708
30
0
41
1
10
66.951902883246
20
5.15883173673413
30
0
41
1
10
66.9283785257439
20
5.1523167074705
30
0
41
1
10
66.916509106763
20
5.14970704526121
30
0
41
1
10
66.8805899298467
20
5.14385802916746
30
0
41
1
10
66.85623401146
20
5.14255945782691
30
0
41
1
10
66.8190541884608
20
5.14523662925669
30
0
41
1
10
66.8065479821299
20
5.14692244557384
30
0
41
1
10
66.781903324119
20
5.15195333755634
30
0
41
1
10
66.7696938935997
20
5.15529920817409
30
0
41
1
10
66.7455400795244
20
5.16384845627888
30
0
41
1
10
66.7335613736826
20
5.16906712319278
30
0
41
1
10
66.7100741979976
20
5.18163866462587
30
0
41
1
10
66.69875850697
20
5.18888343428023
30
0
41
1
10
66.6825094191205
20
5.20136313894056
30
0
41
1
10
66.6772143010967
20
5.20579298663949
30
0
41
1
10
66.6668885088857
20
5.21524078954047
30
0
41
1
10
66.6618407583367
20
5.22027752173079
30
0
41
1
10
66.647260638897
20
5.23623516448899
30
0
41
1
10
66.6383764188224
20
5.24788458740025
30
0
41
1
10
66.630436434039
20
5.26068050189011
30
0
0
SPLINE
5
103
100
AcDbEntity
8
1
62
256
6
ByLayer
370
18
48
1
60
0
100
AcDbSpline
70
4
71
3
72
12
73
8
40
0
40
0
40
0
40
0
40
0.499999999999999
40
0.499999999999999
40
0.75
40
0.75
40
1
40
1
40
1
40
1
41
1
10
66.6304364340376
20
5.26068050188914
30
0
41
1
10
66.5208416922749
20
5.43730111041566
30
0
41
1
10
66.4117949208069
20
5.61053456862876
30
0
41
1
10
66.2492630089848
20
5.86457187610176
30
0
41
1
10
66.1952489619238
20
5.94829568357767
30
0
41
1
10
66.0876731307418
20
6.11356254167046
30
0
41
1
10
66.0340878849493
20
6.19514237086639
30
0
41
1
10
65.9806747940266
20
6.27567397406597
30
0
0
SPLINE
5
104
100
AcDbEntity
8
1
62
256
6
ByLayer
370
18
48
1
60
0
100
AcDbSpline
70
4
71
3
72
8
73
4
40
0
40
0
40
0
40
0
40
1
40
1
40
1
40
1
41
1
10
65.7723174992001
20
6.22811779514393
30
0
41
1
10
65.8417897525741
20
6.24506310729373
30
0
41
1
10
65.9112359943237
20
6.2609159436058
30
0
41
1
10
65.9806747940266
20
6.275673974066
30
0
0
SPLINE
5
105
100
AcDbEntity
8
1
62
256
6
ByLayer
370
18
48
1
60
0
100
AcDbSpline
70
4
71
3
72
10
73
6
40
0
40
0
40
0
40
0
40
0.5
40
0.5
40
1
40
1
40
1
40
1
41
1
10
65.7723174992007
20
6.22811779513705
30
0
41
1
10
65.6608263057489
20
6.01591548547094
30
0
41
1
10
65.5486974273845
20
5.79985127448316
30
0
41
1
10
65.3224239882555
20
5.36015467615005
30
0
41
1
10
65.2086474268351
20
5.13724671617609
30
0
41
1
10
65.0939225447343
20
4.91138355319777
30
0
0
SPLINE
5
106
100
AcDbEntity
8
1
62
256
6
ByLayer
370
18
48
1
60
0
100
AcDbSpline
70
4
71
3
72
34
73
30
40
0
40
0
40
0
40
0
40
0.124999999999933
40
0.124999999999933
40
0.187499999999915
40
0.187499999999915
40
0.249999999999897
40
0.249999999999897
40
0.374999999999863
40
0.374999999999863
40
0.437499999999846
40
0.437499999999846
40
0.49999999999983
40
0.49999999999983
40
0.624999999999839
40
0.624999999999839
40
0.687499999999865
40
0.687499999999865
40
0.749999999999892
40
0.749999999999892
40
0.812499999999919
40
0.812499999999919
40
0.874999999999945
40
0.874999999999945
40
0.906249999999958
40
0.906249999999958
40
0.937499999999972
40
0.937499999999972
40
1
40
1
40
1
40
1
41
1
10
65.0939225447343
20
4.91138355319774
30
0
41
1
10
65.0800422183734
20
4.88405683594499
30
0
41
1
10
65.0639235837008
20
4.85913628883173
30
0
41
1
10
65.037126727707
20
4.82454501279233
30
0
41
1
10
65.0277486156813
20
4.81349007343184
30
0
41
1
10
65.0081417980595
20
4.7922875358793
30
0
41
1
10
64.9980051470527
20
4.78224248371427
30
0
41
1
10
64.9668289117766
20
4.75381707051008
30
0
41
1
10
64.9449633189331
20
4.73705019941298
30
0
41
1
10
64.9106178934474
20
4.71509687754684
30
0
41
1
10
64.8989086608109
20
4.70832543615219
30
0
41
1
10
64.8753760587037
20
4.69610359497267
30
0
41
1
10
64.863503245588
20
4.69061969657128
30
0
41
1
10
64.8275762632061
20
4.67607691047192
30
0
41
1
10
64.803218277221
20
4.66888971753227
30
0
41
1
10
64.7660412486521
20
4.66253334880554
30
0
41
1
10
64.7535448700449
20
4.6611738992508
30
0
41
1
10
64.7289196869751
20
4.66017529870166
30
0
41
1
10
64.7167203166509
20
4.66052015972005
30
0
41
1
10
64.6925872225992
20
4.66309288657843
30
0
41
1
10
64.6806166900814
20
4.66532825238957
30
0
41
1
10
64.6571578446158
20
4.67199156904388
30
0
41
1
10
64.6458555535517
20
4.67636125059323
30
0
41
1
10
64.6296252880386
20
4.68465933330162
30
0
41
1
10
64.6243362299006
20
4.6877172512273
30
0
41
1
10
64.6140220843691
20
4.69446890092232
30
0
41
1
10
64.6089799070982
20
4.69817690078102
30
0
41
1
10
64.5944160510921
20
4.71026004332518
30
0
41
1
10
64.5855403287798
20
4.71949974325352
30
0
41
1
10
64.5776065737318
20
4.73008481598083
30
0
0
SPLINE
5
107
100
AcDbEntity
8
1
62
256
6
ByLayer
370
18
48
1
60
0
100
AcDbSpline
70
4
71
3
72
12
73
8
40
0
40
0
40
0
40
0
40
0.500000000000008
40
0.500000000000008
40
0.750000000000004
40
0.750000000000004
40
1
40
1
40
1
40
1
41
1
10
64.5776065737318
20
4.73008481598083
30
0
41
1
10
64.4680933889605
20
4.87619532965329
30
0
41
1
10
64.3591324525675
20
5.01620146601911
30
0
41
1
10
64.1967229270417
20
5.21669944950969
30
0
41
1
10
64.1427485099924
20
5.28195716749818
30
0
41
1
10
64.0352474129006
20
5.40914746480337
30
0
41
1
10
63.9816973423107
20
5.47110917321564
30
0
41
1
10
63.928316577296
20
5.53145473175312
30
0
0
SPLINE
5
108
100
AcDbEntity
8
1
62
256
6
ByLayer
370
18
48
1
60
0
100
AcDbSpline
70
4
71
3
72
8
73
4
40
0
40
0
40
0
40
0
40
1
40
1
40
1
40
1
41
1
10
63.7198170663601
20
5.42294571372872
30
0
41
1
10
63.789349014342
20
5.46008488456167
30
0
41
1
10
63.8588425451292
20
5.49625702946062
30
0
41
1
10
63.928316577296
20
5.53145473175312
30
0
0
SPLINE
5
109
100
AcDbEntity
8
1
62
256
6
ByLayer
370
18
48
1
60
0
100
AcDbSpline
70
4
71
3
72
8
73
4
40
0
40
0
40
0
40
0
40
1
40
1
40
1
40
1
41
1
10
63.7198170663605
20
5.42294571372267
30
0
41
1
10
63.645087772709
20
5.26652469816102
30
0
41
1
10
63.570062391571
20
5.10980638475178
30
0
41
1
10
63.4946384368008
20
4.9528297398661
30
0
0
SPLINE
5
10A
100
AcDbEntity
8
1
62
256
6
ByLayer
370
18
48
1
60
0
100
AcDbSpline
70
4
71
3
72
8
73
4
40
0
40
0
40
0
40
0
40
1
40
1
40
1
40
1
41
1
10
63.4946384368007
20
4.9528297398661
30
0
41
1
10
63.3692553998731
20
4.67755361339434
30
0
41
1
10
63.2432620202334
20
4.40240771695565
30
0
41
1
10
63.1162875431024
20
4.12755721753726
30
0
0
SPLINE
5
10B
100
AcDbEntity
8
1
62
256
6
ByLayer
370
18
48
1
60
0
100
AcDbSpline
70
4
71
3
72
36
73
32
40
0
40
0
40
0
40
0
40
0.0624999999999866
40
0.0624999999999866
40
0.124999999999973
40
0.124999999999973
40
0.18749999999996
40
0.18749999999996
40
0.249999999999946
40
0.249999999999946
40
0.312499999999933
40
0.312499999999933
40
0.374999999999919
40
0.374999999999919
40
0.499999999999892
40
0.499999999999892
40
0.562499999999879
40
0.562499999999879
40
0.624999999999865
40
0.624999999999865
40
0.749999999999882
40
0.749999999999882
40
0.781249999999897
40
0.781249999999897
40
0.812499999999912
40
0.812499999999912
40
0.874999999999941
40
0.874999999999941
40
0.937499999999971
40
0.937499999999971
40
1
40
1
40
1
40
1
41
1
10
69.1276661819683
20
-0.0846579224593142
30
0
41
1
10
69.135147115966
20
-0.0908958805234192
30
0
41
1
10
69.1433167561318
20
-0.097653276900644
30
0
41
1
10
69.1608076111531
20
-0.112025992488412
30
0
41
1
10
69.1701308418652
20
-0.119643251310151
30
0
41
1
10
69.189812946539
20
-0.135649631449098
30
0
41
1
10
69.2001844220824
20
-0.144048495763059
30
0
41
1
10
69.2213522961335
20
-0.161136789722775
30
0
41
1
10
69.2322135227827
20
-0.169879094645637
30
0
41
1
10
69.2544304084434
20
-0.187728018188466
30
0
41
1
10
69.2657864156375
20
-0.196834861705753
30
0
41
1
10
69.2889608288361
20
-0.215404014132417
30
0
41
1
10
69.3008302506131
20
-0.224906898050165
30
0
41
1
10
69.3365284842081
20
-0.25349336506423
30
0
41
1
10
69.3605562461709
20
-0.272741829844989
30
0
41
1
10
69.3968605144153
20
-0.301970580317857
30
0
41
1
10
69.4090469404787
20
-0.311806382464539
30
0
41
1
10
69.4333138851277
20
-0.331465795836124
30
0
41
1
10
69.4453151945123
20
-0.341225133268551
30
0
41
1
10
69.4809067142186
20
-0.370310638771514
30
0
41
1
10
69.5040925010297
20
-0.389447585460232
30
0
41
1
10
69.5322461938888
20
-0.413066208821675
30
0
41
1
10
69.537834896669
20
-0.417774489498044
30
0
41
1
10
69.5489214596527
20
-0.427159066800129
30
0
41
1
10
69.5544281637031
20
-0.431843077294218
30
0
41
1
10
69.5705932839936
20
-0.445667327801658
30
0
41
1
10
69.5809635068615
20
-0.454635825549673
30
0
41
1
10
69.6008078255007
20
-0.47203150614601
30
0
41
1
10
69.6102831825813
20
-0.48045959574074
30
0
41
1
10
69.6281862765679
20
-0.496677917608508
30
0
41
1
10
69.6365617784407
20
-0.504422466501325
30
0
41
1
10
69.6441122640767
20
-0.511591033224363
30
0
0
SPLINE
5
10C
100
AcDbEntity
8
1
62
256
6
ByLayer
370
18
48
1
60
0
100
AcDbSpline
70
4
71
3
72
12
73
8
40
0
40
0
40
0
40
0
40
0.249999999999996
40
0.249999999999996
40
0.499999999999992
40
0.499999999999992
40
1
40
1
40
1
40
1
41
1
10
69.6441122640767
20
-0.511591033224363
30
0
41
1
10
69.700239458674
20
-0.564879200216609
30
0
41
1
10
69.7561495128193
20
-0.620204793190851
30
0
41
1
10
69.8674757861638
20
-0.734811773774595
30
0
41
1
10
69.9229063009476
20
-0.794112555920691
30
0
41
1
10
70.0886114468398
20
-0.97790651190698
30
0
41
1
10
70.1979953970671
20
-1.10794592553881
30
0
41
1
10
70.3066031817091
20
-1.24524193589258
30
0
0
SPLINE
5
10D
100
AcDbEntity
8
1
62
256
6
ByLayer
370
18
48
1
60
0
100
AcDbSpline
70
4
71
3
72
10
73
6
40
0
40
0
40
0
40
0
40
0.5
40
0.5
40
1
40
1
40
1
40
1
41
1
10
70.5142006390132
20
-1.44672142308752
30
0
41
1
10
70.623292882218
20
-1.51500820672305
30
0
41
1
10
70.7332443969195
20
-1.57419728892663
30
0
41
1
10
70.9554479676538
20
-1.67396882328856
30
0
41
1
10
71.0673383787563
20
-1.71445789864842
30
0
41
1
10
71.1803808263854
20
-1.74517404705543
30
0
0
SPLINE
5
10E
100
AcDbEntity
8
1
62
256
6
ByLayer
370
18
48
1
60
0
100
AcDbSpline
70
4
71
3
72
34
73
30
40
0
40
0
40
0
40
0
40
0.0625000000000126
40
0.0625000000000126
40
0.125000000000025
40
0.125000000000025
40
0.156250000000031
40
0.156250000000031
40
0.187500000000037
40
0.250000000000048
40
0.312500000000058
40
0.312500000000058
40
0.375000000000069
40
0.375000000000069
40
0.500000000000088
40
0.500000000000088
40
0.562500000000076
40
0.562500000000076
40
0.625000000000065
40
0.625000000000065
40
0.750000000000042
40
0.750000000000042
40
0.812500000000032
40
0.812500000000032
40
0.875000000000021
40
0.875000000000021
40
0.937500000000011
40
0.937500000000011
40
1
40
1
40
1
40
1
41
1
10
71.1803808263854
20
-1.74517404705546
30
0
41
1
10
71.1878684730279
20
-1.74720860726103
30
0
41
1
10
71.196047039423
20
-1.75003914451722
30
0
41
1
10
71.2135597329297
20
-1.75701911474951
30
0
41
1
10
71.2228958899842
20
-1.76117132667099
30
0
41
1
10
71.2376799153079
20
-1.76828959025005
30
0
41
1
10
71.2427554003262
20
-1.77082031604624
30
0
41
1
10
71.2530591145792
20
-1.77611890216133
30
0
41
1
10
71.2687413011892
20
-1.78441963952335
30
0
41
1
10
71.2959213855413
20
-1.7998867741743
30
0
41
1
10
71.3186590130474
20
-1.81384536467749
30
0
41
1
10
71.3418611655889
20
-1.82856523754475
30
0
41
1
10
71.3537415807351
20
-1.83633874174606
30
0
41
1
10
71.389451407547
20
-1.86039204805616
30
0
41
1
10
71.4134888462108
20
-1.87747647569864
30
0
41
1
10
71.4498097046446
20
-1.90468927945014
30
0
41
1
10
71.4620100960566
20
-1.91406610892986
30
0
41
1
10
71.4862543429279
20
-1.93320194358307
30
0
41
1
10
71.4982456326749
20
-1.94291729501211
30
0
41
1
10
71.5338103134676
20
-1.97252485283931
30
0
41
1
10
71.5569826804558
20
-1.99286934284748
30
0
41
1
10
71.5907523583206
20
-2.02450282705618
30
0
41
1
10
71.6019116048537
20
-2.03530640021697
30
0
41
1
10
71.6234122798342
20
-2.05692539096594
30
0
41
1
10
71.6337602802318
20
-2.06774082290247
30
0
41
1
10
71.6535680693289
20
-2.08938752455023
30
0
41
1
10
71.6630291269518
20
-2.10021886252883
30
0
41
1
10
71.6809113123574
20
-2.12189678758378
30
0
41
1
10
71.6892625278118
20
-2.13266467114244
30
0
41
1
10
71.696799769104
20
-2.14317648105745
30
0
0
SPLINE
5
10F
100
AcDbEntity
8
1
62
256
6
ByLayer
370
18
48
1
60
0
100
AcDbSpline
70
4
71
3
72
12
73
8
40
0
40
0
40
0
40
0
40
0.25
40
0.25
40
0.5
40
0.5
40
1
40
1
40
1
40
1
41
1
10
71.696799769104
20
-2.14317648105745
30
0
41
1
10
71.7528637761891
20
-2.22136612136589
30
0
41
1
10
71.8087083411407
20
-2.30116136421165
30
0
41
1
10
71.9199050343681
20
-2.46375059863647
30
0
41
1
10
71.975270671944
20
-2.54656927746447
30
0
41
1
10
72.1408020107008
20
-2.79949121108922
30
0
41
1
10
72.2501005623492
20
-2.9735762660311
30
0
41
1
10
72.3586352220482
20
-3.15286330516454
30
0
0
SPLINE
5
110
100
AcDbEntity
8
1
62
256
6
ByLayer
370
18
48
1
60
0
100
AcDbSpline
70
4
71
3
72
10
73
6
40
0
40
0
40
0
40
0
40
0.5
40
0.5
40
1
40
1
40
1
40
1
41
1
10
72.5677805967551
20
-3.33207879418586
30
0
41
1
10
72.6767527237566
20
-3.33400753585087
30
0
41
1
10
72.7865632447678
20
-3.32660510970098
30
0
41
1
10
73.0084599543608
20
-3.29285080614949
30
0
41
1
10
73.1201847448993
20
-3.266611118616
30
0
41
1
10
73.2330610959262
20
-3.23069489895016
30
0
0
SPLINE
5
111
100
AcDbEntity
8
1
62
256
6
ByLayer
370
18
48
1
60
0
100
AcDbSpline
70
4
71
3
72
35
73
31
40
0
40
0
40
0
40
0
40
0.0625000000000325
40
0.0625000000000325
40
0.125000000000065
40
0.125000000000065
40
0.156250000000062
40
0.156250000000062
40
0.18750000000006
40
0.250000000000052
40
0.250000000000052
40
0.312500000000044
40
0.312500000000044
40
0.375000000000035
40
0.375000000000035
40
0.500000000000019
40
0.500000000000019
40
0.56250000000001
40
0.56250000000001
40
0.625000000000002
40
0.625000000000002
40
0.750000000000028
40
0.750000000000028
40
0.812500000000021
40
0.812500000000021
40
0.875000000000014
40
0.875000000000014
40
0.937500000000007
40
0.937500000000007
40
1
40
1
40
1
40
1
41
1
10
73.2330610959262
20
-3.23069489895019
30
0
41
1
10
73.2405487132821
20
-3.22831240777927
30
0
41
1
10
73.2487280867942
20
-3.22692063465058
30
0
41
1
10
73.2662440323305
20
-3.22578165175708
30
0
41
1
10
73.2755826428666
20
-3.22603776078034
30
0
41
1
10
73.2903716887479
20
-3.22753167991735
30
0
41
1
10
73.2954490808932
20
-3.22821876982675
30
0
41
1
10
73.3057541034963
20
-3.22993485052871
30
0
41
1
10
73.3214388073536
20
-3.2330188592407
30
0
41
1
10
73.3377511801585
20
-3.23751780782973
30
0
41
1
10
73.3599986868467
20
-3.24465622794531
30
0
41
1
10
73.3713715555442
20
-3.24879619977838
30
0
41
1
10
73.3945832563659
20
-3.25816731143675
30
0
41
1
10
73.4064676178117
20
-3.26342305999429
30
0
41
1
10
73.4421836268577
20
-3.28052136746516
30
0
41
1
10
73.4662263430582
20
-3.29372412520263
30
0
41
1
10
73.5025547357797
20
-3.31618933552008
30
0
41
1
10
73.5147594256496
20
-3.32416139395215
30
0
41
1
10
73.5389979507718
20
-3.34087646958329
30
0
41
1
10
73.5509865993934
20
-3.34958418568792
30
0
41
1
10
73.5865438172615
20
-3.37677541403025
30
0
41
1
10
73.6097119306463
20
-3.39630633353681
30
0
41
1
10
73.6434789613214
20
-3.42808226245114
30
0
41
1
10
73.6546371411231
20
-3.43916702784548
30
0
41
1
10
73.6761253916889
20
-3.46184217461723
30
0
41
1
10
73.6864689899518
20
-3.47343555192756
30
0
41
1
10
73.7062715557768
20
-3.49718790320975
30
0
41
1
10
73.715731796873
20
-3.50934608678276
30
0
41
1
10
73.7336157810046
20
-3.53432423503227
30
0
41
1
10
73.7419633854944
20
-3.54704733679154
30
0
41
1
10
73.7495008963486
20
-3.55985406471004
30
0
0
SPLINE
5
112
100
AcDbEntity
8
1
62
256
6
ByLayer
370
18
48
1
60
0
100
AcDbSpline
70
4
71
3
72
12
73
8
40
0
40
0
40
0
40
0
40
0.25
40
0.25
40
0.500000000000001
40
0.500000000000001
40
1
40
1
40
1
40
1
41
1
10
73.7495008963486
20
-3.55985406471001
30
0
41
1
10
73.8056669900709
20
-3.65528396119228
30
0
41
1
10
73.8616118304063
20
-3.75169974793101
30
0
41
1
10
73.9730001441073
20
-3.94624528728033
30
0
41
1
10
74.0284566330907
20
-4.04440350852474
30
0
41
1
10
74.1942372225024
20
-4.34144034919441
30
0
41
1
10
74.3036721787576
20
-4.54232147364391
30
0
41
1
10
74.4123207764817
20
-4.74582448014672
30
0
0
SPLINE
5
113
100
AcDbEntity
8
1
62
256
6
ByLayer
370
18
48
1
60
0
100
AcDbSpline
70
4
71
3
72
10
73
6
40
0
40
0
40
0
40
0
40
0.5
40
0.5
40
1
40
1
40
1
40
1
41
1
10
74.6205412645314
20
-4.88264857920905
30
0
41
1
10
74.7295113307466
20
-4.81836635816336
30
0
41
1
10
74.8393246320651
20
-4.74546685086753
30
0
41
1
10
75.0612138335455
20
-4.58229563386283
30
0
41
1
10
75.1729289915303
20
-4.49232969046719
30
0
41
1
10
75.2857839994413
20
-4.39373588757189
30
0
0
SPLINE
5
114
100
AcDbEntity
8
1
62
256
6
ByLayer
370
18
48
1
60
0
100
AcDbSpline
70
4
71
3
72
35
73
31
40
0
40
0
40
0
40
0
40
0.0624999999999894
40
0.0624999999999894
40
0.124999999999979
40
0.124999999999979
40
0.156249999999973
40
0.156249999999973
40
0.187499999999968
40
0.249999999999956
40
0.249999999999956
40
0.312499999999945
40
0.312499999999945
40
0.374999999999934
40
0.374999999999934
40
0.49999999999987
40
0.49999999999987
40
0.562499999999859
40
0.562499999999859
40
0.624999999999848
40
0.624999999999848
40
0.749999999999871
40
0.749999999999871
40
0.812499999999903
40
0.812499999999903
40
0.874999999999935
40
0.874999999999935
40
0.937499999999968
40
0.937499999999968
40
1
40
1
40
1
40
1
41
1
10
75.2857839994413
20
-4.39373588757192
30
0
41
1
10
75.2932751073177
20
-4.38719141225712
30
0
41
1
10
75.3014594210443
20
-4.38173419283416
30
0
41
1
10
75.3189877662617
20
-4.37262672945184
30
0
41
1
10
75.3283338458642
20
-4.3689800403842
30
0
41
1
10
75.3431359388253
20
-4.36472942876529
30
0
41
1
10
75.3482179553023
20
-4.36351413766997
30
0
41
1
10
75.358528673996
20
-4.36149821463894
30
0
41
1
10
75.3742221692006
20
-4.35909010412652
30
0
41
1
10
75.3905440364878
20
-4.35838973634603
30
0
41
1
10
75.4128049349084
20
-4.35882867290442
30
0
41
1
10
75.4241848571651
20
-4.35973551991023
30
0
41
1
10
75.4474117622049
20
-4.36285952589034
30
0
41
1
10
75.4593011815307
20
-4.36509111482383
30
0
41
1
10
75.4950227844225
20
-4.37357827789066
30
0
41
1
10
75.5190709709618
20
-4.38160739950445
30
0
41
1
10
75.5554105194468
20
-4.39710964132192
30
0
41
1
10
75.5676222195698
20
-4.40288855952824
30
0
41
1
10
75.5918492946399
20
-4.41552246373595
30
0
41
1
10
75.6038329832086
20
-4.42235489726338
30
0
41
1
10
75.6393768868177
20
-4.44441353309549
30
0
41
1
10
75.6625377249022
20
-4.4611716467727
30
0
41
1
10
75.6962912602362
20
-4.48989492467871
30
0
41
1
10
75.7074421359392
20
-4.50014373375498
30
0
41
1
10
75.7288959797642
20
-4.52157635415466
30
0
41
1
10
75.7392246399893
20
-4.53277067274306
30
0
41
1
10
75.7590020543358
20
-4.55621462561715
30
0
41
1
10
75.7684520833737
20
-4.56846268361548
30
0
41
1
10
75.786320479508
20
-4.59419820742056
30
0
41
1
10
75.7946521559553
20
-4.60757160799733
30
0
41
1
10
75.8021811520799
20
-4.62136178635248
30
0
0
SPLINE
5
115
100
AcDbEntity
8
1
62
256
6
ByLayer
370
18
48
1
60
0
100
AcDbSpline
70
4
71
3
72
14
73
10
40
0
40
0
40
0
40
0
40
0.25
40
0.25
40
0.5
40
0.5
40
0.75
40
0.75
40
1
40
1
40
1
40
1
41
1
10
75.8021811520799
20
-4.62136178635251
30
0
41
1
10
75.853368247283
20
-4.71511653939714
30
0
41
1
10
75.9043774590935
20
-4.80909629335883
30
0
41
1
10
76.0059855042017
20
-4.99727348484825
30
0
41
1
10
76.0565949054277
20
-5.09149219588701
30
0
41
1
10
76.1574821917847
20
-5.28015834615576
30
0
41
1
10
76.2077342788072
20
-5.37455517992834
30
0
41
1
10
76.3078032675698
20
-5.5632373394555
30
0
41
1
10
76.3576371141644
20
-5.65755419536248
30
0
41
1
10
76.4072987883347
20
-5.7518333732954
30
0
0
SPLINE
5
116
100
AcDbEntity
8
1
62
256
6
ByLayer
370
18
48
1
60
0
100
AcDbSpline
70
4
71
3
72
8
73
4
40
0
40
0
40
0
40
0
40
1
40
1
40
1
40
1
41
1
10
76.4072987883347
20
-5.7518333732954
30
0
41
1
10
76.5336647151679
20
-5.7750356040099
30
0
41
1
10
76.6607514597933
20
-5.79419776199163
30
0
41
1
10
76.7886245598863
20
-5.8093010298316
30
0
0
SPLINE
5
117
100
AcDbEntity
8
1
62
256
6
ByLayer
370
18
48
1
60
0
100
AcDbSpline
70
4
71
3
72
12
73
8
40
0
40
0
40
0
40
0
40
0.249999999999995
40
0.249999999999995
40
0.499999999999991
40
0.499999999999991
40
1
40
1
40
1
40
1
41
1
10
76.7886245598863
20
-5.8093010298316
30
0
41
1
10
76.8337677595312
20
-5.75611484851527
30
0
41
1
10
76.8790722096486
20
-5.70173680906586
30
0
41
1
10
76.9700482153576
20
-5.59059809846093
30
0
41
1
10
77.0157379948004
20
-5.53381355637674
30
0
41
1
10
77.1532046809368
20
-5.36016588400295
30
0
41
1
10
77.2454164521477
20
-5.2399864475947
30
0
41
1
10
77.3384170867302
20
-5.11529006639088
30
0
0
SPLINE
5
118
100
AcDbEntity
8
1
62
256
6
ByLayer
370
18
48
1
60
0
100
AcDbSpline
70
4
71
3
72
35
73
31
40
0
40
0
40
0
40
0
40
0.0625000000000314
40
0.0625000000000314
40
0.125000000000063
40
0.125000000000063
40
0.156250000000078
40
0.156250000000078
40
0.187500000000094
40
0.250000000000087
40
0.250000000000087
40
0.312500000000081
40
0.312500000000081
40
0.375000000000074
40
0.375000000000074
40
0.50000000000006
40
0.50000000000006
40
0.562500000000053
40
0.562500000000053
40
0.625000000000046
40
0.625000000000046
40
0.750000000000032
40
0.750000000000032
40
0.812500000000024
40
0.812500000000024
40
0.875000000000016
40
0.875000000000016
40
0.937500000000008
40
0.937500000000008
40
1
40
1
40
1
40
1
41
1
10
77.3384170867303
20
-5.11529006639088
30
0
41
1
10
77.3459110602806
20
-5.1052420555707
30
0
41
1
10
77.3540991704137
20
-5.09626735597055
30
0
41
1
10
77.371636507666
20
-5.08010375269106
30
0
41
1
10
77.3809878049689
20
-5.0729182617992
30
0
41
1
10
77.3957987851164
20
-5.06334527107398
30
0
41
1
10
77.4008838824984
20
-5.06034787945941
30
0
41
1
10
77.4111989062824
20
-5.05480034162701
30
0
41
1
10
77.4268989765935
20
-5.04713859487771
30
0
41
1
10
77.4432277974179
20
-5.04130532744318
30
0
41
1
10
77.4654982754567
20
-5.03499554519288
30
0
41
1
10
77.476883185718
20
-5.03257559367106
30
0
41
1
10
77.5001207207411
20
-5.0291340732737
30
0
41
1
10
77.5120136957117
20
-5.02811688167327
30
0
41
1
10
77.547739318649
20
-5.02714608738864
30
0
41
1
10
77.5717890582483
20
-5.02920167769702
30
0
41
1
10
77.6081289332986
20
-5.03619573769379
30
0
41
1
10
77.6203418745688
20
-5.03920364453575
30
0
41
1
10
77.6445565969409
20
-5.0465051233783
30
0
41
1
10
77.6565346907611
20
-5.05078428747157
30
0
41
1
10
77.6920646922989
20
-5.065517361394
30
0
41
1
10
77.7152207809393
20
-5.07783106586763
30
0
41
1
10
77.7489748309199
20
-5.10062882502965
30
0
41
1
10
77.7601243144585
20
-5.10901639085896
30
0
41
1
10
77.7815632437888
20
-5.12707137894364
30
0
41
1
10
77.7918856794041
20
-5.13674915997859
30
0
41
1
10
77.8116525631016
20
-5.15753949220033
30
0
41
1
10
77.8210982891938
20
-5.16864983795779
30
0
41
1
10
77.8389600402248
20
-5.19255763799245
30
0
41
1
10
77.8472826273365
20
-5.20524099741166
30
0
41
1
10
77.8548074651452
20
-5.21862761869804
30
0
0
SPLINE
5
119
100
AcDbEntity
8
1
62
256
6
ByLayer
370
18
48
1
60
0
100
AcDbSpline
70
4
71
3
72
10
73
6
40
0
40
0
40
0
40
0
40
0.5
40
0.5
40
1
40
1
40
1
40
1
41
1
10
77.8548074651452
20
-5.21862761869804
30
0
41
1
10
77.9112741427557
20
-5.31908134908784
30
0
41
1
10
77.9675024961467
20
-5.4190418576101
30
0
41
1
10
78.0794508277244
20
-5.61772482043239
30
0
41
1
10
78.1351827015933
20
-5.71647072877369
30
0
41
1
10
78.1907138899556
20
-5.81460783284652
30
0
0
SPLINE
5
11A
100
AcDbEntity
8
1
62
256
6
ByLayer
370
18
48
1
60
0
100
AcDbSpline
70
4
71
3
72
10
73
6
40
0
40
0
40
0
40
0
40
0.5
40
0.5
40
1
40
1
40
1
40
1
41
1
10
78.1907138899557
20
-5.81460783284652
30
0
41
1
10
78.3587203954431
20
-5.79657223406781
30
0
41
1
10
78.5274466172627
20
-5.77202194837292
30
0
41
1
10
78.8665144599148
20
-5.71033554526974
30
0
41
1
10
79.0368732578619
20
-5.67317479113123
30
0
41
1
10
79.2082218924553
20
-5.62980133611245
30
0
0
SPLINE
5
11B
100
AcDbEntity
8
1
62
256
6
ByLayer
370
18
48
1
60
0
100
AcDbSpline
70
4
71
3
72
8
73
4
40
0
40
0
40
0
40
0
40
1
40
1
40
1
40
1
41
1
10
79.2082218924552
20
-5.62980133611248
30
0
41
1
10
79.2688716207828
20
-5.52985945130692
30
0
41
1
10
79.3298000342073
20
-5.42872885886297
30
0
41
1
10
79.3910719184872
20
-5.32640285686128
30
0
0
SPLINE
5
11C
100
AcDbEntity
8
1
62
256
6
ByLayer
370
18
48
1
60
0
100
AcDbSpline
70
4
71
3
72
35
73
31
40
0
40
0
40
0
40
0
40
0.0624999999999463
40
0.0624999999999463
40
0.124999999999893
40
0.124999999999893
40
0.156249999999866
40
0.156249999999866
40
0.187499999999839
40
0.249999999999822
40
0.249999999999822
40
0.312499999999805
40
0.312499999999805
40
0.374999999999788
40
0.374999999999788
40
0.499999999999795
40
0.499999999999795
40
0.562499999999821
40
0.562499999999821
40
0.624999999999846
40
0.624999999999846
40
0.749999999999898
40
0.749999999999898
40
0.812499999999923
40
0.812499999999923
40
0.874999999999949
40
0.874999999999949
40
0.937499999999974
40
0.937499999999974
40
1
40
1
40
1
40
1
41
1
10
79.3910719184872
20
-5.32640285686128
30
0
41
1
10
79.3985717438393
20
-5.31387790919547
30
0
41
1
10
79.4067678255096
20
-5.30230419026927
30
0
41
1
10
79.4243249250547
20
-5.28074163235934
30
0
41
1
10
79.433688024179
20
-5.2707557659121
30
0
41
1
10
79.4485195339857
20
-5.25684706106432
30
0
41
1
10
79.45361167238
20
-5.25237735351624
30
0
41
1
10
79.4639369181521
20
-5.24387586421844
30
0
41
1
10
79.4796528193077
20
-5.23176055406879
30
0
41
1
10
79.4959988438819
20
-5.22141040557233
30
0
41
1
10
79.5182933157832
20
-5.20902546641847
30
0
41
1
10
79.5296908237181
20
-5.20354153202507
30
0
41
1
10
79.5529546312198
20
-5.193919625051
30
0
41
1
10
79.5648563777661
20
-5.18977774593338
30
0
41
1
10
79.6005966463292
20
-5.17951338420852
30
0
41
1
10
79.6246556769629
20
-5.17542915428817
30
0
41
1
10
79.6610088363204
20
-5.17326744689311
30
0
41
1
10
79.6732276413322
20
-5.17321948395292
30
0
41
1
10
79.6974243499951
20
-5.17449357664159
30
0
41
1
10
79.7093941267646
20
-5.17580712217563
30
0
41
1
10
79.7449011105815
20
-5.18178296097375
30
0
41
1
10
79.7680444863722
20
-5.18844230282775
30
0
41
1
10
79.8017833993984
20
-5.20305653122566
30
0
41
1
10
79.812921351335
20
-5.20874847438424
30
0
41
1
10
79.8343186634208
20
-5.22162187815655
30
0
41
1
10
79.8446234047391
20
-5.22881267737631
30
0
41
1
10
79.8643609119841
20
-5.24485901835166
30
0
41
1
10
79.8737949406463
20
-5.25371189185555
30
0
41
1
10
79.8916394554731
20
-5.27337941158822
30
0
41
1
10
79.899940914387
20
-5.28408231462831
30
0
41
1
10
79.9074557065378
20
-5.29570477169844
30
0
0
SPLINE
5
11D
100
AcDbEntity
8
1
62
256
6
ByLayer
370
18
48
1
60
0
100
AcDbSpline
70
4
71
3
72
8
73
4
40
0
40
0
40
0
40
0
40
1
40
1
40
1
40
1
41
1
10
79.9074557065379
20
-5.29570477169844
30
0
41
1
10
79.9295093729926
20
-5.32981320563314
30
0
41
1
10
79.9515253856356
20
-5.36373220760686
30
0
41
1
10
79.9735072153924
20
-5.39746379209487
30
0
0
SPLINE
5
11E
100
AcDbEntity
8
1
62
256
6
ByLayer
370
18
48
1
60
0
100
AcDbSpline
70
4
71
3
72
16
73
12
40
0
40
0
40
0
40
0
40
0.25
40
0.25
40
0.375
40
0.375
40
0.5
40
0.5
40
0.75
40
0.75
40
1
40
1
40
1
40
1
41
1
10
79.9735072153924
20
-5.39746379209501
30
0
41
1
10
80.0754288741617
20
-5.36151808198875
30
0
41
1
10
80.1779763790719
20
-5.32345447781003
30
0
41
1
10
80.3328866116967
20
-5.26325224764639
30
0
41
1
10
80.3846789782395
20
-5.24267403572554
30
0
41
1
10
80.4883395254154
20
-5.20060843490793
30
0
41
1
10
80.5402415124033
20
-5.17910847393813
30
0
41
1
10
80.6961753425425
20
-5.11323573680048
30
0
41
1
10
80.8004323000587
20
-5.06749095406903
30
0
41
1
10
81.0096171567745
20
-4.97247072598233
30
0
41
1
10
81.1145603294614
20
-4.92319438190532
30
0
41
1
10
81.2199999145205
20
-4.87222536959581
30
0
0
SPLINE
5
11F
100
AcDbEntity
8
1
62
256
6
ByLayer
370
18
48
1
60
0
100
AcDbSpline
70
4
71
3
72
10
73
6
40
0
40
0
40
0
40
0
40
0.5
40
0.5
40
1
40
1
40
1
40
1
41
1
10
81.2199999145205
20
-4.87222536959581
30
0
41
1
10
81.3166052669224
20
-4.75770904406823
30
0
41
1
10
81.4147347635922
20
-4.64221534542634
30
0
41
1
10
81.6148537236859
20
-4.40986026305268
30
0
41
1
10
81.7165528795838
20
-4.29335410914911
30
0
41
1
10
81.8200000000001
20
-4.17739785393243
30
0
0
SPLINE
5
120
100
AcDbEntity
8
1
62
256
6
ByLayer
370
18
48
1
60
0
100
AcDbSpline
70
4
71
3
72
28
73
24
40
0
40
0
40
0
40
0
40
0.164832864662483
40
0.164832864662483
40
0.206041080828103
40
0.206041080828103
40
0.247249296993724
40
0.247249296993724
40
0.329665729324965
40
0.329665729324965
40
0.412082161656206
40
0.412082161656206
40
0.494498593987447
40
0.494498593987447
40
0.65933145864993
40
0.65933145864993
40
0.824164323312414
40
0.824164323312414
40
0.906580755643655
40
0.906580755643655
40
0.988997187974896
40
0.988997187974896
40
1
40
1
40
1
40
1
41
1
10
81.8200000000001
20
-4.17739785393246
30
0
41
1
10
81.8200000000001
20
-4.06680777958357
30
0
41
1
10
81.8200000000001
20
-3.95939711572745
30
0
41
1
10
81.82
20
-3.82927119754802
30
0
41
1
10
81.82
20
-3.8034541835562
30
0
41
1
10
81.82
20
-3.75224193529337
30
0
41
1
10
81.8200000000001
20
-3.72690856344073
30
0
41
1
10
81.8200000000001
20
-3.65201728452743
30
0
41
1
10
81.82
20
-3.60344150149044
30
0
41
1
10
81.82
20
-3.50894047714593
30
0
41
1
10
81.82
20
-3.46302681528769
30
0
41
1
10
81.82
20
-3.37387023223715
30
0
41
1
10
81.82
20
-3.33045962513191
30
0
41
1
10
81.8199999999999
20
-3.20316656958386
30
0
41
1
10
81.82
20
-3.12226359340133
30
0
41
1
10
81.82
20
-2.96848108342712
30
0
41
1
10
81.82
20
-2.89560475933698
30
0
41
1
10
81.82
20
-2.79244517791187
30
0
41
1
10
81.8199999999999
20
-2.75904845020074
30
0
41
1
10
81.8199999999999
20
-2.69485863590248
30
0
41
1
10
81.82
20
-2.66399992303045
30
0
41
1
10
81.82
20
-2.63040378758359
30
0
41
1
10
81.82
20
-2.62646850694895
30
0
41
1
10
81.82
20
-2.62255485393541
30
0
0
SPLINE
5
121
100
AcDbEntity
8
1
62
256
6
ByLayer
370
18
48
1
60
0
100
AcDbSpline
70
4
71
3
72
12
73
8
40
0
40
0
40
0
40
0
40
0.27101200580885
40
0.27101200580885
40
0.635506002904425
40
0.635506002904425
40
1
40
1
40
1
40
1
41
1
10
67.8027375083467
20
6.42346650950469
30
0
41
1
10
67.8047110049454
20
6.42346239447227
30
0
41
1
10
67.8066920272133
20
6.42306168688972
30
0
41
1
10
67.8113603678836
20
6.42118458729664
30
0
41
1
10
67.8140490814972
20
6.41938556457666
30
0
41
1
10
67.819431053195
20
6.41436638416087
30
0
41
1
10
67.8221267629251
20
6.41114533878888
30
0
41
1
10
67.8248261992556
20
6.40722021102036
30
0
0
SPLINE
5
122
100
AcDbEntity
8
1
62
256
6
ByLayer
370
18
48
1
60
0
100
AcDbSpline
70
4
71
3
72
8
73
4
40
0
40
0
40
0
40
0
40
1
40
1
40
1
40
1
41
1
10
65.0709012303858
20
-6.42346637170482
30
0
41
1
10
65.0606194240859
20
-6.42348068151847
30
0
41
1
10
65.0503665171291
20
-6.4132864923296
30
0
41
1
10
65.0401303265346
20
-6.39279848867031
30
0
0
SPLINE
5
123
100
AcDbEntity
8
1
62
256
6
ByLayer
370
18
48
1
60
0
100
AcDbSpline
70
4
71
3
72
10
73
6
40
0
40
0
40
0
40
0
40
0.990086214483984
40
0.990086214483984
40
1
40
1
40
1
40
1
41
1
10
68.0344555682829
20
6.38898532714211
30
0
41
1
10
68.0239560710703
20
6.41180152723527
30
0
41
1
10
68.0134823785497
20
6.42325004018122
30
0
41
1
10
68.0028013836988
20
6.42346531106446
30
0
41
1
10
68.0026954837356
20
6.42346631879533
30
0
41
1
10
68.0025895728048
20
6.42346619988177
30
0
0
SPLINE
5
124
100
AcDbEntity
8
1
62
256
6
ByLayer
370
18
48
1
60
0
100
AcDbSpline
70
4
71
3
72
12
73
8
40
0
40
0
40
0
40
0
40
0.794124284710223
40
0.794124284710223
40
0.992655355887779
40
0.992655355887779
40
1
40
1
40
1
40
1
41
1
10
64.8322653690184
20
-6.36930028116674
30
0
41
1
10
64.8428415253078
20
-6.39775826181781
30
0
41
1
10
64.8534304124697
20
-6.41515223411034
30
0
41
1
10
64.866799147527
20
-6.42262771430808
30
0
41
1
10
64.8694834655223
20
-6.42340693914088
30
0
41
1
10
64.872262806721
20
-6.42346500818837
30
0
41
1
10
64.8723619547657
20
-6.42346609359834
30
0
41
1
10
64.8724610975444
20
-6.4234661932424
30
0
0
SPLINE
5
125
100
AcDbEntity
8
1
62
256
6
ByLayer
370
13
48
1
60
0
100
AcDbSpline
70
4
71
3
72
8
73
4
40
0
40
0
40
0
40
0
40
1
40
1
40
1
40
1
41
1.04
10
63.7782497804101
20
-5.30719593750587
30
0
41
1.04
10
63.7352289495042
20
-5.375091972373
30
0
41
1.04
10
63.6940545841604
20
-5.28739644473859
30
0
41
1.04
10
63.6540668687754
20
-5.08021635483651
30
0
0
SPLINE
5
126
100
AcDbEntity
8
1
62
256
6
ByLayer
370
18
48
1
60
0
100
AcDbSpline
70
4
71
3
72
17
73
13
40
0
40
0
40
0
40
0
40
0.164028884376119
40
0.164028884376119
40
0.442685922917413
40
0.442685922917413
40
0.512350182552736
40
0.512350182552736
40
0.582014442188059
40
0.721342961458706
40
0.721342961458706
40
1
40
1
40
1
40
1
41
1
10
63.4110159972543
20
-5.91508918437793
30
0
41
1
10
63.4080148407982
20
-5.90988953789892
30
0
41
1
10
63.4050070714297
20
-5.90140133326449
30
0
41
1
10
63.3968662971868
20
-5.86957506699153
30
0
41
1
10
63.3917178513537
20
-5.84000840305021
30
0
41
1
10
63.385236352712
20
-5.790671314902
30
0
41
1
10
63.3839416700968
20
-5.7802127843083
30
0
41
1
10
63.381359701535
20
-5.75816288018291
30
0
41
1
10
63.3774955026427
20
-5.72337070566201
30
0
41
1
10
63.3736544604701
20
-5.68347767646097
30
0
41
1
10
63.3659918009164
20
-5.59697165298482
30
0
41
1
10
63.360911246261
20
-5.53036050847976
30
0
41
1
10
63.3558090128574
20
-5.45479198068247
30
0
0
SPLINE
5
127
100
AcDbEntity
8
1
62
256
6
ByLayer
370
18
48
1
60
0
100
AcDbSpline
70
4
71
3
72
18
73
14
40
0
40
0
40
0
40
0
40
0.206952184779148
40
0.206952184779148
40
0.33912682064929
40
0.33912682064929
40
0.40521413858436
40
0.40521413858436
40
0.471301456519431
40
0.471301456519431
40
0.735650728259715
40
0.735650728259715
40
1
40
1
40
1
40
1
41
1
10
69.7566238284006
20
6.42346878876259
30
0
41
1
10
69.7650433521264
20
6.42348714948838
30
0
41
1
10
69.7735203371998
20
6.41659368850966
30
0
41
1
10
69.7874831645163
20
6.39386002134856
30
0
41
1
10
69.7929431364221
20
6.38214695498385
30
0
41
1
10
69.8011567959186
20
6.3602191393515
30
0
41
1
10
69.8038995653756
20
6.35218019618054
30
0
41
1
10
69.8093890677379
20
6.33464285548527
30
0
41
1
10
69.8121255306486
20
6.32517775209723
30
0
41
1
10
69.8257667537645
20
6.27441201146411
30
0
41
1
10
69.8365453185917
20
6.22281896111701
30
0
41
1
10
69.8578861286998
20
6.09827625867723
30
0
41
1
10
69.8684475061563
20
6.02532515694469
30
0
41
1
10
69.8789706410948
20
5.94165298612145
30
0
0
SPLINE
5
128
100
AcDbEntity
8
1
62
256
6
ByLayer
370
18
48
1
60
0
100
AcDbSpline
70
4
71
3
72
18
73
14
40
0
40
0
40
0
40
0
40
0.243931434324483
40
0.243931434324483
40
0.365897151486724
40
0.365897151486724
40
0.487862868648965
40
0.487862868648965
40
0.731794302973448
40
0.731794302973448
40
0.97572573729793
40
0.97572573729793
40
1
40
1
40
1
40
1
41
1
10
70.0876437957751
20
5.85952892582839
30
0
41
1
10
70.077009368673
20
5.94962933894439
30
0
41
1
10
70.066264447949
20
6.02975345372505
30
0
41
1
10
70.0499321510851
20
6.13442658723466
30
0
41
1
10
70.0444958095668
20
6.16644564267429
30
0
41
1
10
70.0336466778102
20
6.22478063405987
30
0
41
1
10
70.0282322400789
20
6.25111099304524
30
0
41
1
10
70.0120261287205
20
6.32171172960656
30
0
41
1
10
70.0012737894227
20
6.35761349163206
30
0
41
1
10
69.9798756828627
20
6.40719183496194
30
0
41
1
10
69.969231866035
20
6.42086966812406
30
0
41
1
10
69.9575411417802
20
6.4233565881847
30
0
41
1
10
69.9564831213433
20
6.42346833033594
30
0
41
1
10
69.9554250757717
20
6.42346619422833
30
0
0
SPLINE
5
129
100
AcDbEntity
8
1
62
256
6
ByLayer
370
13
48
1
60
0
100
AcDbSpline
70
4
71
3
72
9
73
5
40
0
40
0
40
0
40
0
40
0.543635634967011
40
1
40
1
40
1
40
1
41
1.04
10
70.7363260053941
20
4.73725659951716
30
0
41
1.04
10
70.7143706287809
20
4.90998580429243
30
0
41
1.04
10
70.6747114494734
20
5.15540633207658
30
0
41
1.04
10
70.6361375086764
20
5.27413773180728
30
0
41
1.04
10
70.6187349011398
20
5.3033215558763
30
0
0
SPLINE
5
12A
100
AcDbEntity
8
1
62
256
6
ByLayer
370
13
48
1
60
0
100
AcDbSpline
70
4
71
3
72
10
73
6
40
0
40
0
40
0
40
0
40
0.0868299983901263
40
0.466889985827851
40
1
40
1
40
1
40
1
41
1
10
71.2526675610826
20
4.52638035916269
30
0
41
1
10
71.2468738488939
20
4.57901977310709
30
0
41
1
10
71.2158750197753
20
4.84785872408531
30
0
41
1
10
71.1511784639633
20
5.25772922513778
30
0
41
1
10
71.0944981117813
20
5.35186555695526
30
0
41
1
10
71.0620545216532
20
5.32099402986174
30
0
0
SPLINE
5
12B
100
AcDbEntity
8
1
62
256
6
ByLayer
370
18
48
1
60
0
100
AcDbSpline
70
4
71
3
72
8
73
4
40
0
40
0
40
0
40
0
40
1
40
1
40
1
40
1
41
1
10
71.0620547420266
20
5.3209942395556
30
0
41
1
10
71.058028840858
20
5.3171634631037
30
0
41
1
10
71.0540128943533
20
5.31201108750017
30
0
41
1
10
71.0500065757423
20
5.30555555481112
30
0
0
SPLINE
5
12C
100
AcDbEntity
8
1
62
256
6
ByLayer
370
18
48
1
60
0
100
AcDbSpline
70
4
71
3
72
24
73
20
40
0
40
0
40
0
40
0
40
0.124724936235866
40
0.124724936235866
40
0.270604113529888
40
0.270604113529888
40
0.41648329082391
40
0.41648329082391
40
0.562362468117933
40
0.562362468117933
40
0.708241645411955
40
0.708241645411955
40
0.744711439735461
40
0.744711439735461
40
0.781181234058967
40
0.781181234058967
40
0.854120822705978
40
0.854120822705978
40
1
40
1
40
1
40
1
41
1
10
74.8410457611772
20
-6.42346755191414
30
0
41
1
10
74.8319747204061
20
-6.42345399464131
30
0
41
1
10
74.8227829591808
20
-6.41518796137731
30
0
41
1
10
74.8026337290755
20
-6.37928313503295
30
0
41
1
10
74.7916714318079
20
-6.34859075548457
30
0
41
1
10
74.7697341685935
20
-6.26373399782253
30
0
41
1
10
74.7589519345468
20
-6.2103072472068
30
0
41
1
10
74.7377290338462
20
-6.08223823919101
30
0
41
1
10
74.7272909596267
20
-6.00759344063454
30
0
41
1
10
74.7064722546251
20
-5.83717339650272
30
0
41
1
10
74.6960912887006
20
-5.74139922161339
30
0
41
1
10
74.6827590786858
20
-5.60811480437329
30
0
41
1
10
74.6800763205845
20
-5.58077783029378
30
0
41
1
10
74.6746798693237
20
-5.52472720428051
30
0
41
1
10
74.6719748734261
20
-5.49610318198532
30
0
41
1
10
74.6638574109236
20
-5.40860480430905
30
0
41
1
10
74.6584363928351
20
-5.34804167263661
30
0
41
1
10
74.6421723137618
20
-5.15978193468254
30
0
41
1
10
74.631331515928
20
-5.02553200475433
30
0
41
1
10
74.6205412645314
20
-4.88264857920902
30
0
0
SPLINE
5
12D
100
AcDbEntity
8
1
62
256
6
ByLayer
370
18
48
1
60
0
100
AcDbSpline
70
4
71
3
72
30
73
26
40
0
40
0
40
0
40
0
40
0.0348596223384717
40
0.0348596223384717
40
0.0697192446769434
40
0.0697192446769434
40
0.139438489353886
40
0.139438489353886
40
0.278876978707772
40
0.278876978707772
40
0.418315468061658
40
0.418315468061658
40
0.488034712738601
40
0.488034712738601
40
0.522894335077072
40
0.522894335077072
40
0.557753957415544
40
0.557753957415544
40
0.69719244676943
40
0.69719244676943
40
0.836630936123317
40
0.836630936123317
40
0.976069425477203
40
0.976069425477203
40
1
40
1
40
1
40
1
41
1
10
74.4123207764817
20
-4.74582448014672
30
0
41
1
10
74.4149974624772
20
-4.78308332880937
30
0
41
1
10
74.417675386754
20
-4.81987221713305
30
0
41
1
10
74.423035038126
20
-4.89250032879926
30
0
41
1
10
74.4257181579454
20
-4.92835785762486
30
0
41
1
10
74.4337673630759
20
-5.03437240471465
30
0
41
1
10
74.4390974090554
20
-5.10250419117415
30
0
41
1
10
74.4550124625084
20
-5.29943123052939
30
0
41
1
10
74.4655215799702
20
-5.42077755439493
30
0
41
1
10
74.4865568250575
20
-5.64397586889018
30
0
41
1
10
74.4970847697911
20
-5.74582740614699
30
0
41
1
10
74.5130603570898
20
-5.88380490777587
30
0
41
1
10
74.5184160405032
20
-5.92732600696624
30
0
41
1
10
74.5265134924246
20
-5.98883309582482
30
0
41
1
10
74.5292232686625
20
-6.00870603905796
30
0
41
1
10
74.5346666803924
20
-6.04717774225327
30
0
41
1
10
74.5373904227058
20
-6.06570597848454
30
0
41
1
10
74.5510081315898
20
-6.15474118460085
30
0
41
1
10
74.561950809391
20
-6.21457600904728
30
0
41
1
10
74.5837324618967
20
-6.3121069683412
30
0
41
1
10
74.5945175314008
20
-6.34980210300247
30
0
41
1
10
74.6157670823669
20
-6.40297871952598
30
0
41
1
10
74.6262335284014
20
-6.41846211138298
30
0
41
1
10
74.638515827605
20
-6.42312324185591
30
0
41
1
10
74.6403135160915
20
-6.4234645283471
30
0
41
1
10
74.6421083687208
20
-6.4234659815753
30
0
0
SPLINE
5
12E
100
AcDbEntity
8
1
62
256
6
ByLayer
370
13
48
1
60
0
100
AcDbSpline
70
4
71
3
72
9
73
5
40
0
40
0
40
0
40
0
40
0.445950569425489
40
1
40
1
40
1
40
1
41
1.04
10
72.7891354852069
20
3.73394110423139
30
0
41
1.04
10
72.7595463445116
20
4.09569712195798
30
0
41
1.04
10
72.6931053166208
20
4.79552247766922
30
0
41
1.04
10
72.6264969880385
20
5.17163425185735
30
0
41
1.04
10
72.5892068131992
20
5.26819177261049
30
0
0
SPLINE
5
12F
100
AcDbEntity
8
1
62
256
6
ByLayer
370
18
48
1
60
0
100
AcDbSpline
70
4
71
3
72
8
73
4
40
0
40
0
40
0
40
0
40
1
40
1
40
1
40
1
41
1.04
10
72.5892068854605
20
5.26819158550032
30
0
41
1.04
10
72.5850745703583
20
5.27889163464934
30
0
41
1.04
10
72.5809375167995
20
5.28821844947066
30
0
41
1.04
10
72.5767952695773
20
5.29615507920734
30
0
0
SPLINE
5
130
100
AcDbEntity
8
1
62
256
6
ByLayer
370
18
48
1
60
0
100
AcDbSpline
70
4
71
3
72
27
73
23
40
0
40
0
40
0
40
0
40
0.12725513313506
40
0.12725513313506
40
0.272712610945884
40
0.272712610945884
40
0.345441349851295
40
0.345441349851295
40
0.381805719304001
40
0.381805719304001
40
0.418170088756707
40
0.418170088756707
40
0.56362756656753
40
0.56362756656753
40
0.709085044378353
40
0.709085044378353
40
0.854542522189176
40
0.854542522189176
40
0.890906891641882
40
0.890906891641882
40
0.927271261094588
40
1
40
1
40
1
40
1
41
1
10
71.7115939173333
20
6.42346729141627
30
0
41
1
10
71.7210032043838
20
6.42349121703603
30
0
41
1
10
71.7303015830303
20
6.41477735472699
30
0
41
1
10
71.7501001553139
20
6.37779796618139
30
0
41
1
10
71.7605833622463
20
6.34691284501525
30
0
41
1
10
71.776359007464
20
6.28374688534731
30
0
41
1
10
71.7816264414769
20
6.25987976231139
30
0
41
1
10
71.7895642594116
20
6.21979868937777
30
0
41
1
10
71.7922163796032
20
6.20572457212356
30
0
41
1
10
71.7975365356051
20
6.17613384457587
30
0
41
1
10
71.8002075245287
20
6.16059864009154
30
0
41
1
10
71.8135732805983
20
6.0794892326216
30
0
41
1
10
71.8242277864259
20
6.00412676615611
30
0
41
1
10
71.8456001375391
20
5.83317686220124
30
0
41
1
10
71.8563193042684
20
5.73758744024903
30
0
41
1
10
71.8778793196963
20
5.52624333917345
30
0
41
1
10
71.8887024998749
20
5.41048971818893
30
0
41
1
10
71.9022472315708
20
5.25282639526094
30
0
41
1
10
71.9049587791641
20
5.2206276459473
30
0
41
1
10
71.9103799241154
20
5.15498009873309
30
0
41
1
10
71.9184810987395
20
5.05497081065462
30
0
41
1
10
71.9264979650256
20
4.95040677119604
30
0
41
1
10
71.9318147508414
20
4.87870937522928
30
0
0
SPLINE
5
131
100
AcDbEntity
8
1
62
256
6
ByLayer
370
18
48
1
60
0
100
AcDbSpline
70
4
71
3
72
28
73
24
40
0
40
0
40
0
40
0
40
0.139263897640991
40
0.278527795281983
40
0.278527795281983
40
0.348159744102478
40
0.348159744102478
40
0.382975718512726
40
0.382975718512726
40
0.417791692922974
40
0.417791692922974
40
0.557055590563963
40
0.557055590563963
40
0.696319488204952
40
0.696319488204952
40
0.835583385845941
40
0.835583385845941
40
0.870399360256189
40
0.870399360256189
40
0.905215334666436
40
0.974847283486932
40
0.974847283486932
40
1
40
1
40
1
40
1
41
1
10
72.1396432418382
20
4.74146379751343
30
0
41
1
10
72.1289953560218
20
4.89078894424779
30
0
41
1
10
72.1079913800635
20
5.17075561587535
30
0
41
1
10
72.0870979577616
20
5.41411340300112
30
0
41
1
10
72.0712045396938
20
5.58274931498948
30
0
41
1
10
72.0658634573039
20
5.63664294691213
30
0
41
1
10
72.0577802624981
20
5.71394508096608
30
0
41
1
10
72.0550747239109
20
5.73912245183007
30
0
41
1
10
72.049642786695
20
5.78828324782518
30
0
41
1
10
72.0469202346319
20
5.81222993142322
30
0
41
1
10
72.0333354921198
20
5.92831346825133
30
0
41
1
10
72.0225069490328
20
6.01002116768663
30
0
41
1
10
72.0009541100543
20
6.15177683328736
30
0
41
1
10
71.9902295428028
20
6.21182310805057
30
0
41
1
10
71.9688264661667
20
6.31020779299587
30
0
41
1
10
71.9581478307186
20
6.34854824226119
30
0
41
1
10
71.9447436862991
20
6.38243824474412
30
0
41
1
10
71.9420606974878
20
6.38850788319161
30
0
41
1
10
71.9367174640318
20
6.39916995263937
30
0
41
1
10
71.9287249381794
20
6.41297798724418
30
0
41
1
10
71.9207858496513
20
6.42030591512179
30
0
41
1
10
71.913596639518
20
6.42309531445031
30
0
41
1
10
71.9116903304368
20
6.42346618257878
30
0
41
1
10
71.9097848935395
20
6.42346815455119
30
0
0
SPLINE
5
132
100
AcDbEntity
8
1
62
256
6
ByLayer
370
18
48
1
60
0
100
AcDbSpline
70
4
71
3
72
59
73
55
40
0
40
0
40
0
40
0
40
0.114047856443694
40
0.114047856443694
40
0.228095712887387
40
0.228095712887387
40
0.342143569331081
40
0.342143569331081
40
0.356399551386546
40
0.356399551386546
40
0.37065553344201
40
0.37065553344201
40
0.399167497552939
40
0.427679461663868
40
0.441935443719333
40
0.441935443719333
40
0.456191425774798
40
0.456191425774798
40
0.513215353996656
40
0.513215353996656
40
0.570239282218515
40
0.570239282218515
40
0.627263210440373
40
0.627263210440373
40
0.641519192495838
40
0.641519192495838
40
0.655775174551302
40
0.684287138662225
40
0.684287138662225
40
0.741311066884078
40
0.741311066884078
40
0.769823030995004
40
0.769823030995004
40
0.78407901305047
40
0.78407901305047
40
0.798334995105936
40
0.798334995105936
40
0.8553589233278
40
0.8553589233278
40
0.883870887438732
40
0.883870887438732
40
0.898126869494199
40
0.898126869494199
40
0.912382851549665
40
0.912382851549665
40
0.940894815660597
40
0.940894815660597
40
0.955150797716061
40
0.955150797716061
40
0.969406779771524
40
0.969406779771524
40
0.997918743882448
40
0.997918743882448
40
1
40
1
40
1
40
1
41
1
10
41.3968243684673
20
4.49719827419892
30
0
41
1
10
41.1848207015149
20
4.50877878451891
30
0
41
1
10
40.9693519560638
20
4.51244348134605
30
0
41
1
10
40.5289735267222
20
4.50857181121401
30
0
41
1
10
40.3040070705342
20
4.50104044148864
30
0
41
1
10
39.8417836880282
20
4.48021526793917
30
0
41
1
10
39.6046499827384
20
4.46690654850815
30
0
41
1
10
39.3292493281364
20
4.4520207291423
30
0
41
1
10
39.2985278249377
20
4.45036858718976
30
0
41
1
10
39.2368298200322
20
4.44708172176374
30
0
41
1
10
39.2058254505521
20
4.44544585038156
30
0
41
1
10
39.1126339186282
20
4.44059027953929
30
0
41
1
10
38.9880664945309
20
4.43426740402356
30
0
41
1
10
38.8315311544204
20
4.42699873045802
30
0
41
1
10
38.7372182391294
20
4.42303163532677
30
0
41
1
10
38.6742537589117
20
4.42048561890795
30
0
41
1
10
38.6427248958232
20
4.41926501008575
30
0
41
1
10
38.484929034458
20
4.41332429310972
30
0
41
1
10
38.3581558208928
20
4.40916711145979
30
0
41
1
10
38.1035247215307
20
4.40235670286839
30
0
41
1
10
37.9756674857057
20
4.39970225162887
30
0
41
1
10
37.7188001618973
20
4.39618862019617
30
0
41
1
10
37.5897924442177
20
4.3953265782782
30
0
41
1
10
37.4277124954157
20
4.39556984536429
30
0
41
1
10
37.3952425828045
20
4.39568496438383
30
0
41
1
10
37.3304352552569
20
4.39605126001294
30
0
41
1
10
37.2333468641951
20
4.39680457934557
30
0
41
1
10
37.136636634422
20
4.39818235001019
30
0
41
1
10
36.9437519403076
20
4.40179159524007
30
0
41
1
10
36.8158752408245
20
4.40534516020716
30
0
41
1
10
36.6253223361041
20
4.41242625638662
30
0
41
1
10
36.5620169196018
20
4.4150790305454
30
0
41
1
10
36.4674166758333
20
4.41949433642762
30
0
41
1
10
36.4359427356782
20
4.42103828171929
30
0
41
1
10
36.3731222016918
20
4.42426914707167
30
0
41
1
10
36.3417326482455
20
4.42595856678756
30
0
41
1
10
36.1858032087379
20
4.43471773697453
30
0
41
1
10
36.0641902437012
20
4.44274415193334
30
0
41
1
10
35.887836248578
20
4.45576480598987
30
0
41
1
10
35.8300623998636
20
4.46026204236694
30
0
41
1
10
35.7452227590202
20
4.46712502288557
30
0
41
1
10
35.7171799501434
20
4.46943843807176
30
0
41
1
10
35.662194235713
20
4.47404004528434
30
0
41
1
10
35.6352465777334
20
4.47632695496614
30
0
41
1
10
35.5561637935891
20
4.48309121506253
30
0
41
1
10
35.5057794472377
20
4.48747695721136
30
0
41
1
10
35.4343477456844
20
4.49357873042436
30
0
41
1
10
35.4112300965772
20
4.49553209321883
30
0
41
1
10
35.366519839056
20
4.499212137672
30
0
41
1
10
35.3448581578799
20
4.50094367524295
30
0
41
1
10
35.2833634202786
20
4.50560735502006
30
0
41
1
10
35.2467455925968
20
4.50803607257038
30
0
41
1
10
35.2125033530367
20
4.50959837588212
30
0
41
1
10
35.210198852913
20
4.50969945692941
30
0
41
1
10
35.2079195691112
20
4.50979520163776
30
0
0
SPLINE
5
133
100
AcDbEntity
8
1
62
256
6
ByLayer
370
18
48
1
60
0
100
AcDbSpline
70
4
71
3
72
52
73
48
40
0
40
0
40
0
40
0
40
0.0030702613679582
40
0.0030702613679582
40
0.0118926484354984
40
0.0118926484354984
40
0.0471821967056617
40
0.0471821967056617
40
0.0648269708407434
40
0.0648269708407434
40
0.0736493579082844
40
0.0736493579082844
40
0.0824717449758254
40
0.0824717449758254
40
0.11776129324599
40
0.11776129324599
40
0.153050841516154
40
0.153050841516154
40
0.170695615651238
40
0.170695615651238
40
0.188340389786321
40
0.188340389786321
40
0.223629938056487
40
0.223629938056487
40
0.258919486326653
40
0.258919486326653
40
0.276564260461734
40
0.276564260461734
40
0.294209034596815
40
0.294209034596815
40
0.36478813113714
40
0.36478813113714
40
0.435367227677466
40
0.435367227677466
40
0.505946324217791
40
0.505946324217791
40
0.541235872487951
40
0.541235872487951
40
0.576525420758111
40
0.576525420758111
40
0.647104517298426
40
0.647104517298426
40
0.717683613838741
40
0.717683613838741
40
0.85884180691937
40
0.85884180691937
40
1
40
1
40
1
40
1
41
1
10
35.1577042076072
20
4.51099991261026
30
0
41
1
10
35.1554906241842
20
4.51100065882861
30
0
41
1
10
35.1533168392966
20
4.51099224591607
30
0
41
1
10
35.1450581150535
20
4.51092327251251
30
0
41
1
10
35.1392976378537
20
4.51079502087399
30
0
41
1
10
35.1122859987623
20
4.50975656555099
30
0
41
1
10
35.0963914965577
20
4.50765472646967
30
0
41
1
10
35.0805592942758
20
4.50237186422262
30
0
41
1
10
35.0766222063644
20
4.50025585916589
30
0
41
1
10
35.0726639811956
20
4.49652119380158
30
0
41
1
10
35.0716682622762
20
4.49517935319608
30
0
41
1
10
35.0703254690351
20
4.4923244465221
30
0
41
1
10
35.0699763615791
20
4.49081209356763
30
0
41
1
10
35.0697580312237
20
4.48283122366328
30
0
41
1
10
35.0744461210383
20
4.47510708181747
30
0
41
1
10
35.0918236477918
20
4.45708872819961
30
0
41
1
10
35.1045110876342
20
4.44679401649438
30
0
41
1
10
35.1285992132407
20
4.42947749867159
30
0
41
1
10
35.1374391630173
20
4.42342406044304
30
0
41
1
10
35.1564972389996
20
4.41084028343613
30
0
41
1
10
35.1667281919501
20
4.40430085303194
30
0
41
1
10
35.1993272683654
20
4.38397544113263
30
0
41
1
10
35.2235937087264
20
4.3694836605942
30
0
41
1
10
35.2763802525892
20
4.33876785922246
30
0
41
1
10
35.3049519589881
20
4.32254922096686
30
0
41
1
10
35.3505288593268
20
4.29700363325424
30
0
41
1
10
35.3661744901154
20
4.28828501105295
30
0
41
1
10
35.3982957490078
20
4.27044972435527
30
0
41
1
10
35.4147905438425
20
4.2613225388732
30
0
41
1
10
35.4986913047816
20
4.21497652050141
30
0
41
1
10
35.5705908759765
20
4.17546795326993
30
0
41
1
10
35.7208951319129
20
4.09203644625438
30
0
41
1
10
35.7993496957049
20
4.04811402523552
30
0
41
1
10
35.9611592003315
20
3.95611035886498
30
0
41
1
10
36.044526816539
20
3.90802703414101
30
0
41
1
10
36.1724752960476
20
3.83287776267636
30
0
41
1
10
36.2156114417643
20
3.80732318743492
30
0
41
1
10
36.3027613596282
20
3.75521293804962
30
0
41
1
10
36.3466272572511
20
3.72874627453839
30
0
41
1
10
36.4789002398418
20
3.64818421311187
30
0
41
1
10
36.5680156111502
20
3.59290393506623
30
0
41
1
10
36.7476922168302
20
3.4792698791565
30
0
41
1
10
36.8382555923004
20
3.42091575344469
30
0
41
1
10
37.1117118518028
20
3.24131017753285
30
0
41
1
10
37.2963364111331
20
3.11551814908537
30
0
41
1
10
37.6691660614458
20
2.85202858892109
30
0
41
1
10
37.8573810335997
20
2.71432184773113
30
0
41
1
10
38.0473870454823
20
2.57076704149119
30
0
0
SPLINE
5
134
100
AcDbEntity
8
1
62
256
6
ByLayer
370
13
48
1
60
0
100
AcDbSpline
70
4
71
3
72
9
73
5
40
0
40
0
40
0
40
0
40
0.481657854979985
40
1
40
1
40
1
40
1
41
1
10
73.305517928355
20
3.41797091962454
30
0
41
1
10
73.2671379328
20
3.9222699804134
30
0
41
1
10
73.1873064180216
20
4.80982967803806
30
0
41
1
10
73.107233490477
20
5.2284074381638
30
0
41
1
10
73.0651877644914
20
5.30189888120051
30
0
0
SPLINE
5
135
100
AcDbEntity
8
1
62
256
6
ByLayer
370
18
48
1
60
0
100
AcDbSpline
70
4
71
3
72
31
73
27
40
0
40
0
40
0
40
0
40
0.125
40
0.125
40
0.15625
40
0.15625
40
0.1875
40
0.25
40
0.25
40
0.375
40
0.375
40
0.5
40
0.5
40
0.5625
40
0.5625
40
0.625
40
0.625
40
0.750000000000001
40
0.750000000000001
40
0.875000000000001
40
0.875000000000001
40
0.937500000000001
40
0.937500000000001
40
0.96875
40
0.96875
40
1
40
1
40
1
40
1
41
1
10
72.8239396116707
20
-6.29469501584299
30
0
41
1
10
72.8135431791281
20
-6.25089531963727
30
0
41
1
10
72.8031663437182
20
-6.19596623640004
30
0
41
1
10
72.7899112759011
20
-6.11297888605287
30
0
41
1
10
72.7872458165044
20
-6.09564287359913
30
0
41
1
10
72.7819045889251
20
-6.05961168840622
30
0
41
1
10
72.7738918271635
20
-6.003628043557
30
0
41
1
10
72.7658725701515
20
-5.9419071273272
30
0
41
1
10
72.7498217674557
20
-5.81094912371779
30
0
41
1
10
72.739104966666
20
-5.71364169902844
30
0
41
1
10
72.7176424990597
20
-5.49924123884145
30
0
41
1
10
72.7068994068089
20
-5.38214863135522
30
0
41
1
10
72.690744246593
20
-5.19136050585209
30
0
41
1
10
72.6853491874446
20
-5.12519952363766
30
0
41
1
10
72.674542202946
20
-4.98784647019167
30
0
41
1
10
72.66917242822
20
-4.91719234730431
30
0
41
1
10
72.6531283345933
20
-4.69942767496102
30
0
41
1
10
72.6425121755376
20
-4.54653011943662
30
0
41
1
10
72.6212716505325
20
-4.22560060386721
30
0
41
1
10
72.6106493500321
20
-4.05756829109461
30
0
41
1
10
72.5946362097732
20
-3.7940355351754
30
0
41
1
10
72.5892855488366
20
-3.70427350563014
30
0
41
1
10
72.5812319374853
20
-3.56670189615829
30
0
41
1
10
72.5785427978932
20
-3.52035634411232
30
0
41
1
10
72.5731538862033
20
-3.42667669639826
30
0
41
1
10
72.5704637729467
20
-3.37951019611674
30
0
41
1
10
72.5677805967474
20
-3.33207879419138
30
0
0
SPLINE
5
136
100
AcDbEntity
8
1
62
256
6
ByLayer
370
18
48
1
60
0
100
AcDbSpline
70
4
71
3
72
29
73
25
40
0
40
0
40
0
40
0
40
0.124999999999999
40
0.124999999999999
40
0.249999999999997
40
0.249999999999997
40
0.281249999999997
40
0.281249999999997
40
0.312499999999997
40
0.312499999999997
40
0.374999999999997
40
0.374999999999997
40
0.499999999999997
40
0.624999999999998
40
0.624999999999998
40
0.687499999999998
40
0.687499999999998
40
0.718749999999998
40
0.718749999999998
40
0.749999999999998
40
0.749999999999998
40
0.874999999999999
40
0.874999999999999
40
1
40
1
40
1
40
1
41
1
10
72.3586352220482
20
-3.1528633051644
30
0
41
1
10
72.3694096552065
20
-3.34484847655236
30
0
41
1
10
72.3802494374256
20
-3.53063678171642
30
0
41
1
10
72.4018850978472
20
-3.88987997577988
30
0
41
1
10
72.4126804410552
20
-4.06333555818026
30
0
41
1
10
72.4261746646918
20
-4.27222996724416
30
0
41
1
10
72.4288740790404
20
-4.31361155268382
30
0
41
1
10
72.4342771114374
20
-4.39557037138115
30
0
41
1
10
72.436972541918
20
-4.43602270926081
30
0
41
1
10
72.4450302337067
20
-4.55556731688836
30
0
41
1
10
72.450370550441
20
-4.63295549029081
30
0
41
1
10
72.4663617392045
20
-4.85832034858964
30
0
41
1
10
72.4876047614843
20
-5.1407095663111
30
0
41
1
10
72.5087690818706
20
-5.38736755665892
30
0
41
1
10
72.5247189789962
20
-5.55870419531408
30
0
41
1
10
72.5300492398554
20
-5.61353578940313
30
0
41
1
10
72.5380870362992
20
-5.69228701318741
30
0
41
1
10
72.5407688834578
20
-5.71790803300752
30
0
41
1
10
72.5461212500301
20
-5.76770374942041
30
0
41
1
10
72.5487948639735
20
-5.79190894327999
30
0
41
1
10
72.5621616654707
20
-5.90950756760338
30
0
41
1
10
72.5728836108319
20
-5.99264602902059
30
0
41
1
10
72.5944311403408
20
-6.13751229028011
30
0
41
1
10
72.6052253430264
20
-6.19924002067074
30
0
41
1
10
72.616007626958
20
-6.25015386358479
30
0
0
SPLINE
5
137
100
AcDbEntity
8
1
62
256
6
ByLayer
370
13
48
1
60
0
100
AcDbSpline
70
4
71
3
72
8
73
4
40
0
40
0
40
0
40
0
40
1
40
1
40
1
40
1
41
1.04
10
74.8420602980726
20
2.35654673361435
30
0
41
1.04
10
74.7609781270691
20
3.60209681974304
30
0
41
1.04
10
74.6825398866198
20
4.56371972011054
30
0
41
1.04
10
74.6016133134672
20
5.02563855899218
30
0
0
SPLINE
5
138
100
AcDbEntity
8
1
62
256
6
ByLayer
370
18
48
1
60
0
100
AcDbSpline
70
4
71
3
72
28
73
24
40
0
40
0
40
0
40
0
40
0.124999999999999
40
0.124999999999999
40
0.249999999999998
40
0.249999999999998
40
0.281249999999998
40
0.281249999999998
40
0.312499999999997
40
0.374999999999997
40
0.374999999999997
40
0.499999999999997
40
0.624999999999997
40
0.624999999999997
40
0.656249999999997
40
0.656249999999997
40
0.687499999999997
40
0.687499999999997
40
0.749999999999997
40
0.749999999999997
40
0.874999999999999
40
0.874999999999999
40
1
40
1
40
1
40
1
41
1
10
73.7281682937284
20
6.29347181119383
30
0
41
1
10
73.7387842778228
20
6.24938437760184
30
0
41
1
10
73.7493089915584
20
6.19435080598566
30
0
41
1
10
73.7703477823501
20
6.06241831747937
30
0
41
1
10
73.7808610355256
20
5.98552104820129
30
0
41
1
10
73.7941597770884
20
5.87531164001464
30
0
41
1
10
73.7968315665406
20
5.85252868774251
30
0
41
1
10
73.802174395636
20
5.80572878542299
30
0
41
1
10
73.8101845729141
20
5.73370449109086
30
0
41
1
10
73.8182107801635
20
5.65627500390056
30
0
41
1
10
73.8343372318718
20
5.49433249826083
30
0
41
1
10
73.8559884327823
20
5.25955517024113
30
0
41
1
10
73.8776350125929
20
4.98743667055587
30
0
41
1
10
73.8911504981086
20
4.80543381960976
30
0
41
1
10
73.893853254743
20
4.76843530482319
30
0
41
1
10
73.8992591969903
20
4.69322968685461
30
0
41
1
10
73.9019658370301
20
4.65497274930979
30
0
41
1
10
73.9100634320845
20
4.53873421502934
30
0
41
1
10
73.9154181088849
20
4.45948996988827
30
0
41
1
10
73.931384123641
20
4.21661401236076
30
0
41
1
10
73.941893692452
20
4.04785226236487
30
0
41
1
10
73.9629113035222
20
3.6969004909451
30
0
41
1
10
73.9734475878724
20
3.51471141957364
30
0
41
1
10
73.9840916974955
20
3.32572350895631
30
0
0
SPLINE
5
139
100
AcDbEntity
8
1
62
256
6
ByLayer
370
18
48
1
60
0
100
AcDbSpline
70
4
71
3
72
32
73
28
40
0
40
0
40
0
40
0
40
0.125000000000001
40
0.125000000000001
40
0.156250000000001
40
0.156250000000001
40
0.187500000000001
40
0.187500000000001
40
0.25
40
0.25
40
0.374999999999998
40
0.499999999999996
40
0.499999999999996
40
0.562499999999995
40
0.562499999999995
40
0.593749999999995
40
0.593749999999995
40
0.624999999999995
40
0.624999999999995
40
0.749999999999997
40
0.874999999999998
40
0.874999999999998
40
0.937499999999999
40
0.937499999999999
40
0.96875
40
0.96875
40
1
40
1
40
1
40
1
41
1
10
74.1932754313385
20
3.14565574004396
30
0
41
1
10
74.1825530402641
20
3.3373203034015
30
0
41
1
10
74.1717850120684
20
3.52380561105622
30
0
41
1
10
74.1582351153073
20
3.75026339800732
30
0
41
1
10
74.1555206093623
20
3.79522165981047
30
0
41
1
10
74.1500815286697
20
3.88446368504276
30
0
41
1
10
74.1473599259318
20
3.9286973604757
30
0
41
1
10
74.1392252411358
20
4.05963044514056
30
0
41
1
10
74.1338278867762
20
4.14480059148286
30
0
41
1
10
74.1176981531007
20
4.39407509098871
30
0
41
1
10
74.0963595973835
20
4.70984414050011
30
0
41
1
10
74.0751629329216
20
4.99287608554442
30
0
41
1
10
74.0592197332351
20
5.19265203418095
30
0
41
1
10
74.0538974142698
20
5.25715694338405
30
0
41
1
10
74.045886687146
20
5.35071692377639
30
0
41
1
10
74.0432119205525
20
5.38136756846575
30
0
41
1
10
74.0378819812437
20
5.44124281337722
30
0
41
1
10
74.0352228612246
20
5.47051408236996
30
0
41
1
10
74.0219494029077
20
5.61357430720099
30
0
41
1
10
74.0008535241706
20
5.82142950162552
30
0
41
1
10
73.9796805692861
20
5.98814427318376
30
0
41
1
10
73.9636455478544
20
6.09761428961559
30
0
41
1
10
73.958274772821
20
6.13150492690491
30
0
41
1
10
73.9501658073962
20
6.17837729317799
30
0
41
1
10
73.9474537340437
20
6.19334047368346
30
0
41
1
10
73.942013429492
20
6.22192998789188
30
0
41
1
10
73.9392831834865
20
6.23556430112296
30
0
41
1
10
73.9365615818091
20
6.24845071110948
30
0
0
SPLINE
5
13A
100
AcDbEntity
8
1
62
256
6
ByLayer
370
13
48
1
60
0
100
AcDbSpline
70
4
71
3
72
9
73
5
40
0
40
0
40
0
40
0
40
0.454916131790515
40
1
40
1
40
1
40
1
41
1.04
10
63.2088895939766
20
0.889144825121891
30
0
41
1.04
10
63.1882786485319
20
1.23730063990286
30
0
41
1.04
10
63.1429604907558
20
1.99019810714948
30
0
41
1.04
10
63.0975657117538
20
2.68364627002365
30
0
41
1.04
10
63.0727026924002
20
3.03427284234878
30
0
0
SPLINE
5
13B
100
AcDbEntity
8
1
62
256
6
ByLayer
370
18
48
1
60
0
100
AcDbSpline
70
4
71
3
72
17
73
13
40
0
40
0
40
0
40
0
40
0.249999999999999
40
0.249999999999999
40
0.312499999999999
40
0.312499999999999
40
0.374999999999999
40
0.499999999999999
40
0.499999999999999
40
0.749999999999999
40
0.749999999999999
40
1
40
1
40
1
40
1
41
1
10
63.1401186735804
20
0.934341149072253
30
0
41
1
10
63.1346669876131
20
1.1233061543322
30
0
41
1
10
63.1292102131164
20
1.31045648832568
30
0
41
1
10
63.1222889385763
20
1.54202210277541
30
0
41
1
10
63.1208975080458
20
1.58828192739602
30
0
41
1
10
63.1181118374242
20
1.6802111830944
30
0
41
1
10
63.1139329396849
20
1.81712418563717
30
0
41
1
10
63.1097337421106
20
1.95111266590075
30
0
41
1
10
63.1012895481608
20
2.21523298917003
30
0
41
1
10
63.0956108930042
20
2.38619260364385
30
0
41
1
10
63.0841997245619
20
2.71794372555027
30
0
41
1
10
63.0784673717418
20
2.87873618796328
30
0
41
1
10
63.0727026924002
20
3.03427284234871
30
0
0
SPLINE
5
13C
100
AcDbEntity
8
1
62
256
6
ByLayer
370
18
48
1
60
0
100
AcDbSpline
70
4
71
3
72
14
73
10
40
0
40
0
40
0
40
0
40
0.25
40
0.25
40
0.375
40
0.375
40
0.500000000000001
40
0.500000000000001
40
1
40
1
40
1
40
1
41
1
10
63.0727026924002
20
3.03427284234908
30
0
41
1
10
63.0685105618451
20
3.14738060128028
30
0
41
1
10
63.0645390986388
20
3.25701233659177
30
0
41
1
10
63.058873119537
20
3.4162103072818
30
0
41
1
10
63.0570306519388
20
3.4684709358568
30
0
41
1
10
63.0534524062242
20
3.57078348615968
30
0
41
1
10
63.0517161816758
20
3.62084647293312
30
0
41
1
10
63.0432792790454
20
3.86575478235329
30
0
41
1
10
63.0373114915716
20
4.04447879196621
30
0
41
1
10
63.0318729365444
20
4.20597046353887
30
0
0
SPLINE
5
13D
100
AcDbEntity
8
1
62
256
6
ByLayer
370
18
48
1
60
0
100
AcDbSpline
70
4
71
3
72
10
73
6
40
0
40
0
40
0
40
0
40
0.359082758644583
40
0.717165502955403
40
1
40
1
40
1
40
1
41
1
10
81.2200000649826
20
-2.58760166141229
30
0
41
1
10
81.2200000764817
20
-2.19534101147636
30
0
41
1
10
81.2200000110203
20
-1.35236303507128
30
0
41
1
10
81.219999939161
20
-0.0934760768205649
30
0
41
1
10
81.2199999191477
20
0.707708413314322
30
0
41
1
10
81.2199999145205
20
1.05279937981911
30
0
0
SPLINE
5
13E
100
AcDbEntity
8
1
62
256
6
ByLayer
370
18
48
1
60
0
100
AcDbSpline
70
4
71
3
72
27
73
23
40
0
40
0
40
0
40
0
40
0.125
40
0.125
40
0.25
40
0.25
40
0.3125
40
0.3125
40
0.375
40
0.375
40
0.5
40
0.624999999999999
40
0.624999999999999
40
0.687499999999999
40
0.687499999999999
40
0.718749999999999
40
0.718749999999999
40
0.749999999999999
40
0.749999999999999
40
0.875
40
0.875
40
1
40
1
40
1
40
1
41
1
10
79.3791588235197
20
2.64157224727478
30
0
41
1
10
79.3892885439658
20
2.47928451542725
30
0
41
1
10
79.3993241725607
20
2.3135664365405
30
0
41
1
10
79.4192858349716
20
1.97538820240709
30
0
41
1
10
79.4292197944481
20
1.80293249651936
30
0
41
1
10
79.444298539537
20
1.53920709286277
30
0
41
1
10
79.449352304697
20
1.45045642540714
30
0
41
1
10
79.4595170503328
20
1.27124900303593
30
0
41
1
10
79.464594357243
20
1.18138552730167
30
0
41
1
10
79.4797910480935
20
0.911413714290006
30
0
41
1
10
79.4999790596131
20
0.550099972134916
30
0
41
1
10
79.5200240287033
20
0.186125341270582
30
0
41
1
10
79.5350044080648
20
-0.0878761418518366
30
0
41
1
10
79.5399887469082
20
-0.179380502956235
30
0
41
1
10
79.5474851314372
20
-0.316893096178035
30
0
41
1
10
79.5499873555292
20
-0.362773325364003
30
0
41
1
10
79.5550032240447
20
-0.454619595250932
30
0
41
1
10
79.5575193533555
20
-0.500636650815949
30
0
41
1
10
79.5700951659948
20
-0.730293230856574
30
0
41
1
10
79.5801049938588
20
-0.912016530745944
30
0
41
1
10
79.6001167549099
20
-1.27154224447713
30
0
41
1
10
79.6101079745064
20
-1.44934111082088
30
0
41
1
10
79.6201745887508
20
-1.62514506295341
30
0
0
SPLINE
5
13F
100
AcDbEntity
8
1
62
256
6
ByLayer
370
13
48
1
60
0
100
AcDbSpline
70
4
71
3
72
10
73
6
40
0
40
0
40
0
40
0
40
0.246306357158773
40
0.721290444253971
40
1
40
1
40
1
40
1
41
1
10
79.4642244021658
20
-1.36447010174606
30
0
41
1
10
79.4443191195579
20
-1.03463136566313
30
0
41
1
10
79.3860198426955
20
-0.0438825642387144
30
0
41
1
10
79.3056725090548
20
1.34649802066267
30
0
41
1
10
79.2454294029296
20
2.29938081267295
30
0
41
1
10
79.2232462699097
20
2.63009092111298
30
0
0
SPLINE
5
140
100
AcDbEntity
8
1
62
256
6
ByLayer
370
13
48
1
60
0
100
AcDbSpline
70
4
71
3
72
11
73
7
40
0
40
0
40
0
40
0
40
0.136960859961283
40
0.61135705953868
40
0.92973216356465
40
1
40
1
40
1
40
1
41
1.04
10
78.9478325592947
20
-0.947551915776538
30
0
41
1.04
10
78.9367536810633
20
-0.760669197425656
30
0
41
1.04
10
78.8873230732965
20
0.0811473540999522
30
0
41
1.04
10
78.8125289907762
20
1.3761514722551
30
0
41
1.04
10
78.7434796155912
20
2.46525185738468
30
0
41
1.04
10
78.7125834186081
20
2.91137436046898
30
0
41
1.04
10
78.7070027081211
20
2.99050602570798
30
0
0
SPLINE
5
141
100
AcDbEntity
8
1
62
256
6
ByLayer
370
13
48
1
60
0
100
AcDbSpline
70
4
71
3
72
9
73
5
40
0
40
0
40
0
40
0
40
0.505503688471952
40
1
40
1
40
1
40
1
41
1.04
10
76.8950488784887
20
0.741619842813234
30
0
41
1.04
10
76.8565953659149
20
1.39483872413733
30
0
41
1.04
10
76.7789214161878
20
2.67689616502819
30
0
41
1.04
10
76.6965256410682
20
3.77640564165689
30
0
41
1.04
10
76.6542327479064
20
4.21907694233562
30
0
0
SPLINE
5
142
100
AcDbEntity
8
1
62
256
6
ByLayer
370
18
48
1
60
0
100
AcDbSpline
70
4
71
3
72
29
73
25
40
0
40
0
40
0
40
0
40
0.125
40
0.125
40
0.25
40
0.25
40
0.375
40
0.375
40
0.40625
40
0.40625
40
0.4375
40
0.5
40
0.5
40
0.625
40
0.625
40
0.75
40
0.75
40
0.78125
40
0.78125
40
0.8125
40
0.8125
40
0.875
40
0.875
40
1
40
1
40
1
40
1
41
1
10
78.6564913908391
20
-0.91008179058187
30
0
41
1
10
78.6457682301969
20
-0.717389673964533
30
0
41
1
10
78.635107476567
20
-0.52449318056631
30
0
41
1
10
78.6137972712742
20
-0.13830574990871
30
0
41
1
10
78.6031978730912
20
0.0549890670079662
30
0
41
1
10
78.5821689690243
20
0.441987548108557
30
0
41
1
10
78.5717032693004
20
0.63568791232376
30
0
41
1
10
78.5585173487864
20
0.87806056131015
30
0
41
1
10
78.5558766826149
20
0.926515138467295
30
0
41
1
10
78.5506101898463
20
1.02291057847717
30
0
41
1
10
78.5427220454889
20
1.16692975833666
30
0
41
1
10
78.5348501530714
20
1.30924752261799
30
0
41
1
10
78.5190819687919
20
1.59164681333019
30
0
41
1
10
78.508507327335
20
1.77693954799648
30
0
41
1
10
78.4872438714967
20
2.14156172348834
30
0
41
1
10
78.4766030048456
20
2.32088311653288
30
0
41
1
10
78.4633402315844
20
2.54116825300778
30
0
41
1
10
78.4606882103938
20
2.58503192561349
30
0
41
1
10
78.4553818641558
20
2.67236871138755
30
0
41
1
10
78.45272453198
20
2.71589069284147
30
0
41
1
10
78.4447660389226
20
2.84546974974808
30
0
41
1
10
78.4394838273398
20
2.9304618894181
30
0
41
1
10
78.4236251698675
20
3.18132952764782
30
0
41
1
10
78.4130481306022
20
3.34310128551417
30
0
41
1
10
78.4023547478606
20
3.49950438249132
30
0
0
SPLINE
5
143
100
AcDbEntity
8
1
62
256
6
ByLayer
370
18
48
1
60
0
100
AcDbSpline
70
4
71
3
72
27
73
23
40
0
40
0
40
0
40
0
40
0.125
40
0.125
40
0.25
40
0.25
40
0.312499999999999
40
0.312499999999999
40
0.343749999999999
40
0.343749999999999
40
0.374999999999999
40
0.499999999999999
40
0.499999999999999
40
0.624999999999999
40
0.624999999999999
40
0.687499999999999
40
0.687499999999999
40
0.749999999999999
40
0.749999999999999
40
0.875
40
0.875
40
1
40
1
40
1
40
1
41
1
10
77.5963661341163
20
4.19630316151103
30
0
41
1
10
77.6066092070882
20
4.05017029515375
30
0
41
1
10
77.6167140707199
20
3.89760352081993
30
0
41
1
10
77.6369839501882
20
3.5800097524459
30
0
41
1
10
77.6471788363316
20
3.41501943986512
30
0
41
1
10
77.662601821111
20
3.15792029812695
30
0
41
1
10
77.6677659025063
20
3.07061466069459
30
0
41
1
10
77.6755664188409
20
2.937181849551
30
0
41
1
10
77.6781784304012
20
2.89223583626134
30
0
41
1
10
77.6833917357138
20
2.80199185413164
30
0
41
1
10
77.6964121670745
20
2.57529410862026
30
0
41
1
10
77.7093497448379
20
2.34322144814541
30
0
41
1
10
77.7300121770409
20
1.96522699365809
30
0
41
1
10
77.740341110348
20
1.7729010803632
30
0
41
1
10
77.7559247650978
20
1.47945023700072
30
0
41
1
10
77.7611334971573
20
1.3808042369601
30
0
41
1
10
77.7715862890963
20
1.18183397782155
30
0
41
1
10
77.7768329278712
20
1.08145946162691
30
0
41
1
10
77.7926137092645
20
0.778071447132675
30
0
41
1
10
77.8030535618802
20
0.575416305653022
30
0
41
1
10
77.8237527904664
20
0.169322737487107
30
0
41
1
10
77.8339914321739
20
-0.0341180205343505
30
0
41
1
10
77.8441706848712
20
-0.2379559397381
30
0
0
SPLINE
5
144
100
AcDbEntity
8
1
62
256
6
ByLayer
370
13
48
1
60
0
100
AcDbSpline
70
4
71
3
72
9
73
5
40
0
40
0
40
0
40
0
40
0.61390523229894
40
1
40
1
40
1
40
1
41
1
10
77.411381852883
20
0.317077303217701
30
0
41
1
10
77.3645174684625
20
1.12053811377459
30
0
41
1
10
77.2864050713017
20
2.4387139239137
30
0
41
1
10
77.2034489037881
20
3.56696386196916
30
0
41
1
10
77.1705031857824
20
3.94642328969701
30
0
0
SPLINE
5
145
100
AcDbEntity
8
1
62
256
6
ByLayer
370
13
48
1
60
0
100
AcDbSpline
70
4
71
3
72
10
73
6
40
0
40
0
40
0
40
0
40
0.404504933895563
40
0.709923387690447
40
1
40
1
40
1
40
1
41
1.04
10
69.3676363173163
20
-3.77651365563058
30
0
41
1.04
10
69.3352142074788
20
-3.38434220134097
30
0
41
1.04
10
69.2780227001581
20
-2.58452866731887
30
0
41
1.04
10
69.1971271182833
20
-1.27254329916937
30
0
41
1.04
10
69.1502766015561
20
-0.471956899238562
30
0
41
1.04
10
69.1276661819683
20
-0.0846579224592858
30
0
0
SPLINE
5
146
100
AcDbEntity
8
1
62
256
6
ByLayer
370
13
48
1
60
0
100
AcDbSpline
70
4
71
3
72
10
73
6
40
0
40
0
40
0
40
0
40
0.521322192978517
40
0.976090393455564
40
1
40
1
40
1
40
1
41
1.04
10
65.2618388259803
20
-0.800344997439649
30
0
41
1.04
10
65.2212897061422
20
-0.112805515212955
30
0
41
1.04
10
65.1448544161883
20
1.22024685642593
30
0
41
1.04
10
65.0637107966152
20
2.51342523664742
30
0
41
1.04
10
65.024307433701
20
3.06691797692067
30
0
41
1.04
10
65.0223378632204
20
3.09439581006261
30
0
0
SPLINE
5
147
100
AcDbEntity
8
1
62
256
6
ByLayer
370
13
48
1
60
0
100
AcDbSpline
70
4
71
3
72
10
73
6
40
0
40
0
40
0
40
0
40
0.155224086601729
40
0.923575840821243
40
1
40
1
40
1
40
1
41
1.04
10
67.3147355990928
20
-2.40985830654304
30
0
41
1.04
10
67.3025701940288
20
-2.224077557017
30
0
41
1.04
10
67.230048848894
20
-1.08355661260904
30
0
41
1.04
10
67.1503847821454
20
0.339939595236444
30
0
41
1.04
10
67.0812533988968
20
1.48142904009722
30
0
41
1.04
10
67.0749840607202
20
1.5839959417799
30
0
0
SPLINE
5
148
100
AcDbEntity
8
1
62
256
6
ByLayer
370
13
48
1
60
0
100
AcDbSpline
70
4
71
3
72
8
73
4
40
0
40
0
40
0
40
0
40
1
40
1
40
1
40
1
41
1
10
75.3584574920017
20
1.96641995260043
30
0
41
1
10
75.2767740047091
20
3.26799563979
30
0
41
1
10
75.1982880022648
20
4.30667094499549
30
0
41
1
10
75.1178739174173
20
4.86831810816378
30
0
0
SPLINE
5
149
100
AcDbEntity
8
1
62
256
6
ByLayer
370
18
48
1
60
0
100
AcDbSpline
70
4
71
3
72
33
73
29
40
0
40
0
40
0
40
0
40
0.0312499999999998
40
0.0312499999999998
40
0.0624999999999997
40
0.0624999999999997
40
0.125
40
0.125
40
0.25
40
0.375
40
0.375
40
0.4375
40
0.4375
40
0.46875
40
0.46875
40
0.500000000000001
40
0.500000000000001
40
0.625
40
0.625
40
0.75
40
0.75
40
0.8125
40
0.8125
40
0.84375
40
0.84375
40
0.875
40
0.875
40
1
40
1
40
1
40
1
41
1
10
75.7805800770673
20
5.57593122819196
30
0
41
1
10
75.78328659256
20
5.54842737217066
30
0
41
1
10
75.7859972929893
20
5.52025567588217
30
0
41
1
10
75.7914280625832
20
5.46256179374899
30
0
41
1
10
75.7941517334196
20
5.43299861613366
30
0
41
1
10
75.8022959191263
20
5.34273513990155
30
0
41
1
10
75.8076982245914
20
5.2803770714757
30
0
41
1
10
75.8238393943814
20
5.0868888037449
30
0
41
1
10
75.8451840170753
20
4.81183362380324
30
0
41
1
10
75.8663779628691
20
4.50320722082219
30
0
41
1
10
75.8823176011422
20
4.25896118232123
30
0
41
1
10
75.8876384515319
20
4.17541232697161
30
0
41
1
10
75.8956463892196
20
4.04682595746328
30
0
41
1
10
75.898324112176
20
4.00335447362372
30
0
41
1
10
75.9036672382982
20
3.91570486151002
30
0
41
1
10
75.9063328046105
20
3.87152594623865
30
0
41
1
10
75.9196376086642
20
3.64888132962381
30
0
41
1
10
75.9302083600553
20
3.46517977275218
30
0
41
1
10
75.9513732326359
20
3.08689367820713
30
0
41
1
10
75.9619678054943
20
2.89230860712806
30
0
41
1
10
75.9779884678723
20
2.59222196280109
30
0
41
1
10
75.9833499448001
20
2.49082224224875
30
0
41
1
10
75.9914352973686
20
2.3366356793868
30
0
41
1
10
75.9941375858124
20
2.28489214918599
30
0
41
1
10
75.9995580663669
20
2.18070171171738
30
0
41
1
10
76.0022798714699
20
2.12818292973128
30
0
41
1
10
76.0158786335712
20
1.86472851901232
30
0
41
1
10
76.0266791617822
20
1.6520229647283
30
0
41
1
10
76.0374119048011
20
1.43744157881909
30
0
0
SPLINE
5
14A
100
AcDbEntity
8
1
62
256
6
ByLayer
370
18
48
1
60
0
100
AcDbSpline
70
4
71
3
72
29
73
25
40
0
40
0
40
0
40
0
40
0.125
40
0.125
40
0.25
40
0.25
40
0.375
40
0.375
40
0.40625
40
0.40625
40
0.4375
40
0.5
40
0.5
40
0.625
40
0.625
40
0.75
40
0.75
40
0.78125
40
0.78125
40
0.8125
40
0.8125
40
0.875
40
0.875
40
1
40
1
40
1
40
1
41
1
10
76.2456251248223
20
1.23448083368393
30
0
41
1
10
76.2349931320853
20
1.45274185492275
30
0
41
1
10
76.2244762989437
20
1.66708591897418
30
0
41
1
10
76.2034486533464
20
2.08816545251227
30
0
41
1
10
76.1929368093481
20
2.2949002870773
30
0
41
1
10
76.171716569613
20
2.70074065049016
30
0
41
1
10
76.1610069126374
20
2.89984685118452
30
0
41
1
10
76.1474061919565
20
3.14379667283444
30
0
41
1
10
76.1446744833297
20
3.19235186439897
30
0
41
1
10
76.1392229919863
20
3.28839844971273
30
0
41
1
10
76.1310521971715
20
3.43108772162287
30
0
41
1
10
76.1229115548648
20
3.56968383015388
30
0
41
1
10
76.1066818481756
20
3.84150381177935
30
0
41
1
10
76.0959345963251
20
4.01556821904958
30
0
41
1
10
76.0745294010474
20
4.34949924733536
30
0
41
1
10
76.063869725268
20
4.5093664103409
30
0
41
1
10
76.0504999865316
20
4.70010248034873
30
0
41
1
10
76.0478235996816
20
4.73779363529164
30
0
41
1
10
76.0424628389331
20
4.81225339057602
30
0
41
1
10
76.0397760332538
20
4.84905339114624
30
0
41
1
10
76.0317445651526
20
4.95744029320113
30
0
41
1
10
76.0264151650402
20
5.02720840161453
30
0
41
1
10
76.0104635119524
20
5.22919074454927
30
0
41
1
10
75.9998756123479
20
5.35410192779537
30
0
41
1
10
75.9892516895605
20
5.46942127959591
30
0
0
SPLINE
5
14B
100
AcDbEntity
8
1
62
256
6
ByLayer
370
13
48
1
60
0
100
AcDbSpline
70
4
71
3
72
9
73
5
40
0
40
0
40
0
40
0
40
0.371162273827129
40
1
40
1
40
1
40
1
41
1
10
63.7252543591336
20
0.466298380837969
30
0
41
1
10
63.6958327626609
20
0.968315737067854
30
0
41
1
10
63.6165619490648
20
2.30454478848091
30
0
41
1
10
63.5370561522605
20
3.45617339128159
30
0
41
1
10
63.486175074753
20
4.02786306495076
30
0
0
SPLINE
5
14C
100
AcDbEntity
8
1
62
256
6
ByLayer
370
18
48
1
60
0
100
AcDbSpline
70
4
71
3
72
29
73
25
40
0
40
0
40
0
40
0
40
0.124999999999998
40
0.249999999999997
40
0.249999999999997
40
0.312499999999996
40
0.312499999999996
40
0.343749999999996
40
0.343749999999996
40
0.374999999999995
40
0.374999999999995
40
0.499999999999996
40
0.499999999999996
40
0.624999999999996
40
0.624999999999996
40
0.687499999999997
40
0.687499999999997
40
0.718749999999997
40
0.718749999999997
40
0.749999999999997
40
0.749999999999997
40
0.874999999999999
40
0.874999999999999
40
1
40
1
40
1
40
1
41
1
10
70.7715262604168
20
-5.57774637537517
30
0
41
1
10
70.7607267518887
20
-5.46807749673678
30
0
41
1
10
70.7392673581263
20
-5.23020284274946
30
0
41
1
10
70.717944395082
20
-4.95591397932949
30
0
41
1
10
70.7018793794336
20
-4.73635567111339
30
0
41
1
10
70.6965093769938
20
-4.66085824492717
30
0
41
1
10
70.6884394509014
20
-4.54407834941102
30
0
41
1
10
70.6857437238285
20
-4.50451367571088
30
0
41
1
10
70.6803632221122
20
-4.4244253297598
30
0
41
1
10
70.6776825022183
20
-4.38396356778395
30
0
41
1
10
70.6643243603866
20
-4.17959135072891
30
0
41
1
10
70.6537913087561
20
-4.0095072227987
30
0
41
1
10
70.6328439330307
20
-3.65651959178089
30
0
41
1
10
70.6224294303672
20
-3.47361526417362
30
0
41
1
10
70.6066064709207
20
-3.18960600687427
30
0
41
1
10
70.6012970898193
20
-3.09332441240133
30
0
41
1
10
70.5932298996415
20
-2.94645130154038
30
0
41
1
10
70.5905229079469
20
-2.89708497195861
30
0
41
1
10
70.5850776053434
20
-2.79752642359105
30
0
41
1
10
70.5823374129942
20
-2.74729817615125
30
0
41
1
10
70.5685909505853
20
-2.49445561433154
30
0
41
1
10
70.5575825738051
20
-2.28909002912979
30
0
41
1
10
70.5357476942519
20
-1.87238345561465
30
0
41
1
10
70.5249210088932
20
-1.66104180436494
30
0
41
1
10
70.5142006390132
20
-1.44672142308744
30
0
0
SPLINE
5
14D
100
AcDbEntity
8
1
62
256
6
ByLayer
370
13
48
1
60
0
100
AcDbSpline
70
4
71
3
72
9
73
5
40
0
40
0
40
0
40
0
40
0.631040647580679
40
1
40
1
40
1
40
1
41
1
10
65.7781778557062
20
-1.21915047448664
30
0
41
1
10
65.7289283765717
20
-0.396625504988663
30
0
41
1
10
65.6505023324142
20
0.985487991811283
30
0
41
1
10
65.5691371148552
20
2.2897122035084
30
0
41
1
10
65.5387675648216
20
2.73655963429425
30
0
0
SPLINE
5
14E
100
AcDbEntity
8
1
62
256
6
ByLayer
370
13
48
1
60
0
100
AcDbSpline
70
4
71
3
72
9
73
5
40
0
40
0
40
0
40
0
40
0.266607280913227
40
1
40
1
40
1
40
1
41
1
10
67.8310982171184
20
-2.78194746788273
30
0
41
1
10
67.8101607613416
20
-2.47614387660704
30
0
41
1
10
67.7314230174824
20
-1.25576795763377
30
0
41
1
10
67.6514380368636
20
0.168327498822976
30
0
41
1
10
67.5914130406719
20
1.17119995396516
30
0
0
SPLINE
5
14F
100
AcDbEntity
8
1
62
256
6
ByLayer
370
18
48
1
60
0
100
AcDbSpline
70
4
71
3
72
29
73
25
40
0
40
0
40
0
40
0
40
0.125
40
0.125
40
0.250000000000001
40
0.250000000000001
40
0.281250000000001
40
0.281250000000001
40
0.312500000000001
40
0.312500000000001
40
0.375000000000001
40
0.375000000000001
40
0.500000000000001
40
0.625
40
0.625
40
0.687499999999999
40
0.687499999999999
40
0.718749999999999
40
0.718749999999999
40
0.749999999999999
40
0.749999999999999
40
0.875
40
0.875
40
1
40
1
40
1
40
1
41
1
10
66.6659992858917
20
-2.58972749592917
30
0
41
1
10
66.6553724710414
20
-2.38810966167045
30
0
41
1
10
66.6446899242859
20
-2.18275642757257
30
0
41
1
10
66.6231210824443
20
-1.76464787101773
30
0
41
1
10
66.6122724269903
20
-1.55189113224875
30
0
41
1
10
66.598685579887
20
-1.28120599181875
30
0
41
1
10
66.5959665703969
20
-1.22683141523385
30
0
41
1
10
66.5905252751205
20
-1.11760195942173
30
0
41
1
10
66.5877990175409
20
-1.06266650717518
30
0
41
1
10
66.5796527366797
20
-0.897904713681925
30
0
41
1
10
66.5742624810018
20
-0.788067056046287
30
0
41
1
10
66.558196241895
20
-0.458565191731111
30
0
41
1
10
66.537059304595
20
-0.0192586231578673
30
0
41
1
10
66.5161585006696
20
0.419974827883436
30
0
41
1
10
66.500386255041
20
0.749363103257593
30
0
41
1
10
66.4951121461685
20
0.859153020881905
30
0
41
1
10
66.4871479610479
20
1.02382712989589
30
0
41
1
10
66.4844806372025
20
1.07879304190101
30
0
41
1
10
66.4791427528315
20
1.18832095153817
30
0
41
1
10
66.4764742670201
20
1.24284094878624
30
0
41
1
10
66.4631222425216
20
1.51423476518869
30
0
41
1
10
66.4523755120208
20
1.72749830341977
30
0
41
1
10
66.4308241313638
20
2.14652600070048
30
0
41
1
10
66.4200368242094
20
2.35229054339675
30
0
41
1
10
66.4092544041529
20
2.55428570866189
30
0
0
SPLINE
5
150
100
AcDbEntity
8
1
62
256
6
ByLayer
370
18
48
1
60
0
100
AcDbSpline
70
4
71
3
72
32
73
28
40
0
40
0
40
0
40
0
40
0.124999999999999
40
0.124999999999999
40
0.156249999999999
40
0.156249999999999
40
0.187499999999999
40
0.249999999999999
40
0.249999999999999
40
0.374999999999998
40
0.374999999999998
40
0.499999999999998
40
0.499999999999998
40
0.531249999999998
40
0.531249999999998
40
0.562499999999998
40
0.562499999999998
40
0.624999999999998
40
0.624999999999998
40
0.749999999999999
40
0.874999999999999
40
0.874999999999999
40
0.9375
40
0.9375
40
0.96875
40
0.96875
40
1
40
1
40
1
40
1
41
1
10
66.2009244144433
20
2.74265908607603
30
0
41
1
10
66.2115503768574
20
2.54404368496358
30
0
41
1
10
66.222147395098
20
2.34002896137463
30
0
41
1
10
66.2354704376954
20
2.07803053086693
30
0
41
1
10
66.2381374382955
20
2.02531940102085
30
0
41
1
10
66.2434543323764
20
1.91980808477695
30
0
41
1
10
66.2514141521028
20
1.76118808412733
30
0
41
1
10
66.2593611225871
20
1.60152260582561
30
0
41
1
10
66.2752969978227
20
1.28082156874683
30
0
41
1
10
66.2859617329664
20
1.06519693688617
30
0
41
1
10
66.3073791512161
20
0.630323923395224
30
0
41
1
10
66.3181306396755
20
0.411075661839021
30
0
41
1
10
66.3316355582583
20
0.134693464991671
30
0
41
1
10
66.3343399004838
20
0.0793006400550098
30
0
41
1
10
66.3397559984509
20
-0.0317204158686764
30
0
41
1
10
66.3424689535937
20
-0.0873734008637541
30
0
41
1
10
66.3505728113949
20
-0.253714408668912
30
0
41
1
10
66.3559441741235
20
-0.364103425242405
30
0
41
1
10
66.3719797899212
20
-0.693784467163653
30
0
41
1
10
66.3931481960257
20
-1.1294043420657
30
0
41
1
10
66.4141282799113
20
-1.55722391105877
30
0
41
1
10
66.4299321667472
20
-1.87510912330697
30
0
41
1
10
66.4352121714592
20
-1.98057329531156
30
0
41
1
10
66.4431734806523
20
-2.13800695541104
30
0
41
1
10
66.4458373430926
20
-2.19041896370925
30
0
41
1
10
66.4511543826824
20
-2.2944209762085
30
0
41
1
10
66.4538102530914
20
-2.34606487092731
30
0
41
1
10
66.4564656878343
20
-2.39735553181453
30
0
0
SPLINE
5
151
100
AcDbEntity
8
1
62
256
6
ByLayer
370
18
48
1
60
0
100
AcDbSpline
70
4
71
3
72
33
73
29
40
0
40
0
40
0
40
0
40
0.0625000000000002
40
0.0625000000000002
40
0.0937500000000002
40
0.0937500000000002
40
0.125
40
0.125
40
0.25
40
0.25
40
0.375
40
0.375
40
0.437500000000001
40
0.437500000000001
40
0.468750000000001
40
0.468750000000001
40
0.500000000000001
40
0.500000000000001
40
0.625000000000001
40
0.625000000000001
40
0.75
40
0.75
40
0.875
40
0.875
40
0.90625
40
0.90625
40
0.9375
40
1
40
1
40
1
40
1
41
1
10
64.6123370004747
20
-0.618283291661157
30
0
41
1
10
64.6070117141404
20
-0.508591516087392
30
0
41
1
10
64.6016826948204
20
-0.398329465917897
30
0
41
1
10
64.5936687092702
20
-0.232064088873102
30
0
41
1
10
64.5909914212889
20
-0.176444366411914
30
0
41
1
10
64.5856573167266
20
-0.0655389081361761
30
0
41
1
10
64.5829971854637
20
-0.0101845554529802
30
0
41
1
10
64.5697236364036
20
0.266100390376806
30
0
41
1
10
64.5591916729477
20
0.485574470867675
30
0
41
1
10
64.5381055676045
20
0.92147928805835
30
0
41
1
10
64.5275508311194
20
1.1379098642864
30
0
41
1
10
64.5115588413624
20
1.46024889969087
30
0
41
1
10
64.5061989449686
20
1.56730991286938
30
0
41
1
10
64.4981150314931
20
1.72731432333782
30
0
41
1
10
64.4954137742884
20
1.78055125962402
30
0
41
1
10
64.4900000232324
20
1.88682734936438
30
0
41
1
10
64.4872836857184
20
1.9399410949477
30
0
41
1
10
64.4737435310417
20
2.20370942620559
30
0
41
1
10
64.4630294454923
20
2.40942634700818
30
0
41
1
10
64.4417776496498
20
2.81060735526756
30
0
41
1
10
64.4312386051496
20
3.00607037699203
30
0
41
1
10
64.410109235923
20
3.38674500829782
30
0
41
1
10
64.3995024082917
20
3.57195670071084
30
0
41
1
10
64.3860323657503
20
3.79686046671659
30
0
41
1
10
64.3833261959879
20
3.84157187160997
30
0
41
1
10
64.3779189636709
20
3.9299950069327
30
0
41
1
10
64.369821266407
20
4.06104232836319
30
0
41
1
10
64.3617688891805
20
4.18738663110616
30
0
41
1
10
64.3564214743074
20
4.26956149865342
30
0
0
SPLINE
5
152
100
AcDbEntity
8
1
62
256
6
ByLayer
370
18
48
1
60
0
100
AcDbSpline
70
4
71
3
72
28
73
24
40
0
40
0
40
0
40
0
40
0.125000000000001
40
0.250000000000002
40
0.250000000000002
40
0.312500000000003
40
0.312500000000003
40
0.343750000000003
40
0.343750000000003
40
0.375000000000003
40
0.375000000000003
40
0.500000000000003
40
0.500000000000003
40
0.625000000000002
40
0.625000000000002
40
0.750000000000001
40
0.750000000000001
40
0.781250000000001
40
0.781250000000001
40
0.812500000000001
40
0.875000000000001
40
0.875000000000001
40
1
40
1
40
1
40
1
41
1
10
64.1486252041417
20
4.42135061909028
30
0
41
1
10
64.1593988937043
20
4.26095515582773
30
0
41
1
10
64.1806541138918
20
3.92654840282984
30
0
41
1
10
64.2015449178559
20
3.56551977664955
30
0
41
1
10
64.2172272251649
20
3.28467914079997
30
0
41
1
10
64.2224577910545
20
3.1893841888849
30
0
41
1
10
64.2303349598049
20
3.04387876674821
30
0
41
1
10
64.2329659611644
20
2.99494957701211
30
0
41
1
10
64.2382437051814
20
2.89622690897818
30
0
41
1
10
64.2408920487697
20
2.84640243062
30
0
41
1
10
64.2541101872025
20
2.59655803564067
30
0
41
1
10
64.2646824879664
20
2.39328457788432
30
0
41
1
10
64.2861009103491
20
1.98016693276873
30
0
41
1
10
64.2969015070593
20
1.77032019064217
30
0
41
1
10
64.3185558000047
20
1.34404378790953
30
0
41
1
10
64.3294089503114
20
1.12761464338578
30
0
41
1
10
64.3429974084794
20
0.852829658296884
30
0
41
1
10
64.345719840537
20
0.797591396841284
30
0
41
1
10
64.3511393616697
20
0.687277826855023
30
0
41
1
10
64.3592385418856
20
0.521895423288896
30
0
41
1
10
64.3672541423699
20
0.356774004707404
30
0
41
1
10
64.383201250913
20
0.0268747693088471
30
0
41
1
10
64.3937172309356
20
-0.192600970932915
30
0
41
1
10
64.4042305734322
20
-0.411618112889869
30
0
0
SPLINE
5
153
100
AcDbEntity
8
1
62
256
6
ByLayer
370
18
48
1
60
0
100
AcDbSpline
70
4
71
3
72
33
73
29
40
0
40
0
40
0
40
0
40
0.0624999999999999
40
0.0624999999999999
40
0.09375
40
0.09375
40
0.125
40
0.125
40
0.25
40
0.25
40
0.375000000000001
40
0.375000000000001
40
0.500000000000001
40
0.500000000000001
40
0.531250000000001
40
0.531250000000001
40
0.562500000000001
40
0.625000000000001
40
0.625000000000001
40
0.750000000000001
40
0.750000000000001
40
0.875000000000001
40
0.875000000000001
40
0.906250000000001
40
0.906250000000001
40
0.937500000000001
40
0.937500000000001
40
1
40
1
40
1
40
1
41
1
10
70.306603181709
20
-1.24524193589258
30
0
41
1
10
70.3119649696303
20
-1.35330015156032
30
0
41
1
10
70.3173445656535
20
-1.46105639371891
30
0
41
1
10
70.3254368119331
20
-1.62222987155224
30
0
41
1
10
70.3281370995821
20
-1.67587755477624
30
0
41
1
10
70.3335405299017
20
-1.78301758565041
30
0
41
1
10
70.3362358497802
20
-1.83635468515269
30
0
41
1
10
70.3496489036995
20
-2.10129577265849
30
0
41
1
10
70.3601883950357
20
-2.30828662473687
30
0
41
1
10
70.3811556100046
20
-2.71261560892589
30
0
41
1
10
70.3916309828701
20
-2.90995089988459
30
0
41
1
10
70.4129413066123
20
-3.29492131285778
30
0
41
1
10
70.4237104497469
20
-3.48256036939961
30
0
41
1
10
70.4372597786056
20
-3.71084045536466
30
0
41
1
10
70.4399710561893
20
-3.75612424583665
30
0
41
1
10
70.4453725142122
20
-3.84555131657754
30
0
41
1
10
70.4534536734523
20
-3.97815735007387
30
0
41
1
10
70.4614748624749
20
-4.10621145395123
30
0
41
1
10
70.4774596741639
20
-4.35634005214476
30
0
41
1
10
70.4880342207912
20
-4.51513517458321
30
0
41
1
10
70.5092616999747
20
-4.81689902459431
30
0
41
1
10
70.5199274982557
20
-4.9598682845502
30
0
41
1
10
70.5333230694175
20
-5.12843285687825
30
0
41
1
10
70.5360057066895
20
-5.16163711429658
30
0
41
1
10
70.5413796453961
20
-5.22701649993627
30
0
41
1
10
70.5440709882745
20
-5.25918986068226
30
0
41
1
10
70.5521140736785
20
-5.35360054236699
30
0
41
1
10
70.557450418278
20
-5.41392516445461
30
0
41
1
10
70.5627746967198
20
-5.47168425283982
30
0
0
SPLINE
5
154
100
AcDbEntity
8
1
62
256
6
ByLayer
370
18
48
1
60
0
100
AcDbSpline
70
4
71
3
72
33
73
29
40
0
40
0
40
0
40
0
40
0.0625000000000006
40
0.0625000000000006
40
0.0937500000000005
40
0.0937500000000005
40
0.125000000000001
40
0.125000000000001
40
0.250000000000001
40
0.250000000000001
40
0.375000000000001
40
0.375000000000001
40
0.500000000000002
40
0.500000000000002
40
0.531250000000002
40
0.531250000000002
40
0.562500000000002
40
0.625000000000002
40
0.625000000000002
40
0.750000000000001
40
0.750000000000001
40
0.875000000000001
40
0.875000000000001
40
0.906250000000001
40
0.906250000000001
40
0.9375
40
0.9375
40
1
40
1
40
1
40
1
41
1
10
68.7184401884305
20
-4.2996874113349
30
0
41
1
10
68.7131130712875
20
-4.2179659691765
30
0
41
1
10
68.7077842564885
20
-4.13419772228838
30
0
41
1
10
68.6997792678289
20
-4.00542736933298
30
0
41
1
10
68.6971088911187
20
-3.96198399179414
30
0
41
1
10
68.6917614530461
20
-3.87404614095439
30
0
41
1
10
68.6890804564172
20
-3.8294851122433
30
0
41
1
10
68.6757114639836
20
-3.60504707826411
30
0
41
1
10
68.6651301291509
20
-3.42021477564026
30
0
41
1
10
68.6438979745337
20
-3.04034737148555
30
0
41
1
10
68.6331894047111
20
-2.84531388330558
30
0
41
1
10
68.6116589958094
20
-2.44506236017062
30
0
41
1
10
68.6008967062001
20
-2.23984244143369
30
0
41
1
10
68.5874751754943
20
-1.97675331986773
30
0
41
1
10
68.5847876762471
20
-1.92373616723512
30
0
41
1
10
68.5794267311991
20
-1.81738875645777
30
0
41
1
10
68.571416788712
20
-1.65757641853966
30
0
41
1
10
68.5634603542041
20
-1.49690314627202
30
0
41
1
10
68.5475495096073
20
-1.17443162839137
30
0
41
1
10
68.5369592829148
20
-0.957952880640676
30
0
41
1
10
68.5157330278122
20
-0.522035198654578
30
0
41
1
10
68.5050983569802
20
-0.302596282201307
30
0
41
1
10
68.4917314925769
20
-0.0264103699462908
30
0
41
1
10
68.4890544009511
20
0.0289214118362509
30
0
41
1
10
68.4836913652193
20
0.13977607232232
30
0
41
1
10
68.4810033677734
20
0.195341414713312
30
0
41
1
10
68.4729371583251
20
0.362049752882541
30
0
41
1
10
68.4675863947863
20
0.472593244166831
30
0
41
1
10
68.4622550785521
20
0.582553891688093
30
0
0
SPLINE
5
155
100
AcDbEntity
8
1
62
256
6
ByLayer
370
18
48
1
60
0
100
AcDbSpline
70
4
71
3
72
30
73
26
40
0
40
0
40
0
40
0
40
0.125000000000001
40
0.125000000000001
40
0.250000000000001
40
0.250000000000001
40
0.312500000000001
40
0.312500000000001
40
0.343750000000001
40
0.343750000000001
40
0.375000000000001
40
0.375000000000001
40
0.500000000000001
40
0.500000000000001
40
0.625000000000001
40
0.625000000000001
40
0.687500000000001
40
0.687500000000001
40
0.718750000000001
40
0.718750000000001
40
0.750000000000001
40
0.750000000000001
40
0.875
40
0.875
40
1
40
1
40
1
40
1
41
1
10
68.2534840915094
20
0.788536975152397
30
0
41
1
10
68.2643548294462
20
0.569556265234922
30
0
41
1
10
68.2751837716249
20
0.350252780285501
30
0
41
1
10
68.2967238431694
20
-0.0889928960299073
30
0
41
1
10
68.3074339369102
20
-0.308935132141102
30
0
41
1
10
68.3234550690704
20
-0.639334126959085
30
0
41
1
10
68.3287889467566
20
-0.74954818190804
30
0
41
1
10
68.3367945716815
20
-0.914992746163648
30
0
41
1
10
68.3394616991409
20
-0.970114188149466
30
0
41
1
10
68.3447701524193
20
-1.07976189690425
30
0
41
1
10
68.3474151635706
20
-1.13436433117556
30
0
41
1
10
68.3606039352767
20
-1.40628064838231
30
0
41
1
10
68.3710342750031
20
-1.62031599745481
30
0
41
1
10
68.391975077593
20
-2.0415302479721
30
0
41
1
10
68.4025192230857
20
-2.24870739087984
30
0
41
1
10
68.4185826410902
20
-2.5542736863099
30
0
41
1
10
68.423969884237
20
-2.65526125516615
30
0
41
1
10
68.4320936781763
20
-2.80541920975702
30
0
41
1
10
68.4348087945072
20
-2.85525117915279
30
0
41
1
10
68.4402527651611
20
-2.95446870334325
30
0
41
1
10
68.4429821312048
20
-3.00386220685698
30
0
41
1
10
68.456582073945
20
-3.24826576834022
30
0
41
1
10
68.4673728572567
20
-3.43677612435153
30
0
41
1
10
68.4888027689205
20
-3.80020098793284
30
0
41
1
10
68.4994415499343
20
-3.97511435858922
30
0
41
1
10
68.5100610868749
20
-4.14322109479261
30
0
0
SPLINE
5
156
100
AcDbEntity
8
1
62
256
6
ByLayer
370
18
48
1
60
0
100
AcDbSpline
70
4
71
3
72
8
73
4
40
0
40
0
40
0
40
0
40
1
40
1
40
1
40
1
41
1
10
70.5627746967152
20
-5.47168425283996
30
0
41
1
10
70.6323493607571
20
-5.50799703901492
30
0
41
1
10
70.7019272604974
20
-5.54335441383731
30
0
41
1
10
70.7715262604169
20
-5.57774637537514
30
0
0
SPLINE
5
157
100
AcDbEntity
8
1
62
256
6
ByLayer
370
18
48
1
60
0
100
AcDbSpline
70
4
71
3
72
34
73
30
40
0
40
0
40
0
40
0
40
0.125000000000012
40
0.125000000000012
40
0.187500000000036
40
0.187500000000036
40
0.250000000000059
40
0.250000000000059
40
0.375000000000106
40
0.375000000000106
40
0.43750000000011
40
0.43750000000011
40
0.500000000000113
40
0.500000000000113
40
0.625000000000075
40
0.625000000000075
40
0.687500000000056
40
0.687500000000056
40
0.750000000000038
40
0.750000000000038
40
0.812500000000019
40
0.812500000000019
40
0.875000000000001
40
0.875000000000001
40
0.906249999999992
40
0.906249999999992
40
0.937499999999984
40
0.937499999999984
40
1
40
1
40
1
40
1
41
1
10
69.8839836075164
20
-4.06508723497339
30
0
41
1
10
69.8701157330107
20
-4.03675213055629
30
0
41
1
10
69.8540153343601
20
-4.01012379458493
30
0
41
1
10
69.8272506064882
20
-3.97217293231654
30
0
41
1
10
69.8178840305252
20
-3.95986183237514
30
0
41
1
10
69.7983014555613
20
-3.93588702441687
30
0
41
1
10
69.7881771208229
20
-3.92433827707168
30
0
41
1
10
69.7570359906366
20
-3.89109491382044
30
0
41
1
10
69.7351920166898
20
-3.87070225554882
30
0
41
1
10
69.7008722371015
20
-3.84269212539752
30
0
41
1
10
69.6891672937178
20
-3.83379439073519
30
0
41
1
10
69.6656405585406
20
-3.81718069437636
30
0
41
1
10
69.6537693069226
20
-3.80942251053972
30
0
41
1
10
69.6178423677572
20
-3.7878132363042
30
0
41
1
10
69.5934778631971
20
-3.77559587647389
30
0
41
1
10
69.5562818021405
20
-3.76110218619331
30
0
41
1
10
69.5437686899215
20
-3.75692677385726
30
0
41
1
10
69.5191117697366
20
-3.75020602167575
30
0
41
1
10
69.5068967575294
20
-3.74762909402952
30
0
41
1
10
69.4827336290173
20
-3.74421655301035
30
0
41
1
10
69.4707514746835
20
-3.74337883187258
30
0
41
1
10
69.4472587372933
20
-3.74376356876269
30
0
41
1
10
69.4359419142713
20
-3.7449784972973
30
0
41
1
10
69.4196935773692
20
-3.748514607972
30
0
41
1
10
69.4143991165147
20
-3.74998021765319
30
0
41
1
10
69.4040754259503
20
-3.75353596282355
30
0
41
1
10
69.3990293826741
20
-3.75563454744747
30
0
41
1
10
69.3844530453541
20
-3.76291221553524
30
0
41
1
10
69.3755723582848
20
-3.76900692298417
30
0
41
1
10
69.3676363173162
20
-3.77651365563065
30
0
0
SPLINE
5
158
100
AcDbEntity
8
1
62
256
6
ByLayer
370
18
48
1
60
0
100
AcDbSpline
70
4
71
3
72
14
73
10
40
0
40
0
40
0
40
0
40
0.25
40
0.25
40
0.5
40
0.5
40
0.75
40
0.75
40
1
40
1
40
1
40
1
41
1
10
69.3676363173162
20
-3.77651365563062
30
0
41
1
10
69.3128860901732
20
-3.82830211276243
30
0
41
1
10
69.2582920871919
20
-3.87801612715742
30
0
41
1
10
69.1493649379993
20
-3.9733934331272
30
0
41
1
10
69.0950574345015
20
-4.01903250833843
30
0
41
1
10
68.9867995411493
20
-4.10621983277687
30
0
41
1
10
68.9328332208856
20
-4.1477800339
30
0
41
1
10
68.8253506340367
20
-4.22677839867282
30
0
41
1
10
68.7718106641138
20
-4.26423594894712
30
0
41
1
10
68.7184401884305
20
-4.29968741133487
30
0
0
SPLINE
5
159
100
AcDbEntity
8
1
62
256
6
ByLayer
370
18
48
1
60
0
100
AcDbSpline
70
4
71
3
72
8
73
4
40
0
40
0
40
0
40
0
40
1
40
1
40
1
40
1
41
1
10
68.5100610868706
20
-4.14322109479352
30
0
41
1
10
68.579511448357
20
-4.19610187679729
30
0
41
1
10
68.6489651794378
20
-4.24826205185246
30
0
41
1
10
68.7184401884305
20
-4.29968741133487
30
0
0
SPLINE
5
15A
100
AcDbEntity
8
1
62
256
6
ByLayer
370
18
48
1
60
0
100
AcDbSpline
70
4
71
3
72
10
73
6
40
0
40
0
40
0
40
0
40
0.5
40
0.5
40
1
40
1
40
1
40
1
41
1
10
68.5100610868712
20
-4.14322109478897
30
0
41
1
10
68.398451680856
20
-3.91065819896298
30
0
41
1
10
68.2861815290078
20
-3.68058199884396
30
0
41
1
10
68.0597098691341
20
-3.22592117848072
30
0
41
1
10
67.9458751702332
20
-3.00206833984592
30
0
41
1
10
67.8310982171184
20
-2.78194746788279
30
0
0
SPLINE
5
15B
100
AcDbEntity
8
1
62
256
6
ByLayer
370
18
48
1
60
0
100
AcDbSpline
70
4
71
3
72
34
73
30
40
0
40
0
40
0
40
0
40
0.125000000000001
40
0.125000000000001
40
0.187500000000018
40
0.187500000000018
40
0.250000000000034
40
0.250000000000034
40
0.375000000000102
40
0.375000000000102
40
0.437500000000117
40
0.437500000000117
40
0.500000000000132
40
0.500000000000132
40
0.62500000000012
40
0.62500000000012
40
0.687500000000113
40
0.687500000000113
40
0.750000000000107
40
0.750000000000107
40
0.8125000000001
40
0.8125000000001
40
0.875000000000093
40
0.875000000000093
40
0.906250000000071
40
0.906250000000071
40
0.937500000000048
40
0.937500000000048
40
1
40
1
40
1
40
1
41
1
10
67.8310982171184
20
-2.78194746788273
30
0
41
1
10
67.8172224839649
20
-2.75533638963054
30
0
41
1
10
67.801112341903
20
-2.72954236131716
30
0
41
1
10
67.7743319250962
20
-2.69182283917286
30
0
41
1
10
67.7649599185892
20
-2.6794147102519
30
0
41
1
10
67.7453662217778
20
-2.65491353796972
30
0
41
1
10
67.7352363342149
20
-2.64293751669624
30
0
41
1
10
67.7040795242859
20
-2.60795999367221
30
0
41
1
10
67.6822260797413
20
-2.58581226537135
30
0
41
1
10
67.6478944312333
20
-2.55427595280347
30
0
41
1
10
67.6361873645826
20
-2.54405166882222
30
0
41
1
10
67.6126573436018
20
-2.52452178710041
30
0
41
1
10
67.6007849136755
20
-2.51516930910171
30
0
41
1
10
67.564855973164
20
-2.48835574424228
30
0
41
1
10
67.5404925274715
20
-2.47211534402462
30
0
41
1
10
67.5032997473419
20
-2.45057999653974
30
0
41
1
10
67.4907918671055
20
-2.44388611841913
30
0
41
1
10
67.4661445541103
20
-2.43186537472943
30
0
41
1
10
67.4539339681649
20
-2.42649461719418
30
0
41
1
10
67.4297791514998
20
-2.41716868975911
30
0
41
1
10
67.4177996245514
20
-2.4132019420218
30
0
41
1
10
67.3943190260535
20
-2.40697686292964
30
0
41
1
10
67.3830080782531
20
-2.4047652708089
30
0
41
1
10
67.3667683850215
20
-2.40295462613838
30
0
41
1
10
67.3614767662431
20
-2.40260336993975
30
0
41
1
10
67.3511585828521
20
-2.40245011789463
30
0
41
1
10
67.3461152651896
20
-2.40264988842929
30
0
41
1
10
67.3315462452362
20
-2.40415338199151
30
0
41
1
10
67.322669192862
20
-2.40633490560614
30
0
41
1
10
67.3147355990928
20
-2.4098583065429
30
0
0
SPLINE
5
15C
100
AcDbEntity
8
1
62
256
6
ByLayer
370
18
48
1
60
0
100
AcDbSpline
70
4
71
3
72
14
73
10
40
0
40
0
40
0
40
0
40
0.25
40
0.25
40
0.5
40
0.5
40
0.75
40
0.75
40
1
40
1
40
1
40
1
41
1
10
67.3147355990928
20
-2.40985830654304
30
0
41
1
10
67.260024097431
20
-2.43415631849263
30
0
41
1
10
67.2054694629733
20
-2.45606287080014
30
0
41
1
10
67.0966208095799
20
-2.49522831321599
30
0
41
1
10
67.0423524411505
20
-2.51247152779965
30
0
41
1
10
66.9341722458772
20
-2.5423500170341
30
0
41
1
10
66.8802443430423
20
-2.55498974926817
30
0
41
1
10
66.7728371053155
20
-2.57573092848531
30
0
41
1
10
66.719334090348
20
-2.5838392833588
30
0
41
1
10
66.6659992858916
20
-2.58972749592917
30
0
0
SPLINE
5
15D
100
AcDbEntity
8
1
62
256
6
ByLayer
370
18
48
1
60
0
100
AcDbSpline
70
4
71
3
72
8
73
4
40
0
40
0
40
0
40
0
40
1
40
1
40
1
40
1
41
1
10
66.4564656878256
20
-2.39735553181458
30
0
41
1
10
66.5263011342852
20
-2.46190623658532
30
0
41
1
10
66.5961397207336
20
-2.52603586769538
30
0
41
1
10
66.6659992858916
20
-2.58972749592917
30
0
0
SPLINE
5
15E
100
AcDbEntity
8
1
62
256
6
ByLayer
370
18
48
1
60
0
100
AcDbSpline
70
4
71
3
72
10
73
6
40
0
40
0
40
0
40
0
40
0.5
40
0.5
40
1
40
1
40
1
40
1
41
1
10
66.456465687827
20
-2.39735553180859
30
0
41
1
10
66.3449288699201
20
-2.18921809187674
30
0
41
1
10
66.2327598641622
20
-1.98660764823296
30
0
41
1
10
66.006521666947
20
-1.59304335330452
30
0
41
1
10
65.8928193718818
20
-1.40271940182345
30
0
41
1
10
65.7781778557062
20
-1.21915047448664
30
0
0
SPLINE
5
15F
100
AcDbEntity
8
1
62
256
6
ByLayer
370
18
48
1
60
0
100
AcDbSpline
70
4
71
3
72
34
73
30
40
0
40
0
40
0
40
0
40
0.125000000000053
40
0.125000000000053
40
0.187500000000064
40
0.187500000000064
40
0.250000000000076
40
0.250000000000076
40
0.375000000000098
40
0.375000000000098
40
0.437500000000089
40
0.437500000000089
40
0.50000000000008
40
0.50000000000008
40
0.625000000000061
40
0.625000000000061
40
0.687500000000051
40
0.687500000000051
40
0.750000000000042
40
0.750000000000042
40
0.812500000000032
40
0.812500000000032
40
0.875000000000022
40
0.875000000000022
40
0.906250000000017
40
0.906250000000017
40
0.937500000000012
40
0.937500000000012
40
1
40
1
40
1
40
1
41
1
10
65.7781778557062
20
-1.21915047448664
30
0
41
1
10
65.7643082391481
20
-1.19694184781213
30
0
41
1
10
65.7482052578634
20
-1.17457147180221
30
0
41
1
10
65.7214363718297
20
-1.14086225686017
30
0
41
1
10
65.7120683503314
20
-1.12959889376438
30
0
41
1
10
65.6924828414481
20
-1.10702093533635
30
0
41
1
10
65.6823573377785
20
-1.09581384176502
30
0
41
1
10
65.6512128283532
20
-1.06259050197613
30
0
41
1
10
65.6293671161736
20
-1.04089036475094
30
0
41
1
10
65.5950458101757
20
-1.00895626749144
30
0
41
1
10
65.5833413524521
20
-0.998416566733852
30
0
41
1
10
65.5598159440625
20
-0.977899690125327
30
0
41
1
10
65.5479455310954
20
-0.967875548950559
30
0
41
1
10
65.5120216503891
20
-0.938499593518088
30
0
41
1
10
65.4876602752128
20
-0.919832176626642
30
0
41
1
10
65.4504678855205
20
-0.893363310404766
30
0
41
1
10
65.4379577036085
20
-0.884801938339024
30
0
41
1
10
65.4133054143591
20
-0.868646835693283
30
0
41
1
10
65.4010922057965
20
-0.861000619797949
30
0
41
1
10
65.3769318199506
20
-0.846655348758219
30
0
41
1
10
65.3649497153525
20
-0.839936875900776
30
0
41
1
10
65.3414604015745
20
-0.827687800136744
30
0
41
1
10
65.3301447290447
20
-0.822254841397779
30
0
41
1
10
65.3138973884932
20
-0.815260052860936
30
0
41
1
10
65.308603137496
20
-0.813121791247454
30
0
41
1
10
65.2982796336148
20
-0.809265832567235
30
0
41
1
10
65.293233496272
20
-0.807543019886083
30
0
41
1
10
65.2786572499088
20
-0.803112802832629
30
0
41
1
10
65.2697759500869
20
-0.80115936051223
30
0
41
1
10
65.2618388259802
20
-0.800344997439737
30
0
0
SPLINE
5
160
100
AcDbEntity
8
1
62
256
6
ByLayer
370
18
48
1
60
0
100
AcDbSpline
70
4
71
3
72
12
73
8
40
0
40
0
40
0
40
0
40
0.499999999999993
40
0.499999999999993
40
0.749999999999996
40
0.749999999999996
40
1
40
1
40
1
40
1
41
1
10
65.2618388259802
20
-0.80034499743968
30
0
41
1
10
65.1522773797608
20
-0.789103797885446
30
0
41
1
10
65.0432714029449
20
-0.767925671654126
30
0
41
1
10
64.8808078204413
20
-0.722111178538427
30
0
41
1
10
64.8268174766533
20
-0.704494119855241
30
0
41
1
10
64.7192894757935
20
-0.664752916242009
30
0
41
1
10
64.6657280301125
20
-0.642622675638734
30
0
41
1
10
64.6123370004747
20
-0.618283291661129
30
0
0
SPLINE
5
161
100
AcDbEntity
8
1
62
256
6
ByLayer
370
18
48
1
60
0
100
AcDbSpline
70
4
71
3
72
8
73
4
40
0
40
0
40
0
40
0
40
1
40
1
40
1
40
1
41
1
10
64.4042305734322
20
-0.411618112889897
30
0
41
1
10
64.473600614037
20
-0.480594220688516
30
0
41
1
10
64.5429637210995
20
-0.549488329485342
30
0
41
1
10
64.6123370004747
20
-0.618283291661129
30
0
0
SPLINE
5
162
100
AcDbEntity
8
1
62
256
6
ByLayer
370
18
48
1
60
0
100
AcDbSpline
70
4
71
3
72
10
73
6
40
0
40
0
40
0
40
0
40
0.5
40
0.5
40
1
40
1
40
1
40
1
41
1
10
64.4042305734322
20
-0.411618112889897
30
0
41
1
10
64.2926208332722
20
-0.248652686676962
30
0
41
1
10
64.180357809196
20
-0.0936775933668343
30
0
41
1
10
63.9538905446825
20
0.199652870973011
30
0
41
1
10
63.8400520407379
20
0.337539418476211
30
0
41
1
10
63.7252543591336
20
0.466298380837969
30
0
0
SPLINE
5
163
100
AcDbEntity
8
1
62
256
6
ByLayer
370
18
48
1
60
0
100
AcDbSpline
70
4
71
3
72
8
73
4
40
0
40
0
40
0
40
0
40
1
40
1
40
1
40
1
41
1
10
63.7252543591329
20
0.46629838083976
30
0
41
1
10
63.7136439336941
20
0.479320824422103
30
0
41
1
10
63.7004692655459
20
0.493128046387682
30
0
41
1
10
63.6860181085522
20
0.507555183110242
30
0
0
SPLINE
5
164
100
AcDbEntity
8
1
62
256
6
ByLayer
370
18
48
1
60
0
100
AcDbSpline
70
4
71
3
72
30
73
26
40
0
40
0
40
0
40
0
40
0.0715661330715842
40
0.0715661330715842
40
0.226305110892987
40
0.226305110892987
40
0.303674599803688
40
0.303674599803688
40
0.381044088714388
40
0.381044088714388
40
0.535783066535737
40
0.535783066535737
40
0.613152555446439
40
0.613152555446439
40
0.69052204435714
40
0.69052204435714
40
0.767891533267841
40
0.767891533267841
40
0.845261022178543
40
0.845261022178543
40
0.883945766633917
40
0.883945766633917
40
0.922630511089292
40
0.922630511089292
40
1
40
1
40
1
40
1
41
1
10
63.6470853256442
20
0.545084306221582
30
0
41
1
10
63.6379747858812
20
0.553597387175103
30
0
41
1
10
63.6285842505301
20
0.562208685621329
30
0
41
1
10
63.5981983241062
20
0.589611386231297
30
0
41
1
10
63.5763398447853
20
0.608663173912845
30
0
41
1
10
63.5420014941838
20
0.637751421606907
30
0
41
1
10
63.5302932832538
20
0.647533257244589
30
0
41
1
10
63.5067613548487
20
0.666946370978707
30
0
41
1
10
63.4948881519454
20
0.676619894819964
30
0
41
1
10
63.4589573903534
20
0.705560226901156
30
0
41
1
10
63.4345933808672
20
0.724746558927279
30
0
41
1
10
63.3974007106695
20
0.753438845900291
30
0
41
1
10
63.3848957968842
20
0.76298580671633
30
0
41
1
10
63.3602547537598
20
0.781610760152262
30
0
41
1
10
63.3480476666435
20
0.790743931083938
30
0
41
1
10
63.3239004295905
20
0.808627335412012
30
0
41
1
10
63.3119240807057
20
0.817404046464787
30
0
41
1
10
63.288452967598
20
0.834407479398834
30
0
41
1
10
63.2771461479779
20
0.842498749810346
30
0
41
1
10
63.2609115271372
20
0.853953604436754
30
0
41
1
10
63.2556214228707
20
0.857657669923583
30
0
41
1
10
63.2453059670338
20
0.864817494663185
30
0
41
1
10
63.2402638376619
20
0.868284667193166
30
0
41
1
10
63.2256982736332
20
0.878190530828647
30
0
41
1
10
63.2168225872214
20
0.884077143784168
30
0
41
1
10
63.2088895939766
20
0.889144825121832
30
0
0
SPLINE
5
165
100
AcDbEntity
8
1
62
256
6
ByLayer
370
18
48
1
60
0
100
AcDbSpline
70
4
71
3
72
8
73
4
40
0
40
0
40
0
40
0
40
1
40
1
40
1
40
1
41
1
10
63.2088895939743
20
0.889144825127488
30
0
41
1
10
63.1859381804841
20
0.903806434715335
30
0
41
1
10
63.1630151543002
20
0.918873465149943
30
0
41
1
10
63.1401186735805
20
0.93434114907231
30
0
0
SPLINE
5
166
100
AcDbEntity
8
1
62
256
6
ByLayer
370
18
48
1
60
0
100
AcDbSpline
70
4
71
3
72
8
73
4
40
0
40
0
40
0
40
0
40
1
40
1
40
1
40
1
41
1
10
63.1401186735805
20
0.93434114907231
30
0
41
1
10
63.0950204419715
20
0.978990510692086
30
0
41
1
10
63.0498232389087
20
1.02198762407878
30
0
41
1
10
63.0045122584502
20
1.06331097448873
30
0
0
SPLINE
5
167
100
AcDbEntity
8
1
62
256
6
ByLayer
370
18
48
1
60
0
100
AcDbSpline
70
4
71
3
72
26
73
22
40
0
40
0
40
0
40
0
40
0.0625000000000018
40
0.0625000000000018
40
0.125000000000004
40
0.125000000000004
40
0.25000000000002
40
0.25000000000002
40
0.375000000000037
40
0.375000000000037
40
0.437500000000037
40
0.437500000000037
40
0.500000000000038
40
0.500000000000038
40
0.750000000000037
40
0.750000000000037
40
0.812500000000032
40
0.812500000000032
40
0.875000000000028
40
0.875000000000028
40
1
40
1
40
1
40
1
41
1
10
63.0045122584502
20
1.06331097448873
30
0
41
1
10
62.9887688836245
20
1.07766884068306
30
0
41
1
10
62.9723047992246
20
1.09232377179694
30
0
41
1
10
62.9380203597955
20
1.12211929894588
30
0
41
1
10
62.9202176697542
20
1.1372989778755
30
0
41
1
10
62.8644687136781
20
1.1824510690019
30
0
41
1
10
62.8242157771008
20
1.21218956084263
30
0
41
1
10
62.737969770162
20
1.27197784067658
30
0
41
1
10
62.69196278498
20
1.3019893360877
30
0
41
1
10
62.6188075065405
20
1.34775741560566
30
0
41
1
10
62.5937083996665
20
1.36315160913225
30
0
41
1
10
62.5426864493386
20
1.39398356399568
30
0
41
1
10
62.5167042513035
20
1.40945964217602
30
0
41
1
10
62.3846204749863
20
1.48738926909891
30
0
41
1
10
62.2720489059411
20
1.55151803762263
30
0
41
1
10
62.1251292417161
20
1.63755653670131
30
0
41
1
10
62.0954319737558
20
1.6550565396216
30
0
41
1
10
62.0354583772346
20
1.69072758312097
30
0
41
1
10
62.005253767804
20
1.7088565988046
30
0
41
1
10
61.9144008081372
20
1.76402583767651
30
0
41
1
10
61.8533807663632
20
1.80193038424673
30
0
41
1
10
61.7920766931519
20
1.84120508999339
30
0
0
SPLINE
5
168
100
AcDbEntity
8
1
62
256
6
ByLayer
370
18
48
1
60
0
100
AcDbSpline
70
4
71
3
72
61
73
57
40
0
40
0
40
0
40
0
40
0.0535604279075207
40
0.0535604279075207
40
0.0803406418612822
40
0.0803406418612822
40
0.107120855815044
40
0.107120855815044
40
0.160681283722564
40
0.160681283722564
40
0.214241711630085
40
0.214241711630085
40
0.241021925583844
40
0.241021925583844
40
0.267802139537603
40
0.267802139537603
40
0.294582353491362
40
0.307972460468243
40
0.307972460468243
40
0.321362567445124
40
0.321362567445124
40
0.374922995352647
40
0.374922995352647
40
0.428483423260169
40
0.428483423260169
40
0.482043851167692
40
0.482043851167692
40
0.535604279075215
40
0.535604279075215
40
0.562384493028977
40
0.562384493028977
40
0.589164706982738
40
0.589164706982738
40
0.615944920936499
40
0.615944920936499
40
0.629335027913381
40
0.629335027913381
40
0.642725134890263
40
0.642725134890263
40
0.696285562797786
40
0.696285562797786
40
0.749845990705309
40
0.749845990705309
40
0.803406418612832
40
0.803406418612832
40
0.856966846520355
40
0.856966846520355
40
0.910527274427878
40
0.910527274427878
40
0.93730748838164
40
0.93730748838164
40
0.95069759535852
40
0.95069759535852
40
0.964087702335401
40
0.964087702335401
40
1
40
1
40
1
40
1
41
1
10
61.7920766931519
20
1.84120508999342
30
0
41
1
10
61.577760791512
20
1.97850745071477
30
0
41
1
10
61.3643492746019
20
2.11190760437586
30
0
41
1
10
61.0449515785144
20
2.30555552006334
30
0
41
1
10
60.938644841196
20
2.36908087154072
30
0
41
1
10
60.7263860274633
20
2.49414279830702
30
0
41
1
10
60.6204214011104
20
2.55566271869594
30
0
41
1
10
60.3028580967552
20
2.7369976586007
30
0
41
1
10
60.0915827112542
20
2.85357660017013
30
0
41
1
10
59.6689522905858
20
3.07705685403408
30
0
41
1
10
59.4576371040906
20
3.18399662820073
30
0
41
1
10
59.139714932294
20
3.3362371921545
30
0
41
1
10
59.0335839536571
20
3.38562782790746
30
0
41
1
10
58.8211592966405
20
3.48183282315199
30
0
41
1
10
58.7148441814749
20
3.52862533312094
30
0
41
1
10
58.5019685561229
20
3.61952211133573
30
0
41
1
10
58.342117624524
20
3.68566835038288
30
0
41
1
10
58.1818358714492
20
3.74861102010624
30
0
41
1
10
58.0748702178548
20
3.78984322987159
30
0
41
1
10
58.0212960205188
20
3.81010770273102
30
0
41
1
10
57.7535411739363
20
3.90940194942218
30
0
41
1
10
57.5404095876031
20
3.98212057604246
30
0
41
1
10
57.115121102864
20
4.1136676247566
30
0
41
1
10
56.902786076845
20
4.1724160623433
30
0
41
1
10
56.479113548685
20
4.27634025166682
30
0
41
1
10
56.2677528587126
20
4.32147437413144
30
0
41
1
10
55.8451043594501
20
4.39766223816773
30
0
41
1
10
55.6337921374632
20
4.42870523790217
30
0
41
1
10
55.31612641412
20
4.46443934398073
30
0
41
1
10
55.2101241159501
20
4.47454723424917
30
0
41
1
10
54.9977824396752
20
4.49112424651383
30
0
41
1
10
54.8914048450376
20
4.49758956517758
30
0
41
1
10
54.678332506081
20
4.50686709449042
30
0
41
1
10
54.5716507817152
20
4.50967816691286
30
0
41
1
10
54.411330837948
20
4.51110973894856
30
0
41
1
10
54.3578421358229
20
4.51112281087788
30
0
41
1
10
54.2507586508461
20
4.51021309535363
30
0
41
1
10
54.197123026731
20
4.50928883841144
30
0
41
1
10
53.9293650709643
20
4.50232979321382
30
0
41
1
10
53.7162671119665
20
4.48928899400167
30
0
41
1
10
53.2913074455554
20
4.44868100248061
30
0
41
1
10
53.079515545277
20
4.42108471605559
30
0
41
1
10
52.6556822616378
20
4.35208777143581
30
0
41
1
10
52.4441453826359
20
4.31053890353198
30
0
41
1
10
52.0212474407779
20
4.21354483905236
30
0
41
1
10
51.8099230604549
20
4.15807380211427
30
0
41
1
10
51.3865557680185
20
4.03355725555087
30
0
41
1
10
51.1745261909113
20
3.96449960488761
30
0
41
1
10
50.8551049404218
20
3.85118944460473
30
0
41
1
10
50.748367759855
20
3.81182821293174
30
0
41
1
10
50.5879043502401
20
3.75035582813098
30
0
41
1
10
50.5343731082774
20
3.72944626388491
30
0
41
1
10
50.4272193838233
20
3.68678417006595
30
0
41
1
10
50.3735593653259
20
3.66501902037714
30
0
41
1
10
50.1763484300055
20
3.58359768729315
30
0
41
1
10
50.033202805796
20
3.5216999500586
30
0
41
1
10
49.8904193723219
20
3.45737595354677
30
0
0
SPLINE
5
169
100
AcDbEntity
8
1
62
256
6
ByLayer
370
18
48
1
60
0
100
AcDbSpline
70
4
71
3
72
92
73
88
40
0
40
0
40
0
40
0
40
0.0065701958069885
40
0.0065701958069885
40
0.051726095997588
40
0.051726095997588
40
0.0743040460928878
40
0.0743040460928878
40
0.0855930211405376
40
0.0855930211405376
40
0.0968819961881875
40
0.0968819961881875
40
0.108170971235837
40
0.108170971235837
40
0.119459946283487
40
0.142037896378789
40
0.142037896378789
40
0.187193796569392
40
0.187193796569392
40
0.198482771617042
40
0.198482771617042
40
0.209771746664692
40
0.209771746664692
40
0.221060721712343
40
0.221060721712343
40
0.232349696759993
40
0.232349696759993
40
0.277505596950594
40
0.277505596950594
40
0.322661497141196
40
0.322661497141196
40
0.333950472188845
40
0.333950472188845
40
0.345239447236495
40
0.367817397331794
40
0.367817397331794
40
0.412973297522388
40
0.412973297522388
40
0.435551247617684
40
0.435551247617684
40
0.446840222665332
40
0.446840222665332
40
0.458129197712979
40
0.458129197712979
40
0.469418172760626
40
0.469418172760626
40
0.480707147808274
40
0.480707147808274
40
0.503285097903567
40
0.503285097903567
40
0.548440998094151
40
0.548440998094151
40
0.571018948189442
40
0.571018948189442
40
0.593596898284733
40
0.593596898284733
40
0.638752798475314
40
0.638752798475314
40
0.683908698665895
40
0.683908698665895
40
0.695197673713541
40
0.695197673713541
40
0.706486648761187
40
0.706486648761187
40
0.729064598856482
40
0.729064598856482
40
0.751642548951777
40
0.751642548951777
40
0.774220499047071
40
0.774220499047071
40
0.81937639923766
40
0.81937639923766
40
0.841954349332954
40
0.841954349332954
40
0.8532433243806
40
0.8532433243806
40
0.864532299428246
40
0.864532299428246
40
0.909688199618832
40
0.909688199618832
40
0.932266149714124
40
0.932266149714124
40
0.954844099809416
40
0.954844099809416
40
0.977422049904708
40
0.977422049904708
40
1
40
1
40
1
40
1
41
1
10
45.3571751629469
20
4.51100019840379
30
0
41
1
10
45.3929826951746
20
4.51099967480056
30
0
41
1
10
45.4287960946056
20
4.51079324461682
30
0
41
1
10
45.7107982784713
20
4.50754868509026
30
0
41
1
10
45.9572747212318
20
4.4950251570092
30
0
41
1
10
46.3274653111049
20
4.46141498249423
30
0
41
1
10
46.4509337672109
20
4.44773101791321
30
0
41
1
10
46.6363784753805
20
4.42343644610037
30
0
41
1
10
46.6982285190852
20
4.41470787694252
30
0
41
1
10
46.8221399276172
20
4.39602480356746
30
0
41
1
10
46.8842199691787
20
4.38607739091009
30
0
41
1
10
47.0086250968744
20
4.36497290613539
30
0
41
1
10
47.070986145384
20
4.35380698383636
30
0
41
1
10
47.1957083538557
20
4.33028630744772
30
0
41
1
10
47.3827167459933
20
4.29323999932743
30
0
41
1
10
47.5695288448005
20
4.25094695926472
30
0
41
1
10
47.9428958638135
20
4.15940562493148
30
0
41
1
10
48.1914050703111
20
4.0890845083012
30
0
41
1
10
48.5018478021518
20
3.98957077477141
30
0
41
1
10
48.5639266912877
20
3.969086409699
30
0
41
1
10
48.6880683472507
20
3.92694690012598
30
0
41
1
10
48.750134343885
20
3.90529277019959
30
0
41
1
10
48.8744528183211
20
3.86095626963544
30
0
41
1
10
48.9367089923744
20
3.83825754517298
30
0
41
1
10
49.0612905707095
20
3.79183908507304
30
0
41
1
10
49.1235249603796
20
3.76815334322461
30
0
41
1
10
49.4343907478851
20
3.647348605514
30
0
41
1
10
49.682152779933
20
3.54315666840171
30
0
41
1
10
50.1762129358482
20
3.32041646182233
30
0
41
1
10
50.4225221727902
20
3.20189043952087
30
0
41
1
10
50.7292980517682
20
3.04449922768643
30
0
41
1
10
50.790599576263
20
3.01255878633916
30
0
41
1
10
50.9132965990254
20
2.94797166644295
30
0
41
1
10
51.097465572214
20
2.85001454771745
30
0
41
1
10
51.2820065725941
20
2.74886265542614
30
0
41
1
10
51.6515205330689
20
2.54226028630487
30
0
41
1
10
51.8984471752458
20
2.39881775706073
30
0
41
1
10
52.2697274189009
20
2.17494784697274
30
0
41
1
10
52.393617297306
20
2.09884429412327
30
0
41
1
10
52.5797604738725
20
1.98256412540522
30
0
41
1
10
52.6418617049123
20
1.94345280024774
30
0
41
1
10
52.7661802333936
20
1.86452974792374
30
0
41
1
10
52.8284300872834
20
1.8246670111665
30
0
41
1
10
52.9526384638851
20
1.74452987457732
30
0
41
1
10
53.0146809545259
20
1.70429367511747
30
0
41
1
10
53.1387629093814
20
1.62365677265885
30
0
41
1
10
53.2007832138789
20
1.58322942450172
30
0
41
1
10
53.3867269812459
20
1.4615469908457
30
0
41
1
10
53.5105091237131
20
1.37985760063486
30
0
41
1
10
53.8813549163557
20
1.13315825440253
30
0
41
1
10
54.1279551021871
20
0.966572896461599
30
0
41
1
10
54.4968938149274
20
0.713503157924805
30
0
41
1
10
54.6197261868314
20
0.628632341985622
30
0
41
1
10
54.8652546937293
20
0.458086015366945
30
0
41
1
10
54.9878384167387
20
0.372246785657666
30
0
41
1
10
55.3563487599458
20
0.11491633592297
30
0
41
1
10
55.6027406782485
20
-0.0568080222278127
30
0
41
1
10
56.0973818610934
20
-0.39997732910598
30
0
41
1
10
56.3456461702018
20
-0.571397710298612
30
0
41
1
10
56.6570855668404
20
-0.785626281758852
30
0
41
1
10
56.7193907021657
20
-0.828443645184279
30
0
41
1
10
56.8436850036117
20
-0.91372817503003
30
0
41
1
10
56.905726948715
20
-0.956231749384813
30
0
41
1
10
57.0915745590114
20
-1.08327347121511
30
0
41
1
10
57.215126907682
20
-1.16730243744539
30
0
41
1
10
57.4622740585763
20
-1.33301808212835
30
0
41
1
10
57.5857930250899
20
-1.41481847087874
30
0
41
1
10
57.8325700899861
20
-1.57655789839254
30
0
41
1
10
57.955846138793
20
-1.65647077056281
30
0
41
1
10
58.3254013875623
20
-1.89327425922548
30
0
41
1
10
58.5714207932777
20
-2.04722504722309
30
0
41
1
10
58.9398483481027
20
-2.2722841236785
30
0
41
1
10
59.0625679980571
20
-2.34630720105108
30
0
41
1
10
59.2467695460327
20
-2.45550509123541
30
0
41
1
10
59.3082179299935
20
-2.49156433216774
30
0
41
1
10
59.4313113901185
20
-2.56288200092823
30
0
41
1
10
59.492941539516
20
-2.59815899153668
30
0
41
1
10
59.8014312410786
20
-2.77273370194254
30
0
41
1
10
60.0492809105731
20
-2.90664298324316
30
0
41
1
10
60.4227923327611
20
-3.09859435533727
30
0
41
1
10
60.5476918303894
20
-3.1611368173217
30
0
41
1
10
60.796902303328
20
-3.2825989523476
30
0
41
1
10
60.9213375384501
20
-3.34158911003465
30
0
41
1
10
61.169862056045
20
-3.45605661670896
30
0
41
1
10
61.2940066035913
20
-3.51147441142851
30
0
41
1
10
61.5427585993181
20
-3.61805293219024
30
0
41
1
10
61.6673133073616
20
-3.66926678848904
30
0
41
1
10
61.7920766931519
20
-3.71839243901954
30
0
0
SPLINE
5
16A
100
AcDbEntity
8
1
62
256
6
ByLayer
370
18
48
1
60
0
100
AcDbSpline
70
4
71
3
72
30
73
26
40
0
40
0
40
0
40
0
40
0.124999999999993
40
0.124999999999993
40
0.249999999999987
40
0.249999999999987
40
0.37499999999998
40
0.37499999999998
40
0.437499999999976
40
0.437499999999976
40
0.499999999999973
40
0.499999999999973
40
0.624999999999965
40
0.624999999999965
40
0.749999999999958
40
0.749999999999958
40
0.781249999999964
40
0.781249999999964
40
0.81249999999997
40
0.81249999999997
40
0.87499999999998
40
0.87499999999998
40
0.93749999999999
40
0.93749999999999
40
1
40
1
40
1
40
1
41
1
10
61.7920766931519
20
-3.71839243901948
30
0
41
1
10
61.8517214446476
20
-3.74187759213069
30
0
41
1
10
61.9107352192106
20
-3.76807056323267
30
0
41
1
10
62.0273037735627
20
-3.82576922859272
30
0
41
1
10
62.0848592756996
20
-3.85727378250184
30
0
41
1
10
62.1983519003667
20
-3.92564301321784
30
0
41
1
10
62.2542897905599
20
-3.96250526464453
30
0
41
1
10
62.3368739411085
20
-4.02200605800627
30
0
41
1
10
62.3642355452338
20
-4.04258744972901
30
0
41
1
10
62.4180700938532
20
-4.08486790063955
30
0
41
1
10
62.4445777021041
20
-4.10658822439271
30
0
41
1
10
62.5228624488453
20
-4.17351156772625
30
0
41
1
10
62.5734057858583
20
-4.22046745485792
30
0
41
1
10
62.6710624166752
20
-4.31937949385227
30
0
41
1
10
62.7181782903097
20
-4.37133016122823
30
0
41
1
10
62.7747426872142
20
-4.43981827650697
30
0
41
1
10
62.7859385325758
20
-4.45369455731259
30
0
41
1
10
62.8080892141321
20
-4.48182055009968
30
0
41
1
10
62.8190580763215
20
-4.49608957686411
30
0
41
1
10
62.8514214667528
20
-4.53925553378201
30
0
41
1
10
62.8723101336755
20
-4.56855368772909
30
0
41
1
10
62.9126608159414
20
-4.62824602350889
30
0
41
1
10
62.9321270115732
20
-4.65863909984466
30
0
41
1
10
62.96953487566
20
-4.72060371387661
30
0
41
1
10
62.9874672153896
20
-4.75217831755211
30
0
41
1
10
63.0045122584502
20
-4.78440326183679
30
0
0
SPLINE
5
16B
100
AcDbEntity
8
1
62
256
6
ByLayer
370
18
48
1
60
0
100
AcDbSpline
70
4
71
3
72
12
73
8
40
0
40
0
40
0
40
0
40
0.25
40
0.25
40
0.5
40
0.5
40
1
40
1
40
1
40
1
41
1
10
63.0045122584501
20
-4.78440326183676
30
0
41
1
10
63.0340555479349
20
-4.84025708715436
30
0
41
1
10
63.0635247926711
20
-4.89614847461377
30
0
41
1
10
63.1223362327764
20
-5.00792520683558
30
0
41
1
10
63.1516713112584
20
-5.06380764893748
30
0
41
1
10
63.2394794290832
20
-5.23142899243112
30
0
41
1
10
63.2977657920832
20
-5.3431665019572
30
0
41
1
10
63.3558090128575
20
-5.4547919806825
30
0
0
SPLINE
5
16C
100
AcDbEntity
8
1
62
256
6
ByLayer
370
18
48
1
60
0
100
AcDbSpline
70
4
71
3
72
10
73
6
40
0
40
0
40
0
40
0
40
0.5
40
0.5
40
1
40
1
40
1
40
1
41
1
10
63.3558090128574
20
-5.4547919806825
30
0
41
1
10
63.4051021721142
20
-5.39522119398362
30
0
41
1
10
63.4546132355475
20
-5.33420573653237
30
0
41
1
10
63.5540227116041
20
-5.20933691049072
30
0
41
1
10
63.6039272684413
20
-5.14548559106373
30
0
41
1
10
63.6540668687754
20
-5.08021635483649
30
0
0
SPLINE
5
16D
100
AcDbEntity
8
1
62
256
6
ByLayer
370
18
48
1
60
0
100
AcDbSpline
70
4
71
3
72
36
73
32
40
0
40
0
40
0
40
0
40
0.0625000000000282
40
0.0625000000000282
40
0.125000000000056
40
0.125000000000056
40
0.187500000000084
40
0.187500000000084
40
0.250000000000113
40
0.250000000000113
40
0.312500000000141
40
0.312500000000141
40
0.375000000000169
40
0.375000000000169
40
0.500000000000183
40
0.500000000000183
40
0.56250000000019
40
0.56250000000019
40
0.625000000000196
40
0.625000000000196
40
0.750000000000168
40
0.750000000000168
40
0.78125000000016
40
0.78125000000016
40
0.812500000000153
40
0.812500000000153
40
0.875000000000102
40
0.875000000000102
40
0.937500000000051
40
0.937500000000051
40
1
40
1
40
1
40
1
41
1
10
63.6540668687754
20
-5.08021635483649
30
0
41
1
10
63.6615163359448
20
-5.07051900924131
30
0
41
1
10
63.6696493332141
20
-5.06187732901682
30
0
41
1
10
63.6870615877696
20
-5.04635025130685
30
0
41
1
10
63.6963428035851
20
-5.03946835858216
30
0
41
1
10
63.7159383364694
20
-5.0272860271283
30
0
41
1
10
63.7262637610551
20
-5.02199743867166
30
0
41
1
10
63.7473484883631
20
-5.01309981886033
30
0
41
1
10
63.7581714680637
20
-5.00944848732084
30
0
41
1
10
63.7803198778596
20
-5.00358939315993
30
0
41
1
10
63.7916456432674
20
-5.0013825776511
30
0
41
1
10
63.8147686341641
20
-4.99834686161017
30
0
41
1
10
63.8266167836551
20
-4.99752125434426
30
0
41
1
10
63.8622650727121
20
-4.99709510318309
30
0
41
1
10
63.8862784526936
20
-4.99947801382103
30
0
41
1
10
63.9225905728005
20
-5.00692263612871
30
0
41
1
10
63.9347824124998
20
-5.01006853131074
30
0
41
1
10
63.9590823809453
20
-5.0176721184213
30
0
41
1
10
63.9711025377356
20
-5.02209787569026
30
0
41
1
10
64.00675564332
20
-5.0372567328217
30
0
41
1
10
64.0299887141576
20
-5.04983605097198
30
0
41
1
10
64.0582057444828
20
-5.06913515432066
30
0
41
1
10
64.0638073242579
20
-5.07317658199361
30
0
41
1
10
64.0749199645794
20
-5.08164854422625
30
0
41
1
10
64.080440358177
20
-5.08608847941684
30
0
41
1
10
64.0966441901369
20
-5.09985696198598
30
0
41
1
10
64.1070374701411
20
-5.10967773392963
30
0
41
1
10
64.1269221253714
20
-5.13072971428275
30
0
41
1
10
64.1364147714223
20
-5.14195883393307
30
0
41
1
10
64.1543461490843
20
-5.16606848752272
30
0
41
1
10
64.1627253253791
20
-5.1788855768491
30
0
41
1
10
64.1702769258559
20
-5.19236537129308
30
0
0
SPLINE
5
16E
100
AcDbEntity
8
1
62
256
6
ByLayer
370
18
48
1
60
0
100
AcDbSpline
70
4
71
3
72
8
73
4
40
0
40
0
40
0
40
0
40
1
40
1
40
1
40
1
41
1
10
65.0401303265428
20
-6.39279848867005
30
0
41
1
10
64.9708502155794
20
-6.38606064780799
30
0
41
1
10
64.9015633668326
20
-6.37822511020059
30
0
41
1
10
64.8322653690184
20
-6.36930028116674
30
0
0
SPLINE
5
16F
100
AcDbEntity
8
1
62
256
6
ByLayer
370
18
48
1
60
0
100
AcDbSpline
70
4
71
3
72
10
73
6
40
0
40
0
40
0
40
0
40
0.499999999999999
40
0.499999999999999
40
1
40
1
40
1
40
1
41
1
10
77.1705031857828
20
3.94642328969701
30
0
41
1
10
77.2422791897059
20
3.99532623330595
30
0
41
1
10
77.3136662056042
20
4.04066675611972
30
0
41
1
10
77.4555952007901
20
4.12398638686233
30
0
41
1
10
77.526209078566
20
4.16200452294188
30
0
41
1
10
77.5963661341163
20
4.19630316151088
30
0
0
SPLINE
5
170
100
AcDbEntity
8
1
62
256
6
ByLayer
370
18
48
1
60
0
100
AcDbSpline
70
4
71
3
72
12
73
8
40
0
40
0
40
0
40
0
40
0.250000000000007
40
0.250000000000007
40
0.500000000000014
40
0.500000000000014
40
1
40
1
40
1
40
1
41
1
10
77.5963661341164
20
4.19630316151091
30
0
41
1
10
77.6633900835413
20
4.13941957418453
30
0
41
1
10
77.73038749882
20
4.08217928582658
30
0
41
1
10
77.8643870779557
20
3.96704654477293
30
0
41
1
10
77.931376104266
20
3.90914323243203
30
0
41
1
10
78.1326525018433
20
3.73472511007068
30
0
41
1
10
78.2672576323401
20
3.61751260061141
30
0
41
1
10
78.4023547478603
20
3.49950438249112
30
0
0
SPLINE
5
171
100
AcDbEntity
8
1
62
256
6
ByLayer
370
18
48
1
60
0
100
AcDbSpline
70
4
71
3
72
8
73
4
40
0
40
0
40
0
40
0
40
1
40
1
40
1
40
1
41
1
10
78.4023547478604
20
3.4995043824911
30
0
41
1
10
78.5031202398997
20
3.32592052853141
30
0
41
1
10
78.6045745442216
20
3.15617070202819
30
0
41
1
10
78.7070027081211
20
2.99050602570802
30
0
0
SPLINE
5
172
100
AcDbEntity
8
1
62
256
6
ByLayer
370
18
48
1
60
0
100
AcDbSpline
70
4
71
3
72
35
73
31
40
0
40
0
40
0
40
0
40
0.0625000000000412
40
0.0625000000000412
40
0.125000000000082
40
0.125000000000082
40
0.156250000000103
40
0.156250000000103
40
0.187500000000124
40
0.250000000000127
40
0.250000000000127
40
0.31250000000013
40
0.31250000000013
40
0.375000000000134
40
0.375000000000134
40
0.500000000000098
40
0.500000000000098
40
0.562500000000101
40
0.562500000000101
40
0.625000000000105
40
0.625000000000105
40
0.75000000000007
40
0.75000000000007
40
0.812500000000053
40
0.812500000000053
40
0.875000000000035
40
0.875000000000035
40
0.937500000000018
40
0.937500000000018
40
1
40
1
40
1
40
1
41
1
10
78.7070027081211
20
2.99050602570799
30
0
41
1
10
78.7144878630246
20
2.97839972879629
30
0
41
1
10
78.7226671586025
20
2.96640700580815
30
0
41
1
10
78.7401884422225
20
2.9426166395061
30
0
41
1
10
78.7495324745156
20
2.93081921865448
30
0
41
1
10
78.7643345423421
20
2.9132555584124
30
0
41
1
10
78.769416650583
20
2.907405264007
30
0
41
1
10
78.7797223716573
20
2.89587235401441
30
0
41
1
10
78.7954095333111
20
2.87880247888862
30
0
41
1
10
78.8117288801586
20
2.86236726513832
30
0
41
1
10
78.8339903070129
20
2.84095778143376
30
0
41
1
10
78.8453724456379
20
2.83050538259033
30
0
41
1
10
78.8686085119303
20
2.81007393114018
30
0
41
1
10
78.8804991470846
20
2.80006877288997
30
0
41
1
10
78.9162141163436
20
2.77124843303258
30
0
41
1
10
78.9402640428128
20
2.75344152090474
30
0
41
1
10
78.9766163735791
20
2.72868685643104
30
0
41
1
10
78.9888370972071
20
2.7207306159153
30
0
41
1
10
79.0130475685489
20
2.7056883145772
30
0
41
1
10
79.0250251583771
20
2.69860557166479
30
0
41
1
10
79.0605578135153
20
2.67866099214601
30
0
41
1
10
79.0837211931015
20
2.66707925022445
30
0
41
1
10
79.1174924717324
20
2.65260824715881
30
0
41
1
10
79.1286431469483
20
2.64825693862758
30
0
41
1
10
79.1500648903851
20
2.64084027511009
30
0
41
1
10
79.1603802660787
20
2.63775069530007
30
0
41
1
10
79.1801355093721
20
2.63293373882846
30
0
41
1
10
79.1895766594429
20
2.63120414928849
30
0
41
1
10
79.2074312087643
20
2.62935114147365
30
0
41
1
10
79.2157328606964
20
2.62924316166192
30
0
41
1
10
79.2232462699094
20
2.63009092111795
30
0
0
SPLINE
5
173
100
AcDbEntity
8
1
62
256
6
ByLayer
370
18
48
1
60
0
100
AcDbSpline
70
4
71
3
72
8
73
4
40
0
40
0
40
0
40
0
40
1
40
1
40
1
40
1
41
1
10
79.2232462699094
20
2.63009092111793
30
0
41
1
10
79.2754232830918
20
2.63597820278446
30
0
41
1
10
79.3274057144085
20
2.63981504479196
30
0
41
1
10
79.3791588235197
20
2.64157224727478
30
0
0
SPLINE
5
174
100
AcDbEntity
8
1
62
256
6
ByLayer
370
18
48
1
60
0
100
AcDbSpline
70
4
71
3
72
19
73
15
40
0
40
0
40
0
40
0
40
0.25
40
0.25
40
0.375
40
0.375
40
0.500000000000001
40
0.500000000000001
40
0.562499999999994
40
0.562499999999994
40
0.624999999999987
40
0.749999999999987
40
0.749999999999987
40
1
40
1
40
1
40
1
41
1
10
79.3791588235197
20
2.64157224727478
30
0
41
1
10
79.5288187195766
20
2.50975367891209
30
0
41
1
10
79.6792140439225
20
2.37719707534526
30
0
41
1
10
79.9060354996946
20
2.17739326480302
30
0
41
1
10
79.9818211754522
20
2.11060545630474
30
0
41
1
10
80.1341512361237
20
1.97703620332001
30
0
41
1
10
80.210701804528
20
1.91026162283157
30
0
41
1
10
80.3261061661277
20
1.81012624984447
30
0
41
1
10
80.3646701730228
20
1.7767523227769
30
0
41
1
10
80.4418372991254
20
1.71014356240607
30
0
41
1
10
80.5577049913543
20
1.61039105428637
30
0
41
1
10
80.6739424415771
20
1.51114185904442
30
0
41
1
10
80.906945080889
20
1.31335378728073
30
0
41
1
10
81.0629289149227
20
1.18237669827215
30
0
41
1
10
81.2199999145204
20
1.05279937981928
30
0
0
SPLINE
5
175
100
AcDbEntity
8
1
62
256
6
ByLayer
370
18
48
1
60
0
100
AcDbSpline
70
4
71
3
72
10
73
6
40
0
40
0
40
0
40
0
40
0.5
40
0.5
40
1
40
1
40
1
40
1
41
1
10
81.2199999145205
20
1.05279937981911
30
0
41
1
10
81.3166052669224
20
0.958577107170669
30
0
41
1
10
81.4147347635922
20
0.870301016991874
30
0
41
1
10
81.6148537236859
20
0.706369515177187
30
0
41
1
10
81.7165528795838
20
0.63102355463306
30
0
41
1
10
81.8200000000001
20
0.563406093080317
30
0
0
SPLINE
5
176
100
AcDbEntity
8
1
62
256
6
ByLayer
370
18
48
1
60
0
100
AcDbSpline
70
4
71
3
72
94
73
90
40
0
40
0
40
0
40
0
40
0.0149055871214094
40
0.0149055871214094
40
0.0310546758571247
40
0.0310546758571247
40
0.0633528533285539
40
0.0633528533285539
40
0.0956510307999831
40
0.0956510307999831
40
0.111800119535697
40
0.111800119535697
40
0.127949208271411
40
0.127949208271411
40
0.144098297007125
40
0.152172841374981
40
0.152172841374981
40
0.160247385742837
40
0.160247385742837
40
0.192545563214262
40
0.192545563214262
40
0.224843740685687
40
0.224843740685687
40
0.257141918157112
40
0.257141918157112
40
0.289440095628537
40
0.289440095628537
40
0.305589184364248
40
0.305589184364248
40
0.32173827309996
40
0.32173827309996
40
0.337887361835672
40
0.337887361835672
40
0.345961906203529
40
0.345961906203529
40
0.354036450571385
40
0.354036450571385
40
0.386334628042815
40
0.386334628042815
40
0.418632805514246
40
0.418632805514246
40
0.450930982985676
40
0.450930982985676
40
0.483229160457107
40
0.483229160457107
40
0.515527337928537
40
0.515527337928537
40
0.531676426664253
40
0.531676426664253
40
0.539750971032112
40
0.539750971032112
40
0.54782551539997
40
0.54782551539997
40
0.612421870342835
40
0.612421870342835
40
0.628570959078552
40
0.628570959078552
40
0.644720047814269
40
0.644720047814269
40
0.677018225285702
40
0.677018225285702
40
0.709316402757134
40
0.709316402757134
40
0.72546549149285
40
0.72546549149285
40
0.733540035860709
40
0.733540035860709
40
0.741614580228567
40
0.741614580228567
40
0.773912757699998
40
0.773912757699998
40
0.806210935171429
40
0.806210935171429
40
0.83850911264286
40
0.83850911264286
40
0.854658201378576
40
0.854658201378576
40
0.870807290114291
40
0.870807290114291
40
0.903105467585721
40
0.903105467585721
40
0.919254556321435
40
0.927329100689292
40
0.927329100689292
40
0.935403645057149
40
0.935403645057149
40
0.967701822528575
40
0.967701822528575
40
1
40
1
40
1
40
1
41
1
10
61.1268262632104
20
-4.51100000057821
30
0
41
1
10
61.0285811056266
20
-4.51099316473224
30
0
41
1
10
60.9304727337215
20
-4.50942083368872
30
0
41
1
10
60.7263860274633
20
-4.50289897810475
30
0
41
1
10
60.6204214011104
20
-4.49767773073577
30
0
41
1
10
60.3028580967552
20
-4.47655111797991
30
0
41
1
10
60.0915827112542
20
-4.45517996116908
30
0
41
1
10
59.6689522905858
20
-4.39809508133436
30
0
41
1
10
59.4576371040906
20
-4.36236268904634
30
0
41
1
10
59.139714932294
20
-4.29834582529716
30
0
41
1
10
59.0335839536571
20
-4.27527591697168
30
0
41
1
10
58.8211592966405
20
-4.22558882108467
30
0
41
1
10
58.7148441814749
20
-4.19897994114976
30
0
41
1
10
58.5019685561228
20
-4.14220549407941
30
0
41
1
10
58.342117624524
20
-4.09696138090391
30
0
41
1
10
58.1818358714492
20
-4.0477436664292
30
0
41
1
10
58.0748702178548
20
-4.01405187860183
30
0
41
1
10
58.0212960205188
20
-3.99675406689988
30
0
41
1
10
57.7535411739364
20
-3.90821734064724
30
0
41
1
10
57.5404095876031
20
-3.83104264945902
30
0
41
1
10
57.115121102864
20
-3.66518772454435
30
0
41
1
10
56.902786076845
20
-3.57668022581788
30
0
41
1
10
56.479113548685
20
-3.38836401078467
30
0
41
1
10
56.2677528587126
20
-3.28855477162827
30
0
41
1
10
55.8451043594501
20
-3.07846354686257
30
0
41
1
10
55.6337921374632
20
-2.96820539716524
30
0
41
1
10
55.31612641412
20
-2.7957427097048
30
0
41
1
10
55.2101241159501
20
-2.73707381109781
30
0
41
1
10
54.9977824396752
20
-2.61749249217354
30
0
41
1
10
54.8914048450376
20
-2.55662697621591
30
0
41
1
10
54.678332506081
20
-2.43261593052682
30
0
41
1
10
54.5716507817152
20
-2.36945262702841
30
0
41
1
10
54.411330837948
20
-2.27304172675085
30
0
41
1
10
54.3578421358228
20
-2.24062605145977
30
0
41
1
10
54.2507586508461
20
-2.17524290268744
30
0
41
1
10
54.197123026731
20
-2.14224871100146
30
0
41
1
10
53.9293650709643
20
-1.97636817705859
30
0
41
1
10
53.7162671119665
20
-1.8406272673686
30
0
41
1
10
53.2913074455554
20
-1.56445817899314
30
0
41
1
10
53.079515545277
20
-1.4239315313765
30
0
41
1
10
52.6556822616378
20
-1.14030831869354
30
0
41
1
10
52.4441453826359
20
-0.99651314386557
30
0
41
1
10
52.0212474407778
20
-0.705770875195299
30
0
41
1
10
51.8099230604549
20
-0.558769820790531
30
0
41
1
10
51.3865557680184
20
-0.262866656535437
30
0
41
1
10
51.1745261909113
20
-0.113944353515365
30
0
41
1
10
50.8551049404218
20
0.109660171049967
30
0
41
1
10
50.748367759855
20
0.184180757446938
30
0
41
1
10
50.5879043502401
20
0.29599907210158
30
0
41
1
10
50.5343731082774
20
0.333302346993065
30
0
41
1
10
50.4272193838233
20
0.407965271089523
30
0
41
1
10
50.3735593653259
20
0.445345133974485
30
0
41
1
10
49.8915122955858
20
0.780853448449051
30
0
41
1
10
49.4675149625006
20
1.07390708553737
30
0
41
1
10
48.9384076177018
20
1.4274330019056
30
0
41
1
10
48.8326317320348
20
1.49750145205465
30
0
41
1
10
48.6210090454895
20
1.63615414209355
30
0
41
1
10
48.5151720873713
20
1.70475318738409
30
0
41
1
10
48.1978160433232
20
1.90868068516218
30
0
41
1
10
47.9863328030331
20
2.04197670390727
30
0
41
1
10
47.5628104425467
20
2.30223304706095
30
0
41
1
10
47.3507749242164
20
2.4291955398663
30
0
41
1
10
47.0315514236972
20
2.61387034606858
30
0
41
1
10
46.9249563301776
20
2.6744766543834
30
0
41
1
10
46.7646289024163
20
2.76376460651508
30
0
41
1
10
46.7111092592495
20
2.79325155208642
30
0
41
1
10
46.6039126886943
20
2.85166977509013
30
0
41
1
10
46.5502167790381
20
2.88062219322177
30
0
41
1
10
46.282267072248
20
3.02365928787213
30
0
41
1
10
46.0690067162537
20
3.13289628054545
30
0
41
1
10
45.6439817683661
20
3.34041482671793
30
0
41
1
10
45.4321863772759
20
3.43865952858908
30
0
41
1
10
45.009084066369
20
3.62335006180493
30
0
41
1
10
44.7978102197653
20
3.70982141483282
30
0
41
1
10
44.4804458960447
20
3.83008424432654
30
0
41
1
10
44.3745611342765
20
3.86858684025714
30
0
41
1
10
44.1628624588661
20
3.942615390079
30
0
41
1
10
44.0570086815724
20
3.97810855334021
30
0
41
1
10
43.7392469765495
20
4.07985406380973
30
0
41
1
10
43.5271327481332
20
4.14136741604273
30
0
41
1
10
43.2078864846295
20
4.22357973063833
30
0
41
1
10
43.0480000636566
20
4.26217447378144
30
0
41
1
10
42.8875530267362
20
4.29687947441502
30
0
41
1
10
42.7804446550118
20
4.31913924941708
30
0
41
1
10
42.726802687538
20
4.32983292646097
30
0
41
1
10
42.4590383130015
20
4.38092485477318
30
0
41
1
10
42.2455662898134
20
4.41435010152134
30
0
41
1
10
41.8202324008406
20
4.46671243498955
30
0
41
1
10
41.6082927596857
20
4.48560781921097
30
0
41
1
10
41.3967372984886
20
4.49720311870209
30
0
0
SPLINE
5
177
100
AcDbEntity
8
1
62
256
6
ByLayer
370
18
48
1
60
0
100
AcDbSpline
70
4
71
3
72
26
73
22
40
0
40
0
40
0
40
0
40
0.0681690801185033
40
0.0681690801185033
40
0.252355771938146
40
0.252355771938146
40
0.344449117847968
40
0.344449117847968
40
0.436542463757788
40
0.436542463757788
40
0.620729155577427
40
0.620729155577427
40
0.712822501487246
40
0.712822501487246
40
0.804915847397065
40
0.804915847397065
40
0.897009193306885
40
0.897009193306885
40
0.989102539216704
40
0.989102539216704
40
1
40
1
40
1
40
1
41
1
10
41.3968144876528
20
4.49717601119428
30
0
41
1
10
41.3632746752698
20
4.42160608947782
30
0
41
1
10
41.3272253954646
20
4.34514466895223
30
0
41
1
10
41.1850360076024
20
4.06091216912949
30
0
41
1
10
41.0668267717902
20
3.85581795113046
30
0
41
1
10
40.8652331096042
20
3.55214481845621
30
0
41
1
10
40.793304817095
20
3.45086103236358
30
0
41
1
10
40.6456478366736
20
3.25744615527694
30
0
41
1
10
40.5694826260716
20
3.1644917249389
30
0
41
1
10
40.3332383810122
20
2.89807348692668
30
0
41
1
10
40.1667098476731
20
2.73113659304076
30
0
41
1
10
39.9184452592555
20
2.51132236945142
30
0
41
1
10
39.8354647549862
20
2.44273864855094
30
0
41
1
10
39.669017786467
20
2.31566699424849
30
0
41
1
10
39.5863716373461
20
2.25787812363777
30
0
41
1
10
39.4253114845571
20
2.15599456524677
30
0
41
1
10
39.3464248394711
20
2.11153073903665
30
0
41
1
10
39.1920164031562
20
2.03586641254714
30
0
41
1
10
39.1159179340983
20
2.00448193445797
30
0
41
1
10
39.034449526633
20
1.97781052783961
30
0
41
1
10
39.0258801988098
20
1.97509331527851
30
0
41
1
10
39.0173614975438
20
1.97248053753287
30
0
0
SPLINE
5
178
100
AcDbEntity
8
1
62
256
6
ByLayer
370
18
48
1
60
0
100
AcDbSpline
70
4
71
3
72
102
73
98
40
0
40
0
40
0
40
0
40
0.0199389866474027
40
0.0199389866474027
40
0.0398779732948055
40
0.0398779732948055
40
0.0598169599422082
40
0.0598169599422082
40
0.0697864532659103
40
0.0697864532659103
40
0.0797559465896125
40
0.0797559465896125
40
0.0996949332370167
40
0.0996949332370167
40
0.119633919884421
40
0.119633919884421
40
0.139572906531825
40
0.139572906531825
40
0.159511893179229
40
0.159511893179229
40
0.199389866474038
40
0.199389866474038
40
0.219328853121443
40
0.219328853121443
40
0.239267839768848
40
0.239267839768848
40
0.259206826416253
40
0.259206826416253
40
0.279145813063658
40
0.279145813063658
40
0.31902378635847
40
0.31902378635847
40
0.338962773005875
40
0.338962773005875
40
0.358901759653279
40
0.358901759653279
40
0.378840746300684
40
0.378840746300684
40
0.398779732948089
40
0.398779732948089
40
0.4386577062429
40
0.4386577062429
40
0.458596692890304
40
0.458596692890304
40
0.468566186214007
40
0.468566186214007
40
0.478535679537709
40
0.478535679537709
40
0.488505172861412
40
0.488505172861412
40
0.498474666185114
40
0.518413652832518
40
0.518413652832518
40
0.558291626127325
40
0.558291626127325
40
0.568261119451027
40
0.568261119451027
40
0.578230612774728
40
0.578230612774728
40
0.58820010609843
40
0.58820010609843
40
0.598169599422132
40
0.598169599422132
40
0.638047572716939
40
0.638047572716939
40
0.677925546011746
40
0.677925546011746
40
0.687895039335449
40
0.687895039335449
40
0.697864532659151
40
0.717803519306555
40
0.717803519306555
40
0.757681492601362
40
0.757681492601362
40
0.777620479248765
40
0.777620479248765
40
0.787589972572467
40
0.787589972572467
40
0.797559465896169
40
0.797559465896169
40
0.807528959219871
40
0.807528959219871
40
0.817498452543572
40
0.817498452543572
40
0.837437439190974
40
0.837437439190974
40
0.877315412485777
40
0.877315412485777
40
0.897254399133179
40
0.897254399133179
40
0.917193385780581
40
0.917193385780581
40
0.957071359075384
40
0.957071359075384
40
0.996949332370187
40
0.996949332370187
40
1
40
1
40
1
40
1
41
1
10
38.0473896699276
20
2.57075711904091
30
0
41
1
10
38.1715651505426
20
2.49936103614729
30
0
41
1
10
38.2954059304097
20
2.42626619999263
30
0
41
1
10
38.5434651378846
20
2.27794004664463
30
0
41
1
10
38.6676614554274
20
2.20268915731947
30
0
41
1
10
38.9163730715121
20
2.05002602848347
30
0
41
1
10
39.040892647402
20
1.97261941799357
30
0
41
1
10
39.2278858137182
20
1.85485900763422
30
0
41
1
10
39.2902513468522
20
1.81532868597372
30
0
41
1
10
39.4150449309584
20
1.73570323298699
30
0
41
1
10
39.4774721302627
20
1.69561076761204
30
0
41
1
10
39.6643465523707
20
1.57483007137799
30
0
41
1
10
39.788559104816
20
1.49353193054165
30
0
41
1
10
40.0362574476738
20
1.32940284722483
30
0
41
1
10
40.15970541542
20
1.24651787446331
30
0
41
1
10
40.4061461850413
20
1.0796005612948
30
0
41
1
10
40.5291681184621
20
0.995609509442545
30
0
41
1
10
40.7753163485395
20
0.82728632251721
30
0
41
1
10
40.8984036533611
20
0.742899061086604
30
0
41
1
10
41.267657016939
20
0.489000965449691
30
0
41
1
10
41.5137984785341
20
0.318732785626452
30
0
41
1
10
41.882983774717
20
0.0618405291911586
30
0
41
1
10
42.0060506669631
20
-0.0240252464852233
30
0
41
1
10
42.2522893864128
20
-0.196095015840939
30
0
41
1
10
42.3754280399835
20
-0.282347984921103
30
0
41
1
10
42.6220944448811
20
-0.454782574034084
30
0
41
1
10
42.7456938031046
20
-0.540858663173481
30
0
41
1
10
42.9937839618862
20
-0.712197482778009
30
0
41
1
10
43.1182408369334
20
-0.797529388922868
30
0
41
1
10
43.4926908526591
20
-1.05257341162809
30
0
41
1
10
43.7410121777008
20
-1.21961720171598
30
0
41
1
10
44.1118807416182
20
-1.46534954187945
30
0
41
1
10
44.2352385676267
20
-1.54644832109506
30
0
41
1
10
44.4813368311203
20
-1.70713632907359
30
0
41
1
10
44.6039728623057
20
-1.78685951807179
30
0
41
1
10
44.8496699877083
20
-1.94339205337221
30
0
41
1
10
44.9725890289401
20
-2.02039880278286
30
0
41
1
10
45.2185067329944
20
-2.17200210232909
30
0
41
1
10
45.3415244461073
20
-2.24657347988941
30
0
41
1
10
45.7107982784712
20
-2.46655364146463
30
0
41
1
10
45.9572747212318
20
-2.60824072302299
30
0
41
1
10
46.3274653111049
20
-2.81314085176746
30
0
41
1
10
46.4509337672108
20
-2.88017426459106
30
0
41
1
10
46.6363784753805
20
-2.97863198294044
30
0
41
1
10
46.6982285190852
20
-3.01110796410814
30
0
41
1
10
46.8221399276172
20
-3.07521204131621
30
0
41
1
10
46.8842199691787
20
-3.10681994478219
30
0
41
1
10
47.0086250968744
20
-3.16915305199521
30
0
41
1
10
47.0709861453841
20
-3.19990178391427
30
0
41
1
10
47.1957083538557
20
-3.26045923433793
30
0
41
1
10
47.3827167459932
20
-3.34984295358845
30
0
41
1
10
47.5695288448005
20
-3.43487381368763
30
0
41
1
10
47.9428958638135
20
-3.59916109626568
30
0
41
1
10
48.1914050703111
20
-3.70104985636377
30
0
41
1
10
48.5018478021518
20
-3.81844907914552
30
0
41
1
10
48.5639266912877
20
-3.84142991244013
30
0
41
1
10
48.6880683472507
20
-3.88638256732855
30
0
41
1
10
48.7501343438849
20
-3.90835088384978
30
0
41
1
10
48.8744528183211
20
-3.95112810825023
30
0
41
1
10
48.9367089923743
20
-3.9719545755633
30
0
41
1
10
49.0612905707095
20
-4.01245604809452
30
0
41
1
10
49.1235249603795
20
-4.03210207078786
30
0
41
1
10
49.434390747885
20
-4.12736484775294
30
0
41
1
10
49.682152779933
20
-4.19406768712977
30
0
41
1
10
50.1762129358482
20
-4.30880218577246
30
0
41
1
10
50.4225221727901
20
-4.35684577368895
30
0
41
1
10
50.7292980517682
20
-4.40521650290214
30
0
41
1
10
50.790599576263
20
-4.41430207198832
30
0
41
1
10
50.9132965990254
20
-4.43123557272153
30
0
41
1
10
51.0974655722139
20
-4.45478748900732
30
0
41
1
10
51.2820065725941
20
-4.47284281036957
30
0
41
1
10
51.6515205330689
20
-4.50168965910774
30
0
41
1
10
51.8984471752458
20
-4.51125600832586
30
0
41
1
10
52.2697274189009
20
-4.5108642103099
30
0
41
1
10
52.393617297306
20
-4.50826870646034
30
0
41
1
10
52.5797604738725
20
-4.50060253701318
30
0
41
1
10
52.6418617049123
20
-4.49741856366023
30
0
41
1
10
52.7661802333936
20
-4.48977923604747
30
0
41
1
10
52.8284300872834
20
-4.48531699448031
30
0
41
1
10
52.9526384638851
20
-4.47514294322932
30
0
41
1
10
53.0146809545259
20
-4.4694371563339
30
0
41
1
10
53.1387629093813
20
-4.45683263352009
30
0
41
1
10
53.2007832138789
20
-4.4499307853124
30
0
41
1
10
53.3867269812459
20
-4.42743959322911
30
0
41
1
10
53.510509123713
20
-4.41005846792373
30
0
41
1
10
53.8813549163557
20
-4.35087853358672
30
0
41
1
10
54.1279551021871
20
-4.30207956541292
30
0
41
1
10
54.4968938149274
20
-4.21492926492567
30
0
41
1
10
54.6197261868314
20
-4.18355262128424
30
0
41
1
10
54.8652546937293
20
-4.11620039788528
30
0
41
1
10
54.9878384167387
20
-4.08015158854326
30
0
41
1
10
55.3563487599458
20
-3.96566732193207
30
0
41
1
10
55.6027406782484
20
-3.88075933985488
30
0
41
1
10
56.0973818610934
20
-3.69410841567634
30
0
41
1
10
56.3456461702017
20
-3.59239503506603
30
0
41
1
10
56.6138577952858
20
-3.47347541019369
30
0
41
1
10
56.6329195188446
20
-3.46497456289632
30
0
41
1
10
56.6519778370739
20
-3.45642647649925
30
0
0
SPLINE
5
179
100
AcDbEntity
8
1
62
256
6
ByLayer
370
18
48
1
60
0
100
AcDbSpline
70
4
71
3
72
26
73
22
40
0
40
0
40
0
40
0
40
0.0288485343910543
40
0.0288485343910543
40
0.117135031264618
40
0.117135031264618
40
0.293708025011744
40
0.293708025011744
40
0.381994521885276
40
0.381994521885276
40
0.470281018758809
40
0.470281018758809
40
0.646854012505873
40
0.646854012505873
40
0.735140509379405
40
0.735140509379405
40
0.823427006252937
40
0.823427006252937
40
0.911713503126468
40
0.911713503126468
40
1
40
1
40
1
40
1
41
1
10
72.6872853208852
20
5.20688382738285
30
0
41
1
10
72.6910233410529
20
5.20519071287154
30
0
41
1
10
72.6947870164427
20
5.20357049256646
30
0
41
1
10
72.7101707637155
20
5.19728286743762
30
0
41
1
10
72.7220465391225
20
5.19320720165564
30
0
41
1
10
72.7577427323751
20
5.18313313421518
30
0
41
1
10
72.7817804640808
20
5.17917571376657
30
0
41
1
10
72.8181157373851
20
5.1772103371795
30
0
41
1
10
72.8303255134514
20
5.17722796772844
30
0
41
1
10
72.8545774569679
20
5.17864220783247
30
0
41
1
10
72.8665739928708
20
5.18002956477801
30
0
41
1
10
72.9021581851339
20
5.18623670185173
30
0
41
1
10
72.9253486198857
20
5.19306329525719
30
0
41
1
10
72.9591496450346
20
5.20794305763545
30
0
41
1
10
72.9703191125594
20
5.21373108878396
30
0
41
1
10
72.9918182989396
20
5.22683377631543
30
0
41
1
10
73.0021659542704
20
5.2341421868951
30
0
41
1
10
73.0219737098968
20
5.25042530427035
30
0
41
1
10
73.0314350839387
20
5.25939745516533
30
0
41
1
10
73.049318540206
20
5.27929865710612
30
0
41
1
10
73.0576572345911
20
5.29014788438553
30
0
41
1
10
73.0651877644914
20
5.30189888120051
30
0
0
SPLINE
5
17A
100
AcDbEntity
8
1
62
256
6
ByLayer
370
18
48
1
60
0
100
AcDbSpline
70
4
71
3
72
14
73
10
40
0
40
0
40
0
40
0
40
0.25
40
0.25
40
0.5
40
0.5
40
0.75
40
0.75
40
1
40
1
40
1
40
1
41
1
10
73.0651877644914
20
5.30189888120051
30
0
41
1
10
73.1214284697525
20
5.38965955105459
30
0
41
1
10
73.1774397041576
20
5.47627016047588
30
0
41
1
10
73.288924367604
20
5.64690467779292
30
0
41
1
10
73.3444125551803
20
5.73095038611478
30
0
41
1
10
73.4549597975537
20
5.89647258962594
30
0
41
1
10
73.5099660007821
20
5.97787016468783
30
0
41
1
10
73.6194293983347
20
6.13778047594425
30
0
41
1
10
73.6739005688526
20
6.21631240311282
30
0
41
1
10
73.7281682937284
20
6.29347181119385
30
0
0
SPLINE
5
17B
100
AcDbEntity
8
1
62
256
6
ByLayer
370
18
48
1
60
0
100
AcDbSpline
70
4
71
3
72
8
73
4
40
0
40
0
40
0
40
0
40
1
40
1
40
1
40
1
41
1
10
73.9365615818177
20
6.24845071110906
30
0
41
1
10
73.8670697408545
20
6.26454138900124
30
0
41
1
10
73.7976200069953
20
6.27955368635014
30
0
41
1
10
73.7281682937284
20
6.29347181119383
30
0
0
SPLINE
5
17C
100
AcDbEntity
8
1
62
256
6
ByLayer
370
18
48
1
60
0
100
AcDbSpline
70
4
71
3
72
10
73
6
40
0
40
0
40
0
40
0
40
0.5
40
0.5
40
1
40
1
40
1
40
1
41
1
10
73.9365615818174
20
6.2484507110953
30
0
41
1
10
74.0454261665259
20
6.04852380371162
30
0
41
1
10
74.1551679971913
20
5.84637534168493
30
0
41
1
10
74.3770023359806
20
5.43798222335272
30
0
41
1
10
74.4887170997072
20
5.23241911541331
30
0
41
1
10
74.6016133134673
20
5.025638558992
30
0
0
SPLINE
5
17D
100
AcDbEntity
8
1
62
256
6
ByLayer
370
18
48
1
60
0
100
AcDbSpline
70
4
71
3
72
34
73
30
40
0
40
0
40
0
40
0
40
0.0624999999999571
40
0.0624999999999571
40
0.124999999999914
40
0.124999999999914
40
0.15624999999991
40
0.15624999999991
40
0.187499999999907
40
0.249999999999901
40
0.312499999999896
40
0.312499999999896
40
0.37499999999989
40
0.37499999999989
40
0.499999999999878
40
0.499999999999878
40
0.562499999999894
40
0.562499999999894
40
0.624999999999909
40
0.624999999999909
40
0.74999999999994
40
0.74999999999994
40
0.812499999999955
40
0.812499999999955
40
0.87499999999997
40
0.87499999999997
40
0.937499999999985
40
0.937499999999985
40
1
40
1
40
1
40
1
41
1
10
74.6016133134673
20
5.02563855899203
30
0
41
1
10
74.6090890713371
20
5.01194597072455
30
0
41
1
10
74.6172562794883
20
4.99898895158634
30
0
41
1
10
74.6347492272581
20
4.97430337234752
30
0
41
1
10
74.6440769753624
20
4.96257707276865
30
0
41
1
10
74.6588517031151
20
4.94581763601164
30
0
41
1
10
74.6639245069015
20
4.9403537120626
30
0
41
1
10
74.6742168324739
20
4.92980242317415
30
0
41
1
10
74.6898837095403
20
4.9145260533812
30
0
41
1
10
74.7170476767288
20
4.89160783084853
30
0
41
1
10
74.739783315956
20
4.87572041644765
30
0
41
1
10
74.7629896879616
20
4.86099385406453
30
0
41
1
10
74.7748709576518
20
4.85419422262981
30
0
41
1
10
74.8105732441121
20
4.83582036987104
30
0
41
1
10
74.8346150539847
20
4.82612137597724
30
0
41
1
10
74.8709563000862
20
4.81521787188598
30
0
41
1
10
74.8831707791139
20
4.81218798525643
30
0
41
1
10
74.9074075519366
20
4.8074566809465
30
0
41
1
10
74.91939721272
20
4.80575495569715
30
0
41
1
10
74.954962815182
20
4.80264051787927
30
0
41
1
10
74.978143617021
20
4.80318149349628
30
0
41
1
10
75.0119341562797
20
4.80848904389242
30
0
41
1
10
75.0230980720697
20
4.81104142222807
30
0
41
1
10
75.0445697107497
20
4.81774047616511
30
0
41
1
10
75.054905973923
20
4.82187986774912
30
0
41
1
10
75.0746953814681
20
4.8318977477654
30
0
41
1
10
75.0841498033101
20
4.83777351599196
30
0
41
1
10
75.1020235635128
20
4.85157051113288
30
0
41
1
10
75.110349416775
20
4.85942991378556
30
0
41
1
10
75.1178739174173
20
4.86831810816363
30
0
0
SPLINE
5
17E
100
AcDbEntity
8
1
62
256
6
ByLayer
370
18
48
1
60
0
100
AcDbSpline
70
4
71
3
72
14
73
10
40
0
40
0
40
0
40
0
40
0.25
40
0.25
40
0.5
40
0.5
40
0.75
40
0.75
40
1
40
1
40
1
40
1
41
1
10
75.1178739174173
20
4.86831810816358
30
0
41
1
10
75.1740783580185
20
4.93470869229915
30
0
41
1
10
75.2300556648887
20
4.99934454386181
30
0
41
1
10
75.3414811365993
20
5.12488210904581
30
0
41
1
10
75.3969439103636
20
5.18579795268613
30
0
41
1
10
75.5074516529233
20
5.30392419827521
30
0
41
1
10
75.5624404964158
20
5.36108092674945
30
0
41
1
10
75.6718782602122
20
5.47145016971913
30
0
41
1
10
75.7263313483433
20
5.52463986734719
30
0
41
1
10
75.7805800770673
20
5.57593122819196
30
0
0
SPLINE
5
17F
100
AcDbEntity
8
1
62
256
6
ByLayer
370
18
48
1
60
0
100
AcDbSpline
70
4
71
3
72
8
73
4
40
0
40
0
40
0
40
0
40
1
40
1
40
1
40
1
41
1
10
75.9892516895607
20
5.46942127959588
30
0
41
1
10
75.9197566524724
20
5.50580907846279
30
0
41
1
10
75.8502104389596
20
5.54132213889903
30
0
41
1
10
75.7805800770673
20
5.57593122819196
30
0
0
SPLINE
5
180
100
AcDbEntity
8
1
62
256
6
ByLayer
370
18
48
1
60
0
100
AcDbSpline
70
4
71
3
72
10
73
6
40
0
40
0
40
0
40
0
40
0.5
40
0.5
40
1
40
1
40
1
40
1
41
1
10
75.9892516895606
20
5.46942127959591
30
0
41
1
10
76.0980967024831
20
5.2587149627407
30
0
41
1
10
76.2078165190957
20
5.04884209268192
30
0
41
1
10
76.4296226177264
20
4.63123081605377
30
0
41
1
10
76.5413321390595
20
4.42416274492103
30
0
41
1
10
76.6542327479065
20
4.21907694233408
30
0
0
SPLINE
5
181
100
AcDbEntity
8
1
62
256
6
ByLayer
370
18
48
1
60
0
100
AcDbSpline
70
4
71
3
72
35
73
31
40
0
40
0
40
0
40
0
40
0.0625000000000474
40
0.0625000000000474
40
0.125000000000095
40
0.125000000000095
40
0.156250000000101
40
0.156250000000101
40
0.187500000000107
40
0.250000000000081
40
0.250000000000081
40
0.312500000000055
40
0.312500000000055
40
0.375000000000029
40
0.375000000000029
40
0.499999999999979
40
0.499999999999979
40
0.562499999999975
40
0.562499999999975
40
0.624999999999971
40
0.624999999999971
40
0.750000000000007
40
0.750000000000007
40
0.812500000000005
40
0.812500000000005
40
0.875000000000004
40
0.875000000000004
40
0.937500000000002
40
0.937500000000002
40
1
40
1
40
1
40
1
41
1
10
76.6542327479064
20
4.21907694233443
30
0
41
1
10
76.6617124516285
20
4.20548993818431
30
0
41
1
10
76.6698848403546
20
4.19235062287527
30
0
41
1
10
76.6873900924448
20
4.1668225623111
30
0
41
1
10
76.6967249851378
20
4.15443511464571
30
0
41
1
10
76.7115118569482
20
4.13636142147567
30
0
41
1
10
76.7165888505983
20
4.13040368298209
30
0
41
1
10
76.7268872515689
20
4.11877450679881
30
0
41
1
10
76.7425634216408
20
4.10174167056564
30
0
41
1
10
76.7588717881951
20
4.08584704458301
30
0
41
1
10
76.781118608448
20
4.06556384576444
30
0
41
1
10
76.7924934461859
20
4.0558776221562
30
0
41
1
10
76.8157147823971
20
4.03736616258078
30
0
41
1
10
76.8276014404148
20
4.02851762933398
30
0
41
1
10
76.8633126987602
20
4.00366705284452
30
0
41
1
10
76.887360567953
20
3.98918455846908
30
0
41
1
10
76.9237101463115
20
3.97041126365349
30
0
41
1
10
76.9359288750252
20
3.96462782775026
30
0
41
1
10
76.9601555249969
20
3.95421421502138
30
0
41
1
10
76.9721404690019
20
3.94958808158938
30
0
41
1
10
77.0076930219676
20
3.93744493025631
30
0
41
1
10
77.0308667480709
20
3.93163126748098
30
0
41
1
10
77.0646493666096
20
3.92680688363276
30
0
41
1
10
77.0758076718766
20
3.92585878942407
30
0
41
1
10
77.0972556298212
20
3.92547442278766
30
0
41
1
10
77.1075819656275
20
3.92602420258677
30
0
41
1
10
77.1273552518691
20
3.92875745082748
30
0
41
1
10
77.1368034822711
20
3.93093831765512
30
0
41
1
10
77.1546685907729
20
3.93722389292688
30
0
41
1
10
77.1629834278997
20
3.9412998741326
30
0
41
1
10
77.1705031857823
20
3.94642328969749
30
0
0
SPLINE
5
182
100
AcDbEntity
8
1
62
256
6
ByLayer
370
18
48
1
60
0
100
AcDbSpline
70
4
71
3
72
10
73
6
40
0
40
0
40
0
40
0
40
0.5
40
0.5
40
1
40
1
40
1
40
1
41
1
10
78.9478325592947
20
-0.947551915776558
30
0
41
1
10
78.8990470160736
20
-0.945133339969999
30
0
41
1
10
78.8503818446434
20
-0.940774194929958
30
0
41
1
10
78.7532575200221
20
-0.928256311403572
30
0
41
1
10
78.7048006791221
20
-0.920096187159771
30
0
41
1
10
78.6564913908391
20
-0.910081790581899
30
0
0
SPLINE
5
183
100
AcDbEntity
8
1
62
256
6
ByLayer
370
18
48
1
60
0
100
AcDbSpline
70
4
71
3
72
12
73
8
40
0
40
0
40
0
40
0
40
0.5
40
0.5
40
0.75
40
0.75
40
1
40
1
40
1
40
1
41
1
10
78.6564913908391
20
-0.910081790581842
30
0
41
1
10
78.520713453123
20
-0.802750695222869
30
0
41
1
10
78.3851989767736
20
-0.692990694708129
30
0
41
1
10
78.1821170220089
20
-0.524848473507859
30
0
41
1
10
78.1144543914431
20
-0.46821753583194
30
0
41
1
10
77.9791548967922
20
-0.353813307065479
30
0
41
1
10
77.9114886905296
20
-0.296017133302485
30
0
41
1
10
77.8441706848712
20
-0.237955939738129
30
0
0
SPLINE
5
184
100
AcDbEntity
8
1
62
256
6
ByLayer
370
18
48
1
60
0
100
AcDbSpline
70
4
71
3
72
10
73
6
40
0
40
0
40
0
40
0
40
0.5
40
0.5
40
1
40
1
40
1
40
1
41
1
10
77.8441706848712
20
-0.237955939738072
30
0
41
1
10
77.7726997823245
20
-0.138570006076861
30
0
41
1
10
77.7008339741047
20
-0.0424304989230393
30
0
41
1
10
77.5565989613884
20
0.142645674979576
30
0
41
1
10
77.4841816720207
20
0.231656869811474
30
0
41
1
10
77.411381852883
20
0.317077303217701
30
0
0
SPLINE
5
185
100
AcDbEntity
8
1
62
256
6
ByLayer
370
18
48
1
60
0
100
AcDbSpline
70
4
71
3
72
34
73
30
40
0
40
0
40
0
40
0
40
0.125000000000047
40
0.125000000000047
40
0.187500000000071
40
0.187500000000071
40
0.250000000000094
40
0.250000000000094
40
0.375000000000103
40
0.375000000000103
40
0.437500000000087
40
0.437500000000087
40
0.500000000000071
40
0.500000000000071
40
0.62500000000004
40
0.62500000000004
40
0.687500000000046
40
0.687500000000046
40
0.750000000000053
40
0.750000000000053
40
0.812500000000059
40
0.812500000000059
40
0.875000000000066
40
0.875000000000066
40
0.906250000000049
40
0.906250000000049
40
0.937500000000032
40
0.937500000000032
40
1
40
1
40
1
40
1
41
1
10
77.411381852883
20
0.317077303217701
30
0
41
1
10
77.3975162310211
20
0.333346676451356
30
0
41
1
10
77.3814170245437
20
0.350646231192201
30
0
41
1
10
77.3546520318054
20
0.377753697144215
30
0
41
1
10
77.3452850462772
20
0.386987794760586
30
0
41
1
10
77.3257011152092
20
0.40583465402031
30
0
41
1
10
77.3155764787802
20
0.415357925824537
30
0
41
1
10
77.2844335216921
20
0.444065945379947
30
0
41
1
10
77.2625879332701
20
0.463449849850747
30
0
41
1
10
77.2282666155149
20
0.492935598406945
30
0
41
1
10
77.2165613678389
20
0.502834787840072
30
0
41
1
10
77.1930349699488
20
0.522444581873486
30
0
41
1
10
77.1811643558322
20
0.532198107837161
30
0
41
1
10
77.1452414215461
20
0.561323088822007
30
0
41
1
10
77.1208829423606
20
0.580560092569044
30
0
41
1
10
77.0836983146544
20
0.609198202593603
30
0
41
1
10
77.0711900715327
20
0.618709175615379
30
0
41
1
10
77.046541067947
20
0.637212971239279
30
0
41
1
10
77.0343292771953
20
0.64626109099359
30
0
41
1
10
77.0101702796198
20
0.663918141751282
30
0
41
1
10
76.9981883475301
20
0.672552100089717
30
0
41
1
10
76.9746964462709
20
0.689209184089265
30
0
41
1
10
76.9633784922688
20
0.697096914599484
30
0
41
1
10
76.947126242422
20
0.708194197537779
30
0
41
1
10
76.9418301099103
20
0.711770321551285
30
0
41
1
10
76.9315023949086
20
0.718655061231402
30
0
41
1
10
76.9264534940377
20
0.721974877684602
30
0
41
1
10
76.9118724549747
20
0.731407205760434
30
0
41
1
10
76.9029882240047
20
0.736942962691188
30
0
41
1
10
76.8950488784886
20
0.741619842813293
30
0
0
SPLINE
5
186
100
AcDbEntity
8
1
62
256
6
ByLayer
370
18
48
1
60
0
100
AcDbSpline
70
4
71
3
72
12
73
8
40
0
40
0
40
0
40
0
40
0.500000000000008
40
0.500000000000008
40
0.750000000000004
40
0.750000000000004
40
1
40
1
40
1
40
1
41
1
10
76.8950488784886
20
0.741619842813236
30
0
41
1
10
76.7855231959982
20
0.806138824417189
30
0
41
1
10
76.6765409876678
20
0.87993616932161
30
0
41
1
10
76.5140952942643
20
1.00351288178518
30
0
41
1
10
76.4601080579378
20
1.046860719249
30
0
41
1
10
76.3525812687751
20
1.13761822890942
30
0
41
1
10
76.2990183327108
20
1.18504537562703
30
0
41
1
10
76.2456251248223
20
1.23448083368393
30
0
0
SPLINE
5
187
100
AcDbEntity
8
1
62
256
6
ByLayer
370
18
48
1
60
0
100
AcDbSpline
70
4
71
3
72
8
73
4
40
0
40
0
40
0
40
0
40
1
40
1
40
1
40
1
41
1
10
76.0374119047965
20
1.43744157881841
30
0
41
1
10
76.1068372093172
20
1.37000474152512
30
0
41
1
10
76.1762354381566
20
1.30234497579409
30
0
41
1
10
76.2456251248223
20
1.23448083368393
30
0
0
SPLINE
5
188
100
AcDbEntity
8
1
62
256
6
ByLayer
370
18
48
1
60
0
100
AcDbSpline
70
4
71
3
72
10
73
6
40
0
40
0
40
0
40
0
40
0.5
40
0.5
40
1
40
1
40
1
40
1
41
1
10
76.0374119047971
20
1.43744157881781
30
0
41
1
10
75.9258153329723
20
1.54546018705031
30
0
41
1
10
75.8135544084626
20
1.6438690618109
30
0
41
1
10
75.5870531041053
20
1.82063312273235
30
0
41
1
10
75.4732043967016
20
1.89876362777272
30
0
41
1
10
75.3584574920017
20
1.9664199526008
30
0
0
SPLINE
5
189
100
AcDbEntity
8
1
62
256
6
ByLayer
370
18
48
1
60
0
100
AcDbSpline
70
4
71
3
72
34
73
30
40
0
40
0
40
0
40
0
40
0.125000000000003
40
0.125000000000003
40
0.187500000000005
40
0.187500000000005
40
0.250000000000006
40
0.250000000000006
40
0.375000000000049
40
0.375000000000049
40
0.437500000000071
40
0.437500000000071
40
0.500000000000093
40
0.500000000000093
40
0.625000000000095
40
0.625000000000095
40
0.687500000000073
40
0.687500000000073
40
0.750000000000052
40
0.750000000000052
40
0.812500000000031
40
0.812500000000031
40
0.875000000000009
40
0.875000000000009
40
0.906249999999998
40
0.906249999999998
40
0.937499999999988
40
0.937499999999988
40
1
40
1
40
1
40
1
41
1
10
75.3584574920017
20
1.96641995260043
30
0
41
1
10
75.3445831963887
20
1.97460042468561
30
0
41
1
10
75.3284742599027
20
1.98467285042406
30
0
41
1
10
75.3016958260475
20
2.00193528703838
30
0
41
1
10
75.2923245309021
20
2.00805748230144
30
0
41
1
10
75.2727326405017
20
2.02100431784001
30
0
41
1
10
75.2626045230895
20
2.02776812271023
30
0
41
1
10
75.2314519651662
20
2.04877261567563
30
0
41
1
10
75.2096016362587
20
2.06375969193789
30
0
41
1
10
75.1752763294655
20
2.08773533392201
30
0
41
1
10
75.1635709423524
20
2.09598218894038
30
0
41
1
10
75.140044460412
20
2.11271509493025
30
0
41
1
10
75.1281739815342
20
2.12123540590946
30
0
41
1
10
75.0922517674121
20
2.1472867355744
30
0
41
1
10
75.0678941034093
20
2.16529685473074
30
0
41
1
10
75.0307115081559
20
2.19355279898275
30
0
41
1
10
75.0182038798753
20
2.20318666004411
30
0
41
1
10
74.9935557223569
20
2.22247901766912
30
0
41
1
10
74.9813442570659
20
2.23219060887246
30
0
41
1
10
74.9571859271572
20
2.25177635814572
30
0
41
1
10
74.9452046023549
20
2.26167909104794
30
0
41
1
10
74.9217124529629
20
2.28157005987984
30
0
41
1
10
74.9103941651836
20
2.2913944986521
30
0
41
1
10
74.8941412420491
20
2.30593427081425
30
0
41
1
10
74.8888448560436
20
2.31074786070459
30
0
41
1
10
74.878516596443
20
2.32030353882627
30
0
41
1
10
74.8734674405232
20
2.32506229372555
30
0
41
1
10
74.8588852396416
20
2.33909950958233
30
0
41
1
10
74.8500002737632
20
2.34805442448186
30
0
41
1
10
74.8420602980726
20
2.35654673361435
30
0
0
SPLINE
5
18A
100
AcDbEntity
8
1
62
256
6
ByLayer
370
18
48
1
60
0
100
AcDbSpline
70
4
71
3
72
12
73
8
40
0
40
0
40
0
40
0
40
0.499999999999993
40
0.499999999999993
40
0.749999999999996
40
0.749999999999996
40
1
40
1
40
1
40
1
41
1
10
74.8420602980726
20
2.35654673361435
30
0
41
1
10
74.7326577064239
20
2.47355976543986
30
0
41
1
10
74.623791992674
20
2.59837615329977
30
0
41
1
10
74.4615069853231
20
2.79608794035252
30
0
41
1
10
74.4075707214045
20
2.86375277574143
30
0
41
1
10
74.3001411998229
20
3.00228113787779
30
0
41
1
10
74.2466245767353
20
3.0731728358673
30
0
41
1
10
74.1932754313385
20
3.14565574004399
30
0
0
SPLINE
5
18B
100
AcDbEntity
8
1
62
256
6
ByLayer
370
18
48
1
60
0
100
AcDbSpline
70
4
71
3
72
8
73
4
40
0
40
0
40
0
40
0
40
1
40
1
40
1
40
1
41
1
10
73.9840916974956
20
3.32572350895631
30
0
41
1
10
74.0538409730784
20
3.26625532848897
30
0
41
1
10
74.1235626440389
20
3.20622702434898
30
0
41
1
10
74.1932754313385
20
3.14565574004399
30
0
0
SPLINE
5
18C
100
AcDbEntity
8
1
62
256
6
ByLayer
370
18
48
1
60
0
100
AcDbSpline
70
4
71
3
72
10
73
6
40
0
40
0
40
0
40
0
40
0.5
40
0.5
40
1
40
1
40
1
40
1
41
1
10
73.9840916974956
20
3.32572350895637
30
0
41
1
10
73.8725415135435
20
3.36242192948953
30
0
41
1
10
73.7603431936432
20
3.38868307704763
30
0
41
1
10
73.5339973057629
20
3.41958876343966
30
0
41
1
10
73.4202239490485
20
3.42423246222788
30
0
41
1
10
73.3055179283707
20
3.41797091941788
30
0
0
SPLINE
5
18D
100
AcDbEntity
8
1
62
256
6
ByLayer
370
18
48
1
60
0
100
AcDbSpline
70
4
71
3
72
34
73
30
40
0
40
0
40
0
40
0
40
0.124999999999976
40
0.124999999999976
40
0.187499999999964
40
0.187499999999964
40
0.249999999999952
40
0.249999999999952
40
0.374999999999925
40
0.374999999999925
40
0.437499999999912
40
0.437499999999912
40
0.499999999999899
40
0.499999999999899
40
0.624999999999916
40
0.624999999999916
40
0.687499999999925
40
0.687499999999925
40
0.749999999999934
40
0.749999999999934
40
0.812499999999943
40
0.812499999999943
40
0.874999999999952
40
0.874999999999952
40
0.906249999999956
40
0.906249999999956
40
0.93749999999996
40
0.93749999999996
40
1
40
1
40
1
40
1
41
1
10
73.3055179283687
20
3.41797091942129
30
0
41
1
10
73.2916482154588
20
3.41721380309349
30
0
41
1
10
73.2755443299808
20
3.41901706382231
30
0
41
1
10
73.2487725685422
20
3.42465439192526
30
0
41
1
10
73.2394033573893
20
3.42703420817261
30
0
41
1
10
73.2198151469909
20
3.43274969205731
30
0
41
1
10
73.2096886529716
20
3.43605954525856
30
0
41
1
10
73.1785402510008
20
3.4472061787146
30
0
41
1
10
73.1566916994229
20
3.4562622993559
30
0
41
1
10
73.1223674129354
20
3.472279456742
30
0
41
1
10
73.1106617874216
20
3.47803344396007
30
0
41
1
10
73.0871346639128
20
3.49018497833762
30
0
41
1
10
73.0752637189958
20
3.4966047440077
30
0
41
1
10
73.0393396105551
20
3.51693249515091
30
0
41
1
10
73.0149799976359
20
3.53188639400827
30
0
41
1
10
72.9777934735855
20
3.55689425669055
30
0
41
1
10
72.9652849139211
20
3.56567396397227
30
0
41
1
10
72.9406352588208
20
3.58379849426308
30
0
41
1
10
72.9284231684893
20
3.59318899624048
30
0
41
1
10
72.9042637408862
20
3.6127180161597
30
0
41
1
10
72.892281707285
20
3.62288614783802
30
0
41
1
10
72.868789216589
20
3.6439944040429
30
0
41
1
10
72.8574708527549
20
3.65475962220631
30
0
41
1
10
72.8412178417319
20
3.67126821041973
30
0
41
1
10
72.8359214308921
20
3.6768314305744
30
0
41
1
10
72.825593111745
20
3.68808972908775
30
0
41
1
10
72.8205439472835
20
3.69380524324276
30
0
41
1
10
72.8059614464363
20
3.71102525790539
30
0
41
1
10
72.7970760710172
20
3.72249261990788
30
0
41
1
10
72.7891354854656
20
3.73394110106798
30
0
0
SPLINE
5
18E
100
AcDbEntity
8
1
62
256
6
ByLayer
370
18
48
1
60
0
100
AcDbSpline
70
4
71
3
72
12
73
8
40
0
40
0
40
0
40
0
40
0.499999999999992
40
0.499999999999992
40
0.749999999999996
40
0.749999999999996
40
1
40
1
40
1
40
1
41
1
10
72.7891354854632
20
3.73394110107191
30
0
41
1
10
72.6795934762432
20
3.89187525097284
30
0
41
1
10
72.5705966093156
20
4.05538641774396
30
0
41
1
10
72.4081333814777
20
4.30773747834599
30
0
41
1
10
72.3541410772535
20
4.39305037649936
30
0
41
1
10
72.2466057599648
20
4.5657006588614
30
0
41
1
10
72.1930393027392
20
4.65307401237868
30
0
41
1
10
72.1396432418382
20
4.74146379751346
30
0
0
SPLINE
5
18F
100
AcDbEntity
8
1
62
256
6
ByLayer
370
18
48
1
60
0
100
AcDbSpline
70
4
71
3
72
8
73
4
40
0
40
0
40
0
40
0
40
1
40
1
40
1
40
1
41
1
10
71.9318147508364
20
4.87870937522894
30
0
41
1
10
72.0011112765147
20
4.83378383224715
30
0
41
1
10
72.0703811612793
20
4.78803066372018
30
0
41
1
10
72.1396432418383
20
4.74146379751343
30
0
0
SPLINE
5
190
100
AcDbEntity
8
1
62
256
6
ByLayer
370
18
48
1
60
0
100
AcDbSpline
70
4
71
3
72
10
73
6
40
0
40
0
40
0
40
0
40
0.5
40
0.5
40
1
40
1
40
1
40
1
41
1
10
71.9318147508371
20
4.87870937522396
30
0
41
1
10
71.8202238654077
20
4.84050510928108
30
0
41
1
10
71.7079595097281
20
4.79217621312904
30
0
41
1
10
71.4814143397633
20
4.67466201190825
30
0
41
1
10
71.3675068176755
20
4.60568357181725
30
0
41
1
10
71.2526675610825
20
4.52638035916331
30
0
0
SPLINE
5
191
100
AcDbEntity
8
1
62
256
6
ByLayer
370
18
48
1
60
0
100
AcDbSpline
70
4
71
3
72
34
73
30
40
0
40
0
40
0
40
0
40
0.125000000000017
40
0.125000000000017
40
0.187500000000042
40
0.187500000000042
40
0.250000000000068
40
0.250000000000068
40
0.375000000000119
40
0.375000000000119
40
0.437500000000124
40
0.437500000000124
40
0.500000000000129
40
0.500000000000129
40
0.62500000000014
40
0.62500000000014
40
0.687500000000122
40
0.687500000000122
40
0.750000000000104
40
0.750000000000104
40
0.812500000000087
40
0.812500000000087
40
0.875000000000069
40
0.875000000000069
40
0.90625000000006
40
0.90625000000006
40
0.937500000000052
40
0.937500000000052
40
1
40
1
40
1
40
1
41
1
10
71.2526675610825
20
4.52638035916326
30
0
41
1
10
71.238786856973
20
4.51679492241934
30
0
41
1
10
71.2226687850631
20
4.51019022890222
30
0
41
1
10
71.1958742140988
20
4.50370625253808
30
0
41
1
10
71.1864971117741
20
4.50212916836455
30
0
41
1
10
71.1668928513099
20
4.50008995818916
30
0
41
1
10
71.1567577863048
20
4.49963941778239
30
0
41
1
10
71.1255862549904
20
4.4998875299853
30
0
41
1
10
71.1037241105765
20
4.50215686902683
30
0
41
1
10
71.0693838501623
20
4.50868588773483
30
0
41
1
10
71.0576757876466
20
4.51139457076809
30
0
41
1
10
71.0341451119087
20
4.51779358329924
30
0
41
1
10
71.0222730843791
20
4.52149197782816
30
0
41
1
10
70.986347879318
20
4.53412389410641
30
0
41
1
10
70.9619903408772
20
4.54456269228561
30
0
41
1
10
70.9248123098097
20
4.56386837593485
30
0
41
1
10
70.912313054831
20
4.57092750043171
30
0
41
1
10
70.8876820209254
20
4.58609116372563
30
0
41
1
10
70.8754795473752
20
4.59422940965868
30
0
41
1
10
70.8513399311565
20
4.61176062229228
30
0
41
1
10
70.8393664437109
20
4.62118262077479
30
0
41
1
10
70.8158992768647
20
4.64139729147266
30
0
41
1
10
70.8045930121158
20
4.65202464709131
30
0
41
1
10
70.7883572313474
20
4.66884447131926
30
0
41
1
10
70.7830664095171
20
4.67459816579387
30
0
41
1
10
70.7727489233685
20
4.68642627665497
30
0
41
1
10
70.7677050524384
20
4.69252282296202
30
0
41
1
10
70.7531375237854
20
4.71118898661837
30
0
41
1
10
70.7442603104359
20
4.72401044000273
30
0
41
1
10
70.7363260053941
20
4.73725659951714
30
0
0
SPLINE
5
192
100
AcDbEntity
8
1
62
256
6
ByLayer
370
18
48
1
60
0
100
AcDbSpline
70
4
71
3
72
12
73
8
40
0
40
0
40
0
40
0
40
0.500000000000008
40
0.500000000000008
40
0.750000000000004
40
0.750000000000004
40
1
40
1
40
1
40
1
41
1
10
70.7363260053941
20
4.73725659951714
30
0
41
1
10
70.626929989785
20
4.91989100358384
30
0
41
1
10
70.5180779392603
20
5.10529031489301
30
0
41
1
10
70.3558199049633
20
5.38631392143375
30
0
41
1
10
70.3018937572459
20
5.48049263194306
30
0
41
1
10
70.1944860834347
20
5.66948481321612
30
0
41
1
10
70.1409811236969
20
5.76433872709185
30
0
41
1
10
70.0876437957751
20
5.8595289258285
30
0
0
SPLINE
5
193
100
AcDbEntity
8
1
62
256
6
ByLayer
370
18
48
1
60
0
100
AcDbSpline
70
4
71
3
72
8
73
4
40
0
40
0
40
0
40
0
40
1
40
1
40
1
40
1
41
1
10
69.8789706410839
20
5.94165298612
30
0
41
1
10
69.9485492203243
20
5.91530312869654
30
0
41
1
10
70.0181003926824
20
5.88792526986609
30
0
41
1
10
70.087643795775
20
5.85952892582841
30
0
0
SPLINE
5
194
100
AcDbEntity
8
1
62
256
6
ByLayer
370
18
48
1
60
0
100
AcDbSpline
70
4
71
3
72
10
73
6
40
0
40
0
40
0
40
0
40
0.5
40
0.5
40
1
40
1
40
1
40
1
41
1
10
69.8789706410854
20
5.94165298610568
30
0
41
1
10
69.767391525653
20
5.8322963754251
30
0
41
1
10
69.655137422154
20
5.71409502775759
30
0
41
1
10
69.4285764491275
20
5.45956472943382
30
0
41
1
10
69.3146462925853
20
5.32367260722216
30
0
41
1
10
69.1997683683583
20
5.17914785585123
30
0
0
SPLINE
5
195
100
AcDbEntity
8
1
62
256
6
ByLayer
370
18
48
1
60
0
100
AcDbSpline
70
4
71
3
72
8
73
4
40
0
40
0
40
0
40
0
40
1
40
1
40
1
40
1
41
1
10
67.8248261992557
20
6.40722021102039
30
0
41
1
10
67.894723580578
20
6.40226891120452
30
0
41
1
10
67.9645937234618
20
6.39618942286631
30
0
41
1
10
68.0344555682829
20
6.38898532714211
30
0
0
SPLINE
5
196
100
AcDbEntity
8
1
62
256
6
ByLayer
370
18
48
1
60
0
100
AcDbSpline
70
4
71
3
72
35
73
31
40
0
40
0
40
0
40
0
40
0.0802718138643902
40
0.0802718138643902
40
0.131367824205262
40
0.131367824205262
40
0.156915829375698
40
0.156915829375698
40
0.182463834546133
40
0.182463834546133
40
0.284655855227868
40
0.284655855227868
40
0.386847875909602
40
0.386847875909602
40
0.489039896591336
40
0.489039896591336
40
0.540135906932204
40
0.540135906932204
40
0.591231917273071
40
0.591231917273071
40
0.69342393795481
40
0.69342393795481
40
0.744519948295682
40
0.770067953466115
40
0.770067953466115
40
0.795615958636549
40
0.795615958636549
40
0.897807979318275
40
0.897807979318275
40
1
40
1
40
1
40
1
41
1
10
47.6382603299226
20
-4.51099950921306
30
0
41
1
10
47.4718112340098
20
-4.51100166270965
30
0
41
1
10
47.3051259253633
20
-4.50647011170406
30
0
41
1
10
47.0315514236972
20
-4.49155169581809
30
0
41
1
10
46.9249563301777
20
-4.48389084391582
30
0
41
1
10
46.7646289024163
20
-4.46961524756554
30
0
41
1
10
46.7111092592495
20
-4.46439395656441
30
0
41
1
10
46.6039126886943
20
-4.45302449256178
30
0
41
1
10
46.5502167790382
20
-4.44687116574326
30
0
41
1
10
46.282267072248
20
-4.41385789379112
30
0
41
1
10
46.0690067162537
20
-4.38020067895172
30
0
41
1
10
45.6439817683661
20
-4.29883904721268
30
0
41
1
10
45.432186377276
20
-4.25114138227971
30
0
41
1
10
45.009084066369
20
-4.14230913589319
30
0
41
1
10
44.7978102197653
20
-4.08115217916529
30
0
41
1
10
44.4804458960448
20
-3.97993428533326
30
0
41
1
10
44.3745611342765
20
-3.94463450156081
30
0
41
1
10
44.1628624588661
20
-3.87072399579785
30
0
41
1
10
44.0570086815725
20
-3.83213805903563
30
0
41
1
10
43.7392469765495
20
-3.71158643658703
30
0
41
1
10
43.5271327481333
20
-3.62483047365893
30
0
41
1
10
43.2078864846295
20
-3.48549018307051
30
0
41
1
10
43.0480000636566
20
-3.41351349527585
30
0
41
1
10
42.8875530267362
20
-3.33819471477159
30
0
41
1
10
42.7804446550119
20
-3.28725483254979
30
0
41
1
10
42.726802687538
20
-3.261412733968
30
0
41
1
10
42.4590383130015
20
-3.13084267668262
30
0
41
1
10
42.2455662898134
20
-3.02176679261487
30
0
41
1
10
41.8202324008406
20
-2.79441311062632
30
0
41
1
10
41.6082927596857
20
-2.67621225903753
30
0
41
1
10
41.3967372984886
20
-2.5539109628298
30
0
0
SPLINE
5
197
100
AcDbEntity
8
1
62
256
6
ByLayer
370
18
48
1
60
0
100
AcDbSpline
70
4
71
3
72
34
73
30
40
0
40
0
40
0
40
0
40
0.0730620257966324
40
0.0730620257966324
40
0.146124051593265
40
0.146124051593265
40
0.219186077389897
40
0.219186077389897
40
0.255717090288213
40
0.255717090288213
40
0.29224810318653
40
0.29224810318653
40
0.365310128983162
40
0.365310128983162
40
0.438372154779794
40
0.438372154779794
40
0.511434180576427
40
0.511434180576427
40
0.584496206373059
40
0.584496206373059
40
0.73062025796633
40
0.73062025796633
40
0.803682283762965
40
0.803682283762965
40
0.8767443095596
40
0.8767443095596
40
0.949806335356235
40
0.949806335356235
40
1
40
1
40
1
40
1
41
1
10
38.0473896699276
20
-4.49555715676002
30
0
41
1
10
38.1715651505426
20
-4.50274037163837
30
0
41
1
10
38.2954059304097
20
-4.50743581637911
30
0
41
1
10
38.5434651378847
20
-4.51176530320615
30
0
41
1
10
38.6676614554275
20
-4.51141485676308
30
0
41
1
10
38.9163730715121
20
-4.50574625687014
30
0
41
1
10
39.040892647402
20
-4.50042867971337
30
0
41
1
10
39.2278858137181
20
-4.48873084960096
30
0
41
1
10
39.2902513468521
20
-4.48421069216366
30
0
41
1
10
39.4150449309584
20
-4.47392263377091
30
0
41
1
10
39.4774721302627
20
-4.46815394187851
30
0
41
1
10
39.6643465523707
20
-4.44902571791488
30
0
41
1
10
39.788559104816
20
-4.43383277249941
30
0
41
1
10
40.0362574476738
20
-4.39859428682774
30
0
41
1
10
40.15970541542
20
-4.37853278158889
30
0
41
1
10
40.4061461850413
20
-4.33364842279408
30
0
41
1
10
40.5291681184621
20
-4.30883486655401
30
0
41
1
10
40.7753163485395
20
-4.25474680997692
30
0
41
1
10
40.8984036533612
20
-4.22546112754142
30
0
41
1
10
41.267657016939
20
-4.13094550303822
30
0
41
1
10
41.5137984785341
20
-4.05906756350245
30
0
41
1
10
41.8829837747169
20
-3.93789836982586
30
0
41
1
10
42.0060506669631
20
-3.89528345567146
30
0
41
1
10
42.2522893864128
20
-3.80561175182808
30
0
41
1
10
42.3754280399835
20
-3.75852637992421
30
0
41
1
10
42.6220944448812
20
-3.6600671231252
30
0
41
1
10
42.7456938031046
20
-3.60875323508529
30
0
41
1
10
42.9549579418872
20
-3.51893733904131
30
0
41
1
10
43.040371356473
20
-3.48143437886296
30
0
41
1
10
43.1259622659697
20
-3.44299563704362
30
0
0
SPLINE
5
198
100
AcDbEntity
8
1
62
256
6
ByLayer
370
18
48
1
60
0
100
AcDbSpline
70
4
71
3
72
22
73
18
40
0
40
0
40
0
40
0
40
0.095957724133518
40
0.095957724133518
40
0.160532172409694
40
0.160532172409694
40
0.225106620685869
40
0.225106620685869
40
0.48340441379058
40
0.48340441379058
40
0.612553310342935
40
0.612553310342935
40
0.741702206895289
40
0.741702206895289
40
0.870851103447644
40
0.870851103447644
40
1
40
1
40
1
40
1
41
1
10
58.9117099368414
20
4.51099965289586
30
0
41
1
10
59.0029314447186
20
4.51100904292792
30
0
41
1
10
59.0941277739017
20
4.50966071098838
30
0
41
1
10
59.2467695460327
20
4.50511529859901
30
0
41
1
10
59.3082179299935
20
4.5026688757759
30
0
41
1
10
59.4313113901185
20
4.49655492422406
30
0
41
1
10
59.492941539516
20
4.49288677130352
30
0
41
1
10
59.8014312410785
20
4.47149083055379
30
0
41
1
10
60.0492809105731
20
4.44461634910786
30
0
41
1
10
60.4227923327612
20
4.3894528209243
30
0
41
1
10
60.5476918303894
20
4.36856014372975
30
0
41
1
10
60.796902303328
20
4.32195153989215
30
0
41
1
10
60.9213375384501
20
4.29622029632483
30
0
41
1
10
61.1698620560451
20
4.23985596066731
30
0
41
1
10
61.2940066035914
20
4.20923937824904
30
0
41
1
10
61.5427585993182
20
4.14350329230757
30
0
41
1
10
61.6673133073617
20
4.10836346027918
30
0
41
1
10
61.7920766931519
20
4.07098486268578
30
0
0
SPLINE
5
199
100
AcDbEntity
8
1
62
256
6
ByLayer
370
18
48
1
60
0
100
AcDbSpline
70
4
71
3
72
30
73
26
40
0
40
0
40
0
40
0
40
0.12499999999998
40
0.12499999999998
40
0.24999999999996
40
0.24999999999996
40
0.37499999999994
40
0.37499999999994
40
0.437499999999939
40
0.437499999999939
40
0.499999999999938
40
0.499999999999938
40
0.624999999999954
40
0.624999999999954
40
0.749999999999969
40
0.749999999999969
40
0.781249999999973
40
0.781249999999973
40
0.812499999999976
40
0.812499999999976
40
0.874999999999984
40
0.874999999999984
40
0.937499999999992
40
0.937499999999992
40
1
40
1
40
1
40
1
41
1
10
61.7920766931519
20
4.07098486268569
30
0
41
1
10
61.8517214446476
20
4.05311554028316
30
0
41
1
10
61.9107352192107
20
4.03812499256395
30
0
41
1
10
62.0273037735627
20
4.01341606471968
30
0
41
1
10
62.0848592756997
20
4.00369724899451
30
0
41
1
10
62.1983519003667
20
3.9893298423803
30
0
41
1
10
62.2542897905599
20
3.98467901745107
30
0
41
1
10
62.3368739411085
20
3.98159360555164
30
0
41
1
10
62.3642355452337
20
3.98121867499427
30
0
41
1
10
62.4180700938531
20
3.98181343285802
30
0
41
1
10
62.4445777021041
20
3.98277905099172
30
0
41
1
10
62.5228624488454
20
3.98772103503148
30
0
41
1
10
62.5734057858583
20
3.99372597828159
30
0
41
1
10
62.6710624166752
20
4.01172859618606
30
0
41
1
10
62.7181782903097
20
4.02371697741432
30
0
41
1
10
62.7747426872142
20
4.04319747949253
30
0
41
1
10
62.7859385325759
20
4.04732039890993
30
0
41
1
10
62.8080892141322
20
4.0560486549154
30
0
41
1
10
62.8190580763215
20
4.06066080617629
30
0
41
1
10
62.8514214667529
20
4.07519223786872
30
0
41
1
10
62.8723101336755
20
4.08581541991597
30
0
41
1
10
62.9126608159414
20
4.10913661281967
30
0
41
1
10
62.9321270115732
20
4.12184796007676
30
0
41
1
10
62.96953487566
20
4.14955457807054
30
0
41
1
10
62.9874672153895
20
4.16452560921877
30
0
41
1
10
63.0045122584501
20
4.18049825650763
30
0
0
SPLINE
5
19A
100
AcDbEntity
8
1
62
256
6
ByLayer
370
18
48
1
60
0
100
AcDbSpline
70
4
71
3
72
8
73
4
40
0
40
0
40
0
40
0
40
1
40
1
40
1
40
1
41
1
10
63.0045122584501
20
4.18049825650761
30
0
41
1
10
63.0136398786631
20
4.18905160880658
30
0
41
1
10
63.0227597405485
20
4.19754102681159
30
0
41
1
10
63.0318729365444
20
4.20597046353887
30
0
0
SPLINE
5
19B
100
AcDbEntity
8
1
62
256
6
ByLayer
370
18
48
1
60
0
100
AcDbSpline
70
4
71
3
72
30
73
26
40
0
40
0
40
0
40
0
40
0.125000000000019
40
0.125000000000019
40
0.187500000000004
40
0.187500000000004
40
0.24999999999999
40
0.24999999999999
40
0.374999999999958
40
0.374999999999958
40
0.437499999999942
40
0.437499999999942
40
0.499999999999926
40
0.499999999999926
40
0.624999999999944
40
0.624999999999944
40
0.749999999999963
40
0.749999999999963
40
0.812499999999972
40
0.812499999999972
40
0.874999999999981
40
0.874999999999981
40
0.937499999999991
40
0.937499999999991
40
1
40
1
40
1
40
1
41
1
10
63.0318729365444
20
4.20597046353885
30
0
41
1
10
63.0492085410343
20
4.18572883198294
30
0
41
1
10
63.0675013707205
20
4.16708630858184
30
0
41
1
10
63.095950473242
20
4.1412163381153
30
0
41
1
10
63.1056130822308
20
4.13293708449967
30
0
41
1
10
63.1252766631895
20
4.11703246363294
30
0
41
1
10
63.1353038702321
20
4.10938858679569
30
0
41
1
10
63.1657012860381
20
4.08754629170971
30
0
41
1
10
63.186140320661
20
4.07459078349271
30
0
41
1
10
63.2170039313146
20
4.05738128875271
30
0
41
1
10
63.2273262698898
20
4.05201858171074
30
0
41
1
10
63.248033659218
20
4.04204557758305
30
0
41
1
10
63.2584591168641
20
4.03741944748867
30
0
41
1
10
63.2895053292875
20
4.02483825838928
30
0
41
1
10
63.3098106978293
20
4.01818708194682
30
0
41
1
10
63.3495521775582
20
4.00845286103612
30
0
41
1
10
63.3689911679593
20
4.00536072276742
30
0
41
1
10
63.3973433700509
20
4.00388870824844
30
0
41
1
10
63.4066415765451
20
4.0039403178709
30
0
41
1
10
63.424504216494
20
4.00521639764821
30
0
41
1
10
63.4331214028573
20
4.00643600404001
30
0
41
1
10
63.4496629515895
20
4.0101564484921
30
0
41
1
10
63.4575880509071
20
4.01265583106343
30
0
41
1
10
63.4726379542781
20
4.01914083102585
30
0
41
1
10
63.4797087872618
20
4.02311075640947
30
0
41
1
10
63.486175074753
20
4.02786306495076
30
0
0
SPLINE
5
19C
100
AcDbEntity
8
1
62
256
6
ByLayer
370
18
48
1
60
0
100
AcDbSpline
70
4
71
3
72
12
73
8
40
0
40
0
40
0
40
0
40
0.25
40
0.25
40
0.500000000000001
40
0.500000000000001
40
1
40
1
40
1
40
1
41
1
10
63.486175074753
20
4.02786306495079
30
0
41
1
10
63.5422978631033
20
4.06910973188337
30
0
41
1
10
63.5982079600482
20
4.1083109655878
30
0
41
1
10
63.7095340149539
20
4.18244775824002
30
0
41
1
10
63.7649626933403
20
4.21738433953391
30
0
41
1
10
63.9306594805718
20
4.31583384199689
30
0
41
1
10
64.0400343592538
20
4.37283097447227
30
0
41
1
10
64.1486252041417
20
4.42135061909028
30
0
0
SPLINE
5
19D
100
AcDbEntity
8
1
62
256
6
ByLayer
370
18
48
1
60
0
100
AcDbSpline
70
4
71
3
72
8
73
4
40
0
40
0
40
0
40
0
40
1
40
1
40
1
40
1
41
1
10
64.3564214743073
20
4.26956149865339
30
0
41
1
10
64.2871368844574
20
4.32090113906068
30
0
41
1
10
64.2178730322789
20
4.37149874269858
30
0
41
1
10
64.1486252041418
20
4.42135061909028
30
0
0
SPLINE
5
19E
100
AcDbEntity
8
1
62
256
6
ByLayer
370
18
48
1
60
0
100
AcDbSpline
70
4
71
3
72
10
73
6
40
0
40
0
40
0
40
0
40
0.5
40
0.5
40
1
40
1
40
1
40
1
41
1
10
64.3564214743073
20
4.2695614986535
30
0
41
1
10
64.4655011528572
20
4.06625447020281
30
0
41
1
10
64.5754261423971
20
3.86636337864556
30
0
41
1
10
64.7975436302128
20
3.47387667835781
30
0
41
1
10
64.9093730266102
20
3.28186363837426
30
0
41
1
10
65.0223378632204
20
3.09439581006302
30
0
0
SPLINE
5
19F
100
AcDbEntity
8
1
62
256
6
ByLayer
370
18
48
1
60
0
100
AcDbSpline
70
4
71
3
72
36
73
32
40
0
40
0
40
0
40
0
40
0.0624999999999946
40
0.0624999999999946
40
0.124999999999989
40
0.124999999999989
40
0.187499999999984
40
0.187499999999984
40
0.249999999999978
40
0.249999999999978
40
0.312499999999973
40
0.312499999999973
40
0.374999999999967
40
0.374999999999967
40
0.5
40
0.5
40
0.562500000000017
40
0.562500000000017
40
0.625000000000033
40
0.625000000000033
40
0.750000000000025
40
0.750000000000025
40
0.781250000000022
40
0.781250000000022
40
0.81250000000002
40
0.81250000000002
40
0.875000000000014
40
0.875000000000014
40
0.937500000000007
40
0.937500000000007
40
1
40
1
40
1
40
1
41
1
10
65.0223378632206
20
3.09439581006259
30
0
41
1
10
65.0298100226177
20
3.08199558414287
30
0
41
1
10
65.0379678409013
20
3.06974808207099
30
0
41
1
10
65.0554299586255
20
3.04551285134127
30
0
41
1
10
65.0647362525092
20
3.03352538286222
30
0
41
1
10
65.0843796329775
20
3.00978397611863
30
0
41
1
10
65.094735723169
20
2.99801993220135
30
0
41
1
10
65.1158740714633
20
2.97526712413452
30
0
41
1
10
65.1267199588981
20
2.96419915862151
30
0
41
1
10
65.1489052467957
20
2.94261395455095
30
0
41
1
10
65.1602449911578
20
2.93209709883587
30
0
41
1
10
65.1833858919339
20
2.91157918516061
30
0
41
1
10
65.1952408524845
20
2.90153658951166
30
0
41
1
10
65.2309244543471
20
2.87260323730089
30
0
41
1
10
65.2549424071713
20
2.85480931723194
30
0
41
1
10
65.2912318437038
20
2.83019774429172
30
0
41
1
10
65.3034008017104
20
2.82232694391206
30
0
41
1
10
65.3276972790213
20
2.80737922600784
30
0
41
1
10
65.3397117970261
20
2.80036989656503
30
0
41
1
10
65.3753379166564
20
2.78071972751675
30
0
41
1
10
65.3985401405187
20
2.76943107432552
30
0
41
1
10
65.4267087631691
20
2.7578715963746
30
0
41
1
10
65.4323001601246
20
2.75568937686432
30
0
41
1
10
65.4433915467902
20
2.75160154162543
30
0
41
1
10
65.4489076940406
20
2.74969116580283
30
0
41
1
10
65.4651174014551
20
2.74446778523972
30
0
41
1
10
65.4755121993823
20
2.74164228262282
30
0
41
1
10
65.4953958839675
20
2.73742963137994
30
0
41
1
10
65.504886018211
20
2.73604033065459
30
0
41
1
10
65.5228086727102
20
2.73494536183938
30
0
41
1
10
65.5312060727903
20
2.73525240724979
30
0
41
1
10
65.5387675648216
20
2.73655963429425
30
0
0
SPLINE
5
1A0
100
AcDbEntity
8
1
62
256
6
ByLayer
370
18
48
1
60
0
100
AcDbSpline
70
4
71
3
72
12
73
8
40
0
40
0
40
0
40
0
40
0.25
40
0.25
40
0.500000000000001
40
0.500000000000001
40
1
40
1
40
1
40
1
41
1
10
65.5387675648216
20
2.73655963429425
30
0
41
1
10
65.5948697988981
20
2.74625856108497
30
0
41
1
10
65.6507565754724
20
2.75367443475108
30
0
41
1
10
65.7620349195986
20
2.76387499879297
30
0
41
1
10
65.8174401247469
20
2.76665709309634
30
0
41
1
10
65.9830664718815
20
2.76810129175934
30
0
41
1
10
66.0923876335498
20
2.75985981163618
30
0
41
1
10
66.2009244144432
20
2.74265908607578
30
0
0
SPLINE
5
1A1
100
AcDbEntity
8
1
62
256
6
ByLayer
370
18
48
1
60
0
100
AcDbSpline
70
4
71
3
72
8
73
4
40
0
40
0
40
0
40
0
40
1
40
1
40
1
40
1
41
1
10
66.4092544041529
20
2.55428570866192
30
0
41
1
10
66.3397820570826
20
2.61754134462987
30
0
41
1
10
66.2703411097276
20
2.68033453174411
30
0
41
1
10
66.2009244144431
20
2.74265908607598
30
0
0
SPLINE
5
1A2
100
AcDbEntity
8
1
62
256
6
ByLayer
370
18
48
1
60
0
100
AcDbSpline
70
4
71
3
72
10
73
6
40
0
40
0
40
0
40
0
40
0.5
40
0.5
40
1
40
1
40
1
40
1
41
1
10
66.4092544041529
20
2.55428570866189
30
0
41
1
10
66.5183055420316
20
2.3800230934564
30
0
41
1
10
66.6281964424427
20
2.21173301839417
30
0
41
1
10
66.8502463877195
20
1.88762388160751
30
0
41
1
10
66.9620438960168
20
1.73226851247816
30
0
41
1
10
67.0749840607202
20
1.58399594178027
30
0
0
SPLINE
5
1A3
100
AcDbEntity
8
1
62
256
6
ByLayer
370
18
48
1
60
0
100
AcDbSpline
70
4
71
3
72
36
73
32
40
0
40
0
40
0
40
0
40
0.0624999999999899
40
0.0624999999999899
40
0.12499999999998
40
0.12499999999998
40
0.18749999999997
40
0.18749999999997
40
0.24999999999996
40
0.24999999999996
40
0.312499999999949
40
0.312499999999949
40
0.374999999999939
40
0.374999999999939
40
0.499999999999919
40
0.499999999999919
40
0.562499999999909
40
0.562499999999909
40
0.624999999999899
40
0.624999999999899
40
0.74999999999988
40
0.74999999999988
40
0.781249999999896
40
0.781249999999896
40
0.812499999999912
40
0.812499999999912
40
0.874999999999941
40
0.874999999999941
40
0.937499999999971
40
0.937499999999971
40
1
40
1
40
1
40
1
41
1
10
67.0749840607205
20
1.58399594177962
30
0
41
1
10
67.0824604270134
20
1.57418065549385
30
0
41
1
10
67.0906241247237
20
1.56417318980698
30
0
41
1
10
67.1081010285922
20
1.54384514761642
30
0
41
1
10
67.117416235807
20
1.53352367980472
30
0
41
1
10
67.1370805841322
20
1.51259934430311
30
0
41
1
10
67.1474442786791
20
1.50198795837852
30
0
41
1
10
67.168597682933
20
1.48102268356692
30
0
41
1
10
67.179451825379
20
1.47059908903179
30
0
41
1
10
67.2016553196251
20
1.44985232005814
30
0
41
1
10
67.2130050138868
20
1.43952922229005
30
0
41
1
10
67.2361678370416
20
1.41896991556879
30
0
41
1
10
67.248033111322
20
1.40869082739996
30
0
41
1
10
67.2837308118044
20
1.37844881331671
30
0
41
1
10
67.3077622551896
20
1.35897939822783
30
0
41
1
10
67.3440733891036
20
1.33068542978668
30
0
41
1
10
67.3562579620117
20
1.32137991356828
30
0
41
1
10
67.3805418981157
20
1.30319488194584
30
0
41
1
10
67.3925501908
20
1.29438233403715
30
0
41
1
10
67.4281553866082
20
1.26876236427961
30
0
41
1
10
67.4513387034519
20
1.25275396942169
30
0
41
1
10
67.4794895895034
20
1.2342444611721
30
0
41
1
10
67.4850777365371
20
1.23061892212266
30
0
41
1
10
67.4961634755098
20
1.22353074282211
30
0
41
1
10
67.5016729546363
20
1.22006108318934
30
0
41
1
10
67.5178507042478
20
1.21003997958013
30
0
41
1
10
67.5282285912647
20
1.2038355259597
30
0
41
1
10
67.5480857455865
20
1.1924684309717
30
0
41
1
10
67.5575662751147
20
1.18730414525351
30
0
41
1
10
67.5754765639174
20
1.17819790031197
30
0
41
1
10
67.5838592540248
20
1.17428409966456
30
0
41
1
10
67.5914130406719
20
1.17119995396521
30
0
0
SPLINE
5
1A4
100
AcDbEntity
8
1
62
256
6
ByLayer
370
18
48
1
60
0
100
AcDbSpline
70
4
71
3
72
12
73
8
40
0
40
0
40
0
40
0
40
0.25
40
0.25
40
0.499999999999999
40
0.499999999999999
40
1
40
1
40
1
40
1
41
1
10
67.5914130406719
20
1.17119995396519
30
0
41
1
10
67.6474934603618
20
1.1483028040609
30
0
41
1
10
67.7033613301273
20
1.12312485398039
30
0
41
1
10
67.8146082493114
20
1.06823445620503
30
0
41
1
10
67.8700008382368
20
1.03851118049292
30
0
41
1
10
68.0356033323306
20
0.942588078200544
30
0
41
1
10
68.1449287421425
20
0.869828061108223
30
0
41
1
10
68.2534840915094
20
0.788536975152311
30
0
0
SPLINE
5
1A5
100
AcDbEntity
8
1
62
256
6
ByLayer
370
18
48
1
60
0
100
AcDbSpline
70
4
71
3
72
8
73
4
40
0
40
0
40
0
40
0
40
1
40
1
40
1
40
1
41
1
10
68.4622550785598
20
0.582553891687354
30
0
41
1
10
68.3926313491574
20
0.651337167226785
30
0
41
1
10
68.3230429717327
20
0.720000130523317
30
0
41
1
10
68.2534840915094
20
0.788536975152397
30
0
0
SPLINE
5
1A6
100
AcDbEntity
8
1
62
256
6
ByLayer
370
18
48
1
60
0
100
AcDbSpline
70
4
71
3
72
10
73
6
40
0
40
0
40
0
40
0
40
0.5
40
0.5
40
1
40
1
40
1
40
1
41
1
10
68.46225507856
20
0.58255389168562
30
0
41
1
10
68.5712447893404
20
0.454968129974446
30
0
41
1
10
68.6810775733678
20
0.335339233845275
30
0
41
1
10
68.9030210809967
20
0.112448322750026
30
0
41
1
10
69.0147711909113
20
0.0094792828787149
30
0
41
1
10
69.1276661819684
20
-0.0846579224592858
30
0
0
SPLINE
5
1A7
100
AcDbEntity
8
1
62
256
6
ByLayer
370
18
48
1
60
0
100
AcDbSpline
70
4
71
3
72
8
73
4
40
0
40
0
40
0
40
0
40
1
40
1
40
1
40
1
41
1
10
70.5142006390133
20
-1.44672142308755
30
0
41
1
10
70.4449681652634
20
-1.37978957016216
30
0
41
1
10
70.3757713569058
20
-1.31262740878438
30
0
41
1
10
70.306603181709
20
-1.24524193589255
30
0
0
SPLINE
5
1A8
100
AcDbEntity
8
1
62
256
6
ByLayer
370
18
48
1
60
0
100
AcDbSpline
70
4
71
3
72
8
73
4
40
0
40
0
40
0
40
0
40
1
40
1
40
1
40
1
41
1
10
72.5677805967549
20
-3.33207879419234
30
0
41
1
10
72.4980313366109
20
-3.27290258703158
30
0
41
1
10
72.4283187384024
20
-3.21316183106976
30
0
41
1
10
72.3586352220482
20
-3.15286330516449
30
0
0
SPLINE
5
1A9
100
AcDbEntity
8
1
62
256
6
ByLayer
370
18
48
1
60
0
100
AcDbSpline
70
4
71
3
72
8
73
4
40
0
40
0
40
0
40
0
40
1
40
1
40
1
40
1
41
1
10
74.6205412645314
20
-4.88264857920902
30
0
41
1
10
74.5510952638227
20
-4.83787330349159
30
0
41
1
10
74.4816894140137
20
-4.79226466525694
30
0
41
1
10
74.4123207764817
20
-4.74582448014672
30
0
0
SPLINE
5
1AA
100
AcDbEntity
8
1
62
256
6
ByLayer
370
18
48
1
60
0
100
AcDbSpline
70
4
71
3
72
14
73
10
40
0
40
0
40
0
40
0
40
0.50000000000003
40
0.50000000000003
40
0.75000000000003
40
0.75000000000003
40
0.875000000000015
40
0.875000000000015
40
1
40
1
40
1
40
1
41
1
10
81.82
20
-2.57459630874456
30
0
41
1
10
81.7218186665599
20
-2.57507680704359
30
0
41
1
10
81.6227078593608
20
-2.57601289803586
30
0
41
1
10
81.4726838033717
20
-2.57896227803474
30
0
41
1
10
81.4224539935114
20
-2.58020148247175
30
0
41
1
10
81.3467878417626
20
-2.58252917291335
30
0
41
1
10
81.3215144952223
20
-2.58337751701546
30
0
41
1
10
81.2708469954018
20
-2.58531000624137
30
0
41
1
10
81.2454329223015
20
-2.58647167071606
30
0
41
1
10
81.2200000649826
20
-2.58760166141266
30
0
0
SPLINE
5
1AB
100
AcDbEntity
8
1
62
256
6
ByLayer
370
18
48
1
60
0
100
AcDbSpline
70
4
71
3
72
14
73
10
40
0
40
0
40
0
40
0
40
0.25
40
0.25
40
0.5
40
0.5
40
0.75
40
0.75
40
1
40
1
40
1
40
1
41
1
10
81.2200000649826
20
-2.58760166141227
30
0
41
1
10
81.083370889603
20
-2.5179798065472
30
0
41
1
10
80.9477167667054
20
-2.44558078995053
30
0
41
1
10
80.6782328913936
20
-2.29531441499111
30
0
41
1
10
80.5443734719573
20
-2.21748259472349
30
0
41
1
10
80.2781031799747
20
-2.05673348387961
30
0
41
1
10
80.1456937578866
20
-1.97381437157662
30
0
41
1
10
79.8820170581139
20
-1.80318632294541
30
0
41
1
10
79.750801413002
20
-1.71541088912232
30
0
41
1
10
79.6201745887508
20
-1.62514506295341
30
0
0
SPLINE
5
1AC
100
AcDbEntity
8
1
62
256
6
ByLayer
370
18
48
1
60
0
100
AcDbSpline
70
4
71
3
72
8
73
4
40
0
40
0
40
0
40
0
40
1
40
1
40
1
40
1
41
1
10
79.6201745887508
20
-1.62514506295344
30
0
41
1
10
79.568355567204
20
-1.53692578878008
30
0
41
1
10
79.5163833513016
20
-1.45002627289239
30
0
41
1
10
79.4642244021658
20
-1.36447010174592
30
0
0
SPLINE
5
1AD
100
AcDbEntity
8
1
62
256
6
ByLayer
370
18
48
1
60
0
100
AcDbSpline
70
4
71
3
72
34
73
30
40
0
40
0
40
0
40
0
40
0.125000000000049
40
0.125000000000049
40
0.187500000000057
40
0.187500000000057
40
0.250000000000066
40
0.250000000000066
40
0.375000000000082
40
0.375000000000082
40
0.437500000000091
40
0.437500000000091
40
0.500000000000099
40
0.500000000000099
40
0.625000000000116
40
0.625000000000116
40
0.687500000000103
40
0.687500000000103
40
0.75000000000009
40
0.75000000000009
40
0.812500000000077
40
0.812500000000077
40
0.875000000000064
40
0.875000000000064
40
0.906250000000056
40
0.906250000000056
40
0.937500000000049
40
0.937500000000049
40
1
40
1
40
1
40
1
41
1
10
79.4642244021657
20
-1.36447010174606
30
0
41
1
10
79.4503581978007
20
-1.34172540743251
30
0
41
1
10
79.4342595475594
20
-1.31891254983529
30
0
41
1
10
79.4074975332992
20
-1.28464561134175
30
0
41
1
10
79.3981319026969
20
-1.27321443265725
30
0
41
1
10
79.3785515205664
20
-1.25033502620124
30
0
41
1
10
79.3684294612036
20
-1.23899655531977
30
0
41
1
10
79.3372934265785
20
-1.20542997953103
30
0
41
1
10
79.3154524777414
20
-1.18356963377855
30
0
41
1
10
79.2811380430095
20
-1.1514952989946
30
0
41
1
10
79.2694343443989
20
-1.14092449740011
30
0
41
1
10
79.2459105344553
20
-1.12037997318603
30
0
41
1
10
79.2340410396437
20
-1.11035904020801
30
0
41
1
10
79.1981209650096
20
-1.08104411333972
30
0
41
1
10
79.1737638020359
20
-1.06248452082801
30
0
41
1
10
79.1365792891126
20
-1.03629926217701
30
0
41
1
10
79.1240671076195
20
-1.02785004521542
30
0
41
1
10
79.0994092870684
20
-1.01196165984524
30
0
41
1
10
79.0871926706959
20
-1.00447051961038
30
0
41
1
10
79.0630232074747
20
-0.990486280860551
30
0
41
1
10
79.0510367050812
20
-0.983975090654781
30
0
41
1
10
79.0275297598341
20
-0.972197106494036
30
0
41
1
10
79.016204382335
20
-0.967025773399911
30
0
41
1
10
78.9999413702521
20
-0.960469235180966
30
0
41
1
10
78.9946417131428
20
-0.958484725602773
30
0
41
1
10
78.9843071256117
20
-0.954953291995338
30
0
41
1
10
78.9792547889605
20
-0.953401763028182
30
0
41
1
10
78.9646645267293
20
-0.949510944273499
30
0
41
1
10
78.9557754290285
20
-0.947945688835233
30
0
41
1
10
78.9478325592947
20
-0.947551915776558
30
0
0
SPLINE
5
1AE
100
AcDbEntity
8
1
62
256
6
ByLayer
370
18
48
1
60
0
100
AcDbSpline
70
4
71
3
72
105
73
101
40
0
40
0
40
0
40
0
40
0.0625000000000095
40
0.0625000000000095
40
0.125000000000019
40
0.125000000000019
40
0.187500000000029
40
0.187500000000029
40
0.195312500000028
40
0.195312500000028
40
0.203125000000028
40
0.203125000000028
40
0.218750000000027
40
0.234375000000026
40
0.242187500000024
40
0.242187500000024
40
0.250000000000022
40
0.250000000000022
40
0.281250000000011
40
0.281250000000011
40
0.312499999999999
40
0.312499999999999
40
0.343749999999988
40
0.343749999999988
40
0.351562499999985
40
0.351562499999985
40
0.359374999999982
40
0.374999999999976
40
0.374999999999976
40
0.406249999999961
40
0.406249999999961
40
0.421874999999954
40
0.421874999999954
40
0.429687499999952
40
0.429687499999952
40
0.43749999999995
40
0.43749999999995
40
0.468749999999951
40
0.468749999999951
40
0.484374999999953
40
0.484374999999953
40
0.492187499999954
40
0.492187499999954
40
0.499999999999955
40
0.499999999999955
40
0.515624999999957
40
0.515624999999957
40
0.523437499999959
40
0.523437499999959
40
0.53124999999996
40
0.53124999999996
40
0.54687499999996
40
0.54687499999996
40
0.554687499999959
40
0.554687499999959
40
0.558593749999959
40
0.558593749999959
40
0.562499999999958
40
0.562499999999958
40
0.578124999999958
40
0.578124999999958
40
0.585937499999958
40
0.585937499999958
40
0.589843749999957
40
0.589843749999957
40
0.593749999999957
40
0.593749999999957
40
0.609374999999956
40
0.609374999999956
40
0.624999999999955
40
0.624999999999955
40
0.632812499999955
40
0.632812499999955
40
0.640624999999955
40
0.640624999999955
40
0.656249999999955
40
0.656249999999955
40
0.671874999999956
40
0.671874999999956
40
0.679687499999957
40
0.679687499999957
40
0.687499999999958
40
0.687499999999958
40
0.718749999999963
40
0.718749999999963
40
0.749999999999968
40
0.749999999999968
40
0.781249999999972
40
0.781249999999972
40
0.796874999999975
40
0.796874999999975
40
0.812499999999977
40
0.812499999999977
40
0.843749999999982
40
0.843749999999982
40
0.874999999999986
40
0.874999999999986
40
0.937499999999993
40
0.937499999999993
40
1
40
1
40
1
40
1
41
1
10
41.3968243684673
20
-2.55396205545569
30
0
41
1
10
41.1848207015148
20
-2.43183930638034
30
0
41
1
10
40.9693519560638
20
-2.31196497170484
30
0
41
1
10
40.5289735267222
20
-2.08310733099086
30
0
41
1
10
40.3040070705341
20
-1.97422277558965
30
0
41
1
10
39.8417836880282
20
-1.77468585232458
30
0
41
1
10
39.6046499827384
20
-1.68381728129734
30
0
41
1
10
39.3292493281364
20
-1.59628378613854
30
0
41
1
10
39.2985278249377
20
-1.58676499201832
30
0
41
1
10
39.2368298200322
20
-1.56816864147089
30
0
41
1
10
39.2058254505521
20
-1.55908476412532
30
0
41
1
10
39.1126339186282
20
-1.53256329649278
30
0
41
1
10
38.9880664945308
20
-1.49921332703835
30
0
41
1
10
38.8315311544204
20
-1.4629283678633
30
0
41
1
10
38.7372182391294
20
-1.44374948597053
30
0
41
1
10
38.6742537589116
20
-1.43155677183796
30
0
41
1
10
38.6427248958231
20
-1.42577072225043
30
0
41
1
10
38.484929034458
20
-1.39784651387819
30
0
41
1
10
38.3581558208927
20
-1.37907560603338
30
0
41
1
10
38.1035247215307
20
-1.34884570913516
30
0
41
1
10
37.9756674857057
20
-1.3373822334226
30
0
41
1
10
37.7188001618973
20
-1.32229083366747
30
0
41
1
10
37.5897924442177
20
-1.3186470693114
30
0
41
1
10
37.4277124954157
20
-1.319681804581
30
0
41
1
10
37.3952425828045
20
-1.32017140505908
30
0
41
1
10
37.3304352552568
20
-1.32173159332575
30
0
41
1
10
37.2333468641951
20
-1.32494335281464
30
0
41
1
10
37.136636634422
20
-1.33084180204628
30
0
41
1
10
36.9437519403077
20
-1.34643534771595
30
0
41
1
10
36.8158752408246
20
-1.36188783643101
30
0
41
1
10
36.6253223361041
20
-1.3939286465515
30
0
41
1
10
36.5620169196018
20
-1.40609837786425
30
0
41
1
10
36.4674166758334
20
-1.42684683738366
30
0
41
1
10
36.4359427356782
20
-1.43417733726918
30
0
41
1
10
36.3731222016918
20
-1.44972189130587
30
0
41
1
10
36.3417326482455
20
-1.45794833376414
30
0
41
1
10
36.185803208738
20
-1.50125393732321
30
0
41
1
10
36.0641902437012
20
-1.54276113370088
30
0
41
1
10
35.887836248578
20
-1.61796504348561
30
0
41
1
10
35.8300623998636
20
-1.64518770062403
30
0
41
1
10
35.7452227590202
20
-1.68984472091833
30
0
41
1
10
35.7171799501434
20
-1.70541791334111
30
0
41
1
10
35.662194235713
20
-1.73772643076538
30
0
41
1
10
35.6352465777335
20
-1.75444895892397
30
0
41
1
10
35.5561637935891
20
-1.80643001001724
30
0
41
1
10
35.5057794472378
20
-1.84349408999304
30
0
41
1
10
35.4343477456844
20
-1.90325789570085
30
0
41
1
10
35.4112300965772
20
-1.92387555814727
30
0
41
1
10
35.3665198390559
20
-1.96662328746032
30
0
41
1
10
35.3448581578799
20
-1.98883931264356
30
0
41
1
10
35.2833634202786
20
-2.05686302980269
30
0
41
1
10
35.2467455925969
20
-2.10425986712286
30
0
41
1
10
35.1988764814936
20
-2.17848504205259
30
0
41
1
10
35.1840930102579
20
-2.20374616569549
30
0
41
1
10
35.1637820597802
20
-2.24244328904382
30
0
41
1
10
35.1573113423059
20
-2.255501070273
30
0
41
1
10
35.1450581150535
20
-2.28177585289325
30
0
41
1
10
35.1392976378538
20
-2.29494229471908
30
0
41
1
10
35.1122859987625
20
-2.36090574675194
30
0
41
1
10
35.0963914965577
20
-2.41409346361596
30
0
41
1
10
35.0805592942759
20
-2.49427213672817
30
0
41
1
10
35.0766222063644
20
-2.52106556276803
30
0
41
1
10
35.0726639811957
20
-2.56132928370266
30
0
41
1
10
35.0716682622763
20
-2.57479437046933
30
0
41
1
10
35.0703254690351
20
-2.60155886804878
30
0
41
1
10
35.0699763615791
20
-2.61485716557016
30
0
41
1
10
35.0697580312237
20
-2.68094046740271
30
0
41
1
10
35.0744461210383
20
-2.73250433613515
30
0
41
1
10
35.0918236477918
20
-2.83326238657958
30
0
41
1
10
35.1045110876343
20
-2.88245645495462
30
0
41
1
10
35.1285992132408
20
-2.95459543130696
30
0
41
1
10
35.1374391630173
20
-2.97823102123854
30
0
41
1
10
35.1564972389997
20
-3.02452188935533
30
0
41
1
10
35.1667281919501
20
-3.04721507345678
30
0
41
1
10
35.1993272683654
20
-3.11404102203514
30
0
41
1
10
35.2235937087264
20
-3.15692420564832
30
0
41
1
10
35.2763802525892
20
-3.23978070834653
30
0
41
1
10
35.3049519589881
20
-3.27973796786154
30
0
41
1
10
35.3505288593269
20
-3.33773325803776
30
0
41
1
10
35.3661744901155
20
-3.35674119108415
30
0
41
1
10
35.3982957490079
20
-3.39414550624051
30
0
41
1
10
35.4147905438425
20
-3.41256075037737
30
0
41
1
10
35.4986913047816
20
-3.50268225400305
30
0
41
1
10
35.5705908759766
20
-3.56897841704972
30
0
41
1
10
35.7208951319129
20
-3.69265505489733
30
0
41
1
10
35.7993496957048
20
-3.74999889006659
30
0
41
1
10
35.9611592003315
20
-3.85720095788443
30
0
41
1
10
36.044526816539
20
-3.90704783849412
30
0
41
1
10
36.1724752960476
20
-3.97687062944917
30
0
41
1
10
36.2156114417643
20
-3.9993167580746
30
0
41
1
10
36.3027613596282
20
-4.04263182696175
30
0
41
1
10
36.3466272572511
20
-4.06342643455611
30
0
41
1
10
36.4789002398419
20
-4.12333756263175
30
0
41
1
10
36.5680156111502
20
-4.16000897568023
30
0
41
1
10
36.7476922168302
20
-4.22743146998781
30
0
41
1
10
36.8382555923004
20
-4.25817942346913
30
0
41
1
10
37.1117118518028
20
-4.34213319731265
30
0
41
1
10
37.2963364111331
20
-4.38709527340581
30
0
41
1
10
37.6691660614458
20
-4.45659724583146
30
0
41
1
10
37.8573810335997
20
-4.48111250598348
30
0
41
1
10
38.0473870454823
20
-4.49555615843764
30
0
0
SPLINE
5
1AF
100
AcDbEntity
8
1
62
256
6
ByLayer
370
18
48
1
60
0
100
AcDbSpline
70
4
71
3
72
26
73
22
40
0
40
0
40
0
40
0
40
0.0554186074867714
40
0.0554186074867714
40
0.153090837745901
40
0.153090837745901
40
0.25076306800503
40
0.25076306800503
40
0.446107528523289
40
0.446107528523289
40
0.543779758782417
40
0.543779758782417
40
0.641451989041544
40
0.641451989041544
40
0.739124219300672
40
0.739124219300672
40
0.8367964495598
40
0.8367964495598
40
0.934468679818928
40
0.934468679818928
40
1
40
1
40
1
40
1
41
1
10
39.6446809785528
20
-1.6899715477501
30
0
41
1
10
39.5979073150811
20
-1.7072714192424
30
0
41
1
10
39.5515338184412
20
-1.72714163844407
30
0
41
1
10
39.4253114845571
20
-1.78885392902049
30
0
41
1
10
39.3464248394711
20
-1.83601754176607
30
0
41
1
10
39.1920164031562
20
-1.94629662286226
30
0
41
1
10
39.1159179340983
20
-2.00997979615607
30
0
41
1
10
38.8973732366544
20
-2.22223908532143
30
0
41
1
10
38.7662023212522
20
-2.38947613272023
30
0
41
1
10
38.5896365460144
20
-2.67609774050095
30
0
41
1
10
38.5348234202703
20
-2.77669286715044
30
0
41
1
10
38.4340645166529
20
-2.98415487327702
30
0
41
1
10
38.3878549231163
20
-3.09148412789122
30
0
41
1
10
38.3030074958139
20
-3.31267645543329
30
0
41
1
10
38.2640577853794
20
-3.42697676496371
30
0
41
1
10
38.1955262898952
20
-3.65769535370441
30
0
41
1
10
38.1661004897941
20
-3.77460566330757
30
0
41
1
10
38.1154868208632
20
-4.01106621952056
30
0
41
1
10
38.0943609145611
20
-4.13063632271385
30
0
41
1
10
38.0654465360462
20
-4.33247602762856
30
0
41
1
10
38.0555740710541
20
-4.41408986805627
30
0
41
1
10
38.047387045393
20
-4.4955561593255
30
0
0
SPLINE
5
1B0
100
AcDbEntity
8
SK1
62
256
6
ByLayer
370
18
48
1
60
0
100
AcDbSpline
70
4
71
3
72
25
73
21
40
0
40
0
40
0
40
0
40
0.125011781522715
40
0.125011781522715
40
0.187517672284074
40
0.187517672284074
40
0.250023563045432
40
0.250023563045432
40
0.375035344568147
40
0.375035344568147
40
0.500047126090863
40
0.625058907613579
40
0.625058907613579
40
0.687564798374937
40
0.687564798374937
40
0.750070689136295
40
0.750070689136295
40
0.875082470659012
40
0.875082470659012
40
1
40
1
40
1
40
1
41
1
10
-26.78
20
3.49499999999998
30
0
41
1
10
-26.8461325038066
20
3.49499999999998
30
0
41
1
10
-26.9107161308256
20
3.49499999999998
30
0
41
1
10
-27.0047352913317
20
3.49499999999998
30
0
41
1
10
-27.0356253065222
20
3.49499999999998
30
0
41
1
10
-27.0961876157174
20
3.49499999999998
30
0
41
1
10
-27.1258524642689
20
3.49499999999998
30
0
41
1
10
-27.2128189283611
20
3.49499999999998
30
0
41
1
10
-27.2680995040984
20
3.49499999999998
30
0
41
1
10
-27.3721538610289
20
3.49499999999998
30
0
41
1
10
-27.4697030033843
20
3.49499999999998
30
0
41
1
10
-27.5515432030615
20
3.49499999999998
30
0
41
1
10
-27.6058239035108
20
3.49499999999998
30
0
41
1
10
-27.6227321255518
20
3.49499999999998
30
0
41
1
10
-27.6539517789931
20
3.49499999999998
30
0
41
1
10
-27.6682736149905
20
3.49499999999998
30
0
41
1
10
-27.7069162929609
20
3.49499999999998
30
0
41
1
10
-27.7265707541406
20
3.49499999999998
30
0
41
1
10
-27.752889516496
20
3.49499999999995
30
0
41
1
10
-27.7595615293139
20
3.49499999999992
30
0
41
1
10
-27.759559764524
20
3.49499999999992
30
0
0
SPLINE
5
1B1
100
AcDbEntity
8
SK1
62
256
6
ByLayer
370
18
48
1
60
0
100
AcDbSpline
70
4
71
3
72
25
73
21
40
0
40
0
40
0
40
0
40
0.124922869476324
40
0.124922869476324
40
0.249933888122563
40
0.249933888122563
40
0.312439397445683
40
0.312439397445683
40
0.374944906768803
40
0.374944906768803
40
0.499955925415042
40
0.624966944061282
40
0.624966944061282
40
0.749977962707521
40
0.749977962707521
40
0.812483472030641
40
0.812483472030641
40
0.87498898135376
40
0.87498898135376
40
1
40
1
40
1
40
1
41
1
10
-27.7595599998089
20
-3.49500000000003
30
0
41
1
10
-27.7595611809833
20
-3.49500000000003
30
0
41
1
10
-27.752890159116
20
-3.49500000000003
30
0
41
1
10
-27.7265707541405
20
-3.49500000000003
30
0
41
1
10
-27.7069162929609
20
-3.49500000000003
30
0
41
1
10
-27.6682736149904
20
-3.49500000000003
30
0
41
1
10
-27.6539517789931
20
-3.49500000000003
30
0
41
1
10
-27.6227321255518
20
-3.49500000000003
30
0
41
1
10
-27.6058239035108
20
-3.49500000000003
30
0
41
1
10
-27.5515432030615
20
-3.49500000000003
30
0
41
1
10
-27.4697030033843
20
-3.49500000000003
30
0
41
1
10
-27.3721538610289
20
-3.49500000000003
30
0
41
1
10
-27.2680995040984
20
-3.49500000000003
30
0
41
1
10
-27.2128189283611
20
-3.49500000000003
30
0
41
1
10
-27.1258524642689
20
-3.49500000000003
30
0
41
1
10
-27.0961876157174
20
-3.49500000000003
30
0
41
1
10
-27.0356253065222
20
-3.49500000000003
30
0
41
1
10
-27.0047352913317
20
-3.49500000000003
30
0
41
1
10
-26.9107161308256
20
-3.49500000000003
30
0
41
1
10
-26.8461325038066
20
-3.49500000000003
30
0
41
1
10
-26.78
20
-3.49500000000003
30
0
0
SPLINE
5
1B2
100
AcDbEntity
8
SK1
62
256
6
ByLayer
370
18
48
1
60
0
100
AcDbSpline
70
4
71
3
72
45
73
41
40
0
40
0
40
0
40
0
40
0.0625
40
0.0625
40
0.125
40
0.125
40
0.15625
40
0.15625
40
0.1875
40
0.1875
40
0.25
40
0.25
40
0.375
40
0.375
40
0.40625
40
0.40625
40
0.421875
40
0.421875
40
0.4375
40
0.4375
40
0.5
40
0.5
40
0.5625
40
0.5625
40
0.625
40
0.625
40
0.65625
40
0.65625
40
0.6875
40
0.6875
40
0.75
40
0.8125
40
0.8125
40
0.875
40
0.875
40
0.90625
40
0.90625
40
0.9375
40
0.9375
40
1
40
1
40
1
40
1
41
1
10
-26.7800000000001
20
-2.7940404781607
30
0
41
1
10
-26.8457681640087
20
-2.68871501911789
30
0
41
1
10
-26.9099831676993
20
-2.58226046044192
30
0
41
1
10
-27.0346072499699
20
-2.36658455295483
30
0
41
1
10
-27.0950185450509
20
-2.25736481547162
30
0
41
1
10
-27.1821004193531
20
-2.09096532364245
30
0
41
1
10
-27.210536677869
20
-2.03506916366908
30
0
41
1
10
-27.2660871196636
20
-1.9223157358135
30
0
41
1
10
-27.2931265139423
20
-1.86560669091099
30
0
41
1
10
-27.3716475494041
20
-1.69476144098309
30
0
41
1
10
-27.4206114438143
20
-1.57976189736769
30
0
41
1
10
-27.5553865230224
20
-1.23081432245399
30
0
41
1
10
-27.6291668215694
20
-0.992945283520129
30
0
41
1
10
-27.6932897766313
20
-0.686450075547782
30
0
41
1
10
-27.7047028224752
20
-0.624690994745208
30
0
41
1
10
-27.71953961254
20
-0.53130838905588
30
0
41
1
10
-27.7241105424864
20
-0.500010964572539
30
0
41
1
10
-27.7324321267716
20
-0.437404101498061
30
0
41
1
10
-27.7361813784008
20
-0.406115762583965
30
0
41
1
10
-27.7528561464768
20
-0.249750036765022
30
0
41
1
10
-27.759549382399
20
-0.124901209280836
30
0
41
1
10
-27.7595705922846
20
0.12430629500858
30
0
41
1
10
-27.7528994417055
20
0.248665003919882
30
0
41
1
10
-27.7265707541406
20
0.496906165748868
30
0
41
1
10
-27.7069162929609
20
0.62078873146703
30
0
41
1
10
-27.6682736149905
20
0.806276614791983
30
0
41
1
10
-27.6539517789931
20
0.867644756430877
30
0
41
1
10
-27.6227321255518
20
0.989242928606501
30
0
41
1
10
-27.6058239035108
20
1.04952352630681
30
0
41
1
10
-27.5515432030615
20
1.22894528771579
30
0
41
1
10
-27.4697030033843
20
1.46439427079503
30
0
41
1
10
-27.3721538610289
20
1.69357019956598
30
0
41
1
10
-27.2680995040984
20
1.92014840007778
30
0
41
1
10
-27.2128189283611
20
2.03213832073948
30
0
41
1
10
-27.1258524642689
20
2.1985076715159
30
0
41
1
10
-27.0961876157174
20
2.25369416374207
30
0
41
1
10
-27.0356253065222
20
2.36357492903272
30
0
41
1
10
-27.0047352913317
20
2.41825299271559
30
0
41
1
10
-26.9107161308256
20
2.58104716912413
30
0
41
1
10
-26.8461325038066
20
2.68813154142691
30
0
41
1
10
-26.78
20
2.79404047816058
30
0
0
SPLINE
5
1B3
100
AcDbEntity
8
1
62
256
6
ByLayer
370
18
48
1
60
0
100
AcDbSpline
70
4
71
2
72
6
73
3
40
0
40
0
40
0
40
1
40
1
40
1
41
1
10
79.2494322442881
20
-5.57701471503145
30
0
41
1
10
79.337155518309
20
-5.42658910731805
30
0
41
1
10
79.4248927315147
20
-5.27628772470399
30
0
0
SPLINE
5
1B4
100
AcDbEntity
8
1
62
256
6
ByLayer
370
18
48
1
60
0
100
AcDbSpline
70
4
71
2
72
6
73
3
40
0
40
0
40
0
40
1
40
1
40
1
41
1
10
65.8500047263626
20
-5.20945178247689
30
0
41
1
10
65.8651362774328
20
-5.20573673178447
30
0
41
1
10
65.8824071813228
20
-5.20282295089601
30
0
0
SPLINE
5
1B5
100
AcDbEntity
8
1
62
256
6
ByLayer
370
18
48
1
60
0
100
AcDbSpline
70
4
71
1
72
4
73
2
40
0
40
0
40
1
40
1
41
1
10
81.8199999999999
20
4.58070136955038
30
0
41
1
10
81.3640109683259
20
5.03664415283561
30
0
0
SPLINE
5
1B6
100
AcDbEntity
8
1
62
256
6
ByLayer
370
18
48
1
60
0
100
AcDbSpline
70
4
71
2
72
6
73
3
40
0
40
0
40
0
40
1
40
1
40
1
41
1
10
67.7709528120133
20
6.38572142240943
30
0
41
1
10
67.4517504857682
20
5.83576651990396
30
0
41
1
10
67.1323803605955
20
5.2869598492415
30
0
0
SPLINE
5
1B7
100
AcDbEntity
8
1
62
256
6
ByLayer
370
18
48
1
60
0
100
AcDbSpline
70
4
71
2
72
6
73
3
40
0
40
0
40
0
40
1
40
1
40
1
41
1
10
65.0960568109609
20
-6.40286851180568
30
0
41
1
10
65.4155760868101
20
-5.85197976726451
30
0
41
1
10
65.7353569605355
20
-5.30206314035757
30
0
0
SPLINE
5
1B8
100
AcDbEntity
8
1
62
256
6
ByLayer
370
18
48
1
60
0
100
AcDbSpline
70
4
71
2
72
6
73
3
40
0
40
0
40
0
40
1
40
1
40
1
41
1
10
68.6651399166284
20
5.30388118826613
30
0
41
1
10
68.3437196941543
20
5.85687074268293
30
0
41
1
10
68.0229690714379
20
6.41026265075408
30
0
0
SPLINE
5
1B9
100
AcDbEntity
8
1
62
256
6
ByLayer
370
18
48
1
60
0
100
AcDbSpline
70
4
71
1
72
4
73
2
40
0
40
0
40
1
40
1
41
1
10
78.2532937913065
20
-5.87661216005023
30
0
41
1
10
79.2224459530807
20
-5.62413016001656
30
0
0
SPLINE
5
1BA
100
AcDbEntity
8
1
62
256
6
ByLayer
370
18
48
1
60
0
100
AcDbSpline
70
4
71
2
72
6
73
3
40
0
40
0
40
0
40
1
40
1
40
1
41
1
10
77.9008840341007
20
-5.3214797646572
30
0
41
1
10
78.0624276687819
20
-5.60024916108571
30
0
41
1
10
78.2239290528215
20
-5.87910288035587
30
0
0
SPLINE
5
1BB
100
AcDbEntity
8
1
62
256
6
ByLayer
370
18
48
1
60
0
100
AcDbSpline
70
4
71
2
72
6
73
3
40
0
40
0
40
0
40
1
40
1
40
1
41
1
10
64.2207289275349
20
-5.31853395229075
30
0
41
1
10
64.5396860210481
20
-5.86882187553243
30
0
41
1
10
64.8584816424037
20
-6.41948994084748
30
0
0
SPLINE
5
1BC
100
AcDbEntity
8
1
62
256
6
ByLayer
370
18
48
1
60
0
100
AcDbSpline
70
4
71
3
72
14
73
10
40
0
40
0
40
0
40
0
40
0.254168683705609
40
0.446756621485373
40
0.580177819078994
40
0.620573623366745
40
0.70579580352964
40
0.834283085502838
40
1
40
1
40
1
40
1
41
1
10
69.0949040961195
20
5.3046561703581
30
0
41
1
10
69.0873845010022
20
5.28480173569014
30
0
41
1
10
69.0560517286023
20
5.25211722335496
30
0
41
1
10
68.9826769869824
20
5.20421454283155
30
0
41
1
10
68.9080162153116
20
5.18752781367363
30
0
41
1
10
68.8437106148771
20
5.18993909614369
30
0
41
1
10
68.785934068341
20
5.20223935685155
30
0
41
1
10
68.7095326553929
20
5.24427890999453
30
0
41
1
10
68.6725098468479
20
5.28676546294923
30
0
41
1
10
68.6575785042268
20
5.31531792688719
30
0
0
SPLINE
5
1BD
100
AcDbEntity
8
1
62
256
6
ByLayer
370
18
48
1
60
0
100
AcDbSpline
70
4
71
3
72
14
73
10
40
0
40
0
40
0
40
0
40
0.220199390246278
40
0.402545806724763
40
0.546262942873892
40
0.591688869431548
40
0.683677950700023
40
0.821307434534753
40
1
40
1
40
1
40
1
41
1
10
77.4580195746931
20
-5.30352526243953
30
0
41
1
10
77.468165565808
20
-5.28211223254633
30
0
41
1
10
77.5000081376809
20
-5.24727033094774
30
0
41
1
10
77.5774334153389
20
-5.20087000725744
30
0
41
1
10
77.6467549018085
20
-5.18710597077006
30
0
41
1
10
77.7060275917936
20
-5.18877820530594
30
0
41
1
10
77.7640945636401
20
-5.20012133601094
30
0
41
1
10
77.8391553478425
20
-5.24027631439802
30
0
41
1
10
77.8750566940363
20
-5.27979972907852
30
0
41
1
10
77.8892397586926
20
-5.30640552685114
30
0
0
SPLINE
5
1BE
100
AcDbEntity
8
1
62
256
6
ByLayer
370
18
48
1
60
0
100
AcDbSpline
70
4
71
3
72
15
73
11
40
0
40
0
40
0
40
0
40
0.197406673680963
40
0.347192723102686
40
0.44768333134697
40
0.498125906919648
40
0.517263402257744
40
0.651158659103734
40
0.802470354828377
40
1
40
1
40
1
40
1
41
1
10
63.780824506517
20
-5.30295021780654
30
0
41
1
10
63.7925106774144
20
-5.28009574911243
30
0
41
1
10
63.8244978343283
20
-5.24500554341103
30
0
41
1
10
63.8945773567581
20
-5.20443544878319
30
0
41
1
10
63.9509476884413
20
-5.19053657749788
30
0
41
1
10
63.9876335527139
20
-5.18793880589612
30
0
41
1
10
64.0340822169378
20
-5.18904526139505
30
0
41
1
10
64.0890769425944
20
-5.20101326055459
30
0
41
1
10
64.1648002409218
20
-5.24329121302404
30
0
41
1
10
64.1965977345023
20
-5.27806463805788
30
0
41
1
10
64.2084901286181
20
-5.30069629787522
30
0
0
SPLINE
5
1BF
100
AcDbEntity
8
1
62
256
6
ByLayer
370
18
48
1
60
0
100
AcDbSpline
70
4
71
2
72
6
73
3
40
0
40
0
40
0
40
1
40
1
40
1
41
1
10
63.4327995350643
20
-5.90191010860946
30
0
41
1
10
63.6054827403374
20
-5.60437774166314
30
0
41
1
10
63.778403849398
20
-5.30695213111329
30
0
0
SPLINE
5
1C0
100
AcDbEntity
8
1
62
256
6
ByLayer
370
18
48
1
60
0
100
AcDbSpline
70
4
71
2
72
6
73
3
40
0
40
0
40
0
40
1
40
1
40
1
41
1
10
76.9438586503695
20
-6.18896653159041
30
0
41
1
10
77.1997574690997
20
-5.74777978131658
30
0
41
1
10
77.4558106666417
20
-5.30717033687506
30
0
0
SPLINE
5
1C1
100
AcDbEntity
8
1
62
256
6
ByLayer
370
18
48
1
60
0
100
AcDbSpline
70
4
71
2
72
6
73
3
40
0
40
0
40
0
40
1
40
1
40
1
41
1
10
69.7359708375794
20
6.41032637334476
30
0
41
1
10
69.4154943409493
20
5.85692886995969
30
0
41
1
10
69.094455988138
20
5.30388298836607
30
0
0
SPLINE
5
1C2
100
AcDbEntity
8
1
62
256
6
ByLayer
370
18
48
1
60
0
100
AcDbSpline
70
4
71
2
72
6
73
3
40
0
40
0
40
0
40
1
40
1
40
1
41
1
10
70.6169152457242
20
5.30628318152509
30
0
41
1
10
70.2969300785595
20
5.85680611439955
30
0
41
1
10
69.9772316569251
20
6.40813368028833
30
0
0
SPLINE
5
1C3
100
AcDbEntity
8
1
62
256
6
ByLayer
370
18
48
1
60
0
100
AcDbSpline
70
4
71
1
72
4
73
2
40
0
40
0
40
1
40
1
41
1
10
76.5464875381298
20
-6.32381471035319
30
0
41
1
10
76.9126803339545
20
-6.22836287085386
30
0
0
SPLINE
5
1C4
100
AcDbEntity
8
1
62
256
6
ByLayer
370
18
48
1
60
0
100
AcDbSpline
70
4
71
2
72
6
73
3
40
0
40
0
40
0
40
1
40
1
40
1
41
1
10
75.9332879515874
20
-5.30364115077018
30
0
41
1
10
76.2263776991529
20
-5.80850031254707
30
0
41
1
10
76.5189665235743
20
-6.31362941481993
30
0
0
SPLINE
5
1C5
100
AcDbEntity
8
1
62
256
6
ByLayer
370
18
48
1
60
0
100
AcDbSpline
70
4
71
3
72
13
73
9
40
0
40
0
40
0
40
0
40
0.213111751897202
40
0.367485034900927
40
0.457491630290111
40
0.506939643456801
40
0.692749468828136
40
1
40
1
40
1
40
1
41
1
10
71.0484049856853
20
5.30290460529068
30
0
41
1
10
71.0323050142236
20
5.27293510663139
30
0
41
1
10
70.9916323048885
20
5.23142630455038
30
0
41
1
10
70.9076929415795
20
5.19361515336135
30
0
41
1
10
70.8476285694647
20
5.186756193999
30
0
41
1
10
70.7866481600883
20
5.18867579242911
30
0
41
1
10
70.6895786471595
20
5.21906836866927
30
0
41
1
10
70.6392441444017
20
5.26380675075191
30
0
41
1
10
70.6195029678405
20
5.30201751041221
30
0
0
SPLINE
5
1C6
100
AcDbEntity
8
1
62
256
6
ByLayer
370
18
48
1
60
0
100
AcDbSpline
70
4
71
3
72
15
73
11
40
0
40
0
40
0
40
0
40
0.168208893223868
40
0.296980962623919
40
0.380289444529108
40
0.436238816660781
40
0.489062187353258
40
0.552117006138546
40
0.745670189483632
40
1
40
1
40
1
40
1
41
1
10
75.495893721473
20
-5.31546194612335
30
0
41
1
10
75.5111304599876
20
-5.2861767516826
30
0
41
1
10
75.5489477280336
20
-5.24307529831273
30
0
41
1
10
75.6267947470627
20
-5.20113731433301
30
0
41
1
10
75.6885786638193
20
-5.18856024470179
30
0
41
1
10
75.7374572142236
20
-5.18827515862822
30
0
41
1
10
75.7740146412482
20
-5.19372680382915
30
0
41
1
10
75.8303976897529
20
-5.20975682269344
30
0
41
1
10
75.8948209922625
20
-5.25181487902654
30
0
41
1
10
75.9256425793012
20
-5.28387285143768
30
0
41
1
10
75.9331000004778
20
-5.30331473592116
30
0
0
SPLINE
5
1C7
100
AcDbEntity
8
1
62
256
6
ByLayer
370
18
48
1
60
0
100
AcDbSpline
70
4
71
2
72
6
73
3
40
0
40
0
40
0
40
1
40
1
40
1
41
1
10
72.6877138455172
20
5.20977722922117
30
0
41
1
10
72.6094052127233
20
5.23753183930964
30
0
41
1
10
72.5925271948378
20
5.25929611291866
30
0
0
SPLINE
5
1C8
100
AcDbEntity
8
1
62
256
6
ByLayer
370
18
48
1
60
0
100
AcDbSpline
70
4
71
2
72
6
73
3
40
0
40
0
40
0
40
1
40
1
40
1
41
1
10
74.8615786480844
20
-6.40999075148588
30
0
41
1
10
75.1823787129056
20
-5.85651555118079
30
0
41
1
10
75.5039007847377
20
-5.30343642112038
30
0
0
SPLINE
5
1C9
100
AcDbEntity
8
1
62
256
6
ByLayer
370
18
48
1
60
0
100
AcDbSpline
70
4
71
2
72
6
73
3
40
0
40
0
40
0
40
1
40
1
40
1
41
1
10
71.700102653793
20
6.42267839101135
30
0
41
1
10
71.3810881366891
20
5.87162972145995
30
0
41
1
10
71.061931105615
20
5.32087617701791
30
0
0
SPLINE
5
1CA
100
AcDbEntity
8
1
62
256
6
ByLayer
370
18
48
1
60
0
100
AcDbSpline
70
4
71
2
72
6
73
3
40
0
40
0
40
0
40
1
40
1
40
1
41
1
10
73.9725975517248
20
-5.28924687476774
30
0
41
1
10
74.2921295822892
20
-5.83848616990704
30
0
41
1
10
74.6114847076494
20
-6.38882591238675
30
0
0
SPLINE
5
1CB
100
AcDbEntity
8
1
62
256
6
ByLayer
370
18
48
1
60
0
100
AcDbSpline
70
4
71
2
72
6
73
3
40
0
40
0
40
0
40
1
40
1
40
1
41
1
10
72.5768233400499
20
5.29610127417953
30
0
41
1
10
72.2572472503307
20
5.84524002491278
30
0
41
1
10
71.9378958583741
20
6.39550155971475
30
0
0
LINE
5
7F
100
AcDbEntity
8
80
62
256
6
ByLayer
370
18
48
1
60
0
100
AcDbLine
10
0
20
0
30
0
11
-5
21
0
31
0
39
0
210
0
220
0
230
1
0
LINE
5
80
100
AcDbEntity
8
4
62
256
6
ByLayer
370
18
48
0.05
60
0
100
AcDbLine
10
0
20
0
30
0
11
81.82
21
0
31
0
39
0
210
0
220
0
230
1
0
LINE
5
82
100
AcDbEntity
8
81
62
256
6
ByLayer
370
18
48
1
60
0
100
AcDbLine
10
81.82
20
0
30
0
11
86.82
21
0
31
0
39
0
210
0
220
0
230
1
0
LINE
5
83
100
AcDbEntity
8
SK4
62
256
6
ByLayer
370
18
48
0.05
60
0
100
AcDbLine
10
-28.18
20
0
30
0
11
81.82
21
0
31
0
39
0
210
0
220
0
230
1
0
LINE
5
85
100
AcDbEntity
8
1
62
256
6
ByLayer
370
18
48
1
60
0
100
AcDbLine
10
0
20
4.661
30
0
11
0
21
-4.661
31
0
39
0
210
0
220
0
230
1
0
LINE
5
86
100
AcDbEntity
8
1
62
256
6
ByLayer
370
18
48
1
60
0
100
AcDbLine
10
69.096728
20
5.307687
30
0
11
69.094435
21
5.303847
31
0
39
0
210
0
220
0
230
1
0
LINE
5
87
100
AcDbEntity
8
1
62
256
6
ByLayer
370
13
48
1
60
0
100
AcDbLine
10
63.004512
20
-5.211
30
0
11
63.004512
21
-4.784403
31
0
39
0
210
0
220
0
230
1
0
LINE
5
88
100
AcDbEntity
8
1
62
256
6
ByLayer
370
18
48
1
60
0
100
AcDbLine
10
70.618735
20
5.303322
30
0
11
70.616763
21
5.306522
31
0
39
0
210
0
220
0
230
1
0
LINE
5
89
100
AcDbEntity
8
1
62
256
6
ByLayer
370
13
48
1
60
0
100
AcDbLine
10
61.792077
20
-4.511
30
0
11
61.792077
21
-3.718392
31
0
39
0
210
0
220
0
230
1
0
LINE
5
8A
100
AcDbEntity
8
1
62
256
6
ByLayer
370
13
48
1
60
0
100
AcDbLine
10
27.473835
20
-4.511
30
0
11
27.473835
21
4.511
31
0
39
0
210
0
220
0
230
1
0
LINE
5
8B
100
AcDbEntity
8
1
62
256
6
ByLayer
370
18
48
1
60
0
100
AcDbLine
10
26.82
20
4.661
30
0
11
26.82
21
-4.661
31
0
39
0
210
0
220
0
230
1
0
LINE
5
8C
100
AcDbEntity
8
1
62
256
6
ByLayer
370
13
48
1
60
0
100
AcDbLine
10
61.792077
20
1.841205
30
0
11
61.792077
21
4.070985
31
0
39
0
210
0
220
0
230
1
0
LINE
5
8D
100
AcDbEntity
8
1
62
256
6
ByLayer
370
13
48
1
60
0
100
AcDbLine
10
63.004512
20
4.180498
30
0
11
63.004512
21
1.063311
31
0
39
0
210
0
220
0
230
1
0
LINE
5
8E
100
AcDbEntity
8
SK1
62
256
6
ByLayer
370
18
48
1
60
0
100
AcDbLine
10
-28.18
20
3.07456
30
0
11
-28.18
21
-3.07456
31
0
39
0
210
0
220
0
230
1
0
LINE
5
90
100
AcDbEntity
8
SK1
62
256
6
ByLayer
370
18
48
1
60
0
100
AcDbLine
10
-17
20
2.79404
30
0
11
-17
21
-2.79404
31
0
39
0
210
0
220
0
230
1
0
LINE
5
91
100
AcDbEntity
8
SK1
62
256
6
ByLayer
370
18
48
1
60
0
100
AcDbLine
10
-16.02044
20
4.47456
30
0
11
-17
21
3.495
31
0
39
0
210
0
220
0
230
1
0
LINE
5
92
100
AcDbEntity
8
SK1
62
256
6
ByLayer
370
18
48
1
60
0
100
AcDbLine
10
-26.78
20
3.495
30
0
11
-17
21
3.495
31
0
39
0
210
0
220
0
230
1
0
LINE
5
93
100
AcDbEntity
8
SK1
62
256
6
ByLayer
370
18
48
1
60
0
100
AcDbLine
10
-26.78
20
2.79404
30
0
11
-26.78
21
3.495
31
0
39
0
210
0
220
0
230
1
0
LINE
5
94
100
AcDbEntity
8
SK1
62
256
6
ByLayer
370
18
48
1
60
0
100
AcDbLine
10
-17
20
2.79404
30
0
11
-26.78
21
2.79404
31
0
39
0
210
0
220
0
230
1
0
LINE
5
95
100
AcDbEntity
8
SK1
62
256
6
ByLayer
370
18
48
1
60
0
100
AcDbLine
10
-26.78
20
-2.79404
30
0
11
-17
21
-2.79404
31
0
39
0
210
0
220
0
230
1
0
LINE
5
96
100
AcDbEntity
8
SK1
62
256
6
ByLayer
370
18
48
1
60
0
100
AcDbLine
10
-26.78
20
-3.495
30
0
11
-26.78
21
-2.79404
31
0
39
0
210
0
220
0
230
1
0
LINE
5
97
100
AcDbEntity
8
SK1
62
256
6
ByLayer
370
18
48
1
60
0
100
AcDbLine
10
-17
20
-3.495
30
0
11
-26.78
21
-3.495
31
0
39
0
210
0
220
0
230
1
0
LINE
5
98
100
AcDbEntity
8
SK1
62
256
6
ByLayer
370
18
48
1
60
0
100
AcDbLine
10
-17
20
-3.495
30
0
11
-16.02044
21
-4.47456
31
0
39
0
210
0
220
0
230
1
0
LINE
5
99
100
AcDbEntity
8
SK1
62
256
6
ByLayer
370
18
48
1
60
0
100
AcDbLine
10
0
20
4.661
30
0
11
0
21
-4.661
31
0
39
0
210
0
220
0
230
1
0
LINE
5
9A
100
AcDbEntity
8
SK1
62
256
6
ByLayer
370
18
48
1
60
0
100
AcDbLine
10
-14.764
20
4.47456
30
0
11
-14.764
21
-4.47456
31
0
39
0
210
0
220
0
230
1
0
LINE
5
9B
100
AcDbEntity
8
SK1
62
256
6
ByLayer
370
18
48
1
60
0
100
AcDbLine
10
-14.57756
20
-4.661
30
0
11
-14.57756
21
4.661
31
0
39
0
210
0
220
0
230
1
0
LINE
5
9C
100
AcDbEntity
8
1
62
256
6
ByLayer
370
18
48
1
60
0
100
AcDbLine
10
26.82
20
4.661
30
0
11
0
21
4.661
31
0
39
0
210
0
220
0
230
1
0
LINE
5
9D
100
AcDbEntity
8
1
62
256
6
ByLayer
370
18
48
1
60
0
100
AcDbLine
10
0
20
-4.661
30
0
11
26.82
21
-4.661
31
0
39
0
210
0
220
0
230
1
0
LINE
5
9E
100
AcDbEntity
8
1
62
256
6
ByLayer
370
18
48
1
60
0
100
AcDbLine
10
73.935827
20
-5.247776
30
0
11
73.944815
21
-5.249241
31
0
39
0
210
0
220
0
230
1
0
LINE
5
9F
100
AcDbEntity
8
1
62
256
6
ByLayer
370
18
48
1
60
0
100
AcDbLine
10
68.002547
20
6.423466
30
0
11
67.802794
21
6.423466
31
0
39
0
210
0
220
0
230
1
0
LINE
5
A0
100
AcDbEntity
8
1
62
256
6
ByLayer
370
18
48
1
60
0
100
AcDbLine
10
64.872483
20
-6.423466
30
0
11
65.070912
21
-6.423466
31
0
39
0
210
0
220
0
230
1
0
LINE
5
A1
100
AcDbEntity
8
1
62
256
6
ByLayer
370
18
48
1
60
0
100
AcDbLine
10
63.004512
20
-5.211
30
0
11
63.407813
21
-5.909538
31
0
39
0
210
0
220
0
230
1
0
LINE
5
A2
100
AcDbEntity
8
1
62
256
6
ByLayer
370
18
48
1
60
0
100
AcDbLine
10
69.955514
20
6.423466
30
0
11
69.756671
21
6.423466
31
0
39
0
210
0
220
0
230
1
0
LINE
5
A3
100
AcDbEntity
8
1
62
256
6
ByLayer
370
18
48
1
60
0
100
AcDbLine
10
74.642135
20
-6.423466
30
0
11
74.84096
21
-6.423466
31
0
39
0
210
0
220
0
230
1
0
LINE
5
A4
100
AcDbEntity
8
1
62
256
6
ByLayer
370
18
48
1
60
0
100
AcDbLine
10
71.909775
20
6.423466
30
0
11
71.711503
21
6.423466
31
0
39
0
210
0
220
0
230
1
0
LINE
5
A5
100
AcDbEntity
8
1
62
256
6
ByLayer
370
18
48
1
60
0
100
AcDbLine
10
27.473835
20
-4.511
30
0
11
38.582527
21
-4.511
31
0
39
0
210
0
220
0
230
1
0
LINE
5
A6
100
AcDbEntity
8
1
62
256
6
ByLayer
370
18
48
1
60
0
100
AcDbLine
10
47.638146
20
-4.511
30
0
11
52.134902
21
-4.511
31
0
39
0
210
0
220
0
230
1
0
LINE
5
A7
100
AcDbEntity
8
1
62
256
6
ByLayer
370
18
48
1
60
0
100
AcDbLine
10
61.126959
20
-4.511
30
0
11
61.792077
21
-4.511
31
0
39
0
210
0
220
0
230
1
0
LINE
5
A8
100
AcDbEntity
8
1
62
256
6
ByLayer
370
18
48
1
60
0
100
AcDbLine
10
58.911781
20
4.511
30
0
11
54.382543
21
4.511
31
0
39
0
210
0
220
0
230
1
0
LINE
5
A9
100
AcDbEntity
8
1
62
256
6
ByLayer
370
18
48
1
60
0
100
AcDbLine
10
45.356972
20
4.511
30
0
11
40.822735
21
4.511
31
0
39
0
210
0
220
0
230
1
0
LINE
5
AA
100
AcDbEntity
8
1
62
256
6
ByLayer
370
18
48
1
60
0
100
AcDbLine
10
35.159194
20
4.511
30
0
11
27.473835
21
4.511
31
0
39
0
210
0
220
0
230
1
0
LINE
5
AB
100
AcDbEntity
8
SK1
62
256
6
ByLayer
370
18
48
1
60
0
100
AcDbLine
10
-28.18
20
-3.07456
30
0
11
-27.75956
21
-3.495
31
0
39
0
210
0
220
0
230
1
0
LINE
5
AC
100
AcDbEntity
8
SK1
62
256
6
ByLayer
370
18
48
1
60
0
100
AcDbLine
10
-27.75956
20
3.495
30
0
11
-28.18
21
3.07456
31
0
39
0
210
0
220
0
230
1
0
LINE
5
AD
100
AcDbEntity
8
SK1
62
256
6
ByLayer
370
18
48
1
60
0
100
AcDbLine
10
-14.764
20
4.47456
30
0
11
-16.02044
21
4.47456
31
0
39
0
210
0
220
0
230
1
0
LINE
5
AE
100
AcDbEntity
8
SK1
62
256
6
ByLayer
370
18
48
1
60
0
100
AcDbLine
10
-16.02044
20
-4.47456
30
0
11
-14.764
21
-4.47456
31
0
39
0
210
0
220
0
230
1
0
LINE
5
AF
100
AcDbEntity
8
SK1
62
256
6
ByLayer
370
18
48
1
60
0
100
AcDbLine
10
0
20
4.661
30
0
11
-14.57756
21
4.661
31
0
39
0
210
0
220
0
230
1
0
LINE
5
B0
100
AcDbEntity
8
SK1
62
256
6
ByLayer
370
18
48
1
60
0
100
AcDbLine
10
-14.57756
20
-4.661
30
0
11
0
21
-4.661
31
0
39
0
210
0
220
0
230
1
0
LINE
5
B1
100
AcDbEntity
8
SK1
62
256
6
ByLayer
370
18
48
1
60
0
100
AcDbLine
10
-14.764
20
-4.47456
30
0
11
-14.57756
21
-4.661
31
0
39
0
210
0
220
0
230
1
0
LINE
5
B2
100
AcDbEntity
8
SK1
62
256
6
ByLayer
370
18
48
1
60
0
100
AcDbLine
10
-14.57756
20
4.661
30
0
11
-14.764
21
4.47456
31
0
39
0
210
0
220
0
230
1
0
LINE
5
B3
100
AcDbEntity
8
SK2
62
256
6
ByLayer
370
18
48
1
60
0
100
AcDbLine
10
14.12122
20
-4.661
30
0
11
14.12122
21
25.443741
31
0
39
0
210
0
220
0
230
1
0
LINE
5
B5
100
AcDbEntity
8
1
62
256
6
ByLayer
370
18
48
1
60
1
100
AcDbLine
10
14.12122
20
4.661
30
0
11
14.582004
21
1.161002
31
0
39
0
210
0
220
0
230
1
0
LINE
5
B6
100
AcDbEntity
8
1
62
256
6
ByLayer
370
18
48
1
60
1
100
AcDbLine
10
14.582004
20
1.161002
30
0
11
13.660436
21
1.160998
31
0
39
0
210
0
220
0
230
1
0
LINE
5
B7
100
AcDbEntity
8
1
62
256
6
ByLayer
370
18
48
1
60
1
100
AcDbLine
10
13.660436
20
1.160998
30
0
11
14.12122
21
4.661
31
0
39
0
210
0
220
0
230
1
0
LINE
5
B8
100
AcDbEntity
8
1
62
256
6
ByLayer
370
18
48
1
60
1
100
AcDbLine
10
14.12122
20
-4.661
30
0
11
13.660436
21
-1.161002
31
0
39
0
210
0
220
0
230
1
0
LINE
5
B9
100
AcDbEntity
8
1
62
256
6
ByLayer
370
18
48
1
60
1
100
AcDbLine
10
13.660436
20
-1.161002
30
0
11
14.582004
21
-1.160998
31
0
39
0
210
0
220
0
230
1
0
LINE
5
BA
100
AcDbEntity
8
1
62
256
6
ByLayer
370
18
48
1
60
1
100
AcDbLine
10
14.582004
20
-1.160998
30
0
11
14.12122
21
-4.661
31
0
39
0
210
0
220
0
230
1
0
LINE
5
BB
100
AcDbEntity
8
2
62
256
6
ByLayer
370
18
48
1
60
0
100
AcDbLine
10
81.82
20
-43.923466
30
0
11
-28.18
21
-43.923466
31
0
39
0
210
0
220
0
230
1
0
LINE
5
BD
100
AcDbEntity
8
2
62
256
6
ByLayer
370
18
48
1
60
0
100
AcDbLine
10
-28.18
20
-4.66206
30
0
11
-28.18
21
-45.923466
31
0
39
0
210
0
220
0
230
1
0
LINE
5
BE
100
AcDbEntity
8
2
62
256
6
ByLayer
370
18
48
1
60
0
100
AcDbLine
10
81.82
20
-8.010966
30
0
11
81.82
21
-45.923466
31
0
39
0
210
0
220
0
230
1
0
LINE
5
BF
100
AcDbEntity
8
1
62
256
6
ByLayer
370
18
48
1
60
1
100
AcDbLine
10
-28.18
20
-43.923466
30
0
11
-24.680002
21
-43.462682
31
0
39
0
210
0
220
0
230
1
0
LINE
5
C0
100
AcDbEntity
8
1
62
256
6
ByLayer
370
18
48
1
60
1
100
AcDbLine
10
-24.680002
20
-43.462682
30
0
11
-24.679998
21
-44.38425
31
0
39
0
210
0
220
0
230
1
0
LINE
5
C1
100
AcDbEntity
8
1
62
256
6
ByLayer
370
18
48
1
60
1
100
AcDbLine
10
-24.679998
20
-44.38425
30
0
11
-28.18
21
-43.923466
31
0
39
0
210
0
220
0
230
1
0
LINE
5
C2
100
AcDbEntity
8
1
62
256
6
ByLayer
370
18
48
1
60
1
100
AcDbLine
10
81.82
20
-43.923466
30
0
11
78.320002
21
-44.38425
31
0
39
0
210
0
220
0
230
1
0
LINE
5
C3
100
AcDbEntity
8
1
62
256
6
ByLayer
370
18
48
1
60
1
100
AcDbLine
10
78.320002
20
-44.38425
30
0
11
78.319998
21
-43.462682
31
0
39
0
210
0
220
0
230
1
0
LINE
5
C4
100
AcDbEntity
8
1
62
256
6
ByLayer
370
18
48
1
60
1
100
AcDbLine
10
78.319998
20
-43.462682
30
0
11
81.82
21
-43.923466
31
0
39
0
210
0
220
0
230
1
0
LINE
5
1D0
100
AcDbEntity
8
1
62
256
6
ByLayer
370
18
48
1
60
1
100
AcDbLine
10
14.12122
20
4.661
30
0
11
14.582004
21
1.161002
31
0
39
0
210
0
220
0
230
1
0
LINE
5
1D1
100
AcDbEntity
8
1
62
256
6
ByLayer
370
18
48
1
60
1
100
AcDbLine
10
14.582004
20
1.161002
30
0
11
13.660436
21
1.160998
31
0
39
0
210
0
220
0
230
1
0
LINE
5
1D2
100
AcDbEntity
8
1
62
256
6
ByLayer
370
18
48
1
60
1
100
AcDbLine
10
13.660436
20
1.160998
30
0
11
14.12122
21
4.661
31
0
39
0
210
0
220
0
230
1
0
LINE
5
1D4
100
AcDbEntity
8
1
62
256
6
ByLayer
370
18
48
1
60
1
100
AcDbLine
10
14.12122
20
-4.661
30
0
11
13.660436
21
-1.161002
31
0
39
0
210
0
220
0
230
1
0
LINE
5
1D5
100
AcDbEntity
8
1
62
256
6
ByLayer
370
18
48
1
60
1
100
AcDbLine
10
13.660436
20
-1.161002
30
0
11
14.582004
21
-1.160998
31
0
39
0
210
0
220
0
230
1
0
LINE
5
1D6
100
AcDbEntity
8
1
62
256
6
ByLayer
370
18
48
1
60
1
100
AcDbLine
10
14.582004
20
-1.160998
30
0
11
14.12122
21
-4.661
31
0
39
0
210
0
220
0
230
1
0
LINE
5
1D9
100
AcDbEntity
8
1
62
256
6
ByLayer
370
18
48
1
60
1
100
AcDbLine
10
-28.18
20
-43.923466
30
0
11
-24.680002
21
-43.462682
31
0
39
0
210
0
220
0
230
1
0
LINE
5
1DA
100
AcDbEntity
8
1
62
256
6
ByLayer
370
18
48
1
60
1
100
AcDbLine
10
-24.680002
20
-43.462682
30
0
11
-24.679998
21
-44.38425
31
0
39
0
210
0
220
0
230
1
0
LINE
5
1DB
100
AcDbEntity
8
1
62
256
6
ByLayer
370
18
48
1
60
1
100
AcDbLine
10
-24.679998
20
-44.38425
30
0
11
-28.18
21
-43.923466
31
0
39
0
210
0
220
0
230
1
0
LINE
5
1DD
100
AcDbEntity
8
1
62
256
6
ByLayer
370
18
48
1
60
1
100
AcDbLine
10
81.82
20
-43.923466
30
0
11
78.320002
21
-44.38425
31
0
39
0
210
0
220
0
230
1
0
LINE
5
1DE
100
AcDbEntity
8
1
62
256
6
ByLayer
370
18
48
1
60
1
100
AcDbLine
10
78.320002
20
-44.38425
30
0
11
78.319998
21
-43.462682
31
0
39
0
210
0
220
0
230
1
0
LINE
5
1DF
100
AcDbEntity
8
1
62
256
6
ByLayer
370
18
48
1
60
1
100
AcDbLine
10
78.319998
20
-43.462682
30
0
11
81.82
21
-43.923466
31
0
39
0
210
0
220
0
230
1
0
MTEXT
5
1CC
100
AcDbEntity
8
SK2
62
256
6
ByLayer
370
18
48
1
60
0
100
AcDbMText
10
12.780106
20
10.319438
30
0
210
0
220
0
230
1
1
%%c
40
3
41
0
44
1.084337
50
90
71
7
72
5
7
iso_b_vert
0
MTEXT
5
1CF
100
AcDbEntity
8
SK2
62
256
6
ByLayer
370
18
48
1
60
0
100
AcDbMText
10
12.780106
20
16.296
30
0
210
0
220
0
230
1
1
\W0.7468;9.322
40
3
41
0
44
1.084337
50
90
71
7
72
5
7
iso_b_vert
0
MTEXT
5
1D8
100
AcDbEntity
8
2
62
256
6
ByLayer
370
18
48
1
60
0
100
AcDbMText
10
24.816143
20
-43.038352
30
0
210
0
220
0
230
1
1
\W0.5296;110
40
3
41
0
44
1.084337
50
0
71
7
72
5
7
iso_b_vert
0
MTEXT
5
1E1
100
AcDbEntity
8
SK6
62
256
6
ByLayer
370
18
48
1
60
0
100
AcDbMText
10
10.743772
20
-82.114886
30
0
210
0
220
0
230
1
1
\W0.7155;T300-XM101AE-1/2    C110
40
3
41
0
44
1.084337
50
0
71
7
72
5
7
iso_b_vert
0
HATCH
5
1D3
100
AcDbEntity
8
SK2
62
256
6
ByLayer
370
13
48
1
60
0
100
AcDbHatch
10
0
20
0
30
0
210
0
220
0
230
1
2
ANSI31
70
0
71
0
91
1
92
5
93
3
72
1
10
14.12122
20
4.66100000000006
11
14.5820037415528
21
1.16100169255324
72
1
10
14.5820037415528
20
1.16100169255324
11
13.6604362584472
21
1.16099830744687
72
1
10
13.6604362584472
20
1.16099830744687
11
14.12122
21
4.66100000000006
97
0
75
0
76
1
52
0
41
0.0062
77
0
78
1
53
45
43
0
44
0
45
-0.0139193969876572
46
0.0139193969876572
79
0
47
0
98
1
10
0
20
0
0
HATCH
5
1D7
100
AcDbEntity
8
SK2
62
256
6
ByLayer
370
13
48
1
60
0
100
AcDbHatch
10
0
20
0
30
0
210
0
220
0
230
1
2
ANSI31
70
0
71
0
91
1
92
5
93
3
72
1
10
14.12122
20
-4.66099999999997
11
13.6604362584472
21
-1.16100169255316
72
1
10
13.6604362584472
20
-1.16100169255316
11
14.5820037415528
21
-1.16099830744679
72
1
10
14.5820037415528
20
-1.16099830744679
11
14.12122
21
-4.66099999999997
97
0
75
0
76
1
52
0
41
0.0062
77
0
78
1
53
45
43
0
44
0
45
-0.0139193969876572
46
0.0139193969876572
79
0
47
0
98
1
10
0
20
0
0
HATCH
5
1DC
100
AcDbEntity
8
2
62
256
6
ByLayer
370
13
48
1
60
0
100
AcDbHatch
10
0
20
0
30
0
210
0
220
0
230
1
2
ANSI31
70
0
71
0
91
1
92
5
93
3
72
1
10
-28.18
20
-43.9234662013138
11
-24.6800016925532
21
-43.4626824597611
72
1
10
-24.6800016925532
20
-43.4626824597611
11
-24.6799983074468
21
-44.3842499428666
72
1
10
-24.6799983074468
20
-44.3842499428666
11
-28.18
21
-43.9234662013138
97
0
75
0
76
1
52
0
41
0.0062
77
0
78
1
53
45
43
0
44
0
45
-0.0139193969876572
46
0.0139193969876572
79
0
47
0
98
1
10
0
20
0
0
HATCH
5
1E0
100
AcDbEntity
8
2
62
256
6
ByLayer
370
13
48
1
60
0
100
AcDbHatch
10
0
20
0
30
0
210
0
220
0
230
1
2
ANSI31
70
0
71
0
91
1
92
5
93
3
72
1
10
81.82
20
-43.9234662013138
11
78.3200016925532
21
-44.3842499428666
72
1
10
78.3200016925532
20
-44.3842499428666
11
78.3199983074468
21
-43.4626824597611
72
1
10
78.3199983074468
20
-43.4626824597611
11
81.82
21
-43.9234662013138
97
0
75
0
76
1
52
0
41
0.0062
77
0
78
1
53
45
43
0
44
0
45
-0.0139193969876572
46
0.0139193969876572
79
0
47
0
98
1
10
0
20
0
0
DIMENSION
5
1E4
100
AcDbEntity
8
2
62
256
6
ByLayer
370
18
48
1
60
0
100
AcDbDimension
2
_U0
10
101.32
20
-6.423466
30
0
11
101.32
21
26.867179
31
0
70
32
71
1
72
1
41
1
210
0
220
0
230
1
3
Standard
100
AcDbAlignedDimension
13
81.82
23
6.423466
33
0
14
81.82
24
-6.423466
34
0
50
90
100
AcDbRotatedDimension
1001
ACAD
1000
DSTYLE
1002
{
1070
   371
1070
    13
1070
   372
1070
    13
1070
     3
1000

1070
   170
1070
     0
1070
   144
1040
1.0
1070
   277
1070
     2
1070
   284
1070
     8
1070
   278
1070
    46
1070
   146
1040
1.166667
1070
   345
1005
16
1070
   347
1005
16
1070
   346
1005
16
1070
   344
1005
0
1070
   343
1005
0
1070
   172
1070
     1
1070
    76
1070
     0
1070
    75
1070
     0
1070
   282
1070
     0
1070
   281
1070
     0
1070
    71
1070
     0
1070
    74
1070
     0
1070
   279
1070
     0
1070
   173
1070
     1
1070
   340
1005
1CD
1070
   271
1070
     3
1070
   272
1070
     3
1070
    77
1070
     1
1070
    73
1070
     0
1070
   171
1070
     3
1070
   274
1070
     4
1070
   177
1070
     2
1070
   176
1070
     2
1070
   178
1070
     2
1070
    78
1070
     8
1070
    48
1040
-0.1
1070
    41
1040
3.5
1070
   147
1040
1.5
1070
    42
1040
1.5875
1070
    44
1040
2.0
1070
   140
1040
3.0
1002
}
1001
ACAD_DSTYLE_DIM_LINETYPE
1070
   380
1005
16
1001
ACAD_DSTYLE_DIM_EXT1_LINETYPE
1070
   381
1005
16
1001
ACAD_DSTYLE_DIM_EXT2_LINETYPE
1070
   382
1005
16
0
DIMENSION
5
1FF
100
AcDbEntity
8
SK2
62
256
6
ByLayer
370
18
48
1
60
0
100
AcDbDimension
2
_U1
10
76.45
20
15.976043
30
0
11
79.135
21
15.976043
31
0
70
32
71
1
72
1
41
1
210
0
220
0
230
1
3
Standard
100
AcDbAlignedDimension
13
81.82
23
6.423466
33
0
14
76.45
24
0
34
0
50
0
100
AcDbRotatedDimension
1001
ACAD
1000
DSTYLE
1002
{
1070
   371
1070
    13
1070
   372
1070
    13
1070
   170
1070
     0
1070
   144
1040
1.0
1070
   277
1070
     2
1070
   284
1070
     8
1070
   278
1070
    46
1070
   146
1040
1.166667
1070
   345
1005
16
1070
   347
1005
16
1070
   346
1005
16
1070
   344
1005
0
1070
   343
1005
0
1070
   172
1070
     1
1070
    76
1070
     0
1070
    75
1070
     0
1070
   282
1070
     0
1070
   281
1070
     0
1070
    71
1070
     0
1070
    74
1070
     0
1070
   279
1070
     0
1070
   173
1070
     1
1070
   340
1005
1CD
1070
   271
1070
     3
1070
   272
1070
     3
1070
    77
1070
     1
1070
    73
1070
     1
1070
   171
1070
     3
1070
   274
1070
     4
1070
   177
1070
     2
1070
   176
1070
     2
1070
   178
1070
     2
1070
    78
1070
     8
1070
    48
1040
-0.1
1070
    41
1040
3.5
1070
   147
1040
1.5
1070
    42
1040
1.5875
1070
    44
1040
2.0
1070
   140
1040
3.0
1002
}
1001
ACAD_DSTYLE_DIM_LINETYPE
1070
   380
1005
16
1001
ACAD_DSTYLE_DIM_EXT1_LINETYPE
1070
   381
1005
16
1001
ACAD_DSTYLE_DIM_EXT2_LINETYPE
1070
   382
1005
16
0
DIMENSION
5
219
100
AcDbEntity
8
SK2
62
256
6
ByLayer
370
18
48
1
60
0
100
AcDbDimension
2
_U2
10
63.82
20
-13.423466
30
0
11
73.248571
21
-13.423466
31
0
70
32
71
1
72
1
41
1
210
0
220
0
230
1
3
Standard
100
AcDbAlignedDimension
13
81.82
23
-6.423466
33
0
14
63.82
24
-6.423466
34
0
50
0
100
AcDbRotatedDimension
1001
ACAD
1000
DSTYLE
1002
{
1070
   371
1070
    13
1070
   372
1070
    13
1070
   170
1070
     0
1070
   144
1040
1.0
1070
   277
1070
     2
1070
   284
1070
     8
1070
   278
1070
    46
1070
   146
1040
0.833333
1070
   345
1005
16
1070
   347
1005
16
1070
   346
1005
16
1070
   344
1005
0
1070
   343
1005
0
1070
   172
1070
     1
1070
    76
1070
     0
1070
    75
1070
     0
1070
   282
1070
     0
1070
   281
1070
     0
1070
    47
1040
0.5
1070
    72
1070
     0
1070
    71
1070
     1
1070
    74
1070
     0
1070
   279
1070
     0
1070
   173
1070
     1
1070
   340
1005
1CD
1070
   271
1070
     1
1070
   272
1070
     3
1070
    77
1070
     1
1070
    73
1070
     1
1070
   171
1070
     3
1070
   274
1070
     4
1070
   177
1070
     2
1070
   176
1070
     2
1070
   178
1070
     2
1070
    78
1070
     8
1070
    48
1040
0.5
1070
    41
1040
3.5
1070
   147
1040
1.5
1070
    42
1040
1.5875
1070
    44
1040
2.0
1070
   140
1040
3.0
1002
}
1001
ACAD_DSTYLE_DIM_LINETYPE
1070
   380
1005
16
1001
ACAD_DSTYLE_DIM_EXT1_LINETYPE
1070
   381
1005
16
1001
ACAD_DSTYLE_DIM_EXT2_LINETYPE
1070
   382
1005
16
0
DIMENSION
5
232
100
AcDbEntity
8
SK2
62
256
6
ByLayer
370
18
48
1
60
0
100
AcDbDimension
2
_U3
10
26.82
20
-35.923466
30
0
11
54.32
21
-35.923466
31
0
70
32
71
1
72
1
41
1
210
0
220
0
230
1
3
Standard
100
AcDbAlignedDimension
13
81.82
23
-6.423466
33
0
14
26.82
24
-4.511
34
0
50
0
100
AcDbRotatedDimension
1001
ACAD
1000
DSTYLE
1002
{
1070
   371
1070
    13
1070
   372
1070
    13
1070
   170
1070
     0
1070
   144
1040
1.0
1070
   277
1070
     2
1070
   284
1070
     8
1070
   278
1070
    46
1070
   146
1040
1.166667
1070
   345
1005
16
1070
   347
1005
16
1070
   346
1005
16
1070
   344
1005
0
1070
   343
1005
0
1070
   172
1070
     1
1070
    76
1070
     0
1070
    75
1070
     0
1070
   282
1070
     0
1070
   281
1070
     0
1070
    71
1070
     0
1070
    74
1070
     0
1070
   279
1070
     0
1070
   173
1070
     1
1070
   340
1005
1CD
1070
   271
1070
     1
1070
   272
1070
     3
1070
    77
1070
     1
1070
    73
1070
     1
1070
   171
1070
     3
1070
   274
1070
     4
1070
   177
1070
     2
1070
   176
1070
     2
1070
   178
1070
     2
1070
    78
1070
     8
1070
    48
1040
-0.1
1070
    41
1040
3.5
1070
   147
1040
1.5
1070
    42
1040
1.5875
1070
    44
1040
2.0
1070
   140
1040
3.0
1002
}
1001
ACAD_DSTYLE_DIM_LINETYPE
1070
   380
1005
16
1001
ACAD_DSTYLE_DIM_EXT1_LINETYPE
1070
   381
1005
16
1001
ACAD_DSTYLE_DIM_EXT2_LINETYPE
1070
   382
1005
16
0
DIMENSION
5
24A
100
AcDbEntity
8
2
62
256
6
ByLayer
370
18
48
1
60
0
100
AcDbDimension
2
_U4
10
35.07
20
-24.923466
30
0
11
58.445
21
-24.923466
31
0
70
32
71
1
72
1
41
1
210
0
220
0
230
1
3
Standard
100
AcDbAlignedDimension
13
81.82
23
-6.423466
33
0
14
35.07
24
0
34
0
50
0
100
AcDbRotatedDimension
1001
ACAD
1000
DSTYLE
1002
{
1070
   371
1070
    13
1070
   372
1070
    13
1070
   170
1070
     0
1070
   144
1040
1.0
1070
   277
1070
     2
1070
   284
1070
     8
1070
   278
1070
    46
1070
   146
1040
1.166667
1070
   345
1005
16
1070
   347
1005
16
1070
   346
1005
16
1070
   344
1005
0
1070
   343
1005
0
1070
   172
1070
     1
1070
    76
1070
     0
1070
    75
1070
     0
1070
   282
1070
     0
1070
   281
1070
     0
1070
    71
1070
     0
1070
    74
1070
     0
1070
   279
1070
     0
1070
   173
1070
     1
1070
   340
1005
1CD
1070
   271
1070
     1
1070
   272
1070
     3
1070
    77
1070
     1
1070
    73
1070
     1
1070
   171
1070
     3
1070
   274
1070
     4
1070
   177
1070
     2
1070
   176
1070
     2
1070
   178
1070
     2
1070
    78
1070
     8
1070
    48
1040
-0.1
1070
    41
1040
3.5
1070
   147
1040
1.5
1070
    42
1040
1.5875
1070
    44
1040
2.0
1070
   140
1040
3.0
1002
}
1001
ACAD_DSTYLE_DIM_LINETYPE
1070
   380
1005
16
1001
ACAD_DSTYLE_DIM_EXT1_LINETYPE
1070
   381
1005
16
1001
ACAD_DSTYLE_DIM_EXT2_LINETYPE
1070
   382
1005
16
0
ENDSEC
0
SECTION
2
OBJECTS
0
DICTIONARY
5
2d2
330
0
100
AcDbDictionary
280
0
281
1
3
ACAD_GROUP
350
2d3
3
ACAD_MLINESTYLE
350
2d4
0
DICTIONARY
5
2d3
330
0
100
AcDbDictionary
280
0
281
1
0
DICTIONARY
5
2d4
330
0
100
AcDbDictionary
280
0
281
1
3
Standard
350
18
0
MLINESTYLE
5
18
330
2d4
100
AcDbMlineStyle
2
Standard
70
0
3

62
256
51
90
52
90
71
2
49
-0.5
62
256
6
ByLayer
49
0.5
62
256
6
ByLayer
0
RASTERVARIABLES
5
2c0
330

100
AcDbRasterVariables
90
0
70
1
71
1
72
1
0
ENDSEC
0
EOF
