0
SECTION
2
HEADER
9
$ACADVER
1
AC1015
9
$DWGCODEPAGE
3
ANSI_1252
9
$HANDSEED
5
310
9
$ANGBASE
50
0
9
$ANGDIR
70
0
9
$ATTMODE
70
1
9
$AUNITS
70
0
9
$AUPREC
70
0
9
$CECOLOR
62
256
9
$CELTSCALE
40
1
9
$CELTYPE
6
ByLayer
9
$CELWEIGHT
370
18
9
$CLAYER
8
0
9
$CMLJUST
70
0
9
$CMLSCALE
40
1
9
$CMLSTYLE
2
Standard
9
$DIMSTYLE
2
Standard
9
$TEXTSIZE
40
0.2
9
$TEXTSTYLE
7
Standard
9
$LUNITS
70
2
9
$LUPREC
70
4
9
$EXTNAMES
290
1
9
$INSUNITS
70
4
9
$LTSCALE
40
1
9
$LWDISPLAY
290
1
9
$PDMODE
70
0
9
$PDSIZE
40
0
9
$PLINEGEN
70
0
0
ENDSEC
0
SECTION
2
CLASSES
0
CLASS
1
RASTERVARIABLES
2
AcDbRasterVariables
3
ISM
90
0
280
0
281
0
0
ENDSEC
0
SECTION
2
TABLES
0
TABLE
2
VPORT
5
306
100
AcDbSymbolTable
0
VPORT
5
1
100
AcDbSymbolTableRecord
100
AcDbViewportTableRecord
2
*Active
70
0
10
0
20
0
11
1
21
1
12
-1
22
1
13
0
23
0
14
0.5
24
0.5
15
10
25
10
16
0
26
0
36
1
17
0
27
0
37
0
0
ENDTAB
0
TABLE
2
LTYPE
5
307
100
AcDbSymbolTable
0
LTYPE
5
14
100
AcDbSymbolTableRecord
100
AcDbLinetypeTableRecord
70
0
2
ByBlock
3

72
65
73
0
40
0
0
LTYPE
5
15
100
AcDbSymbolTableRecord
100
AcDbLinetypeTableRecord
70
0
2
ByLayer
3

72
65
73
0
40
0
0
LTYPE
5
16
100
AcDbSymbolTableRecord
100
AcDbLinetypeTableRecord
70
0
2
Continuous
3
Solid line
72
65
73
0
40
0
0
LTYPE
5
6E
100
AcDbSymbolTableRecord
100
AcDbLinetypeTableRecord
70
0
2
CENTER
3
____ _ ____ _ ____ _ ____
72
65
73
4
40
47.5
49
22
74
0
49
-8.5
74
0
49
8.5
74
0
49
-8.5
74
0
0
LTYPE
5
6F
100
AcDbSymbolTableRecord
100
AcDbLinetypeTableRecord
70
0
2
DASHED
3
__ __ __ __ __ __ __ __ __
72
65
73
2
40
25.72
49
12.86
74
0
49
-12.86
74
0
0
ENDTAB
0
TABLE
2
LAYER
5
308
100
AcDbSymbolTable
0
LAYER
5
10
100
AcDbSymbolTableRecord
100
AcDbLayerTableRecord
2
0
70
0
62
7
6
Continuous
290
1
370
-3
390
0
0
LAYER
5
71
100
AcDbSymbolTableRecord
100
AcDbLayerTableRecord
2
80
70
0
62
-6
6
Continuous
290
1
370
-3
390
0
0
LAYER
5
73
100
AcDbSymbolTableRecord
100
AcDbLayerTableRecord
2
81
70
0
62
-3
6
Continuous
290
1
370
-3
390
0
0
LAYER
5
75
100
AcDbSymbolTableRecord
100
AcDbLayerTableRecord
2
1
70
0
62
4
6
Continuous
290
1
370
-3
390
0
0
LAYER
5
81
100
AcDbSymbolTableRecord
100
AcDbLayerTableRecord
2
4
70
0
62
-2
6
CENTER
290
1
370
-3
390
0
0
LAYER
5
CB
100
AcDbSymbolTableRecord
100
AcDbLayerTableRecord
2
2
70
0
62
7
6
Continuous
290
1
370
-3
390
0
0
LAYER
5
216
100
AcDbSymbolTableRecord
100
AcDbLayerTableRecord
2
Defpoints
70
0
62
7
6
Continuous
290
0
370
-3
390
0
0
LAYER
5
2f2
100
AcDbSymbolTableRecord
100
AcDbLayerTableRecord
2
SK4
70
0
62
2
6
CENTER
290
1
370
-3
390
0
0
LAYER
5
2f3
100
AcDbSymbolTableRecord
100
AcDbLayerTableRecord
2
SK1
70
0
62
4
6
Continuous
290
1
370
-3
390
0
0
LAYER
5
2f4
100
AcDbSymbolTableRecord
100
AcDbLayerTableRecord
2
SK2
70
0
62
7
6
Continuous
290
1
370
-3
390
0
0
LAYER
5
2f5
100
AcDbSymbolTableRecord
100
AcDbLayerTableRecord
2
SK6
70
0
62
5
6
Continuous
290
1
370
-3
390
0
0
ENDTAB
0
TABLE
2
STYLE
5
309
100
AcDbSymbolTable
0
STYLE
5
11
100
AcDbSymbolTableRecord
100
AcDbTextStyleTableRecord
2
Standard
3
txt
70
0
71
0
40
0
41
1
42
0
50
0
0
STYLE
5
1FC
100
AcDbSymbolTableRecord
100
AcDbTextStyleTableRecord
2
iso_b_vert
3
simplex.shx
70
0
71
0
40
0
41
1
42
0
50
0
0
STYLE
5
1FD
100
AcDbSymbolTableRecord
100
AcDbTextStyleTableRecord
2
DWGDirectTextStyle
3
simplex
70
0
71
0
40
0
41
1
42
0
50
0
0
ENDTAB
0
TABLE
2
DIMSTYLE
5
30a
100
AcDbSymbolTable
100
AcDbDimStyleTable
0
DIMSTYLE
105
27
100
AcDbSymbolTableRecord
100
AcDbDimStyleTableRecord
2
Standard
70
0
3
<>
41
0.18
42
0.0625
44
0.18
140
0.18
147
0.09
73
0
74
0
77
1
271
2
275
0
278
52
280
0
340
11
0
ENDTAB
0
TABLE
2
VIEW
5
30b
100
AcDbSymbolTable
0
ENDTAB
0
TABLE
2
UCS
5
30c
100
AcDbSymbolTable
0
ENDTAB
0
TABLE
2
APPID
5
30d
100
AcDbSymbolTable
0
APPID
5
12
100
AcDbSymbolTableRecord
100
AcDbRegAppTableRecord
2
ACAD
70
0
0
APPID
5
212
100
AcDbSymbolTableRecord
100
AcDbRegAppTableRecord
2
ACAD_DSTYLE_DIMBREAK
70
0
0
APPID
5
2B1
100
AcDbSymbolTableRecord
100
AcDbRegAppTableRecord
2
ACAD_DSTYLE_DIM_LINETYPE
70
0
0
APPID
5
2B2
100
AcDbSymbolTableRecord
100
AcDbRegAppTableRecord
2
ACAD_DSTYLE_DIM_EXT1_LINETYPE
70
0
0
APPID
5
2B3
100
AcDbSymbolTableRecord
100
AcDbRegAppTableRecord
2
ACAD_DSTYLE_DIM_EXT2_LINETYPE
70
0
0
APPID
5
2EE
100
AcDbSymbolTableRecord
100
AcDbRegAppTableRecord
2
ACAD_MLEADERVER
70
0
0
ENDTAB
0
TABLE
2
BLOCK_RECORD
5
30e
100
AcDbSymbolTable
0
BLOCK_RECORD
5
1F
100
AcDbSymbolTableRecord
100
AcDbBlockTableRecord
2
*Model_Space
340
0
70
0
0
BLOCK_RECORD
5
1B
100
AcDbSymbolTableRecord
100
AcDbBlockTableRecord
2
*Paper_Space
340
0
70
0
0
BLOCK_RECORD
5
23
100
AcDbSymbolTableRecord
100
AcDbBlockTableRecord
2
*Paper_Space0
340
0
70
0
0
BLOCK_RECORD
5
217
100
AcDbSymbolTableRecord
100
AcDbBlockTableRecord
2
*D1
340
0
70
0
0
BLOCK_RECORD
5
225
100
AcDbSymbolTableRecord
100
AcDbBlockTableRecord
2
_U0
340
0
70
0
0
BLOCK_RECORD
5
231
100
AcDbSymbolTableRecord
100
AcDbBlockTableRecord
2
*D3
340
0
70
0
0
BLOCK_RECORD
5
23E
100
AcDbSymbolTableRecord
100
AcDbBlockTableRecord
2
_U1
340
0
70
0
0
BLOCK_RECORD
5
24B
100
AcDbSymbolTableRecord
100
AcDbBlockTableRecord
2
*D5
340
0
70
0
0
BLOCK_RECORD
5
259
100
AcDbSymbolTableRecord
100
AcDbBlockTableRecord
2
_U2
340
0
70
0
0
BLOCK_RECORD
5
266
100
AcDbSymbolTableRecord
100
AcDbBlockTableRecord
2
*D7
340
0
70
0
0
BLOCK_RECORD
5
272
100
AcDbSymbolTableRecord
100
AcDbBlockTableRecord
2
_U3
340
0
70
0
0
BLOCK_RECORD
5
27E
100
AcDbSymbolTableRecord
100
AcDbBlockTableRecord
2
*D9
340
0
70
0
0
BLOCK_RECORD
5
28A
100
AcDbSymbolTableRecord
100
AcDbBlockTableRecord
2
_U4
340
0
70
0
0
ENDTAB
0
ENDSEC
0
SECTION
2
BLOCKS
0
BLOCK
5
20
100
AcDbEntity
8
0
100
AcDbBlockBegin
2
*Model_Space
70
0
10
0
20
0
30
0
3
*Model_Space
0
ENDBLK
5
21
100
AcDbEntity
8
0
100
AcDbBlockEnd
0
BLOCK
5
1C
100
AcDbEntity
8
0
100
AcDbBlockBegin
2
*Paper_Space
70
0
10
0
20
0
30
0
3
*Paper_Space
0
ENDBLK
5
1D
100
AcDbEntity
8
0
100
AcDbBlockEnd
0
BLOCK
5
24
100
AcDbEntity
8
0
100
AcDbBlockBegin
2
*Paper_Space0
70
0
10
0
20
0
30
0
3
*Paper_Space0
0
ENDBLK
5
25
100
AcDbEntity
8
0
100
AcDbBlockEnd
0
BLOCK
5
218
100
AcDbEntity
8
0
100
AcDbBlockBegin
2
*D1
70
1
10
0
20
0
30
0
3
*D1
0
LINE
5
21A
100
AcDbEntity
8
0
62
256
6
ByLayer
370
-2
48
1
60
0
100
AcDbLine
10
48.5875
20
2.454793
30
0
11
67.665207
21
2.454793
31
0
39
0
210
0
220
0
230
1
0
LINE
5
21B
100
AcDbEntity
8
0
62
256
6
ByLayer
370
-2
48
1
60
0
100
AcDbLine
10
48.5875
20
-2.454793
30
0
11
67.665207
21
-2.454793
31
0
39
0
210
0
220
0
230
1
0
LINE
5
21C
100
AcDbEntity
8
0
62
256
6
ByLayer
370
-2
48
1
60
0
100
AcDbLine
10
65.665207
20
2.454793
30
0
11
65.665207
21
30.45982
31
0
39
0
210
0
220
0
230
1
0
LINE
5
21D
100
AcDbEntity
8
0
62
256
6
ByLayer
370
-2
48
1
60
0
100
AcDbLine
10
65.665207
20
5.954793
30
0
11
65.665207
21
9.454793
31
0
39
0
210
0
220
0
230
1
0
LINE
5
21E
100
AcDbEntity
8
0
62
256
6
ByLayer
370
-2
48
1
60
0
100
AcDbLine
10
65.665207
20
-5.954793
30
0
11
65.665207
21
-9.454793
31
0
39
0
210
0
220
0
230
1
0
SOLID
5
21F
100
AcDbEntity
8
0
62
256
6
ByLayer
370
-1
48
1
60
0
100
AcDbTrace
10
65.081873
20
5.954793
30
0
11
66.24854
21
5.954793
31
0
12
65.665207
22
2.454793
32
0
13
65.665207
23
2.454793
33
0
39
0
210
0
220
0
230
1
0
SOLID
5
220
100
AcDbEntity
8
0
62
256
6
ByLayer
370
-1
48
1
60
0
100
AcDbTrace
10
66.24854
20
-5.954793
30
0
11
65.081873
21
-5.954793
31
0
12
65.665207
22
-2.454793
32
0
13
65.665207
23
-2.454793
33
0
39
0
210
0
220
0
230
1
0
MTEXT
5
221
100
AcDbEntity
8
0
62
256
6
ByLayer
370
18
48
1
60
0
100
AcDbMText
10
59.665207
20
21.816963
30
0
210
0
220
0
230
1
1
\A1;4.91
40
3
41
0
44
1
50
90
71
5
72
5
7
iso_b_vert
0
POINT
5
222
100
AcDbEntity
8
Defpoints
62
0
6
ByLayer
370
-1
48
1
60
0
100
AcDbPoint
10
47
20
2.454793
30
0
39
0
210
0
220
0
230
1
50
360
0
POINT
5
223
100
AcDbEntity
8
Defpoints
62
0
6
ByLayer
370
-1
48
1
60
0
100
AcDbPoint
10
47
20
-2.454793
30
0
39
0
210
0
220
0
230
1
50
360
0
POINT
5
224
100
AcDbEntity
8
Defpoints
62
0
6
ByLayer
370
-1
48
1
60
0
100
AcDbPoint
10
65.665207
20
-2.454793
30
0
39
0
210
0
220
0
230
1
50
360
0
ENDBLK
5
219
100
AcDbEntity
8
0
100
AcDbBlockEnd
0
BLOCK
5
22C
100
AcDbEntity
8
0
100
AcDbBlockBegin
2
_U0
70
0
10
0
20
0
30
0
3
_U0
0
MTEXT
5
226
100
AcDbEntity
8
2
62
256
6
ByLayer
370
18
48
1
60
0
100
AcDbMText
10
65.074092
20
12.589793
30
0
210
0
220
0
230
1
1
\W0.7039;UNF 10-32
40
3
41
0
44
1.084337
50
90
71
7
72
5
7
iso_b_vert
0
LINE
5
227
100
AcDbEntity
8
2
62
256
6
ByLayer
370
13
48
1
60
0
100
AcDbLine
10
48.5875
20
2.454793
30
0
11
67.665207
21
2.454793
31
0
39
0
210
0
220
0
230
1
0
LINE
5
228
100
AcDbEntity
8
2
62
256
6
ByLayer
370
13
48
1
60
0
100
AcDbLine
10
48.5875
20
-2.454793
30
0
11
67.665207
21
-2.454793
31
0
39
0
210
0
220
0
230
1
0
LINE
5
229
100
AcDbEntity
8
2
62
256
6
ByLayer
370
13
48
1
60
0
100
AcDbLine
10
65.665207
20
-9.954793
30
0
11
65.665207
21
31.179133
31
0
39
0
210
0
220
0
230
1
0
SOLID
5
22A
100
AcDbEntity
8
2
62
256
6
ByLayer
370
18
48
1
60
0
100
AcDbTrace
10
65.665207
20
2.454793
30
0
11
65.204423
21
5.954792
31
0
12
66.12599
22
5.954795
32
0
13
66.12599
23
5.954795
33
0
39
0
210
0
220
0
230
1
0
SOLID
5
22B
100
AcDbEntity
8
2
62
256
6
ByLayer
370
18
48
1
60
0
100
AcDbTrace
10
65.665207
20
-2.454793
30
0
11
66.12599
21
-5.954792
31
0
12
65.204423
22
-5.954795
32
0
13
65.204423
23
-5.954795
33
0
39
0
210
0
220
0
230
1
0
ENDBLK
5
22D
100
AcDbEntity
8
0
100
AcDbBlockEnd
0
BLOCK
5
232
100
AcDbEntity
8
0
100
AcDbBlockBegin
2
*D3
70
1
10
0
20
0
30
0
3
*D3
0
LINE
5
234
100
AcDbEntity
8
0
62
256
6
ByLayer
370
-2
48
1
60
0
100
AcDbLine
10
47
20
4.042293
30
0
11
47
21
13.85
31
0
39
0
210
0
220
0
230
1
0
LINE
5
235
100
AcDbEntity
8
0
62
256
6
ByLayer
370
-2
48
1
60
0
100
AcDbLine
10
44.82
20
1.5875
30
0
11
44.82
21
13.85
31
0
39
0
210
0
220
0
230
1
0
LINE
5
236
100
AcDbEntity
8
0
62
256
6
ByLayer
370
-2
48
1
60
0
100
AcDbLine
10
50.5
20
11.85
30
0
11
54
21
11.85
31
0
39
0
210
0
220
0
230
1
0
LINE
5
237
100
AcDbEntity
8
0
62
256
6
ByLayer
370
-2
48
1
60
0
100
AcDbLine
10
41.32
20
11.85
30
0
11
37.82
21
11.85
31
0
39
0
210
0
220
0
230
1
0
SOLID
5
238
100
AcDbEntity
8
0
62
256
6
ByLayer
370
-1
48
1
60
0
100
AcDbTrace
10
50.5
20
12.433333
30
0
11
50.5
21
11.266667
31
0
12
47
22
11.85
32
0
13
47
23
11.85
33
0
39
0
210
0
220
0
230
1
0
SOLID
5
239
100
AcDbEntity
8
0
62
256
6
ByLayer
370
-1
48
1
60
0
100
AcDbTrace
10
41.32
20
11.266667
30
0
11
41.32
21
12.433333
31
0
12
44.82
22
11.85
32
0
13
44.82
23
11.85
33
0
39
0
210
0
220
0
230
1
0
MTEXT
5
23A
100
AcDbEntity
8
0
62
256
6
ByLayer
370
18
48
1
60
0
100
AcDbMText
10
45.91
20
17.85
30
0
210
0
220
0
230
1
1
\A1;2.18
40
3
41
0
44
1
50
0
71
5
72
5
7
iso_b_vert
0
POINT
5
23B
100
AcDbEntity
8
Defpoints
62
0
6
ByLayer
370
-1
48
1
60
0
100
AcDbPoint
10
47
20
2.454793
30
0
39
0
210
0
220
0
230
1
50
360
0
POINT
5
23C
100
AcDbEntity
8
Defpoints
62
0
6
ByLayer
370
-1
48
1
60
0
100
AcDbPoint
10
44.82
20
0
30
0
39
0
210
0
220
0
230
1
50
360
0
POINT
5
23D
100
AcDbEntity
8
Defpoints
62
0
6
ByLayer
370
-1
48
1
60
0
100
AcDbPoint
10
44.82
20
11.85
30
0
39
0
210
0
220
0
230
1
50
360
0
ENDBLK
5
233
100
AcDbEntity
8
0
100
AcDbBlockEnd
0
BLOCK
5
246
100
AcDbEntity
8
0
100
AcDbBlockBegin
2
_U1
70
0
10
0
20
0
30
0
3
_U1
0
MTEXT
5
23F
100
AcDbEntity
8
SK2
62
256
6
ByLayer
370
18
48
1
60
0
100
AcDbMText
10
42.949986
20
12.632634
30
0
210
0
220
0
230
1
1
\W0.6474;'C'
40
3.5
41
0
44
1.084337
50
0
71
7
72
5
7
iso_b_vert
0
MTEXT
5
240
100
AcDbEntity
8
SK2
62
256
6
ByLayer
370
18
48
1
60
0
100
AcDbMText
10
42.923486
20
19.735114
30
0
210
0
220
0
230
1
1
\W0.6563;2.18
40
3
41
0
44
1.084337
50
0
71
7
72
5
7
iso_b_vert
0
LINE
5
241
100
AcDbEntity
8
SK2
62
256
6
ByLayer
370
13
48
1
60
0
100
AcDbLine
10
47
20
4.042293
30
0
11
47
21
13.85
31
0
39
0
210
0
220
0
230
1
0
LINE
5
242
100
AcDbEntity
8
SK2
62
256
6
ByLayer
370
13
48
1
60
0
100
AcDbLine
10
44.82
20
1.5875
30
0
11
44.82
21
13.85
31
0
39
0
210
0
220
0
230
1
0
LINE
5
243
100
AcDbEntity
8
SK2
62
256
6
ByLayer
370
13
48
1
60
0
100
AcDbLine
10
54.5
20
11.85
30
0
11
37.32
21
11.85
31
0
39
0
210
0
220
0
230
1
0
SOLID
5
244
100
AcDbEntity
8
SK2
62
256
6
ByLayer
370
18
48
1
60
0
100
AcDbTrace
10
47
20
11.85
30
0
11
50.499998
21
12.310784
31
0
12
50.500002
22
11.389216
32
0
13
50.500002
23
11.389216
33
0
39
0
210
0
220
0
230
1
0
SOLID
5
245
100
AcDbEntity
8
SK2
62
256
6
ByLayer
370
18
48
1
60
0
100
AcDbTrace
10
44.82
20
11.85
30
0
11
41.320002
21
11.389216
31
0
12
41.319998
22
12.310784
32
0
13
41.319998
23
12.310784
33
0
39
0
210
0
220
0
230
1
0
ENDBLK
5
247
100
AcDbEntity
8
0
100
AcDbBlockEnd
0
BLOCK
5
24C
100
AcDbEntity
8
0
100
AcDbBlockBegin
2
*D5
70
1
10
0
20
0
30
0
3
*D5
0
LINE
5
24E
100
AcDbEntity
8
0
62
256
6
ByLayer
370
-2
48
1
60
0
100
AcDbLine
10
47
20
-4.042293
30
0
11
47
21
-11.454793
31
0
39
0
210
0
220
0
230
1
0
LINE
5
24F
100
AcDbEntity
8
0
62
256
6
ByLayer
370
-2
48
1
60
0
100
AcDbLine
10
39
20
-4.042293
30
0
11
39
21
-11.454793
31
0
39
0
210
0
220
0
230
1
0
LINE
5
250
100
AcDbEntity
8
0
62
256
6
ByLayer
370
-2
48
1
60
0
100
AcDbLine
10
47
20
-9.454793
30
0
11
65
21
-9.454793
31
0
39
0
210
0
220
0
230
1
0
LINE
5
251
100
AcDbEntity
8
0
62
256
6
ByLayer
370
-2
48
1
60
0
100
AcDbLine
10
50.5
20
-9.454793
30
0
11
54
21
-9.454793
31
0
39
0
210
0
220
0
230
1
0
LINE
5
252
100
AcDbEntity
8
0
62
256
6
ByLayer
370
-2
48
1
60
0
100
AcDbLine
10
35.5
20
-9.454793
30
0
11
32
21
-9.454793
31
0
39
0
210
0
220
0
230
1
0
SOLID
5
253
100
AcDbEntity
8
0
62
256
6
ByLayer
370
-1
48
1
60
0
100
AcDbTrace
10
50.5
20
-8.87146
30
0
11
50.5
21
-10.038127
31
0
12
47
22
-9.454793
32
0
13
47
23
-9.454793
33
0
39
0
210
0
220
0
230
1
0
SOLID
5
254
100
AcDbEntity
8
0
62
256
6
ByLayer
370
-1
48
1
60
0
100
AcDbTrace
10
35.5
20
-10.038127
30
0
11
35.5
21
-8.87146
31
0
12
39
22
-9.454793
32
0
13
39
23
-9.454793
33
0
39
0
210
0
220
0
230
1
0
MTEXT
5
255
100
AcDbEntity
8
0
62
256
6
ByLayer
370
18
48
1
60
0
100
AcDbMText
10
59.5
20
-3.454793
30
0
210
0
220
0
230
1
1
\A1;8
40
3
41
0
44
1
50
0
71
5
72
5
7
iso_b_vert
0
POINT
5
256
100
AcDbEntity
8
Defpoints
62
0
6
ByLayer
370
-1
48
1
60
0
100
AcDbPoint
10
47
20
-2.454793
30
0
39
0
210
0
220
0
230
1
50
360
0
POINT
5
257
100
AcDbEntity
8
Defpoints
62
0
6
ByLayer
370
-1
48
1
60
0
100
AcDbPoint
10
39
20
-2.454793
30
0
39
0
210
0
220
0
230
1
50
360
0
POINT
5
258
100
AcDbEntity
8
Defpoints
62
0
6
ByLayer
370
-1
48
1
60
0
100
AcDbPoint
10
39
20
-9.454793
30
0
39
0
210
0
220
0
230
1
50
360
0
ENDBLK
5
24D
100
AcDbEntity
8
0
100
AcDbBlockEnd
0
BLOCK
5
261
100
AcDbEntity
8
0
100
AcDbBlockBegin
2
_U2
70
0
10
0
20
0
30
0
3
_U2
0
MTEXT
5
25A
100
AcDbEntity
8
SK2
62
256
6
ByLayer
370
18
48
1
60
0
100
AcDbMText
10
53.159
20
-8.569679
30
0
210
0
220
0
230
1
1
\W0.5404;8
40
3
41
0
44
1.084337
50
0
71
7
72
5
7
iso_b_vert
0
MTEXT
5
25B
100
AcDbEntity
8
SK2
62
256
6
ByLayer
370
18
48
1
60
0
100
AcDbMText
10
56.974328
20
-8.217198
30
0
210
0
220
0
230
1
1
\W0.8315;\W0.4158;%%p\W0.8315;0.5
40
2.5
41
0
44
1.084337
50
0
71
7
72
5
7
iso_b_vert
0
LINE
5
25C
100
AcDbEntity
8
SK2
62
256
6
ByLayer
370
13
48
1
60
0
100
AcDbLine
10
47
20
-4.042293
30
0
11
47
21
-11.454793
31
0
39
0
210
0
220
0
230
1
0
LINE
5
25D
100
AcDbEntity
8
SK2
62
256
6
ByLayer
370
13
48
1
60
0
100
AcDbLine
10
39
20
-4.042293
30
0
11
39
21
-11.454793
31
0
39
0
210
0
220
0
230
1
0
LINE
5
25E
100
AcDbEntity
8
SK2
62
256
6
ByLayer
370
13
48
1
60
0
100
AcDbLine
10
39
20
-9.454793
30
0
11
64.091065
21
-9.454793
31
0
39
0
210
0
220
0
230
1
0
SOLID
5
25F
100
AcDbEntity
8
SK2
62
256
6
ByLayer
370
18
48
1
60
0
100
AcDbTrace
10
47
20
-9.454793
30
0
11
43.500002
21
-9.915577
31
0
12
43.499998
22
-8.99401
32
0
13
43.499998
23
-8.99401
33
0
39
0
210
0
220
0
230
1
0
SOLID
5
260
100
AcDbEntity
8
SK2
62
256
6
ByLayer
370
18
48
1
60
0
100
AcDbTrace
10
39
20
-9.454793
30
0
11
42.499998
21
-8.99401
31
0
12
42.500002
22
-9.915577
32
0
13
42.500002
23
-9.915577
33
0
39
0
210
0
220
0
230
1
0
ENDBLK
5
262
100
AcDbEntity
8
0
100
AcDbBlockEnd
0
BLOCK
5
267
100
AcDbEntity
8
0
100
AcDbBlockBegin
2
*D7
70
1
10
0
20
0
30
0
3
*D7
0
LINE
5
269
100
AcDbEntity
8
0
62
256
6
ByLayer
370
-2
48
1
60
0
100
AcDbLine
10
47
20
-4.042293
30
0
11
47
21
-33.954793
31
0
39
0
210
0
220
0
230
1
0
LINE
5
26A
100
AcDbEntity
8
0
62
256
6
ByLayer
370
-2
48
1
60
0
100
AcDbLine
10
22
20
-3.4352
30
0
11
22
21
-33.954793
31
0
39
0
210
0
220
0
230
1
0
LINE
5
26B
100
AcDbEntity
8
0
62
256
6
ByLayer
370
-2
48
1
60
0
100
AcDbLine
10
43.5
20
-31.954793
30
0
11
25.5
21
-31.954793
31
0
39
0
210
0
220
0
230
1
0
SOLID
5
26C
100
AcDbEntity
8
0
62
256
6
ByLayer
370
-1
48
1
60
0
100
AcDbTrace
10
43.5
20
-32.538127
30
0
11
43.5
21
-31.37146
31
0
12
47
22
-31.954793
32
0
13
47
23
-31.954793
33
0
39
0
210
0
220
0
230
1
0
SOLID
5
26D
100
AcDbEntity
8
0
62
256
6
ByLayer
370
-1
48
1
60
0
100
AcDbTrace
10
25.5
20
-31.37146
30
0
11
25.5
21
-32.538127
31
0
12
22
22
-31.954793
32
0
13
22
23
-31.954793
33
0
39
0
210
0
220
0
230
1
0
MTEXT
5
26E
100
AcDbEntity
8
0
62
256
6
ByLayer
370
18
48
1
60
0
100
AcDbMText
10
34.5
20
-25.954793
30
0
210
0
220
0
230
1
1
\A1;25
40
3
41
0
44
1
50
0
71
5
72
5
7
iso_b_vert
0
POINT
5
26F
100
AcDbEntity
8
Defpoints
62
0
6
ByLayer
370
-1
48
1
60
0
100
AcDbPoint
10
47
20
-2.454793
30
0
39
0
210
0
220
0
230
1
50
360
0
POINT
5
270
100
AcDbEntity
8
Defpoints
62
0
6
ByLayer
370
-1
48
1
60
0
100
AcDbPoint
10
22
20
-1.8477
30
0
39
0
210
0
220
0
230
1
50
360
0
POINT
5
271
100
AcDbEntity
8
Defpoints
62
0
6
ByLayer
370
-1
48
1
60
0
100
AcDbPoint
10
22
20
-31.954793
30
0
39
0
210
0
220
0
230
1
50
360
0
ENDBLK
5
268
100
AcDbEntity
8
0
100
AcDbBlockEnd
0
BLOCK
5
279
100
AcDbEntity
8
0
100
AcDbBlockBegin
2
_U3
70
0
10
0
20
0
30
0
3
_U3
0
MTEXT
5
273
100
AcDbEntity
8
SK2
62
256
6
ByLayer
370
18
48
1
60
0
100
AcDbMText
10
32.867172
20
-31.069679
30
0
210
0
220
0
230
1
1
\W0.6740;25
40
3
41
0
44
1.084337
50
0
71
7
72
5
7
iso_b_vert
0
LINE
5
274
100
AcDbEntity
8
SK2
62
256
6
ByLayer
370
13
48
1
60
0
100
AcDbLine
10
47
20
-4.042293
30
0
11
47
21
-33.954793
31
0
39
0
210
0
220
0
230
1
0
LINE
5
275
100
AcDbEntity
8
SK2
62
256
6
ByLayer
370
13
48
1
60
0
100
AcDbLine
10
22
20
-3.4352
30
0
11
22
21
-33.954793
31
0
39
0
210
0
220
0
230
1
0
LINE
5
276
100
AcDbEntity
8
SK2
62
256
6
ByLayer
370
13
48
1
60
0
100
AcDbLine
10
47
20
-31.954793
30
0
11
22
21
-31.954793
31
0
39
0
210
0
220
0
230
1
0
SOLID
5
277
100
AcDbEntity
8
SK2
62
256
6
ByLayer
370
18
48
1
60
0
100
AcDbTrace
10
47
20
-31.954793
30
0
11
43.500002
21
-32.415577
31
0
12
43.499998
22
-31.49401
32
0
13
43.499998
23
-31.49401
33
0
39
0
210
0
220
0
230
1
0
SOLID
5
278
100
AcDbEntity
8
SK2
62
256
6
ByLayer
370
18
48
1
60
0
100
AcDbTrace
10
22
20
-31.954793
30
0
11
25.499998
21
-31.49401
31
0
12
25.500002
22
-32.415577
32
0
13
25.500002
23
-32.415577
33
0
39
0
210
0
220
0
230
1
0
ENDBLK
5
27A
100
AcDbEntity
8
0
100
AcDbBlockEnd
0
BLOCK
5
27F
100
AcDbEntity
8
0
100
AcDbBlockBegin
2
*D9
70
1
10
0
20
0
30
0
3
*D9
0
LINE
5
281
100
AcDbEntity
8
0
62
256
6
ByLayer
370
-2
48
1
60
0
100
AcDbLine
10
47
20
-4.042293
30
0
11
47
21
-22.954793
31
0
39
0
210
0
220
0
230
1
0
LINE
5
282
100
AcDbEntity
8
0
62
256
6
ByLayer
370
-2
48
1
60
0
100
AcDbLine
10
25.75
20
-1.5875
30
0
11
25.75
21
-22.954793
31
0
39
0
210
0
220
0
230
1
0
LINE
5
283
100
AcDbEntity
8
0
62
256
6
ByLayer
370
-2
48
1
60
0
100
AcDbLine
10
43.5
20
-20.954793
30
0
11
29.25
21
-20.954793
31
0
39
0
210
0
220
0
230
1
0
SOLID
5
284
100
AcDbEntity
8
0
62
256
6
ByLayer
370
-1
48
1
60
0
100
AcDbTrace
10
43.5
20
-21.538127
30
0
11
43.5
21
-20.37146
31
0
12
47
22
-20.954793
32
0
13
47
23
-20.954793
33
0
39
0
210
0
220
0
230
1
0
SOLID
5
285
100
AcDbEntity
8
0
62
256
6
ByLayer
370
-1
48
1
60
0
100
AcDbTrace
10
29.25
20
-20.37146
30
0
11
29.25
21
-21.538127
31
0
12
25.75
22
-20.954793
32
0
13
25.75
23
-20.954793
33
0
39
0
210
0
220
0
230
1
0
MTEXT
5
286
100
AcDbEntity
8
0
62
256
6
ByLayer
370
18
48
1
60
0
100
AcDbMText
10
36.375
20
-14.954793
30
0
210
0
220
0
230
1
1
\A1;21.3
40
3
41
0
44
1
50
0
71
5
72
5
7
iso_b_vert
0
POINT
5
287
100
AcDbEntity
8
Defpoints
62
0
6
ByLayer
370
-1
48
1
60
0
100
AcDbPoint
10
47
20
-2.454793
30
0
39
0
210
0
220
0
230
1
50
360
0
POINT
5
288
100
AcDbEntity
8
Defpoints
62
0
6
ByLayer
370
-1
48
1
60
0
100
AcDbPoint
10
25.75
20
0
30
0
39
0
210
0
220
0
230
1
50
360
0
POINT
5
289
100
AcDbEntity
8
Defpoints
62
0
6
ByLayer
370
-1
48
1
60
0
100
AcDbPoint
10
25.75
20
-20.954793
30
0
39
0
210
0
220
0
230
1
50
360
0
ENDBLK
5
280
100
AcDbEntity
8
0
100
AcDbBlockEnd
0
BLOCK
5
291
100
AcDbEntity
8
0
100
AcDbBlockBegin
2
_U4
70
0
10
0
20
0
30
0
3
_U4
0
MTEXT
5
28B
100
AcDbEntity
8
2
62
256
6
ByLayer
370
18
48
1
60
0
100
AcDbMText
10
33.388486
20
-20.069679
30
0
210
0
220
0
230
1
1
\W0.6563;21.2
40
3
41
0
44
1.084337
50
0
71
7
72
5
7
iso_b_vert
0
LINE
5
28C
100
AcDbEntity
8
2
62
256
6
ByLayer
370
13
48
1
60
0
100
AcDbLine
10
47
20
-4.042293
30
0
11
47
21
-22.954793
31
0
39
0
210
0
220
0
230
1
0
LINE
5
28D
100
AcDbEntity
8
2
62
256
6
ByLayer
370
13
48
1
60
0
100
AcDbLine
10
25.75
20
-1.5875
30
0
11
25.75
21
-22.954793
31
0
39
0
210
0
220
0
230
1
0
LINE
5
28E
100
AcDbEntity
8
2
62
256
6
ByLayer
370
13
48
1
60
0
100
AcDbLine
10
47
20
-20.954793
30
0
11
25.75
21
-20.954793
31
0
39
0
210
0
220
0
230
1
0
SOLID
5
28F
100
AcDbEntity
8
2
62
256
6
ByLayer
370
18
48
1
60
0
100
AcDbTrace
10
47
20
-20.954793
30
0
11
43.500002
21
-21.415577
31
0
12
43.499998
22
-20.49401
32
0
13
43.499998
23
-20.49401
33
0
39
0
210
0
220
0
230
1
0
SOLID
5
290
100
AcDbEntity
8
2
62
256
6
ByLayer
370
18
48
1
60
0
100
AcDbTrace
10
25.75
20
-20.954793
30
0
11
29.249998
21
-20.49401
31
0
12
29.250002
22
-21.415577
32
0
13
29.250002
23
-21.415577
33
0
39
0
210
0
220
0
230
1
0
ENDBLK
5
292
100
AcDbEntity
8
0
100
AcDbBlockEnd
0
ENDSEC
0
SECTION
2
ENTITIES
0
ARC
5
D4
100
AcDbEntity
8
SK1
62
256
6
ByLayer
370
18
48
1
60
0
100
AcDbCircle
39
0
10
-17.45
20
0
30
0
40
2.87999999999977
210
0
220
0
230
1
100
AcDbArc
50
328.287282
51
31.712718
0
ARC
5
D5
100
AcDbEntity
8
1
62
256
6
ByLayer
370
18
48
1
60
0
100
AcDbCircle
39
0
10
37.675945
20
2.3477
30
0
40
0.5
210
0
220
0
230
1
100
AcDbArc
50
270
51
286.802267
0
ARC
5
D6
100
AcDbEntity
8
1
62
256
6
ByLayer
370
18
48
1
60
0
100
AcDbCircle
39
0
10
22.043744
20
-2.3477
30
0
40
0.5
210
0
220
0
230
1
100
AcDbArc
50
90
51
100
0
ARC
5
D7
100
AcDbEntity
8
1
62
256
6
ByLayer
370
18
48
1
60
0
100
AcDbCircle
39
0
10
22.043744
20
2.3477
30
0
40
0.5
210
0
220
0
230
1
100
AcDbArc
50
260
51
270
0
POINT
5
70
100
AcDbEntity
8
80
62
256
6
ByLayer
370
18
48
1
60
0
100
AcDbPoint
10
0
20
0
30
0
39
0
210
0
220
0
230
1
50
360
0
POINT
5
72
100
AcDbEntity
8
81
62
256
6
ByLayer
370
18
48
1
60
0
100
AcDbPoint
10
47.2
20
0
30
0
39
0
210
0
220
0
230
1
50
360
0
POINT
5
74
100
AcDbEntity
8
1
62
256
6
ByLayer
370
18
48
1
60
1
100
AcDbPoint
10
47
20
2.454793
30
0
39
0
210
0
220
0
230
1
50
360
0
POINT
5
76
100
AcDbEntity
8
1
62
256
6
ByLayer
370
18
48
1
60
1
100
AcDbPoint
10
47
20
-2.454793
30
0
39
0
210
0
220
0
230
1
50
360
0
POINT
5
77
100
AcDbEntity
8
1
62
256
6
ByLayer
370
18
48
1
60
1
100
AcDbPoint
10
47
20
2.454793
30
0
39
0
210
0
220
0
230
1
50
360
0
POINT
5
78
100
AcDbEntity
8
1
62
256
6
ByLayer
370
18
48
1
60
1
100
AcDbPoint
10
44.82
20
0
30
0
39
0
210
0
220
0
230
1
50
360
0
POINT
5
79
100
AcDbEntity
8
1
62
256
6
ByLayer
370
18
48
1
60
1
100
AcDbPoint
10
47
20
-2.454793
30
0
39
0
210
0
220
0
230
1
50
360
0
POINT
5
7A
100
AcDbEntity
8
1
62
256
6
ByLayer
370
18
48
1
60
1
100
AcDbPoint
10
39
20
-2.454793
30
0
39
0
210
0
220
0
230
1
50
360
0
POINT
5
7B
100
AcDbEntity
8
1
62
256
6
ByLayer
370
18
48
1
60
1
100
AcDbPoint
10
47
20
-2.454793
30
0
39
0
210
0
220
0
230
1
50
360
0
POINT
5
7C
100
AcDbEntity
8
1
62
256
6
ByLayer
370
18
48
1
60
1
100
AcDbPoint
10
22
20
-1.8477
30
0
39
0
210
0
220
0
230
1
50
360
0
POINT
5
7D
100
AcDbEntity
8
1
62
256
6
ByLayer
370
18
48
1
60
1
100
AcDbPoint
10
47
20
-2.454793
30
0
39
0
210
0
220
0
230
1
50
360
0
POINT
5
7E
100
AcDbEntity
8
1
62
256
6
ByLayer
370
18
48
1
60
1
100
AcDbPoint
10
25.75
20
0
30
0
39
0
210
0
220
0
230
1
50
360
0
SPLINE
5
D8
100
AcDbEntity
8
1
62
256
6
ByLayer
370
18
48
1
60
0
100
AcDbSpline
70
4
71
3
72
8
73
4
40
0
40
0
40
0
40
0
40
1
40
1
40
1
40
1
41
1
10
41.312742192122
20
2.44466039072893
30
0
41
1
10
41.3152162840929
20
2.44893713762298
30
0
41
1
10
41.3176598566107
20
2.45185110529198
30
0
41
1
10
41.3200723343254
20
2.45342088943517
30
0
0
SPLINE
5
D9
100
AcDbEntity
8
1
62
256
6
ByLayer
370
13
48
1
60
0
100
AcDbSpline
70
4
71
3
72
8
73
4
40
0
40
0
40
0
40
0
40
1
40
1
40
1
40
1
41
1.04
10
46.039124024279
20
-1.98635759346171
30
0
41
1.04
10
46.0340400780686
20
-1.99642606233413
30
0
41
1.04
10
46.0289471082381
20
-2.00174985450795
30
0
41
1.04
10
46.0238441263069
20
-2.00222985848443
30
0
0
SPLINE
5
DA
100
AcDbEntity
8
1
62
256
6
ByLayer
370
13
48
1
60
0
100
AcDbSpline
70
4
71
3
72
8
73
4
40
0
40
0
40
0
40
0
40
1
40
1
40
1
40
1
41
1.04
10
40.4792236515033
20
-1.99238786530119
30
0
41
1.04
10
40.4732180179968
20
-2.00181584653268
30
0
41
1.04
10
40.4672488116877
20
-2.00445099758269
30
0
41
1.04
10
40.4613038767435
20
-2.00046296575433
30
0
0
SPLINE
5
DB
100
AcDbEntity
8
1
62
256
6
ByLayer
370
18
48
1
60
0
100
AcDbSpline
70
4
71
3
72
10
73
6
40
0
40
0
40
0
40
0
40
0.759595023491062
40
0.759595023491062
40
1
40
1
40
1
40
1
41
1
10
45.5192127769511
20
-2.15851901693568
30
0
41
1
10
45.5247436006367
20
-2.17536974884732
30
0
41
1
10
45.5302129808484
20
-2.18875606542531
30
0
41
1
10
45.5372559788052
20
-2.20174255849184
30
0
41
1
10
45.5389366519454
20
-2.20451083623854
30
0
41
1
10
45.5406061310339
20
-2.20692434006429
30
0
0
SPLINE
5
DC
100
AcDbEntity
8
1
62
256
6
ByLayer
370
13
48
1
60
0
100
AcDbSpline
70
4
71
3
72
8
73
4
40
0
40
0
40
0
40
0
40
1
40
1
40
1
40
1
41
1
10
45.4149614649135
20
-1.99112038536734
30
0
41
1
10
45.4094451843573
20
-1.98195339740587
30
0
41
1
10
45.4039473780441
20
-1.96718550952181
30
0
41
1
10
45.3984701279834
20
-1.94700924359611
30
0
0
SPLINE
5
DD
100
AcDbEntity
8
1
62
256
6
ByLayer
370
13
48
1
60
0
100
AcDbSpline
70
4
71
3
72
8
73
4
40
0
40
0
40
0
40
0
40
1
40
1
40
1
40
1
41
1
10
41.8724746432281
20
1.9863859134592
30
0
41
1
10
41.8630888400784
20
2.00535240610358
30
0
41
1
10
41.8537970858437
20
2.00728132384515
30
0
41
1
10
41.8446177822723
20
1.99377900412276
30
0
0
SPLINE
5
DE
100
AcDbEntity
8
1
62
256
6
ByLayer
370
13
48
1
60
0
100
AcDbSpline
70
4
71
3
72
8
73
4
40
0
40
0
40
0
40
0
40
1
40
1
40
1
40
1
41
1
10
39.8577678019132
20
-1.99069851277992
30
0
41
1
10
39.8506751809078
20
-1.9783353746534
30
0
41
1
10
39.8434481748381
20
-1.95622862341415
30
0
41
1
10
39.8360720600106
20
-1.92334664665307
30
0
0
SPLINE
5
DF
100
AcDbEntity
8
1
62
256
6
ByLayer
370
13
48
1
60
0
100
AcDbSpline
70
4
71
3
72
8
73
4
40
0
40
0
40
0
40
0
40
1
40
1
40
1
40
1
41
1.04
10
42.4977110687132
20
1.86757510390312
30
0
41
1.04
10
42.4864996843376
20
1.93126727895554
30
0
41
1.04
10
42.4754093341522
20
1.97237841823744
30
0
41
1.04
10
42.464363105261
20
1.99076733363363
30
0
0
SPLINE
5
E0
100
AcDbEntity
8
1
62
256
6
ByLayer
370
13
48
1
60
0
100
AcDbSpline
70
4
71
3
72
9
73
5
40
0
40
0
40
0
40
0
40
0.189040550926426
40
1
40
1
40
1
40
1
41
1.04
10
45.2424863185757
20
-1.99169189192156
30
0
41
1.04
10
45.2391108424322
20
-1.99718336593986
30
0
41
1.04
10
45.2212959094692
20
-2.0149100669958
30
0
41
1.04
10
45.2036504394789
20
-1.97313582891679
30
0
41
1.04
10
45.1894887475435
20
-1.90353191738349
30
0
0
SPLINE
5
E1
100
AcDbEntity
8
1
62
256
6
ByLayer
370
18
48
1
60
0
100
AcDbSpline
70
4
71
3
72
18
73
14
40
0
40
0
40
0
40
0
40
0.148775650059218
40
0.148775650059218
40
0.361581737544415
40
0.361581737544415
40
0.467984781287012
40
0.467984781287012
40
0.57438782502961
40
0.57438782502961
40
0.787193912514805
40
0.787193912514805
40
1
40
1
40
1
40
1
41
1
10
45.0335193303752
20
-2.34809643783356
30
0
41
1
10
45.0316317392512
20
-2.34862774449988
30
0
41
1
10
45.0297879531153
20
-2.34736249893223
30
0
41
1
10
45.0254573074735
20
-2.33988280005033
30
0
41
1
10
45.0230668226938
20
-2.33172590919889
30
0
41
1
10
45.0196911038921
20
-2.31378969704252
30
0
41
1
10
45.0185973852475
20
-2.30686444893254
30
0
41
1
10
45.0164387241977
20
-2.29113219037393
30
0
41
1
10
45.0153711961938
20
-2.28230818323164
30
0
41
1
10
45.0121737664025
20
-2.25333451881673
30
0
41
1
10
45.0100396886534
20
-2.2306340263294
30
0
41
1
10
45.0055154868878
20
-2.17876626351023
30
0
41
1
10
45.0031063522769
20
-2.14960264004506
30
0
41
1
10
45.0005614761737
20
-2.11715241597142
30
0
0
SPLINE
5
E2
100
AcDbEntity
8
1
62
256
6
ByLayer
370
18
48
1
60
0
100
AcDbSpline
70
4
71
3
72
18
73
14
40
0
40
0
40
0
40
0
40
0.244095559132499
40
0.244095559132499
40
0.488191118264998
40
0.488191118264998
40
0.610238897831246
40
0.610238897831246
40
0.732286677397495
40
0.732286677397495
40
0.97638223652999
40
0.97638223652999
40
1
40
1
40
1
40
1
41
1
10
44.7750846025303
20
-2.0663399991131
30
0
41
1
10
44.7806240824589
20
-2.10607834378439
30
0
41
1
10
44.7861087220826
20
-2.14219738176587
30
0
41
1
10
44.7971119533549
20
-2.20748979673354
30
0
41
1
10
44.8026408231633
20
-2.23666031545017
30
0
41
1
10
44.8110025636958
20
-2.27514875047677
30
0
41
1
10
44.8137999104219
20
-2.28709766205509
30
0
41
1
10
44.8194136082271
20
-2.30918776406242
30
0
41
1
10
44.8222365514971
20
-2.31934670886503
30
0
41
1
10
44.8306399759932
20
-2.34672758189731
30
0
41
1
10
44.8361679011911
20
-2.36095422768184
30
0
41
1
10
44.8421391258708
20
-2.37207132183801
30
0
41
1
10
44.8426650128207
20
-2.37301364324677
30
0
41
1
10
44.8431900323478
20
-2.37391759204317
30
0
0
SPLINE
5
E3
100
AcDbEntity
8
1
62
256
6
ByLayer
370
18
48
1
60
0
100
AcDbSpline
70
4
71
3
72
10
73
6
40
0
40
0
40
0
40
0
40
0.566962273318855
40
0.566962273318855
40
1
40
1
40
1
40
1
41
1
10
44.8488749851939
20
-2.38224802922247
30
0
41
1
10
44.8518364879969
20
-2.385820130356
30
0
41
1
10
44.8547732050727
20
-2.38815039612717
30
0
41
1
10
44.8599187809191
20
-2.39008978304727
30
0
41
1
10
44.8621384399008
20
-2.39021654950764
30
0
41
1
10
44.8643518863558
20
-2.38962521709953
30
0
0
SPLINE
5
E4
100
AcDbEntity
8
1
62
256
6
ByLayer
370
13
48
1
60
0
100
AcDbSpline
70
4
71
3
72
9
73
5
40
0
40
0
40
0
40
0
40
0.856523511764731
40
1
40
1
40
1
40
1
41
1.04
10
39.6876246555146
20
-1.98863433362087
30
0
41
1.04
10
39.6712058716247
20
-2.01944455378346
30
0
41
1.04
10
39.6512473282485
20
-1.99794754688946
30
0
41
1.04
10
39.6300790547495
20
-1.88904727612528
30
0
41
1.04
10
39.6270274462205
20
-1.87173581653266
30
0
0
SPLINE
5
E5
100
AcDbEntity
8
1
62
256
6
ByLayer
370
13
48
1
60
0
100
AcDbSpline
70
4
71
3
72
10
73
6
40
0
40
0
40
0
40
0
40
0.0154319342733948
40
0.579136803857032
40
1
40
1
40
1
40
1
41
1
10
44.622486072448
20
-1.99347508952991
30
0
41
1
10
44.6221856478362
20
-1.99301913772118
30
0
41
1
10
44.610908976065
20
-1.97525672975132
30
0
41
1
10
44.5912923656581
20
-1.9023167656336
30
0
41
1
10
44.5722283015461
20
-1.76700588609455
30
0
41
1
10
44.564146185396
20
-1.69934114919846
30
0
0
SPLINE
5
E6
100
AcDbEntity
8
1
62
256
6
ByLayer
370
13
48
1
60
0
100
AcDbSpline
70
4
71
3
72
10
73
6
40
0
40
0
40
0
40
0
40
0.362603906697789
40
0.883917770139462
40
1
40
1
40
1
40
1
41
1
10
39.0647540380737
20
-1.99173995055688
30
0
41
1
10
39.0572108141087
20
-1.97954876357346
30
0
41
1
10
39.0387452415471
20
-1.92359241623578
30
0
41
1
10
39.0174986918338
20
-1.78589760328347
30
0
41
1
10
39.0041236712771
20
-1.6704047943235
30
0
41
1
10
39.001693390128
20
-1.6485062882422
30
0
0
SPLINE
5
E7
100
AcDbEntity
8
1
62
256
6
ByLayer
370
13
48
1
60
0
100
AcDbSpline
70
4
71
3
72
8
73
4
40
0
40
0
40
0
40
0
40
1
40
1
40
1
40
1
41
1
10
42.706864703504
20
1.80333800045241
30
0
41
1
10
42.6839899742005
20
1.96012090973073
30
0
41
1
10
42.6617139022173
20
2.02432778880518
30
0
41
1
10
42.639398351653
20
1.99505293963887
30
0
0
SPLINE
5
E8
100
AcDbEntity
8
1
62
256
6
ByLayer
370
13
48
1
60
0
100
AcDbSpline
70
4
71
3
72
9
73
5
40
0
40
0
40
0
40
0
40
0.915347135254045
40
1
40
1
40
1
40
1
41
1.04
10
43.3322881759621
20
1.54287218175443
30
0
41
1.04
10
43.311890175235
20
1.74941128761011
30
0
41
1.04
10
43.2882973678801
20
1.92027153614417
30
0
41
1.04
10
43.263674038183
20
1.98060722875879
30
0
41
1.04
10
43.2615818537575
20
1.98490620705474
30
0
0
SPLINE
5
E9
100
AcDbEntity
8
1
62
256
6
ByLayer
370
13
48
1
60
0
100
AcDbSpline
70
4
71
3
72
10
73
6
40
0
40
0
40
0
40
0
40
0.429061899333495
40
0.796388727710509
40
1
40
1
40
1
40
1
41
1.04
10
38.8819247939019
20
-2.00143263353953
30
0
41
1.04
10
38.8693133700732
20
-2.00642728570404
30
0
41
1.04
10
38.8458138987891
20
-1.9604586102861
30
0
41
1.04
10
38.8156603190426
20
-1.76764203799083
30
0
41
1.04
10
38.7987151639811
20
-1.61255122941217
30
0
41
1.04
10
38.7927067614633
20
-1.55235762771914
30
0
0
SPLINE
5
EA
100
AcDbEntity
8
1
62
256
6
ByLayer
370
18
48
1
60
0
100
AcDbSpline
70
4
71
3
72
22
73
18
40
0
40
0
40
0
40
0
40
0.25
40
0.25
40
0.3125
40
0.3125
40
0.375
40
0.375
40
0.499999999999999
40
0.499999999999999
40
0.749999999999999
40
0.749999999999999
40
0.812499999999999
40
0.812499999999999
40
0.874999999999999
40
0.874999999999999
40
1
40
1
40
1
40
1
41
1
10
38.0561634104363
20
-1.90254947338536
30
0
41
1
10
38.0512749831362
20
-1.8668864000139
30
0
41
1
10
38.0464471824551
20
-1.82242258626607
30
0
41
1
10
38.0405328148057
20
-1.75570183610705
30
0
41
1
10
38.0393558177078
20
-1.74179679839253
30
0
41
1
10
38.0370139568544
20
-1.71284544316507
30
0
41
1
10
38.035849460887
20
-1.69779958574037
30
0
41
1
10
38.0324073304164
20
-1.65138493503457
30
0
41
1
10
38.0301697636598
20
-1.61860401552042
30
0
41
1
10
38.0236120454159
20
-1.51487680268198
30
0
41
1
10
38.0194478721673
20
-1.43858504644587
30
0
41
1
10
38.0144194993451
20
-1.33411946574452
30
0
41
1
10
38.0134225985839
20
-1.31276818391396
30
0
41
1
10
38.0114443036415
20
-1.26913200630639
30
0
41
1
10
38.0104636693625
20
-1.24686035198314
30
0
41
1
10
38.0075705263755
20
-1.17929325828052
30
0
41
1
10
38.0056965470218
20
-1.13303827769394
30
0
41
1
10
38.0038729740173
20
-1.08560157559893
30
0
0
SPLINE
5
EB
100
AcDbEntity
8
1
62
256
6
ByLayer
370
13
48
1
60
0
100
AcDbSpline
70
4
71
3
72
9
73
5
40
0
40
0
40
0
40
0
40
0.0782877447159112
40
1
40
1
40
1
40
1
41
1
10
38.2564769058534
20
-1.95458333016683
30
0
41
1
10
38.2541990188264
20
-1.94684328833071
30
0
41
1
10
38.225076045953
20
-1.83557403014851
30
0
41
1
10
38.1956984928889
20
-1.56422448593008
30
0
41
1
10
38.1673368545094
20
-1.20615081730907
30
0
0
SPLINE
5
EC
100
AcDbEntity
8
1
62
256
6
ByLayer
370
18
48
1
60
0
100
AcDbSpline
70
4
71
3
72
22
73
18
40
0
40
0
40
0
40
0
40
0.250000000000003
40
0.250000000000003
40
0.312500000000002
40
0.312500000000002
40
0.375000000000002
40
0.375000000000002
40
0.500000000000001
40
0.500000000000001
40
0.75
40
0.75
40
0.8125
40
0.8125
40
0.875
40
0.875
40
1
40
1
40
1
40
1
41
1
10
38.2142736159919
20
-1.27246706001316
30
0
41
1
10
38.2264139014287
20
-1.38228263001471
30
0
41
1
10
38.2384502565231
20
-1.48390165736649
30
0
41
1
10
38.2535224120114
20
-1.60070477604609
30
0
41
1
10
38.2565381967677
20
-1.62355002156443
30
0
41
1
10
38.2625774359099
20
-1.66819284749374
30
0
41
1
10
38.26560325473
20
-1.6900036663705
30
0
41
1
10
38.2746057411284
20
-1.75317649846801
30
0
41
1
10
38.2805384850877
20
-1.79252233291268
30
0
41
1
10
38.2982288885629
20
-1.90250129228193
30
0
41
1
10
38.3098624820517
20
-1.96513622354286
30
0
41
1
10
38.3247171531085
20
-2.02992514962003
30
0
41
1
10
38.3277095288295
20
-2.04221666254341
30
0
41
1
10
38.3336861342684
20
-2.06519827481227
30
0
41
1
10
38.3366793596367
20
-2.07592145694528
30
0
41
1
10
38.3456750005059
20
-2.10582668147791
30
0
41
1
10
38.3516821123156
20
-2.12274322155878
30
0
41
1
10
38.3576514990709
20
-2.13665351547499
30
0
0
SPLINE
5
ED
100
AcDbEntity
8
1
62
256
6
ByLayer
370
18
48
1
60
0
100
AcDbSpline
70
4
71
3
72
23
73
19
40
0
40
0
40
0
40
0
40
0.0625000000000001
40
0.0625000000000001
40
0.125
40
0.125
40
0.250000000000001
40
0.250000000000001
40
0.500000000000002
40
0.500000000000002
40
0.562500000000002
40
0.562500000000002
40
0.625000000000002
40
0.625000000000002
40
0.750000000000001
40
0.750000000000001
40
0.875000000000001
40
1
40
1
40
1
40
1
41
1
10
38.6768963175437
20
-2.34795843376628
30
0
41
1
10
38.675443285647
20
-2.34653808872102
30
0
41
1
10
38.6739867556756
20
-2.34424342242116
30
0
41
1
10
38.6710594808856
20
-2.33787549966215
30
0
41
1
10
38.6695869851099
20
-2.33379629844165
30
0
41
1
10
38.6651476392447
20
-2.31886424065894
30
0
41
1
10
38.6621926017113
20
-2.3054458388643
30
0
41
1
10
38.6532543018812
20
-2.2551035514704
30
0
41
1
10
38.6471305145289
20
-2.20814572587619
30
0
41
1
10
38.639459287356
20
-2.13257965500949
30
0
41
1
10
38.6379244110554
20
-2.116615926187
30
0
41
1
10
38.6348493374921
20
-2.08294973734962
30
0
41
1
10
38.6333179304433
20
-2.06534165071128
30
0
41
1
10
38.6287428964401
20
-2.01041915967483
30
0
41
1
10
38.6257000127914
20
-1.97092718003523
30
0
41
1
10
38.6195868998699
20
-1.88629834133837
30
0
41
1
10
38.6134662698595
20
-1.79603301070912
30
0
41
1
10
38.6073638920917
20
-1.69445103620174
30
0
41
1
10
38.6043136060897
20
-1.64073483456031
30
0
0
SPLINE
5
EE
100
AcDbEntity
8
1
62
256
6
ByLayer
370
13
48
1
60
0
100
AcDbSpline
70
4
71
3
72
11
73
7
40
0
40
0
40
0
40
0
40
0.198297279741482
40
0.582912048196121
40
0.971017789769073
40
1
40
1
40
1
40
1
41
1.04
10
44.4403437715641
20
-2.00099431053519
30
0
41
1.04
10
44.4347184956506
20
-2.00440879792791
30
0
41
1.04
10
44.4181421763413
20
-1.99688160094582
30
0
41
1.04
10
44.3902245958024
20
-1.89553745170026
30
0
41
1.04
10
44.3675179955168
20
-1.72459296309824
30
0
41
1.04
10
44.3558620804496
20
-1.61611304264632
30
0
41
1.04
10
44.3550529054886
20
-1.60848282876963
30
0
0
SPLINE
5
EF
100
AcDbEntity
8
1
62
256
6
ByLayer
370
13
48
1
60
0
100
AcDbSpline
70
4
71
3
72
10
73
6
40
0
40
0
40
0
40
0
40
0.257648650360239
40
0.626761300050849
40
1
40
1
40
1
40
1
41
1
10
43.8194135599711
20
-1.97406869748181
30
0
41
1
10
43.8117129563761
20
-1.95317337431484
30
0
41
1
10
43.7928544963005
20
-1.87529601738279
30
0
41
1
10
43.7630970260497
20
-1.65520599954019
30
0
41
1
10
43.7410132896648
20
-1.4153240196855
30
0
41
1
10
43.7298455123457
20
-1.27911983641746
30
0
0
SPLINE
5
F0
100
AcDbEntity
8
1
62
256
6
ByLayer
370
18
48
1
60
0
100
AcDbSpline
70
4
71
3
72
26
73
22
40
0
40
0
40
0
40
0
40
0.101783900430054
40
0.101783900430054
40
0.230100486082903
40
0.230100486082903
40
0.358417071735753
40
0.358417071735753
40
0.486733657388602
40
0.486733657388602
40
0.615050243041452
40
0.615050243041452
40
0.743366828694301
40
0.743366828694301
40
0.775445975107514
40
0.775445975107514
40
0.807525121520726
40
0.807525121520726
40
0.871683414347151
40
0.871683414347151
40
1
40
1
40
1
40
1
41
1
10
44.1741385207234
20
-2.45479394855235
30
0
41
1
10
44.1708206254149
20
-2.45481884355417
30
0
41
1
10
44.1674945368099
20
-2.45228158718299
30
0
41
1
10
44.1598981404377
20
-2.44086321373507
30
0
41
1
10
44.1555991586098
20
-2.43050068562024
30
0
41
1
10
44.1470050256463
20
-2.40173913363338
30
0
41
1
10
44.1427113322856
20
-2.38333996590961
30
0
41
1
10
44.1341660875261
20
-2.33821580189655
30
0
41
1
10
44.1299841110966
20
-2.31187431061261
30
0
41
1
10
44.1217402538393
20
-2.25189737379338
30
0
41
1
10
44.117687010995
20
-2.21826099424408
30
0
41
1
10
44.1096356449475
20
-2.14373459664569
30
0
41
1
10
44.1056384023799
20
-2.10284478752683
30
0
41
1
10
44.100543834205
20
-2.04709302248932
30
0
41
1
10
44.0995196544833
20
-2.03571015965846
30
0
41
1
10
44.0974558573678
20
-2.01247455814226
30
0
41
1
10
44.0964144694931
20
-2.00060613418441
30
0
41
1
10
44.0932788270882
20
-1.96447264554945
30
0
41
1
10
44.091171206143
20
-1.93964537830618
30
0
41
1
10
44.0848075927438
20
-1.86299264833824
30
0
41
1
10
44.0805110162397
20
-1.80900157404892
30
0
41
1
10
44.0761902126449
20
-1.75217030839752
30
0
0
SPLINE
5
F1
100
AcDbEntity
8
1
62
256
6
ByLayer
370
13
48
1
60
0
100
AcDbSpline
70
4
71
3
72
10
73
6
40
0
40
0
40
0
40
0
40
0.108870526530858
40
0.848174369719483
40
1
40
1
40
1
40
1
41
1
10
43.5412839099241
20
1.43536243092348
30
0
41
1
10
43.5382608202052
20
1.46891251525261
30
0
41
1
10
43.5145076512754
20
1.72273643894008
30
0
41
1
10
43.4845258143745
20
1.94141494975582
30
0
41
1
10
43.4564833405524
20
1.99372202916916
30
0
41
1
10
43.451662841613
20
1.99830323531242
30
0
0
SPLINE
5
F2
100
AcDbEntity
8
1
62
256
6
ByLayer
370
13
48
1
60
0
100
AcDbSpline
70
4
71
3
72
10
73
6
40
0
40
0
40
0
40
0
40
0.136413512080381
40
0.505571366471728
40
1
40
1
40
1
40
1
41
1.04
10
43.6103514478935
20
-1.94003585964397
30
0
41
1.04
10
43.6062591704667
20
-1.92391654140775
30
0
41
1.04
10
43.5910812340814
20
-1.85308655978889
30
0
41
1.04
10
43.5613274138301
20
-1.6354855405712
30
0
41
1.04
10
43.5356414489786
20
-1.34366799950057
30
0
41
1.04
10
43.5207845418728
20
-1.15116951620326
30
0
0
SPLINE
5
F3
100
AcDbEntity
8
1
62
256
6
ByLayer
370
13
48
1
60
0
100
AcDbSpline
70
4
71
3
72
10
73
6
40
0
40
0
40
0
40
0
40
0.14752132046648
40
0.888087367015261
40
1
40
1
40
1
40
1
41
1
10
42.9850023854015
20
-1.76618349122944
30
0
41
1
10
42.9802192792035
20
-1.73046349855963
30
0
41
1
10
42.9518175687105
20
-1.49580007398632
30
0
41
1
10
42.9225473390013
20
-1.12141638983118
30
0
41
1
10
42.8985481150242
20
-0.772471761399487
30
0
41
1
10
42.8954130529521
20
-0.726257355554139
30
0
0
SPLINE
5
F4
100
AcDbEntity
8
1
62
256
6
ByLayer
370
13
48
1
60
0
100
AcDbSpline
70
4
71
3
72
9
73
5
40
0
40
0
40
0
40
0
40
0.621086622702062
40
1
40
1
40
1
40
1
41
1
10
46.0446242916977
20
-0.330525143724373
30
0
41
1
10
46.0259319153627
20
-0.0383254165429037
30
0
41
1
10
45.9961924949262
20
0.444244864271042
30
0
41
1
10
45.966119901118
20
0.884690810630872
30
0
41
1
10
45.9547348752338
20
1.03904088709015
30
0
0
SPLINE
5
F5
100
AcDbEntity
8
1
62
256
6
ByLayer
370
18
48
1
60
0
100
AcDbSpline
70
4
71
3
72
22
73
18
40
0
40
0
40
0
40
0
40
0.125
40
0.125
40
0.25
40
0.25
40
0.375
40
0.375
40
0.5
40
0.5
40
0.75
40
0.75
40
0.8125
40
0.8125
40
0.874999999999999
40
0.874999999999999
40
1
40
1
40
1
40
1
41
1
10
46.0157764379105
20
1.06340652871526
30
0
41
1
10
46.0208178720198
20
1.00746545822744
30
0
41
1
10
46.0257272099589
20
0.950188432954292
30
0
41
1
10
46.0353685454128
20
0.833052476302726
30
0
41
1
10
46.0400968448034
20
0.773190598528117
30
0
41
1
10
46.0494507244763
20
0.650865979182896
30
0
41
1
10
46.054084272252
20
0.588377331939455
30
0
41
1
10
46.0633617489801
20
0.460841761464224
30
0
41
1
10
46.0679289745339
20
0.396739091102319
30
0
41
1
10
46.0814466350936
20
0.203463542638872
30
0
41
1
10
46.0902116109401
20
0.0733319771236438
30
0
41
1
10
46.1009498061886
20
-0.0909545455483283
30
0
41
1
10
46.1030866410907
20
-0.123893669818869
30
0
41
1
10
46.1073416852416
20
-0.189939008217522
30
0
41
1
10
46.1094465316685
20
-0.222837821867927
30
0
41
1
10
46.1156953609598
20
-0.32109756389849
30
0
41
1
10
46.1197769446709
20
-0.386053630506097
30
0
41
1
10
46.1237867658109
20
-0.450457342496577
30
0
0
SPLINE
5
F6
100
AcDbEntity
8
1
62
256
6
ByLayer
370
13
48
1
60
0
100
AcDbSpline
70
4
71
3
72
10
73
6
40
0
40
0
40
0
40
0
40
0.601775586896836
40
0.963284578131313
40
1
40
1
40
1
40
1
41
1
10
40.4817640599749
20
-0.231742851607834
30
0
41
1
10
40.4643237256052
20
0.0427884835329735
30
0
41
1
10
40.4361509977751
20
0.496020504763209
30
0
41
1
10
40.4055918095887
20
0.940943723218993
30
0
41
1
10
40.3934132079398
20
1.10267409370445
30
0
41
1
10
40.3922903074389
20
1.11744961018397
30
0
0
SPLINE
5
F7
100
AcDbEntity
8
1
62
256
6
ByLayer
370
13
48
1
60
0
100
AcDbSpline
70
4
71
3
72
8
73
4
40
0
40
0
40
0
40
0
40
1
40
1
40
1
40
1
41
1
10
41.3161590532682
20
-0.848832338136958
30
0
41
1
10
41.2869441981586
20
-0.429033404311952
30
0
41
1
10
41.2571587897926
20
0.0703623760468588
30
0
41
1
10
41.2267101715713
20
0.534627016299623
30
0
0
SPLINE
5
F8
100
AcDbEntity
8
1
62
256
6
ByLayer
370
13
48
1
60
0
100
AcDbSpline
70
4
71
3
72
10
73
6
40
0
40
0
40
0
40
0
40
0.0340043292272286
40
0.762359355887189
40
1
40
1
40
1
40
1
41
1.04
10
42.7759672913625
20
-1.68463760945704
30
0
41
1.04
10
42.7748698662627
20
-1.67525275296898
30
0
41
1.04
10
42.7503476129045
20
-1.46134614287937
30
0
41
1.04
10
42.7205863154135
20
-1.08251011699833
30
0
41
1.04
10
42.6931022063016
20
-0.676245613994635
30
0
41
1.04
10
42.6864085608771
20
-0.574951047127324
30
0
0
SPLINE
5
F9
100
AcDbEntity
8
1
62
256
6
ByLayer
370
13
48
1
60
0
100
AcDbSpline
70
4
71
3
72
9
73
5
40
0
40
0
40
0
40
0
40
0.674594505281382
40
1
40
1
40
1
40
1
41
1.04
10
41.9415082909995
20
-1.25706008351122
30
0
41
1.04
10
41.9215985802365
20
-1.01102878886543
30
0
41
1.04
10
41.8917861046946
20
-0.571550577431851
30
0
41
1.04
10
41.861759929038
20
-0.0943395100998637
30
0
41
1.04
10
41.8519276891186
20
0.0613207110910379
30
0
0
SPLINE
5
FA
100
AcDbEntity
8
1
62
256
6
ByLayer
370
18
48
1
60
0
100
AcDbSpline
70
4
71
3
72
28
73
24
40
0
40
0
40
0
40
0
40
0.0625000000000016
40
0.0625000000000016
40
0.125000000000003
40
0.125000000000003
40
0.250000000000005
40
0.375000000000006
40
0.500000000000007
40
0.500000000000007
40
0.531250000000007
40
0.531250000000007
40
0.562500000000007
40
0.625000000000006
40
0.625000000000006
40
0.750000000000004
40
0.875000000000002
40
0.875000000000002
40
0.937500000000001
40
0.937500000000001
40
0.96875
40
0.96875
40
1
40
1
40
1
40
1
41
1
10
41.673180698757
20
-1.43887606870845
30
0
41
1
10
41.6710328002104
20
-1.40592918813803
30
0
41
1
10
41.6688822177651
20
-1.37231482990964
30
0
41
1
10
41.6645810752359
20
-1.3037272251575
30
0
41
1
10
41.6624254106364
20
-1.26866667379932
30
0
41
1
10
41.6560264839206
20
-1.16250907183402
30
0
41
1
10
41.6476480993208
20
-1.01789161524533
30
0
41
1
10
41.6354084023287
20
-0.792006196038244
30
0
41
1
10
41.6272701308907
20
-0.63544579394366
30
0
41
1
10
41.6220952119781
20
-0.535676835655579
30
0
41
1
10
41.6210541241671
20
-0.515598215226845
30
0
41
1
10
41.6189691939467
20
-0.475421453532277
30
0
41
1
10
41.6158380570305
20
-0.415122962558883
30
0
41
1
10
41.6126975973007
20
-0.354725522567037
30
0
41
1
10
41.6064073126591
20
-0.233800740216196
30
0
41
1
10
41.5979966524335
20
-0.0722218436073945
30
0
41
1
10
41.5895384530234
20
0.0900412940998478
30
0
41
1
10
41.58316196173
20
0.211999335477117
30
0
41
1
10
41.5810308406839
20
0.252695535933185
30
0
41
1
10
41.5778225551986
20
0.313806327993944
30
0
41
1
10
41.5767521050269
20
0.33417003226063
30
0
41
1
10
41.5746186573945
20
0.374693186075802
30
0
41
1
10
41.5735542448694
20
0.394879598601705
30
0
41
1
10
41.5724918215919
20
0.414991604146252
30
0
0
SPLINE
5
FB
100
AcDbEntity
8
1
62
256
6
ByLayer
370
18
48
1
60
0
100
AcDbSpline
70
4
71
3
72
26
73
22
40
0
40
0
40
0
40
0
40
0.125
40
0.125
40
0.187500000000001
40
0.187500000000001
40
0.250000000000001
40
0.250000000000001
40
0.375000000000002
40
0.500000000000004
40
0.500000000000004
40
0.562500000000005
40
0.593750000000006
40
0.593750000000006
40
0.625000000000006
40
0.625000000000006
40
0.750000000000004
40
0.750000000000004
40
0.875000000000002
40
0.875000000000002
40
1
40
1
40
1
40
1
41
1
10
41.4969872732291
20
0.484699626953329
30
0
41
1
10
41.5013073215674
20
0.405237659968776
30
0
41
1
10
41.5056490159529
20
0.324891213388639
30
0
41
1
10
41.5121604416788
20
0.203013482537813
30
0
41
1
10
41.5143339163901
20
0.162104416874769
30
0
41
1
10
41.5186654771207
20
0.0800663585168024
30
0
41
1
10
41.5208115172726
20
0.0391659832687594
30
0
41
1
10
41.5271917805525
20
-0.083186528992286
30
0
41
1
10
41.5355421211552
20
-0.245395429835185
30
0
41
1
10
41.5436531189279
20
-0.405780128697245
30
0
41
1
10
41.5497092886937
20
-0.525374165057031
30
0
41
1
10
41.55273117749
20
-0.584997218345336
30
0
41
1
10
41.5557613641321
20
-0.644354112898867
30
0
41
1
10
41.557785747787
20
-0.683865408091691
30
0
41
1
10
41.5588005237749
20
-0.703599965589575
30
0
41
1
10
41.5638627204064
20
-0.80156769626646
30
0
41
1
10
41.5678959995496
20
-0.87812823842259
30
0
41
1
10
41.5761161039269
20
-1.02772463774997
30
0
41
1
10
41.5803249912452
20
-1.10075918882092
30
0
41
1
10
41.5890105801992
20
-1.24330396877298
30
0
41
1
10
41.5934405928207
20
-1.312816686931
30
0
41
1
10
41.5978469468378
20
-1.38052431522459
30
0
0
SPLINE
5
FC
100
AcDbEntity
8
1
62
256
6
ByLayer
370
18
48
1
60
0
100
AcDbSpline
70
4
71
3
72
26
73
22
40
0
40
0
40
0
40
0
40
0.124999999999999
40
0.249999999999998
40
0.249999999999998
40
0.374999999999997
40
0.374999999999997
40
0.406249999999997
40
0.406249999999997
40
0.437499999999997
40
0.437499999999997
40
0.499999999999997
40
0.499999999999997
40
0.624999999999998
40
0.749999999999999
40
0.749999999999999
40
0.812499999999999
40
0.812499999999999
40
0.874999999999999
40
0.874999999999999
40
1
40
1
40
1
40
1
41
1
10
40.6627397514278
20
1.22084282602015
30
0
41
1
10
40.6670066014872
20
1.14963294352111
30
0
41
1
10
40.6754599384968
20
1.00429286631632
30
0
41
1
10
40.6836871807577
20
0.853300551120356
30
0
41
1
10
40.6919218087812
20
0.699498488235491
30
0
41
1
10
40.6960579989114
20
0.621193495216403
30
0
41
1
10
40.7012886095416
20
0.521513556922201
30
0
41
1
10
40.7023376315551
20
0.501487414036376
30
0
41
1
10
40.7044421243238
20
0.461252822671753
30
0
41
1
10
40.7054975152502
20
0.441045801326993
30
0
41
1
10
40.7086562108582
20
0.38049458334163
30
0
41
1
10
40.7107580551881
20
0.340105809025971
30
0
41
1
10
40.7170571320142
20
0.218877075679643
30
0
41
1
10
40.7254392031675
20
0.0570726648859932
30
0
41
1
10
40.7338308302029
20
-0.105056598421811
30
0
41
1
10
40.7401453132362
20
-0.226776178510192
30
0
41
1
10
40.7422536383066
20
-0.267369846151666
30
0
41
1
10
40.7464809829529
20
-0.348598695921226
30
0
41
1
10
40.7486035728903
20
-0.389301679716965
30
0
41
1
10
40.7549243445008
20
-0.510141384457256
30
0
41
1
10
40.759096296357
20
-0.589416647711118
30
0
41
1
10
40.7632481790975
20
-0.667441034826368
30
0
0
SPLINE
5
FD
100
AcDbEntity
8
1
62
256
6
ByLayer
370
13
48
1
60
0
100
AcDbSpline
70
4
71
3
72
10
73
6
40
0
40
0
40
0
40
0
40
0.0578131613069285
40
0.796147665952297
40
1
40
1
40
1
40
1
41
1
10
42.1505520430463
20
-1.37823774699356
30
0
41
1
10
42.14884884364
20
-1.35867028703956
30
0
41
1
10
42.1253745232934
20
-1.08367719050725
30
0
41
1
10
42.0955175941399
20
-0.644681419704682
30
0
41
1
10
42.0671967908668
20
-0.19817218890276
30
0
41
1
10
42.0610507518636
20
-0.100923226685268
30
0
0
SPLINE
5
FE
100
AcDbEntity
8
1
62
256
6
ByLayer
370
13
48
1
60
0
100
AcDbSpline
70
4
71
3
72
10
73
6
40
0
40
0
40
0
40
0
40
0.479954376078942
40
0.844111290279838
40
1
40
1
40
1
40
1
41
1.04
10
40.272680190961
20
-0.0707846012724043
30
0
41
1.04
10
40.258807392919
20
0.148704421256286
30
0
41
1.04
10
40.2341563553491
20
0.540414906430824
30
0
41
1.04
10
40.2038193116484
20
0.983233784799609
30
0
41
1.04
10
40.1880272017494
20
1.1878009106027
30
0
41
1.04
10
40.1832933315799
20
1.24648312791899
30
0
0
SPLINE
5
FF
100
AcDbEntity
8
1
62
256
6
ByLayer
370
18
48
1
60
0
100
AcDbSpline
70
4
71
3
72
31
73
27
40
0
40
0
40
0
40
0
40
0.0312500000000002
40
0.0312500000000002
40
0.0625000000000005
40
0.0625000000000005
40
0.125000000000002
40
0.125000000000002
40
0.250000000000005
40
0.250000000000005
40
0.375000000000008
40
0.375000000000008
40
0.437500000000009
40
0.468750000000009
40
0.468750000000009
40
0.500000000000009
40
0.500000000000009
40
0.625000000000007
40
0.625000000000007
40
0.750000000000005
40
0.750000000000005
40
0.875000000000002
40
0.875000000000002
40
0.937500000000001
40
0.937500000000001
40
1
40
1
40
1
40
1
41
1
10
40.0044198447024
20
0.0422919471537
30
0
41
1
10
40.0033757841915
20
0.0626614999719664
30
0
41
1
10
40.0023294073542
20
0.0830590615402969
30
0
41
1
10
40.000231059447
20
0.123910746168406
30
0
41
1
10
39.9991775914103
20
0.144393887955062
30
0
41
1
10
39.996021024719
20
0.205663894065538
30
0
41
1
10
39.9939214674889
20
0.246276931607781
30
0
41
1
10
39.9876272871481
20
0.367428764305657
30
0
41
1
10
39.9834364871559
20
0.447281904602306
30
0
41
1
10
39.9750268295553
20
0.605189658878999
30
0
41
1
10
39.9708051052463
20
0.683244104237247
30
0
41
1
10
39.9644494635308
20
0.798961550736294
30
0
41
1
10
39.9612698871651
20
0.856478802829514
30
0
41
1
10
39.9580950974806
20
0.913475504194139
30
0
41
1
10
39.9559792644467
20
0.951356205966448
30
0
41
1
10
39.9549223456605
20
0.970227132254877
30
0
41
1
10
39.9496674738218
20
1.06376076147964
30
0
41
1
10
39.9455405310625
20
1.13638390397551
30
0
41
1
10
39.9372989991254
20
1.27734695736237
30
0
41
1
10
39.9331586663021
20
1.34568543039197
30
0
41
1
10
39.9247995012634
20
1.47807757007482
30
0
41
1
10
39.9205958680657
20
1.54213220892407
30
0
41
1
10
39.9142722644845
20
1.63490841928402
30
0
41
1
10
39.9121576958477
20
1.66532497761659
30
0
41
1
10
39.9079662543164
20
1.7243834430565
30
0
41
1
10
39.9058840103485
20
1.75310609919322
30
0
41
1
10
39.9038125244743
20
1.78103595014292
30
0
0
SPLINE
5
100
100
AcDbEntity
8
1
62
256
6
ByLayer
370
18
48
1
60
0
100
AcDbSpline
70
4
71
3
72
24
73
20
40
0
40
0
40
0
40
0
40
0.125
40
0.25
40
0.25
40
0.312499999999999
40
0.312499999999999
40
0.374999999999998
40
0.374999999999998
40
0.499999999999998
40
0.624999999999998
40
0.624999999999998
40
0.687499999999998
40
0.687499999999998
40
0.749999999999999
40
0.749999999999999
40
0.874999999999999
40
0.874999999999999
40
1
40
1
40
1
40
1
41
1
10
40.8388672170006
20
-0.736073696234115
30
0
41
1
10
40.8345326069675
20
-0.65863576421043
30
0
41
1
10
40.8258776105782
20
-0.501803281238807
30
0
41
1
10
40.8173366493663
20
-0.341064446876174
30
0
41
1
10
40.8109680192259
20
-0.219005756054713
30
0
41
1
10
40.8088453299479
20
-0.177958059611285
30
0
41
1
10
40.8046469583134
20
-0.0961504042766421
30
0
41
1
10
40.8025685759228
20
-0.0553410144325994
30
0
41
1
10
40.7963821436632
20
0.0668083694206985
30
0
41
1
10
40.7882652656357
20
0.228932229441483
30
0
41
1
10
40.7802213595926
20
0.389583822620864
30
0
41
1
10
40.7741260463218
20
0.509507544335861
30
0
41
1
10
40.7720836977264
20
0.549387778048924
30
0
41
1
10
40.7679609151272
20
0.628955176444805
30
0
41
1
10
40.7658789171677
20
0.668667472355821
30
0
41
1
10
40.7596208848901
20
0.786174975984835
30
0
41
1
10
40.7554032731067
20
0.862793767495987
30
0
41
1
10
40.7469689301625
20
1.01268628401502
30
0
41
1
10
40.742753069964
20
1.08595981955011
30
0
41
1
10
40.7385290665067
20
1.15755453027893
30
0
0
SPLINE
5
101
100
AcDbEntity
8
1
62
256
6
ByLayer
370
13
48
1
60
0
100
AcDbSpline
70
4
71
3
72
9
73
5
40
0
40
0
40
0
40
0
40
0.943259271348546
40
1
40
1
40
1
40
1
41
1.04
10
41.1070581125743
20
-0.69943438041927
30
0
41
1.04
10
41.0795191834034
20
-0.289622278350821
30
0
41
1.04
10
41.0497807209642
20
0.206566672059858
30
0
41
1.04
10
41.0193810762178
20
0.662133135064161
30
0
41
1.04
10
41.0176544523984
20
0.687822348313214
30
0
0
SPLINE
5
102
100
AcDbEntity
8
1
62
256
6
ByLayer
370
18
48
1
60
0
100
AcDbSpline
70
4
71
3
72
26
73
22
40
0
40
0
40
0
40
0
40
0.125
40
0.125
40
0.25
40
0.25
40
0.312499999999999
40
0.312499999999999
40
0.374999999999999
40
0.374999999999999
40
0.499999999999999
40
0.625
40
0.75
40
0.75
40
0.781250000000001
40
0.781250000000001
40
0.812500000000001
40
0.812500000000001
40
0.875000000000001
40
0.875000000000001
40
1
40
1
40
1
40
1
41
1
10
42.3315727059007
20
-0.302711796364122
30
0
41
1
10
42.3358015043328
20
-0.383724678887546
30
0
41
1
10
42.3400338282729
20
-0.463724184245024
30
0
41
1
10
42.3485557987947
20
-0.621739898664345
30
0
41
1
10
42.3528301947343
20
-0.699756830774049
30
0
41
1
10
42.3592205618615
20
-0.815287995204329
30
0
41
1
10
42.361347535797
20
-0.853548870310192
30
0
41
1
10
42.3655932788522
20
-0.929564388444049
30
0
41
1
10
42.3677138663715
20
-0.967351489459844
30
0
41
1
10
42.3740544982352
20
-1.07973279781666
30
0
41
1
10
42.3823356143204
20
-1.22496146605968
30
0
41
1
10
42.3944390552783
20
-1.42942537895553
30
0
41
1
10
42.4025431195579
20
-1.5568489856438
30
0
41
1
10
42.4077351352022
20
-1.63363888135208
30
0
41
1
10
42.4087796554001
20
-1.64885404325042
30
0
41
1
10
42.4108803947565
20
-1.67899565032104
30
0
41
1
10
42.4119376468871
20
-1.69393596211614
30
0
41
1
10
42.4151089214953
20
-1.73808077128132
30
0
41
1
10
42.4172272598386
20
-1.76668069292603
30
0
41
1
10
42.4235878377682
20
-1.85003950632594
30
0
41
1
10
42.4278349375639
20
-1.90236340196574
30
0
41
1
10
42.4320778521023
20
-1.95149309625654
30
0
0
SPLINE
5
103
100
AcDbEntity
8
1
62
256
6
ByLayer
370
18
48
1
60
0
100
AcDbSpline
70
4
71
3
72
8
73
4
40
0
40
0
40
0
40
0
40
1
40
1
40
1
40
1
41
1
10
45.8806425671871
20
2.01499648481675
30
0
41
1
10
45.8428118639799
20
1.94066240835457
30
0
41
1
10
45.8047967323789
20
1.86571838086095
30
0
41
1
10
45.7665222241727
20
1.79018723690351
30
0
0
SPLINE
5
104
100
AcDbEntity
8
1
62
256
6
ByLayer
370
18
48
1
60
0
100
AcDbSpline
70
4
71
3
72
28
73
24
40
0
40
0
40
0
40
0
40
0.125000000000026
40
0.125000000000026
40
0.250000000000053
40
0.250000000000053
40
0.375000000000079
40
0.375000000000079
40
0.437500000000039
40
0.437500000000039
40
0.5
40
0.5
40
0.625000000000033
40
0.625000000000033
40
0.687500000000049
40
0.687500000000049
40
0.750000000000064
40
0.750000000000064
40
0.874999999999984
40
0.874999999999984
40
0.937499999999992
40
0.937499999999992
40
1
40
1
40
1
40
1
41
1
10
45.7665222241698
20
1.79018723689899
30
0
41
1
10
45.7609451992971
20
1.77918150258194
30
0
41
1
10
45.7544636544794
20
1.76906857380698
30
0
41
1
10
45.740062374215
20
1.75025142201582
30
0
41
1
10
45.7320608890636
20
1.74149759859009
30
0
41
1
10
45.715218682363
20
1.72583145589402
30
0
41
1
10
45.7063483516611
20
1.71885914789325
30
0
41
1
10
45.6923957522876
20
1.70966878338976
30
0
41
1
10
45.6876273966923
20
1.70681701070575
30
0
41
1
10
45.6780445589925
20
1.7016501869208
30
0
41
1
10
45.6732097593038
20
1.69932053530488
30
0
41
1
10
45.658579849558
20
1.69310348303466
30
0
41
1
10
45.6486612213665
20
1.68997277763614
30
0
41
1
10
45.633522686904
20
1.68706487612764
30
0
41
1
10
45.6284374337234
20
1.68640332392559
30
0
41
1
10
45.6184281982962
20
1.68578018945084
30
0
41
1
10
45.613474183281
20
1.68581132495311
30
0
41
1
10
45.5987884127587
20
1.6870469282226
30
0
41
1
10
45.5891483511142
20
1.68943830107986
30
0
41
1
10
45.5760904073769
20
1.6957845591607
30
0
41
1
10
45.5719177283386
20
1.6983797077261
30
0
41
1
10
45.564155920375
20
1.70459724884213
30
0
41
1
10
45.5606169484132
20
1.70817184941694
30
0
41
1
10
45.5574581961112
20
1.71226721206901
30
0
0
SPLINE
5
105
100
AcDbEntity
8
1
62
256
6
ByLayer
370
18
48
1
60
0
100
AcDbSpline
70
4
71
3
72
8
73
4
40
0
40
0
40
0
40
0
40
1
40
1
40
1
40
1
41
1
10
45.5574581961112
20
1.71226721206904
30
0
41
1
10
45.4988774838073
20
1.78821785281735
30
0
41
1
10
45.4405781966411
20
1.85959097895065
30
0
41
1
10
45.3827620608594
20
1.92616345891804
30
0
0
SPLINE
5
106
100
AcDbEntity
8
1
62
256
6
ByLayer
370
18
48
1
60
0
100
AcDbSpline
70
4
71
3
72
8
73
4
40
0
40
0
40
0
40
0
40
1
40
1
40
1
40
1
41
1
10
45.3827620608594
20
1.92616345891807
30
0
41
1
10
45.3040029464324
20
1.90515360854079
30
0
41
1
10
45.2258602712244
20
1.88098652390178
30
0
41
1
10
45.1481575444066
20
1.85373093658529
30
0
0
SPLINE
5
107
100
AcDbEntity
8
1
62
256
6
ByLayer
370
18
48
1
60
0
100
AcDbSpline
70
4
71
3
72
10
73
6
40
0
40
0
40
0
40
0
40
0.697289263925377
40
0.697289263925377
40
1
40
1
40
1
40
1
41
1
10
45.1481575444066
20
1.85373093658527
30
0
41
1
10
45.1125056142807
20
1.78008655275093
30
0
41
1
10
45.0766349156211
20
1.70643191511326
30
0
41
1
10
45.0249717552214
20
1.60122437366593
30
0
41
1
10
45.0093049156245
20
1.56943250193876
30
0
41
1
10
44.9936029876604
20
1.53770030580381
30
0
0
SPLINE
5
108
100
AcDbEntity
8
1
62
256
6
ByLayer
370
18
48
1
60
0
100
AcDbSpline
70
4
71
3
72
8
73
4
40
0
40
0
40
0
40
0
40
1
40
1
40
1
40
1
41
1
10
38.8819247939016
20
-2.00143263353945
30
0
41
1
10
38.8130647610402
20
-2.1186288734672
30
0
41
1
10
38.7446064245491
20
-2.23451537422298
30
0
41
1
10
38.6768963175435
20
-2.34795843376654
30
0
0
SPLINE
5
109
100
AcDbEntity
8
1
62
256
6
ByLayer
370
18
48
1
60
0
100
AcDbSpline
70
4
71
3
72
8
73
4
40
0
40
0
40
0
40
0
40
1
40
1
40
1
40
1
41
1
10
38.6768963175436
20
-2.34795843376625
30
0
41
1
10
38.5713418218692
20
-2.28529409148402
30
0
41
1
10
38.4652364368729
20
-2.21471373398978
30
0
41
1
10
38.3576514990709
20
-2.13665351547496
30
0
0
SPLINE
5
10A
100
AcDbEntity
8
1
62
256
6
ByLayer
370
18
48
1
60
0
100
AcDbSpline
70
4
71
3
72
8
73
4
40
0
40
0
40
0
40
0
40
1
40
1
40
1
40
1
41
1
10
38.3576514990709
20
-2.13665351547496
30
0
41
1
10
38.3240933096899
20
-2.07697880598181
30
0
41
1
10
38.2903876031322
20
-2.01629456881526
30
0
41
1
10
38.2564769058534
20
-1.95458333016683
30
0
0
SPLINE
5
10B
100
AcDbEntity
8
1
62
256
6
ByLayer
370
18
48
1
60
0
100
AcDbSpline
70
4
71
3
72
26
73
22
40
0
40
0
40
0
40
0
40
0.125000000000015
40
0.125000000000015
40
0.25000000000003
40
0.25000000000003
40
0.375000000000045
40
0.375000000000045
40
0.50000000000006
40
0.50000000000006
40
0.625000000000075
40
0.625000000000075
40
0.75000000000009
40
0.75000000000009
40
0.812500000000068
40
0.812500000000068
40
0.875000000000045
40
0.875000000000045
40
0.937500000000023
40
0.937500000000023
40
1
40
1
40
1
40
1
41
1
10
38.2564769058534
20
-1.95458333016683
30
0
41
1
10
38.2511886942258
20
-1.94495975660754
30
0
41
1
10
38.2450859432458
20
-1.93629156868312
30
0
41
1
10
38.2315766852188
20
-1.92046564382315
30
0
41
1
10
38.2240933302206
20
-1.91326533329922
30
0
41
1
10
38.2083021516779
20
-1.90063664890854
30
0
41
1
10
38.1999971757765
20
-1.89518419189545
30
0
41
1
10
38.1826141187479
20
-1.88594516813132
30
0
41
1
10
38.1735104635948
20
-1.8821708303054
30
0
41
1
10
38.1551508757501
20
-1.87662085137379
30
0
41
1
10
38.1458217681583
20
-1.87479664809703
30
0
41
1
10
38.1268644037207
20
-1.87328423436909
30
0
41
1
10
38.1171734244508
20
-1.87362467037713
30
0
41
1
10
38.10307018164
20
-1.87607070035128
30
0
41
1
10
38.0984175312635
20
-1.87720625574315
30
0
41
1
10
38.0892256077472
20
-1.88019987943423
30
0
41
1
10
38.0846557822385
20
-1.88207590379034
30
0
41
1
10
38.0758822720359
20
-1.88656397033685
30
0
41
1
10
38.0716626563392
20
-1.88917487785477
30
0
41
1
10
38.063599797349
20
-1.8952190442327
30
0
41
1
10
38.0597270799394
20
-1.89868531965163
30
0
41
1
10
38.0561634104369
20
-1.90254947338462
30
0
0
SPLINE
5
10C
100
AcDbEntity
8
1
62
256
6
ByLayer
370
18
48
1
60
0
100
AcDbSpline
70
4
71
3
72
8
73
4
40
0
40
0
40
0
40
0
40
1
40
1
40
1
40
1
41
1
10
45.9547348752338
20
1.03904088709015
30
0
41
1
10
45.9751543785103
20
1.04793836342
30
0
41
1
10
45.9954972944792
20
1.05604889942438
30
0
41
1
10
46.0157764379105
20
1.06340652871523
30
0
0
SPLINE
5
10D
100
AcDbEntity
8
1
62
256
6
ByLayer
370
18
48
1
60
0
100
AcDbSpline
70
4
71
3
72
10
73
6
40
0
40
0
40
0
40
0
40
0.5
40
0.5
40
1
40
1
40
1
40
1
41
1
10
44.444868862405
20
-1.9969592393862
30
0
41
1
10
44.399716616629
20
-2.07431857066999
30
0
41
1
10
44.3547415103742
20
-2.15130576747455
30
0
41
1
10
44.2653028200992
20
-2.30395631227398
30
0
41
1
10
44.2208749004225
20
-2.37955699021683
30
0
41
1
10
44.1767320035275
20
-2.45425130773739
30
0
0
SPLINE
5
10E
100
AcDbEntity
8
1
62
256
6
ByLayer
370
18
48
1
60
0
100
AcDbSpline
70
4
71
3
72
8
73
4
40
0
40
0
40
0
40
0
40
1
40
1
40
1
40
1
41
1
10
43.8397257507814
20
-2.01022586845244
30
0
41
1
10
43.8329626460112
20
-1.99821789976096
30
0
41
1
10
43.8261921142295
20
-1.98616546109397
30
0
41
1
10
43.8194135599713
20
-1.97406869748244
30
0
0
SPLINE
5
10F
100
AcDbEntity
8
1
62
256
6
ByLayer
370
18
48
1
60
0
100
AcDbSpline
70
4
71
3
72
28
73
24
40
0
40
0
40
0
40
0
40
0.124999999999944
40
0.124999999999944
40
0.249999999999889
40
0.249999999999889
40
0.374999999999833
40
0.374999999999833
40
0.437499999999805
40
0.437499999999805
40
0.499999999999777
40
0.499999999999777
40
0.624999999999833
40
0.624999999999833
40
0.687499999999861
40
0.687499999999861
40
0.749999999999889
40
0.749999999999889
40
0.874999999999945
40
0.874999999999945
40
0.937499999999972
40
0.937499999999972
40
1
40
1
40
1
40
1
41
1
10
43.8194135599684
20
-1.97406869747729
30
0
41
1
10
43.8138463269573
20
-1.96413361410498
30
0
41
1
10
43.8073779661361
20
-1.95527664597532
30
0
41
1
10
43.7930073850262
20
-1.93925723509273
30
0
41
1
10
43.785024524562
20
-1.93206216875029
30
0
41
1
10
43.768218645872
20
-1.91968473065273
30
0
41
1
10
43.7593654064687
20
-1.9144478389473
30
0
41
1
10
43.7454345588657
20
-1.90800461464283
30
0
41
1
10
43.7406716863005
20
-1.90609411285337
30
0
41
1
10
43.7310974730937
20
-1.90282778688589
30
0
41
1
10
43.7262661294386
20
-1.90146140155821
30
0
41
1
10
43.7116436827193
20
-1.8981773228189
30
0
41
1
10
43.7017261877902
20
-1.89705837802688
30
0
41
1
10
43.6865818620284
20
-1.89728477237273
30
0
41
1
10
43.6814882571808
20
-1.89768722531141
30
0
41
1
10
43.671462041381
20
-1.89918688193637
30
0
41
1
10
43.6664989061775
20
-1.90028276057552
30
0
41
1
10
43.6517840627426
20
-1.90472683938108
30
0
41
1
10
43.6421193017349
20
-1.90929805195935
30
0
41
1
10
43.6290273618964
20
-1.91875322326103
30
0
41
1
10
43.6248434904478
20
-1.92237045585443
30
0
41
1
10
43.6170628116873
20
-1.93055664089016
30
0
41
1
10
43.6135161322203
20
-1.93506472713841
30
0
41
1
10
43.6103514478961
20
-1.94003585964003
30
0
0
SPLINE
5
110
100
AcDbEntity
8
1
62
256
6
ByLayer
370
18
48
1
60
0
100
AcDbSpline
70
4
71
3
72
10
73
6
40
0
40
0
40
0
40
0
40
0.5
40
0.5
40
1
40
1
40
1
40
1
41
1
10
43.6103514478935
20
-1.94003585964407
30
0
41
1
10
43.5651378534765
20
-2.01105803617779
30
0
41
1
10
43.5200960769751
20
-2.08042333799196
30
0
41
1
10
43.430526865785
20
-2.21538707063633
30
0
41
1
10
43.3860370132613
20
-2.28093431853688
30
0
41
1
10
43.3418458242378
20
-2.3444092236825
30
0
0
SPLINE
5
111
100
AcDbEntity
8
1
62
256
6
ByLayer
370
18
48
1
60
0
100
AcDbSpline
70
4
71
3
72
8
73
4
40
0
40
0
40
0
40
0
40
1
40
1
40
1
40
1
41
1
10
43.2667553379594
20
-2.32234698524289
30
0
41
1
10
43.2917860454373
20
-2.3300250424731
30
0
41
1
10
43.3168145103159
20
-2.33737985293678
30
0
41
1
10
43.3418458242378
20
-2.34440922368256
30
0
0
SPLINE
5
112
100
AcDbEntity
8
1
62
256
6
ByLayer
370
18
48
1
60
0
100
AcDbSpline
70
4
71
3
72
10
73
6
40
0
40
0
40
0
40
0
40
0.5
40
0.5
40
1
40
1
40
1
40
1
41
1
10
43.2667553379609
20
-2.32234698522947
30
0
41
1
10
43.220476427376
20
-2.23184216507957
30
0
41
1
10
43.1739018764524
20
-2.14011057384556
30
0
41
1
10
43.0799072620865
20
-1.95435421338536
30
0
41
1
10
43.0326531932093
20
-1.860653371182
30
0
41
1
10
42.9850023854019
20
-1.76618349123237
30
0
0
SPLINE
5
113
100
AcDbEntity
8
1
62
256
6
ByLayer
370
18
48
1
60
0
100
AcDbSpline
70
4
71
3
72
28
73
24
40
0
40
0
40
0
40
0
40
0.124999999999975
40
0.124999999999975
40
0.249999999999949
40
0.249999999999949
40
0.374999999999924
40
0.374999999999924
40
0.43749999999991
40
0.43749999999991
40
0.499999999999897
40
0.499999999999897
40
0.624999999999983
40
0.624999999999983
40
0.68749999999997
40
0.68749999999997
40
0.749999999999957
40
0.749999999999957
40
0.874999999999929
40
0.874999999999929
40
0.937499999999965
40
0.937499999999965
40
1
40
1
40
1
40
1
41
1
10
42.985002385397
20
-1.76618349122268
30
0
41
1
10
42.9794225291136
20
-1.75512117397344
30
0
41
1
10
42.972937764111
20
-1.7449334135901
30
0
41
1
10
42.9585313764898
20
-1.72593670974768
30
0
41
1
10
42.9505279663733
20
-1.71707705571652
30
0
41
1
10
42.933684413696
20
-1.7011775909215
30
0
41
1
10
42.9248143394447
20
-1.69407721455931
30
0
41
1
10
42.910863190715
20
-1.68467691032117
30
0
41
1
10
42.9060962983117
20
-1.68175251594315
30
0
41
1
10
42.8965167412438
20
-1.67643661801736
30
0
41
1
10
42.8916836149231
20
-1.67403016490542
30
0
41
1
10
42.8770586581806
20
-1.6675756778055
30
0
41
1
10
42.8671432388677
20
-1.66427745685053
30
0
41
1
10
42.8520087747538
20
-1.66110139769006
30
0
41
1
10
42.8469265284147
20
-1.66034794817244
30
0
41
1
10
42.8369222480735
20
-1.65953848933393
30
0
41
1
10
42.8319704191513
20
-1.65947478569484
30
0
41
1
10
42.8172903453789
20
-1.66042005802296
30
0
41
1
10
42.8076541560505
20
-1.66260792058526
30
0
41
1
10
42.7945995085192
20
-1.66865115634701
30
0
41
1
10
42.7904274287924
20
-1.6711445793961
30
0
41
1
10
42.782666164268
20
-1.67716067316564
30
0
41
1
10
42.7791268339151
20
-1.68063711299678
30
0
41
1
10
42.7759672913642
20
-1.68463760945488
30
0
0
SPLINE
5
114
100
AcDbEntity
8
1
62
256
6
ByLayer
370
18
48
1
60
0
100
AcDbSpline
70
4
71
3
72
10
73
6
40
0
40
0
40
0
40
0
40
0.5
40
0.5
40
1
40
1
40
1
40
1
41
1
10
42.7759672913625
20
-1.68463760945704
30
0
41
1
10
42.7307467483133
20
-1.74189419625952
30
0
41
1
10
42.6857067475394
20
-1.79636373571003
30
0
41
1
10
42.5961394232014
20
-1.89954407684368
30
0
41
1
10
42.5516480634693
20
-1.94822425926657
30
0
41
1
10
42.507445658869
20
-1.99396327426305
30
0
0
SPLINE
5
115
100
AcDbEntity
8
1
62
256
6
ByLayer
370
18
48
1
60
0
100
AcDbSpline
70
4
71
3
72
10
73
6
40
0
40
0
40
0
40
0
40
0.5
40
0.5
40
1
40
1
40
1
40
1
41
1
10
42.4320778520932
20
-1.95149309624423
30
0
41
1
10
42.3857883176194
20
-1.85529112142859
30
0
41
1
10
42.339232985553
20
-1.75926538526528
30
0
41
1
10
42.2453208721369
20
-1.56777940500072
30
0
41
1
10
42.1981315719027
20
-1.47265249952639
30
0
41
1
10
42.1505520430468
20
-1.3782377469999
30
0
0
SPLINE
5
116
100
AcDbEntity
8
1
62
256
6
ByLayer
370
18
48
1
60
0
100
AcDbSpline
70
4
71
3
72
28
73
24
40
0
40
0
40
0
40
0
40
0.125000000000121
40
0.125000000000121
40
0.250000000000243
40
0.250000000000243
40
0.375000000000364
40
0.375000000000364
40
0.437500000000372
40
0.437500000000372
40
0.500000000000381
40
0.500000000000381
40
0.625000000000286
40
0.625000000000286
40
0.687500000000239
40
0.687500000000239
40
0.750000000000191
40
0.750000000000191
40
0.875000000000096
40
0.875000000000096
40
0.937500000000048
40
0.937500000000048
40
1
40
1
40
1
40
1
41
1
10
42.1505520430416
20
-1.37823774698941
30
0
41
1
10
42.1449809138588
20
-1.36718263997892
30
0
41
1
10
42.1385070525162
20
-1.35669689764913
30
0
41
1
10
42.1241227153115
20
-1.33663271402671
30
0
41
1
10
42.1161306238287
20
-1.32699072857588
30
0
41
1
10
42.0993041005784
20
-1.30913374647165
30
0
41
1
10
42.0904404406492
20
-1.30085900908804
30
0
41
1
10
42.076494687463
20
-1.28940276151368
30
0
41
1
10
42.0717271624284
20
-1.28574046634321
30
0
41
1
10
42.0621446858239
20
-1.27887317100036
30
0
41
1
10
42.0573096134623
20
-1.27565053152333
30
0
41
1
10
42.042677539898
20
-1.26662139437084
30
0
41
1
10
42.0327556525698
20
-1.26144139750701
30
0
41
1
10
42.0176099417902
20
-1.25513580321046
30
0
41
1
10
42.0125192971056
20
-1.25328638080271
30
0
41
1
10
42.0025008299608
20
-1.25022413934408
30
0
41
1
10
41.9975425801252
20
-1.24899728310933
30
0
41
1
10
41.9828457543267
20
-1.24632612934599
30
0
41
1
10
41.9731989927533
20
-1.24590729395831
30
0
41
1
10
41.9601376732082
20
-1.24794193939076
30
0
41
1
10
41.9559654928577
20
-1.24906680209855
30
0
41
1
10
41.9482038212803
20
-1.25232255107835
30
0
41
1
10
41.9446657645255
20
-1.25442566910581
30
0
41
1
10
41.9415082910018
20
-1.25706008350934
30
0
0
SPLINE
5
117
100
AcDbEntity
8
1
62
256
6
ByLayer
370
18
48
1
60
0
100
AcDbSpline
70
4
71
3
72
10
73
6
40
0
40
0
40
0
40
0
40
0.5
40
0.5
40
1
40
1
40
1
40
1
41
1
10
41.9415082909995
20
-1.25706008351119
30
0
41
1
10
41.8963281700485
20
-1.29475577929833
30
0
41
1
10
41.8513224927553
20
-1.32870040888096
30
0
41
1
10
41.7618188595089
20
-1.38924914682724
30
0
41
1
10
41.7173568379293
20
-1.41584773987745
30
0
41
1
10
41.673180698757
20
-1.43887606870842
30
0
0
SPLINE
5
118
100
AcDbEntity
8
1
62
256
6
ByLayer
370
18
48
1
60
0
100
AcDbSpline
70
4
71
3
72
8
73
4
40
0
40
0
40
0
40
0
40
1
40
1
40
1
40
1
41
1
10
41.5978469468303
20
-1.38052431522726
30
0
41
1
10
41.6229551084451
20
-1.40017020980247
30
0
41
1
10
41.6480648054164
20
-1.41962218517787
30
0
41
1
10
41.673180698757
20
-1.43887606870845
30
0
0
SPLINE
5
119
100
AcDbEntity
8
1
62
256
6
ByLayer
370
18
48
1
60
0
100
AcDbSpline
70
4
71
3
72
10
73
6
40
0
40
0
40
0
40
0
40
0.5
40
0.5
40
1
40
1
40
1
40
1
41
1
10
41.5978469468315
20
-1.38052431521999
30
0
41
1
10
41.5515017047857
20
-1.288477982475
30
0
41
1
10
41.5048740186544
20
-1.19799414445632
30
0
41
1
10
41.4108730002738
20
-1.02038900734112
30
0
41
1
10
41.3636723294946
20
-0.933566882612098
30
0
41
1
10
41.3161590532685
20
-0.848832338142529
30
0
0
SPLINE
5
11A
100
AcDbEntity
8
1
62
256
6
ByLayer
370
18
48
1
60
0
100
AcDbSpline
70
4
71
3
72
28
73
24
40
0
40
0
40
0
40
0
40
0.125000000000108
40
0.125000000000108
40
0.250000000000217
40
0.250000000000217
40
0.375000000000326
40
0.375000000000326
40
0.437500000000327
40
0.437500000000327
40
0.500000000000329
40
0.500000000000329
40
0.625000000000222
40
0.625000000000222
40
0.687500000000169
40
0.687500000000169
40
0.750000000000115
40
0.750000000000115
40
0.875000000000008
40
0.875000000000008
40
0.937500000000004
40
0.937500000000004
40
1
40
1
40
1
40
1
41
1
10
41.3161590532637
20
-0.848832338133946
30
0
41
1
10
41.3105790757766
20
-0.838881080548248
30
0
41
1
10
41.3040958117854
20
-0.829138567128155
30
0
41
1
10
41.2896970937071
20
-0.809996804125774
30
0
41
1
10
41.2817008038184
20
-0.800528578118303
30
0
41
1
10
41.264873191553
20
-0.782480514645357
30
0
41
1
10
41.2560115875874
20
-0.773846143300119
30
0
41
1
10
41.2420730682926
20
-0.761453782289863
30
0
41
1
10
41.2373095819077
20
-0.757411960978658
30
0
41
1
10
41.2277353966632
20
-0.749660769762841
30
0
41
1
10
41.2229045291572
20
-0.745932668216312
30
0
41
1
10
41.2082848785952
20
-0.735191507893205
30
0
41
1
10
41.1983710482112
20
-0.728613316319723
30
0
41
1
10
41.18323516164
20
-0.719746298047596
30
0
41
1
10
41.1781460198384
20
-0.71696311428002
30
0
41
1
10
41.1681280883221
20
-0.711904871066508
30
0
41
1
10
41.1631690086735
20
-0.709611045516169
30
0
41
1
10
41.1484661256097
20
-0.703507708338975
30
0
41
1
10
41.1388092830728
20
-0.700462342106675
30
0
41
1
10
41.1257260850459
20
-0.698201491308822
30
0
41
1
10
41.1215450725439
20
-0.697819445533924
30
0
41
1
10
41.1137677202918
20
-0.69794295631047
30
0
41
1
10
41.1102221394725
20
-0.698443106432052
30
0
41
1
10
41.1070581125744
20
-0.69943438041949
30
0
0
SPLINE
5
11B
100
AcDbEntity
8
1
62
256
6
ByLayer
370
18
48
1
60
0
100
AcDbSpline
70
4
71
3
72
10
73
6
40
0
40
0
40
0
40
0
40
0.5
40
0.5
40
1
40
1
40
1
40
1
41
1
10
41.1070581125744
20
-0.699434380419262
30
0
41
1
10
41.06191210876
20
-0.713578400258001
30
0
41
1
10
41.0169338338977
20
-0.723636354715467
30
0
41
1
10
40.9274719602034
20
-0.735776162998576
30
0
41
1
10
40.8830252241949
20
-0.737868481889336
30
0
41
1
10
40.8388672170006
20
-0.736073696234115
30
0
0
SPLINE
5
11C
100
AcDbEntity
8
1
62
256
6
ByLayer
370
18
48
1
60
0
100
AcDbSpline
70
4
71
3
72
8
73
4
40
0
40
0
40
0
40
0
40
1
40
1
40
1
40
1
41
1
10
40.7632481790889
20
-0.667441034827618
30
0
41
1
10
40.7884525189621
20
-0.690413707893924
30
0
41
1
10
40.813656848006
20
-0.71329333829334
30
0
41
1
10
40.8388672170006
20
-0.736073696234143
30
0
0
SPLINE
5
11D
100
AcDbEntity
8
1
62
256
6
ByLayer
370
18
48
1
60
0
100
AcDbSpline
70
4
71
3
72
10
73
6
40
0
40
0
40
0
40
0
40
0.5
40
0.5
40
1
40
1
40
1
40
1
41
1
10
40.7632481790902
20
-0.667441034822815
30
0
41
1
10
40.717014673727
20
-0.588842390914522
30
0
41
1
10
40.6704856722641
20
-0.513096933440067
30
0
41
1
10
40.5765756907043
20
-0.367555874686332
30
0
41
1
10
40.5293636537864
20
-0.298003633809742
30
0
41
1
10
40.4817640599753
20
-0.231742851614456
30
0
0
SPLINE
5
11E
100
AcDbEntity
8
1
62
256
6
ByLayer
370
18
48
1
60
0
100
AcDbSpline
70
4
71
3
72
28
73
24
40
0
40
0
40
0
40
0
40
0.124999999999945
40
0.124999999999945
40
0.24999999999989
40
0.24999999999989
40
0.374999999999835
40
0.374999999999835
40
0.437499999999808
40
0.437499999999808
40
0.49999999999978
40
0.49999999999978
40
0.624999999999725
40
0.624999999999725
40
0.687499999999754
40
0.687499999999754
40
0.749999999999783
40
0.749999999999783
40
0.874999999999841
40
0.874999999999841
40
0.937499999999921
40
0.937499999999921
40
1
40
1
40
1
40
1
41
1
10
40.48176405997
20
-0.23174285160718
30
0
41
1
10
40.4761799383382
20
-0.22396950235057
30
0
41
1
10
40.4696897934606
20
-0.216022254350776
30
0
41
1
10
40.4552718456807
20
-0.199873027020402
30
0
41
1
10
40.4472621157059
20
-0.191602176548599
30
0
41
1
10
40.4304067384174
20
-0.175323051045638
30
0
41
1
10
40.4215310949879
20
-0.16727231849552
30
0
41
1
10
40.4075724411262
20
-0.155305937978312
30
0
41
1
10
40.4028037033241
20
-0.1513307032304
30
0
41
1
10
40.3932209036336
20
-0.143555665704724
30
0
41
1
10
40.388386287971
20
-0.139737813302247
30
0
41
1
10
40.3737572829253
20
-0.128488089721259
30
0
41
1
10
40.3638397127345
20
-0.121256663167827
30
0
41
1
10
40.3487030952019
20
-0.110843648441659
30
0
41
1
10
40.3436217347564
20
-0.107452950341269
30
0
41
1
10
40.3336189476358
20
-0.100994513420659
30
0
41
1
10
40.3286679384637
20
-0.0979059833750568
30
0
41
1
10
40.3139906015251
20
-0.0891007199185481
30
0
41
1
10
40.304357475186
20
-0.0838051845860548
30
0
41
1
10
40.2913072092214
20
-0.0775421423550711
30
0
41
1
10
40.2871366178222
20
-0.0757070338889037
30
0
41
1
10
40.2793776974327
20
-0.0727007604361063
30
0
41
1
10
40.2758392084481
20
-0.0715466142594892
30
0
41
1
10
40.2726801909635
20
-0.0707846012743119
30
0
0
SPLINE
5
11F
100
AcDbEntity
8
1
62
256
6
ByLayer
370
18
48
1
60
0
100
AcDbSpline
70
4
71
3
72
10
73
6
40
0
40
0
40
0
40
0
40
0.5
40
0.5
40
1
40
1
40
1
40
1
41
1
10
40.2726801909611
20
-0.070784601273715
30
0
41
1
10
40.2275060751306
20
-0.0598877755939782
30
0
41
1
10
40.1825122766911
20
-0.044836996131977
30
0
41
1
10
40.0930329609193
20
-0.0069572097144999
30
0
41
1
10
40.0485832503697
20
0.015841969419057
30
0
41
1
10
40.0044198447024
20
0.0422919471536716
30
0
0
SPLINE
5
120
100
AcDbEntity
8
1
62
256
6
ByLayer
370
18
48
1
60
0
100
AcDbSpline
70
4
71
3
72
8
73
4
40
0
40
0
40
0
40
0
40
1
40
1
40
1
40
1
41
1
10
39.929021274705
20
0.113637534647722
30
0
41
1
10
39.9541514587286
20
0.0898705673379823
30
0
41
1
10
39.9792826181796
20
0.0660869113204967
30
0
41
1
10
40.0044198447024
20
0.0422919471537
30
0
0
SPLINE
5
121
100
AcDbEntity
8
1
62
256
6
ByLayer
370
18
48
1
60
0
100
AcDbSpline
70
4
71
3
72
10
73
6
40
0
40
0
40
0
40
0
40
0.5
40
0.5
40
1
40
1
40
1
40
1
41
1
10
39.9290212747063
20
0.113637534648461
30
0
41
1
10
39.8826985023276
20
0.170745086848171
30
0
41
1
10
39.8361030806668
20
0.224143840735422
30
0
41
1
10
39.7421051497502
20
0.323179143808005
30
0
41
1
10
39.6948676849295
20
0.368654027703229
30
0
41
1
10
39.6472428052932
20
0.409904673242607
30
0
0
SPLINE
5
122
100
AcDbEntity
8
1
62
256
6
ByLayer
370
18
48
1
60
0
100
AcDbSpline
70
4
71
3
72
60
73
56
40
0
40
0
40
0
40
0
40
0.0036176962285627
40
0.0036176962285627
40
0.0189466547481219
40
0.0189466547481219
40
0.0802624888263587
40
0.0802624888263587
40
0.110920405865477
40
0.110920405865477
40
0.141578322904595
40
0.141578322904595
40
0.202894156982832
40
0.202894156982832
40
0.264209991061069
40
0.264209991061069
40
0.294867908100189
40
0.294867908100189
40
0.31019686661975
40
0.31019686661975
40
0.325525825139311
40
0.325525825139311
40
0.356183742178433
40
0.356183742178433
40
0.386841659217555
40
0.386841659217555
40
0.448157493295798
40
0.448157493295798
40
0.50947332737404
40
0.50947332737404
40
0.570789161452282
40
0.570789161452282
40
0.586118119971843
40
0.586118119971843
40
0.601447078491403
40
0.601447078491403
40
0.616776037010964
40
0.616776037010964
40
0.632104995530524
40
0.632104995530524
40
0.693420829608769
40
0.693420829608769
40
0.754736663687013
40
0.754736663687013
40
0.816052497765258
40
0.816052497765258
40
0.846710414804382
40
0.846710414804382
40
0.877368331843505
40
0.877368331843505
40
0.908026248882629
40
0.908026248882629
40
0.938684165921753
40
0.938684165921753
40
1
40
1
40
1
40
1
41
1
10
32.3673893948491
20
1.84769982824122
30
0
41
1
10
32.3738396889349
20
1.84769782495457
30
0
41
1
10
32.3802921737128
20
1.84767898613131
30
0
41
1
10
32.4140967581754
20
1.8474920191847
30
0
41
1
10
32.4415112655612
20
1.84703719482727
30
0
41
1
10
32.5784694318278
20
1.84324630655667
30
0
41
1
10
32.6873894695843
20
1.8353954065611
30
0
41
1
10
32.8498851197186
20
1.81650978913578
30
0
41
1
10
32.9038979977045
20
1.80902650598114
30
0
41
1
10
33.0115688689703
20
1.79164102129189
30
0
41
1
10
33.0652509440305
20
1.78173872102644
30
0
41
1
10
33.2265957318273
20
1.74870391156475
30
0
41
1
10
33.3344125411368
20
1.72222326997138
30
0
41
1
10
33.5506613341976
20
1.66059577493652
30
0
41
1
10
33.6591204730965
20
1.62546036269572
30
0
41
1
10
33.8225120324681
20
1.56633061952277
30
0
41
1
10
33.8770917346732
20
1.54554702008932
30
0
41
1
10
33.9591474483977
20
1.5127369107843
30
0
41
1
10
33.9865563575934
20
1.50151614985612
30
0
41
1
10
34.0412424702174
20
1.47860225938993
30
0
41
1
10
34.0685321183956
20
1.46690469692464
30
0
41
1
10
34.1502367999481
20
1.43108704473164
30
0
41
1
10
34.2044786167176
20
1.4062341565546
30
0
41
1
10
34.3125261305494
20
1.35458493312566
30
0
41
1
10
34.3664206604466
20
1.32787209466662
30
0
41
1
10
34.528120882475
20
1.24550622140561
30
0
41
1
10
34.6359028393115
20
1.18759481342099
30
0
41
1
10
34.851900689259
20
1.0664766295229
30
0
41
1
10
34.9600503602901
20
1.00319953889556
30
0
41
1
10
35.1768422512138
20
0.871428860805224
30
0
41
1
10
35.2855004064264
20
0.80295963279849
30
0
41
1
10
35.4216546041156
20
0.713994290808898
30
0
41
1
10
35.4489020408983
20
0.696031564954922
30
0
41
1
10
35.5034292230844
20
0.659758488410574
30
0
41
1
10
35.5307189661011
20
0.641440269016073
30
0
41
1
10
35.5851049457191
20
0.604600466465627
30
0
41
1
10
35.6122321328023
20
0.586066205930479
30
0
41
1
10
35.6664865740837
20
0.548953207198622
30
0
41
1
10
35.6936088082797
20
0.530367542455309
30
0
41
1
10
35.8291299677018
20
0.437204169645668
30
0
41
1
10
35.9372940831805
20
0.36197077890273
30
0
41
1
10
36.1535857758349
20
0.210786452345531
30
0
41
1
10
36.2617164584996
20
0.134840618695591
30
0
41
1
10
36.4780207095991
20
-0.0176483753144225
30
0
41
1
10
36.5861485011371
20
-0.094257268424883
30
0
41
1
10
36.7485467218462
20
-0.209384867380947
30
0
41
1
10
36.8026992298523
20
-0.247817616561349
30
0
41
1
10
36.9110619370958
20
-0.324776193463578
30
0
41
1
10
36.9653428049569
20
-0.363200272309712
30
0
41
1
10
37.0744373706983
20
-0.439456103418337
30
0
41
1
10
37.1290508167207
20
-0.47719165394497
30
0
41
1
10
37.2382617901059
20
-0.551735930683918
30
0
41
1
10
37.2928851266319
20
-0.588567683976663
30
0
41
1
10
37.4568307357258
20
-0.697725739411624
30
0
41
1
10
37.5662598296897
20
-0.768675896532926
30
0
41
1
10
37.6759449429839
20
-0.837640080917538
30
0
0
SPLINE
5
123
100
AcDbEntity
8
1
62
256
6
ByLayer
370
18
48
1
60
0
100
AcDbSpline
70
4
71
3
72
14
73
10
40
0
40
0
40
0
40
0
40
0.499999999999974
40
0.499999999999974
40
0.749999999999987
40
0.749999999999987
40
0.874999999999994
40
0.874999999999994
40
1
40
1
40
1
40
1
41
1
10
37.6759449429838
20
-0.837640080917538
30
0
41
1
10
37.7187196792947
20
-0.864534567446725
30
0
41
1
10
37.7611334682984
20
-0.892884083491765
30
0
41
1
10
37.8238144518707
20
-0.938178471497167
30
0
41
1
10
37.8445546141397
20
-0.953736711954122
30
0
41
1
10
37.8754126366256
20
-0.977838286278228
30
0
41
1
10
37.8856729097515
20
-0.986013041553065
30
0
41
1
10
37.9059631294771
20
-1.00251104853726
30
0
41
1
10
37.9160069960753
20
-1.01084330530901
30
0
41
1
10
37.925944942984
20
-1.01926163478288
30
0
0
SPLINE
5
124
100
AcDbEntity
8
1
62
256
6
ByLayer
370
18
48
1
60
0
100
AcDbSpline
70
4
71
3
72
8
73
4
40
0
40
0
40
0
40
0
40
1
40
1
40
1
40
1
41
1
10
37.9259449429839
20
-1.01926163478294
30
0
41
1
10
37.9519809451974
20
-1.0413164562496
30
0
41
1
10
37.9780033919336
20
-1.06338070128876
30
0
41
1
10
38.0038729740177
20
-1.08560157559893
30
0
0
SPLINE
5
125
100
AcDbEntity
8
1
62
256
6
ByLayer
370
18
48
1
60
0
100
AcDbSpline
70
4
71
3
72
20
73
16
40
0
40
0
40
0
40
0
40
0.250000000000001
40
0.250000000000001
40
0.375000000000001
40
0.375000000000001
40
0.500000000000001
40
0.500000000000001
40
0.625
40
0.625
40
0.75
40
0.75
40
0.875
40
0.875
40
1
40
1
40
1
40
1
41
1
10
38.0038729740178
20
-1.08560157559879
30
0
41
1
10
38.0169329230016
20
-1.09105255011644
30
0
41
1
10
38.0307615667806
20
-1.09783803305459
30
0
41
1
10
38.0525200272396
20
-1.11000886663211
30
0
41
1
10
38.0598643937764
20
-1.1143634892299
30
0
41
1
10
38.0745160196828
20
-1.12356906949694
30
0
41
1
10
38.0818548469013
20
-1.12843702341871
30
0
41
1
10
38.0965458164013
20
-1.13876951646299
30
0
41
1
10
38.1039666940044
20
-1.14428863680422
30
0
41
1
10
38.1184127150284
20
-1.15574777423046
30
0
41
1
10
38.1254310007661
20
-1.16167349402082
30
0
41
1
10
38.1389732987092
20
-1.17400235802339
30
0
41
1
10
38.1455245117764
20
-1.18044837871184
30
0
41
1
10
38.1573372426129
20
-1.19325621059127
30
0
41
1
10
38.1626882786873
20
-1.19968900237069
30
0
41
1
10
38.1673368545094
20
-1.20615081730981
30
0
0
SPLINE
5
126
100
AcDbEntity
8
1
62
256
6
ByLayer
370
18
48
1
60
0
100
AcDbSpline
70
4
71
3
72
8
73
4
40
0
40
0
40
0
40
0
40
1
40
1
40
1
40
1
41
1
10
38.1673368545094
20
-1.20615081730978
30
0
41
1
10
38.1830174353005
20
-1.22794781817365
30
0
41
1
10
38.1986630501632
20
-1.25006190009984
30
0
41
1
10
38.2142736159919
20
-1.27246706001316
30
0
0
SPLINE
5
127
100
AcDbEntity
8
1
62
256
6
ByLayer
370
18
48
1
60
0
100
AcDbSpline
70
4
71
3
72
8
73
4
40
0
40
0
40
0
40
0
40
1
40
1
40
1
40
1
41
1
10
38.2142736159919
20
-1.27246706001316
30
0
41
1
10
38.3463088925079
20
-1.39325955698933
30
0
41
1
10
38.475981175663
20
-1.51638813120152
30
0
41
1
10
38.6043136060897
20
-1.64073483456031
30
0
0
SPLINE
5
128
100
AcDbEntity
8
1
62
256
6
ByLayer
370
18
48
1
60
0
100
AcDbSpline
70
4
71
3
72
8
73
4
40
0
40
0
40
0
40
0
40
1
40
1
40
1
40
1
41
1
10
38.6043136060897
20
-1.64073483456031
30
0
41
1
10
38.666379527823
20
-1.61889497537209
30
0
41
1
10
38.7291708904326
20
-1.58941999957273
30
0
41
1
10
38.7927067614634
20
-1.55235762771915
30
0
0
SPLINE
5
129
100
AcDbEntity
8
1
62
256
6
ByLayer
370
18
48
1
60
0
100
AcDbSpline
70
4
71
3
72
27
73
23
40
0
40
0
40
0
40
0
40
0.125000000000001
40
0.125000000000001
40
0.250000000000001
40
0.250000000000001
40
0.375000000000002
40
0.375000000000002
40
0.500000000000003
40
0.500000000000003
40
0.625000000000003
40
0.625000000000003
40
0.687500000000003
40
0.687500000000003
40
0.750000000000002
40
0.812500000000002
40
0.812500000000002
40
0.875000000000001
40
0.875000000000001
40
0.937500000000001
40
0.937500000000001
40
1
40
1
40
1
40
1
41
1
10
38.7927067614634
20
-1.55235762771915
30
0
41
1
10
38.7984516066987
20
-1.54900648785278
30
0
41
1
10
38.8051533308411
20
-1.5469326796352
30
0
41
1
10
38.8200307295389
20
-1.5447265879165
30
0
41
1
10
38.8283110116796
20
-1.54462586223318
30
0
41
1
10
38.8455982458583
20
-1.54619966090615
30
0
41
1
10
38.8546395677963
20
-1.54785057505163
30
0
41
1
10
38.8734520695771
20
-1.55281277021854
30
0
41
1
10
38.883277853654
20
-1.55616148634314
30
0
41
1
10
38.9028926229751
20
-1.56436803801429
30
0
41
1
10
38.9127675212699
20
-1.56923861599827
30
0
41
1
10
38.9276641694668
20
-1.57786156737402
30
0
41
1
10
38.9326709050847
20
-1.5809772232262
30
0
41
1
10
38.9425050263972
20
-1.58757368208703
30
0
41
1
10
38.952189018633
20
-1.5945468718777
30
0
41
1
10
38.9615402045731
20
-1.602342470472
30
0
41
1
10
38.9706967226056
20
-1.61061227640002
30
0
41
1
10
38.9751598801737
20
-1.61497482465413
30
0
41
1
10
38.9835883228286
20
-1.62397291301687
30
0
41
1
10
38.9875866230159
20
-1.62863635800113
30
0
41
1
10
38.9950868415862
20
-1.63834105626964
30
0
41
1
10
38.9985851701322
20
-1.64338699921046
30
0
41
1
10
39.0016933901211
20
-1.64850628823302
30
0
0
SPLINE
5
12A
100
AcDbEntity
8
1
62
256
6
ByLayer
370
18
48
1
60
0
100
AcDbSpline
70
4
71
3
72
10
73
6
40
0
40
0
40
0
40
0
40
0.5
40
0.5
40
1
40
1
40
1
40
1
41
1
10
39.001693390128
20
-1.6485062882422
30
0
41
1
10
39.0473800597789
20
-1.72375297840739
30
0
41
1
10
39.0927129073619
20
-1.80031718951491
30
0
41
1
10
39.1828887811274
20
-1.95593033611863
30
0
41
1
10
39.227565171157
20
-2.03469231151016
30
0
41
1
10
39.2719409616282
20
-2.11432832390565
30
0
0
SPLINE
5
12B
100
AcDbEntity
8
1
62
256
6
ByLayer
370
18
48
1
60
0
100
AcDbSpline
70
4
71
3
72
10
73
6
40
0
40
0
40
0
40
0
40
0.500000000000007
40
0.500000000000007
40
1
40
1
40
1
40
1
41
1
10
39.3470790546277
20
-2.14967872649172
30
0
41
1
10
39.3929287999666
20
-2.11069152933038
30
0
41
1
10
39.4390792902211
20
-2.06813522085847
30
0
41
1
10
39.5324110924361
20
-1.97547571496725
30
0
41
1
10
39.579444820446
20
-1.92547703503365
30
0
41
1
10
39.6270274462205
20
-1.87173581653263
30
0
0
SPLINE
5
12C
100
AcDbEntity
8
1
62
256
6
ByLayer
370
18
48
1
60
0
100
AcDbSpline
70
4
71
3
72
27
73
23
40
0
40
0
40
0
40
0
40
0.125000000000042
40
0.125000000000042
40
0.250000000000084
40
0.250000000000084
40
0.375000000000126
40
0.375000000000126
40
0.500000000000168
40
0.500000000000168
40
0.62500000000021
40
0.62500000000021
40
0.687500000000175
40
0.687500000000175
40
0.75000000000014
40
0.812500000000105
40
0.812500000000105
40
0.87500000000007
40
0.87500000000007
40
0.937500000000035
40
0.937500000000035
40
1
40
1
40
1
40
1
41
1
10
39.6270274462205
20
-1.87173581653263
30
0
41
1
10
39.6327841368134
20
-1.86523404068566
30
0
41
1
10
39.6394984104302
20
-1.8601099633523
30
0
41
1
10
39.6543987756558
20
-1.85195194463014
30
0
41
1
10
39.6626893399671
20
-1.84892334874746
30
0
41
1
10
39.6799890133432
20
-1.84498667422099
30
0
41
1
10
39.6890342142001
20
-1.84403554201512
30
0
41
1
10
39.707849904102
20
-1.84407191983686
30
0
41
1
10
39.7176741326294
20
-1.84508918047789
30
0
41
1
10
39.7372846058352
20
-1.84908639950834
30
0
41
1
10
39.7471566328353
20
-1.85205392505304
30
0
41
1
10
39.7620470304975
20
-1.8581497309761
30
0
41
1
10
39.7670513219166
20
-1.86047459742133
30
0
41
1
10
39.7768817416728
20
-1.86564322316437
30
0
41
1
10
39.7865620016078
20
-1.87133614118417
30
0
41
1
10
39.795909436008
20
-1.87816494563773
30
0
41
1
10
39.8050613833336
20
-1.88564634375496
30
0
41
1
10
39.8095254530336
20
-1.88970935534738
30
0
41
1
10
39.8179554190563
20
-1.89832874499424
30
0
41
1
10
39.8219547250712
20
-1.90290996084426
30
0
41
1
10
39.829457310276
20
-1.91269720042905
30
0
41
1
10
39.8329596797763
20
-1.91791383381383
30
0
41
1
10
39.8360720600039
20
-1.92334664664199
30
0
0
SPLINE
5
12D
100
AcDbEntity
8
1
62
256
6
ByLayer
370
18
48
1
60
0
100
AcDbSpline
70
4
71
3
72
10
73
6
40
0
40
0
40
0
40
0
40
0.5
40
0.5
40
1
40
1
40
1
40
1
41
1
10
39.8360720600106
20
-1.92334664665307
30
0
41
1
10
39.8817045626251
20
-2.00300042527576
30
0
41
1
10
39.9270496825972
20
-2.08280244356547
30
0
41
1
10
40.0171186493321
20
-2.24210156298037
30
0
41
1
10
40.0618011778133
20
-2.32152372599339
30
0
41
1
10
40.106171742809
20
-2.40052653752832
30
0
0
SPLINE
5
12E
100
AcDbEntity
8
1
62
256
6
ByLayer
370
18
48
1
60
0
100
AcDbSpline
70
4
71
3
72
10
73
6
40
0
40
0
40
0
40
0
40
0.5
40
0.5
40
1
40
1
40
1
40
1
41
1
10
40.1820414717604
20
-2.4144140363521
30
0
41
1
10
40.2278425854874
20
-2.35087318088219
30
0
41
1
10
40.2739606291104
20
-2.28453115634275
30
0
41
1
10
40.367107080196
20
-2.14629875530414
30
0
41
1
10
40.4139778752028
20
-2.0746422119079
30
0
41
1
10
40.4613038767432
20
-2.00046296575414
30
0
0
SPLINE
5
12F
100
AcDbEntity
8
1
62
256
6
ByLayer
370
18
48
1
60
0
100
AcDbSpline
70
4
71
3
72
27
73
23
40
0
40
0
40
0
40
0
40
0.124999999999999
40
0.124999999999999
40
0.249999999999997
40
0.249999999999997
40
0.374999999999998
40
0.374999999999998
40
0.499999999999998
40
0.499999999999998
40
0.624999999999998
40
0.624999999999998
40
0.687499999999998
40
0.687499999999998
40
0.749999999999999
40
0.812499999999999
40
0.812499999999999
40
0.874999999999999
40
0.874999999999999
40
0.9375
40
0.9375
40
1
40
1
40
1
40
1
41
1
10
40.4613038767432
20
-2.00046296575414
30
0
41
1
10
40.4670642733843
20
-1.99143406269042
30
0
41
1
10
40.4737852281435
20
-1.98372938188592
30
0
41
1
10
40.4887011331408
20
-1.97033679989144
30
0
41
1
10
40.4970004829316
20
-1.96462631784297
30
0
41
1
10
40.5143180947264
20
-1.95545273048842
30
0
41
1
10
40.5233723887549
20
-1.95193150006517
30
0
41
1
10
40.5422017914666
20
-1.9469103075362
30
0
41
1
10
40.5520294935399
20
-1.94542956809465
30
0
41
1
10
40.5716394809941
20
-1.94468875570811
30
0
41
1
10
40.5815078730321
20
-1.9453916942156
30
0
41
1
10
40.5963878539951
20
-1.94825049708487
30
0
41
1
10
40.6013872667978
20
-1.94951785953944
30
0
41
1
10
40.6112061733952
20
-1.95267121266042
30
0
41
1
10
40.6208748059657
20
-1.95644237485712
30
0
41
1
10
40.6302119232641
20
-1.96154798413758
30
0
41
1
10
40.6393550036632
20
-1.96741835349914
30
0
41
1
10
40.6438152029969
20
-1.97073497254294
30
0
41
1
10
40.6522393032915
20
-1.97803415557081
30
0
41
1
10
40.656236550021
20
-1.98203540297223
30
0
41
1
10
40.6637369416526
20
-1.99084844168755
30
0
41
1
10
40.6672393470211
20
-1.99567228719479
30
0
41
1
10
40.6703526133708
20
-2.0008342826111
30
0
0
SPLINE
5
130
100
AcDbEntity
8
1
62
256
6
ByLayer
370
18
48
1
60
0
100
AcDbSpline
70
4
71
3
72
8
73
4
40
0
40
0
40
0
40
0
40
1
40
1
40
1
40
1
41
1
10
40.6703526133774
20
-2.00083428262278
30
0
41
1
10
40.7618225584504
20
-2.15249732211021
30
0
41
1
10
40.8520080312906
20
-2.29929023143927
30
0
41
1
10
40.9408219582076
20
-2.43962548432
30
0
0
SPLINE
5
131
100
AcDbEntity
8
1
62
256
6
ByLayer
370
18
48
1
60
0
100
AcDbSpline
70
4
71
3
72
8
73
4
40
0
40
0
40
0
40
0
40
1
40
1
40
1
40
1
41
1
10
41.0158417033693
20
-2.4306965631823
30
0
41
1
10
40.9908004113118
20
-2.43401354327662
30
0
41
1
10
40.9657946446757
20
-2.43699013144081
30
0
41
1
10
40.9408219582076
20
-2.43962548432
30
0
0
SPLINE
5
132
100
AcDbEntity
8
1
62
256
6
ByLayer
370
18
48
1
60
0
100
AcDbSpline
70
4
71
3
72
10
73
6
40
0
40
0
40
0
40
0
40
0.5
40
0.5
40
1
40
1
40
1
40
1
41
1
10
41.0158417033693
20
-2.43069656318238
30
0
41
1
10
41.0616788072992
20
-2.34938028689694
30
0
41
1
10
41.1078765679086
20
-2.26635780616789
30
0
41
1
10
41.2012622494128
20
-2.0970452943518
30
0
41
1
10
41.2482823011725
20
-2.01105829553109
30
0
41
1
10
41.2957848284242
20
-1.92379451905296
30
0
0
SPLINE
5
133
100
AcDbEntity
8
1
62
256
6
ByLayer
370
18
48
1
60
0
100
AcDbSpline
70
4
71
3
72
27
73
23
40
0
40
0
40
0
40
0
40
0.125
40
0.125
40
0.25
40
0.25
40
0.374999999999999
40
0.374999999999999
40
0.499999999999999
40
0.499999999999999
40
0.624999999999999
40
0.624999999999999
40
0.687499999999999
40
0.687499999999999
40
0.749999999999999
40
0.812499999999999
40
0.812499999999999
40
0.875
40
0.875
40
0.9375
40
0.9375
40
1
40
1
40
1
40
1
41
1
10
41.2957848284242
20
-1.92379451905296
30
0
41
1
10
41.3015441437856
20
-1.9132144586346
30
0
41
1
10
41.3082640663405
20
-1.90377062179636
30
0
41
1
10
41.3231797959192
20
-1.88661719565184
30
0
41
1
10
41.3314813896745
20
-1.87885872989324
30
0
41
1
10
41.3488059104715
20
-1.86548510570555
30
0
41
1
10
41.3578633316819
20
-1.85980333654021
30
0
41
1
10
41.376701083355
20
-1.85033551232084
30
0
41
1
10
41.3865330528512
20
-1.8465571964459
30
0
41
1
10
41.4061504961485
20
-1.84125235819477
30
0
41
1
10
41.4160229959327
20
-1.83966812554203
30
0
41
1
10
41.4309098716847
20
-1.83907640559394
30
0
41
1
10
41.4359104983435
20
-1.83918430258683
30
0
41
1
10
41.4457259464953
20
-1.84005582404907
30
0
41
1
10
41.4553906070421
20
-1.84157500529182
30
0
41
1
10
41.4647213321542
20
-1.84449181596017
30
0
41
1
10
41.4738569445306
20
-1.84820554190918
30
0
41
1
10
41.4783084758912
20
-1.8504612884721
30
0
41
1
10
41.4867159023361
20
-1.85573702403158
30
0
41
1
10
41.4907043524853
20
-1.85876780617175
30
0
41
1
10
41.4981866635084
20
-1.86573340859187
30
0
41
1
10
41.5016786043591
20
-1.86967894006324
30
0
41
1
10
41.5047826610465
20
-1.87404253370855
30
0
0
SPLINE
5
134
100
AcDbEntity
8
1
62
256
6
ByLayer
370
18
48
1
60
0
100
AcDbSpline
70
4
71
3
72
10
73
6
40
0
40
0
40
0
40
0
40
0.5
40
0.5
40
1
40
1
40
1
40
1
41
1
10
41.5047826610528
20
-1.87404253371921
30
0
41
1
10
41.550421255801
20
-1.93819995806481
30
0
41
1
10
41.5957688197864
20
-2.00007909949682
30
0
41
1
10
41.6858221637698
20
-2.11889131950699
30
0
41
1
10
41.7304835119331
20
-2.17576665496989
30
0
41
1
10
41.7748134765858
20
-2.22998538025107
30
0
0
SPLINE
5
135
100
AcDbEntity
8
1
62
256
6
ByLayer
370
18
48
1
60
0
100
AcDbSpline
70
4
71
3
72
8
73
4
40
0
40
0
40
0
40
0
40
1
40
1
40
1
40
1
41
1
10
41.8509266792566
20
-2.198941146804
30
0
41
1
10
41.825561935378
20
-2.20962322826287
30
0
41
1
10
41.800190484882
20
-2.21997010351876
30
0
41
1
10
41.7748134765858
20
-2.22998538025109
30
0
0
SPLINE
5
136
100
AcDbEntity
8
1
62
256
6
ByLayer
370
18
48
1
60
0
100
AcDbSpline
70
4
71
3
72
10
73
6
40
0
40
0
40
0
40
0
40
0.5
40
0.5
40
1
40
1
40
1
40
1
41
1
10
41.8509266792567
20
-2.19894114680409
30
0
41
1
10
41.8967683037413
20
-2.10815853695206
30
0
41
1
10
41.9428946546538
20
-2.01700464719028
30
0
41
1
10
42.036023171119
20
-1.83412981335525
30
0
41
1
10
42.0828673765794
20
-1.74271539666506
30
0
41
1
10
42.1302253104571
20
-1.65143347650957
30
0
0
SPLINE
5
137
100
AcDbEntity
8
1
62
256
6
ByLayer
370
18
48
1
60
0
100
AcDbSpline
70
4
71
3
72
16
73
12
40
0
40
0
40
0
40
0
40
0.236448574870114
40
0.236448574870114
40
0.472897149740228
40
0.472897149740228
40
0.709345724610342
40
0.709345724610342
40
0.945794299480456
40
0.945794299480456
40
1
40
1
40
1
40
1
41
1
10
42.1302253104571
20
-1.65143347650957
30
0
41
1
10
42.1359879492137
20
-1.64032605083196
30
0
41
1
10
42.1427089904287
20
-1.63004647387982
30
0
41
1
10
42.1576211241111
20
-1.61075293546242
30
0
41
1
10
42.1659161959359
20
-1.60167109989519
30
0
41
1
10
42.1832216692851
20
-1.58531753142901
30
0
41
1
10
42.1922691530974
20
-1.57797479952293
30
0
41
1
10
42.2110871290367
20
-1.56485249985687
30
0
41
1
10
42.2209116098814
20
-1.5590657321589
30
0
41
1
10
42.2329645176545
20
-1.55320893417837
30
0
41
1
10
42.2352157999144
20
-1.55216658925536
30
0
41
1
10
42.2374704054291
20
-1.55117536932875
30
0
0
SPLINE
5
138
100
AcDbEntity
8
1
62
256
6
ByLayer
370
18
48
1
60
0
100
AcDbSpline
70
4
71
3
72
8
73
4
40
0
40
0
40
0
40
0
40
1
40
1
40
1
40
1
41
1
10
46.1237867658109
20
-0.450457342496549
30
0
41
1
10
46.0975046181662
20
-0.409510257328918
30
0
41
1
10
46.0711292747001
20
-0.369516082377601
30
0
41
1
10
46.0446242916974
20
-0.330525143720081
30
0
0
SPLINE
5
139
100
AcDbEntity
8
1
62
256
6
ByLayer
370
18
48
1
60
0
100
AcDbSpline
70
4
71
3
72
28
73
24
40
0
40
0
40
0
40
0
40
0.124999999999977
40
0.124999999999977
40
0.249999999999954
40
0.249999999999954
40
0.37499999999993
40
0.37499999999993
40
0.437499999999971
40
0.437499999999971
40
0.500000000000011
40
0.500000000000011
40
0.625000000000092
40
0.625000000000092
40
0.687500000000076
40
0.687500000000076
40
0.75000000000006
40
0.75000000000006
40
0.875000000000029
40
0.875000000000029
40
0.937500000000014
40
0.937500000000014
40
1
40
1
40
1
40
1
41
1
10
46.0446242916929
20
-0.330525143713459
30
0
41
1
10
46.0390565585837
20
-0.322334565357522
30
0
41
1
10
46.0325871799043
20
-0.314036304975929
30
0
41
1
10
46.0182118145346
20
-0.297290795593938
30
0
41
1
10
46.0102244230438
20
-0.288774306385108
30
0
41
1
10
45.9934060368194
20
-0.272115444764353
30
0
41
1
10
45.9845457150096
20
-0.263929002550384
30
0
41
1
10
45.9706029503312
20
-0.251840575438564
30
0
41
1
10
45.9658356616827
20
-0.247836220879549
30
0
41
1
10
45.9562531223344
20
-0.240032193201301
30
0
41
1
10
45.9514178295707
20
-0.23621457532434
30
0
41
1
10
45.9367845836613
20
-0.225010344093107
30
0
41
1
10
45.9268612436916
20
-0.21786811761163
30
0
41
1
10
45.9117124442475
20
-0.207691914870907
30
0
41
1
10
45.9066198994198
20
-0.204393411097328
30
0
41
1
10
45.8965979725774
20
-0.198155992419373
30
0
41
1
10
45.8916380529232
20
-0.195195954278802
30
0
41
1
10
45.8769364001545
20
-0.186835288788018
30
0
41
1
10
45.8672863368329
20
-0.181917508653783
30
0
41
1
10
45.854221433918
20
-0.176339046918173
30
0
41
1
10
45.8500481091148
20
-0.174754396107147
30
0
41
1
10
45.8422852996552
20
-0.172289811836322
30
0
41
1
10
45.8387470388378
20
-0.171423489548204
30
0
41
1
10
45.8355897210353
20
-0.170967210213575
30
0
0
SPLINE
5
13A
100
AcDbEntity
8
1
62
256
6
ByLayer
370
18
48
1
60
0
100
AcDbSpline
70
4
71
3
72
8
73
4
40
0
40
0
40
0
40
0
40
1
40
1
40
1
40
1
41
1
10
45.8355897210307
20
-0.170967210208403
30
0
41
1
10
45.7914675195282
20
-0.164590896516501
30
0
41
1
10
45.7475092072564
20
-0.154151218204333
30
0
41
1
10
45.7037941315376
20
-0.139874016422709
30
0
0
SPLINE
5
13B
100
AcDbEntity
8
1
62
256
6
ByLayer
370
18
48
1
60
0
100
AcDbSpline
70
4
71
3
72
11
73
7
40
0
40
0
40
0
40
0
40
0.249999999999981
40
0.249999999999981
40
0.499999999999961
40
1
40
1
40
1
40
1
41
1
10
45.7037941315376
20
-0.139874016422709
30
0
41
1
10
45.6775773288711
20
-0.119313695873103
30
0
41
1
10
45.6514054607317
20
-0.0985792825950966
30
0
41
1
10
45.5992853212201
20
-0.0568873045134239
30
0
41
1
10
45.5213737721066
20
0.006035426962768
30
0
41
1
10
45.4441912042854
20
0.070024990536524
30
0
41
1
10
45.39300055338
20
0.1130912719413
30
0
0
SPLINE
5
13C
100
AcDbEntity
8
1
62
256
6
ByLayer
370
18
48
1
60
0
100
AcDbSpline
70
4
71
3
72
10
73
6
40
0
40
0
40
0
40
0
40
0.5
40
0.5
40
1
40
1
40
1
40
1
41
1
10
45.39300055338
20
0.1130912719413
30
0
41
1
10
45.3628040966949
20
0.149203010700944
30
0
41
1
10
45.3324437780569
20
0.183788795950534
30
0
41
1
10
45.2715282774921
20
0.249622240583108
30
0
41
1
10
45.240954086561
20
0.280904043313427
30
0
41
1
10
45.2102179483301
20
0.310492554098175
30
0
0
SPLINE
5
13D
100
AcDbEntity
8
1
62
256
6
ByLayer
370
18
48
1
60
0
100
AcDbSpline
70
4
71
3
72
28
73
24
40
0
40
0
40
0
40
0
40
0.125000000000068
40
0.125000000000068
40
0.250000000000135
40
0.250000000000135
40
0.375000000000202
40
0.375000000000202
40
0.437500000000184
40
0.437500000000184
40
0.500000000000166
40
0.500000000000166
40
0.62500000000013
40
0.62500000000013
40
0.687500000000056
40
0.687500000000056
40
0.749999999999981
40
0.749999999999981
40
0.874999999999942
40
0.874999999999942
40
0.937499999999971
40
0.937499999999971
40
1
40
1
40
1
40
1
41
1
10
45.2102179483255
20
0.310492554102524
30
0
41
1
10
45.204640099024
20
0.315862137391292
30
0
41
1
10
45.1981591028915
20
0.321712701746264
30
0
41
1
10
45.1837623628535
20
0.33414871694734
30
0
41
1
10
45.175765481685
20
0.340796422864173
30
0
41
1
10
45.1589346622503
20
0.354376041136078
30
0
41
1
10
45.1500705189234
20
0.361337394692725
30
0
41
1
10
45.1361268172331
20
0.372055629497964
30
0
41
1
10
45.1313614114757
20
0.37568112443023
30
0
41
1
10
45.121783718012
20
0.382902265258736
30
0
41
1
10
45.1169511596847
20
0.386513633445247
30
0
41
1
10
45.1023267067792
20
0.397359311862971
30
0
41
1
10
45.0924100393744
20
0.404604238047824
30
0
41
1
10
45.0772706921973
20
0.415541835619905
30
0
41
1
10
45.0721827115423
20
0.41919717101257
30
0
41
1
10
45.0621673994743
20
0.426359159949328
30
0
41
1
10
45.0572098535171
20
0.429887713359619
30
0
41
1
10
45.0425121383662
20
0.440308446137721
30
0
41
1
10
45.032861444019
20
0.4470961938313
30
0
41
1
10
45.0197880269538
20
0.456229743536852
30
0
41
1
10
45.0156099281006
20
0.459137294227645
30
0
41
1
10
45.0078395131659
20
0.464517476491125
30
0
41
1
10
45.0042969430982
20
0.466955914928889
30
0
41
1
10
45.0011354425355
20
0.469111377332496
30
0
0
SPLINE
5
13E
100
AcDbEntity
8
1
62
256
6
ByLayer
370
18
48
1
60
0
100
AcDbSpline
70
4
71
3
72
10
73
6
40
0
40
0
40
0
40
0
40
0.5
40
0.5
40
1
40
1
40
1
40
1
41
1
10
45.0011354425355
20
0.469111377332723
30
0
41
1
10
44.957714740806
20
0.498714943190436
30
0
41
1
10
44.9144513538233
20
0.531852718813639
30
0
41
1
10
44.8283916643258
20
0.604762333659949
30
0
41
1
10
44.7856171354521
20
0.644493703795035
30
0
41
1
10
44.7431245620088
20
0.687288141805652
30
0
0
SPLINE
5
13F
100
AcDbEntity
8
1
62
256
6
ByLayer
370
18
48
1
60
0
100
AcDbSpline
70
4
71
3
72
10
73
6
40
0
40
0
40
0
40
0
40
0.5
40
0.5
40
1
40
1
40
1
40
1
41
1
10
44.6572669299851
20
0.765985116064854
30
0
41
1
10
44.6110063050405
20
0.800407685349313
30
0
41
1
10
44.5644587640443
20
0.830487561277351
30
0
41
1
10
44.4705360784168
20
0.881790964480871
30
0
41
1
10
44.4233344145688
20
0.9029518495704
30
0
41
1
10
44.3757524539182
20
0.919554393888262
30
0
0
SPLINE
5
140
100
AcDbEntity
8
1
62
256
6
ByLayer
370
18
48
1
60
0
100
AcDbSpline
70
4
71
3
72
28
73
24
40
0
40
0
40
0
40
0
40
0.124999999999957
40
0.124999999999957
40
0.249999999999913
40
0.249999999999913
40
0.37499999999987
40
0.37499999999987
40
0.437499999999849
40
0.437499999999849
40
0.499999999999828
40
0.499999999999828
40
0.624999999999785
40
0.624999999999785
40
0.68749999999982
40
0.68749999999982
40
0.749999999999856
40
0.749999999999856
40
0.874999999999928
40
0.874999999999928
40
0.937499999999964
40
0.937499999999964
40
1
40
1
40
1
40
1
41
1
10
44.3757524539134
20
0.919554393889911
30
0
41
1
10
44.3701752249436
20
0.92150042952801
30
0
41
1
10
44.3636935980959
20
0.924247912483168
30
0
41
1
10
44.3492933828622
20
0.93098347699808
30
0
41
1
10
44.3412932658993
20
0.935020532343373
30
0
41
1
10
44.3244551259634
20
0.944008515951936
30
0
41
1
10
44.3155872101566
20
0.948969920787931
30
0
41
1
10
44.3016385276494
20
0.957126182343018
30
0
41
1
10
44.2968716857755
20
0.959971048719865
30
0
41
1
10
44.2872917034984
20
0.965809169355083
30
0
41
1
10
44.2824582393239
20
0.968814049135574
30
0
41
1
10
44.2678319033841
20
0.97809952135961
30
0
41
1
10
44.2579150915642
20
0.984644860076742
30
0
41
1
10
44.2427776562261
20
0.995136273402153
30
0
41
1
10
44.2376920851229
20
0.998745478006896
30
0
41
1
10
44.2276817373201
20
1.00604326058146
30
0
41
1
10
44.222726892745
20
1.00975223580551
30
0
41
1
10
44.2080378236527
20
1.02108964177236
30
0
41
1
10
44.1983943893318
20
1.02900651022196
30
0
41
1
10
44.1853306669578
20
1.04070891610735
30
0
41
1
10
44.1811557539085
20
1.04462704224221
30
0
41
1
10
44.1733902378861
20
1.05235211217905
30
0
41
1
10
44.1698495058009
20
1.05610713557837
30
0
41
1
10
44.1666891640093
20
1.05973999789273
30
0
0
SPLINE
5
141
100
AcDbEntity
8
1
62
256
6
ByLayer
370
18
48
1
60
0
100
AcDbSpline
70
4
71
3
72
10
73
6
40
0
40
0
40
0
40
0
40
0.5
40
0.5
40
1
40
1
40
1
40
1
41
1
10
44.1666891640069
20
1.05973999789552
30
0
41
1
10
44.1215022868494
20
1.11168301987197
30
0
41
1
10
44.0764911363362
20
1.1667686748001
30
0
41
1
10
43.9869739442804
20
1.28251507872127
30
0
41
1
10
43.9425033872324
20
1.34311033708525
30
0
41
1
10
43.8983185819113
20
1.40615294185807
30
0
0
SPLINE
5
142
100
AcDbEntity
8
1
62
256
6
ByLayer
370
18
48
1
60
0
100
AcDbSpline
70
4
71
3
72
10
73
6
40
0
40
0
40
0
40
0
40
0.5
40
0.5
40
1
40
1
40
1
40
1
41
1
10
43.8229432811176
20
1.46404709581864
30
0
41
1
10
43.7766448961876
20
1.46821658376908
30
0
41
1
10
43.7300781740293
20
1.46799232026888
30
0
41
1
10
43.6361237243945
20
1.45849556693969
30
0
41
1
10
43.5889037305142
20
1.44925624182755
30
0
41
1
10
43.5412839095375
20
1.43536243521444
30
0
0
SPLINE
5
143
100
AcDbEntity
8
1
62
256
6
ByLayer
370
18
48
1
60
0
100
AcDbSpline
70
4
71
3
72
28
73
24
40
0
40
0
40
0
40
0
40
0.125000000000012
40
0.125000000000012
40
0.250000000000025
40
0.250000000000025
40
0.375000000000037
40
0.375000000000037
40
0.437500000000043
40
0.437500000000043
40
0.50000000000005
40
0.50000000000005
40
0.625000000000062
40
0.625000000000062
40
0.687500000000069
40
0.687500000000069
40
0.750000000000075
40
0.750000000000075
40
0.875000000000087
40
0.875000000000087
40
0.937500000000044
40
0.937500000000044
40
1
40
1
40
1
40
1
41
1
10
43.5412839095346
20
1.43536243521359
30
0
41
1
10
43.535713974741
20
1.43373732207246
30
0
41
1
10
43.5292417808028
20
1.4331474629827
30
0
41
1
10
43.514862141477
20
1.43357715970063
30
0
41
1
10
43.5068732069886
20
1.43462721499125
30
0
41
1
10
43.4900546781597
20
1.43816417105549
30
0
41
1
10
43.4811957467424
20
1.44064194184943
30
0
41
1
10
43.467257794073
20
1.44542765516351
30
0
41
1
10
43.4624931399421
20
1.44720822051039
30
0
41
1
10
43.4529162948206
20
1.45107749744872
30
0
41
1
10
43.4480839756527
20
1.45317246953627
30
0
41
1
10
43.4334597012788
20
1.45995460646097
30
0
41
1
10
43.4235424176817
20
1.46512841322328
30
0
41
1
10
43.408401319923
20
1.47408640757013
30
0
41
1
10
43.4033118264439
20
1.47727623289256
30
0
41
1
10
43.3932945671368
20
1.48395094819261
30
0
41
1
10
43.3883363975721
20
1.48745288042417
30
0
41
1
10
43.3736381805347
20
1.49851725254484
30
0
41
1
10
43.3639888220323
20
1.50672674059365
30
0
41
1
10
43.3509231163464
20
1.51974885446913
30
0
41
1
10
43.3467488907238
20
1.5242569264737
30
0
41
1
10
43.3389852162678
20
1.53349403376393
30
0
41
1
10
43.3354462882705
20
1.53815841600482
30
0
41
1
10
43.3322881759384
20
1.5428721820133
30
0
0
SPLINE
5
144
100
AcDbEntity
8
1
62
256
6
ByLayer
370
18
48
1
60
0
100
AcDbSpline
70
4
71
3
72
10
73
6
40
0
40
0
40
0
40
0
40
0.5
40
0.5
40
1
40
1
40
1
40
1
41
1
10
42.9881625378542
20
2.01233302464445
30
0
41
1
10
42.9418779332343
20
1.98580967089779
30
0
41
1
10
42.8953374515397
20
1.9551263002061
30
0
41
1
10
42.8014983802702
20
1.88536095292292
30
0
41
1
10
42.754363106214
20
1.84641105957456
30
0
41
1
10
42.7068647037783
20
1.80333799857291
30
0
0
SPLINE
5
145
100
AcDbEntity
8
1
62
256
6
ByLayer
370
18
48
1
60
0
100
AcDbSpline
70
4
71
3
72
28
73
24
40
0
40
0
40
0
40
0
40
0.124999999999988
40
0.124999999999988
40
0.249999999999976
40
0.249999999999976
40
0.374999999999964
40
0.374999999999964
40
0.437499999999958
40
0.437499999999958
40
0.499999999999951
40
0.499999999999951
40
0.624999999999938
40
0.624999999999938
40
0.687499999999932
40
0.687499999999932
40
0.749999999999925
40
0.749999999999925
40
0.874999999999913
40
0.874999999999913
40
0.937499999999956
40
0.937499999999956
40
1
40
1
40
1
40
1
41
1
10
42.7068647037733
20
1.80333799856851
30
0
41
1
10
42.7012842075454
20
1.79827742722321
30
0
41
1
10
42.694800496558
20
1.79438934549719
30
0
41
1
10
42.6803996678739
20
1.78844067617399
30
0
41
1
10
42.6724017101766
20
1.78638941632963
30
0
41
1
10
42.6555700758317
20
1.78411106425042
30
0
41
1
10
42.6467059045671
20
1.78385623986503
30
0
41
1
10
42.632762787732
20
1.78479636801717
30
0
41
1
10
42.6279976906274
20
1.78533600176615
30
0
41
1
10
42.6184203543621
20
1.7868536270619
30
0
41
1
10
42.6135879013281
20
1.78783205209942
30
0
41
1
10
42.598963499103
20
1.79144341798741
30
0
41
1
10
42.5890465156588
20
1.79473847647884
30
0
41
1
10
42.5739059404798
20
1.80128563025028
30
0
41
1
10
42.5688159648418
20
1.80374245546375
30
0
41
1
10
42.5587962573651
20
1.80913973371574
30
0
41
1
10
42.5538362672032
20
1.81209191944018
30
0
41
1
10
42.5391304709592
20
1.82180228928161
30
0
41
1
10
42.5294718924683
20
1.82950428837381
30
0
41
1
10
42.516385308025
20
1.84258562005425
30
0
41
1
10
42.5122028532757
20
1.8472491330237
30
0
41
1
10
42.5044231424163
20
1.85710796441702
30
0
41
1
10
42.5008762941024
20
1.86223293430635
30
0
41
1
10
42.4977110692181
20
1.86757510103447
30
0
0
SPLINE
5
146
100
AcDbEntity
8
1
62
256
6
ByLayer
370
18
48
1
60
0
100
AcDbSpline
70
4
71
3
72
10
73
6
40
0
40
0
40
0
40
0
40
0.5
40
0.5
40
1
40
1
40
1
40
1
41
1
10
42.4977110692182
20
1.86757510103447
30
0
41
1
10
42.4525554464568
20
1.94378733691798
30
0
41
1
10
42.4075699416898
20
2.02085316068511
30
0
41
1
10
42.3180966652982
20
2.17602816288334
30
0
41
1
10
42.2736447824384
20
2.25406765291652
30
0
41
1
10
42.2294805814595
20
2.33232383892422
30
0
0
SPLINE
5
147
100
AcDbEntity
8
1
62
256
6
ByLayer
370
18
48
1
60
0
100
AcDbSpline
70
4
71
3
72
10
73
6
40
0
40
0
40
0
40
0
40
0.5
40
0.5
40
1
40
1
40
1
40
1
41
1
10
42.1541383836361
20
2.35358693094554
30
0
41
1
10
42.1078213574499
20
2.29936409104715
30
0
41
1
10
42.0612238795089
20
2.24165042103445
30
0
41
1
10
41.9672394141587
20
2.11903915656356
30
0
41
1
10
41.9200363684442
20
2.05436717287898
30
0
41
1
10
41.8724746432281
20
1.9863859134592
30
0
0
SPLINE
5
148
100
AcDbEntity
8
1
62
256
6
ByLayer
370
18
48
1
60
0
100
AcDbSpline
70
4
71
3
72
28
73
24
40
0
40
0
40
0
40
0
40
0.125000000000026
40
0.125000000000026
40
0.250000000000052
40
0.250000000000052
40
0.375000000000077
40
0.375000000000077
40
0.43750000000009
40
0.43750000000009
40
0.500000000000104
40
0.500000000000104
40
0.625000000000018
40
0.625000000000018
40
0.687500000000032
40
0.687500000000032
40
0.750000000000046
40
0.750000000000046
40
0.875000000000073
40
0.875000000000073
40
0.937500000000037
40
0.937500000000037
40
1
40
1
40
1
40
1
41
1
10
41.872474643223
20
1.98638591345193
30
0
41
1
10
41.8668945213888
20
1.97841009448797
30
0
41
1
10
41.8604094191007
20
1.97161701794982
30
0
41
1
10
41.8460024195936
20
1.95988201293432
30
0
41
1
10
41.837998929125
20
1.95492671827944
30
0
41
1
10
41.821154608151
20
1.94703956608689
30
0
41
1
10
41.8122838965328
20
1.94406402776517
30
0
41
1
10
41.7983314599471
20
1.94104075435794
30
0
41
1
10
41.7935636156053
20
1.9402773363459
30
0
41
1
10
41.7839817717316
20
1.93927435170355
30
0
41
1
10
41.7791474202409
20
1.93902924910614
30
0
41
1
10
41.7645185630291
20
1.93907952188184
30
0
41
1
10
41.7546002472401
20
1.9401445591343
30
0
41
1
10
41.7394610100873
20
1.9435888083905
30
0
41
1
10
41.7343750965096
20
1.94505249036345
30
0
41
1
10
41.7243641955729
20
1.94860048869214
30
0
41
1
10
41.7194091627719
20
1.95069014340092
30
0
41
1
10
41.7047199047082
20
1.95801699329343
30
0
41
1
10
41.6950768601836
20
1.96439233652157
30
0
41
1
10
41.6820143993965
20
1.97613181280326
30
0
41
1
10
41.6778402286635
20
1.98044959772051
30
0
41
1
10
41.6700753606269
20
1.98986990005096
30
0
41
1
10
41.6665349105938
20
1.99490391185674
30
0
41
1
10
41.6633747559635
20
2.00029891859239
30
0
0
SPLINE
5
149
100
AcDbEntity
8
1
62
256
6
ByLayer
370
18
48
1
60
0
100
AcDbSpline
70
4
71
3
72
10
73
6
40
0
40
0
40
0
40
0
40
0.5
40
0.5
40
1
40
1
40
1
40
1
41
1
10
41.6633747559635
20
2.00029891859239
30
0
41
1
10
41.6182117351093
20
2.07740109560916
30
0
41
1
10
41.5732236541372
20
2.15401580711091
30
0
41
1
10
41.4837497570149
20
2.30571845490837
30
0
41
1
10
41.4392995854587
20
2.38074468945439
30
0
41
1
10
41.3951341496799
20
2.45476849011067
30
0
0
SPLINE
5
14A
100
AcDbEntity
8
1
62
256
6
ByLayer
370
18
48
1
60
0
100
AcDbSpline
70
4
71
3
72
8
73
4
40
0
40
0
40
0
40
0
40
1
40
1
40
1
40
1
41
1
10
41.3200723343254
20
2.45342088943517
30
0
41
1
10
41.3450990293414
20
2.4542130239488
30
0
41
1
10
41.3701179220619
20
2.45466208003341
30
0
41
1
10
41.3951341496799
20
2.45476849011061
30
0
0
SPLINE
5
14B
100
AcDbEntity
8
1
62
256
6
ByLayer
370
18
48
1
60
0
100
AcDbSpline
70
4
71
3
72
10
73
6
40
0
40
0
40
0
40
0
40
0.5
40
0.5
40
1
40
1
40
1
40
1
41
1
10
41.3200723343254
20
2.45342088943517
30
0
41
1
10
41.2737362630118
20
2.37657697812711
30
0
41
1
10
41.2271058701593
20
2.29736986880741
30
0
41
1
10
41.1329977239192
20
2.13422437191068
30
0
41
1
10
41.0856842075164
20
2.0505715220967
30
0
41
1
10
41.0379784487714
20
1.96481481676867
30
0
0
SPLINE
5
14C
100
AcDbEntity
8
1
62
256
6
ByLayer
370
18
48
1
60
0
100
AcDbSpline
70
4
71
3
72
28
73
24
40
0
40
0
40
0
40
0
40
0.124999999999906
40
0.124999999999906
40
0.249999999999813
40
0.249999999999813
40
0.374999999999719
40
0.374999999999719
40
0.437499999999725
40
0.437499999999725
40
0.49999999999973
40
0.49999999999973
40
0.624999999999853
40
0.624999999999853
40
0.687499999999915
40
0.687499999999915
40
0.749999999999976
40
0.749999999999976
40
0.874999999999989
40
0.874999999999989
40
0.937499999999994
40
0.937499999999994
40
1
40
1
40
1
40
1
41
1
10
41.0379784487667
20
1.96481481676031
30
0
41
1
10
41.0323966820675
20
1.95478093543252
30
0
41
1
10
41.0259103703614
20
1.94582375375737
30
0
41
1
10
41.0115016134936
20
1.92959855677745
30
0
41
1
10
41.0034972077667
20
1.92229622353381
30
0
41
1
10
40.9866511332878
20
1.90970553423517
30
0
41
1
10
40.9777798784984
20
1.90436246986914
30
0
41
1
10
40.9638263864916
20
1.8977571184233
30
0
41
1
10
40.9590585663776
20
1.89579281616602
30
0
41
1
10
40.9494769599001
20
1.89241892421538
30
0
41
1
10
40.9446427095591
20
1.89099845583178
30
0
41
1
10
40.9300140367042
20
1.88755058400218
30
0
41
1
10
40.9200956526349
20
1.88632045253175
30
0
41
1
10
40.9049562412697
20
1.8863739865441
30
0
41
1
10
40.8998722747257
20
1.88671741985095
30
0
41
1
10
40.8898652199728
20
1.88809717826487
30
0
41
1
10
40.8849122589384
20
1.88913210143895
30
0
41
1
10
40.8702299988344
20
1.89338947956918
30
0
41
1
10
40.8605945751066
20
1.89782823217516
30
0
41
1
10
40.8475465594846
20
1.90708028412661
30
0
41
1
10
40.8433776171603
20
1.91062810571765
30
0
41
1
10
40.8356234321574
20
1.91867613022194
30
0
41
1
10
40.8320880428739
20
1.9231166928021
30
0
41
1
10
40.8289324308011
20
1.92802201264814
30
0
0
SPLINE
5
14D
100
AcDbEntity
8
1
62
256
6
ByLayer
370
18
48
1
60
0
100
AcDbSpline
70
4
71
3
72
10
73
6
40
0
40
0
40
0
40
0
40
0.5
40
0.5
40
1
40
1
40
1
40
1
41
1
10
40.8289324307984
20
1.92802201265218
30
0
41
1
10
40.7838439087534
20
1.9981109896668
30
0
41
1
10
40.7389309431415
20
2.06642179314903
30
0
41
1
10
40.6496132967245
20
2.19902067381156
30
0
41
1
10
40.6052442188845
20
2.2632605426451
30
0
41
1
10
40.5611570406921
20
2.32535764220839
30
0
0
SPLINE
5
14E
100
AcDbEntity
8
1
62
256
6
ByLayer
370
18
48
1
60
0
100
AcDbSpline
70
4
71
3
72
8
73
4
40
0
40
0
40
0
40
0
40
1
40
1
40
1
40
1
41
1
10
40.4852612312142
20
2.30135425363392
30
0
41
1
10
40.5105675136776
20
2.30968675164931
30
0
41
1
10
40.5358648480591
20
2.31768820402428
30
0
41
1
10
40.5611570406921
20
2.3253576422083
30
0
0
SPLINE
5
14F
100
AcDbEntity
8
1
62
256
6
ByLayer
370
18
48
1
60
0
100
AcDbSpline
70
4
71
3
72
10
73
6
40
0
40
0
40
0
40
0
40
0.5
40
0.5
40
1
40
1
40
1
40
1
41
1
10
40.4852612312142
20
2.30135425363395
30
0
41
1
10
40.4389536874384
20
2.2101114953264
30
0
41
1
10
40.3923661726096
20
2.11777068742589
30
0
41
1
10
40.2983799713908
20
1.93102960734979
30
0
41
1
10
40.2511445370296
20
1.83695030310744
30
0
41
1
10
40.2035280923325
20
1.7422140425823
30
0
0
SPLINE
5
150
100
AcDbEntity
8
1
62
256
6
ByLayer
370
18
48
1
60
0
100
AcDbSpline
70
4
71
3
72
28
73
24
40
0
40
0
40
0
40
0
40
0.125000000000012
40
0.125000000000012
40
0.250000000000024
40
0.250000000000024
40
0.375000000000036
40
0.375000000000036
40
0.437500000000043
40
0.437500000000043
40
0.500000000000049
40
0.500000000000049
40
0.625000000000061
40
0.625000000000061
40
0.687500000000068
40
0.687500000000068
40
0.750000000000074
40
0.750000000000074
40
0.875000000000087
40
0.875000000000087
40
0.937500000000043
40
0.937500000000043
40
1
40
1
40
1
40
1
41
1
10
40.2035280923267
20
1.74221404257108
30
0
41
1
10
40.1979437182598
20
1.73110353821176
30
0
41
1
10
40.1914542497065
20
1.7208481141956
30
0
41
1
10
40.1770398482914
20
1.70168426772804
30
0
41
1
10
40.1690333515447
20
1.69272419147649
30
0
41
1
10
40.1521855696371
20
1.67659890803765
30
0
41
1
10
40.1433140235848
20
1.66937267454966
30
0
41
1
10
40.1293613656131
20
1.65976360770173
30
0
41
1
10
40.1245944995092
20
1.65676638574112
30
0
41
1
10
40.1150149540263
20
1.65130024092414
30
0
41
1
10
40.1101817797084
20
1.64881607405883
30
0
41
1
10
40.0955564262198
20
1.64212049353878
30
0
41
1
10
40.085640397422
20
1.63865111053804
30
0
41
1
10
40.0705042679576
20
1.6351995045375
30
0
41
1
10
40.0654212234574
20
1.63435108529256
30
0
41
1
10
40.055414916359
20
1.63334932788717
30
0
41
1
10
40.0504618780973
20
1.63318776745581
30
0
41
1
10
40.035777688929
20
1.63383370870355
30
0
41
1
10
40.0261379125125
20
1.63581231994868
30
0
41
1
10
40.0130774959711
20
1.64154629172666
30
0
41
1
10
40.008903496509
20
1.64393610017598
30
0
41
1
10
40.0011382451349
20
1.64974821964037
30
0
41
1
10
39.9975970174766
20
1.65312560173217
30
0
41
1
10
39.994435797825
20
1.65703040085108
30
0
0
SPLINE
5
151
100
AcDbEntity
8
1
62
256
6
ByLayer
370
18
48
1
60
0
100
AcDbSpline
70
4
71
3
72
8
73
4
40
0
40
0
40
0
40
0
40
1
40
1
40
1
40
1
41
1
10
39.9944357978231
20
1.65703040085325
30
0
41
1
10
39.9708643191773
20
1.6861463431789
30
0
41
1
10
39.9473415005439
20
1.71448460972329
30
0
41
1
10
39.9238782196738
20
1.74203204174972
30
0
0
SPLINE
5
152
100
AcDbEntity
8
1
62
256
6
ByLayer
370
18
48
1
60
0
100
AcDbSpline
70
4
71
3
72
8
73
4
40
0
40
0
40
0
40
0
40
1
40
1
40
1
40
1
41
1
10
39.8381340472167
20
1.83947017456117
30
0
41
1
10
39.8005658330181
20
1.88073630855072
30
0
41
1
10
39.7632043198502
20
1.91988502555569
30
0
41
1
10
39.7260493089905
20
1.95688828413134
30
0
0
SPLINE
5
153
100
AcDbEntity
8
1
62
256
6
ByLayer
370
18
48
1
60
0
100
AcDbSpline
70
4
71
3
72
8
73
4
40
0
40
0
40
0
40
0
40
1
40
1
40
1
40
1
41
1
10
39.651394360008
20
1.91338972633622
30
0
41
1
10
39.6762852697217
20
1.92816025755815
30
0
41
1
10
39.7011685071563
20
1.9426607664968
30
0
41
1
10
39.7260493089905
20
1.95688828413131
30
0
0
SPLINE
5
154
100
AcDbEntity
8
1
62
256
6
ByLayer
370
18
48
1
60
0
100
AcDbSpline
70
4
71
3
72
10
73
6
40
0
40
0
40
0
40
0
40
0.834790879063996
40
0.834790879063996
40
1
40
1
40
1
40
1
41
1
10
39.651394360008
20
1.91338972633625
30
0
41
1
10
39.6050631655382
20
1.81718670351685
30
0
41
1
10
39.5584290889661
20
1.72129559621632
30
0
41
1
10
39.5020395417812
20
1.60692920048038
30
0
41
1
10
39.4927128217995
20
1.5880648327572
30
0
41
1
10
39.4833746586792
20
1.56923093255449
30
0
0
SPLINE
5
155
100
AcDbEntity
8
1
62
256
6
ByLayer
370
18
48
1
60
0
100
AcDbSpline
70
4
71
3
72
8
73
4
40
0
40
0
40
0
40
0
40
1
40
1
40
1
40
1
41
1
10
39.9038125244842
20
1.78103595014335
30
0
41
1
10
39.8787102803084
20
1.79731858700947
30
0
41
1
10
39.8536274402312
20
1.81335568650792
30
0
41
1
10
39.8285622261909
20
1.82914546142115
30
0
0
SPLINE
5
156
100
AcDbEntity
8
1
62
256
6
ByLayer
370
18
48
1
60
0
100
AcDbSpline
70
4
71
3
72
10
73
6
40
0
40
0
40
0
40
0
40
0.5
40
0.5
40
1
40
1
40
1
40
1
41
1
10
39.9038125244835
20
1.78103595013079
30
0
41
1
10
39.9496089065822
20
1.68982366099198
30
0
41
1
10
39.9957474273837
20
1.59952516870931
30
0
41
1
10
40.0889749020697
20
1.42096318352384
30
0
41
1
10
40.1359016656762
20
1.33301110618169
30
0
41
1
10
40.18329333158
20
1.24648312791896
30
0
0
SPLINE
5
157
100
AcDbEntity
8
1
62
256
6
ByLayer
370
18
48
1
60
0
100
AcDbSpline
70
4
71
3
72
27
73
23
40
0
40
0
40
0
40
0
40
0.124999999999958
40
0.124999999999958
40
0.249999999999915
40
0.249999999999915
40
0.374999999999873
40
0.374999999999873
40
0.49999999999983
40
0.49999999999983
40
0.624999999999788
40
0.624999999999788
40
0.687499999999823
40
0.687499999999823
40
0.749999999999858
40
0.812499999999894
40
0.812499999999894
40
0.874999999999929
40
0.874999999999929
40
0.937499999999965
40
0.937499999999965
40
1
40
1
40
1
40
1
41
1
10
40.18329333158
20
1.24648312791899
30
0
41
1
10
40.1890441406263
20
1.23598326743507
30
0
41
1
10
40.1957536582439
20
1.22595183004714
30
0
41
1
10
40.2106472384002
20
1.2066136981459
30
0
41
1
10
40.2189362051234
20
1.19722511502303
30
0
41
1
10
40.2362386535402
20
1.17979059953956
30
0
41
1
10
40.2452866226197
20
1.17168030113072
30
0
41
1
10
40.2641087971721
20
1.15658565996961
30
0
41
1
10
40.2739365915105
20
1.14958314374385
30
0
41
1
10
40.2935510364345
20
1.13725083409869
30
0
41
1
10
40.3034238744083
20
1.13184146475123
30
0
41
1
10
40.3183143712554
20
1.12496947836732
30
0
41
1
10
40.3233180104176
20
1.12287979683461
30
0
41
1
10
40.3331442213074
20
1.11924404559971
30
0
41
1
10
40.3428199710715
20
1.1161331610115
30
0
41
1
10
40.3521633516136
20
1.11414705524987
30
0
41
1
10
40.3613120326751
20
1.11280042398357
30
0
41
1
10
40.3657717102647
20
1.11245446769124
30
0
41
1
10
40.3741939244678
20
1.11250480335977
30
0
41
1
10
40.3781894556935
20
1.11289458428101
30
0
41
1
10
40.3856849755296
20
1.11451426764586
30
0
41
1
10
40.3891823088256
20
1.11575227748307
30
0
41
1
10
40.392290307432
20
1.11744961017655
30
0
0
SPLINE
5
158
100
AcDbEntity
8
1
62
256
6
ByLayer
370
18
48
1
60
0
100
AcDbSpline
70
4
71
3
72
10
73
6
40
0
40
0
40
0
40
0
40
0.5
40
0.5
40
1
40
1
40
1
40
1
41
1
10
40.3922903074389
20
1.11744961018397
30
0
41
1
10
40.4380232305591
20
1.14242516373409
30
0
41
1
10
40.4833961865397
20
1.1635336261121
30
0
41
1
10
40.5736457278431
20
1.19805700024955
30
0
41
1
10
40.6183479188689
20
1.21139271459464
30
0
41
1
10
40.6627397514278
20
1.22084282602009
30
0
0
SPLINE
5
159
100
AcDbEntity
8
1
62
256
6
ByLayer
370
18
48
1
60
0
100
AcDbSpline
70
4
71
3
72
8
73
4
40
0
40
0
40
0
40
0
40
1
40
1
40
1
40
1
41
1
10
40.7385290665066
20
1.15755453027893
30
0
41
1
10
40.7132762292016
20
1.17884304929476
30
0
41
1
10
40.6880195334755
20
1.19994466459622
30
0
41
1
10
40.6627397514278
20
1.22084282602015
30
0
0
SPLINE
5
15A
100
AcDbEntity
8
1
62
256
6
ByLayer
370
18
48
1
60
0
100
AcDbSpline
70
4
71
3
72
10
73
6
40
0
40
0
40
0
40
0
40
0.5
40
0.5
40
1
40
1
40
1
40
1
41
1
10
40.7385290665066
20
1.15755453027901
30
0
41
1
10
40.7842516365698
20
1.07453390324039
30
0
41
1
10
40.830292363249
20
0.993650895492635
30
0
41
1
10
40.9233976452667
20
0.836685172537273
30
0
41
1
10
40.9702834839844
20
0.760874625934122
30
0
41
1
10
41.0176544523985
20
0.687822348313176
30
0
0
SPLINE
5
15B
100
AcDbEntity
8
1
62
256
6
ByLayer
370
18
48
1
60
0
100
AcDbSpline
70
4
71
3
72
27
73
23
40
0
40
0
40
0
40
0
40
0.125
40
0.125
40
0.25
40
0.25
40
0.375
40
0.375
40
0.5
40
0.5
40
0.625
40
0.625
40
0.6875
40
0.6875
40
0.75
40
0.8125
40
0.8125
40
0.875
40
0.875
40
0.9375
40
0.9375
40
1
40
1
40
1
40
1
41
1
10
41.0176544523985
20
0.687822348313176
30
0
41
1
10
41.0234102742054
20
0.678946112369403
30
0
41
1
10
41.0301244201885
20
0.670102760586673
30
0
41
1
10
41.0450247586739
20
0.652480880925566
30
0
41
1
10
41.053315505399
20
0.643615534482507
30
0
41
1
10
41.0706153847468
20
0.626586963251384
30
0
41
1
10
41.079660286785
20
0.618369428517497
30
0
41
1
10
41.0984744333306
20
0.6024690064678
30
0
41
1
10
41.1082983413126
20
0.594756065651438
30
0
41
1
10
41.1279087332938
20
0.580431285994678
30
0
41
1
10
41.1377805028424
20
0.573740620377151
30
0
41
1
10
41.1526702763043
20
0.564460677102545
30
0
41
1
10
41.1576747456839
20
0.561480116304438
30
0
41
1
10
41.1675073602419
20
0.555915072167977
30
0
41
1
10
41.1771898382802
20
0.550726467284676
30
0
41
1
10
41.1865389181839
20
0.546340458344616
30
0
41
1
10
41.195692740072
20
0.542406526696027
30
0
41
1
10
41.20015825862
20
0.54067487549284
30
0
41
1
10
41.2085904081846
20
0.537828853417608
30
0
41
1
10
41.2125905989819
20
0.536698862505745
30
0
41
1
10
41.2200946212964
20
0.535113997294644
30
0
41
1
10
41.2235974762485
20
0.534664721818245
30
0
41
1
10
41.2267101715636
20
0.534627016294394
30
0
0
SPLINE
5
15C
100
AcDbEntity
8
1
62
256
6
ByLayer
370
18
48
1
60
0
100
AcDbSpline
70
4
71
3
72
10
73
6
40
0
40
0
40
0
40
0
40
0.5
40
0.5
40
1
40
1
40
1
40
1
41
1
10
41.2267101715714
20
0.534627016297918
30
0
41
1
10
41.2723633024549
20
0.534073998733078
30
0
41
1
10
41.3177349688197
20
0.529539757533684
30
0
41
1
10
41.4078659924935
20
0.512798279925164
30
0
41
1
10
41.4525834200378
20
0.50060138219888
30
0
41
1
10
41.4969872732291
20
0.484699626953329
30
0
0
SPLINE
5
15D
100
AcDbEntity
8
1
62
256
6
ByLayer
370
18
48
1
60
0
100
AcDbSpline
70
4
71
3
72
8
73
4
40
0
40
0
40
0
40
0
40
1
40
1
40
1
40
1
41
1
10
41.572491821601
20
0.41499160414628
30
0
41
1
10
41.5473200955946
20
0.438297884686591
30
0
41
1
10
41.5221522569531
20
0.461534202894598
30
0
41
1
10
41.4969872732291
20
0.484699626953329
30
0
0
SPLINE
5
15E
100
AcDbEntity
8
1
62
256
6
ByLayer
370
18
48
1
60
0
100
AcDbSpline
70
4
71
3
72
10
73
6
40
0
40
0
40
0
40
0
40
0.5
40
0.5
40
1
40
1
40
1
40
1
41
1
10
41.5724918216004
20
0.414991604142415
30
0
41
1
10
41.6183384689592
20
0.349480912569874
30
0
41
1
10
41.6644975217349
20
0.287126462312187
30
0
41
1
10
41.7577037980108
20
0.168963758213977
30
0
41
1
10
41.8045947631232
20
0.113349869493192
30
0
41
1
10
41.8519276891185
20
0.0613207110910707
30
0
0
SPLINE
5
15F
100
AcDbEntity
8
1
62
256
6
ByLayer
370
18
48
1
60
0
100
AcDbSpline
70
4
71
3
72
27
73
23
40
0
40
0
40
0
40
0
40
0.124999999999958
40
0.124999999999958
40
0.249999999999916
40
0.249999999999916
40
0.374999999999874
40
0.374999999999874
40
0.499999999999832
40
0.499999999999832
40
0.62499999999979
40
0.62499999999979
40
0.687499999999825
40
0.687499999999825
40
0.74999999999986
40
0.812499999999895
40
0.812499999999895
40
0.87499999999993
40
0.87499999999993
40
0.937499999999965
40
0.937499999999965
40
1
40
1
40
1
40
1
41
1
10
41.8519276891185
20
0.0613207110910423
30
0
41
1
10
41.8577029156884
20
0.0549724836849634
30
0
41
1
10
41.8644413382075
20
0.0482157585073537
30
0
41
1
10
41.8793912701852
20
0.0340924244736414
30
0
41
1
10
41.8877073148395
20
0.026641683683664
30
0
41
1
10
41.9050496019601
20
0.0117345890693343
30
0
41
1
10
41.9141130810274
20
0.0042377095545874
30
0
41
1
10
41.9329524846199
20
-0.0108738919898883
30
0
41
1
10
41.9427798808683
20
-0.0185242482939998
30
0
41
1
10
41.962384654093
20
-0.0334163234159064
30
0
41
1
10
41.9722480432904
20
-0.0407291413762323
30
0
41
1
10
41.9871174045771
20
-0.051512326925689
30
0
41
1
10
41.9921125060042
20
-0.0550935405443624
30
0
41
1
10
42.0019234278134
20
-0.0620467928615938
30
0
41
1
10
42.011584538945
20
-0.068813085827685
30
0
41
1
10
42.0209147119806
20
-0.0751861018716795
30
0
41
1
10
42.0300510266297
20
-0.0813398754221453
30
0
41
1
10
42.0345101059651
20
-0.0842987759876337
30
0
41
1
10
42.0429325960467
20
-0.0897904088794803
30
0
41
1
10
42.0469295036991
20
-0.092345917914912
30
0
41
1
10
42.054430009987
20
-0.0970167105807889
30
0
41
1
10
42.0579347111247
20
-0.0991314028314321
30
0
41
1
10
42.0610507518572
20
-0.10092322668504
30
0
0
SPLINE
5
160
100
AcDbEntity
8
1
62
256
6
ByLayer
370
18
48
1
60
0
100
AcDbSpline
70
4
71
3
72
10
73
6
40
0
40
0
40
0
40
0
40
0.5
40
0.5
40
1
40
1
40
1
40
1
41
1
10
42.0610507518636
20
-0.100923226685467
30
0
41
1
10
42.1067828269671
20
-0.127220643848062
30
0
41
1
10
42.1521438162543
20
-0.157399895053175
30
0
41
1
10
42.2423941035171
20
-0.224888057284602
30
0
41
1
10
42.2871238569083
20
-0.262125375769017
30
0
41
1
10
42.3315727059007
20
-0.30271179636415
30
0
0
SPLINE
5
161
100
AcDbEntity
8
1
62
256
6
ByLayer
370
18
48
1
60
0
100
AcDbSpline
70
4
71
3
72
10
73
6
40
0
40
0
40
0
40
0
40
0.5
40
0.5
40
1
40
1
40
1
40
1
41
1
10
42.4067585740638
20
-0.373150556885974
30
0
41
1
10
42.452572359553
20
-0.414932227494091
30
0
41
1
10
42.4987336466688
20
-0.452728144532301
30
0
41
1
10
42.5920196068345
20
-0.520167126901327
30
0
41
1
10
42.6389796272305
20
-0.549692394348853
30
0
41
1
10
42.6864085606855
20
-0.57495104422722
30
0
0
SPLINE
5
162
100
AcDbEntity
8
1
62
256
6
ByLayer
370
18
48
1
60
0
100
AcDbSpline
70
4
71
3
72
27
73
23
40
0
40
0
40
0
40
0
40
0.125
40
0.125
40
0.25
40
0.25
40
0.374999999999999
40
0.374999999999999
40
0.499999999999999
40
0.499999999999999
40
0.624999999999999
40
0.624999999999999
40
0.687499999999999
40
0.687499999999999
40
0.749999999999999
40
0.812499999999999
40
0.812499999999999
40
0.875
40
0.875
40
0.9375
40
0.9375
40
1
40
1
40
1
40
1
41
1
10
42.6864085606853
20
-0.574951044226907
30
0
41
1
10
42.6921715547326
20
-0.578020171830843
30
0
41
1
10
42.6988967913297
20
-0.581892714692088
30
0
41
1
10
42.7138243842332
20
-0.590848145989298
30
0
41
1
10
42.7221328986666
20
-0.596003865722452
30
0
41
1
10
42.7394710751673
20
-0.607034618063437
30
0
41
1
10
42.748534974486
20
-0.612926463450236
30
0
41
1
10
42.7673834723104
20
-0.625455504499769
30
0
41
1
10
42.7772187028473
20
-0.632131584517509
30
0
41
1
10
42.7968385849529
20
-0.645795261147498
30
0
41
1
10
42.8067106525926
20
-0.652838713642552
30
0
41
1
10
42.8215942051975
20
-0.663796808227573
30
0
41
1
10
42.8265925415847
20
-0.667534662144647
30
0
41
1
10
42.8364012384764
20
-0.675002779321659
30
0
41
1
10
42.8460588676719
20
-0.682489135368797
30
0
41
1
10
42.8553823342895
20
-0.690025203581143
30
0
41
1
10
42.8645107974003
20
-0.697595252135642
30
0
41
1
10
42.8689583637354
20
-0.701383714042009
30
0
41
1
10
42.8773586865974
20
-0.708774036251043
30
0
41
1
10
42.8813438504197
20
-0.712401993558984
30
0
41
1
10
42.8888203515419
20
-0.719502422877639
30
0
41
1
10
42.8923102097017
20
-0.722976415360563
30
0
41
1
10
42.8954130529429
20
-0.726257355547631
30
0
0
SPLINE
5
163
100
AcDbEntity
8
1
62
256
6
ByLayer
370
18
48
1
60
0
100
AcDbSpline
70
4
71
3
72
10
73
6
40
0
40
0
40
0
40
0
40
0.5
40
0.5
40
1
40
1
40
1
40
1
41
1
10
42.8954130529521
20
-0.726257355554054
30
0
41
1
10
42.9411263761361
20
-0.774594531325363
30
0
41
1
10
42.9864717680209
20
-0.826158968050351
30
0
41
1
10
43.076648361485
20
-0.935576468162111
30
0
41
1
10
43.1213121005026
20
-0.993230780762502
30
0
41
1
10
43.1656665638836
20
-1.05370778157055
30
0
0
SPLINE
5
164
100
AcDbEntity
8
1
62
256
6
ByLayer
370
18
48
1
60
0
100
AcDbSpline
70
4
71
3
72
12
73
8
40
0
40
0
40
0
40
0
40
0.249999999999992
40
0.249999999999992
40
0.499999999999985
40
0.499999999999985
40
1
40
1
40
1
40
1
41
1
10
43.2414041627349
20
-1.11823643783646
30
0
41
1
10
43.2643060740633
20
-1.12528516010801
30
0
41
1
10
43.2872824266402
20
-1.13130264445903
30
0
41
1
10
43.3334160723213
20
-1.14127098462956
30
0
41
1
10
43.3565738786553
20
-1.14522705656748
30
0
41
1
10
43.426425319732
20
-1.15369815238267
30
0
41
1
10
43.4733497129722
20
-1.15472347020236
30
0
41
1
10
43.5207845418728
20
-1.15116951620325
30
0
0
SPLINE
5
165
100
AcDbEntity
8
1
62
256
6
ByLayer
370
18
48
1
60
0
100
AcDbSpline
70
4
71
3
72
27
73
23
40
0
40
0
40
0
40
0
40
0.125
40
0.125
40
0.250000000000001
40
0.250000000000001
40
0.375000000000001
40
0.375000000000001
40
0.500000000000001
40
0.500000000000001
40
0.625000000000001
40
0.625000000000001
40
0.687500000000001
40
0.687500000000001
40
0.750000000000001
40
0.812500000000001
40
0.812500000000001
40
0.875
40
0.875
40
0.9375
40
0.9375
40
1
40
1
40
1
40
1
41
1
10
43.5207845418728
20
-1.15116951620325
30
0
41
1
10
43.5265518938198
20
-1.1507374095855
30
0
41
1
10
43.5332810957563
20
-1.15143165065825
30
0
41
1
10
43.5482136586436
20
-1.1545183362332
30
0
41
1
10
43.5565224711351
20
-1.15696424315013
30
0
41
1
10
43.5738551395892
20
-1.16321624479386
30
0
41
1
10
43.5829150244554
20
-1.16701748528899
30
0
41
1
10
43.6017539636734
20
-1.17592368361238
30
0
41
1
10
43.6115843708844
20
-1.18106839371507
30
0
41
1
10
43.6311981008267
20
-1.1923621167781
30
0
41
1
10
43.6410681080899
20
-1.19854558795004
30
0
41
1
10
43.6559498012725
20
-1.2087545818716
30
0
41
1
10
43.6609487965593
20
-1.21233503157768
30
0
41
1
10
43.6707630586787
20
-1.2196982834551
30
0
41
1
10
43.680426786509
20
-1.22728317296512
30
0
41
1
10
43.689756803872
20
-1.23535689331047
30
0
41
1
10
43.6988916715452
20
-1.24371511878741
30
0
41
1
10
43.7033460911088
20
-1.24802731555187
30
0
41
1
10
43.7117587628771
20
-1.25671531699368
30
0
41
1
10
43.7157500523468
20
-1.26111994559781
30
0
41
1
10
43.7232384163813
20
-1.27006812664459
30
0
41
1
10
43.7267358350024
20
-1.27461883637162
30
0
41
1
10
43.7298455123415
20
-1.27911983641357
30
0
0
SPLINE
5
166
100
AcDbEntity
8
1
62
256
6
ByLayer
370
18
48
1
60
0
100
AcDbSpline
70
4
71
3
72
10
73
6
40
0
40
0
40
0
40
0
40
0.5
40
0.5
40
1
40
1
40
1
40
1
41
1
10
43.7298455123457
20
-1.27911983641746
30
0
41
1
10
43.7755920062352
20
-1.34533409226685
30
0
41
1
10
43.8210400300003
20
-1.41388611259023
30
0
41
1
10
43.9112954698053
20
-1.55499587134648
30
0
41
1
10
43.9560602557624
20
-1.62748464268492
30
0
41
1
10
44.00050230237
20
-1.70167836832903
30
0
0
SPLINE
5
167
100
AcDbEntity
8
1
62
256
6
ByLayer
370
18
48
1
60
0
100
AcDbSpline
70
4
71
3
72
8
73
4
40
0
40
0
40
0
40
0
40
1
40
1
40
1
40
1
41
1
10
44.0761902126447
20
-1.7521703083973
30
0
41
1
10
44.0509537552828
20
-1.73557797477073
30
0
41
1
10
44.0257248554569
20
-1.71874693779961
30
0
41
1
10
44.00050230237
20
-1.70167836832903
30
0
0
SPLINE
5
168
100
AcDbEntity
8
1
62
256
6
ByLayer
370
18
48
1
60
0
100
AcDbSpline
70
4
71
3
72
10
73
6
40
0
40
0
40
0
40
0
40
0.5
40
0.5
40
1
40
1
40
1
40
1
41
1
10
44.0761902126447
20
-1.75217030839738
30
0
41
1
10
44.1219685705274
20
-1.73632777825634
30
0
41
1
10
44.16805263386
20
-1.71644480208246
30
0
41
1
10
44.2610737586808
20
-1.66850009703646
30
0
41
1
10
44.307855488271
20
-1.64051994236112
30
0
41
1
10
44.3550529054885
20
-1.60848282876967
30
0
0
SPLINE
5
169
100
AcDbEntity
8
1
62
256
6
ByLayer
370
18
48
1
60
0
100
AcDbSpline
70
4
71
3
72
27
73
23
40
0
40
0
40
0
40
0
40
0.125
40
0.125
40
0.25
40
0.25
40
0.375
40
0.375
40
0.5
40
0.5
40
0.625
40
0.625
40
0.6875
40
0.6875
40
0.75
40
0.8125
40
0.8125
40
0.875
40
0.875
40
0.9375
40
0.9375
40
1
40
1
40
1
40
1
41
1
10
44.3550529054885
20
-1.60848282876967
30
0
41
1
10
44.360830424675
20
-1.60456110912261
30
0
41
1
10
44.3675732774198
20
-1.60197312439635
30
0
41
1
10
44.3825339861442
20
-1.59881389900534
30
0
41
1
10
44.3908572448631
20
-1.59827156368513
30
0
41
1
10
44.4082152548673
20
-1.5990487773158
30
0
41
1
10
44.4172864441808
20
-1.60034285732451
30
0
41
1
10
44.4361401100668
20
-1.60466473386035
30
0
41
1
10
44.4459728308429
20
-1.60772818697566
30
0
41
1
10
44.4655829451008
20
-1.61545320352764
30
0
41
1
10
44.4754470054568
20
-1.62012459266799
30
0
41
1
10
44.4903135141398
20
-1.62851046321754
30
0
41
1
10
44.4953060482795
20
-1.63155619384511
30
0
41
1
10
44.5051073545505
20
-1.63803624682117
30
0
41
1
10
44.5147580941494
20
-1.64491847518352
30
0
41
1
10
44.5240759564745
20
-1.65267670683369
30
0
41
1
10
44.5331996532967
20
-1.66093890244505
30
0
41
1
10
44.5376511420353
20
-1.66531691374098
30
0
41
1
10
44.5460589395697
20
-1.67438221942203
30
0
41
1
10
44.5500485437697
20
-1.67909740056146
30
0
41
1
10
44.5575352274996
20
-1.68894724663198
30
0
41
1
10
44.5610341369577
20
-1.69409429663025
30
0
41
1
10
44.5641461853901
20
-1.69934114918979
30
0
0
SPLINE
5
16A
100
AcDbEntity
8
1
62
256
6
ByLayer
370
18
48
1
60
0
100
AcDbSpline
70
4
71
3
72
10
73
6
40
0
40
0
40
0
40
0
40
0.5
40
0.5
40
1
40
1
40
1
40
1
41
1
10
44.564146185396
20
-1.69934114919846
30
0
41
1
10
44.5996944606809
20
-1.75927484343487
30
0
41
1
10
44.6350297548402
20
-1.81994377370498
30
0
41
1
10
44.705361755141
20
-1.94242131278423
30
0
41
1
10
44.7403295395832
20
-2.0041928621458
30
0
41
1
10
44.7750846025303
20
-2.06633999911307
30
0
0
SPLINE
5
16B
100
AcDbEntity
8
1
62
256
6
ByLayer
370
18
48
1
60
0
100
AcDbSpline
70
4
71
3
72
12
73
8
40
0
40
0
40
0
40
0
40
0.499999999999951
40
0.499999999999951
40
0.749999999999975
40
0.749999999999975
40
1
40
1
40
1
40
1
41
1
10
44.7750846025303
20
-2.06633999911313
30
0
41
1
10
44.8123090340053
20
-2.07646641612001
30
0
41
1
10
44.8497301461783
20
-2.08576880879605
30
0
41
1
10
44.9061860723178
20
-2.09848928665505
30
0
41
1
10
44.9250691460527
20
-2.10252559960901
30
0
41
1
10
44.9628099858282
20
-2.11016028054124
30
0
41
1
10
44.981683293077
20
-2.11376240210169
30
0
41
1
10
45.0005614761737
20
-2.11715241597142
30
0
0
SPLINE
5
16C
100
AcDbEntity
8
1
62
256
6
ByLayer
370
18
48
1
60
0
100
AcDbSpline
70
4
71
3
72
10
73
6
40
0
40
0
40
0
40
0
40
0.5
40
0.5
40
1
40
1
40
1
40
1
41
1
10
45.0005614761737
20
-2.11715241597142
30
0
41
1
10
45.0316980491812
20
-2.08473484108785
30
0
41
1
10
45.0630444250506
20
-2.0506549824531
30
0
41
1
10
45.1260093164805
20
-1.97942468037101
30
0
41
1
10
45.1576461759025
20
-1.9422542325907
30
0
41
1
10
45.1894887475435
20
-1.9035319173835
30
0
0
SPLINE
5
16D
100
AcDbEntity
8
1
62
256
6
ByLayer
370
18
48
1
60
0
100
AcDbSpline
70
4
71
3
72
27
73
23
40
0
40
0
40
0
40
0
40
0.125000000000043
40
0.125000000000043
40
0.250000000000085
40
0.250000000000085
40
0.375000000000128
40
0.375000000000128
40
0.500000000000171
40
0.500000000000171
40
0.625000000000214
40
0.625000000000214
40
0.687500000000178
40
0.687500000000178
40
0.750000000000143
40
0.812500000000107
40
0.812500000000107
40
0.875000000000071
40
0.875000000000071
40
0.937500000000036
40
0.937500000000036
40
1
40
1
40
1
40
1
41
1
10
45.1894887475435
20
-1.9035319173835
30
0
41
1
10
45.1952552945997
20
-1.89651947959192
30
0
41
1
10
45.2019858450724
20
-1.89090019278979
30
0
41
1
10
45.2169241281948
20
-1.88177380928144
30
0
41
1
10
45.2252383898152
20
-1.87826717980605
30
0
41
1
10
45.2425850693246
20
-1.87342565358154
30
0
41
1
10
45.2516518826743
20
-1.87204530977772
30
0
41
1
10
45.2705028614264
20
-1.87126318457811
30
0
41
1
10
45.280336982492
20
-1.87188986307064
30
0
41
1
10
45.2999520309438
20
-1.87516797803212
30
0
41
1
10
45.3098204179991
20
-1.87780327902749
30
0
41
1
10
45.3246963028668
20
-1.88344026592984
30
0
41
1
10
45.3296913233376
20
-1.88561710858312
30
0
41
1
10
45.3394927347309
20
-1.8905036757271
30
0
41
1
10
45.3491428673118
20
-1.89593202983519
30
0
41
1
10
45.3584593450976
20
-1.90253271547283
30
0
41
1
10
45.3675807468722
20
-1.90980630891534
30
0
41
1
10
45.3720256824704
20
-1.91377256925154
30
0
41
1
10
45.3804211711735
20
-1.92222736640079
30
0
41
1
10
45.3844042024649
20
-1.92673939307935
30
0
41
1
10
45.3918771537114
20
-1.93641755948818
30
0
41
1
10
45.3953667380106
20
-1.94159515210765
30
0
41
1
10
45.3984701279774
20
-1.94700924358602
30
0
0
SPLINE
5
16E
100
AcDbEntity
8
1
62
256
6
ByLayer
370
18
48
1
60
0
100
AcDbSpline
70
4
71
3
72
8
73
4
40
0
40
0
40
0
40
0
40
1
40
1
40
1
40
1
41
1
10
45.3984701279834
20
-1.94700924359609
30
0
41
1
10
45.4389781132259
20
-2.01767839574924
30
0
41
1
10
45.4791998946471
20
-2.08819451349712
30
0
41
1
10
45.5192127769511
20
-2.15851901693568
30
0
0
SPLINE
5
16F
100
AcDbEntity
8
1
62
256
6
ByLayer
370
18
48
1
60
0
100
AcDbSpline
70
4
71
3
72
10
73
6
40
0
40
0
40
0
40
0
40
0.5
40
0.5
40
1
40
1
40
1
40
1
41
1
10
45.5192127769511
20
-2.15851901693568
30
0
41
1
10
45.5910039531344
20
-2.15726178147318
30
0
41
1
10
45.6629846453738
20
-2.15315137775579
30
0
41
1
10
45.8074223137178
20
-2.13906835022854
30
0
41
1
10
45.8798528650715
20
-2.12909652214719
30
0
41
1
10
45.9528333698896
20
-2.11608918573199
30
0
0
SPLINE
5
170
100
AcDbEntity
8
1
62
256
6
ByLayer
370
18
48
1
60
0
100
AcDbSpline
70
4
71
3
72
8
73
4
40
0
40
0
40
0
40
0
40
1
40
1
40
1
40
1
41
1
10
45.9528333698894
20
-2.11608918573162
30
0
41
1
10
45.9763882969219
20
-2.07875030582599
30
0
41
1
10
46.000049552205
20
-2.04079878092762
30
0
41
1
10
46.0238441263068
20
-2.00222985848444
30
0
0
SPLINE
5
171
100
AcDbEntity
8
1
62
256
6
ByLayer
370
18
48
1
60
0
100
AcDbSpline
70
4
71
3
72
9
73
5
40
0
40
0
40
0
40
0
40
0.455262310872324
40
1
40
1
40
1
40
1
41
1
10
40.2049471176023
20
-2.45479352019001
30
0
41
1
10
40.2014366317114
20
-2.45481834254838
30
0
41
1
10
40.193785275491
20
-2.4486524990063
30
0
41
1
10
40.1861952704791
20
-2.42908062007373
30
0
41
1
10
40.1820414717604
20
-2.41441403635204
30
0
0
SPLINE
5
172
100
AcDbEntity
8
1
62
256
6
ByLayer
370
18
48
1
60
0
100
AcDbSpline
70
4
71
3
72
13
73
9
40
0
40
0
40
0
40
0
40
0.235767482383555
40
0.235767482383555
40
0.47153496476711
40
0.47153496476711
40
0.943069929534219
40
1
40
1
40
1
40
1
41
1
10
40.106171742809
20
-2.40052653752835
30
0
41
1
10
40.1082305784637
20
-2.40910066446787
30
0
41
1
10
40.1103009123958
20
-2.41665453796628
30
0
41
1
10
40.1144524874602
20
-2.42969626535111
30
0
41
1
10
40.1165364046156
20
-2.43519547673532
30
0
41
1
10
40.1228153721889
20
-2.44867315830595
30
0
41
1
10
40.1275486063085
20
-2.45423832128003
30
0
41
1
10
40.132321509001
20
-2.45479219536173
30
0
41
1
10
40.1328361199326
20
-2.45479354813952
30
0
0
SPLINE
5
173
100
AcDbEntity
8
1
62
256
6
ByLayer
370
18
48
1
60
0
100
AcDbSpline
70
4
71
3
72
10
73
6
40
0
40
0
40
0
40
0
40
0.552872730676408
40
0.552872730676408
40
1
40
1
40
1
40
1
41
1
10
42.106373178086
20
2.44515943396368
30
0
41
1
10
42.1075516735518
20
2.44721679049906
30
0
41
1
10
42.1087298878647
20
2.44894863290588
30
0
41
1
10
42.1108621705383
20
2.45148619199864
30
0
41
1
10
42.1118167844455
20
2.45240476549134
30
0
41
1
10
42.1127707352719
20
2.45310568466834
30
0
0
SPLINE
5
174
100
AcDbEntity
8
1
62
256
6
ByLayer
370
18
48
1
60
0
100
AcDbSpline
70
4
71
3
72
11
73
7
40
0
40
0
40
0
40
0
40
0.310491356625719
40
0.655245678312859
40
0.655245678312859
40
1
40
1
40
1
40
1
41
1
10
42.1173422030716
20
2.45479351872785
30
0
41
1
10
42.1210496004945
20
2.45480247444661
30
0
41
1
10
42.1288265968789
20
2.44784057773867
30
0
41
1
10
42.1367379203518
20
2.42650735398104
30
0
41
1
10
42.1453019373253
20
2.39608819792352
30
0
41
1
10
42.1497101701349
20
2.37689447502055
30
0
41
1
10
42.1541383836361
20
2.35358693094554
30
0
0
SPLINE
5
175
100
AcDbEntity
8
1
62
256
6
ByLayer
370
18
48
1
60
0
100
AcDbSpline
70
4
71
3
72
15
73
11
40
0
40
0
40
0
40
0
40
0.156725548870113
40
0.235088323305168
40
0.235088323305168
40
0.313451097740223
40
0.313451097740223
40
0.626902195480439
40
0.940353293220655
40
1
40
1
40
1
40
1
41
1
10
42.2294805814595
20
2.33232383892417
30
0
41
1
10
42.2273481341983
20
2.3449880383549
30
0
41
1
10
42.2241455508085
20
2.36258766345884
30
0
41
1
10
42.220935735662
20
2.37805884044286
30
0
41
1
10
42.2187939939521
20
2.38789449268751
30
0
41
1
10
42.2177208852825
20
2.39257814132847
30
0
41
1
10
42.2123773598648
20
2.41467621643184
30
0
41
1
10
42.2039398711291
20
2.44176104625953
30
0
41
1
10
42.1948754541329
20
2.45387274864621
30
0
41
1
10
42.1899721268444
20
2.45479237208559
30
0
41
1
10
42.1891885776858
20
2.45479391632685
30
0
0
SPLINE
5
176
100
AcDbEntity
8
1
62
256
6
ByLayer
370
18
48
1
60
0
100
AcDbSpline
70
4
71
3
72
23
73
19
40
0
40
0
40
0
40
0
40
0.0127864590906679
40
0.0127864590906679
40
0.111507813181601
40
0.111507813181601
40
0.210229167272534
40
0.210229167272534
40
0.4076718754544
40
0.4076718754544
40
0.605114583636267
40
0.605114583636267
40
0.802557291818134
40
0.802557291818134
40
0.851917968863601
40
0.851917968863601
40
0.901278645909067
40
1
40
1
40
1
40
1
41
1
10
39.4114937846109
20
-2.45479338091516
30
0
41
1
10
39.4112266266807
20
-2.45479305713906
30
0
41
1
10
39.4109592238626
20
-2.45477583057303
30
0
41
1
10
39.4086250129503
20
-2.45447805563683
30
0
41
1
10
39.4065431614649
20
-2.45320406786138
30
0
41
1
10
39.4023384280128
20
-2.44859745712401
30
0
41
1
10
39.4002136179413
20
-2.44525461195948
30
0
41
1
10
39.3938378769138
20
-2.43224325495208
30
0
41
1
10
39.3895605741651
20
-2.41958422277233
30
0
41
1
10
39.3809369830508
20
-2.38650590178219
30
0
41
1
10
39.3765848941001
20
-2.36608630636107
30
0
41
1
10
39.3678819012676
20
-2.31746135764908
30
0
41
1
10
39.3635672079144
20
-2.28925617622656
30
0
41
1
10
39.3583006131804
20
-2.24896799887273
30
0
41
1
10
39.3572524765907
20
-2.24065472206104
30
0
41
1
10
39.3551774964367
20
-2.22361719165502
30
0
41
1
10
39.3520921898601
20
-2.19741109741023
30
0
41
1
10
39.3490770727105
20
-2.16927755972307
30
0
41
1
10
39.3470790546235
20
-2.14967872649788
30
0
0
SPLINE
5
177
100
AcDbEntity
8
1
62
256
6
ByLayer
370
18
48
1
60
0
100
AcDbSpline
70
4
71
3
72
22
73
18
40
0
40
0
40
0
40
0
40
0.186714690339412
40
0.186714690339412
40
0.280072035509118
40
0.326750708093971
40
0.326750708093971
40
0.373429380678823
40
0.373429380678823
40
0.560144071018232
40
0.560144071018232
40
0.746858761357642
40
0.933573451697051
40
0.933573451697051
40
0.980252124281903
40
0.980252124281903
40
1
40
1
40
1
40
1
41
1
10
39.2719409616282
20
-2.11432832390565
30
0
41
1
10
39.2760773005472
20
-2.15551631344476
30
0
41
1
10
39.2802137776079
20
-2.19320813692633
30
0
41
1
10
39.2863883020827
20
-2.24445997361315
30
0
41
1
10
39.2894700241061
20
-2.26876195671855
30
0
41
1
10
39.2925560704097
20
-2.29104725385091
30
0
41
1
10
39.2946171216051
20
-2.30545086925659
30
0
41
1
10
39.2956508872145
20
-2.31243541618537
30
0
41
1
10
39.3008163532425
20
-2.3460805250447
30
0
41
1
10
39.3049497741183
20
-2.36889497469642
30
0
41
1
10
39.3133266845452
20
-2.40659058445235
30
0
41
1
10
39.3217822347512
20
-2.43635158227443
30
0
41
1
10
39.3303628169399
20
-2.45030558373887
30
0
41
1
10
39.3357593548459
20
-2.45395747017952
30
0
41
1
10
39.3368403758502
20
-2.45443377160621
30
0
41
1
10
39.3383811754712
20
-2.45474591345277
30
0
41
1
10
39.3388394536473
20
-2.45479254177343
30
0
41
1
10
39.3392975251035
20
-2.45479311713845
30
0
0
SPLINE
5
178
100
AcDbEntity
8
1
62
256
6
ByLayer
370
18
48
1
60
0
100
AcDbSpline
70
4
71
3
72
23
73
19
40
0
40
0
40
0
40
0
40
0.018870802972057
40
0.018870802972057
40
0.100631569391053
40
0.141511952600551
40
0.141511952600551
40
0.182392335810048
40
0.182392335810048
40
0.345913868648039
40
0.509435401486029
40
0.672956934324018
40
0.672956934324018
40
0.754717700743014
40
0.754717700743014
40
0.836478467162009
40
0.836478467162009
40
1
40
1
40
1
40
1
41
1
10
42.9116853018271
20
2.45479338492945
30
0
41
1
10
42.9121701070169
20
2.45478939936865
30
0
41
1
10
42.912654817154
20
2.45473164378791
30
0
41
1
10
42.9152391960135
20
2.45413658935428
30
0
41
1
10
42.9183868539463
20
2.45189285923027
30
0
41
1
10
42.9215369942409
20
2.44733412678653
30
0
41
1
10
42.9236384150995
20
2.44377446846156
30
0
41
1
10
42.9246906584833
20
2.44173188714504
30
0
41
1
10
42.9299283075158
20
2.43027122108697
30
0
41
1
10
42.9381988675056
20
2.40391218636955
30
0
41
1
10
42.9504687753291
20
2.34105033201465
30
0
41
1
10
42.9587039461082
20
2.2836233148073
30
0
41
1
10
42.9649600071721
20
2.23456982356663
30
0
41
1
10
42.967063392632
20
2.21717514786081
30
0
41
1
10
42.9712619392382
20
2.18073990410869
30
0
41
1
10
42.9733613916437
20
2.16166968955022
30
0
41
1
10
42.9796723101086
20
2.10194713660238
30
0
41
1
10
42.9838971876403
20
2.05878898476368
30
0
41
1
10
42.9881625378543
20
2.01233302464445
30
0
0
SPLINE
5
179
100
AcDbEntity
8
1
62
256
6
ByLayer
370
18
48
1
60
0
100
AcDbSpline
70
4
71
3
72
23
73
19
40
0
40
0
40
0
40
0
40
0.155981714891424
40
0.311963429782848
40
0.311963429782848
40
0.389954287228559
40
0.389954287228559
40
0.46794514467427
40
0.46794514467427
40
0.623926859565691
40
0.623926859565691
40
0.779908574457112
40
0.779908574457112
40
0.935890289348533
40
0.935890289348533
40
0.974885718071388
40
0.974885718071388
40
1
40
1
40
1
40
1
41
1
10
43.0639411105522
20
1.97041528761059
30
0
41
1
10
43.0597181269874
20
2.01909813079735
30
0
41
1
10
43.0513349796082
20
2.10943087284676
30
0
41
1
10
43.0430541077524
20
2.18592964498015
30
0
41
1
10
43.0368329643417
20
2.2380474392632
30
0
41
1
10
43.0347571471231
20
2.2545423911364
30
0
41
1
10
43.0305896759903
20
2.28574543557801
30
0
41
1
10
43.0284931221101
20
2.3004816372202
30
0
41
1
10
43.0222258314124
20
2.34153058153203
30
0
41
1
10
43.0180606918573
20
2.36483086362006
30
0
41
1
10
43.009658288101
20
2.40352774964774
30
0
41
1
10
43.0054093814312
20
2.41892376336983
30
0
41
1
10
42.9968287400313
20
2.44180204368348
30
0
41
1
10
42.9925120729762
20
2.44928509836387
30
0
41
1
10
42.9871152527364
20
2.45353730649146
30
0
41
1
10
42.9860341756171
20
2.4541321484152
30
0
41
1
10
42.9842649906893
20
2.45468285839192
30
0
41
1
10
42.9835737496941
20
2.45479128216513
30
0
41
1
10
42.982884300081
20
2.45479320368909
30
0
0
SPLINE
5
17A
100
AcDbEntity
8
1
62
256
6
ByLayer
370
18
48
1
60
0
100
AcDbSpline
70
4
71
3
72
24
73
20
40
0
40
0
40
0
40
0
40
0.125
40
0.249999999999999
40
0.249999999999999
40
0.312499999999999
40
0.312499999999999
40
0.343749999999999
40
0.343749999999999
40
0.374999999999999
40
0.499999999999999
40
0.499999999999999
40
0.624999999999999
40
0.624999999999999
40
0.749999999999999
40
0.749999999999999
40
0.875
40
0.875
40
1
40
1
40
1
40
1
41
1
10
44.00050230237
20
-1.70167836832903
30
0
41
1
10
44.0046539517161
20
-1.76039513614657
30
0
41
1
10
44.0128903230853
20
-1.87168158610416
30
0
41
1
10
44.0211589295688
20
-1.9708237942244
30
0
41
1
10
44.0274492673571
20
-2.04054714104436
30
0
41
1
10
44.0295600243105
20
-2.06301466735877
30
0
41
1
10
44.0327485530442
20
-2.09553248380581
30
0
41
1
10
44.0338163074253
20
-2.10618549522059
30
0
41
1
10
44.0359480828819
20
-2.12698301744209
30
0
41
1
10
44.0412734941903
20
-2.17776161353436
30
0
41
1
10
44.046580653758
20
-2.22255496662177
30
0
41
1
10
44.0550393000723
20
-2.2867490995271
30
0
41
1
10
44.0592573359449
20
-2.31510813561025
30
0
41
1
10
44.0676022405739
20
-2.36431135879039
30
0
41
1
10
44.0717177523625
20
-2.38515638963796
30
0
41
1
10
44.079897274473
20
-2.41906143791644
30
0
41
1
10
44.0838970755774
20
-2.43184834262917
30
0
41
1
10
44.091995522081
20
-2.44932318163052
30
0
41
1
10
44.0961272148866
20
-2.4540209520251
30
0
41
1
10
44.1003389042107
20
-2.45470584286463
30
0
0
SPLINE
5
17B
100
AcDbEntity
8
1
62
256
6
ByLayer
370
18
48
1
60
0
100
AcDbSpline
70
4
71
3
72
22
73
18
40
0
40
0
40
0
40
0
40
0.25
40
0.25
40
0.375
40
0.375
40
0.4375
40
0.4375
40
0.5
40
0.5
40
0.75
40
0.75
40
0.8125
40
0.8125
40
0.875
40
0.875
40
1
40
1
40
1
40
1
41
1
10
38.4697855945417
20
1.31636183548662
30
0
41
1
10
38.4638132771246
20
1.42464985761759
30
0
41
1
10
38.4579831842539
20
1.52420523203315
30
0
41
1
10
38.449306915929
20
1.66054734298103
30
0
41
1
10
38.4464262659706
20
1.70381623505901
30
0
41
1
10
38.4421014981814
20
1.76533767211185
30
0
41
1
10
38.4406623310962
20
1.78522690700134
30
0
41
1
10
38.4378022480848
20
1.82347246757124
30
0
41
1
10
38.4363780515212
20
1.84187586870931
30
0
41
1
10
38.4292553972894
20
1.93033467394616
30
0
41
1
10
38.4234749312375
20
1.98976526634093
30
0
41
1
10
38.4160187726593
20
2.04977751957568
30
0
41
1
10
38.4145182173994
20
2.06106160789736
30
0
41
1
10
38.4114989419257
20
2.08216866648704
30
0
41
1
10
38.4099764759986
20
2.09201152899988
30
0
41
1
10
38.4054255515019
20
2.11905215879335
30
0
41
1
10
38.4024054367666
20
2.13384265535956
30
0
41
1
10
38.3993986906204
20
2.14548815550873
30
0
0
SPLINE
5
17C
100
AcDbEntity
8
1
62
256
6
ByLayer
370
13
48
1
60
0
100
AcDbSpline
70
4
71
3
72
10
73
6
40
0
40
0
40
0
40
0
40
0.267188866926944
40
0.63567238369894
40
1
40
1
40
1
40
1
41
1.04
10
38.6037072778691
20
1.14444196421754
30
0
41
1.04
10
38.5957477336174
20
1.24782537061052
30
0
41
1.04
10
38.5766972684566
20
1.47930092230588
30
0
41
1.04
10
38.5467432676486
20
1.76683445209707
30
0
41
1.04
10
38.5252601570984
20
1.89387508528289
30
0
41
1.04
10
38.5146363934297
20
1.93631642521099
30
0
0
SPLINE
5
17D
100
AcDbEntity
8
1
62
256
6
ByLayer
370
18
48
1
60
0
100
AcDbSpline
70
4
71
3
72
10
73
6
40
0
40
0
40
0
40
0
40
0.0253416749380488
40
0.0253416749380488
40
1
40
1
40
1
40
1
41
1
10
26.9877243382394
20
1.84770003301963
30
0
41
1
10
26.9900319524845
20
1.8477002940285
30
0
41
1
10
26.9923396989454
20
1.84769719757148
30
0
41
1
10
27.0834100819683
20
1.84744253127016
30
0
41
1
10
27.1723631771493
20
1.8422157643077
30
0
41
1
10
27.2616733122171
20
1.831774876541
30
0
0
SPLINE
5
17E
100
AcDbEntity
8
1
62
256
6
ByLayer
370
18
48
1
60
0
100
AcDbSpline
70
4
71
3
72
36
73
32
40
0
40
0
40
0
40
0
40
0.0949809234499788
40
0.0949809234499788
40
0.141494706306568
40
0.141494706306568
40
0.188008489163157
40
0.188008489163157
40
0.281036054876345
40
0.281036054876345
40
0.374063620589534
40
0.374063620589534
40
0.467091186302722
40
0.467091186302722
40
0.513604969159322
40
0.513604969159322
40
0.560118752015922
40
0.560118752015922
40
0.65314631772911
40
0.65314631772911
40
0.746173883442299
40
0.746173883442299
40
0.839201449155487
40
0.839201449155487
40
0.885715232012087
40
0.885715232012087
40
0.932229014868686
40
0.932229014868686
40
0.978742797725286
40
0.978742797725286
40
1
40
1
40
1
40
1
41
1
10
27.9100029704308
20
-1.84764683771658
30
0
41
1
10
27.8556989448962
20
-1.84745668876926
30
0
41
1
10
27.8004708252461
20
-1.8467548392909
30
0
41
1
10
27.7166634166375
20
-1.84524256680498
30
0
41
1
10
27.6888658172032
20
-1.84467066040514
30
0
41
1
10
27.632735469427
20
-1.84342673325366
30
0
41
1
10
27.6043848440459
20
-1.8427546662017
30
0
41
1
10
27.5192429849305
20
-1.84068156650551
30
0
41
1
10
27.4621206278646
20
-1.83922052120454
30
0
41
1
10
27.34707273717
20
-1.83653358290937
30
0
41
1
10
27.2891500218691
20
-1.83530678229363
30
0
41
1
10
27.1724010381938
20
-1.83342309884154
30
0
41
1
10
27.1135708650247
20
-1.8327708163597
30
0
41
1
10
27.0244854849229
20
-1.83245482236663
30
0
41
1
10
26.9946453040941
20
-1.83246280817741
30
0
41
1
10
26.9346684766395
20
-1.83270978132347
30
0
41
1
10
26.9047601701822
20
-1.83290642149481
30
0
41
1
10
26.8153795360948
20
-1.83369196858823
30
0
41
1
10
26.7561966760826
20
-1.83447763088057
30
0
41
1
10
26.638614255594
20
-1.83642484817074
30
0
41
1
10
26.5802281552577
20
-1.8375987679018
30
0
41
1
10
26.4644571164418
20
-1.84020060241923
30
0
41
1
10
26.407066135808
20
-1.84162832700716
30
0
41
1
10
26.3218672963459
20
-1.84368178747079
30
0
41
1
10
26.2935392730865
20
-1.84435140192366
30
0
41
1
10
26.23773152068
20
-1.8455754415443
30
0
41
1
10
26.210232732241
20
-1.84613081538532
30
0
41
1
10
26.1561720778735
20
-1.84703563747067
30
0
41
1
10
26.1296114356979
20
-1.84738555438213
30
0
41
1
10
26.0916977070862
20
-1.84764925004444
30
0
41
1
10
26.0798986959996
20
-1.84769645593764
30
0
41
1
10
26.0682481382864
20
-1.8476997985691
30
0
0
SPLINE
5
17F
100
AcDbEntity
8
1
62
256
6
ByLayer
370
18
48
1
60
0
100
AcDbSpline
70
4
71
3
72
27
73
23
40
0
40
0
40
0
40
0
40
0.124999999999999
40
0.124999999999999
40
0.249999999999998
40
0.374999999999997
40
0.374999999999997
40
0.499999999999996
40
0.499999999999996
40
0.531249999999997
40
0.531249999999997
40
0.562499999999998
40
0.562499999999998
40
0.624999999999998
40
0.624999999999998
40
0.749999999999999
40
0.749999999999999
40
0.874999999999999
40
0.874999999999999
40
0.9375
40
0.9375
40
1
40
1
40
1
40
1
41
1
10
43.7219276113486
20
2.43227130284927
30
0
41
1
10
43.7260058590535
20
2.42129475963267
30
0
41
1
10
43.7301723159956
20
2.40628486238981
30
0
41
1
10
43.7387125988872
20
2.36797712001589
30
0
41
1
10
43.7473011281321
20
2.3219958765163
30
0
41
1
10
43.7558799505088
20
2.26119416795186
30
0
41
1
10
43.7644222524448
20
2.19301989199565
30
0
41
1
10
43.7686742965356
20
2.15524676770002
30
0
41
1
10
43.7739726981831
20
2.10330913936949
30
0
41
1
10
43.7750316880487
20
2.09268499465935
30
0
41
1
10
43.7771491069453
20
2.07095832233341
30
0
41
1
10
43.7782086893205
20
2.05984292806718
30
0
41
1
10
43.7813715148827
20
2.02595291945627
30
0
41
1
10
43.7834631045281
20
2.00259158952707
30
0
41
1
10
43.7897073909396
20
1.93024921338167
30
0
41
1
10
43.7938363737232
20
1.8790154218853
30
0
41
1
10
43.802130949386
20
1.7706412759812
30
0
41
1
10
43.8062827537483
20
1.71350044663936
30
0
41
1
10
43.8125191579268
20
1.62330275951274
30
0
41
1
10
43.8145996393694
20
1.5924877721167
30
0
41
1
10
43.8187686588201
20
1.52933334249241
30
0
41
1
10
43.8208623157224
20
1.49690999340626
30
0
41
1
10
43.8229432811176
20
1.46404709581881
30
0
0
SPLINE
5
180
100
AcDbEntity
8
1
62
256
6
ByLayer
370
13
48
1
60
0
100
AcDbSpline
70
4
71
3
72
10
73
6
40
0
40
0
40
0
40
0
40
0.44485992147792
40
0.813290351869697
40
1
40
1
40
1
40
1
41
1.04
10
44.1666891640069
20
1.05973999789549
30
0
41
1.04
10
44.1531196342778
20
1.24238433857318
30
0
41
1.04
10
44.1286709346969
20
1.53855907076259
30
0
41
1.04
10
44.0985284301884
20
1.79449580180964
30
0
41
1.04
10
44.0822879602233
20
1.88608703384448
30
0
41
1.04
10
44.0768807201243
20
1.91140237718215
30
0
0
SPLINE
5
181
100
AcDbEntity
8
1
62
256
6
ByLayer
370
18
48
1
60
0
100
AcDbSpline
70
4
71
3
72
27
73
23
40
0
40
0
40
0
40
0
40
0.124999999999998
40
0.124999999999998
40
0.187499999999997
40
0.187499999999997
40
0.249999999999995
40
0.249999999999995
40
0.374999999999993
40
0.374999999999993
40
0.499999999999991
40
0.499999999999991
40
0.56249999999999
40
0.56249999999999
40
0.59374999999999
40
0.59374999999999
40
0.62499999999999
40
0.62499999999999
40
0.749999999999993
40
0.749999999999993
40
0.874999999999997
40
1
40
1
40
1
40
1
41
1
10
43.8983185819113
20
1.40615294185804
30
0
41
1
10
43.8941476931262
20
1.47265241519261
30
0
41
1
10
43.8899716715986
20
1.53700276717763
30
0
41
1
10
43.8836692392434
20
1.63021040381707
30
0
41
1
10
43.881557778803
20
1.66078103836151
30
0
41
1
10
43.8773607618244
20
1.72015146547065
30
0
41
1
10
43.8752703693206
20
1.74902542644148
30
0
41
1
10
43.8690124245336
20
1.83325582814572
30
0
41
1
10
43.8648523884488
20
1.88622637000674
30
0
41
1
10
43.8565326447614
20
1.98588225797479
30
0
41
1
10
43.8523868301451
20
2.03256809667044
30
0
41
1
10
43.8461665572992
20
2.09780381639899
30
0
41
1
10
43.8440918569712
20
2.11874872941641
30
0
41
1
10
43.8409649783947
20
2.14894148995842
30
0
41
1
10
43.8399188592984
20
2.15881287568143
30
0
41
1
10
43.8378291968354
20
2.17804437110317
30
0
41
1
10
43.8367847396453
20
2.18741388088802
30
0
41
1
10
43.8315553379646
20
2.23304344212193
30
0
41
1
10
43.8273249618456
20
2.26565827645257
30
0
41
1
10
43.8187989005758
20
2.32330195405908
30
0
41
1
10
43.8102240912093
20
2.37335852468723
30
0
41
1
10
43.8016779162319
20
2.40817180116639
30
0
41
1
10
43.7974220474792
20
2.42163230271822
30
0
0
SPLINE
5
182
100
AcDbEntity
8
1
62
256
6
ByLayer
370
18
48
1
60
0
100
AcDbSpline
70
4
71
3
72
8
73
4
40
0
40
0
40
0
40
0
40
1
40
1
40
1
40
1
41
1
10
46.7505777502457
20
0.455135487677865
30
0
41
1
10
46.7484137102012
20
0.415279267942253
30
0
41
1
10
46.7463221668601
20
0.375046109779021
30
0
41
1
10
46.7442985995407
20
0.334435916135703
30
0
0
SPLINE
5
183
100
AcDbEntity
8
1
62
256
6
ByLayer
370
18
48
1
60
0
100
AcDbSpline
70
4
71
3
72
17
73
13
40
0
40
0
40
0
40
0
40
0.25
40
0.25
40
0.5
40
0.5
40
0.5625
40
0.5625
40
0.625
40
0.75
40
0.75
40
1
40
1
40
1
40
1
41
1
10
46.7532984084883
20
-0.813978485703245
30
0
41
1
10
46.7544908247019
20
-0.723874256418867
30
0
41
1
10
46.754768796901
20
-0.631946110380028
30
0
41
1
10
46.7546483957031
20
-0.444245455164975
30
0
41
1
10
46.7541630026956
20
-0.348497899424643
30
0
41
1
10
46.7530765014601
20
-0.226351723805664
30
0
41
1
10
46.7528345313777
20
-0.201756927088041
30
0
41
1
10
46.7523073930671
20
-0.152682561117217
30
0
41
1
10
46.7514512818644
20
-0.0791465066063211
30
0
41
1
10
46.7504105411422
20
-0.0058334830532374
30
0
41
1
10
46.7481155730751
20
0.140499647212351
30
0
41
1
10
46.7462994979956
20
0.237666149084447
30
0
41
1
10
46.7442985995402
20
0.334435916135874
30
0
0
SPLINE
5
184
100
AcDbEntity
8
1
62
256
6
ByLayer
370
18
48
1
60
0
100
AcDbSpline
70
4
71
3
72
8
73
4
40
0
40
0
40
0
40
0
40
1
40
1
40
1
40
1
41
1
10
46.730645976128
20
0.471272732086305
30
0
41
1
10
46.7353385364929
20
0.426101406174411
30
0
41
1
10
46.7398814544783
20
0.380380386391067
30
0
41
1
10
46.7442985995395
20
0.334435916135874
30
0
0
SPLINE
5
185
100
AcDbEntity
8
1
62
256
6
ByLayer
370
18
48
1
60
0
100
AcDbSpline
70
4
71
3
72
29
73
25
40
0
40
0
40
0
40
0
40
0.124999999999997
40
0.124999999999997
40
0.156249999999997
40
0.156249999999997
40
0.187499999999996
40
0.249999999999996
40
0.249999999999996
40
0.374999999999997
40
0.374999999999997
40
0.499999999999997
40
0.499999999999997
40
0.562499999999998
40
0.562499999999998
40
0.624999999999998
40
0.624999999999998
40
0.749999999999999
40
0.874999999999999
40
0.874999999999999
40
0.937499999999999
40
0.968749999999999
40
0.968749999999999
40
1
40
1
40
1
40
1
41
1
10
43.3418458242378
20
-2.34440922368256
30
0
41
1
10
43.3376964434027
20
-2.3203293021449
30
0
41
1
10
43.3335750609961
20
-2.29234162919721
30
0
41
1
10
43.3283725871225
20
-2.25231438058324
30
0
41
1
10
43.3273289281691
20
-2.24404737822022
30
0
41
1
10
43.3252472320351
20
-2.22709578737533
30
0
41
1
10
43.3221295284649
20
-2.20101542119073
30
0
41
1
10
43.3190203453568
20
-2.17299875784403
30
0
41
1
10
43.312799082069
20
-2.11442484648046
30
0
41
1
10
43.3086472520847
20
-2.07199425291512
30
0
41
1
10
43.3002715600766
20
-1.98043557498639
30
0
41
1
10
43.2960488331211
20
-1.93130769331199
30
0
41
1
10
43.2896742304362
20
-1.8524903390614
30
0
41
1
10
43.2875424147321
20
-1.82536206722619
30
0
41
1
10
43.2832643215101
20
-1.76935667651762
30
0
41
1
10
43.281134468036
20
-1.74069396261208
30
0
41
1
10
43.2747771783183
20
-1.65287517556101
30
0
41
1
10
43.2663809028699
20
-1.53081620364213
30
0
41
1
10
43.2580751969566
20
-1.39903031338321
30
0
41
1
10
43.2518401454312
20
-1.29651333506581
30
0
41
1
10
43.2487209739201
20
-1.24433380041313
30
0
41
1
10
43.2455901830248
20
-1.19075147972447
30
0
41
1
10
43.2434992830073
20
-1.1547146931878
30
0
41
1
10
43.2424505159846
20
-1.13651293429894
30
0
41
1
10
43.2414041627312
20
-1.11823643783856
30
0
0
SPLINE
5
186
100
AcDbEntity
8
1
62
256
6
ByLayer
370
18
48
1
60
0
100
AcDbSpline
70
4
71
3
72
28
73
24
40
0
40
0
40
0
40
0
40
0.125
40
0.125
40
0.15625
40
0.15625
40
0.1875
40
0.25
40
0.25
40
0.375
40
0.5
40
0.5
40
0.5625
40
0.5625
40
0.625000000000001
40
0.625000000000001
40
0.750000000000001
40
0.875000000000002
40
0.875000000000002
40
0.937500000000001
40
0.968750000000001
40
0.968750000000001
40
1
40
1
40
1
40
1
41
1
10
43.1656665638836
20
-1.05370778157058
30
0
41
1
10
43.1697899465986
20
-1.12709710491723
30
0
41
1
10
43.1739215382093
20
-1.19897109474769
30
0
41
1
10
43.1791353715968
20
-1.28685518082142
30
0
41
1
10
43.180181419895
20
-1.30434579490065
30
0
41
1
10
43.1822681228767
20
-1.33893610059445
30
0
41
1
10
43.1853941626541
20
-1.39030453246667
30
0
41
1
10
43.1885135266829
20
-1.44013934553001
30
0
41
1
10
43.1947569638359
20
-1.53779553879468
30
0
41
1
10
43.2030950037713
20
-1.66264413649611
30
0
41
1
10
43.2115838702983
20
-1.77686594473405
30
0
41
1
10
43.2180319155606
20
-1.85846387732016
30
0
41
1
10
43.2201946341847
20
-1.88498466920248
30
0
41
1
10
43.2245466885243
20
-1.93663474281942
30
0
41
1
10
43.2267175678971
20
-1.96154500649405
30
0
41
1
10
43.233209679592
20
-2.03359059179061
30
0
41
1
10
43.2418078577227
20
-2.12250439405139
30
0
41
1
10
43.2501897512332
20
-2.19741558545891
30
0
41
1
10
43.25642298217
20
-2.24829871267624
30
0
41
1
10
43.2595272102027
20
-2.27241278293701
30
0
41
1
10
43.2626251316029
20
-2.29450358334614
30
0
41
1
10
43.2646907808465
20
-2.30877593215243
30
0
41
1
10
43.2657250991285
20
-2.31569294627181
30
0
41
1
10
43.266755337969
20
-2.32234698524295
30
0
0
SPLINE
5
187
100
AcDbEntity
8
1
62
256
6
ByLayer
370
18
48
1
60
0
100
AcDbSpline
70
4
71
3
72
25
73
21
40
0
40
0
40
0
40
0
40
0.125000000000003
40
0.125000000000003
40
0.250000000000005
40
0.250000000000005
40
0.312500000000006
40
0.312500000000006
40
0.375000000000006
40
0.500000000000005
40
0.500000000000005
40
0.562500000000004
40
0.562500000000004
40
0.625000000000003
40
0.625000000000003
40
0.750000000000002
40
0.750000000000002
40
0.875000000000001
40
0.875000000000001
40
1
40
1
40
1
40
1
41
1
10
46.6717359463395
20
-0.792585607733656
30
0
41
1
10
46.6676801551951
20
-0.738832593452685
30
0
41
1
10
46.6637512659973
20
-0.683985363875024
30
0
41
1
10
46.6560469589332
20
-0.572293026183075
30
0
41
1
10
46.6522898520884
20
-0.515706515456202
30
0
41
1
10
46.6467880056414
20
-0.429722093180686
30
0
41
1
10
46.6449745230739
20
-0.400845866033848
30
0
41
1
10
46.6414098565283
20
-0.343042187252848
30
0
41
1
10
46.6361493676277
20
-0.256161986386076
30
0
41
1
10
46.6311393984299
20
-0.168765757062772
30
0
41
1
10
46.6262948640559
20
-0.0810266102437538
30
0
41
1
10
46.6247076178155
20
-0.0517229871107645
30
0
41
1
10
46.6215883641117
20
0.0069996592799555
30
0
41
1
10
46.6200538090466
20
0.036468928379179
30
0
41
1
10
46.6155515563815
20
0.12469334676311
30
0
41
1
10
46.6126988304883
20
0.182991702861187
30
0
41
1
10
46.6072733322811
20
0.298578808707248
30
0
41
1
10
46.604693276476
20
0.355867551224207
30
0
41
1
10
46.5998324093565
20
0.469432895524875
30
0
41
1
10
46.5975565064236
20
0.525709604718315
30
0
41
1
10
46.5955296200532
20
0.581463812530984
30
0
0
SPLINE
5
188
100
AcDbEntity
8
1
62
256
6
ByLayer
370
13
48
1
60
0
100
AcDbSpline
70
4
71
3
72
11
73
7
40
0
40
0
40
0
40
0
40
0.0216338031863333
40
0.390343604389014
40
0.759226463541194
40
1
40
1
40
1
40
1
41
1
10
38.8128053946471
20
1.00817372042857
30
0
41
1
10
38.8121659745203
20
1.01691319691935
30
0
41
1
10
38.8006211344707
20
1.17400390458602
30
0
41
1
10
38.7778903090443
20
1.45798340795108
30
0
41
1
10
38.7486163867191
20
1.73712166002508
30
0
41
1
10
38.7306975455249
20
1.85304891106966
30
0
41
1
10
38.723654270828
20
1.8897830859851
30
0
0
SPLINE
5
189
100
AcDbEntity
8
1
62
256
6
ByLayer
370
13
48
1
60
0
100
AcDbSpline
70
4
71
3
72
9
73
5
40
0
40
0
40
0
40
0
40
0.0008137580983294
40
1
40
1
40
1
40
1
41
1.04
10
39.4382017047026
20
0.565983024257067
30
0
41
1.04
10
39.4381775012135
20
0.566350748098871
30
0
41
1.04
10
39.4084348775601
20
1.01819133984937
30
0
41
1.04
10
39.3789769159645
20
1.41722649126852
30
0
41
1.04
10
39.3488485778145
20
1.6781061108173
30
0
0
SPLINE
5
18A
100
AcDbEntity
8
1
62
256
6
ByLayer
370
18
48
1
60
0
100
AcDbSpline
70
4
71
3
72
27
73
23
40
0
40
0
40
0
40
0
40
0.125000000000001
40
0.125000000000001
40
0.187500000000001
40
0.218750000000001
40
0.218750000000001
40
0.250000000000001
40
0.250000000000001
40
0.375000000000002
40
0.500000000000003
40
0.625000000000004
40
0.625000000000004
40
0.656250000000004
40
0.656250000000004
40
0.687500000000004
40
0.687500000000004
40
0.750000000000003
40
0.750000000000003
40
0.875000000000002
40
0.875000000000002
40
1
40
1
40
1
40
1
41
1
10
39.170078909677
20
0.816412827439365
30
0
41
1
10
39.1658656456261
20
0.892820824528769
30
0
41
1
10
39.161616436032
20
0.967806414969999
30
0
41
1
10
39.1552128637754
20
1.07813623156673
30
0
41
1
10
39.1520033753336
20
1.13276300824495
30
0
41
1
10
39.1487842309944
20
1.18657047775525
30
0
41
1
10
39.1466359962827
20
1.22225802612027
30
0
41
1
10
39.1455593986004
20
1.2400330231529
30
0
41
1
10
39.1401892396377
20
1.32814242300697
30
0
41
1
10
39.1317105786484
20
1.46375804142451
30
0
41
1
10
39.1192600885257
20
1.65163017945557
30
0
41
1
10
39.1110416778529
20
1.76654788764449
30
0
41
1
10
39.1058860554147
20
1.8350578756868
30
0
41
1
10
39.1048539179971
20
1.84859379866936
30
0
41
1
10
39.1027862700614
20
1.87532972295705
30
0
41
1
10
39.1017506837114
20
1.88852994039667
30
0
41
1
10
39.0986543882145
20
1.92740241365235
30
0
41
1
10
39.0965982477086
20
1.95242389032393
30
0
41
1
10
39.0904367234215
20
2.0248581169673
30
0
41
1
10
39.0863380866383
20
2.06964698800249
30
0
41
1
10
39.0780687548149
20
2.15233085308222
30
0
41
1
10
39.0738901637536
20
2.1902256739117
30
0
41
1
10
39.0696706780489
20
2.22462622994172
30
0
0
SPLINE
5
18B
100
AcDbEntity
8
1
62
256
6
ByLayer
370
18
48
1
60
0
100
AcDbSpline
70
4
71
3
72
28
73
24
40
0
40
0
40
0
40
0
40
0.0625000000000002
40
0.0625000000000002
40
0.125
40
0.125
40
0.25
40
0.375000000000001
40
0.375000000000001
40
0.437500000000001
40
0.437500000000001
40
0.468750000000001
40
0.468750000000001
40
0.5
40
0.625
40
0.750000000000001
40
0.750000000000001
40
0.875
40
0.875
40
0.90625
40
0.90625
40
0.9375
40
1
40
1
40
1
40
1
41
1
10
38.9933799577809
20
2.25398095117558
30
0
41
1
10
38.9954847626915
20
2.23779945900262
30
0
41
1
10
38.9976157760266
20
2.22057596680796
30
0
41
1
10
39.001888261154
20
2.18446926071599
30
0
41
1
10
39.0040330464612
20
2.16556700751809
30
0
41
1
10
39.0105048281573
20
2.10636036243523
30
0
41
1
10
39.0192085582114
20
2.02076351911617
30
0
41
1
10
39.027786583934
20
1.92203735998726
30
0
41
1
10
39.0341567634861
20
1.84299234797439
30
0
41
1
10
39.036270461139
20
1.81580912209068
30
0
41
1
10
39.0394323070378
20
1.77375821125116
30
0
41
1
10
39.0404864344376
20
1.75950860973083
30
0
41
1
10
39.0425846697887
20
1.73068465984125
30
0
41
1
10
39.0478028813363
20
1.65785810744185
30
0
41
1
10
39.0569377740929
20
1.51997518134081
30
0
41
1
10
39.0648791773634
20
1.3880019911162
30
0
41
1
10
39.0729399490371
20
1.25131590050677
30
0
41
1
10
39.07705388086
20
1.1806179361036
30
0
41
1
10
39.082319232395
20
1.08920406314527
30
0
41
1
10
39.0833781592051
20
1.07076796669321
30
0
41
1
10
39.0854954168891
20
1.0337993786199
30
0
41
1
10
39.0886748981541
20
0.978124086284708
30
0
41
1
10
39.0918637883476
20
0.921788996611923
30
0
41
1
10
39.0939927127085
20
0.883943456866092
30
0
0
SPLINE
5
18C
100
AcDbEntity
8
1
62
256
6
ByLayer
370
13
48
1
60
0
100
AcDbSpline
70
4
71
3
72
10
73
6
40
0
40
0
40
0
40
0
40
0.56648374944124
40
0.936893057335046
40
1
40
1
40
1
40
1
41
1
10
44.3757524539182
20
0.919554393888262
30
0
41
1
10
44.3584134202495
20
1.16364530796949
30
0
41
1
10
44.3304107470324
20
1.51613981645642
30
0
41
1
10
44.3004292299468
20
1.76838594466986
30
0
41
1
10
44.2877291526582
20
1.84722534805996
30
0
41
1
10
44.285886672529
20
1.85806399021695
30
0
0
SPLINE
5
18D
100
AcDbEntity
8
1
62
256
6
ByLayer
370
18
48
1
60
0
100
AcDbSpline
70
4
71
3
72
8
73
4
40
0
40
0
40
0
40
0
40
1
40
1
40
1
40
1
41
1
10
44.6522130350072
20
0.857763894804719
30
0
41
1
10
44.6538950539436
20
0.827395617953869
30
0
41
1
10
44.655579406684
20
0.796802858304488
30
0
41
1
10
44.6572669299852
20
0.765985116064826
30
0
0
SPLINE
5
18E
100
AcDbEntity
8
1
62
256
6
ByLayer
370
13
48
1
60
0
100
AcDbSpline
70
4
71
3
72
9
73
5
40
0
40
0
40
0
40
0
40
0.366413685442934
40
1
40
1
40
1
40
1
41
1.04
10
45.0011354425355
20
0.469111377332719
30
0
41
1.04
10
44.9904305286469
20
0.634269767984654
30
0
41
1.04
10
44.9609900744958
20
1.07427267551745
30
0
41
1.04
10
44.9306424989825
20
1.44597452864962
30
0
41
1.04
10
44.9113807937055
20
1.62490047366329
30
0
0
SPLINE
5
18F
100
AcDbEntity
8
1
62
256
6
ByLayer
370
18
48
1
60
0
100
AcDbSpline
70
4
71
3
72
26
73
22
40
0
40
0
40
0
40
0
40
0.124999999999999
40
0.124999999999999
40
0.249999999999998
40
0.249999999999998
40
0.312499999999998
40
0.312499999999998
40
0.374999999999998
40
0.374999999999998
40
0.499999999999998
40
0.499999999999998
40
0.624999999999999
40
0.624999999999999
40
0.75
40
0.75
40
0.8125
40
0.8125
40
0.875
40
0.875
40
1
40
1
40
1
40
1
41
1
10
44.7431245620087
20
0.687288141805652
30
0
41
1
10
44.7401912399675
20
0.76146893260767
30
0
41
1
10
44.7373377356246
20
0.834093652319666
30
0
41
1
10
44.7316958469616
20
0.976276807020781
30
0
41
1
10
44.7289042990601
20
1.04583719369953
30
0
41
1
10
44.724685438885
20
1.14784867766281
30
0
41
1
10
44.7232728039747
20
1.18146305814796
30
0
41
1
10
44.7204685073932
20
1.24788630433721
30
0
41
1
10
44.7190739125958
20
1.28077941292068
30
0
41
1
10
44.7150312051215
20
1.37717318160259
30
0
41
1
10
44.7125341104746
20
1.4386004192969
30
0
41
1
10
44.7078510034809
20
1.55608305588439
30
0
41
1
10
44.7056506775791
20
1.61215351437105
30
0
41
1
10
44.701254564451
20
1.71923743533955
30
0
41
1
10
44.6990634600951
20
1.77024562643663
30
0
41
1
10
44.6956587469613
20
1.84291595209996
30
0
41
1
10
44.6945041384602
20
1.86650030897732
30
0
41
1
10
44.6921608092125
20
1.9119755946866
30
0
41
1
10
44.6909697285093
20
1.93391884805459
30
0
41
1
10
44.6873231174042
20
1.9973591993496
30
0
41
1
10
44.6847778583643
20
2.03648118660038
30
0
41
1
10
44.6822182525329
20
2.07225924654208
30
0
0
SPLINE
5
190
100
AcDbEntity
8
1
62
256
6
ByLayer
370
18
48
1
60
0
100
AcDbSpline
70
4
71
3
72
26
73
22
40
0
40
0
40
0
40
0
40
0.125000000000001
40
0.125000000000001
40
0.250000000000002
40
0.250000000000002
40
0.312500000000003
40
0.312500000000003
40
0.375000000000004
40
0.375000000000004
40
0.500000000000003
40
0.500000000000003
40
0.625000000000003
40
0.625000000000003
40
0.750000000000003
40
0.750000000000003
40
0.812500000000002
40
0.812500000000002
40
0.875000000000002
40
0.875000000000002
40
1
40
1
40
1
40
1
41
1
10
44.5268325008512
20
2.16898280062839
30
0
41
1
10
44.5321611902609
20
2.13733225727643
30
0
41
1
10
44.5374219423477
20
2.10228728884704
30
0
41
1
10
44.5478952990135
20
2.02575565670469
30
0
41
1
10
44.5531148256959
20
1.98427822655162
30
0
41
1
10
44.5610256909197
20
1.91730722879282
30
0
41
1
10
44.5636763733547
20
1.89418861983424
30
0
41
1
10
44.5690235935062
20
1.84634149217331
30
0
41
1
10
44.571723485996
20
1.82157580482004
30
0
41
1
10
44.5798122139602
20
1.74561251428756
30
0
41
1
10
44.5852185222963
20
1.6925342097191
30
0
41
1
10
44.5960092888965
20
1.58153634714586
30
0
41
1
10
44.601391397767
20
1.52361436229836
30
0
41
1
10
44.6119734074792
20
1.40267574811733
30
0
41
1
10
44.6171652714261
20
1.33964930372659
30
0
41
1
10
44.6248399880998
20
1.24115070282974
30
0
41
1
10
44.627387540701
20
1.2076145471529
30
0
41
1
10
44.6324307111005
20
1.13985033272087
30
0
41
1
10
44.6349317489441
20
1.10555471474683
30
0
41
1
10
44.6423956355527
20
1.00144818897044
30
0
41
1
10
44.6473205716773
20
0.93042112761654
30
0
41
1
10
44.6522130350072
20
0.857763894804719
30
0
0
SPLINE
5
191
100
AcDbEntity
8
1
62
256
6
ByLayer
370
18
48
1
60
0
100
AcDbSpline
70
4
71
3
72
8
73
4
40
0
40
0
40
0
40
0
40
1
40
1
40
1
40
1
41
1
10
44.6666521059012
20
0.757535311604585
30
0
41
1
10
44.6619158328015
20
0.791289671615914
30
0
41
1
10
44.6571039475437
20
0.824697525258131
30
0
41
1
10
44.6522130350072
20
0.857763894804719
30
0
0
SPLINE
5
192
100
AcDbEntity
8
1
62
256
6
ByLayer
370
13
48
1
60
0
100
AcDbSpline
70
4
71
3
72
9
73
5
40
0
40
0
40
0
40
0
40
0.499855551111893
40
1
40
1
40
1
40
1
41
1.04
10
45.8355897210325
20
-0.170967210213227
30
0
41
1.04
10
45.8205871124667
20
0.0659332649369195
30
0
41
1.04
10
45.7907726308118
20
0.544084306112324
30
0
41
1.04
10
45.7606247700302
20
0.98125184341685
30
0
41
1.04
10
45.7455959582068
20
1.17445141596435
30
0
0
SPLINE
5
193
100
AcDbEntity
8
1
62
256
6
ByLayer
370
13
48
1
60
0
100
AcDbSpline
70
4
71
3
72
9
73
5
40
0
40
0
40
0
40
0
40
0.488548740523875
40
1
40
1
40
1
40
1
41
1
10
45.2102179483301
20
0.310492554098346
30
0
41
1
10
45.1959334390065
20
0.534458782022682
30
0
41
1
10
45.1664405051632
20
0.984472552113118
30
0
41
1
10
45.1360311012287
20
1.36486608221776
30
0
41
1
10
45.1204148922594
20
1.52555689323148
30
0
0
SPLINE
5
194
100
AcDbEntity
8
1
62
256
6
ByLayer
370
18
48
1
60
0
100
AcDbSpline
70
4
71
3
72
27
73
23
40
0
40
0
40
0
40
0
40
0.125000000000001
40
0.125000000000001
40
0.250000000000002
40
0.250000000000002
40
0.281250000000001
40
0.281250000000001
40
0.312500000000001
40
0.312500000000001
40
0.374999999999999
40
0.374999999999999
40
0.499999999999998
40
0.499999999999998
40
0.624999999999996
40
0.624999999999996
40
0.687499999999996
40
0.687499999999996
40
0.749999999999996
40
0.749999999999996
40
0.874999999999998
40
1
40
1
40
1
40
1
41
1
10
45.271256173059
20
1.65889614587209
30
0
41
1
10
45.2768118815937
20
1.6105155460111
30
0
41
1
10
45.2823448268306
20
1.55966679054859
30
0
41
1
10
45.2933005658495
20
1.4529886733248
30
0
41
1
10
45.2987171786907
20
1.39715257040177
30
0
41
1
10
45.3053663401215
20
1.32405351071097
30
0
41
1
10
45.3066905496878
20
1.3092684522743
30
0
41
1
10
45.309328552902
20
1.27936316082034
30
0
41
1
10
45.3106434616327
20
1.26422937873593
30
0
41
1
10
45.3145546142394
20
1.21856043363454
30
0
41
1
10
45.3171226045752
20
1.18768930947545
30
0
41
1
10
45.3247673103763
20
1.0938455515809
30
0
41
1
10
45.329804607252
20
1.02964793111286
30
0
41
1
10
45.3398606921907
20
0.898091142227543
30
0
41
1
10
45.3448665096299
20
0.830728254848395
30
0
41
1
10
45.3523307189611
20
0.727279629665276
30
0
41
1
10
45.3548119016806
20
0.692395696116932
30
0
41
1
10
45.3597613537402
20
0.621813286662075
30
0
41
1
10
45.3622359348251
20
0.586021056703714
30
0
41
1
10
45.3695807423049
20
0.478308223288053
30
0
41
1
10
45.379175022712
20
0.333648586324386
30
0
41
1
10
45.3884326459944
20
0.186952271128149
30
0
41
1
10
45.39300055338
20
0.1130912719413
30
0
0
SPLINE
5
195
100
AcDbEntity
8
1
62
256
6
ByLayer
370
18
48
1
60
0
100
AcDbSpline
70
4
71
3
72
22
73
18
40
0
40
0
40
0
40
0
40
0.25
40
0.25
40
0.3125
40
0.3125
40
0.375
40
0.375
40
0.5
40
0.5
40
0.749999999999999
40
0.749999999999999
40
0.812499999999999
40
0.812499999999999
40
0.874999999999999
40
0.874999999999999
40
1
40
1
40
1
40
1
41
1
10
45.7037941315376
20
-0.139874016422738
30
0
41
1
10
45.6968558576578
20
-0.0023118444997863
30
0
41
1
10
45.6903513262593
20
0.134415009808777
30
0
41
1
10
45.6824665156696
20
0.304282409645708
30
0
41
1
10
45.6809017786501
20
0.338203356120857
30
0
41
1
10
45.6777890951999
20
0.405938303660719
30
0
41
1
10
45.6762384448417
20
0.439811630747556
30
0
41
1
10
45.6716452414694
20
0.540277637737262
30
0
41
1
10
45.6686391329477
20
0.606005394146081
30
0
41
1
10
45.6597964529021
20
0.799528350831991
30
0
41
1
10
45.6542174025757
20
0.923690454909803
30
0
41
1
10
45.64774522225
20
1.07260367848346
30
0
41
1
10
45.6464731484508
20
1.1021166525091
30
0
41
1
10
45.6440069229982
20
1.1599245292366
30
0
41
1
10
45.6428107970208
20
1.18828155918439
30
0
41
1
10
45.6393344028181
20
1.27171176497652
30
0
41
1
10
45.6371671854836
20
1.32514811097727
30
0
41
1
10
45.6350310137967
20
1.3764659692888
30
0
0
SPLINE
5
196
100
AcDbEntity
8
1
62
256
6
ByLayer
370
13
48
1
60
0
100
AcDbSpline
70
4
71
3
72
9
73
5
40
0
40
0
40
0
40
0
40
0.122598153847214
40
1
40
1
40
1
40
1
41
1
10
39.6472428052924
20
0.409904673254601
30
0
41
1
10
39.6435891412463
20
0.466583298930402
30
0
41
1
10
39.6138172717395
20
0.924176120752577
30
0
41
1
10
39.584330094535
20
1.32808870427908
30
0
41
1
10
39.5580147071976
20
1.58371399174052
30
0
0
SPLINE
5
197
100
AcDbEntity
8
1
62
256
6
ByLayer
370
18
48
1
60
0
100
AcDbSpline
70
4
71
3
72
23
73
19
40
0
40
0
40
0
40
0
40
0.124999999999999
40
0.124999999999999
40
0.187499999999999
40
0.187499999999999
40
0.249999999999999
40
0.249999999999999
40
0.374999999999999
40
0.499999999999999
40
0.624999999999999
40
0.624999999999999
40
0.687499999999999
40
0.687499999999999
40
0.749999999999999
40
0.749999999999999
40
0.874999999999999
40
1
40
1
40
1
40
1
41
1
10
39.8285622261909
20
1.82914546142115
30
0
41
1
10
39.8327918961455
20
1.77518703723044
30
0
41
1
10
39.8369983688187
20
1.71827996227296
30
0
41
1
10
39.8432860613219
20
1.62844360997275
30
0
41
1
10
39.8453784758469
20
1.59775085965313
30
0
41
1
10
39.8495610487992
20
1.53484506262851
30
0
41
1
10
39.8516568145939
20
1.50254138911137
30
0
41
1
10
39.8578905725624
20
1.40425640143798
30
0
41
1
10
39.8660776680962
20
1.26929808487603
30
0
41
1
10
39.8782157637822
20
1.05547285689306
30
0
41
1
10
39.8864119951084
20
0.90533962706229
30
0
41
1
10
39.8926917813973
20
0.789815139892283
30
0
41
1
10
39.8948095403052
20
0.750779839735088
30
0
41
1
10
39.8990588329632
20
0.672602683950089
30
0
41
1
10
39.9011950923775
20
0.63335530823295
30
0
41
1
10
39.907618617685
20
0.515143870644209
30
0
41
1
10
39.9162190997642
20
0.356279208634675
30
0
41
1
10
39.9247653399667
20
0.194938345636501
30
0
41
1
10
39.9290212747126
20
0.113637534650536
30
0
0
SPLINE
5
198
100
AcDbEntity
8
1
62
256
6
ByLayer
370
18
48
1
60
0
100
AcDbSpline
70
4
71
3
72
25
73
21
40
0
40
0
40
0
40
0
40
0.125000000000001
40
0.250000000000001
40
0.250000000000001
40
0.312500000000002
40
0.312500000000002
40
0.343750000000002
40
0.343750000000002
40
0.375000000000002
40
0.500000000000002
40
0.625000000000002
40
0.625000000000002
40
0.750000000000001
40
0.750000000000001
40
0.812500000000001
40
0.812500000000001
40
0.875000000000001
40
0.875000000000001
40
1
40
1
40
1
40
1
41
1
10
42.507445658869
20
-1.99396327426314
30
0
41
1
10
42.5033766853837
20
-1.94649373385971
30
0
41
1
10
42.4952606441636
20
-1.84544017437207
30
0
41
1
10
42.487036988629
20
-1.73232457368883
30
0
41
1
10
42.4807972881452
20
-1.64289218075919
30
0
41
1
10
42.4787056049678
20
-1.61231403460806
30
0
41
1
10
42.4755476418894
20
-1.56527338574017
30
0
41
1
10
42.4744901553484
20
-1.54937559610806
30
0
41
1
10
42.4723781987055
20
-1.51734006921299
30
0
41
1
10
42.4671027484407
20
-1.43660763581519
30
0
41
1
10
42.4576403613687
20
-1.28558453510524
30
0
41
1
10
42.4492287089595
20
-1.14343123791733
30
0
41
1
10
42.440767918268
20
-0.997306909963726
30
0
41
1
10
42.4365115148671
20
-0.922259695203451
30
0
41
1
10
42.4300677517897
20
-0.806608099713969
30
0
41
1
10
42.4279225226638
20
-0.767765007609995
30
0
41
1
10
42.4236527802562
20
-0.68981352553547
30
0
41
1
10
42.4215255269719
20
-0.650655663439665
30
0
41
1
10
42.4151643059363
20
-0.532643769614964
30
0
41
1
10
42.4109511707562
20
-0.453252711502245
30
0
41
1
10
42.4067585740638
20
-0.373150556885974
30
0
0
SPLINE
5
199
100
AcDbEntity
8
1
62
256
6
ByLayer
370
18
48
1
60
0
100
AcDbSpline
70
4
71
3
72
43
73
39
40
0
40
0
40
0
40
0
40
0.0625000000000003
40
0.0625000000000003
40
0.0937500000000003
40
0.0937500000000003
40
0.125
40
0.125
40
0.1875
40
0.1875
40
0.21875
40
0.21875
40
0.25
40
0.25
40
0.28125
40
0.28125
40
0.3125
40
0.3125
40
0.375
40
0.5
40
0.5
40
0.625
40
0.625
40
0.687499999999999
40
0.687499999999999
40
0.749999999999999
40
0.749999999999999
40
0.812499999999999
40
0.812499999999999
40
0.843749999999999
40
0.843749999999999
40
0.874999999999999
40
0.874999999999999
40
0.937499999999999
40
0.937499999999999
40
0.96875
40
0.96875
40
1
40
1
40
1
40
1
41
1
10
47.2
20
1.49668551367679
30
0
41
1
10
47.2
20
1.45498093983846
30
0
41
1
10
47.2000000000001
20
1.41364073828575
30
0
41
1
10
47.2000000000001
20
1.35219046952221
30
0
41
1
10
47.2000000000001
20
1.33171667424202
30
0
41
1
10
47.2
20
1.2914529803443
30
0
41
1
10
47.2000000000001
20
1.27167065188505
30
0
41
1
10
47.2
20
1.21335096469241
30
0
41
1
10
47.2
20
1.17583855608717
30
0
41
1
10
47.2
20
1.1216091949679
30
0
41
1
10
47.2
20
1.10387583161074
30
0
41
1
10
47.2000000000001
20
1.06910020107895
30
0
41
1
10
47.2000000000001
20
1.05200741157293
30
0
41
1
10
47.2000000000001
20
1.01908006959817
30
0
41
1
10
47.2000000000001
20
1.00317435765135
30
0
41
1
10
47.2000000000001
20
0.971422725365983
30
0
41
1
10
47.2000000000001
20
0.955631739860195
30
0
41
1
10
47.2000000000001
20
0.908664179007332
30
0
41
1
10
47.2
20
0.816271345298333
30
0
41
1
10
47.2000000000001
20
0.728312978881604
30
0
41
1
10
47.2
20
0.614911287211783
30
0
41
1
10
47.2
20
0.560156136523204
30
0
41
1
10
47.2
20
0.480966395845172
30
0
41
1
10
47.2
20
0.455060013948554
30
0
41
1
10
47.2
20
0.404243629764494
30
0
41
1
10
47.1999999999999
20
0.379311041459062
30
0
41
1
10
47.1999999999999
20
0.3305786941321
30
0
41
1
10
47.2
20
0.306824601244187
30
0
41
1
10
47.2
20
0.272030500286945
30
0
41
1
10
47.2
20
0.260553873998248
30
0
41
1
10
47.2
20
0.237928538125999
30
0
41
1
10
47.2
20
0.226882399068359
30
0
41
1
10
47.2
20
0.195963745176329
30
0
41
1
10
47.2000000000001
20
0.177825247267748
30
0
41
1
10
47.2000000000001
20
0.154317297300111
30
0
41
1
10
47.2000000000001
20
0.147086511822437
30
0
41
1
10
47.2000000000001
20
0.134069553002604
30
0
41
1
10
47.2000000000001
20
0.12828090158564
30
0
41
1
10
47.2
20
0.123195592993483
30
0
0
SPLINE
5
19A
100
AcDbEntity
8
1
62
256
6
ByLayer
370
18
48
1
60
0
100
AcDbSpline
70
4
71
3
72
18
73
14
40
0
40
0
40
0
40
0
40
0.0624999999999843
40
0.0624999999999843
40
0.124999999999968
40
0.124999999999968
40
0.249999999999973
40
0.249999999999973
40
0.499999999999982
40
0.499999999999982
40
0.749999999999991
40
0.749999999999991
40
1
40
1
40
1
40
1
41
1
10
46.7094813772918
20
1.98002032749156
30
0
41
1
10
46.7199718557422
20
1.97010690547543
30
0
41
1
10
46.7304885529288
20
1.96013632021834
30
0
41
1
10
46.7515752714977
20
1.94008350488011
30
0
41
1
10
46.7621560830942
20
1.92998773970189
30
0
41
1
10
46.7938685814229
20
1.89967693956476
30
0
41
1
10
46.8148759772713
20
1.87955584125456
30
0
41
1
10
46.8775809071848
20
1.81927795332061
30
0
41
1
10
46.9189577594721
20
1.77921741285635
30
0
41
1
10
47.0008549710507
20
1.69899122588487
30
0
41
1
10
47.0413703901179
20
1.65883216151144
30
0
41
1
10
47.1214510878996
20
1.57811775009563
30
0
41
1
10
47.1610187844491
20
1.53756338479525
30
0
41
1
10
47.1999999999971
20
1.49668551367793
30
0
0
SPLINE
5
19B
100
AcDbEntity
8
1
62
256
6
ByLayer
370
18
48
1
60
0
100
AcDbSpline
70
4
71
3
72
8
73
4
40
0
40
0
40
0
40
0
40
1
40
1
40
1
40
1
41
1
10
46.7094813772913
20
1.98002032749128
30
0
41
1
10
46.6758181374
20
1.98568042718532
30
0
41
1
10
46.6422767705439
20
1.99084393212638
30
0
41
1
10
46.6088419561535
20
1.99550554462346
30
0
0
SPLINE
5
19C
100
AcDbEntity
8
1
62
256
6
ByLayer
370
18
48
1
60
0
100
AcDbSpline
70
4
71
3
72
8
73
4
40
0
40
0
40
0
40
0
40
1
40
1
40
1
40
1
41
1
10
46.6088419561535
20
1.99550554462329
30
0
41
1
10
46.6062137234385
20
1.99090635322804
30
0
41
1
10
46.6035842921829
20
1.98630012424101
30
0
41
1
10
46.6009536220952
20
1.98168682987887
30
0
0
SPLINE
5
19D
100
AcDbEntity
8
1
62
256
6
ByLayer
370
18
48
1
60
0
100
AcDbSpline
70
4
71
3
72
28
73
24
40
0
40
0
40
0
40
0
40
0.12500000000005
40
0.12500000000005
40
0.2500000000001
40
0.2500000000001
40
0.37500000000015
40
0.37500000000015
40
0.437500000000124
40
0.437500000000124
40
0.500000000000097
40
0.500000000000097
40
0.625000000000043
40
0.625000000000043
40
0.687500000000072
40
0.687500000000072
40
0.750000000000102
40
0.750000000000102
40
0.87500000000005
40
0.87500000000005
40
0.937500000000025
40
0.937500000000025
40
1
40
1
40
1
40
1
41
1
10
46.6009536220922
20
1.98168682987384
30
0
41
1
10
46.595375022326
20
1.97190387648715
30
0
41
1
10
46.5888930846891
20
1.96321850406298
30
0
41
1
10
46.5744941111867
20
1.94757019685625
30
0
41
1
10
46.5664959462626
20
1.94057647426698
30
0
41
1
10
46.5496627247653
20
1.92861524740798
30
0
41
1
10
46.540797407689
20
1.92359400897774
30
0
41
1
10
46.5268522455717
20
1.91748383514954
30
0
41
1
10
46.5220864411228
20
1.91568666414668
30
0
41
1
10
46.512508067232
20
1.91264564884853
30
0
41
1
10
46.507675221839
20
1.91139169509881
30
0
41
1
10
46.4930500853802
20
1.90844411477875
30
0
41
1
10
46.483133203811
20
1.90754844035516
30
0
41
1
10
46.4679938986048
20
1.90810775650269
30
0
41
1
10
46.4629060991307
20
1.90862053247227
30
0
41
1
10
46.4528910058148
20
1.91033375163741
30
0
41
1
10
46.4479335311417
20
1.91153367576257
30
0
41
1
10
46.4332358333854
20
1.91628142701808
30
0
41
1
10
46.423584806464
20
1.92104446419884
30
0
41
1
10
46.410509862429
20
1.93074984161282
30
0
41
1
10
46.4063310757455
20
1.93444542614594
30
0
41
1
10
46.3985592299031
20
1.94277397466101
30
0
41
1
10
46.3950158915175
20
1.94734556684529
30
0
41
1
10
46.3918536707377
20
1.95237193578586
30
0
0
SPLINE
5
19E
100
AcDbEntity
8
1
62
256
6
ByLayer
370
18
48
1
60
0
100
AcDbSpline
70
4
71
3
72
8
73
4
40
0
40
0
40
0
40
0
40
1
40
1
40
1
40
1
41
1
10
46.3918536707377
20
1.95237193578586
30
0
41
1
10
46.3772038778705
20
1.97565786962215
30
0
41
1
10
46.3625750766541
20
1.99877848085927
30
0
41
1
10
46.3479655290556
20
2.02173027177366
30
0
0
SPLINE
5
19F
100
AcDbEntity
8
1
62
256
6
ByLayer
370
18
48
1
60
0
100
AcDbSpline
70
4
71
3
72
8
73
4
40
0
40
0
40
0
40
0
40
1
40
1
40
1
40
1
41
1
10
46.3479655290556
20
2.02173027177364
30
0
41
1
10
46.1910055476718
20
2.03125656334819
30
0
41
1
10
46.0356158671803
20
2.02917947399285
30
0
41
1
10
45.8806425671871
20
2.01499648481675
30
0
0
SPLINE
5
1A0
100
AcDbEntity
8
1
62
256
6
ByLayer
370
18
48
1
60
0
100
AcDbSpline
70
4
71
3
72
8
73
4
40
0
40
0
40
0
40
0
40
1
40
1
40
1
40
1
41
1
10
38.0561634104366
20
-1.90254947338553
30
0
41
1
10
38.0131380272265
20
-1.86712969114572
30
0
41
1
10
37.969758332606
20
-1.83062871126873
30
0
41
1
10
37.9259449429838
20
-1.79304952022301
30
0
0
SPLINE
5
1A1
100
AcDbEntity
8
1
62
256
6
ByLayer
370
18
48
1
60
0
100
AcDbSpline
70
4
71
3
72
14
73
10
40
0
40
0
40
0
40
0
40
0.25
40
0.25
40
0.5
40
0.5
40
0.75
40
0.75
40
1
40
1
40
1
40
1
41
1
10
37.9259449429838
20
-1.79304952022298
30
0
41
1
10
37.907186653872
20
-1.77696034437273
30
0
41
1
10
37.8878739454868
20
-1.76194442512994
30
0
41
1
10
37.8481045177952
20
-1.73403323219938
30
0
41
1
10
37.8276503151731
20
-1.7211429696822
30
0
41
1
10
37.7857527715288
20
-1.69752763163325
30
0
41
1
10
37.7643102145452
20
-1.68680118044915
30
0
41
1
10
37.7205384835818
20
-1.66759886490576
30
0
41
1
10
37.6983324152049
20
-1.65917965526202
30
0
41
1
10
37.6759449429838
20
-1.65201499428932
30
0
0
SPLINE
5
1A2
100
AcDbEntity
8
1
62
256
6
ByLayer
370
18
48
1
60
0
100
AcDbSpline
70
4
71
3
72
82
73
78
40
0
40
0
40
0
40
0
40
0.0637572153685099
40
0.0637572153685099
40
0.0956358230527657
40
0.0956358230527657
40
0.127514430737022
40
0.127514430737022
40
0.159393038421277
40
0.159393038421277
40
0.16736269034234
40
0.16736269034234
40
0.175332342263403
40
0.175332342263403
40
0.19127164610553
40
0.223150253789784
40
0.223150253789784
40
0.255028861474038
40
0.255028861474038
40
0.318786076842548
40
0.318786076842548
40
0.334725380684675
40
0.334725380684675
40
0.350664684526802
40
0.350664684526802
40
0.382543292211058
40
0.382543292211058
40
0.414421899895314
40
0.414421899895314
40
0.430361203737442
40
0.430361203737442
40
0.44630050757957
40
0.44630050757957
40
0.510057722948081
40
0.510057722948081
40
0.541936330632337
40
0.541936330632337
40
0.573814938316593
40
0.573814938316593
40
0.58975424215872
40
0.58975424215872
40
0.605693546000848
40
0.605693546000848
40
0.637572153685106
40
0.637572153685106
40
0.669450761369363
40
0.669450761369363
40
0.685390065211491
40
0.685390065211491
40
0.70132936905362
40
0.70132936905362
40
0.765086584422136
40
0.765086584422136
40
0.773056236343201
40
0.773056236343201
40
0.781025888264266
40
0.796965192106395
40
0.796965192106395
40
0.812904495948524
40
0.812904495948524
40
0.828843799790652
40
0.828843799790652
40
0.86072240747491
40
0.86072240747491
40
0.892601015159167
40
0.892601015159167
40
0.924479622843424
40
0.924479622843424
40
0.940418926685552
40
0.940418926685552
40
0.95635823052768
40
0.95635823052768
40
0.972297534369808
40
0.972297534369808
40
0.988236838211936
40
0.988236838211936
40
1
40
1
40
1
40
1
41
1
10
37.6759449429838
20
-1.65201499428932
30
0
41
1
10
37.4864402128753
20
-1.59136781042912
30
0
41
1
10
37.2991158345636
20
-1.51793887666204
30
0
41
1
10
37.0183318878907
20
-1.39177652953089
30
0
41
1
10
36.9247139870589
20
-1.34711507950072
30
0
41
1
10
36.7372961108557
20
-1.25277830301573
30
0
41
1
10
36.6436210857766
20
-1.20297259753238
30
0
41
1
10
36.4559817939198
20
-1.09835366852309
30
0
41
1
10
36.3619939883894
20
-1.04356490804844
30
0
41
1
10
36.2439984241786
20
-0.97224039675919
30
0
41
1
10
36.2203737514839
20
-0.957833627708055
30
0
41
1
10
36.1730650511266
20
-0.928743950040683
30
0
41
1
10
36.1493690926565
20
-0.91405340438024
30
0
41
1
10
36.0784257499772
20
-0.869735259542153
30
0
41
1
10
35.9368933403944
20
-0.779975300037876
30
0
41
1
10
35.796094929755
20
-0.687302032344718
30
0
41
1
10
35.6084825946905
20
-0.561908460091189
30
0
41
1
10
35.5147038447583
20
-0.498345010152406
30
0
41
1
10
35.2338978019154
20
-0.304457739893394
30
0
41
1
10
35.0471708757984
20
-0.171231941241075
30
0
41
1
10
34.8119269342088
20
-0.0030392487502411
30
0
41
1
10
34.7647839790453
20
0.0306784879693964
30
0
41
1
10
34.6702444662224
20
0.098181694006513
30
0
41
1
10
34.6228123623878
20
0.131992230676417
30
0
41
1
10
34.4807558627627
20
0.232843413264021
30
0
41
1
10
34.3861272999808
20
0.299434429925327
30
0
41
1
10
34.1967088512354
20
0.430921468798772
30
0
41
1
10
34.1020562076537
20
0.496007861713537
30
0
41
1
10
33.9599924747693
20
0.592401249320204
30
0
41
1
10
33.9125534670545
20
0.624355937642406
30
0
41
1
10
33.8179124641506
20
0.687509899626519
30
0
41
1
10
33.7707260300321
20
0.718699454876429
30
0
41
1
10
33.5352949477624
20
0.87251107009439
30
0
41
1
10
33.3485547000241
20
0.988708863638209
30
0
41
1
10
33.0678356519034
20
1.1494418408605
30
0
41
1
10
32.9740712120507
20
1.20067163858241
30
0
41
1
10
32.7864604459697
20
1.29875907842612
30
0
41
1
10
32.6925737102905
20
1.34556323501977
30
0
41
1
10
32.5512962351015
20
1.41199068514786
30
0
41
1
10
32.5041267987616
20
1.43350098679599
30
0
41
1
10
32.409567685091
20
1.47517711698484
30
0
41
1
10
32.3621475616957
20
1.49535186338275
30
0
41
1
10
32.2204628708571
20
1.55334782578816
30
0
41
1
10
32.1264533842241
20
1.5887915980104
30
0
41
1
10
31.9388084935209
20
1.65302893894091
30
0
41
1
10
31.8451510946016
20
1.68181031471673
30
0
41
1
10
31.7046256555681
20
1.71991325495932
30
0
41
1
10
31.6577736767215
20
1.73176879873262
30
0
41
1
10
31.5641325120433
20
1.75383078068717
30
0
41
1
10
31.5173350749932
20
1.76403159732857
30
0
41
1
10
31.2833115823614
20
1.81078314071513
30
0
41
1
10
31.0960143445503
20
1.83457001654688
30
0
41
1
10
30.8830099419905
20
1.84471806742417
30
0
41
1
10
30.8593140273109
20
1.84561441872506
30
0
41
1
10
30.8120172487002
20
1.84693994593502
30
0
41
1
10
30.7411514730774
20
1.84823089849596
30
0
41
1
10
30.6704866445522
20
1.84744680573482
30
0
41
1
10
30.5763761601505
20
1.84459039316616
30
0
41
1
10
30.5293744917573
20
1.84225686069104
30
0
41
1
10
30.4354166738935
20
1.83581570452623
30
0
41
1
10
30.3884683651037
20
1.83170869248948
30
0
41
1
10
30.2478292121322
20
1.81672150407996
30
0
41
1
10
30.1543020720754
20
1.80317869529219
30
0
41
1
10
29.9673407670352
20
1.76903814374458
30
0
41
1
10
29.873890328049
20
1.74844268885337
30
0
41
1
10
29.6865246568529
20
1.70034094075984
30
0
41
1
10
29.5926161466891
20
1.67283259284341
30
0
41
1
10
29.4510564406492
20
1.62650095398729
30
0
41
1
10
29.4037114790355
20
1.61019665934864
30
0
41
1
10
29.3089016754529
20
1.57599802048847
30
0
41
1
10
29.2615971826764
20
1.55816355124381
30
0
41
1
10
29.1671056870894
20
1.52111870539503
30
0
41
1
10
29.1199241038266
20
1.50190540114494
30
0
41
1
10
29.0257680614044
20
1.46204621631438
30
0
41
1
10
28.9787849937555
20
1.44140669368741
30
0
41
1
10
28.8972612158509
20
1.40433296858478
30
0
41
1
10
28.8626854341086
20
1.38821385535209
30
0
41
1
10
28.8281392203842
20
1.37172925728984
30
0
0
SPLINE
5
1A3
100
AcDbEntity
8
1
62
256
6
ByLayer
370
18
48
1
60
0
100
AcDbSpline
70
4
71
3
72
106
73
102
40
0
40
0
40
0
40
0
40
0.0334386639453819
40
0.0334386639453819
40
0.0501579959180735
40
0.0501579959180735
40
0.0585176619044193
40
0.0585176619044193
40
0.0668773278907652
40
0.0668773278907652
40
0.100315991836151
40
0.100315991836151
40
0.133754655781538
40
0.133754655781538
40
0.167193319726924
40
0.167193319726924
40
0.183912651699618
40
0.183912651699618
40
0.200631983672311
40
0.200631983672311
40
0.217351315645005
40
0.217351315645005
40
0.225710981631351
40
0.225710981631351
40
0.234070647617697
40
0.234070647617697
40
0.267509311563085
40
0.267509311563085
40
0.300947975508473
40
0.300947975508473
40
0.317667307481166
40
0.317667307481166
40
0.326026973467514
40
0.326026973467514
40
0.334386639453862
40
0.334386639453862
40
0.351105971426558
40
0.351105971426558
40
0.367825303399255
40
0.367825303399255
40
0.384544635371952
40
0.384544635371952
40
0.401263967344648
40
0.401263967344648
40
0.434702631290042
40
0.434702631290042
40
0.451421963262737
40
0.451421963262737
40
0.468141295235433
40
0.468141295235433
40
0.501579959180825
40
0.501579959180825
40
0.518299291153522
40
0.518299291153522
40
0.52665895713987
40
0.52665895713987
40
0.535018623126219
40
0.535018623126219
40
0.568457287071612
40
0.568457287071612
40
0.585176619044308
40
0.585176619044308
40
0.601895951017005
40
0.601895951017005
40
0.6353346149624
40
0.6353346149624
40
0.668773278907794
40
0.668773278907794
40
0.685492610880493
40
0.685492610880493
40
0.693852276866841
40
0.693852276866841
40
0.702211942853189
40
0.702211942853189
40
0.718931274825886
40
0.718931274825886
40
0.735650606798582
40
0.735650606798582
40
0.769089270743974
40
0.769089270743974
40
0.802527934689366
40
0.802527934689366
40
0.835966598634758
40
0.835966598634758
40
0.844326264621106
40
0.844326264621106
40
0.852685930607453
40
0.852685930607453
40
0.861045596593801
40
0.861045596593801
40
0.869405262580148
40
0.869405262580148
40
0.902843926525535
40
0.902843926525535
40
0.936282590470921
40
0.936282590470921
40
0.969721254416307
40
0.969721254416307
40
0.986440586388999
40
0.986440586388999
40
1
40
1
40
1
40
1
41
1
10
27.2616562703876
20
1.83177159969702
30
0
41
1
10
27.3711507974322
20
1.82165211579317
30
0
41
1
10
27.4804419567056
20
1.8067748641545
30
0
41
1
10
27.6440952823392
20
1.77727334754786
30
0
41
1
10
27.6986106234824
20
1.76624188875616
30
0
41
1
10
27.7803769754699
20
1.7478898427263
30
0
41
1
10
27.8076310647389
20
1.74147182977868
30
0
41
1
10
27.8621019241061
20
1.72800958308642
30
0
41
1
10
27.8893394308169
20
1.72095854617439
30
0
41
1
10
28.0254696716447
20
1.6843588717131
30
0
41
1
10
28.134063258989
20
1.65084422306677
30
0
41
1
10
28.350837879814
20
1.57590938361486
30
0
41
1
10
28.4590540425153
20
1.53451133524513
30
0
41
1
10
28.6753695034566
20
1.444197043553
30
0
41
1
10
28.7834428892239
20
1.39525985792358
30
0
41
1
10
28.9455556834188
20
1.31621414441921
30
0
41
1
10
28.9995865272593
20
1.28891649007289
30
0
41
1
10
29.1076642587623
20
1.23240919898552
30
0
41
1
10
29.1616995764288
20
1.20318448399564
30
0
41
1
10
29.2700326147071
20
1.1430456115001
30
0
41
1
10
29.3243856028355
20
1.11219576312754
30
0
41
1
10
29.406271162414
20
1.0648392464644
30
0
41
1
10
29.4336237284504
20
1.04886923101932
30
0
41
1
10
29.4882198081782
20
1.01669518538455
30
0
41
1
10
29.5154906986603
20
1.00047437083123
30
0
41
1
10
29.6517195774069
20
0.918720211352337
30
0
41
1
10
29.7603214483066
20
0.851265677758306
30
0
41
1
10
29.9770491346937
20
0.712717188045843
30
0
41
1
10
30.0851855026334
20
0.641638980758927
30
0
41
1
10
30.2470695439181
20
0.532331674249065
30
0
41
1
10
30.3009737164463
20
0.49544145178163
30
0
41
1
10
30.3817464587534
20
0.439416012123871
30
0
41
1
10
30.4086566215022
20
0.420625552761152
30
0
41
1
10
30.4624483875795
20
0.382810656934652
30
0
41
1
10
30.4893308669203
20
0.363787085230996
30
0
41
1
10
30.5701629537737
20
0.30668450559233
30
0
41
1
10
30.6242660850577
20
0.268532039528594
30
0
41
1
10
30.7327492248245
20
0.191846103940406
30
0
41
1
10
30.7871566286343
20
0.15335125345112
30
0
41
1
10
30.8963490868002
20
0.0761221356852957
30
0
41
1
10
30.9512170090127
20
0.0373278585749688
30
0
41
1
10
31.0605431566543
20
-0.0398532329261343
30
0
41
1
10
31.1150848504449
20
-0.0782989824687661
30
0
41
1
10
31.2783758526408
20
-0.193174379047775
30
0
41
1
10
31.3867739420287
20
-0.269170817335976
30
0
41
1
10
31.5486923092485
20
-0.382262803433178
30
0
41
1
10
31.6025894393596
20
-0.419756274881308
30
0
41
1
10
31.7101783974167
20
-0.494403577348009
30
0
41
1
10
31.7638260361484
20
-0.531616133350468
30
0
41
1
10
31.9252078270379
20
-0.641709471897286
30
0
41
1
10
32.033141192009
20
-0.71338159624267
30
0
41
1
10
32.1958836525605
20
-0.817886638072878
30
0
41
1
10
32.2502715554198
20
-0.852220935683079
30
0
41
1
10
32.3320865952086
20
-0.902939243226399
30
0
41
1
10
32.3593969623659
20
-0.919715018774639
30
0
41
1
10
32.4140967581753
20
-0.953002719941196
30
0
41
1
10
32.4415112655612
20
-0.969530240977463
30
0
41
1
10
32.5784694318278
20
-1.05129661981127
30
0
41
1
10
32.6873894695843
20
-1.11373625887285
30
0
41
1
10
32.8498851197186
20
-1.20291754045286
30
0
41
1
10
32.9038979977045
20
-1.2319021877839
30
0
41
1
10
33.0115688689702
20
-1.28841830387705
30
0
41
1
10
33.0652509440305
20
-1.31591822818194
30
0
41
1
10
33.2265957318273
20
-1.39539066777905
30
0
41
1
10
33.3344125411368
20
-1.44450858845934
30
0
41
1
10
33.5506613341976
20
-1.53507303121466
30
0
41
1
10
33.6591204730965
20
-1.57649313792948
30
0
41
1
10
33.8225120324681
20
-1.63261211068584
30
0
41
1
10
33.8770917346732
20
-1.65031621429802
30
0
41
1
10
33.9591474483977
20
-1.67533369004752
30
0
41
1
10
33.9865563575934
20
-1.68342358788465
30
0
41
1
10
34.0412424702173
20
-1.69903001806026
30
0
41
1
10
34.0685321183956
20
-1.70655091357469
30
0
41
1
10
34.1502367999481
20
-1.72826976354602
30
0
41
1
10
34.2044786167176
20
-1.74162929136924
30
0
41
1
10
34.3125261305494
20
-1.76607767873668
30
0
41
1
10
34.3664206604466
20
-1.77712223502564
30
0
41
1
10
34.528120882475
20
-1.80660831305019
30
0
41
1
10
34.6359028393115
20
-1.82143361632222
30
0
41
1
10
34.851900689259
20
-1.84161419454878
30
0
41
1
10
34.9600503602901
20
-1.84698940167107
30
0
41
1
10
35.1768422512138
20
-1.84827913831543
30
0
41
1
10
35.2855004064264
20
-1.84420094188963
30
0
41
1
10
35.4216546041156
20
-1.83295012610174
30
0
41
1
10
35.4489020408982
20
-1.83039110126487
30
0
41
1
10
35.5034292230844
20
-1.82464363802723
30
0
41
1
10
35.5307189661011
20
-1.82145307755644
30
0
41
1
10
35.5851049457191
20
-1.81446004203261
30
0
41
1
10
35.6122321328023
20
-1.81065506777875
30
0
41
1
10
35.6664865740837
20
-1.80247182892384
30
0
41
1
10
35.6936088082797
20
-1.79809315682334
30
0
41
1
10
35.8291299677017
20
-1.77476662794615
30
0
41
1
10
35.9372940831805
20
-1.75153320817486
30
0
41
1
10
36.1535857758349
20
-1.69648228342646
30
0
41
1
10
36.2617164584996
20
-1.66467554252205
30
0
41
1
10
36.4780207095991
20
-1.59262115183358
30
0
41
1
10
36.5861485011371
20
-1.55233672543201
30
0
41
1
10
36.7485467218462
20
-1.48550536026676
30
0
41
1
10
36.8026992298523
20
-1.46214733774599
30
0
41
1
10
36.9008217759189
20
-1.41783890366989
30
0
41
1
10
36.9448284213103
20
-1.39730746488269
30
0
41
1
10
36.988989547174
20
-1.37616717596646
30
0
0
SPLINE
5
1A4
100
AcDbEntity
8
1
62
256
6
ByLayer
370
18
48
1
60
0
100
AcDbSpline
70
4
71
3
72
16
73
12
40
0
40
0
40
0
40
0
40
0.0815137693392689
40
0.0815137693392689
40
0.311135327004452
40
0.311135327004452
40
0.540756884669635
40
0.540756884669635
40
0.770378442334817
40
0.770378442334817
40
1
40
1
40
1
40
1
41
1
10
43.3328985229039
20
1.94503695932409
30
0
41
1
10
43.3363458226027
20
1.94458303626078
30
0
41
1
10
43.3398057109313
20
1.94426536632508
30
0
41
1
10
43.3530572063906
20
1.94357318002525
30
0
41
1
10
43.3629298065883
20
1.94412922716558
30
0
41
1
10
43.3828551160228
20
1.94768497138588
30
0
41
1
10
43.3926516756186
20
1.95064439807672
30
0
41
1
10
43.4116343075681
20
1.95924704214647
30
0
41
1
10
43.4209361755306
20
1.96498904489988
30
0
41
1
10
43.437739502763
20
1.97931803621086
30
0
41
1
10
43.4454404476589
20
1.98806815863961
30
0
41
1
10
43.4516628386525
20
1.99830323811881
30
0
0
SPLINE
5
1A5
100
AcDbEntity
8
1
62
256
6
ByLayer
370
18
48
1
60
0
100
AcDbSpline
70
4
71
3
72
10
73
6
40
0
40
0
40
0
40
0
40
0.5
40
0.5
40
1
40
1
40
1
40
1
41
1
10
43.4516628386552
20
1.99830323812333
30
0
41
1
10
43.497347675283
20
2.07344926067569
30
0
41
1
10
43.5427314052238
20
2.14735872079103
30
0
41
1
10
43.6328512487302
20
2.29220132356005
30
0
41
1
10
43.677546593292
20
2.36307247365372
30
0
41
1
10
43.7219276113486
20
2.4322713028493
30
0
0
SPLINE
5
1A6
100
AcDbEntity
8
1
62
256
6
ByLayer
370
18
48
1
60
0
100
AcDbSpline
70
4
71
3
72
8
73
4
40
0
40
0
40
0
40
0
40
1
40
1
40
1
40
1
41
1
10
43.7974220474791
20
2.42163230271822
30
0
41
1
10
43.7722836629732
20
2.42551077397573
30
0
41
1
10
43.7471199813498
20
2.42905861251558
30
0
41
1
10
43.7219276113486
20
2.43227130284927
30
0
0
SPLINE
5
1A7
100
AcDbEntity
8
1
62
256
6
ByLayer
370
18
48
1
60
0
100
AcDbSpline
70
4
71
3
72
10
73
6
40
0
40
0
40
0
40
0
40
0.5
40
0.5
40
1
40
1
40
1
40
1
41
1
10
43.7974220474792
20
2.42163230271831
30
0
41
1
10
43.8432127501652
20
2.33945583305714
30
0
41
1
10
43.8893496682194
20
2.25573525315335
30
0
41
1
10
43.9825712878896
20
2.08532978450091
30
0
41
1
10
44.0294960135273
20
1.9989368533987
30
0
41
1
10
44.0768807201243
20
1.91140237718216
30
0
0
SPLINE
5
1A8
100
AcDbEntity
8
1
62
256
6
ByLayer
370
18
48
1
60
0
100
AcDbSpline
70
4
71
3
72
27
73
23
40
0
40
0
40
0
40
0
40
0.125
40
0.125
40
0.25
40
0.25
40
0.375
40
0.375
40
0.5
40
0.5
40
0.625
40
0.625
40
0.6875
40
0.6875
40
0.75
40
0.8125
40
0.8125
40
0.875
40
0.875
40
0.9375
40
0.9375
40
1
40
1
40
1
40
1
41
1
10
44.0768807201243
20
1.91140237718216
30
0
41
1
10
44.0826516379387
20
1.90074167451152
30
0
41
1
10
44.0893874777148
20
1.89120614052618
30
0
41
1
10
44.1043375529662
20
1.87384897661849
30
0
41
1
10
44.1126586432763
20
1.86597640647446
30
0
41
1
10
44.1300194159252
20
1.85236550786377
30
0
41
1
10
44.1390931917136
20
1.84656013899465
30
0
41
1
10
44.1579561529711
20
1.83683044079314
30
0
41
1
10
44.1677943025053
20
1.83291413002178
30
0
41
1
10
44.1874135463827
20
1.82732008270097
30
0
41
1
10
44.1972824876935
20
1.82558354993344
30
0
41
1
10
44.2121568081264
20
1.82474571747508
30
0
41
1
10
44.2171501636229
20
1.82476822873568
30
0
41
1
10
44.2269464070486
20
1.82546428452528
30
0
41
1
10
44.2365913657768
20
1.82680311158072
30
0
41
1
10
44.2459020434032
20
1.82952899895784
30
0
41
1
10
44.2550178641083
20
1.83304594397956
30
0
41
1
10
44.2594594469844
20
1.83520067136701
30
0
41
1
10
44.2678490719145
20
1.84027341214613
30
0
41
1
10
44.2718293971634
20
1.84320155764854
30
0
41
1
10
44.2792974755347
20
1.84995919746822
30
0
41
1
10
44.2827849452013
20
1.85380075379206
30
0
41
1
10
44.2858866725247
20
1.85806399020936
30
0
0
SPLINE
5
1A9
100
AcDbEntity
8
1
62
256
6
ByLayer
370
18
48
1
60
0
100
AcDbSpline
70
4
71
3
72
10
73
6
40
0
40
0
40
0
40
0
40
0.5
40
0.5
40
1
40
1
40
1
40
1
41
1
10
44.2858866725289
20
1.85806399021695
30
0
41
1
10
44.3265645361987
20
1.9139745625312
30
0
41
1
10
44.3669720855192
20
1.96790888811461
30
0
41
1
10
44.4473300251887
20
2.07168854063596
30
0
41
1
10
44.4872359184017
20
2.12147234254368
30
0
41
1
10
44.5268325008512
20
2.1689828006285
30
0
0
SPLINE
5
1AA
100
AcDbEntity
8
1
62
256
6
ByLayer
370
18
48
1
60
0
100
AcDbSpline
70
4
71
3
72
8
73
4
40
0
40
0
40
0
40
0
40
1
40
1
40
1
40
1
41
1
10
44.5268325008512
20
2.1689828006285
30
0
41
1
10
44.5784728967526
20
2.13803299360171
30
0
41
1
10
44.6301379984887
20
2.10574993383045
30
0
41
1
10
44.6822182525333
20
2.07225924654236
30
0
0
SPLINE
5
1AB
100
AcDbEntity
8
1
62
256
6
ByLayer
370
18
48
1
60
0
100
AcDbSpline
70
4
71
3
72
10
73
6
40
0
40
0
40
0
40
0
40
0.5
40
0.5
40
1
40
1
40
1
40
1
41
1
10
44.6822182525329
20
2.0722592465421
30
0
41
1
10
44.7198476249998
20
1.9977541882084
30
0
41
1
10
44.7577904315525
20
1.92302993917213
30
0
41
1
10
44.8341924667836
20
1.77374440116756
30
0
41
1
10
44.8726237639238
20
1.69923241329215
30
0
41
1
10
44.9113807937056
20
1.62490047366325
30
0
0
SPLINE
5
1AC
100
AcDbEntity
8
1
62
256
6
ByLayer
370
18
48
1
60
0
100
AcDbSpline
70
4
71
3
72
27
73
23
40
0
40
0
40
0
40
0
40
0.125000000000043
40
0.125000000000043
40
0.250000000000086
40
0.250000000000086
40
0.375000000000128
40
0.375000000000128
40
0.500000000000171
40
0.500000000000171
40
0.625000000000214
40
0.625000000000214
40
0.687500000000178
40
0.687500000000178
40
0.750000000000143
40
0.812500000000107
40
0.812500000000107
40
0.875000000000071
40
0.875000000000071
40
0.937500000000036
40
0.937500000000036
40
1
40
1
40
1
40
1
41
1
10
44.9113807937055
20
1.62490047366327
30
0
41
1
10
44.9171479202308
20
1.61383972666786
30
0
41
1
10
44.923877710326
20
1.60358030485773
30
0
41
1
10
44.9388122818758
20
1.58428642583908
30
0
41
1
10
44.9471228852897
20
1.57518131633862
30
0
41
1
10
44.9644597269987
20
1.55875051234582
30
0
41
1
10
44.9735215428811
20
1.55135517836504
30
0
41
1
10
44.9923636980663
20
1.53809743233651
30
0
41
1
10
45.0021949340764
20
1.53222908566022
30
0
41
1
10
45.0218084987166
20
1.52250753004017
30
0
41
1
10
45.0316777401131
20
1.51858094819599
30
0
41
1
10
45.0465571983149
20
1.51423668260821
30
0
41
1
10
45.0515548188715
20
1.51304644882112
30
0
41
1
10
45.0613647592448
20
1.5112853181692
30
0
41
1
10
45.0710240162239
20
1.51012762453331
30
0
41
1
10
45.0803495011006
20
1.51026798022886
30
0
41
1
10
45.0894799743717
20
1.51114605791531
30
0
41
1
10
45.0939315141123
20
1.51195925631629
30
0
41
1
10
45.1023389246383
20
1.51436967866002
30
0
41
1
10
45.1063277014899
20
1.51596793617114
30
0
41
1
10
45.1138114349296
20
1.5200685680619
30
0
41
1
10
45.1173067350888
20
1.52258196778678
30
0
41
1
10
45.1204148922551
20
1.52555689322509
30
0
0
SPLINE
5
1AD
100
AcDbEntity
8
1
62
256
6
ByLayer
370
18
48
1
60
0
100
AcDbSpline
70
4
71
3
72
8
73
4
40
0
40
0
40
0
40
0
40
1
40
1
40
1
40
1
41
1
10
45.1204148922594
20
1.52555689323148
30
0
41
1
10
45.1710706713238
20
1.57404130303246
30
0
41
1
10
45.2213575574282
20
1.61850658793548
30
0
41
1
10
45.271256173059
20
1.65889614587215
30
0
0
SPLINE
5
1AE
100
AcDbEntity
8
1
62
256
6
ByLayer
370
18
48
1
60
0
100
AcDbSpline
70
4
71
3
72
8
73
4
40
0
40
0
40
0
40
0
40
1
40
1
40
1
40
1
41
1
10
45.271256173059
20
1.65889614587209
30
0
41
1
10
45.3919853540349
20
1.56818680862241
30
0
41
1
10
45.5132054240271
20
1.47401613677798
30
0
41
1
10
45.6350310137966
20
1.37646596928894
30
0
0
SPLINE
5
1AF
100
AcDbEntity
8
1
62
256
6
ByLayer
370
18
48
1
60
0
100
AcDbSpline
70
4
71
3
72
8
73
4
40
0
40
0
40
0
40
0
40
1
40
1
40
1
40
1
41
1
10
45.6350310137966
20
1.37646596928894
30
0
41
1
10
45.6716650401393
20
1.3081783429771
30
0
41
1
10
45.7084897707625
20
1.24081830816067
30
0
41
1
10
45.7455959582068
20
1.1744514159644
30
0
0
SPLINE
5
1B0
100
AcDbEntity
8
1
62
256
6
ByLayer
370
18
48
1
60
0
100
AcDbSpline
70
4
71
3
72
27
73
23
40
0
40
0
40
0
40
0
40
0.124999999999958
40
0.124999999999958
40
0.249999999999917
40
0.249999999999917
40
0.374999999999875
40
0.374999999999875
40
0.499999999999834
40
0.499999999999834
40
0.624999999999792
40
0.624999999999792
40
0.687499999999826
40
0.687499999999826
40
0.749999999999861
40
0.812499999999896
40
0.812499999999896
40
0.874999999999931
40
0.874999999999931
40
0.937499999999965
40
0.937499999999965
40
1
40
1
40
1
40
1
41
1
10
45.7455959582068
20
1.17445141596437
30
0
41
1
10
45.7513792877366
20
1.16410754520103
30
0
41
1
10
45.7581286886976
20
1.15416550267136
30
0
41
1
10
45.7731023205962
20
1.13489983986483
30
0
41
1
10
45.7814320872621
20
1.12549324693907
30
0
41
1
10
45.7988004525978
20
1.10793681625407
30
0
41
1
10
45.807876254182
20
1.09971958099328
30
0
41
1
10
45.8267376082719
20
1.08431500126932
30
0
41
1
10
45.8365716662001
20
1.0771109133585
30
0
41
1
10
45.8561823546127
20
1.06427755137986
30
0
41
1
10
45.8660461702615
20
1.05856791995484
30
0
41
1
10
45.8809116485289
20
1.05115753941493
30
0
41
1
10
45.885902925061
20
1.04887336756858
30
0
41
1
10
45.8957000696406
20
1.04482338089036
30
0
41
1
10
45.9053470344063
20
1.04127036433795
30
0
41
1
10
45.9146628944355
20
1.03878240721397
30
0
41
1
10
45.9237850717117
20
1.03689971149615
30
0
41
1
10
45.9282355536038
20
1.03626868672532
30
0
41
1
10
45.9366427747469
20
1.0357272798141
30
0
41
1
10
45.9406326254864
20
1.03580858857475
30
0
41
1
10
45.9481206427593
20
1.03678278791819
30
0
41
1
10
45.9516209586757
20
1.03768404708595
30
0
41
1
10
45.9547348752297
20
1.03904088708575
30
0
0
SPLINE
5
1B1
100
AcDbEntity
8
1
62
256
6
ByLayer
370
18
48
1
60
0
100
AcDbSpline
70
4
71
3
72
14
73
10
40
0
40
0
40
0
40
0
40
0.125
40
0.125
40
0.25
40
0.25
40
0.5
40
0.5
40
1
40
1
40
1
40
1
41
1
10
46.0157764379105
20
1.06340652871529
30
0
41
1
10
46.0395917902466
20
1.0435074749752
30
0
41
1
10
46.0634905463003
20
1.02353462843152
30
0
41
1
10
46.1114590876404
20
0.983449180354484
30
0
41
1
10
46.1355540857701
20
0.963315541298357
30
0
41
1
10
46.207859120339
20
0.902912374826371
30
0
41
1
10
46.256101709142
20
0.862623970625464
30
0
41
1
10
46.4010584786237
20
0.74183948377339
30
0
41
1
10
46.4980077936767
20
0.661430961709954
30
0
41
1
10
46.5955296200532
20
0.581463812530984
30
0
0
SPLINE
5
1B2
100
AcDbEntity
8
1
62
256
6
ByLayer
370
18
48
1
60
0
100
AcDbSpline
70
4
71
3
72
19
73
15
40
0
40
0
40
0
40
0
40
0.124999999999938
40
0.124999999999938
40
0.249999999999876
40
0.249999999999876
40
0.499999999999918
40
0.499999999999918
40
0.624999999999938
40
0.624999999999938
40
0.749999999999959
40
0.874999999999979
40
0.874999999999979
40
1
40
1
40
1
40
1
41
1
10
46.5955296200532
20
0.581463812530984
30
0
41
1
10
46.5999091323279
20
0.576268094943458
30
0
41
1
10
46.6045808339674
20
0.571061817766378
30
0
41
1
10
46.6144639594931
20
0.560630198068793
30
0
41
1
10
46.6196699257338
20
0.555416092744423
30
0
41
1
10
46.6356257297064
20
0.540162645927751
30
0
41
1
10
46.6468444377215
20
0.530359220383275
30
0
41
1
10
46.6644658047027
20
0.516128381905389
30
0
41
1
10
46.6704625625258
20
0.511476455349595
30
0
41
1
10
46.6824322339252
20
0.502545170800289
30
0
41
1
10
46.6944476017363
20
0.493929290596554
30
0
41
1
10
46.7065395076554
20
0.485940420382377
30
0
41
1
10
46.7186655293571
20
0.478286338199439
30
0
41
1
10
46.724734729889
20
0.474636742815136
30
0
41
1
10
46.7306459761279
20
0.471272732085964
30
0
0
SPLINE
5
1B3
100
AcDbEntity
8
1
62
256
6
ByLayer
370
18
48
1
60
0
100
AcDbSpline
70
4
71
3
72
8
73
4
40
0
40
0
40
0
40
0
40
1
40
1
40
1
40
1
41
1
10
46.7306459761279
20
0.471272732086277
30
0
41
1
10
46.7372865000763
20
0.465890674539423
30
0
41
1
10
46.7439303713644
20
0.460511528044265
30
0
41
1
10
46.750577750268
20
0.455135487675278
30
0
0
SPLINE
5
1B4
100
AcDbEntity
8
1
62
256
6
ByLayer
370
18
48
1
60
0
100
AcDbSpline
70
4
71
3
72
20
73
16
40
0
40
0
40
0
40
0
40
0.124999999999973
40
0.124999999999973
40
0.18749999999996
40
0.18749999999996
40
0.249999999999947
40
0.249999999999947
40
0.499999999999977
40
0.499999999999977
40
0.750000000000007
40
0.750000000000007
40
0.875000000000003
40
0.875000000000003
40
1
40
1
40
1
40
1
41
1
10
47.2000000000057
20
0.123195592988395
30
0
41
1
10
47.1798945185606
20
0.129965252779471
30
0
41
1
10
47.159910841171
20
0.137877175948063
30
0
41
1
10
47.1300743672803
20
0.151309251259562
30
0
41
1
10
47.1201521037548
20
0.156048060234525
30
0
41
1
10
47.1003473967247
20
0.166032324077975
30
0
41
1
10
47.0904511205829
20
0.171286133158958
30
0
41
1
10
47.0413943869517
20
0.198606274008483
30
0
41
1
10
47.0032774119778
20
0.223909760238911
30
0
41
1
10
46.9286742682002
20
0.280444364642676
30
0
41
1
10
46.8921900898894
20
0.311679283607049
30
0
41
1
10
46.8383508317999
20
0.362600142307741
30
0
41
1
10
46.8205538084814
20
0.380256075048805
30
0
41
1
10
46.7852214345571
20
0.416930001718583
30
0
41
1
10
46.7678195920122
20
0.435894698332191
30
0
41
1
10
46.7505777502617
20
0.455135487675648
30
0
0
SPLINE
5
1B5
100
AcDbEntity
8
1
62
256
6
ByLayer
370
18
48
1
60
0
100
AcDbSpline
70
4
71
3
72
8
73
4
40
0
40
0
40
0
40
0
40
1
40
1
40
1
40
1
41
1
10
42.4320778520914
20
-1.95149309625791
30
0
41
1
10
42.4571977559174
20
-1.96592552776497
30
0
41
1
10
42.4823185232589
20
-1.98008347649062
30
0
41
1
10
42.507445658869
20
-1.99396327426308
30
0
0
SPLINE
5
1B6
100
AcDbEntity
8
1
62
256
6
ByLayer
370
18
48
1
60
0
100
AcDbSpline
70
4
71
3
72
28
73
24
40
0
40
0
40
0
40
0
40
0.125000000000062
40
0.125000000000062
40
0.250000000000123
40
0.250000000000123
40
0.375000000000185
40
0.375000000000185
40
0.437500000000216
40
0.437500000000216
40
0.500000000000247
40
0.500000000000247
40
0.625000000000198
40
0.625000000000198
40
0.687500000000174
40
0.687500000000174
40
0.750000000000149
40
0.750000000000149
40
0.875000000000099
40
0.875000000000099
40
0.93750000000005
40
0.93750000000005
40
1
40
1
40
1
40
1
41
1
10
39.6472428052857
20
0.409904673252356
30
0
41
1
10
39.6416660086164
20
0.414735057379261
30
0
41
1
10
39.6351855014094
20
0.420101315857863
30
0
41
1
10
39.6207886147266
20
0.431653830475653
30
0
41
1
10
39.6127904732418
20
0.437900881028923
30
0
41
1
10
39.5959550173873
20
0.4507812002702
30
0
41
1
10
39.5870883090598
20
0.457440350389305
30
0
41
1
10
39.5731398906046
20
0.467774999387529
30
0
41
1
10
39.5683727703392
20
0.471284340425655
30
0
41
1
10
39.558791782952
20
0.478301048067152
30
0
41
1
10
39.5539575851923
20
0.481823555765374
30
0
41
1
10
39.5393282813552
20
0.492443565823066
30
0
41
1
10
39.5294084252202
20
0.499591719938792
30
0
41
1
10
39.5142651557359
20
0.510480950483839
30
0
41
1
10
39.5091776399208
20
0.514135614161944
30
0
41
1
10
39.499164360933
20
0.521332789370263
30
0
41
1
10
39.4942084230549
20
0.524896990045164
30
0
41
1
10
39.4795179390727
20
0.535486005647613
30
0
41
1
10
39.4698765696833
20
0.54247002427627
30
0
41
1
10
39.456822481554
20
0.552044767988548
30
0
41
1
10
39.4526523784399
20
0.555124869640963
30
0
41
1
10
39.4448948123724
20
0.560908045060387
30
0
41
1
10
39.4413582201404
20
0.563572988931242
30
0
41
1
10
39.4382017047026
20
0.56598302425698
30
0
0
SPLINE
5
1B7
100
AcDbEntity
8
1
62
256
6
ByLayer
370
18
48
1
60
0
100
AcDbSpline
70
4
71
3
72
10
73
6
40
0
40
0
40
0
40
0
40
0.5
40
0.5
40
1
40
1
40
1
40
1
41
1
10
39.4382017047026
20
0.565983024257065
30
0
41
1
10
39.3930488252867
20
0.600457759639852
30
0
41
1
10
39.3480737501858
20
0.638805793786474
30
0
41
1
10
39.2586388988279
20
0.722563961649826
30
0
41
1
10
39.214215524382
20
0.767912986421635
30
0
41
1
10
39.170078909677
20
0.816412827439507
30
0
0
SPLINE
5
1B8
100
AcDbEntity
8
1
62
256
6
ByLayer
370
18
48
1
60
0
100
AcDbSpline
70
4
71
3
72
8
73
4
40
0
40
0
40
0
40
0
40
1
40
1
40
1
40
1
41
1
10
39.0939927127086
20
0.883943456866064
30
0
41
1
10
39.1193572817566
20
0.861554533380541
30
0
41
1
10
39.1447179030569
20
0.839042874769063
30
0
41
1
10
39.170078909677
20
0.816412827439507
30
0
0
SPLINE
5
1B9
100
AcDbEntity
8
1
62
256
6
ByLayer
370
18
48
1
60
0
100
AcDbSpline
70
4
71
3
72
10
73
6
40
0
40
0
40
0
40
0
40
0.5
40
0.5
40
1
40
1
40
1
40
1
41
1
10
39.0939927127086
20
0.883943456866064
30
0
41
1
10
39.0477241765907
20
0.913377926800905
30
0
41
1
10
39.0011966110056
20
0.938533715409307
30
0
41
1
10
38.9073888071485
20
0.980074941466683
30
0
41
1
10
38.8602707806442
20
0.996397950563903
30
0
41
1
10
38.8128053946471
20
1.00817372042857
30
0
0
SPLINE
5
1BA
100
AcDbEntity
8
1
62
256
6
ByLayer
370
18
48
1
60
0
100
AcDbSpline
70
4
71
3
72
28
73
24
40
0
40
0
40
0
40
0
40
0.125
40
0.125
40
0.25
40
0.25
40
0.375
40
0.375
40
0.437499999999999
40
0.437499999999999
40
0.499999999999999
40
0.499999999999999
40
0.624999999999999
40
0.624999999999999
40
0.687499999999999
40
0.687499999999999
40
0.749999999999999
40
0.749999999999999
40
0.874999999999999
40
0.874999999999999
40
0.937499999999999
40
0.937499999999999
40
1
40
1
40
1
40
1
41
1
10
38.8128053946421
20
1.00817372042985
30
0
41
1
10
38.8072241341067
20
1.00955838502821
30
0
41
1
10
38.8007388766892
20
1.01179436939
30
0
41
1
10
38.7863351295891
20
1.01758167784539
30
0
41
1
10
38.7783356709186
20
1.02117938370063
30
0
41
1
10
38.7615021625049
20
1.02938126830489
30
0
41
1
10
38.7526377102237
20
1.0339931074947
30
0
41
1
10
38.7386950552385
20
1.04168729142177
30
0
41
1
10
38.7339307310481
20
1.04438833269032
30
0
41
1
10
38.7243553289787
20
1.04996542326668
30
0
41
1
10
38.7195239423597
20
1.05285236800998
30
0
41
1
10
38.7049030089295
20
1.06182224344803
30
0
41
1
10
38.6949886793747
20
1.06820733342352
30
0
41
1
10
38.6798527414578
20
1.07854729252944
30
0
41
1
10
38.6747657732371
20
1.08212238386653
30
0
41
1
10
38.6647519624535
20
1.08938720746701
30
0
41
1
10
38.6597949670998
20
1.09309700281614
30
0
41
1
10
38.6450983640072
20
1.10449492059254
30
0
41
1
10
38.6354470376912
20
1.11253277632133
30
0
41
1
10
38.622370430701
20
1.12456041105742
30
0
41
1
10
38.618191410222
20
1.12861152103363
30
0
41
1
10
38.6104165337703
20
1.13665755037078
30
0
41
1
10
38.6068714408938
20
1.14059725097121
30
0
41
1
10
38.6037072778692
20
1.14444196421704
30
0
0
SPLINE
5
1BB
100
AcDbEntity
8
1
62
256
6
ByLayer
370
18
48
1
60
0
100
AcDbSpline
70
4
71
3
72
8
73
4
40
0
40
0
40
0
40
0
40
1
40
1
40
1
40
1
41
1
10
38.6037072778692
20
1.14444196421701
30
0
41
1
10
38.5588651866397
20
1.19892872130953
30
0
41
1
10
38.5141826478712
20
1.25636781691529
30
0
41
1
10
38.4697855945417
20
1.31636183548662
30
0
0
SPLINE
5
1BC
100
AcDbEntity
8
1
62
256
6
ByLayer
370
18
48
1
60
0
100
AcDbSpline
70
4
71
3
72
10
73
6
40
0
40
0
40
0
40
0
40
0.5
40
0.5
40
1
40
1
40
1
40
1
41
1
10
38.4697855945417
20
1.31636183548659
30
0
41
1
10
38.3811610863901
20
1.35788124250055
30
0
41
1
10
38.2919565583025
20
1.39236802095292
30
0
41
1
10
38.1109760428626
20
1.44638291829224
30
0
41
1
10
38.0193215583395
20
1.46608698889727
30
0
41
1
10
37.9259449429838
20
1.47811796044357
30
0
0
SPLINE
5
1BD
100
AcDbEntity
8
1
62
256
6
ByLayer
370
18
48
1
60
0
100
AcDbSpline
70
4
71
3
72
14
73
10
40
0
40
0
40
0
40
0
40
0.25
40
0.25
40
0.5
40
0.5
40
0.75
40
0.75
40
1
40
1
40
1
40
1
41
1
10
37.9259449429838
20
1.47811796044357
30
0
41
1
10
37.907186653872
20
1.48053484438932
30
0
41
1
10
37.8878739454868
20
1.48365070479079
30
0
41
1
10
37.8481045177952
20
1.49119597695093
30
0
41
1
10
37.8276503151731
20
1.49563575832653
30
0
41
1
10
37.7857527715288
20
1.50610547026062
30
0
41
1
10
37.7643102145452
20
1.51213460707825
30
0
41
1
10
37.7205384835818
20
1.52604274875091
30
0
41
1
10
37.6983324152049
20
1.53388418611078
30
0
41
1
10
37.6759449429838
20
1.54268825695507
30
0
0
SPLINE
5
1BE
100
AcDbEntity
8
1
62
256
6
ByLayer
370
18
48
1
60
0
100
AcDbSpline
70
4
71
3
72
32
73
28
40
0
40
0
40
0
40
0
40
0.165597165597633
40
0.165597165597633
40
0.248395748396448
40
0.248395748396448
40
0.331194331195262
40
0.331194331195262
40
0.413992913994077
40
0.434692559693778
40
0.434692559693778
40
0.45539220539348
40
0.45539220539348
40
0.496791496792883
40
0.579590079591685
40
0.579590079591685
40
0.662388662390488
40
0.662388662390488
40
0.827985827988093
40
0.827985827988093
40
0.869385119387493
40
0.869385119387493
40
0.910784410786893
40
0.910784410786893
40
0.993582993585689
40
0.993582993585689
40
1
40
1
40
1
40
1
41
1
10
37.6759449429838
20
1.54268825695505
30
0
41
1
10
37.4864402128753
20
1.61721266295882
30
0
41
1
10
37.2991158345636
20
1.67860509651479
30
0
41
1
10
37.0183318878907
20
1.74995150371336
30
0
41
1
10
36.9247139870589
20
1.77026228820404
30
0
41
1
10
36.7372961108558
20
1.80397586846942
30
0
41
1
10
36.6436210857766
20
1.81741864851062
30
0
41
1
10
36.4559817939198
20
1.83722310520713
30
0
41
1
10
36.3384970370068
20
1.84516562359275
30
0
41
1
10
36.2203737514839
20
1.8473564792844
30
0
41
1
10
36.1730650511266
20
1.84776890582023
30
0
41
1
10
36.1493690926565
20
1.84774260738209
30
0
41
1
10
36.0784257499772
20
1.84696706862962
30
0
41
1
10
35.9368933403944
20
1.8426345791363
30
0
41
1
10
35.796094929755
20
1.83010213722821
30
0
41
1
10
35.6084825946905
20
1.8064112631657
30
0
41
1
10
35.5147038447583
20
1.79110344389704
30
0
41
1
10
35.2338978019154
20
1.73470700210834
30
0
41
1
10
35.0471708757984
20
1.68314223086037
30
0
41
1
10
34.8119269342088
20
1.60193786274945
30
0
41
1
10
34.7647839790453
20
1.58486262092325
30
0
41
1
10
34.6702444662224
20
1.54907126989679
30
0
41
1
10
34.6228123623878
20
1.53033857703417
30
0
41
1
10
34.4807558627627
20
1.47205309749214
30
0
41
1
10
34.3861272999808
20
1.43035372085689
30
0
41
1
10
34.2840779777496
20
1.38256557944817
30
0
41
1
10
34.2767382197417
20
1.3791116374469
30
0
41
1
10
34.2693987489389
20
1.37564104038535
30
0
0
SPLINE
5
1BF
100
AcDbEntity
8
1
62
256
6
ByLayer
370
18
48
1
60
0
100
AcDbSpline
70
4
71
3
72
8
73
4
40
0
40
0
40
0
40
0
40
1
40
1
40
1
40
1
41
1
10
39.3470790546279
20
-2.14967872649763
30
0
41
1
10
39.3220473714241
20
-2.13817828162931
30
0
41
1
10
39.2970017287822
20
-2.12639373870942
30
0
41
1
10
39.2719409616281
20
-2.11432832390565
30
0
0
SPLINE
5
1C0
100
AcDbEntity
8
1
62
256
6
ByLayer
370
18
48
1
60
0
100
AcDbSpline
70
4
71
3
72
8
73
4
40
0
40
0
40
0
40
0
40
1
40
1
40
1
40
1
41
1
10
40.1820414717604
20
-2.41441403635204
30
0
41
1
10
40.1567336145492
20
-2.41012101848185
30
0
41
1
10
40.1314443731094
20
-2.40549138886718
30
0
41
1
10
40.1061717428089
20
-2.40052653752832
30
0
0
SPLINE
5
1C1
100
AcDbEntity
8
1
62
256
6
ByLayer
370
18
48
1
60
0
100
AcDbSpline
70
4
71
3
72
24
73
20
40
0
40
0
40
0
40
0
40
0.0251625650164091
40
0.0251625650164091
40
0.147017244389358
40
0.147017244389358
40
0.268871923762307
40
0.268871923762307
40
0.512581282508205
40
0.512581282508205
40
0.634435961881154
40
0.634435961881154
40
0.695363301567628
40
0.695363301567628
40
0.756290641254103
40
0.756290641254103
40
0.878145320627051
40
0.878145320627051
40
1
40
1
40
1
40
1
41
1
10
47.2000000000001
20
-0.890672221781529
30
0
41
1
10
47.2000000000001
20
-0.893273172697803
30
0
41
1
10
47.2000000000001
20
-0.895901522603936
30
0
41
1
10
47.2000000000001
20
-0.911418124727277
30
0
41
1
10
47.2
20
-0.924923495145435
30
0
41
1
10
47.2
20
-0.953234529390812
30
0
41
1
10
47.2000000000001
20
-0.968052314206602
30
0
41
1
10
47.2000000000001
20
-1.01437797552615
30
0
41
1
10
47.2000000000001
20
-1.04769671377613
30
0
41
1
10
47.2000000000001
20
-1.1013863472584
30
0
41
1
10
47.2
20
-1.11991516151457
30
0
41
1
10
47.2
20
-1.14857639996362
30
0
41
1
10
47.2
20
-1.15824832465364
30
0
41
1
10
47.2000000000001
20
-1.17797259086242
30
0
41
1
10
47.2
20
-1.18815098048819
30
0
41
1
10
47.2000000000001
20
-1.22103452430153
30
0
41
1
10
47.2
20
-1.24516250140687
30
0
41
1
10
47.2
20
-1.2975497320661
30
0
41
1
10
47.2
20
-1.32584275686992
30
0
41
1
10
47.2
20
-1.35624722178392
30
0
0
SPLINE
5
1C2
100
AcDbEntity
8
1
62
256
6
ByLayer
370
18
48
1
60
0
100
AcDbSpline
70
4
71
3
72
18
73
14
40
0
40
0
40
0
40
0
40
0.0625
40
0.0625
40
0.125
40
0.125
40
0.25
40
0.25
40
0.5
40
0.5
40
0.75
40
0.75
40
1
40
1
40
1
40
1
41
1
10
46.7532984084897
20
-0.813978485707452
30
0
41
1
10
46.7629464055017
20
-0.813996403022031
30
0
41
1
10
46.7726182998222
20
-0.813909581547904
30
0
41
1
10
46.7918947395508
20
-0.813896977971154
30
0
41
1
10
46.8015004494532
20
-0.813966580151174
30
0
41
1
10
46.8302514061399
20
-0.814292040474243
30
0
41
1
10
46.8493275805591
20
-0.814671319897457
30
0
41
1
10
46.9062900512254
20
-0.816247214540141
30
0
41
1
10
46.9439129761961
20
-0.81785965574818
30
0
41
1
10
47.0184309685981
20
-0.821780752383091
30
0
41
1
10
47.0553243982474
20
-0.824096343277603
30
0
41
1
10
47.1283077790985
20
-0.829113889292302
30
0
41
1
10
47.1643990190857
20
-0.83181610096986
30
0
41
1
10
47.2000000000001
20
-0.834652402108446
30
0
0
SPLINE
5
1C3
100
AcDbEntity
8
1
62
256
6
ByLayer
370
18
48
1
60
0
100
AcDbSpline
70
4
71
3
72
18
73
14
40
0
40
0
40
0
40
0
40
0.249999999999856
40
0.249999999999856
40
0.499999999999713
40
0.499999999999713
40
0.624999999999785
40
0.624999999999785
40
0.749999999999856
40
0.749999999999856
40
0.874999999999928
40
0.874999999999928
40
1
40
1
40
1
40
1
41
1
10
46.7532984084885
20
-0.813978485702762
30
0
41
1
10
46.7458281001969
20
-0.809701295602139
30
0
41
1
10
46.7383454894251
20
-0.805864515953346
30
0
41
1
10
46.7233688911505
20
-0.799228265086583
30
0
41
1
10
46.7160280761436
20
-0.796500729275039
30
0
41
1
10
46.7054296395043
20
-0.793484043117587
30
0
41
1
10
46.7019589779522
20
-0.792655770608292
30
0
41
1
10
46.6951600347817
20
-0.791400462691598
30
0
41
1
10
46.6918489611273
20
-0.790979442087178
30
0
41
1
10
46.6855605806875
20
-0.790602038913676
30
0
41
1
10
46.6825630196713
20
-0.790641316537204
30
0
41
1
10
46.6768898691092
20
-0.79122097281342
30
0
41
1
10
46.6742009554914
20
-0.791766369282129
30
0
41
1
10
46.6717359463395
20
-0.792585607733628
30
0
0
SPLINE
5
1C4
100
AcDbEntity
8
1
62
256
6
ByLayer
370
18
48
1
60
0
100
AcDbSpline
70
4
71
3
72
8
73
4
40
0
40
0
40
0
40
0
40
1
40
1
40
1
40
1
41
1
10
46.6717359463395
20
-0.792585607733656
30
0
41
1
10
46.4863390235131
20
-0.690358512684213
30
0
41
1
10
46.3044128709698
20
-0.57562663169881
30
0
41
1
10
46.1237867658109
20
-0.450457342496549
30
0
0
SPLINE
5
1C5
100
AcDbEntity
8
1
62
256
6
ByLayer
370
18
48
1
60
0
100
AcDbSpline
70
4
71
3
72
8
73
4
40
0
40
0
40
0
40
0
40
1
40
1
40
1
40
1
41
1
10
44.7431245620089
20
0.687288141805652
30
0
41
1
10
44.7176168368451
20
0.710655596035338
30
0
41
1
10
44.6921284348013
20
0.734074018005828
30
0
41
1
10
44.6666521059013
20
0.757535311604585
30
0
0
SPLINE
5
1C6
100
AcDbEntity
8
1
62
256
6
ByLayer
370
18
48
1
60
0
100
AcDbSpline
70
4
71
3
72
8
73
4
40
0
40
0
40
0
40
0
40
1
40
1
40
1
40
1
41
1
10
44.6572669299852
20
0.765985116064854
30
0
41
1
10
44.6603954844633
20
0.763170102752383
30
0
41
1
10
44.6635238712899
20
0.760353496008264
30
0
41
1
10
44.6666521059012
20
0.757535311604585
30
0
0
SPLINE
5
1C7
100
AcDbEntity
8
1
62
256
6
ByLayer
370
18
48
1
60
0
100
AcDbSpline
70
4
71
3
72
8
73
4
40
0
40
0
40
0
40
0
40
1
40
1
40
1
40
1
41
1
10
43.8229432811174
20
1.46404709581881
30
0
41
1
10
43.8480745103403
20
1.44494693079446
30
0
41
1
10
43.873197904659
20
1.4256473136474
30
0
41
1
10
43.8983185819113
20
1.40615294185804
30
0
0
SPLINE
5
1C8
100
AcDbEntity
8
1
62
256
6
ByLayer
370
18
48
1
60
0
100
AcDbSpline
70
4
71
3
72
10
73
6
40
0
40
0
40
0
40
0
40
0.5
40
0.5
40
1
40
1
40
1
40
1
41
1
10
43.3322881759361
20
1.54287218201662
30
0
41
1
10
43.2871017969035
20
1.61031690694892
30
0
41
1
10
43.2420884407663
20
1.67993470786368
30
0
41
1
10
43.152576530291
20
1.82275483030077
30
0
41
1
10
43.1081143190543
20
1.8958795025014
30
0
41
1
10
43.0639411105522
20
1.97041528761062
30
0
0
SPLINE
5
1C9
100
AcDbEntity
8
1
62
256
6
ByLayer
370
18
48
1
60
0
100
AcDbSpline
70
4
71
3
72
8
73
4
40
0
40
0
40
0
40
0
40
1
40
1
40
1
40
1
41
1
10
42.9881625378543
20
2.01233302464445
30
0
41
1
10
43.013428677812
20
1.99864081855304
30
0
41
1
10
43.0386866974611
20
1.98466717553006
30
0
41
1
10
43.0639411105522
20
1.97041528761059
30
0
0
SPLINE
5
1CA
100
AcDbEntity
8
1
62
256
6
ByLayer
370
18
48
1
60
0
100
AcDbSpline
70
4
71
3
72
8
73
4
40
0
40
0
40
0
40
0
40
1
40
1
40
1
40
1
41
1
10
42.1541383836361
20
2.35358693094554
30
0
41
1
10
42.1792584400052
20
2.34682748786071
30
0
41
1
10
42.2043713255833
20
2.33973925053658
30
0
41
1
10
42.2294805814595
20
2.33232383892417
30
0
0
SPLINE
5
1CB
100
AcDbEntity
8
1
62
256
6
ByLayer
370
18
48
1
60
0
100
AcDbSpline
70
4
71
3
72
51
73
47
40
0
40
0
40
0
40
0
40
0.0601779909900629
40
0.0601779909900629
40
0.118916866553181
40
0.118916866553181
40
0.1776557421163
40
0.1776557421163
40
0.207025179897859
40
0.207025179897859
40
0.236394617679419
40
0.236394617679419
40
0.29513349324254
40
0.29513349324254
40
0.353872368805661
40
0.353872368805661
40
0.383241806587224
40
0.383241806587224
40
0.412611244368786
40
0.412611244368786
40
0.530088995495031
40
0.530088995495031
40
0.544773714385813
40
0.544773714385813
40
0.559458433276594
40
0.588827871058154
40
0.588827871058154
40
0.618197308839714
40
0.618197308839714
40
0.647566746621274
40
0.647566746621274
40
0.706305622184396
40
0.706305622184396
40
0.765044497747518
40
0.765044497747518
40
0.823783373310641
40
0.823783373310641
40
0.853152811092201
40
0.853152811092201
40
0.882522248873761
40
0.882522248873761
40
0.911891686655321
40
0.911891686655321
40
0.94126112443688
40
0.94126112443688
40
1
40
1
40
1
40
1
41
1
10
33.4489561883814
20
-1.84769380077142
30
0
41
1
10
33.3530333412687
20
-1.84767112640634
30
0
41
1
10
33.2572742435475
20
-1.84383966818652
30
0
41
1
10
33.0678356519034
20
-1.82887611781015
30
0
41
1
10
32.9740712120507
20
-1.81796148230407
30
0
41
1
10
32.7864604459697
20
-1.78900236504362
30
0
41
1
10
32.6925737102905
20
-1.77095226932116
30
0
41
1
10
32.5512962351015
20
-1.73849478721593
30
0
41
1
10
32.5041267987616
20
-1.72677952361448
30
0
41
1
10
32.409567685091
20
-1.70156044935965
30
0
41
1
10
32.3621475616958
20
-1.68804456918758
30
0
41
1
10
32.2204628708572
20
-1.64514831096369
30
0
41
1
10
32.1264533842242
20
-1.61333429134473
30
0
41
1
10
31.9388084935209
20
-1.54378415789634
30
0
41
1
10
31.8451510946016
20
-1.50606695238591
30
0
41
1
10
31.7046256555682
20
-1.44540287892505
30
0
41
1
10
31.6577736767215
20
-1.42450440447746
30
0
41
1
10
31.5641325120433
20
-1.38127823973275
30
0
41
1
10
31.5173350749932
20
-1.35895678732783
30
0
41
1
10
31.2833115823614
20
-1.24392417386429
30
0
41
1
10
31.0960143445503
20
-1.14088233928115
30
0
41
1
10
30.8830099419905
20
-1.01440527384554
30
0
41
1
10
30.8593140273109
20
-1.00020890692829
30
0
41
1
10
30.8120172487002
20
-0.971637252552313
30
0
41
1
10
30.7411514730774
20
-0.928474258054166
30
0
41
1
10
30.6704866445522
20
-0.88444689313522
30
0
41
1
10
30.5763761601505
20
-0.82507312958731
30
0
41
1
10
30.5293744917573
20
-0.795052342819815
30
0
41
1
10
30.4354166738935
20
-0.73443180565377
30
0
41
1
10
30.3884683651037
20
-0.703822298272087
30
0
41
1
10
30.2478292121322
20
-0.610949605886134
30
0
41
1
10
30.1543020720755
20
-0.547696600396222
30
0
41
1
10
29.9673407670353
20
-0.418999828010783
30
0
41
1
10
29.873890328049
20
-0.353577357831398
30
0
41
1
10
29.6865246568529
20
-0.221290869968698
30
0
41
1
10
29.5926161466892
20
-0.154417729525846
30
0
41
1
10
29.4510564406492
20
-0.0535018260334823
30
0
41
1
10
29.4037114790355
20
-0.0197314726630395
30
0
41
1
10
29.3089016754529
20
0.0477783171506019
30
0
41
1
10
29.2615971826764
20
0.081402427285326
30
0
41
1
10
29.1671056870894
20
0.148278760414172
30
0
41
1
10
29.1199241038266
20
0.181539521229468
30
0
41
1
10
29.0257680614044
20
0.247826862590614
30
0
41
1
10
28.9787849937555
20
0.280840606228338
30
0
41
1
10
28.8380647831007
20
0.379414356514758
30
0
41
1
10
28.7445543299404
20
0.444502993339427
30
0
41
1
10
28.6511142023465
20
0.508639063887813
30
0
0
SPLINE
5
1CC
100
AcDbEntity
8
1
62
256
6
ByLayer
370
18
48
1
60
0
100
AcDbSpline
70
4
71
3
72
52
73
48
40
0
40
0
40
0
40
0
40
0.0759618722403011
40
0.0759618722403011
40
0.113942808360452
40
0.113942808360452
40
0.132933276420525
40
0.132933276420525
40
0.151923744480599
40
0.151923744480599
40
0.22788561672089
40
0.22788561672089
40
0.303847488961182
40
0.303847488961182
40
0.379809361201473
40
0.379809361201473
40
0.417790297321619
40
0.417790297321619
40
0.455771233441765
40
0.455771233441765
40
0.49375216956191
40
0.49375216956191
40
0.512742637621985
40
0.512742637621985
40
0.531733105682059
40
0.531733105682059
40
0.607694977922351
40
0.607694977922351
40
0.683656850162642
40
0.683656850162642
40
0.721637786282788
40
0.721637786282788
40
0.740628254342862
40
0.740628254342862
40
0.759618722402937
40
0.759618722402937
40
0.797599658523089
40
0.797599658523089
40
0.835580594643241
40
0.835580594643241
40
0.873561530763393
40
0.873561530763393
40
0.911542466883546
40
0.911542466883546
40
0.987504339123847
40
0.987504339123847
40
1
40
1
40
1
40
1
41
1
10
27.2616562703876
20
-1.12554283504554
30
0
41
1
10
27.3711507974322
20
-1.18679347185554
30
0
41
1
10
27.4804419567056
20
-1.2449528893334
30
0
41
1
10
27.6440952823392
20
-1.3274935028436
30
0
41
1
10
27.6986106234824
20
-1.35420951876483
30
0
41
1
10
27.7803769754698
20
-1.3930222151495
30
0
41
1
10
27.8076310647389
20
-1.4057499779405
30
0
41
1
10
27.8621019241061
20
-1.43081190923684
30
0
41
1
10
27.8893394308169
20
-1.44315421348333
30
0
41
1
10
28.0254696716447
20
-1.50346271208451
30
0
41
1
10
28.134063258989
20
-1.54720014999251
30
0
41
1
10
28.350837879814
20
-1.62599450852412
30
0
41
1
10
28.4590540425153
20
-1.66102239824698
30
0
41
1
10
28.6753695034566
20
-1.72239044007461
30
0
41
1
10
28.7834428892239
20
-1.74874656748332
30
0
41
1
10
28.9455556834188
20
-1.78162154938809
30
0
41
1
10
28.9995865272593
20
-1.7914705936611
30
0
41
1
10
29.1076642587623
20
-1.80888741205263
30
0
41
1
10
29.1616995764288
20
-1.81645556098579
30
0
41
1
10
29.2700326147071
20
-1.82918635703916
30
0
41
1
10
29.3243856028356
20
-1.83433810841052
30
0
41
1
10
29.406271162414
20
-1.84023021533216
30
0
41
1
10
29.4336237284505
20
-1.84188812905219
30
0
41
1
10
29.4882198081782
20
-1.84458369952063
30
0
41
1
10
29.5154906986604
20
-1.84562362224329
30
0
41
1
10
29.6517195774069
20
-1.84930258582466
30
0
41
1
10
29.7603214483066
20
-1.84738917240358
30
0
41
1
10
29.9770491346937
20
-1.83416327323863
30
0
41
1
10
30.0851855026334
20
-1.82285830934822
30
0
41
1
10
30.2470695439181
20
-1.79883135984827
30
0
41
1
10
30.3009737164463
20
-1.78963985488298
30
0
41
1
10
30.3817464587534
20
-1.77404398822813
30
0
41
1
10
30.4086566215023
20
-1.76854366333956
30
0
41
1
10
30.4624483875795
20
-1.75693076406481
30
0
41
1
10
30.4893308669203
20
-1.75081744497206
30
0
41
1
10
30.5701629537737
20
-1.73165813807017
30
0
41
1
10
30.6242660850577
20
-1.71778564263161
30
0
41
1
10
30.7327492248246
20
-1.68778133476363
30
0
41
1
10
30.7871566286343
20
-1.67166203869644
30
0
41
1
10
30.8963490868002
20
-1.63720870796755
30
0
41
1
10
30.9512170090127
20
-1.61884153315464
30
0
41
1
10
31.0605431566543
20
-1.58020530952192
30
0
41
1
10
31.1150848504449
20
-1.55991351941824
30
0
41
1
10
31.2783758526409
20
-1.49618573279662
30
0
41
1
10
31.3867739420287
20
-1.4498935712835
30
0
41
1
10
31.5124764724174
20
-1.39156272938348
30
0
41
1
10
31.5302252353458
20
-1.3832236226973
30
0
41
1
10
31.5479648477518
20
-1.3747840384726
30
0
0
SPLINE
5
1CD
100
AcDbEntity
8
1
62
256
6
ByLayer
370
18
48
1
60
0
100
AcDbSpline
70
4
71
3
72
12
73
8
40
0
40
0
40
0
40
0
40
0.419719886249728
40
0.419719886249728
40
0.709859943124864
40
0.709859943124864
40
1
40
1
40
1
40
1
41
1
10
37.820228698708
20
1.86896868338076
30
0
41
1
10
37.8352789498913
20
1.87349577366675
30
0
41
1
10
37.8502467744062
20
1.87868945075755
30
0
41
1
10
37.8754126366255
20
1.888692346764
30
0
41
1
10
37.8856729097514
20
1.8931353728702
30
0
41
1
10
37.905963129477
20
1.90270096170252
30
0
41
1
10
37.9160069960755
20
1.90782796511453
30
0
41
1
10
37.9259449429841
20
1.91332233515692
30
0
0
SPLINE
5
1CE
100
AcDbEntity
8
1
62
256
6
ByLayer
370
18
48
1
60
0
100
AcDbSpline
70
4
71
3
72
16
73
12
40
0
40
0
40
0
40
0
40
0.124999999999999
40
0.124999999999999
40
0.249999999999999
40
0.249999999999999
40
0.499999999999999
40
0.499999999999999
40
0.75
40
0.75
40
1
40
1
40
1
40
1
41
1
10
37.9259449429838
20
1.91332233515678
30
0
41
1
10
37.9461547808672
20
1.92449570213574
30
0
41
1
10
37.9663629979992
20
1.93553555524389
30
0
41
1
10
38.0066413486968
20
1.95725499261385
30
0
41
1
10
38.0267072324746
20
1.96793110125102
30
0
41
1
10
38.086637773233
20
1.99935261065596
30
0
41
1
10
38.1262708197469
20
2.01951542810471
30
0
41
1
10
38.2049847136971
20
2.05820927783429
30
0
41
1
10
38.2440618197182
20
2.07673417427469
30
0
41
1
10
38.3219604920133
20
2.11228700367093
30
0
41
1
10
38.3607514010588
20
2.12929190743853
30
0
41
1
10
38.3993986906232
20
2.14548815551149
30
0
0
SPLINE
5
1CF
100
AcDbEntity
8
1
62
256
6
ByLayer
370
18
48
1
60
0
100
AcDbSpline
70
4
71
3
72
8
73
4
40
0
40
0
40
0
40
0
40
1
40
1
40
1
40
1
41
1
10
38.3993986906281
20
2.14548815549566
30
0
41
1
10
38.4375426444146
20
2.07674347431478
30
0
41
1
10
38.4759267092758
20
2.00700908321991
30
0
41
1
10
38.5146363934297
20
1.93631642521098
30
0
0
SPLINE
5
1D0
100
AcDbEntity
8
1
62
256
6
ByLayer
370
18
48
1
60
0
100
AcDbSpline
70
4
71
3
72
27
73
23
40
0
40
0
40
0
40
0
40
0.125
40
0.125
40
0.25
40
0.25
40
0.375
40
0.375
40
0.5
40
0.5
40
0.625
40
0.625
40
0.6875
40
0.6875
40
0.75
40
0.8125
40
0.8125
40
0.875
40
0.875
40
0.9375
40
0.9375
40
1
40
1
40
1
40
1
41
1
10
38.5146363934297
20
1.93631642521098
30
0
41
1
10
38.5203851754888
20
1.92581784603425
30
0
41
1
10
38.5270902693226
20
1.91646569303362
30
0
41
1
10
38.5419728421782
20
1.89951286813766
30
0
41
1
10
38.5502547166144
20
1.89186573002357
30
0
41
1
10
38.5675411624847
20
1.8787195733652
30
0
41
1
10
38.576580795441
20
1.8731540592
30
0
41
1
10
38.5953886358905
20
1.86392731666496
30
0
41
1
10
38.6052120725352
20
1.86027296400474
30
0
41
1
10
38.6248241867088
20
1.85522255493086
30
0
41
1
10
38.6346982457472
20
1.85377004564774
30
0
41
1
10
38.6495941409005
20
1.85338797295705
30
0
41
1
10
38.6546012454913
20
1.85356803562868
30
0
41
1
10
38.6644389076724
20
1.85458818985617
30
0
41
1
10
38.6741264399363
20
1.85626002235509
30
0
41
1
10
38.6834805108217
20
1.85933834840009
30
0
41
1
10
38.6926392357994
20
1.86321858081897
30
0
41
1
10
38.6971054059539
20
1.8655616566443
30
0
41
1
10
38.7055387343945
20
1.87101434617699
30
0
41
1
10
38.7095392640759
20
1.87413541206021
30
0
41
1
10
38.7170433487633
20
1.88128641278567
30
0
41
1
10
38.7205441878041
20
1.88532657714222
30
0
41
1
10
38.7236542708213
20
1.8897830859737
30
0
0
SPLINE
5
1D1
100
AcDbEntity
8
1
62
256
6
ByLayer
370
18
48
1
60
0
100
AcDbSpline
70
4
71
3
72
10
73
6
40
0
40
0
40
0
40
0
40
0.5
40
0.5
40
1
40
1
40
1
40
1
41
1
10
38.723654270828
20
1.88978308598513
30
0
41
1
10
38.7692086085252
20
1.95505893463851
30
0
41
1
10
38.8144855105116
20
2.01817005199129
30
0
41
1
10
38.9044324816189
20
2.13971708918049
30
0
41
1
10
38.9490613410856
20
2.19809785172825
30
0
41
1
10
38.9933799577808
20
2.25398095117544
30
0
0
SPLINE
5
1D2
100
AcDbEntity
8
1
62
256
6
ByLayer
370
18
48
1
60
0
100
AcDbSpline
70
4
71
3
72
8
73
4
40
0
40
0
40
0
40
0
40
1
40
1
40
1
40
1
41
1
10
39.0696706780488
20
2.22462622994169
30
0
41
1
10
39.0442467130677
20
2.23473313056465
30
0
41
1
10
39.018816477884
20
2.24451780890541
30
0
41
1
10
38.9933799577807
20
2.25398095117558
30
0
0
SPLINE
5
1D3
100
AcDbEntity
8
1
62
256
6
ByLayer
370
18
48
1
60
0
100
AcDbSpline
70
4
71
3
72
10
73
6
40
0
40
0
40
0
40
0
40
0.5
40
0.5
40
1
40
1
40
1
40
1
41
1
10
39.0696706780487
20
2.22462622994183
30
0
41
1
10
39.1155048688032
20
2.13423567642278
30
0
41
1
10
39.1616408578945
20
2.04336469125241
30
0
41
1
10
39.2547568000698
20
1.86083541944112
30
0
41
1
10
39.3015828199077
20
1.76947687670156
30
0
41
1
10
39.3488485778145
20
1.67810611081728
30
0
0
SPLINE
5
1D4
100
AcDbEntity
8
1
62
256
6
ByLayer
370
18
48
1
60
0
100
AcDbSpline
70
4
71
3
72
28
73
24
40
0
40
0
40
0
40
0
40
0.124999999999968
40
0.124999999999968
40
0.249999999999936
40
0.249999999999936
40
0.374999999999904
40
0.374999999999904
40
0.437499999999915
40
0.437499999999915
40
0.499999999999925
40
0.499999999999925
40
0.624999999999944
40
0.624999999999944
40
0.687499999999953
40
0.687499999999953
40
0.749999999999962
40
0.749999999999962
40
0.874999999999981
40
0.874999999999981
40
0.93749999999999
40
0.93749999999999
40
1
40
1
40
1
40
1
41
1
10
39.3488485778145
20
1.67810611081728
30
0
41
1
10
39.3546029614863
20
1.66698214991013
30
0
41
1
10
39.3613262569953
20
1.65668599497184
30
0
41
1
10
39.3762746840486
20
1.63737366837469
30
0
41
1
10
39.3845623324128
20
1.62834000711703
30
0
41
1
10
39.4018110104012
20
1.61213187444449
30
0
41
1
10
39.4108507583746
20
1.60484932561107
30
0
41
1
10
39.4249898922553
20
1.59509812007207
30
0
41
1
10
39.429820154184
20
1.59203552098003
30
0
41
1
10
39.4395030026823
20
1.58641632985615
30
0
41
1
10
39.4443709389597
20
1.58384709301288
30
0
41
1
10
39.459047315947
20
1.57685613773873
30
0
41
1
10
39.4689272056066
20
1.57313836001799
30
0
41
1
10
39.4838824052213
20
1.5691588147717
30
0
41
1
10
39.4888698227419
20
1.56811052780915
30
0
41
1
10
39.4986684653518
20
1.56664113422482
30
0
41
1
10
39.5035042890351
20
1.56621274370639
30
0
41
1
10
39.5177964428326
20
1.56593075707892
30
0
41
1
10
39.5271440485919
20
1.56710842054878
30
0
41
1
10
39.5398115198702
20
1.57133383610949
30
0
41
1
10
39.5438317988364
20
1.57314921920056
30
0
41
1
10
39.5513972800428
20
1.57773699257984
30
0
41
1
10
39.5548928322108
20
1.58048526947812
30
0
41
1
10
39.5580147071926
20
1.58371399173538
30
0
0
SPLINE
5
1D5
100
AcDbEntity
8
1
62
256
6
ByLayer
370
18
48
1
60
0
100
AcDbSpline
70
4
71
3
72
10
73
6
40
0
40
0
40
0
40
0
40
0.5
40
0.5
40
1
40
1
40
1
40
1
41
1
10
39.5580147071976
20
1.58371399174052
30
0
41
1
10
39.6037250586908
20
1.63098879619579
30
0
41
1
10
39.6491459650687
20
1.67510279779043
30
0
41
1
10
39.7393644458441
20
1.75695244727248
30
0
41
1
10
39.7841203549805
20
1.79465153610167
30
0
41
1
10
39.8285622261909
20
1.82914546142112
30
0
0
SPLINE
5
1D6
100
AcDbEntity
8
1
62
256
6
ByLayer
370
18
48
1
60
0
100
AcDbSpline
70
4
71
3
72
8
73
4
40
0
40
0
40
0
40
0
40
1
40
1
40
1
40
1
41
1
10
42.4067585740638
20
-0.373150556885974
30
0
41
1
10
42.3816745701424
20
-0.349729488372674
30
0
41
1
10
42.356613695955
20
-0.326248803297204
30
0
41
1
10
42.3315727059007
20
-0.302711796364122
30
0
0
SPLINE
5
1D7
100
AcDbEntity
8
1
62
256
6
ByLayer
370
18
48
1
60
0
100
AcDbSpline
70
4
71
3
72
8
73
4
40
0
40
0
40
0
40
0
40
1
40
1
40
1
40
1
41
1
10
43.2414041627352
20
-1.11823643783876
30
0
41
1
10
43.2161741823545
20
-1.09685685443336
30
0
41
1
10
43.1909271184273
20
-1.07534809930902
30
0
41
1
10
43.1656665638836
20
-1.05370778157055
30
0
0
SPLINE
5
1D8
100
AcDbEntity
8
1
62
256
6
ByLayer
370
18
48
1
60
0
100
AcDbSpline
70
4
71
3
72
27
73
23
40
0
40
0
40
0
40
0
40
0.125
40
0.125
40
0.25
40
0.25
40
0.375
40
0.375
40
0.5
40
0.5
40
0.625
40
0.625
40
0.6875
40
0.6875
40
0.75
40
0.8125
40
0.8125
40
0.875
40
0.875
40
0.9375
40
0.9375
40
1
40
1
40
1
40
1
41
1
10
46.0238441263069
20
-2.00222985848444
30
0
41
1
10
46.0296213591829
20
-1.99286546953886
30
0
41
1
10
46.0363627300154
20
-1.98482403845713
30
0
41
1
10
46.0513203842721
20
-1.97074469190275
30
0
41
1
10
46.0596426463518
20
-1.96468039848858
30
0
41
1
10
46.0769990400963
20
-1.95481224561007
30
0
41
1
10
46.0860695420463
20
-1.95094783236806
30
0
41
1
10
46.1049253224267
20
-1.94524105216251
30
0
41
1
10
46.1147598962528
20
-1.94341721588407
30
0
41
1
10
46.1343754080537
20
-1.9420096260757
30
0
41
1
10
46.1442436800103
20
-1.94238589631647
30
0
41
1
10
46.1591179270031
20
-1.94476164525369
30
0
41
1
10
46.1641124173183
20
-1.94586803899585
30
0
41
1
10
46.1739140658783
20
-1.94870487157655
30
0
41
1
10
46.1835644372004
20
-1.95216570473886
30
0
41
1
10
46.1928807140183
20
-1.95697238417401
30
0
41
1
10
46.2020014217591
20
-1.96254875324595
30
0
41
1
10
46.2064490057007
20
-1.96572073656282
30
0
41
1
10
46.2148491641623
20
-1.97274432463675
30
0
41
1
10
46.2188346595765
20
-1.97661342056978
30
0
41
1
10
46.226312721725
20
-1.98517308560301
30
0
41
1
10
46.229807293075
20
-1.98987879317582
30
0
41
1
10
46.2329158019855
20
-1.99493589478268
30
0
0
SPLINE
5
1D9
100
AcDbEntity
8
1
62
256
6
ByLayer
370
18
48
1
60
0
100
AcDbSpline
70
4
71
3
72
8
73
4
40
0
40
0
40
0
40
0
40
1
40
1
40
1
40
1
41
1
10
46.2329158019911
20
-1.99493589479229
30
0
41
1
10
46.2429906180798
20
-2.01132618676468
30
0
41
1
10
46.2530491823268
20
-2.02764853537445
30
0
41
1
10
46.2630927593082
20
-2.04390303365852
30
0
0
SPLINE
5
1DA
100
AcDbEntity
8
1
62
256
6
ByLayer
370
18
48
1
60
0
100
AcDbSpline
70
4
71
3
72
8
73
4
40
0
40
0
40
0
40
0
40
1
40
1
40
1
40
1
41
1
10
46.2630927593082
20
-2.04390303365852
30
0
41
1
10
46.4244253336286
20
-1.99797578632913
30
0
41
1
10
46.5865067682313
20
-1.93929801158174
30
0
41
1
10
46.7505777502631
20
-1.86915968362138
30
0
0
SPLINE
5
1DB
100
AcDbEntity
8
1
62
256
6
ByLayer
370
18
48
1
60
0
100
AcDbSpline
70
4
71
3
72
20
73
16
40
0
40
0
40
0
40
0
40
0.12500000000002
40
0.12500000000002
40
0.18750000000001
40
0.18750000000001
40
0.249999999999999
40
0.249999999999999
40
0.5
40
0.5
40
0.75
40
0.75
40
0.875
40
0.875
40
1
40
1
40
1
40
1
41
1
10
47.2
20
-1.35624722178392
30
0
41
1
10
47.1798945185551
20
-1.37661979523907
30
0
41
1
10
47.1599108411658
20
-1.39735355842026
30
0
41
1
10
47.1300743672754
20
-1.4289241817315
30
0
41
1
10
47.12015210375
20
-1.43952626722901
30
0
41
1
10
47.1003473967201
20
-1.46087803716634
30
0
41
1
10
47.0904511205785
20
-1.47164311749768
30
0
41
1
10
47.041394386948
20
-1.52544495461927
30
0
41
1
10
47.0032774119744
20
-1.56864591221782
30
0
41
1
10
46.9286742681977
20
-1.65501891715729
30
0
41
1
10
46.8921900898874
20
-1.69819187150873
30
0
41
1
10
46.8383508317984
20
-1.76270389100961
30
0
41
1
10
46.8205538084801
20
-1.78416702996938
30
0
41
1
10
46.7852214345561
20
-1.82697591449008
30
0
41
1
10
46.7678195920115
20
-1.84818394083533
30
0
41
1
10
46.7505777502612
20
-1.86915968361052
30
0
0
SPLINE
5
1DC
100
AcDbEntity
8
1
62
256
6
ByLayer
370
18
48
1
60
0
100
AcDbSpline
70
4
71
3
72
92
73
88
40
0
40
0
40
0
40
0
40
0.03124999999999
40
0.03124999999999
40
0.06249999999998
40
0.06249999999998
40
0.12499999999996
40
0.12499999999996
40
0.18749999999994
40
0.18749999999994
40
0.203124999999934
40
0.203124999999934
40
0.218749999999928
40
0.218749999999928
40
0.24999999999992
40
0.24999999999992
40
0.281249999999912
40
0.281249999999912
40
0.312499999999904
40
0.312499999999904
40
0.328124999999901
40
0.328124999999901
40
0.343749999999899
40
0.343749999999899
40
0.374999999999898
40
0.374999999999898
40
0.406249999999897
40
0.406249999999897
40
0.437499999999896
40
0.437499999999896
40
0.453124999999896
40
0.453124999999896
40
0.468749999999895
40
0.468749999999895
40
0.484374999999895
40
0.484374999999895
40
0.499999999999894
40
0.499999999999894
40
0.531249999999896
40
0.531249999999896
40
0.539062499999898
40
0.539062499999898
40
0.5468749999999
40
0.5468749999999
40
0.554687499999901
40
0.554687499999901
40
0.562499999999903
40
0.562499999999903
40
0.570312499999905
40
0.570312499999905
40
0.578124999999907
40
0.578124999999907
40
0.585937499999908
40
0.585937499999908
40
0.589843749999909
40
0.589843749999909
40
0.59374999999991
40
0.59374999999991
40
0.609374999999915
40
0.609374999999915
40
0.617187499999916
40
0.617187499999916
40
0.624999999999918
40
0.624999999999918
40
0.64062499999992
40
0.64062499999992
40
0.648437499999922
40
0.648437499999922
40
0.656249999999924
40
0.656249999999924
40
0.687499999999932
40
0.687499999999932
40
0.718749999999939
40
0.718749999999939
40
0.749999999999947
40
0.749999999999947
40
0.765624999999951
40
0.765624999999951
40
0.781249999999954
40
0.781249999999954
40
0.812499999999962
40
0.812499999999962
40
0.874999999999975
40
0.874999999999975
40
0.937499999999987
40
0.937499999999987
40
1
40
1
40
1
40
1
41
1
10
28.6512439133542
20
0.508664527872838
30
0
41
1
10
28.6042837611633
20
0.54352581321703
30
0
41
1
10
28.5570543334366
20
0.577463685531711
30
0
41
1
10
28.4615420685099
20
0.642740017910654
30
0
41
1
10
28.4132974466452
20
0.674145126062001
30
0
41
1
10
28.2668193850693
20
0.764409553986127
30
0
41
1
10
28.1668501076002
20
0.819324651086077
30
0
41
1
10
27.960665719638
20
0.917245297393492
30
0
41
1
10
27.854414139175
20
0.960198349397473
30
0
41
1
10
27.7166634166375
20
1.00565001411985
30
0
41
1
10
27.6888658172033
20
1.01432752721612
30
0
41
1
10
27.6327354694271
20
1.03081587656737
30
0
41
1
10
27.6043848440459
20
1.03862361430547
30
0
41
1
10
27.5192429849305
20
1.06051983587744
30
0
41
1
10
27.4621206278646
20
1.07315187268631
30
0
41
1
10
27.34707273717
20
1.0942850291201
30
0
41
1
10
27.2891500218691
20
1.10280059575069
30
0
41
1
10
27.1724010381938
20
1.11536333445713
30
0
41
1
10
27.1135708650248
20
1.11939244724744
30
0
41
1
10
27.024485484923
20
1.1213590039126
30
0
41
1
10
26.9946453040941
20
1.1213099547534
30
0
41
1
10
26.9346684766395
20
1.11977148914562
30
0
41
1
10
26.9047601701822
20
1.1185430105474
30
0
41
1
10
26.8153795360948
20
1.11354351695488
30
0
41
1
10
26.7561966760827
20
1.10846939283772
30
0
41
1
10
26.638614255594
20
1.09487056895424
30
0
41
1
10
26.5802281552578
20
1.08629001266246
30
0
41
1
10
26.4644571164418
20
1.06458677702585
30
0
41
1
10
26.4070661358081
20
1.05149229168492
30
0
41
1
10
26.321867296346
20
1.02764111402897
30
0
41
1
10
26.2935392730866
20
1.01896054584137
30
0
41
1
10
26.23773152068
20
1.0001171699366
30
0
41
1
10
26.210232732241
20
0.989955269663568
30
0
41
1
10
26.1561720778736
20
0.967880074154522
30
0
41
1
10
26.1296114356979
20
0.955964878995673
30
0
41
1
10
26.0775681922211
20
0.930066262554419
30
0
41
1
10
26.0519923099991
20
0.916014669881974
30
0
41
1
10
25.9783417850266
20
0.870748245043188
30
0
41
1
10
25.9330523727541
20
0.836430148167238
30
0
41
1
10
25.8829445632254
20
0.786079415713232
30
0
41
1
10
25.8732531729615
20
0.775630128429526
30
0
41
1
10
25.8545992608633
20
0.753883652163722
30
0
41
1
10
25.8457153529754
20
0.742673642111129
30
0
41
1
10
25.8289793362025
20
0.719680874371221
30
0
41
1
10
25.8211065939645
20
0.707878815030909
30
0
41
1
10
25.8062339330422
20
0.683712613156985
30
0
41
1
10
25.7992661720128
20
0.671331807121902
30
0
41
1
10
25.7864350377792
20
0.645872422077616
30
0
41
1
10
25.780555744934
20
0.632752305895764
30
0
41
1
10
25.7701608507427
20
0.605881299027317
30
0
41
1
10
25.7656878860171
20
0.592248905782526
30
0
41
1
10
25.7582725313156
20
0.564567064465024
30
0
41
1
10
25.7553196477347
20
0.550519768285909
30
0
41
1
10
25.7521183804181
20
0.52911408234479
30
0
41
1
10
25.7513226219556
20
0.521909366532697
30
0
41
1
10
25.7502473582591
20
0.507365099313375
30
0
41
1
10
25.7499692597025
20
0.500005214280549
30
0
41
1
10
25.7498025620597
20
0.463410778518522
30
0
41
1
10
25.753463375978
20
0.434417515522085
30
0
41
1
10
25.7629449434822
20
0.391164680720806
30
0
41
1
10
25.7668046270925
20
0.376729695871035
30
0
41
1
10
25.775580216668
20
0.348322154669347
30
0
41
1
10
25.7804957081034
20
0.334325204771773
30
0
41
1
10
25.7965632445488
20
0.292846208786841
30
0
41
1
10
25.8090254672499
20
0.265871585886089
30
0
41
1
10
25.8296081670907
20
0.226120463570908
30
0
41
1
10
25.836790304025
20
0.212991257777532
30
0
41
1
10
25.8517183633689
20
0.186942650127236
30
0
41
1
10
25.8594814399775
20
0.173996832002075
30
0
41
1
10
25.8992752549004
20
0.110153181931366
30
0
41
1
10
25.9341884328142
20
0.0617173832648916
30
0
41
1
10
26.0075849710246
20
-0.0320681368769158
30
0
41
1
10
26.0461113418833
20
-0.0773813738503577
30
0
41
1
10
26.1256351975422
20
-0.165853787538879
30
0
41
1
10
26.166639281434
20
-0.20900727329439
30
0
41
1
10
26.229489615964
20
-0.272552649548601
30
0
41
1
10
26.2506958754349
20
-0.293562177819041
30
0
41
1
10
26.2932864911801
20
-0.335022142335362
30
0
41
1
10
26.314685942426
20
-0.355488833518365
30
0
41
1
10
26.3791358161499
20
-0.416190217440032
30
0
41
1
10
26.4224349128822
20
-0.455730736856367
30
0
41
1
10
26.55298061357
20
-0.572083376604354
30
0
41
1
10
26.640855622879
20
-0.6466592887395
30
0
41
1
10
26.8173142421359
20
-0.791176503458985
30
0
41
1
10
26.9058850680088
20
-0.861123504883238
30
0
41
1
10
27.0834100819683
20
-0.996697130899804
30
0
41
1
10
27.1723631771494
20
-1.06231985774315
30
0
41
1
10
27.2616733122172
20
-1.12552300003168
30
0
0
SPLINE
5
1DD
100
AcDbEntity
8
1
62
256
6
ByLayer
370
18
48
1
60
0
100
AcDbSpline
70
4
71
3
72
34
73
30
40
0
40
0
40
0
40
0
40
0.0151072494515444
40
0.0151072494515444
40
0.154811191704188
40
0.154811191704188
40
0.22466316283051
40
0.22466316283051
40
0.294515133956833
40
0.294515133956833
40
0.364367105083156
40
0.364367105083156
40
0.434219076209478
40
0.434219076209478
40
0.5040710473358
40
0.5040710473358
40
0.573923018462123
40
0.573923018462123
40
0.713626960714768
40
0.713626960714768
40
0.78347893184109
40
0.78347893184109
40
0.853330902967412
40
0.853330902967412
40
0.923182874093734
40
0.923182874093734
40
0.993034845220056
40
0.993034845220056
40
1
40
1
40
1
40
1
41
1
10
28.6512403874992
20
0.508666726653814
30
0
41
1
10
28.6471314748071
20
0.511229041576087
30
0
41
1
10
28.6428967575083
20
0.513623544303016
30
0
41
1
10
28.5978055642035
20
0.535898808867529
30
0
41
1
10
28.5417184968792
20
0.536663009035749
30
0
41
1
10
28.4393217632507
20
0.503646766053407
30
0
41
1
10
28.4016146277405
20
0.486754353829667
30
0
41
1
10
28.3223314242645
20
0.441779580095556
30
0
41
1
10
28.280260593553
20
0.413547164553478
30
0
41
1
10
28.1915602219893
20
0.344196384417472
30
0
41
1
10
28.146729729457
20
0.304487781543202
30
0
41
1
10
28.0560125393888
20
0.214002431228096
30
0
41
1
10
28.0102002560728
20
0.16528680760743
30
0
41
1
10
27.9210690008315
20
0.065857374374815
30
0
41
1
10
27.8773674227182
20
0.0144842996229499
30
0
41
1
10
27.7916371037084
20
-0.0914725029555825
30
0
41
1
10
27.7492688230985
20
-0.146432871492578
30
0
41
1
10
27.6277010083879
20
-0.312060479093304
30
0
41
1
10
27.553427491374
20
-0.424034348389483
30
0
41
1
10
27.4521805000817
20
-0.59261454750208
30
0
41
1
10
27.4200552734504
20
-0.648280909736314
30
0
41
1
10
27.36216732861
20
-0.757548514527031
30
0
41
1
10
27.3378175672045
20
-0.81131386221395
30
0
41
1
10
27.2999847847901
20
-0.91035428606034
30
0
41
1
10
27.2861384870644
20
-0.9562387468645
30
0
41
1
10
27.2672667410853
20
-1.04168225978827
30
0
41
1
10
27.2624546953659
20
-1.08078236396446
30
0
41
1
10
27.2616742519343
20
-1.11877526806163
30
0
41
1
10
27.261652359345
20
-1.12217077219498
30
0
41
1
10
27.2616733120997
20
-1.1255229812609
30
0
0
SPLINE
5
1DE
100
AcDbEntity
8
SK1
62
256
6
ByLayer
370
18
48
1
60
0
100
AcDbSpline
70
4
71
3
72
18
73
14
40
0
40
0
40
0
40
0
40
0.250010337724687
40
0.250010337724687
40
0.500020675449375
40
0.500020675449375
40
0.625025844311718
40
0.625025844311718
40
0.68752842874289
40
0.68752842874289
40
0.750031013174062
40
0.750031013174062
40
1
40
1
40
1
40
1
41
1
10
-22
20
2.44999999999996
30
0
41
1
10
-22.0619016558605
20
2.44999999999996
30
0
41
1
10
-22.1194530014235
20
2.44999999999996
30
0
41
1
10
-22.2230629385498
20
2.44999999999996
30
0
41
1
10
-22.2691240341919
20
2.44999999999996
30
0
41
1
10
-22.3268777895502
20
2.44999999999996
30
0
41
1
10
-22.3442324614345
20
2.44999999999996
30
0
41
1
10
-22.367021354728
20
2.44999999999996
30
0
41
1
10
-22.3740767558169
20
2.44999999999996
30
0
41
1
10
-22.3870353899801
20
2.44999999999996
30
0
41
1
10
-22.3929475360501
20
2.44999999999996
30
0
41
1
10
-22.4192510342964
20
2.44999999999996
30
0
41
1
10
-22.4299843449325
20
2.44999999999996
30
0
41
1
10
-22.43
20
2.44999999999996
30
0
0
SPLINE
5
1DF
100
AcDbEntity
8
SK1
62
256
6
ByLayer
370
18
48
1
60
0
100
AcDbSpline
70
4
71
3
72
18
73
14
40
0
40
0
40
0
40
0
40
0.249969012581281
40
0.249969012581281
40
0.312471594866174
40
0.312471594866174
40
0.374974177151068
40
0.374974177151068
40
0.499979341720855
40
0.499979341720855
40
0.749989670860427
40
0.749989670860427
40
1
40
1
40
1
40
1
41
1
10
-22.4300000000064
20
-2.45000000000002
30
0
41
1
10
-22.4299843478814
20
-2.45000000000002
30
0
41
1
10
-22.419251037187
20
-2.45000000000002
30
0
41
1
10
-22.3929475360501
20
-2.45000000000002
30
0
41
1
10
-22.3870353899801
20
-2.45000000000002
30
0
41
1
10
-22.3740767558169
20
-2.45000000000002
30
0
41
1
10
-22.367021354728
20
-2.45000000000002
30
0
41
1
10
-22.3442324614345
20
-2.45000000000002
30
0
41
1
10
-22.3268777895502
20
-2.45000000000002
30
0
41
1
10
-22.2691240341919
20
-2.45000000000002
30
0
41
1
10
-22.2230629385497
20
-2.45000000000002
30
0
41
1
10
-22.1194530014235
20
-2.45000000000002
30
0
41
1
10
-22.0619016558605
20
-2.45000000000005
30
0
41
1
10
-22
20
-2.45000000000002
30
0
0
SPLINE
5
1E0
100
AcDbEntity
8
SK1
62
256
6
ByLayer
370
18
48
1
60
0
100
AcDbSpline
70
4
71
3
72
28
73
24
40
0
40
0
40
0
40
0
40
0.125
40
0.125
40
0.25
40
0.25
40
0.3125
40
0.34375
40
0.34375
40
0.375
40
0.375
40
0.499999999999999
40
0.624999999999999
40
0.624999999999999
40
0.656249999999999
40
0.656249999999999
40
0.687499999999999
40
0.687499999999999
40
0.75
40
0.75
40
0.875
40
0.875
40
1
40
1
40
1
40
1
41
1
10
-22
20
-1.51390224255073
30
0
41
1
10
-22.0619431217069
20
-1.39606359649963
30
0
41
1
10
-22.119532991302
20
-1.27662087306044
30
0
41
1
10
-22.2231818426811
20
-1.03356928576781
30
0
41
1
10
-22.2692481386254
20
-0.909951764964148
30
0
41
1
10
-22.3269910848407
20
-0.720400065314834
30
0
41
1
10
-22.3530131297644
20
-0.624589117884
30
0
41
1
10
-22.3741650560419
20
-0.52700902667172
30
0
41
1
10
-22.3871128590611
20
-0.461536613163389
30
0
41
1
10
-22.3930196210638
20
-0.428522534965765
30
0
41
1
10
-22.4193029597357
20
-0.263614203190031
30
0
41
1
10
-22.4407212763269
20
0.0002299958251228
30
0
41
1
10
-22.4192545151676
20
0.264055216473878
30
0
41
1
10
-22.3929475360501
20
0.428940274925367
30
0
41
1
10
-22.3870353899801
20
0.461954837450179
30
0
41
1
10
-22.3740767558169
20
0.527428697331999
30
0
41
1
10
-22.367021354728
20
0.559954497623153
30
0
41
1
10
-22.3442324614345
20
0.656937197076928
30
0
41
1
10
-22.3268777895502
20
0.720799948348599
30
0
41
1
10
-22.2691240341919
20
0.91030296331661
30
0
41
1
10
-22.2230629385498
20
1.03386815006104
30
0
41
1
10
-22.1194530014235
20
1.27678836717467
30
0
41
1
10
-22.0619016558605
20
1.39614247982132
30
0
41
1
10
-22
20
1.51390224255064
30
0
0
SPLINE
5
1E1
100
AcDbEntity
8
1
62
256
6
ByLayer
370
18
48
1
60
0
100
AcDbSpline
70
4
71
1
72
4
73
2
40
0
40
0
40
1
40
1
41
1
10
41.314438313351
20
2.4475831187082
30
0
41
1
10
41.201481141396
20
2.25285126997906
30
0
0
SPLINE
5
1E2
100
AcDbEntity
8
1
62
256
6
ByLayer
370
18
48
1
60
0
100
AcDbSpline
70
4
71
2
72
6
73
3
40
0
40
0
40
0
40
1
40
1
40
1
41
1
10
45.9684429554967
20
-2.10763775748325
30
0
41
1
10
46.0037949635198
20
-2.04693256822162
30
0
41
1
10
46.0391583477016
20
-1.98628954549895
30
0
0
SPLINE
5
1E3
100
AcDbEntity
8
1
62
256
6
ByLayer
370
18
48
1
60
0
100
AcDbSpline
70
4
71
2
72
6
73
3
40
0
40
0
40
0
40
1
40
1
40
1
41
1
10
45.417983500268
20
-1.99557855571717
30
0
41
1
10
45.4754579951984
20
-2.09457139689155
30
0
41
1
10
45.5329103208164
20
-2.19363015036671
30
0
0
SPLINE
5
1E4
100
AcDbEntity
8
1
62
256
6
ByLayer
370
18
48
1
60
0
100
AcDbSpline
70
4
71
2
72
6
73
3
40
0
40
0
40
0
40
1
40
1
40
1
41
1
10
43.8393225169846
20
-2.00962548974255
30
0
41
1
10
43.962293162487
20
-2.22026558673875
30
0
41
1
10
44.0851967351533
20
-2.43151847042432
30
0
0
SPLINE
5
1E5
100
AcDbEntity
8
1
62
256
6
ByLayer
370
18
48
1
60
0
100
AcDbSpline
70
4
71
1
72
4
73
2
40
0
40
0
40
1
40
1
41
1
10
42.2835271673797
20
-0.268512886088644
30
0
41
1
10
42.3734221608935
20
-0.341983520719992
30
0
0
SPLINE
5
1E6
100
AcDbEntity
8
1
62
256
6
ByLayer
370
18
48
1
60
0
100
AcDbSpline
70
4
71
2
72
6
73
3
40
0
40
0
40
0
40
1
40
1
40
1
41
1
10
40.4822582865859
20
-1.98705113534191
30
0
41
1
10
40.5015042017992
20
-1.94403185015162
30
0
41
1
10
40.5600121227406
20
-1.95147261298499
30
0
0
SPLINE
5
1E7
100
AcDbEntity
8
1
62
256
6
ByLayer
370
18
48
1
60
0
100
AcDbSpline
70
4
71
3
72
13
73
9
40
0
40
0
40
0
40
0
40
0.239828336010968
40
0.367740638209548
40
0.498507947268895
40
0.629478030481173
40
0.757983486730884
40
1
40
1
40
1
40
1
41
1
10
41.8437633425667
20
1.99247713107462
30
0
41
1
10
41.8356956148951
20
1.97795894823165
30
0
41
1
10
41.8183376683895
20
1.96060443431364
30
0
41
1
10
41.7827584960582
20
1.94533554656306
30
0
41
1
10
41.7519079142941
20
1.9420797537654
30
0
41
1
10
41.7210606263533
20
1.94769259507393
30
0
41
1
10
41.6854637968518
20
1.96607452627404
30
0
41
1
10
41.6681449628887
20
1.98583432542287
30
0
41
1
10
41.6601465953839
20
2.00199279237887
30
0
0
SPLINE
5
1E8
100
AcDbEntity
8
1
62
256
6
ByLayer
370
18
48
1
60
0
100
AcDbSpline
70
4
71
2
72
6
73
3
40
0
40
0
40
0
40
1
40
1
40
1
41
1
10
40.2125231555986
20
-2.4512167776771
30
0
41
1
10
40.3456757154675
20
-2.22182557071542
30
0
41
1
10
40.4792820266516
20
-1.99229601258654
30
0
0
SPLINE
5
1E9
100
AcDbEntity
8
1
62
256
6
ByLayer
370
18
48
1
60
0
100
AcDbSpline
70
4
71
1
72
4
73
2
40
0
40
0
40
1
40
1
41
1
10
45.5592660855113
20
-2.21898544931159
30
0
41
1
10
45.9597236967247
20
-2.12068134793415
30
0
0
SPLINE
5
1EA
100
AcDbEntity
8
1
62
256
6
ByLayer
370
18
48
1
60
0
100
AcDbSpline
70
4
71
2
72
6
73
3
40
0
40
0
40
0
40
1
40
1
40
1
41
1
10
39.8608188262566
20
-1.99542999293581
30
0
41
1
10
39.9932150825079
20
-2.22355192716623
30
0
41
1
10
40.1255185521987
20
-2.45196345059387
30
0
0
SPLINE
5
1EB
100
AcDbEntity
8
1
62
256
6
ByLayer
370
18
48
1
60
0
100
AcDbSpline
70
4
71
3
72
11
73
7
40
0
40
0
40
0
40
0
40
0.248478788172273
40
0.501569990566196
40
0.753825068741984
40
1
40
1
40
1
40
1
41
1
10
45.2432303302409
20
-1.99044702672484
30
0
41
1
10
45.2500055511325
20
-1.97762790370027
30
0
41
1
10
45.2699450921958
20
-1.95809569098137
30
0
41
1
10
45.3283456482098
20
-1.93855843276464
30
0
41
1
10
45.386879733147
20
-1.95717965919795
30
0
41
1
10
45.4069052042454
20
-1.97640060917283
30
0
41
1
10
45.4137682065558
20
-1.98904961097421
30
0
0
SPLINE
5
1EC
100
AcDbEntity
8
1
62
256
6
ByLayer
370
18
48
1
60
0
100
AcDbSpline
70
4
71
2
72
6
73
3
40
0
40
0
40
0
40
1
40
1
40
1
41
1
10
42.1081866901528
20
2.44828988778516
30
0
41
1
10
41.975144435298
20
2.21861365493592
30
0
41
1
10
41.8415900471464
20
1.98876029706253
30
0
0
SPLINE
5
1ED
100
AcDbEntity
8
1
62
256
6
ByLayer
370
18
48
1
60
0
100
AcDbSpline
70
4
71
3
72
11
73
7
40
0
40
0
40
0
40
0
40
0.244504770610583
40
0.496142173893887
40
0.749590296779804
40
1
40
1
40
1
40
1
41
1
10
39.6864434645769
20
-1.99076371902888
30
0
41
1
10
39.6933537060107
20
-1.97794156501118
30
0
41
1
10
39.7134032392948
20
-1.95826409393356
30
0
41
1
10
39.7718924321194
20
-1.93900916218774
30
0
41
1
10
39.8301409495787
20
-1.95768471287695
30
0
41
1
10
39.8498628341056
20
-1.97611729231025
30
0
41
1
10
39.8564828086632
20
-1.9883546155657
30
0
0
SPLINE
5
1EE
100
AcDbEntity
8
1
62
256
6
ByLayer
370
18
48
1
60
0
100
AcDbSpline
70
4
71
2
72
6
73
3
40
0
40
0
40
0
40
1
40
1
40
1
41
1
10
42.4663032306423
20
1.98730483590225
30
0
41
1
10
42.333107421241
20
2.21597564267893
30
0
41
1
10
42.2002427012018
20
2.44503252373613
30
0
0
SPLINE
5
1EF
100
AcDbEntity
8
1
62
256
6
ByLayer
370
18
48
1
60
0
100
AcDbSpline
70
4
71
3
72
11
73
7
40
0
40
0
40
0
40
0
40
0.247069915950824
40
0.49940430362069
40
0.752087309489806
40
1
40
1
40
1
40
1
41
1
10
42.6348617307471
20
1.98781482703688
30
0
41
1
10
42.6280843483204
20
1.97542659083777
30
0
41
1
10
42.6081890310052
20
1.95666968342084
30
0
41
1
10
42.549770953254
20
1.93823823638482
30
0
41
1
10
42.4914178621951
20
1.95780647719511
30
0
41
1
10
42.4715431948928
20
1.97728216681685
30
0
41
1
10
42.4647917099643
20
1.99004246109115
30
0
0
SPLINE
5
1F0
100
AcDbEntity
8
1
62
256
6
ByLayer
370
18
48
1
60
0
100
AcDbSpline
70
4
71
2
72
6
73
3
40
0
40
0
40
0
40
1
40
1
40
1
41
1
10
45.0282356675737
20
-2.36041938535607
30
0
41
1
10
45.1361019706573
20
-2.17449350647908
30
0
41
1
10
45.2445815042326
20
-1.98801018211589
30
0
0
SPLINE
5
1F1
100
AcDbEntity
8
1
62
256
6
ByLayer
370
18
48
1
60
0
100
AcDbSpline
70
4
71
1
72
4
73
2
40
0
40
0
40
1
40
1
41
1
10
44.8663137922394
20
-2.38914008069244
30
0
41
1
10
45.0354486142016
20
-2.34762045945666
30
0
0
SPLINE
5
1F2
100
AcDbEntity
8
1
62
256
6
ByLayer
370
18
48
1
60
0
100
AcDbSpline
70
4
71
2
72
6
73
3
40
0
40
0
40
0
40
1
40
1
40
1
41
1
10
44.6204287209744
20
-1.99008285636566
30
0
41
1
10
44.7386062586257
20
-2.19345057086923
30
0
41
1
10
44.856452005019
20
-2.39679578477538
30
0
0
SPLINE
5
1F3
100
AcDbEntity
8
1
62
256
6
ByLayer
370
18
48
1
60
0
100
AcDbSpline
70
4
71
2
72
6
73
3
40
0
40
0
40
0
40
1
40
1
40
1
41
1
10
39.4214729702475
20
-2.44668599694134
30
0
41
1
10
39.5544085504924
20
-2.21744342384429
30
0
41
1
10
39.68763074346
20
-1.9886229071395
30
0
0
SPLINE
5
1F4
100
AcDbEntity
8
1
62
256
6
ByLayer
370
18
48
1
60
0
100
AcDbSpline
70
4
71
3
72
11
73
7
40
0
40
0
40
0
40
0
40
0.242900320468243
40
0.500172920969499
40
0.75730667839327
40
1
40
1
40
1
40
1
41
1
10
44.440684718648
20
-2.00078003307803
30
0
41
1
10
44.4488263549176
20
-1.98474233863092
30
0
41
1
10
44.4711946789619
20
-1.9594494956396
30
0
41
1
10
44.5314935682033
20
-1.93762846859948
30
0
41
1
10
44.5918249584705
20
-1.95585002236569
30
0
41
1
10
44.6141801292167
20
-1.97850519331919
30
0
41
1
10
44.6223168880662
20
-1.99321649477068
30
0
0
SPLINE
5
1F5
100
AcDbEntity
8
1
62
256
6
ByLayer
370
18
48
1
60
0
100
AcDbSpline
70
4
71
2
72
6
73
3
40
0
40
0
40
0
40
1
40
1
40
1
41
1
10
39.0639941877452
20
-1.99047566584363
30
0
41
1
10
39.1971031382949
20
-2.21953657979668
30
0
41
1
10
39.3299259313728
20
-2.4487866016282
30
0
0
SPLINE
5
1F6
100
AcDbEntity
8
1
62
256
6
ByLayer
370
18
48
1
60
0
100
AcDbSpline
70
4
71
3
72
13
73
9
40
0
40
0
40
0
40
0
40
0.240682464109838
40
0.369068216478074
40
0.50018607090455
40
0.631269108125086
40
0.759560891823911
40
1
40
1
40
1
40
1
41
1
10
38.880554450031
20
-2.00185810692238
30
0
41
1
10
38.8886626826508
20
-1.98554474086151
30
0
41
1
10
38.906084124224
20
-1.96557202797177
30
0
41
1
10
38.9417207224249
20
-1.94709619066032
30
0
41
1
10
38.9726208727685
20
-1.94140102187629
30
0
41
1
10
39.0035212054314
20
-1.94459224077994
30
0
41
1
10
39.0391579262309
20
-1.9597866463651
30
0
41
1
10
39.0565742082981
20
-1.97711409816827
30
0
41
1
10
39.0646809770791
20
-1.99162153606693
30
0
0
SPLINE
5
1F7
100
AcDbEntity
8
1
62
256
6
ByLayer
370
18
48
1
60
0
100
AcDbSpline
70
4
71
2
72
6
73
3
40
0
40
0
40
0
40
1
40
1
40
1
41
1
10
42.9039062426465
20
2.45100535199811
30
0
41
1
10
42.77172880752
20
2.22293772712698
30
0
41
1
10
42.6394623709961
20
1.9951366676564
30
0
0
SPLINE
5
1F8
100
AcDbEntity
8
1
62
256
6
ByLayer
370
18
48
1
60
0
100
AcDbSpline
70
4
71
2
72
6
73
3
40
0
40
0
40
0
40
1
40
1
40
1
41
1
10
43.3333050746209
20
1.95021426333173
30
0
41
1
10
43.2791743020112
20
1.94726893973811
30
0
41
1
10
43.2629559766973
20
1.9819641172416
30
0
0
SPLINE
5
1F9
100
AcDbEntity
8
1
62
256
6
ByLayer
370
18
48
1
60
0
100
AcDbSpline
70
4
71
2
72
6
73
3
40
0
40
0
40
0
40
1
40
1
40
1
41
1
10
43.2573128550505
20
1.99253414017625
30
0
41
1
10
43.1243737842468
20
2.22094974515303
30
0
41
1
10
42.9916454422809
20
2.44967451222303
30
0
0
SPLINE
5
1FA
100
AcDbEntity
8
1
62
256
6
ByLayer
370
18
48
1
60
0
100
AcDbSpline
70
4
71
3
72
8
73
4
40
0
40
0
40
0
40
0
40
1
40
1
40
1
40
1
41
1
10
41.8416820297318
20
0.0491673783562874
30
0
41
1
10
41.8588526871584
20
0.0387881494190765
30
0
41
1
10
41.8759224226888
20
0.0284347180927966
30
0
41
1
10
41.8927870405155
20
0.0182045279415775
30
0
0
LINE
5
7F
100
AcDbEntity
8
80
62
256
6
ByLayer
370
18
48
1
60
0
100
AcDbLine
10
0
20
0
30
0
11
-5
21
0
31
0
39
0
210
0
220
0
230
1
0
LINE
5
80
100
AcDbEntity
8
4
62
256
6
ByLayer
370
18
48
0.05
60
0
100
AcDbLine
10
0
20
0
30
0
11
47.2
21
0
31
0
39
0
210
0
220
0
230
1
0
LINE
5
82
100
AcDbEntity
8
81
62
256
6
ByLayer
370
18
48
1
60
0
100
AcDbLine
10
47.2
20
0
30
0
11
52.2
21
0
31
0
39
0
210
0
220
0
230
1
0
LINE
5
83
100
AcDbEntity
8
SK4
62
256
6
ByLayer
370
18
48
0.05
60
0
100
AcDbLine
10
-23
20
0
30
0
11
47.2
21
0
31
0
39
0
210
0
220
0
230
1
0
LINE
5
85
100
AcDbEntity
8
1
62
256
6
ByLayer
370
18
48
1
60
0
100
AcDbLine
10
0
20
3
30
0
11
0
21
-3
31
0
39
0
210
0
220
0
230
1
0
LINE
5
86
100
AcDbEntity
8
1
62
256
6
ByLayer
370
18
48
1
60
0
100
AcDbLine
10
41.663375
20
2.000299
30
0
11
41.659922
21
2.002062
31
0
39
0
210
0
220
0
230
1
0
LINE
5
87
100
AcDbEntity
8
1
62
256
6
ByLayer
370
18
48
1
60
0
100
AcDbLine
10
40.481951
20
-1.987643
30
0
11
40.479224
21
-1.992388
31
0
39
0
210
0
220
0
230
1
0
LINE
5
88
100
AcDbEntity
8
1
62
256
6
ByLayer
370
18
48
1
60
0
100
AcDbLine
10
45.965679
20
-2.112378
30
0
11
45.964075
21
-2.115593
31
0
39
0
210
0
220
0
230
1
0
LINE
5
89
100
AcDbEntity
8
1
62
256
6
ByLayer
370
18
48
1
60
0
100
AcDbLine
10
45.958383
20
-2.121012
30
0
11
45.952833
21
-2.116089
31
0
39
0
210
0
220
0
230
1
0
LINE
5
8A
100
AcDbEntity
8
1
62
256
6
ByLayer
370
18
48
1
60
0
100
AcDbLine
10
45.418076
20
-1.995697
30
0
11
45.414962
21
-1.991121
31
0
39
0
210
0
220
0
230
1
0
LINE
5
8B
100
AcDbEntity
8
1
62
256
6
ByLayer
370
18
48
1
60
0
100
AcDbLine
10
41.844618
20
1.993779
30
0
11
41.841539
21
1.988665
31
0
39
0
210
0
220
0
230
1
0
LINE
5
8C
100
AcDbEntity
8
1
62
256
6
ByLayer
370
18
48
1
60
0
100
AcDbLine
10
39.860963
20
-1.995624
30
0
11
39.857768
21
-1.990699
31
0
39
0
210
0
220
0
230
1
0
LINE
5
8D
100
AcDbEntity
8
1
62
256
6
ByLayer
370
18
48
1
60
0
100
AcDbLine
10
45.244532
20
-1.988104
30
0
11
45.242486
21
-1.991692
31
0
39
0
210
0
220
0
230
1
0
LINE
5
8E
100
AcDbEntity
8
1
62
256
6
ByLayer
370
18
48
1
60
0
100
AcDbLine
10
42.639399
20
1.995053
30
0
11
42.636438
21
1.990622
31
0
39
0
210
0
220
0
230
1
0
LINE
5
8F
100
AcDbEntity
8
1
62
256
6
ByLayer
370
18
48
1
60
0
100
AcDbLine
10
43.261582
20
1.984906
30
0
11
43.257251
21
1.992628
31
0
39
0
210
0
220
0
230
1
0
LINE
5
90
100
AcDbEntity
8
1
62
256
6
ByLayer
370
13
48
1
60
0
100
AcDbLine
10
37.925945
20
-1.019262
30
0
11
37.925945
21
-1.79305
31
0
39
0
210
0
220
0
230
1
0
LINE
5
91
100
AcDbEntity
8
1
62
256
6
ByLayer
370
18
48
1
60
0
100
AcDbLine
10
44.444869
20
-1.996959
30
0
11
44.440344
21
-2.000994
31
0
39
0
210
0
220
0
230
1
0
LINE
5
92
100
AcDbEntity
8
1
62
256
6
ByLayer
370
13
48
1
60
0
100
AcDbLine
10
37.675945
20
-1.652015
30
0
11
37.675945
21
-0.83764
31
0
39
0
210
0
220
0
230
1
0
LINE
5
93
100
AcDbEntity
8
1
62
256
6
ByLayer
370
18
48
1
60
0
100
AcDbLine
10
47.2
20
1.5
30
0
11
47.2
21
1.496686
31
0
39
0
210
0
220
0
230
1
0
LINE
5
94
100
AcDbEntity
8
1
62
256
6
ByLayer
370
18
48
1
60
0
100
AcDbLine
10
40.214639
20
-2.447576
30
0
11
40.21247
21
-2.450428
31
0
39
0
210
0
220
0
230
1
0
LINE
5
95
100
AcDbEntity
8
1
62
256
6
ByLayer
370
13
48
1
60
0
100
AcDbLine
10
37.925945
20
1.913322
30
0
11
37.925945
21
1.478118
31
0
39
0
210
0
220
0
230
1
0
LINE
5
96
100
AcDbEntity
8
1
62
256
6
ByLayer
370
13
48
1
60
0
100
AcDbLine
10
37.675945
20
1.542688
30
0
11
37.675945
21
1.8477
31
0
39
0
210
0
220
0
230
1
0
LINE
5
97
100
AcDbEntity
8
1
62
256
6
ByLayer
370
13
48
1
60
0
100
AcDbLine
10
22.043744
20
-1.8477
30
0
11
22.043744
21
1.8477
31
0
39
0
210
0
220
0
230
1
0
LINE
5
98
100
AcDbEntity
8
1
62
256
6
ByLayer
370
18
48
1
60
0
100
AcDbLine
10
47.2
20
0.123196
30
0
11
47.2
21
-0.834652
31
0
39
0
210
0
220
0
230
1
0
LINE
5
99
100
AcDbEntity
8
1
62
256
6
ByLayer
370
13
48
1
60
0
100
AcDbLine
10
21.95692
20
1.855296
30
0
11
21.95692
21
-1.855296
31
0
39
0
210
0
220
0
230
1
0
LINE
5
9A
100
AcDbEntity
8
1
62
256
6
ByLayer
370
18
48
1
60
0
100
AcDbLine
10
15.464982
20
3
30
0
11
15.464982
21
-3
31
0
39
0
210
0
220
0
230
1
0
LINE
5
9B
100
AcDbEntity
8
SK1
62
256
6
ByLayer
370
18
48
1
60
0
100
AcDbLine
10
-23
20
1.88
30
0
11
-23
21
-1.88
31
0
39
0
210
0
220
0
230
1
0
LINE
5
9D
100
AcDbEntity
8
SK1
62
256
6
ByLayer
370
18
48
1
60
0
100
AcDbLine
10
-15
20
1.513902
30
0
11
-15
21
-1.513902
31
0
39
0
210
0
220
0
230
1
0
LINE
5
9E
100
AcDbEntity
8
SK1
62
256
6
ByLayer
370
18
48
1
60
0
100
AcDbLine
10
-15
20
2.45
30
0
11
-14.57
21
2.88
31
0
39
0
210
0
220
0
230
1
0
LINE
5
9F
100
AcDbEntity
8
SK1
62
256
6
ByLayer
370
18
48
1
60
0
100
AcDbLine
10
-22
20
2.45
30
0
11
-15
21
2.45
31
0
39
0
210
0
220
0
230
1
0
LINE
5
A0
100
AcDbEntity
8
SK1
62
256
6
ByLayer
370
18
48
1
60
0
100
AcDbLine
10
-22
20
1.513902
30
0
11
-22
21
2.45
31
0
39
0
210
0
220
0
230
1
0
LINE
5
A1
100
AcDbEntity
8
SK1
62
256
6
ByLayer
370
18
48
1
60
0
100
AcDbLine
10
-15
20
1.513902
30
0
11
-22
21
1.513902
31
0
39
0
210
0
220
0
230
1
0
LINE
5
A2
100
AcDbEntity
8
SK1
62
256
6
ByLayer
370
18
48
1
60
0
100
AcDbLine
10
-22
20
-1.513902
30
0
11
-15
21
-1.513902
31
0
39
0
210
0
220
0
230
1
0
LINE
5
A3
100
AcDbEntity
8
SK1
62
256
6
ByLayer
370
18
48
1
60
0
100
AcDbLine
10
-22
20
-2.45
30
0
11
-22
21
-1.513902
31
0
39
0
210
0
220
0
230
1
0
LINE
5
A4
100
AcDbEntity
8
SK1
62
256
6
ByLayer
370
18
48
1
60
0
100
AcDbLine
10
-15
20
-2.45
30
0
11
-22
21
-2.45
31
0
39
0
210
0
220
0
230
1
0
LINE
5
A5
100
AcDbEntity
8
SK1
62
256
6
ByLayer
370
18
48
1
60
0
100
AcDbLine
10
-15
20
-2.45
30
0
11
-14.57
21
-2.88
31
0
39
0
210
0
220
0
230
1
0
LINE
5
A6
100
AcDbEntity
8
SK1
62
256
6
ByLayer
370
18
48
1
60
0
100
AcDbLine
10
0
20
3
30
0
11
0
21
-3
31
0
39
0
210
0
220
0
230
1
0
LINE
5
A7
100
AcDbEntity
8
SK1
62
256
6
ByLayer
370
18
48
1
60
0
100
AcDbLine
10
-14.2
20
2.88
30
0
11
-14.2
21
-2.88
31
0
39
0
210
0
220
0
230
1
0
LINE
5
A8
100
AcDbEntity
8
SK1
62
256
6
ByLayer
370
18
48
1
60
0
100
AcDbLine
10
-14.08
20
-3
30
0
11
-14.08
21
3
31
0
39
0
210
0
220
0
230
1
0
LINE
5
A9
100
AcDbEntity
8
1
62
256
6
ByLayer
370
18
48
1
60
0
100
AcDbLine
10
15.464982
20
3
30
0
11
0
21
3
31
0
39
0
210
0
220
0
230
1
0
LINE
5
AA
100
AcDbEntity
8
1
62
256
6
ByLayer
370
18
48
1
60
0
100
AcDbLine
10
0
20
-3
30
0
11
15.464982
21
-3
31
0
39
0
210
0
220
0
230
1
0
LINE
5
AB
100
AcDbEntity
8
1
62
256
6
ByLayer
370
18
48
1
60
0
100
AcDbLine
10
46.089185
20
-1.952259
30
0
11
46.09701
21
-1.951073
31
0
39
0
210
0
220
0
230
1
0
LINE
5
AC
100
AcDbEntity
8
1
62
256
6
ByLayer
370
18
48
1
60
0
100
AcDbLine
10
47.2
20
1.5
30
0
11
47.046247
21
1.653753
31
0
39
0
210
0
220
0
230
1
0
LINE
5
AD
100
AcDbEntity
8
1
62
256
6
ByLayer
370
18
48
1
60
0
100
AcDbLine
10
40.132865
20
-2.454793
30
0
11
40.204962
21
-2.454793
31
0
39
0
210
0
220
0
230
1
0
LINE
5
AE
100
AcDbEntity
8
1
62
256
6
ByLayer
370
18
48
1
60
0
100
AcDbLine
10
42.189222
20
2.454793
30
0
11
42.117372
21
2.454793
31
0
39
0
210
0
220
0
230
1
0
LINE
5
AF
100
AcDbEntity
8
1
62
256
6
ByLayer
370
18
48
1
60
0
100
AcDbLine
10
39.339298
20
-2.454793
30
0
11
39.411418
21
-2.454793
31
0
39
0
210
0
220
0
230
1
0
LINE
5
B0
100
AcDbEntity
8
1
62
256
6
ByLayer
370
18
48
1
60
0
100
AcDbLine
10
42.982921
20
2.454793
30
0
11
42.911552
21
2.454793
31
0
39
0
210
0
220
0
230
1
0
LINE
5
B1
100
AcDbEntity
8
1
62
256
6
ByLayer
370
18
48
1
60
0
100
AcDbLine
10
44.122229
20
-2.454793
30
0
11
44.174054
21
-2.454793
31
0
39
0
210
0
220
0
230
1
0
LINE
5
B2
100
AcDbEntity
8
1
62
256
6
ByLayer
370
18
48
1
60
0
100
AcDbLine
10
22.043744
20
-1.8477
30
0
11
26.068845
21
-1.8477
31
0
39
0
210
0
220
0
230
1
0
LINE
5
B3
100
AcDbEntity
8
1
62
256
6
ByLayer
370
18
48
1
60
0
100
AcDbLine
10
27.903546
20
-1.8477
30
0
11
29.642434
21
-1.8477
31
0
39
0
210
0
220
0
230
1
0
LINE
5
B4
100
AcDbEntity
8
1
62
256
6
ByLayer
370
18
48
1
60
0
100
AcDbLine
10
33.449161
20
-1.8477
30
0
11
35.089474
21
-1.8477
31
0
39
0
210
0
220
0
230
1
0
LINE
5
B5
100
AcDbEntity
8
1
62
256
6
ByLayer
370
18
48
1
60
0
100
AcDbLine
10
37.675945
20
1.8477
30
0
11
36.165219
21
1.8477
31
0
39
0
210
0
220
0
230
1
0
LINE
5
B6
100
AcDbEntity
8
1
62
256
6
ByLayer
370
18
48
1
60
0
100
AcDbLine
10
32.367317
20
1.8477
30
0
11
30.733946
21
1.8477
31
0
39
0
210
0
220
0
230
1
0
LINE
5
B7
100
AcDbEntity
8
1
62
256
6
ByLayer
370
18
48
1
60
0
100
AcDbLine
10
26.987577
20
1.8477
30
0
11
22.043744
21
1.8477
31
0
39
0
210
0
220
0
230
1
0
LINE
5
B8
100
AcDbEntity
8
1
62
256
6
ByLayer
370
18
48
1
60
0
100
AcDbLine
10
21.95692
20
1.855296
30
0
11
15.464982
21
3
31
0
39
0
210
0
220
0
230
1
0
LINE
5
B9
100
AcDbEntity
8
1
62
256
6
ByLayer
370
18
48
1
60
0
100
AcDbLine
10
15.464982
20
-3
30
0
11
21.95692
21
-1.855296
31
0
39
0
210
0
220
0
230
1
0
LINE
5
BA
100
AcDbEntity
8
SK1
62
256
6
ByLayer
370
18
48
1
60
0
100
AcDbLine
10
-23
20
-1.88
30
0
11
-22.43
21
-2.45
31
0
39
0
210
0
220
0
230
1
0
LINE
5
BB
100
AcDbEntity
8
SK1
62
256
6
ByLayer
370
18
48
1
60
0
100
AcDbLine
10
-22.43
20
2.45
30
0
11
-23
21
1.88
31
0
39
0
210
0
220
0
230
1
0
LINE
5
BC
100
AcDbEntity
8
SK1
62
256
6
ByLayer
370
18
48
1
60
0
100
AcDbLine
10
-14.2
20
2.88
30
0
11
-14.57
21
2.88
31
0
39
0
210
0
220
0
230
1
0
LINE
5
BD
100
AcDbEntity
8
SK1
62
256
6
ByLayer
370
18
48
1
60
0
100
AcDbLine
10
-14.57
20
-2.88
30
0
11
-14.2
21
-2.88
31
0
39
0
210
0
220
0
230
1
0
LINE
5
BE
100
AcDbEntity
8
SK1
62
256
6
ByLayer
370
18
48
1
60
0
100
AcDbLine
10
0
20
3
30
0
11
-14.08
21
3
31
0
39
0
210
0
220
0
230
1
0
LINE
5
BF
100
AcDbEntity
8
SK1
62
256
6
ByLayer
370
18
48
1
60
0
100
AcDbLine
10
-14.08
20
-3
30
0
11
0
21
-3
31
0
39
0
210
0
220
0
230
1
0
LINE
5
C0
100
AcDbEntity
8
SK1
62
256
6
ByLayer
370
18
48
1
60
0
100
AcDbLine
10
-14.2
20
-2.88
30
0
11
-14.08
21
-3
31
0
39
0
210
0
220
0
230
1
0
LINE
5
C1
100
AcDbEntity
8
SK1
62
256
6
ByLayer
370
18
48
1
60
0
100
AcDbLine
10
-14.08
20
3
30
0
11
-14.2
21
2.88
31
0
39
0
210
0
220
0
230
1
0
LINE
5
C2
100
AcDbEntity
8
SK2
62
256
6
ByLayer
370
18
48
1
60
0
100
AcDbLine
10
8.692491
20
15.841828
30
0
11
8.692491
21
-10.5
31
0
39
0
210
0
220
0
230
1
0
LINE
5
C4
100
AcDbEntity
8
1
62
256
6
ByLayer
370
18
48
1
60
1
100
AcDbLine
10
8.692491
20
3
30
0
11
8.231707
21
6.499998
31
0
39
0
210
0
220
0
230
1
0
LINE
5
C5
100
AcDbEntity
8
1
62
256
6
ByLayer
370
18
48
1
60
1
100
AcDbLine
10
8.231707
20
6.499998
30
0
11
9.153275
21
6.500002
31
0
39
0
210
0
220
0
230
1
0
LINE
5
C6
100
AcDbEntity
8
1
62
256
6
ByLayer
370
18
48
1
60
1
100
AcDbLine
10
9.153275
20
6.500002
30
0
11
8.692491
21
3
31
0
39
0
210
0
220
0
230
1
0
LINE
5
C7
100
AcDbEntity
8
1
62
256
6
ByLayer
370
18
48
1
60
1
100
AcDbLine
10
8.692491
20
-3
30
0
11
9.153275
21
-6.499998
31
0
39
0
210
0
220
0
230
1
0
LINE
5
C8
100
AcDbEntity
8
1
62
256
6
ByLayer
370
18
48
1
60
1
100
AcDbLine
10
9.153275
20
-6.499998
30
0
11
8.231707
21
-6.500002
31
0
39
0
210
0
220
0
230
1
0
LINE
5
C9
100
AcDbEntity
8
1
62
256
6
ByLayer
370
18
48
1
60
1
100
AcDbLine
10
8.231707
20
-6.500002
30
0
11
8.692491
21
-3
31
0
39
0
210
0
220
0
230
1
0
LINE
5
CA
100
AcDbEntity
8
2
62
256
6
ByLayer
370
18
48
1
60
0
100
AcDbLine
10
47
20
-39.954793
30
0
11
-23
21
-39.954793
31
0
39
0
210
0
220
0
230
1
0
LINE
5
CC
100
AcDbEntity
8
2
62
256
6
ByLayer
370
18
48
1
60
0
100
AcDbLine
10
-23
20
-3.4675
30
0
11
-23
21
-41.954793
31
0
39
0
210
0
220
0
230
1
0
LINE
5
CD
100
AcDbEntity
8
2
62
256
6
ByLayer
370
18
48
1
60
0
100
AcDbLine
10
47
20
-4.042293
30
0
11
47
21
-41.954793
31
0
39
0
210
0
220
0
230
1
0
LINE
5
CE
100
AcDbEntity
8
1
62
256
6
ByLayer
370
18
48
1
60
1
100
AcDbLine
10
-23
20
-39.954793
30
0
11
-19.500002
21
-39.49401
31
0
39
0
210
0
220
0
230
1
0
LINE
5
CF
100
AcDbEntity
8
1
62
256
6
ByLayer
370
18
48
1
60
1
100
AcDbLine
10
-19.500002
20
-39.49401
30
0
11
-19.499998
21
-40.415577
31
0
39
0
210
0
220
0
230
1
0
LINE
5
D0
100
AcDbEntity
8
1
62
256
6
ByLayer
370
18
48
1
60
1
100
AcDbLine
10
-19.499998
20
-40.415577
30
0
11
-23
21
-39.954793
31
0
39
0
210
0
220
0
230
1
0
LINE
5
D1
100
AcDbEntity
8
1
62
256
6
ByLayer
370
18
48
1
60
1
100
AcDbLine
10
47
20
-39.954793
30
0
11
43.500002
21
-40.415577
31
0
39
0
210
0
220
0
230
1
0
LINE
5
D2
100
AcDbEntity
8
1
62
256
6
ByLayer
370
18
48
1
60
1
100
AcDbLine
10
43.500002
20
-40.415577
30
0
11
43.499998
21
-39.49401
31
0
39
0
210
0
220
0
230
1
0
LINE
5
D3
100
AcDbEntity
8
1
62
256
6
ByLayer
370
18
48
1
60
1
100
AcDbLine
10
43.499998
20
-39.49401
30
0
11
47
21
-39.954793
31
0
39
0
210
0
220
0
230
1
0
LINE
5
1FF
100
AcDbEntity
8
1
62
256
6
ByLayer
370
18
48
1
60
1
100
AcDbLine
10
8.692491
20
3
30
0
11
8.231707
21
6.499998
31
0
39
0
210
0
220
0
230
1
0
LINE
5
200
100
AcDbEntity
8
1
62
256
6
ByLayer
370
18
48
1
60
1
100
AcDbLine
10
8.231707
20
6.499998
30
0
11
9.153275
21
6.500002
31
0
39
0
210
0
220
0
230
1
0
LINE
5
201
100
AcDbEntity
8
1
62
256
6
ByLayer
370
18
48
1
60
1
100
AcDbLine
10
9.153275
20
6.500002
30
0
11
8.692491
21
3
31
0
39
0
210
0
220
0
230
1
0
LINE
5
203
100
AcDbEntity
8
1
62
256
6
ByLayer
370
18
48
1
60
1
100
AcDbLine
10
8.692491
20
-3
30
0
11
9.153275
21
-6.499998
31
0
39
0
210
0
220
0
230
1
0
LINE
5
204
100
AcDbEntity
8
1
62
256
6
ByLayer
370
18
48
1
60
1
100
AcDbLine
10
9.153275
20
-6.499998
30
0
11
8.231707
21
-6.500002
31
0
39
0
210
0
220
0
230
1
0
LINE
5
205
100
AcDbEntity
8
1
62
256
6
ByLayer
370
18
48
1
60
1
100
AcDbLine
10
8.231707
20
-6.500002
30
0
11
8.692491
21
-3
31
0
39
0
210
0
220
0
230
1
0
LINE
5
208
100
AcDbEntity
8
1
62
256
6
ByLayer
370
18
48
1
60
1
100
AcDbLine
10
-23
20
-39.954793
30
0
11
-19.500002
21
-39.49401
31
0
39
0
210
0
220
0
230
1
0
LINE
5
209
100
AcDbEntity
8
1
62
256
6
ByLayer
370
18
48
1
60
1
100
AcDbLine
10
-19.500002
20
-39.49401
30
0
11
-19.499998
21
-40.415577
31
0
39
0
210
0
220
0
230
1
0
LINE
5
20A
100
AcDbEntity
8
1
62
256
6
ByLayer
370
18
48
1
60
1
100
AcDbLine
10
-19.499998
20
-40.415577
30
0
11
-23
21
-39.954793
31
0
39
0
210
0
220
0
230
1
0
LINE
5
20C
100
AcDbEntity
8
1
62
256
6
ByLayer
370
18
48
1
60
1
100
AcDbLine
10
47
20
-39.954793
30
0
11
43.500002
21
-40.415577
31
0
39
0
210
0
220
0
230
1
0
LINE
5
20D
100
AcDbEntity
8
1
62
256
6
ByLayer
370
18
48
1
60
1
100
AcDbLine
10
43.500002
20
-40.415577
30
0
11
43.499998
21
-39.49401
31
0
39
0
210
0
220
0
230
1
0
LINE
5
20E
100
AcDbEntity
8
1
62
256
6
ByLayer
370
18
48
1
60
1
100
AcDbLine
10
43.499998
20
-39.49401
30
0
11
47
21
-39.954793
31
0
39
0
210
0
220
0
230
1
0
MTEXT
5
1FB
100
AcDbEntity
8
SK2
62
256
6
ByLayer
370
18
48
1
60
0
100
AcDbMText
10
7.351377
20
8.658437
30
0
210
0
220
0
230
1
1
%%c
40
3
41
0
44
1.084337
50
90
71
7
72
5
7
iso_b_vert
0
MTEXT
5
1FE
100
AcDbEntity
8
SK2
62
256
6
ByLayer
370
18
48
1
60
0
100
AcDbMText
10
7.351377
20
14.635
30
0
210
0
220
0
230
1
1
\W0.5404;6
40
3
41
0
44
1.084337
50
90
71
7
72
5
7
iso_b_vert
0
MTEXT
5
207
100
AcDbEntity
8
2
62
256
6
ByLayer
370
18
48
1
60
0
100
AcDbMText
10
10.367172
20
-39.069679
30
0
210
0
220
0
230
1
1
\W0.6740;70
40
3
41
0
44
1.084337
50
0
71
7
72
5
7
iso_b_vert
0
MTEXT
5
210
100
AcDbEntity
8
SK6
62
256
6
ByLayer
370
18
48
1
60
0
100
AcDbMText
10
-6.284706
20
-82.114886
30
0
210
0
220
0
230
1
1
\W0.7183;T300-XM100DF-10-32  C110
40
3
41
0
44
1.084337
50
0
71
7
72
5
7
iso_b_vert
0
HATCH
5
202
100
AcDbEntity
8
SK2
62
256
6
ByLayer
370
13
48
1
60
0
100
AcDbHatch
10
0
20
0
30
0
210
0
220
0
230
1
2
ANSI31
70
0
71
0
91
1
92
5
93
3
72
1
10
8.69249097962725
20
3.00000000000003
11
8.23170723807448
21
6.49999830744684
72
1
10
8.23170723807448
20
6.49999830744684
11
9.15327472118003
21
6.50000169255321
72
1
10
9.15327472118003
20
6.50000169255321
11
8.69249097962725
21
3.00000000000003
97
0
75
0
76
1
52
0
41
0.0062
77
0
78
1
53
45
43
0
44
0
45
-0.0139193969876572
46
0.0139193969876572
79
0
47
0
98
1
10
0
20
0
0
HATCH
5
206
100
AcDbEntity
8
SK2
62
256
6
ByLayer
370
13
48
1
60
0
100
AcDbHatch
10
0
20
0
30
0
210
0
220
0
230
1
2
ANSI31
70
0
71
0
91
1
92
5
93
3
72
1
10
8.69249097962725
20
-3
11
9.15327472118003
21
-6.49999830744682
72
1
10
9.15327472118003
20
-6.49999830744682
11
8.23170723807448
21
-6.50000169255318
72
1
10
8.23170723807448
20
-6.50000169255318
11
8.69249097962725
21
-3
97
0
75
0
76
1
52
0
41
0.0062
77
0
78
1
53
45
43
0
44
0
45
-0.0139193969876572
46
0.0139193969876572
79
0
47
0
98
1
10
0
20
0
0
HATCH
5
20B
100
AcDbEntity
8
2
62
256
6
ByLayer
370
13
48
1
60
0
100
AcDbHatch
10
0
20
0
30
0
210
0
220
0
230
1
2
ANSI31
70
0
71
0
91
1
92
5
93
3
72
1
10
-23
20
-39.9547932744005
11
-19.5000016925532
21
-39.4940095328477
72
1
10
-19.5000016925532
20
-39.4940095328477
11
-19.4999983074468
21
-40.4155770159533
72
1
10
-19.4999983074468
20
-40.4155770159533
11
-23
21
-39.9547932744005
97
0
75
0
76
1
52
0
41
0.0062
77
0
78
1
53
45
43
0
44
0
45
-0.0139193969876572
46
0.0139193969876572
79
0
47
0
98
1
10
0
20
0
0
HATCH
5
20F
100
AcDbEntity
8
2
62
256
6
ByLayer
370
13
48
1
60
0
100
AcDbHatch
10
0
20
0
30
0
210
0
220
0
230
1
2
ANSI31
70
0
71
0
91
1
92
5
93
3
72
1
10
47
20
-39.9547932744005
11
43.5000016925532
21
-40.4155770159533
72
1
10
43.5000016925532
20
-40.4155770159533
11
43.4999983074468
21
-39.4940095328477
72
1
10
43.4999983074468
20
-39.4940095328477
11
47
21
-39.9547932744005
97
0
75
0
76
1
52
0
41
0.0062
77
0
78
1
53
45
43
0
44
0
45
-0.0139193969876572
46
0.0139193969876572
79
0
47
0
98
1
10
0
20
0
0
DIMENSION
5
213
100
AcDbEntity
8
2
62
256
6
ByLayer
370
18
48
1
60
0
100
AcDbDimension
2
_U0
10
65.665207
20
-2.454793
30
0
11
65.665207
21
21.816963
31
0
70
32
71
1
72
1
41
1
210
0
220
0
230
1
3
Standard
100
AcDbAlignedDimension
13
47
23
2.454793
33
0
14
47
24
-2.454793
34
0
50
90
100
AcDbRotatedDimension
1001
ACAD
1000
DSTYLE
1002
{
1070
   371
1070
    13
1070
   372
1070
    13
1070
     3
1000

1070
   170
1070
     0
1070
   144
1040
1.0
1070
   277
1070
     2
1070
   284
1070
     8
1070
   278
1070
    46
1070
   146
1040
1.166667
1070
   345
1005
16
1070
   347
1005
16
1070
   346
1005
16
1070
   344
1005
0
1070
   343
1005
0
1070
   172
1070
     1
1070
    76
1070
     0
1070
    75
1070
     0
1070
   282
1070
     0
1070
   281
1070
     0
1070
    71
1070
     0
1070
    74
1070
     0
1070
   279
1070
     0
1070
   173
1070
     1
1070
   340
1005
1FC
1070
   271
1070
     3
1070
   272
1070
     3
1070
    77
1070
     1
1070
    73
1070
     0
1070
   171
1070
     3
1070
   274
1070
     4
1070
   177
1070
     2
1070
   176
1070
     2
1070
   178
1070
     2
1070
    78
1070
     8
1070
    48
1040
-0.1
1070
    41
1040
3.5
1070
   147
1040
1.5
1070
    42
1040
1.5875
1070
    44
1040
2.0
1070
   140
1040
3.0
1002
}
1001
ACAD_DSTYLE_DIM_LINETYPE
1070
   380
1005
16
1001
ACAD_DSTYLE_DIM_EXT1_LINETYPE
1070
   381
1005
16
1001
ACAD_DSTYLE_DIM_EXT2_LINETYPE
1070
   382
1005
16
0
DIMENSION
5
22E
100
AcDbEntity
8
SK2
62
256
6
ByLayer
370
18
48
1
60
0
100
AcDbDimension
2
_U1
10
44.82
20
11.85
30
0
11
45.91
21
11.85
31
0
70
32
71
1
72
1
41
1
210
0
220
0
230
1
3
Standard
100
AcDbAlignedDimension
13
47
23
2.454793
33
0
14
44.82
24
0
34
0
50
0
100
AcDbRotatedDimension
1001
ACAD
1000
DSTYLE
1002
{
1070
   371
1070
    13
1070
   372
1070
    13
1070
   170
1070
     0
1070
   144
1040
1.0
1070
   277
1070
     2
1070
   284
1070
     8
1070
   278
1070
    46
1070
   146
1040
1.166667
1070
   345
1005
16
1070
   347
1005
16
1070
   346
1005
16
1070
   344
1005
0
1070
   343
1005
0
1070
   172
1070
     1
1070
    76
1070
     0
1070
    75
1070
     0
1070
   282
1070
     0
1070
   281
1070
     0
1070
    71
1070
     0
1070
    74
1070
     0
1070
   279
1070
     0
1070
   173
1070
     1
1070
   340
1005
1FC
1070
   271
1070
     3
1070
   272
1070
     3
1070
    77
1070
     1
1070
    73
1070
     1
1070
   171
1070
     3
1070
   274
1070
     4
1070
   177
1070
     2
1070
   176
1070
     2
1070
   178
1070
     2
1070
    78
1070
     8
1070
    48
1040
-0.1
1070
    41
1040
3.5
1070
   147
1040
1.5
1070
    42
1040
1.5875
1070
    44
1040
2.0
1070
   140
1040
3.0
1002
}
1001
ACAD_DSTYLE_DIM_LINETYPE
1070
   380
1005
16
1001
ACAD_DSTYLE_DIM_EXT1_LINETYPE
1070
   381
1005
16
1001
ACAD_DSTYLE_DIM_EXT2_LINETYPE
1070
   382
1005
16
0
DIMENSION
5
248
100
AcDbEntity
8
SK2
62
256
6
ByLayer
370
18
48
1
60
0
100
AcDbDimension
2
_U2
10
39
20
-9.454793
30
0
11
59.5
21
-9.454793
31
0
70
32
71
1
72
1
41
1
210
0
220
0
230
1
3
Standard
100
AcDbAlignedDimension
13
47
23
-2.454793
33
0
14
39
24
-2.454793
34
0
50
0
100
AcDbRotatedDimension
1001
ACAD
1000
DSTYLE
1002
{
1070
   371
1070
    13
1070
   372
1070
    13
1070
   170
1070
     0
1070
   144
1040
1.0
1070
   277
1070
     2
1070
   284
1070
     8
1070
   278
1070
    46
1070
   146
1040
0.833333
1070
   345
1005
16
1070
   347
1005
16
1070
   346
1005
16
1070
   344
1005
0
1070
   343
1005
0
1070
   172
1070
     1
1070
    76
1070
     0
1070
    75
1070
     0
1070
   282
1070
     0
1070
   281
1070
     0
1070
    47
1040
0.5
1070
    72
1070
     0
1070
    71
1070
     1
1070
    74
1070
     0
1070
   279
1070
     0
1070
   173
1070
     1
1070
   340
1005
1FC
1070
   271
1070
     1
1070
   272
1070
     3
1070
    77
1070
     1
1070
    73
1070
     1
1070
   171
1070
     3
1070
   274
1070
     4
1070
   177
1070
     2
1070
   176
1070
     2
1070
   178
1070
     2
1070
    78
1070
     8
1070
    48
1040
0.5
1070
    41
1040
3.5
1070
   147
1040
1.5
1070
    42
1040
1.5875
1070
    44
1040
2.0
1070
   140
1040
3.0
1002
}
1001
ACAD_DSTYLE_DIM_LINETYPE
1070
   380
1005
16
1001
ACAD_DSTYLE_DIM_EXT1_LINETYPE
1070
   381
1005
16
1001
ACAD_DSTYLE_DIM_EXT2_LINETYPE
1070
   382
1005
16
0
DIMENSION
5
263
100
AcDbEntity
8
SK2
62
256
6
ByLayer
370
18
48
1
60
0
100
AcDbDimension
2
_U3
10
22
20
-31.954793
30
0
11
34.5
21
-31.954793
31
0
70
32
71
1
72
1
41
1
210
0
220
0
230
1
3
Standard
100
AcDbAlignedDimension
13
47
23
-2.454793
33
0
14
22
24
-1.8477
34
0
50
0
100
AcDbRotatedDimension
1001
ACAD
1000
DSTYLE
1002
{
1070
   371
1070
    13
1070
   372
1070
    13
1070
   170
1070
     0
1070
   144
1040
1.0
1070
   277
1070
     2
1070
   284
1070
     8
1070
   278
1070
    46
1070
   146
1040
1.166667
1070
   345
1005
16
1070
   347
1005
16
1070
   346
1005
16
1070
   344
1005
0
1070
   343
1005
0
1070
   172
1070
     1
1070
    76
1070
     0
1070
    75
1070
     0
1070
   282
1070
     0
1070
   281
1070
     0
1070
    71
1070
     0
1070
    74
1070
     0
1070
   279
1070
     0
1070
   173
1070
     1
1070
   340
1005
1FC
1070
   271
1070
     1
1070
   272
1070
     3
1070
    77
1070
     1
1070
    73
1070
     1
1070
   171
1070
     3
1070
   274
1070
     4
1070
   177
1070
     2
1070
   176
1070
     2
1070
   178
1070
     2
1070
    78
1070
     8
1070
    48
1040
-0.1
1070
    41
1040
3.5
1070
   147
1040
1.5
1070
    42
1040
1.5875
1070
    44
1040
2.0
1070
   140
1040
3.0
1002
}
1001
ACAD_DSTYLE_DIM_LINETYPE
1070
   380
1005
16
1001
ACAD_DSTYLE_DIM_EXT1_LINETYPE
1070
   381
1005
16
1001
ACAD_DSTYLE_DIM_EXT2_LINETYPE
1070
   382
1005
16
0
DIMENSION
5
27B
100
AcDbEntity
8
2
62
256
6
ByLayer
370
18
48
1
60
0
100
AcDbDimension
2
_U4
10
25.75
20
-20.954793
30
0
11
36.375
21
-20.954793
31
0
70
32
71
1
72
1
41
1
210
0
220
0
230
1
3
Standard
100
AcDbAlignedDimension
13
47
23
-2.454793
33
0
14
25.75
24
0
34
0
50
0
100
AcDbRotatedDimension
1001
ACAD
1000
DSTYLE
1002
{
1070
   371
1070
    13
1070
   372
1070
    13
1070
   170
1070
     0
1070
   144
1040
1.0
1070
   277
1070
     2
1070
   284
1070
     8
1070
   278
1070
    46
1070
   146
1040
1.166667
1070
   345
1005
16
1070
   347
1005
16
1070
   346
1005
16
1070
   344
1005
0
1070
   343
1005
0
1070
   172
1070
     1
1070
    76
1070
     0
1070
    75
1070
     0
1070
   282
1070
     0
1070
   281
1070
     0
1070
    71
1070
     0
1070
    74
1070
     0
1070
   279
1070
     0
1070
   173
1070
     1
1070
   340
1005
1FC
1070
   271
1070
     1
1070
   272
1070
     3
1070
    77
1070
     1
1070
    73
1070
     1
1070
   171
1070
     3
1070
   274
1070
     4
1070
   177
1070
     2
1070
   176
1070
     2
1070
   178
1070
     2
1070
    78
1070
     8
1070
    48
1040
-0.1
1070
    41
1040
3.5
1070
   147
1040
1.5
1070
    42
1040
1.5875
1070
    44
1040
2.0
1070
   140
1040
3.0
1002
}
1001
ACAD_DSTYLE_DIM_LINETYPE
1070
   380
1005
16
1001
ACAD_DSTYLE_DIM_EXT1_LINETYPE
1070
   381
1005
16
1001
ACAD_DSTYLE_DIM_EXT2_LINETYPE
1070
   382
1005
16
0
ENDSEC
0
SECTION
2
OBJECTS
0
DICTIONARY
5
303
330
0
100
AcDbDictionary
280
0
281
1
3
ACAD_GROUP
350
304
3
ACAD_MLINESTYLE
350
305
0
DICTIONARY
5
304
330
0
100
AcDbDictionary
280
0
281
1
0
DICTIONARY
5
305
330
0
100
AcDbDictionary
280
0
281
1
3
Standard
350
18
0
MLINESTYLE
5
18
330
305
100
AcDbMlineStyle
2
Standard
70
0
3

62
256
51
90
52
90
71
2
49
-0.5
62
256
6
ByLayer
49
0.5
62
256
6
ByLayer
0
RASTERVARIABLES
5
2f1
330

100
AcDbRasterVariables
90
0
70
1
71
1
72
1
0
ENDSEC
0
EOF
