0
SECTION
2
HEADER
9
$ACADVER
1
AC1015
9
$DWGCODEPAGE
3
ANSI_1252
9
$HANDSEED
5
2fa
9
$ANGBASE
50
0
9
$ANGDIR
70
0
9
$ATTMODE
70
1
9
$AUNITS
70
0
9
$AUPREC
70
0
9
$CECOLOR
62
256
9
$CELTSCALE
40
1
9
$CELTYPE
6
ByLayer
9
$CELWEIGHT
370
18
9
$CLAYER
8
0
9
$CMLJUST
70
0
9
$CMLSCALE
40
1
9
$CMLSTYLE
2
Standard
9
$DIMSTYLE
2
Standard
9
$TEXTSIZE
40
0.2
9
$TEXTSTYLE
7
Standard
9
$LUNITS
70
2
9
$LUPREC
70
4
9
$EXTNAMES
290
1
9
$INSUNITS
70
4
9
$LTSCALE
40
1
9
$LWDISPLAY
290
1
9
$PDMODE
70
0
9
$PDSIZE
40
0
9
$PLINEGEN
70
0
0
ENDSEC
0
SECTION
2
CLASSES
0
CLASS
1
RASTERVARIABLES
2
AcDbRasterVariables
3
ISM
90
0
280
0
281
0
0
ENDSEC
0
SECTION
2
TABLES
0
TABLE
2
VPORT
5
2f0
100
AcDbSymbolTable
0
VPORT
5
1
100
AcDbSymbolTableRecord
100
AcDbViewportTableRecord
2
*Active
70
0
10
0
20
0
11
1
21
1
12
-1
22
1
13
0
23
0
14
0.5
24
0.5
15
10
25
10
16
0
26
0
36
1
17
0
27
0
37
0
0
ENDTAB
0
TABLE
2
LTYPE
5
2f1
100
AcDbSymbolTable
0
LTYPE
5
14
100
AcDbSymbolTableRecord
100
AcDbLinetypeTableRecord
70
0
2
ByBlock
3

72
65
73
0
40
0
0
LTYPE
5
15
100
AcDbSymbolTableRecord
100
AcDbLinetypeTableRecord
70
0
2
ByLayer
3

72
65
73
0
40
0
0
LTYPE
5
16
100
AcDbSymbolTableRecord
100
AcDbLinetypeTableRecord
70
0
2
Continuous
3
Solid line
72
65
73
0
40
0
0
LTYPE
5
6E
100
AcDbSymbolTableRecord
100
AcDbLinetypeTableRecord
70
0
2
CENTER
3
____ _ ____ _ ____ _ ____
72
65
73
4
40
47.5
49
22
74
0
49
-8.5
74
0
49
8.5
74
0
49
-8.5
74
0
0
LTYPE
5
6F
100
AcDbSymbolTableRecord
100
AcDbLinetypeTableRecord
70
0
2
DASHED
3
__ __ __ __ __ __ __ __ __
72
65
73
2
40
25.72
49
12.86
74
0
49
-12.86
74
0
0
ENDTAB
0
TABLE
2
LAYER
5
2f2
100
AcDbSymbolTable
0
LAYER
5
10
100
AcDbSymbolTableRecord
100
AcDbLayerTableRecord
2
0
70
0
62
7
6
Continuous
290
1
370
-3
390
0
0
LAYER
5
71
100
AcDbSymbolTableRecord
100
AcDbLayerTableRecord
2
81
70
0
62
-3
6
Continuous
290
1
370
-3
390
0
0
LAYER
5
73
100
AcDbSymbolTableRecord
100
AcDbLayerTableRecord
2
80
70
0
62
-6
6
Continuous
290
1
370
-3
390
0
0
LAYER
5
75
100
AcDbSymbolTableRecord
100
AcDbLayerTableRecord
2
1
70
0
62
4
6
Continuous
290
1
370
-3
390
0
0
LAYER
5
82
100
AcDbSymbolTableRecord
100
AcDbLayerTableRecord
2
4
70
0
62
-2
6
CENTER
290
1
370
-3
390
0
0
LAYER
5
CB
100
AcDbSymbolTableRecord
100
AcDbLayerTableRecord
2
2
70
0
62
7
6
Continuous
290
1
370
-3
390
0
0
LAYER
5
200
100
AcDbSymbolTableRecord
100
AcDbLayerTableRecord
2
Defpoints
70
0
62
7
6
Continuous
290
0
370
-3
390
0
0
LAYER
5
2dc
100
AcDbSymbolTableRecord
100
AcDbLayerTableRecord
2
SK4
70
0
62
2
6
CENTER
290
1
370
-3
390
0
0
LAYER
5
2dd
100
AcDbSymbolTableRecord
100
AcDbLayerTableRecord
2
SK1
70
0
62
4
6
Continuous
290
1
370
-3
390
0
0
LAYER
5
2de
100
AcDbSymbolTableRecord
100
AcDbLayerTableRecord
2
SK2
70
0
62
7
6
Continuous
290
1
370
-3
390
0
0
LAYER
5
2df
100
AcDbSymbolTableRecord
100
AcDbLayerTableRecord
2
SK6
70
0
62
5
6
Continuous
290
1
370
-3
390
0
0
ENDTAB
0
TABLE
2
STYLE
5
2f3
100
AcDbSymbolTable
0
STYLE
5
11
100
AcDbSymbolTableRecord
100
AcDbTextStyleTableRecord
2
Standard
3
txt
70
0
71
0
40
0
41
1
42
0
50
0
0
STYLE
5
1E6
100
AcDbSymbolTableRecord
100
AcDbTextStyleTableRecord
2
iso_b_vert
3
simplex.shx
70
0
71
0
40
0
41
1
42
0
50
0
0
STYLE
5
1E7
100
AcDbSymbolTableRecord
100
AcDbTextStyleTableRecord
2
DWGDirectTextStyle
3
simplex
70
0
71
0
40
0
41
1
42
0
50
0
0
ENDTAB
0
TABLE
2
DIMSTYLE
5
2f4
100
AcDbSymbolTable
100
AcDbDimStyleTable
0
DIMSTYLE
105
27
100
AcDbSymbolTableRecord
100
AcDbDimStyleTableRecord
2
Standard
70
0
3
<>
41
0.18
42
0.0625
44
0.18
140
0.18
147
0.09
73
0
74
0
77
1
271
2
275
0
278
52
280
0
340
11
0
ENDTAB
0
TABLE
2
VIEW
5
2f5
100
AcDbSymbolTable
0
ENDTAB
0
TABLE
2
UCS
5
2f6
100
AcDbSymbolTable
0
ENDTAB
0
TABLE
2
APPID
5
2f7
100
AcDbSymbolTable
0
APPID
5
12
100
AcDbSymbolTableRecord
100
AcDbRegAppTableRecord
2
ACAD
70
0
0
APPID
5
1FC
100
AcDbSymbolTableRecord
100
AcDbRegAppTableRecord
2
ACAD_DSTYLE_DIMBREAK
70
0
0
APPID
5
29B
100
AcDbSymbolTableRecord
100
AcDbRegAppTableRecord
2
ACAD_DSTYLE_DIM_LINETYPE
70
0
0
APPID
5
29C
100
AcDbSymbolTableRecord
100
AcDbRegAppTableRecord
2
ACAD_DSTYLE_DIM_EXT1_LINETYPE
70
0
0
APPID
5
29D
100
AcDbSymbolTableRecord
100
AcDbRegAppTableRecord
2
ACAD_DSTYLE_DIM_EXT2_LINETYPE
70
0
0
APPID
5
2D8
100
AcDbSymbolTableRecord
100
AcDbRegAppTableRecord
2
ACAD_MLEADERVER
70
0
0
ENDTAB
0
TABLE
2
BLOCK_RECORD
5
2f8
100
AcDbSymbolTable
0
BLOCK_RECORD
5
1F
100
AcDbSymbolTableRecord
100
AcDbBlockTableRecord
2
*Model_Space
340
0
70
0
0
BLOCK_RECORD
5
1B
100
AcDbSymbolTableRecord
100
AcDbBlockTableRecord
2
*Paper_Space
340
0
70
0
0
BLOCK_RECORD
5
23
100
AcDbSymbolTableRecord
100
AcDbBlockTableRecord
2
*Paper_Space0
340
0
70
0
0
BLOCK_RECORD
5
201
100
AcDbSymbolTableRecord
100
AcDbBlockTableRecord
2
*D1
340
0
70
0
0
BLOCK_RECORD
5
20F
100
AcDbSymbolTableRecord
100
AcDbBlockTableRecord
2
_U0
340
0
70
0
0
BLOCK_RECORD
5
21B
100
AcDbSymbolTableRecord
100
AcDbBlockTableRecord
2
*D3
340
0
70
0
0
BLOCK_RECORD
5
228
100
AcDbSymbolTableRecord
100
AcDbBlockTableRecord
2
_U1
340
0
70
0
0
BLOCK_RECORD
5
235
100
AcDbSymbolTableRecord
100
AcDbBlockTableRecord
2
*D5
340
0
70
0
0
BLOCK_RECORD
5
243
100
AcDbSymbolTableRecord
100
AcDbBlockTableRecord
2
_U2
340
0
70
0
0
BLOCK_RECORD
5
250
100
AcDbSymbolTableRecord
100
AcDbBlockTableRecord
2
*D7
340
0
70
0
0
BLOCK_RECORD
5
25C
100
AcDbSymbolTableRecord
100
AcDbBlockTableRecord
2
_U3
340
0
70
0
0
BLOCK_RECORD
5
268
100
AcDbSymbolTableRecord
100
AcDbBlockTableRecord
2
*D9
340
0
70
0
0
BLOCK_RECORD
5
274
100
AcDbSymbolTableRecord
100
AcDbBlockTableRecord
2
_U4
340
0
70
0
0
ENDTAB
0
ENDSEC
0
SECTION
2
BLOCKS
0
BLOCK
5
20
100
AcDbEntity
8
0
100
AcDbBlockBegin
2
*Model_Space
70
0
10
0
20
0
30
0
3
*Model_Space
0
ENDBLK
5
21
100
AcDbEntity
8
0
100
AcDbBlockEnd
0
BLOCK
5
1C
100
AcDbEntity
8
0
100
AcDbBlockBegin
2
*Paper_Space
70
0
10
0
20
0
30
0
3
*Paper_Space
0
ENDBLK
5
1D
100
AcDbEntity
8
0
100
AcDbBlockEnd
0
BLOCK
5
24
100
AcDbEntity
8
0
100
AcDbBlockBegin
2
*Paper_Space0
70
0
10
0
20
0
30
0
3
*Paper_Space0
0
ENDBLK
5
25
100
AcDbEntity
8
0
100
AcDbBlockEnd
0
BLOCK
5
202
100
AcDbEntity
8
0
100
AcDbBlockBegin
2
*D1
70
1
10
0
20
0
30
0
3
*D1
0
LINE
5
204
100
AcDbEntity
8
0
62
256
6
ByLayer
370
-2
48
1
60
0
100
AcDbLine
10
43.5875
20
2.124126
30
0
11
62.665874
21
2.124126
31
0
39
0
210
0
220
0
230
1
0
LINE
5
205
100
AcDbEntity
8
0
62
256
6
ByLayer
370
-2
48
1
60
0
100
AcDbLine
10
43.5875
20
-2.124126
30
0
11
62.665874
21
-2.124126
31
0
39
0
210
0
220
0
230
1
0
LINE
5
206
100
AcDbEntity
8
0
62
256
6
ByLayer
370
-2
48
1
60
0
100
AcDbLine
10
60.665874
20
2.124126
30
0
11
60.665874
21
31.240324
31
0
39
0
210
0
220
0
230
1
0
LINE
5
207
100
AcDbEntity
8
0
62
256
6
ByLayer
370
-2
48
1
60
0
100
AcDbLine
10
60.665874
20
5.624126
30
0
11
60.665874
21
9.124126
31
0
39
0
210
0
220
0
230
1
0
LINE
5
208
100
AcDbEntity
8
0
62
256
6
ByLayer
370
-2
48
1
60
0
100
AcDbLine
10
60.665874
20
-5.624126
30
0
11
60.665874
21
-9.124126
31
0
39
0
210
0
220
0
230
1
0
SOLID
5
209
100
AcDbEntity
8
0
62
256
6
ByLayer
370
-1
48
1
60
0
100
AcDbTrace
10
60.082541
20
5.624126
30
0
11
61.249208
21
5.624126
31
0
12
60.665874
22
2.124126
32
0
13
60.665874
23
2.124126
33
0
39
0
210
0
220
0
230
1
0
SOLID
5
20A
100
AcDbEntity
8
0
62
256
6
ByLayer
370
-1
48
1
60
0
100
AcDbTrace
10
61.249208
20
-5.624126
30
0
11
60.082541
21
-5.624126
31
0
12
60.665874
22
-2.124126
32
0
13
60.665874
23
-2.124126
33
0
39
0
210
0
220
0
230
1
0
MTEXT
5
20B
100
AcDbEntity
8
0
62
256
6
ByLayer
370
18
48
1
60
0
100
AcDbMText
10
54.665874
20
20.740324
30
0
210
0
220
0
230
1
1
\A1;4.248
40
3
41
0
44
1
50
90
71
5
72
5
7
iso_b_vert
0
POINT
5
20C
100
AcDbEntity
8
Defpoints
62
0
6
ByLayer
370
-1
48
1
60
0
100
AcDbPoint
10
42
20
2.124126
30
0
39
0
210
0
220
0
230
1
50
360
0
POINT
5
20D
100
AcDbEntity
8
Defpoints
62
0
6
ByLayer
370
-1
48
1
60
0
100
AcDbPoint
10
42
20
-2.124126
30
0
39
0
210
0
220
0
230
1
50
360
0
POINT
5
20E
100
AcDbEntity
8
Defpoints
62
0
6
ByLayer
370
-1
48
1
60
0
100
AcDbPoint
10
60.665874
20
-2.124126
30
0
39
0
210
0
220
0
230
1
50
360
0
ENDBLK
5
203
100
AcDbEntity
8
0
100
AcDbBlockEnd
0
BLOCK
5
216
100
AcDbEntity
8
0
100
AcDbBlockBegin
2
_U0
70
0
10
0
20
0
30
0
3
_U0
0
MTEXT
5
210
100
AcDbEntity
8
2
62
256
6
ByLayer
370
18
48
1
60
0
100
AcDbMText
10
60.07476
20
12.259126
30
0
210
0
220
0
230
1
1
\W0.7126;UNC 8-32
40
3
41
0
44
1.084337
50
90
71
7
72
5
7
iso_b_vert
0
LINE
5
211
100
AcDbEntity
8
2
62
256
6
ByLayer
370
13
48
1
60
0
100
AcDbLine
10
43.5875
20
2.124126
30
0
11
62.665874
21
2.124126
31
0
39
0
210
0
220
0
230
1
0
LINE
5
212
100
AcDbEntity
8
2
62
256
6
ByLayer
370
13
48
1
60
0
100
AcDbLine
10
43.5875
20
-2.124126
30
0
11
62.665874
21
-2.124126
31
0
39
0
210
0
220
0
230
1
0
LINE
5
213
100
AcDbEntity
8
2
62
256
6
ByLayer
370
13
48
1
60
0
100
AcDbLine
10
60.665874
20
-9.624126
30
0
11
60.665874
21
29.356523
31
0
39
0
210
0
220
0
230
1
0
SOLID
5
214
100
AcDbEntity
8
2
62
256
6
ByLayer
370
18
48
1
60
0
100
AcDbTrace
10
60.665874
20
2.124126
30
0
11
60.205091
21
5.624124
31
0
12
61.126658
22
5.624127
32
0
13
61.126658
23
5.624127
33
0
39
0
210
0
220
0
230
1
0
SOLID
5
215
100
AcDbEntity
8
2
62
256
6
ByLayer
370
18
48
1
60
0
100
AcDbTrace
10
60.665874
20
-2.124126
30
0
11
61.126658
21
-5.624124
31
0
12
60.205091
22
-5.624127
32
0
13
60.205091
23
-5.624127
33
0
39
0
210
0
220
0
230
1
0
ENDBLK
5
217
100
AcDbEntity
8
0
100
AcDbBlockEnd
0
BLOCK
5
21C
100
AcDbEntity
8
0
100
AcDbBlockBegin
2
*D3
70
1
10
0
20
0
30
0
3
*D3
0
LINE
5
21E
100
AcDbEntity
8
0
62
256
6
ByLayer
370
-2
48
1
60
0
100
AcDbLine
10
42
20
3.711626
30
0
11
42
21
13.172832
31
0
39
0
210
0
220
0
230
1
0
LINE
5
21F
100
AcDbEntity
8
0
62
256
6
ByLayer
370
-2
48
1
60
0
100
AcDbLine
10
39.82
20
1.5875
30
0
11
39.82
21
13.172832
31
0
39
0
210
0
220
0
230
1
0
LINE
5
220
100
AcDbEntity
8
0
62
256
6
ByLayer
370
-2
48
1
60
0
100
AcDbLine
10
45.5
20
11.172832
30
0
11
49
21
11.172832
31
0
39
0
210
0
220
0
230
1
0
LINE
5
221
100
AcDbEntity
8
0
62
256
6
ByLayer
370
-2
48
1
60
0
100
AcDbLine
10
36.32
20
11.172832
30
0
11
32.82
21
11.172832
31
0
39
0
210
0
220
0
230
1
0
SOLID
5
222
100
AcDbEntity
8
0
62
256
6
ByLayer
370
-1
48
1
60
0
100
AcDbTrace
10
45.5
20
11.756165
30
0
11
45.5
21
10.589498
31
0
12
42
22
11.172832
32
0
13
42
23
11.172832
33
0
39
0
210
0
220
0
230
1
0
SOLID
5
223
100
AcDbEntity
8
0
62
256
6
ByLayer
370
-1
48
1
60
0
100
AcDbTrace
10
36.32
20
10.589498
30
0
11
36.32
21
11.756165
31
0
12
39.82
22
11.172832
32
0
13
39.82
23
11.172832
33
0
39
0
210
0
220
0
230
1
0
MTEXT
5
224
100
AcDbEntity
8
0
62
256
6
ByLayer
370
18
48
1
60
0
100
AcDbMText
10
40.91
20
17.172832
30
0
210
0
220
0
230
1
1
\A1;2.18
40
3
41
0
44
1
50
0
71
5
72
5
7
iso_b_vert
0
POINT
5
225
100
AcDbEntity
8
Defpoints
62
0
6
ByLayer
370
-1
48
1
60
0
100
AcDbPoint
10
42
20
2.124126
30
0
39
0
210
0
220
0
230
1
50
360
0
POINT
5
226
100
AcDbEntity
8
Defpoints
62
0
6
ByLayer
370
-1
48
1
60
0
100
AcDbPoint
10
39.82
20
0
30
0
39
0
210
0
220
0
230
1
50
360
0
POINT
5
227
100
AcDbEntity
8
Defpoints
62
0
6
ByLayer
370
-1
48
1
60
0
100
AcDbPoint
10
39.82
20
11.172832
30
0
39
0
210
0
220
0
230
1
50
360
0
ENDBLK
5
21D
100
AcDbEntity
8
0
100
AcDbBlockEnd
0
BLOCK
5
230
100
AcDbEntity
8
0
100
AcDbBlockBegin
2
_U1
70
0
10
0
20
0
30
0
3
_U1
0
MTEXT
5
229
100
AcDbEntity
8
SK2
62
256
6
ByLayer
370
18
48
1
60
0
100
AcDbMText
10
37.949986
20
11.955465
30
0
210
0
220
0
230
1
1
\W0.6474;'C'
40
3.5
41
0
44
1.084337
50
0
71
7
72
5
7
iso_b_vert
0
MTEXT
5
22A
100
AcDbEntity
8
SK2
62
256
6
ByLayer
370
18
48
1
60
0
100
AcDbMText
10
37.923486
20
19.057946
30
0
210
0
220
0
230
1
1
\W0.6563;2.18
40
3
41
0
44
1.084337
50
0
71
7
72
5
7
iso_b_vert
0
LINE
5
22B
100
AcDbEntity
8
SK2
62
256
6
ByLayer
370
13
48
1
60
0
100
AcDbLine
10
42
20
3.711626
30
0
11
42
21
13.172832
31
0
39
0
210
0
220
0
230
1
0
LINE
5
22C
100
AcDbEntity
8
SK2
62
256
6
ByLayer
370
13
48
1
60
0
100
AcDbLine
10
39.82
20
1.5875
30
0
11
39.82
21
13.172832
31
0
39
0
210
0
220
0
230
1
0
LINE
5
22D
100
AcDbEntity
8
SK2
62
256
6
ByLayer
370
13
48
1
60
0
100
AcDbLine
10
49.5
20
11.172832
30
0
11
32.32
21
11.172832
31
0
39
0
210
0
220
0
230
1
0
SOLID
5
22E
100
AcDbEntity
8
SK2
62
256
6
ByLayer
370
18
48
1
60
0
100
AcDbTrace
10
42
20
11.172832
30
0
11
45.499998
21
11.633616
31
0
12
45.500002
22
10.712048
32
0
13
45.500002
23
10.712048
33
0
39
0
210
0
220
0
230
1
0
SOLID
5
22F
100
AcDbEntity
8
SK2
62
256
6
ByLayer
370
18
48
1
60
0
100
AcDbTrace
10
39.82
20
11.172832
30
0
11
36.320002
21
10.712048
31
0
12
36.319998
22
11.633616
32
0
13
36.319998
23
11.633616
33
0
39
0
210
0
220
0
230
1
0
ENDBLK
5
231
100
AcDbEntity
8
0
100
AcDbBlockEnd
0
BLOCK
5
236
100
AcDbEntity
8
0
100
AcDbBlockBegin
2
*D5
70
1
10
0
20
0
30
0
3
*D5
0
LINE
5
238
100
AcDbEntity
8
0
62
256
6
ByLayer
370
-2
48
1
60
0
100
AcDbLine
10
42
20
-3.711626
30
0
11
42
21
-11.124126
31
0
39
0
210
0
220
0
230
1
0
LINE
5
239
100
AcDbEntity
8
0
62
256
6
ByLayer
370
-2
48
1
60
0
100
AcDbLine
10
35
20
-3.711626
30
0
11
35
21
-11.124126
31
0
39
0
210
0
220
0
230
1
0
LINE
5
23A
100
AcDbEntity
8
0
62
256
6
ByLayer
370
-2
48
1
60
0
100
AcDbLine
10
42
20
-9.124126
30
0
11
60
21
-9.124126
31
0
39
0
210
0
220
0
230
1
0
LINE
5
23B
100
AcDbEntity
8
0
62
256
6
ByLayer
370
-2
48
1
60
0
100
AcDbLine
10
45.5
20
-9.124126
30
0
11
49
21
-9.124126
31
0
39
0
210
0
220
0
230
1
0
LINE
5
23C
100
AcDbEntity
8
0
62
256
6
ByLayer
370
-2
48
1
60
0
100
AcDbLine
10
31.5
20
-9.124126
30
0
11
28
21
-9.124126
31
0
39
0
210
0
220
0
230
1
0
SOLID
5
23D
100
AcDbEntity
8
0
62
256
6
ByLayer
370
-1
48
1
60
0
100
AcDbTrace
10
45.5
20
-8.540792
30
0
11
45.5
21
-9.707459
31
0
12
42
22
-9.124126
32
0
13
42
23
-9.124126
33
0
39
0
210
0
220
0
230
1
0
SOLID
5
23E
100
AcDbEntity
8
0
62
256
6
ByLayer
370
-1
48
1
60
0
100
AcDbTrace
10
31.5
20
-9.707459
30
0
11
31.5
21
-8.540792
31
0
12
35
22
-9.124126
32
0
13
35
23
-9.124126
33
0
39
0
210
0
220
0
230
1
0
MTEXT
5
23F
100
AcDbEntity
8
0
62
256
6
ByLayer
370
18
48
1
60
0
100
AcDbMText
10
54.5
20
-3.124126
30
0
210
0
220
0
230
1
1
\A1;7
40
3
41
0
44
1
50
0
71
5
72
5
7
iso_b_vert
0
POINT
5
240
100
AcDbEntity
8
Defpoints
62
0
6
ByLayer
370
-1
48
1
60
0
100
AcDbPoint
10
42
20
-2.124126
30
0
39
0
210
0
220
0
230
1
50
360
0
POINT
5
241
100
AcDbEntity
8
Defpoints
62
0
6
ByLayer
370
-1
48
1
60
0
100
AcDbPoint
10
35
20
-2.124126
30
0
39
0
210
0
220
0
230
1
50
360
0
POINT
5
242
100
AcDbEntity
8
Defpoints
62
0
6
ByLayer
370
-1
48
1
60
0
100
AcDbPoint
10
35
20
-9.124126
30
0
39
0
210
0
220
0
230
1
50
360
0
ENDBLK
5
237
100
AcDbEntity
8
0
100
AcDbBlockEnd
0
BLOCK
5
24B
100
AcDbEntity
8
0
100
AcDbBlockBegin
2
_U2
70
0
10
0
20
0
30
0
3
_U2
0
MTEXT
5
244
100
AcDbEntity
8
SK2
62
256
6
ByLayer
370
18
48
1
60
0
100
AcDbMText
10
48.159
20
-8.239011
30
0
210
0
220
0
230
1
1
\W0.5404;7
40
3
41
0
44
1.084337
50
0
71
7
72
5
7
iso_b_vert
0
MTEXT
5
245
100
AcDbEntity
8
SK2
62
256
6
ByLayer
370
18
48
1
60
0
100
AcDbMText
10
51.974328
20
-7.88653
30
0
210
0
220
0
230
1
1
\W0.8315;\W0.4158;%%p\W0.8315;0.5
40
2.5
41
0
44
1.084337
50
0
71
7
72
5
7
iso_b_vert
0
LINE
5
246
100
AcDbEntity
8
SK2
62
256
6
ByLayer
370
13
48
1
60
0
100
AcDbLine
10
42
20
-3.711626
30
0
11
42
21
-11.124126
31
0
39
0
210
0
220
0
230
1
0
LINE
5
247
100
AcDbEntity
8
SK2
62
256
6
ByLayer
370
13
48
1
60
0
100
AcDbLine
10
35
20
-3.711626
30
0
11
35
21
-11.124126
31
0
39
0
210
0
220
0
230
1
0
LINE
5
248
100
AcDbEntity
8
SK2
62
256
6
ByLayer
370
13
48
1
60
0
100
AcDbLine
10
27.5
20
-9.124126
30
0
11
59.091065
21
-9.124126
31
0
39
0
210
0
220
0
230
1
0
SOLID
5
249
100
AcDbEntity
8
SK2
62
256
6
ByLayer
370
18
48
1
60
0
100
AcDbTrace
10
42
20
-9.124126
30
0
11
45.499998
21
-8.663342
31
0
12
45.500002
22
-9.584909
32
0
13
45.500002
23
-9.584909
33
0
39
0
210
0
220
0
230
1
0
SOLID
5
24A
100
AcDbEntity
8
SK2
62
256
6
ByLayer
370
18
48
1
60
0
100
AcDbTrace
10
35
20
-9.124126
30
0
11
31.500002
21
-9.584909
31
0
12
31.499998
22
-8.663342
32
0
13
31.499998
23
-8.663342
33
0
39
0
210
0
220
0
230
1
0
ENDBLK
5
24C
100
AcDbEntity
8
0
100
AcDbBlockEnd
0
BLOCK
5
251
100
AcDbEntity
8
0
100
AcDbBlockBegin
2
*D7
70
1
10
0
20
0
30
0
3
*D7
0
LINE
5
253
100
AcDbEntity
8
0
62
256
6
ByLayer
370
-2
48
1
60
0
100
AcDbLine
10
42
20
-3.711626
30
0
11
42
21
-33.624126
31
0
39
0
210
0
220
0
230
1
0
LINE
5
254
100
AcDbEntity
8
0
62
256
6
ByLayer
370
-2
48
1
60
0
100
AcDbLine
10
21
20
-3.0986
30
0
11
21
21
-33.624126
31
0
39
0
210
0
220
0
230
1
0
LINE
5
255
100
AcDbEntity
8
0
62
256
6
ByLayer
370
-2
48
1
60
0
100
AcDbLine
10
38.5
20
-31.624126
30
0
11
24.5
21
-31.624126
31
0
39
0
210
0
220
0
230
1
0
SOLID
5
256
100
AcDbEntity
8
0
62
256
6
ByLayer
370
-1
48
1
60
0
100
AcDbTrace
10
38.5
20
-32.207459
30
0
11
38.5
21
-31.040792
31
0
12
42
22
-31.624126
32
0
13
42
23
-31.624126
33
0
39
0
210
0
220
0
230
1
0
SOLID
5
257
100
AcDbEntity
8
0
62
256
6
ByLayer
370
-1
48
1
60
0
100
AcDbTrace
10
24.5
20
-31.040792
30
0
11
24.5
21
-32.207459
31
0
12
21
22
-31.624126
32
0
13
21
23
-31.624126
33
0
39
0
210
0
220
0
230
1
0
MTEXT
5
258
100
AcDbEntity
8
0
62
256
6
ByLayer
370
18
48
1
60
0
100
AcDbMText
10
31.5
20
-25.624126
30
0
210
0
220
0
230
1
1
\A1;21
40
3
41
0
44
1
50
0
71
5
72
5
7
iso_b_vert
0
POINT
5
259
100
AcDbEntity
8
Defpoints
62
0
6
ByLayer
370
-1
48
1
60
0
100
AcDbPoint
10
42
20
-2.124126
30
0
39
0
210
0
220
0
230
1
50
360
0
POINT
5
25A
100
AcDbEntity
8
Defpoints
62
0
6
ByLayer
370
-1
48
1
60
0
100
AcDbPoint
10
21
20
-1.5111
30
0
39
0
210
0
220
0
230
1
50
360
0
POINT
5
25B
100
AcDbEntity
8
Defpoints
62
0
6
ByLayer
370
-1
48
1
60
0
100
AcDbPoint
10
21
20
-31.624126
30
0
39
0
210
0
220
0
230
1
50
360
0
ENDBLK
5
252
100
AcDbEntity
8
0
100
AcDbBlockEnd
0
BLOCK
5
263
100
AcDbEntity
8
0
100
AcDbBlockBegin
2
_U3
70
0
10
0
20
0
30
0
3
_U3
0
MTEXT
5
25D
100
AcDbEntity
8
SK2
62
256
6
ByLayer
370
18
48
1
60
0
100
AcDbMText
10
30.242115
20
-30.739011
30
0
210
0
220
0
230
1
1
\W0.6351;21
40
3
41
0
44
1.084337
50
0
71
7
72
5
7
iso_b_vert
0
LINE
5
25E
100
AcDbEntity
8
SK2
62
256
6
ByLayer
370
13
48
1
60
0
100
AcDbLine
10
42
20
-3.711626
30
0
11
42
21
-33.624126
31
0
39
0
210
0
220
0
230
1
0
LINE
5
25F
100
AcDbEntity
8
SK2
62
256
6
ByLayer
370
13
48
1
60
0
100
AcDbLine
10
21
20
-3.0986
30
0
11
21
21
-33.624126
31
0
39
0
210
0
220
0
230
1
0
LINE
5
260
100
AcDbEntity
8
SK2
62
256
6
ByLayer
370
13
48
1
60
0
100
AcDbLine
10
42
20
-31.624126
30
0
11
21
21
-31.624126
31
0
39
0
210
0
220
0
230
1
0
SOLID
5
261
100
AcDbEntity
8
SK2
62
256
6
ByLayer
370
18
48
1
60
0
100
AcDbTrace
10
42
20
-31.624126
30
0
11
38.500002
21
-32.084909
31
0
12
38.499998
22
-31.163342
32
0
13
38.499998
23
-31.163342
33
0
39
0
210
0
220
0
230
1
0
SOLID
5
262
100
AcDbEntity
8
SK2
62
256
6
ByLayer
370
18
48
1
60
0
100
AcDbTrace
10
21
20
-31.624126
30
0
11
24.499998
21
-31.163342
31
0
12
24.500002
22
-32.084909
32
0
13
24.500002
23
-32.084909
33
0
39
0
210
0
220
0
230
1
0
ENDBLK
5
264
100
AcDbEntity
8
0
100
AcDbBlockEnd
0
BLOCK
5
269
100
AcDbEntity
8
0
100
AcDbBlockBegin
2
*D9
70
1
10
0
20
0
30
0
3
*D9
0
LINE
5
26B
100
AcDbEntity
8
0
62
256
6
ByLayer
370
-2
48
1
60
0
100
AcDbLine
10
42
20
-3.711626
30
0
11
42
21
-22.624126
31
0
39
0
210
0
220
0
230
1
0
LINE
5
26C
100
AcDbEntity
8
0
62
256
6
ByLayer
370
-2
48
1
60
0
100
AcDbLine
10
24.15
20
-1.5875
30
0
11
24.15
21
-22.624126
31
0
39
0
210
0
220
0
230
1
0
LINE
5
26D
100
AcDbEntity
8
0
62
256
6
ByLayer
370
-2
48
1
60
0
100
AcDbLine
10
38.5
20
-20.624126
30
0
11
27.65
21
-20.624126
31
0
39
0
210
0
220
0
230
1
0
SOLID
5
26E
100
AcDbEntity
8
0
62
256
6
ByLayer
370
-1
48
1
60
0
100
AcDbTrace
10
38.5
20
-21.207459
30
0
11
38.5
21
-20.040792
31
0
12
42
22
-20.624126
32
0
13
42
23
-20.624126
33
0
39
0
210
0
220
0
230
1
0
SOLID
5
26F
100
AcDbEntity
8
0
62
256
6
ByLayer
370
-1
48
1
60
0
100
AcDbTrace
10
27.65
20
-20.040792
30
0
11
27.65
21
-21.207459
31
0
12
24.15
22
-20.624126
32
0
13
24.15
23
-20.624126
33
0
39
0
210
0
220
0
230
1
0
MTEXT
5
270
100
AcDbEntity
8
0
62
256
6
ByLayer
370
18
48
1
60
0
100
AcDbMText
10
33.075
20
-14.624126
30
0
210
0
220
0
230
1
1
\A1;17.9
40
3
41
0
44
1
50
0
71
5
72
5
7
iso_b_vert
0
POINT
5
271
100
AcDbEntity
8
Defpoints
62
0
6
ByLayer
370
-1
48
1
60
0
100
AcDbPoint
10
42
20
-2.124126
30
0
39
0
210
0
220
0
230
1
50
360
0
POINT
5
272
100
AcDbEntity
8
Defpoints
62
0
6
ByLayer
370
-1
48
1
60
0
100
AcDbPoint
10
24.15
20
0
30
0
39
0
210
0
220
0
230
1
50
360
0
POINT
5
273
100
AcDbEntity
8
Defpoints
62
0
6
ByLayer
370
-1
48
1
60
0
100
AcDbPoint
10
24.15
20
-20.624126
30
0
39
0
210
0
220
0
230
1
50
360
0
ENDBLK
5
26A
100
AcDbEntity
8
0
100
AcDbBlockEnd
0
BLOCK
5
27B
100
AcDbEntity
8
0
100
AcDbBlockBegin
2
_U4
70
0
10
0
20
0
30
0
3
_U4
0
MTEXT
5
275
100
AcDbEntity
8
2
62
256
6
ByLayer
370
18
48
1
60
0
100
AcDbMText
10
30.088486
20
-19.739011
30
0
210
0
220
0
230
1
1
\W0.6563;17.8
40
3
41
0
44
1.084337
50
0
71
7
72
5
7
iso_b_vert
0
LINE
5
276
100
AcDbEntity
8
2
62
256
6
ByLayer
370
13
48
1
60
0
100
AcDbLine
10
42
20
-3.711626
30
0
11
42
21
-22.624126
31
0
39
0
210
0
220
0
230
1
0
LINE
5
277
100
AcDbEntity
8
2
62
256
6
ByLayer
370
13
48
1
60
0
100
AcDbLine
10
24.15
20
-1.5875
30
0
11
24.15
21
-22.624126
31
0
39
0
210
0
220
0
230
1
0
LINE
5
278
100
AcDbEntity
8
2
62
256
6
ByLayer
370
13
48
1
60
0
100
AcDbLine
10
42
20
-20.624126
30
0
11
24.15
21
-20.624126
31
0
39
0
210
0
220
0
230
1
0
SOLID
5
279
100
AcDbEntity
8
2
62
256
6
ByLayer
370
18
48
1
60
0
100
AcDbTrace
10
42
20
-20.624126
30
0
11
38.500002
21
-21.084909
31
0
12
38.499998
22
-20.163342
32
0
13
38.499998
23
-20.163342
33
0
39
0
210
0
220
0
230
1
0
SOLID
5
27A
100
AcDbEntity
8
2
62
256
6
ByLayer
370
18
48
1
60
0
100
AcDbTrace
10
24.15
20
-20.624126
30
0
11
27.649998
21
-20.163342
31
0
12
27.650002
22
-21.084909
32
0
13
27.650002
23
-21.084909
33
0
39
0
210
0
220
0
230
1
0
ENDBLK
5
27C
100
AcDbEntity
8
0
100
AcDbBlockEnd
0
ENDSEC
0
SECTION
2
ENTITIES
0
ARC
5
D4
100
AcDbEntity
8
SK1
62
256
6
ByLayer
370
18
48
1
60
0
100
AcDbCircle
39
0
10
-16.7
20
0
30
0
40
2.1600000000001
210
0
220
0
230
1
100
AcDbArc
50
321.909474
51
38.090526
0
ARC
5
D5
100
AcDbEntity
8
1
62
256
6
ByLayer
370
18
48
1
60
0
100
AcDbCircle
39
0
10
33.66567
20
2.0111
30
0
40
0.5
210
0
220
0
230
1
100
AcDbArc
50
270
51
300
0
ARC
5
D6
100
AcDbEntity
8
1
62
256
6
ByLayer
370
18
48
1
60
0
100
AcDbCircle
39
0
10
21.043744
20
-2.0111
30
0
40
0.5
210
0
220
0
230
1
100
AcDbArc
50
90
51
100
0
ARC
5
D7
100
AcDbEntity
8
1
62
256
6
ByLayer
370
18
48
1
60
0
100
AcDbCircle
39
0
10
21.043744
20
2.0111
30
0
40
0.5
210
0
220
0
230
1
100
AcDbArc
50
260
51
270
0
POINT
5
70
100
AcDbEntity
8
81
62
256
6
ByLayer
370
18
48
1
60
0
100
AcDbPoint
10
42.2
20
0
30
0
39
0
210
0
220
0
230
1
50
360
0
POINT
5
72
100
AcDbEntity
8
80
62
256
6
ByLayer
370
18
48
1
60
0
100
AcDbPoint
10
0
20
0
30
0
39
0
210
0
220
0
230
1
50
360
0
POINT
5
74
100
AcDbEntity
8
1
62
256
6
ByLayer
370
18
48
1
60
1
100
AcDbPoint
10
42
20
2.124126
30
0
39
0
210
0
220
0
230
1
50
360
0
POINT
5
76
100
AcDbEntity
8
1
62
256
6
ByLayer
370
18
48
1
60
1
100
AcDbPoint
10
42
20
-2.124126
30
0
39
0
210
0
220
0
230
1
50
360
0
POINT
5
77
100
AcDbEntity
8
1
62
256
6
ByLayer
370
18
48
1
60
1
100
AcDbPoint
10
42
20
2.124126
30
0
39
0
210
0
220
0
230
1
50
360
0
POINT
5
78
100
AcDbEntity
8
1
62
256
6
ByLayer
370
18
48
1
60
1
100
AcDbPoint
10
39.82
20
0
30
0
39
0
210
0
220
0
230
1
50
360
0
POINT
5
79
100
AcDbEntity
8
1
62
256
6
ByLayer
370
18
48
1
60
1
100
AcDbPoint
10
42
20
-2.124126
30
0
39
0
210
0
220
0
230
1
50
360
0
POINT
5
7A
100
AcDbEntity
8
1
62
256
6
ByLayer
370
18
48
1
60
1
100
AcDbPoint
10
35
20
-2.124126
30
0
39
0
210
0
220
0
230
1
50
360
0
POINT
5
7B
100
AcDbEntity
8
1
62
256
6
ByLayer
370
18
48
1
60
1
100
AcDbPoint
10
42
20
-2.124126
30
0
39
0
210
0
220
0
230
1
50
360
0
POINT
5
7C
100
AcDbEntity
8
1
62
256
6
ByLayer
370
18
48
1
60
1
100
AcDbPoint
10
21
20
-1.5111
30
0
39
0
210
0
220
0
230
1
50
360
0
POINT
5
7D
100
AcDbEntity
8
1
62
256
6
ByLayer
370
18
48
1
60
1
100
AcDbPoint
10
42
20
-2.124126
30
0
39
0
210
0
220
0
230
1
50
360
0
POINT
5
7E
100
AcDbEntity
8
1
62
256
6
ByLayer
370
18
48
1
60
1
100
AcDbPoint
10
24.15
20
0
30
0
39
0
210
0
220
0
230
1
50
360
0
SPLINE
5
D8
100
AcDbEntity
8
1
62
256
6
ByLayer
370
18
48
1
60
0
100
AcDbSpline
70
4
71
3
72
8
73
4
40
0
40
0
40
0
40
0
40
1
40
1
40
1
40
1
41
1.04
10
37.1074881266763
20
-1.64641089762692
30
0
41
1.04
10
37.1053372548049
20
-1.65135071012462
30
0
41
1.04
10
37.1031896062194
20
-1.65556861010738
30
0
41
1.04
10
37.1010450150756
20
-1.65906700324876
30
0
0
SPLINE
5
D9
100
AcDbEntity
8
1
62
256
6
ByLayer
370
13
48
1
60
0
100
AcDbSpline
70
4
71
3
72
8
73
4
40
0
40
0
40
0
40
0
40
1
40
1
40
1
40
1
41
1.04
10
41.0695164996426
20
-1.66002927876494
30
0
41
1.04
10
41.0618787966995
20
-1.67194144870821
30
0
41
1.04
10
41.0542471368902
20
-1.67461672007778
30
0
41
1.04
10
41.0466136851792
20
-1.66824686246902
30
0
0
SPLINE
5
DA
100
AcDbEntity
8
1
62
256
6
ByLayer
370
13
48
1
60
0
100
AcDbSpline
70
4
71
3
72
9
73
5
40
0
40
0
40
0
40
0
40
0.129584526198601
40
1
40
1
40
1
40
1
41
1
10
37.6789996640193
20
1.67160476470025
30
0
41
1
10
37.6784516992956
20
1.67147862481326
30
0
41
1
10
37.6742242206934
20
1.67013320599085
30
0
41
1
10
37.6700064672894
20
1.66590555751009
30
0
41
1
10
37.666342513724
20
1.66012345814323
30
0
0
SPLINE
5
DB
100
AcDbEntity
8
1
62
256
6
ByLayer
370
18
48
1
60
0
100
AcDbSpline
70
4
71
3
72
8
73
4
40
0
40
0
40
0
40
0
40
1
40
1
40
1
40
1
41
1
10
37.6663429409979
20
1.66012413241611
30
0
41
1
10
37.6644618991552
20
1.65715573733559
30
0
41
1
10
37.6625827666879
20
1.65363324006265
30
0
41
1
10
37.6607055268476
20
1.64956764913907
30
0
0
SPLINE
5
DC
100
AcDbEntity
8
1
62
256
6
ByLayer
370
13
48
1
60
0
100
AcDbSpline
70
4
71
3
72
8
73
4
40
0
40
0
40
0
40
0
40
1
40
1
40
1
40
1
41
1
10
36.4754313792325
20
-1.6595363264403
30
0
41
1
10
36.4712540530372
20
-1.65294652199191
30
0
41
1
10
36.4670872394312
20
-1.64366348923659
30
0
41
1
10
36.462928466544
20
-1.63173430032853
30
0
0
SPLINE
5
DD
100
AcDbEntity
8
1
62
256
6
ByLayer
370
18
48
1
60
0
100
AcDbSpline
70
4
71
3
72
12
73
8
40
0
40
0
40
0
40
0
40
0.102747593537428
40
0.102747593537428
40
0.401831729024952
40
0.401831729024952
40
1
40
1
40
1
40
1
41
1
10
40.9926352393145
20
-1.78681424188426
30
0
41
1
10
40.9921635750333
20
-1.78692161668442
30
0
41
1
10
40.9916930613328
20
-1.7869532753798
30
0
41
1
10
40.9898574653773
20
-1.78677945598548
30
0
41
1
10
40.9884980437657
20
-1.78600146056314
30
0
41
1
10
40.9844725815999
20
-1.78171780591427
30
0
41
1
10
40.981865240846
20
-1.77628750228124
30
0
41
1
10
40.9793263071533
20
-1.76832394357245
30
0
0
SPLINE
5
DE
100
AcDbEntity
8
1
62
256
6
ByLayer
370
18
48
1
60
0
100
AcDbSpline
70
4
71
3
72
10
73
6
40
0
40
0
40
0
40
0
40
0.944336970607597
40
0.944336970607597
40
1
40
1
40
1
40
1
41
1
10
40.528968469467
20
-1.76250748137758
30
0
41
1
10
40.5395584487239
20
-1.80566636164778
30
0
41
1
10
40.5501385072637
20
-1.83766468241228
30
0
41
1
10
40.5610560021209
20
-1.85953524300646
30
0
41
1
10
40.5616629411159
20
-1.86071313891375
30
0
41
1
10
40.5622691486612
20
-1.86185138168034
30
0
0
SPLINE
5
DF
100
AcDbEntity
8
1
62
256
6
ByLayer
370
18
48
1
60
0
100
AcDbSpline
70
4
71
3
72
8
73
4
40
0
40
0
40
0
40
0
40
1
40
1
40
1
40
1
41
1
10
40.5761715607023
20
-1.88102846924639
30
0
41
1
10
40.5808677529717
20
-1.88509653560456
30
0
41
1
10
40.5854667673999
20
-1.88656484871257
30
0
41
1
10
40.589985340727
20
-1.88550333803599
30
0
0
SPLINE
5
E0
100
AcDbEntity
8
1
62
256
6
ByLayer
370
13
48
1
60
0
100
AcDbSpline
70
4
71
3
72
8
73
4
40
0
40
0
40
0
40
0
40
1
40
1
40
1
40
1
41
1.04
10
38.3131394506383
20
1.60107193460378
30
0
41
1.04
10
38.3064012214997
20
1.62682541844936
30
0
41
1.04
10
38.2997317597877
20
1.64531022383793
30
0
41
1.04
10
38.2931284462961
20
1.65689761599526
30
0
0
SPLINE
5
E1
100
AcDbEntity
8
1
62
256
6
ByLayer
370
13
48
1
60
0
100
AcDbSpline
70
4
71
3
72
8
73
4
40
0
40
0
40
0
40
0
40
1
40
1
40
1
40
1
41
1
10
40.4419296075487
20
-1.65525537166707
30
0
41
1
10
40.432152947803
20
-1.63726039593087
30
0
41
1
10
40.4223649973761
20
-1.60456110872758
30
0
41
1
10
40.412554710666
20
-1.55736507403748
30
0
0
SPLINE
5
E2
100
AcDbEntity
8
1
62
256
6
ByLayer
370
13
48
1
60
0
100
AcDbSpline
70
4
71
3
72
9
73
5
40
0
40
0
40
0
40
0
40
0.668496511894607
40
1
40
1
40
1
40
1
41
1.04
10
34.3629890135018
20
1.5110420886425
30
0
41
1.04
10
34.3539535607029
20
1.56212411368084
30
0
41
1.04
10
34.3402882620419
20
1.62202959027788
30
0
41
1.04
10
34.3267093115995
20
1.65278759136674
30
0
41
1.04
10
34.322216497407
20
1.65981997204912
30
0
0
SPLINE
5
E3
100
AcDbEntity
8
1
62
256
6
ByLayer
370
13
48
1
60
0
100
AcDbSpline
70
4
71
3
72
9
73
5
40
0
40
0
40
0
40
0
40
0.88849154901883
40
1
40
1
40
1
40
1
41
1.04
10
36.3058173116751
20
-1.66091260923472
30
0
41
1.04
10
36.2892774591506
20
-1.68526749162668
30
0
41
1.04
10
36.2709375334896
20
-1.66472096967441
30
0
41
1.04
10
36.2527218908545
20
-1.59354274188924
30
0
41
1.04
10
36.2506921508643
20
-1.58499255675626
30
0
0
SPLINE
5
E4
100
AcDbEntity
8
1
62
256
6
ByLayer
370
13
48
1
60
0
100
AcDbSpline
70
4
71
3
72
9
73
5
40
0
40
0
40
0
40
0
40
0.911533243879649
40
1
40
1
40
1
40
1
41
1.04
10
40.2706932190949
20
-1.66649202154955
30
0
41
1.04
10
40.2493536728129
20
-1.68860225492429
30
0
41
1.04
10
40.2259362468361
20
-1.63473491611944
30
0
41
1.04
10
40.202372541927
20
-1.49776660324448
30
0
41
1.04
10
40.2002871693209
20
-1.48502625498177
30
0
0
SPLINE
5
E5
100
AcDbEntity
8
1
62
256
6
ByLayer
370
13
48
1
60
0
100
AcDbSpline
70
4
71
3
72
9
73
5
40
0
40
0
40
0
40
0
40
0.205543549505183
40
1
40
1
40
1
40
1
41
1
10
35.6824052357804
20
-1.66144395884513
30
0
41
1
10
35.6779059544078
20
-1.6546777763964
30
0
41
1
10
35.655995435532
20
-1.60609638952994
30
0
41
1
10
35.6339157978841
20
-1.48033545316991
30
0
41
1
10
35.6166617783314
20
-1.34538679949529
30
0
0
SPLINE
5
E6
100
AcDbEntity
8
1
62
256
6
ByLayer
370
13
48
1
60
0
100
AcDbSpline
70
4
71
3
72
10
73
6
40
0
40
0
40
0
40
0
40
0.0597366575082819
40
0.96473854692915
40
1
40
1
40
1
40
1
41
1
10
38.5254004274748
20
1.54176630119801
30
0
41
1
10
38.5240762770001
20
1.54861943558589
30
0
41
1
10
38.5027285392907
20
1.65488914391511
30
0
41
1
10
38.4813118296947
20
1.6891857822994
30
0
41
1
10
38.4617547972466
20
1.66233453651896
30
0
41
1
10
38.4610221763137
20
1.66124519126097
30
0
0
SPLINE
5
E7
100
AcDbEntity
8
1
62
256
6
ByLayer
370
13
48
1
60
0
100
AcDbSpline
70
4
71
3
72
9
73
5
40
0
40
0
40
0
40
0
40
0.283164253980101
40
1
40
1
40
1
40
1
41
1.04
10
39.1595702387306
20
1.26779097197009
30
0
41
1.04
10
39.1524442955451
20
1.32943796351448
30
0
41
1.04
10
39.1275331658364
20
1.5243305852066
30
0
41
1.04
10
39.1040598906267
20
1.62526467938022
30
0
41
1.04
10
39.087725576606
20
1.65529200504568
30
0
0
SPLINE
5
E8
100
AcDbEntity
8
1
62
256
6
ByLayer
370
18
48
1
60
0
100
AcDbSpline
70
4
71
3
72
8
73
4
40
0
40
0
40
0
40
0
40
1
40
1
40
1
40
1
41
1
10
39.6494437489187
20
-1.65711199875625
30
0
41
1
10
39.6471804679891
20
-1.65326805381932
30
0
41
1
10
39.6449190938697
20
-1.64865446075706
30
0
41
1
10
39.6426610543712
20
-1.64327759974924
30
0
0
SPLINE
5
E9
100
AcDbEntity
8
1
62
256
6
ByLayer
370
13
48
1
60
0
100
AcDbSpline
70
4
71
3
72
9
73
5
40
0
40
0
40
0
40
0
40
0.192799795518431
40
1
40
1
40
1
40
1
41
1
10
39.6426610543713
20
-1.6432775997493
30
0
41
1
10
39.6375940969306
20
-1.63121212175037
30
0
41
1
10
39.6114002600791
20
-1.54869743357168
30
0
41
1
10
39.5860921533729
20
-1.36472814510225
30
0
41
1
10
39.5661639808765
20
-1.17730570628595
30
0
0
SPLINE
5
EA
100
AcDbEntity
8
1
62
256
6
ByLayer
370
18
48
1
60
0
100
AcDbSpline
70
4
71
3
72
23
73
19
40
0
40
0
40
0
40
0
40
0.0454597277004079
40
0.0454597277004079
40
0.125004750392041
40
0.125004750392041
40
0.204549773083673
40
0.204549773083673
40
0.363639818466938
40
0.363639818466938
40
0.522729863850203
40
0.681819909233469
40
0.681819909233469
40
0.761364931925102
40
0.761364931925102
40
0.840909954616734
40
0.840909954616734
40
1
40
1
40
1
40
1
41
1
10
40.0637096438248
20
-2.01297837847227
30
0
41
1
10
40.0629271449765
20
-2.01245503846556
30
0
41
1
10
40.0621512936194
20
-2.01167987040066
30
0
41
1
10
40.0600362042596
20
-2.00885595751697
30
0
41
1
10
40.0587096483617
20
-2.00628140734102
30
0
41
1
10
40.0560915929906
20
-1.99954852372085
30
0
41
1
10
40.0547995391831
20
-1.99538231362263
30
0
41
1
10
40.0510091639758
20
-1.980640306151
30
0
41
1
10
40.04858506804
20
-1.96779270353136
30
0
41
1
10
40.0438522297886
20
-1.93623165492161
30
0
41
1
10
40.0392112647059
20
-1.89884194068804
30
0
41
1
10
40.0343473433032
20
-1.85011548737441
30
0
41
1
10
40.0304872888158
20
-1.80925213688877
30
0
41
1
10
40.029164227737
20
-1.79492294579114
30
0
41
1
10
40.0264722916726
20
-1.76506840123156
30
0
41
1
10
40.0251026524843
20
-1.74951427874245
30
0
41
1
10
40.0209552123654
20
-1.70096848648586
30
0
41
1
10
40.0181424617386
20
-1.66609497518789
30
0
41
1
10
40.0153560724846
20
-1.62864154196828
30
0
0
SPLINE
5
EB
100
AcDbEntity
8
1
62
256
6
ByLayer
370
18
48
1
60
0
100
AcDbSpline
70
4
71
3
72
23
73
19
40
0
40
0
40
0
40
0
40
0.277026490735238
40
0.277026490735238
40
0.346283113419047
40
0.346283113419047
40
0.415539736102857
40
0.415539736102857
40
0.554052981470476
40
0.554052981470476
40
0.692566226838096
40
0.692566226838096
40
0.761822849521906
40
0.761822849521906
40
0.831079472205717
40
0.831079472205717
40
0.969592717573338
40
1
40
1
40
1
40
1
41
1
10
39.7727296411537
20
-1.51797295263185
30
0
41
1
10
39.783315521327
20
-1.60973157276663
30
0
41
1
10
39.7937340051945
20
-1.691000031925
30
0
41
1
10
39.806954528283
20
-1.77916534385059
30
0
41
1
10
39.8096201829145
20
-1.79616824124162
30
0
41
1
10
39.8149553803149
20
-1.82853767070773
30
0
41
1
10
39.8176256513785
20
-1.84391437308724
30
0
41
1
10
39.8256677703991
20
-1.88766918886677
30
0
41
1
10
39.8310732190886
20
-1.91368035006244
30
0
41
1
10
39.8420418599284
20
-1.95943542518097
30
0
41
1
10
39.8476075832933
20
-1.97917958896841
30
0
41
1
10
39.8559012963613
20
-2.00396835759295
30
0
41
1
10
39.858655931129
20
-2.01142222949005
30
0
41
1
10
39.8641302349264
20
-2.02467436023889
30
0
41
1
10
39.8668541114988
20
-2.0304761219021
30
0
41
1
10
39.8748919633694
20
-2.04521415621943
30
0
41
1
10
39.8812383656148
20
-2.05295807379915
30
0
41
1
10
39.8874091659648
20
-2.05560717062715
30
0
41
1
10
39.8885151293566
20
-2.05591812222821
30
0
0
SPLINE
5
EC
100
AcDbEntity
8
1
62
256
6
ByLayer
370
13
48
1
60
0
100
AcDbSpline
70
4
71
3
72
10
73
6
40
0
40
0
40
0
40
0
40
0.154690417824284
40
0.510628283493787
40
1
40
1
40
1
40
1
41
1
10
34.5752684033429
20
1.42826835997664
30
0
41
1
10
34.5711343755926
20
1.45668995347256
30
0
41
1
10
34.557419623488
20
1.54337346014924
30
0
41
1
10
34.5300628013808
20
1.66292257869523
30
0
41
1
10
34.5071851488653
20
1.68060977793161
30
0
41
1
10
34.4940020918722
20
1.66392734101595
30
0
0
SPLINE
5
ED
100
AcDbEntity
8
1
62
256
6
ByLayer
370
18
48
1
60
0
100
AcDbSpline
70
4
71
3
72
8
73
4
40
0
40
0
40
0
40
0
40
1
40
1
40
1
40
1
41
1
10
34.4940020298452
20
1.66392726252411
30
0
41
1
10
34.492047656614
20
1.66145409763746
30
0
41
1
10
34.4900946330661
20
1.65838924806252
30
0
41
1
10
34.4881428892061
20
1.65473603546533
30
0
0
SPLINE
5
EE
100
AcDbEntity
8
1
62
256
6
ByLayer
370
13
48
1
60
0
100
AcDbSpline
70
4
71
3
72
9
73
5
40
0
40
0
40
0
40
0
40
0.0069202328405661
40
1
40
1
40
1
40
1
41
1.04
10
35.2094562056435
20
1.09188107426902
30
0
41
1.04
10
35.2092613631634
20
1.09382833957001
30
0
41
1.04
10
35.181099502088
20
1.37471459315627
30
0
41
1.04
10
35.1520131313078
20
1.58269628825223
30
0
41
1.04
10
35.1222213428323
20
1.64877246767008
30
0
0
SPLINE
5
EF
100
AcDbEntity
8
1
62
256
6
ByLayer
370
18
48
1
60
0
100
AcDbSpline
70
4
71
3
72
22
73
18
40
0
40
0
40
0
40
0
40
0.249999999999999
40
0.249999999999999
40
0.312499999999999
40
0.312499999999999
40
0.374999999999998
40
0.374999999999998
40
0.499999999999999
40
0.499999999999999
40
0.75
40
0.75
40
0.875
40
0.875
40
0.9375
40
0.9375
40
1
40
1
40
1
40
1
41
1
10
34.9386076122748
20
1.49950926055797
30
0
41
1
10
34.9319315394821
20
1.57638162033839
30
0
41
1
10
34.9252823535462
20
1.64708394153399
30
0
41
1
10
34.917075863765
20
1.7276801109453
30
0
41
1
10
34.915438979276
20
1.74340807572977
30
0
41
1
10
34.912172615562
20
1.77407079128903
30
0
41
1
10
34.9105410208627
20
1.78902436714819
30
0
41
1
10
34.9056674988603
20
1.83254803246629
30
0
41
1
10
34.9024711660262
20
1.85957316581525
30
0
41
1
10
34.8929854954334
20
1.9348458899087
30
0
41
1
10
34.8868033416209
20
1.97732344353278
30
0
41
1
10
34.8774369653684
20
2.02953107553603
30
0
41
1
10
34.874298246807
20
2.04500728555425
30
0
41
1
10
34.869519123393
20
2.06526105145767
30
0
41
1
10
34.8679106214998
20
2.07153021645118
30
0
41
1
10
34.8646828979515
20
2.08298948586472
30
0
41
1
10
34.8630637972578
20
2.08818229325436
30
0
41
1
10
34.8614359353945
20
2.09284678290351
30
0
0
SPLINE
5
F0
100
AcDbEntity
8
1
62
256
6
ByLayer
370
13
48
1
60
0
100
AcDbSpline
70
4
71
3
72
10
73
6
40
0
40
0
40
0
40
0
40
0.237797381079201
40
0.90305449183171
40
1
40
1
40
1
40
1
41
1.04
10
35.4916510063542
20
-1.67024953027565
30
0
41
1.04
10
35.4847295351896
20
-1.66590872061669
30
0
41
1.04
10
35.4584199491276
20
-1.62062314486313
30
0
41
1.04
10
35.4290149678506
20
-1.44679672319947
30
0
41
1.04
10
35.407144260582
20
-1.25933967124088
30
0
41
1.04
10
35.4043702381133
20
-1.23466612162715
30
0
0
SPLINE
5
F1
100
AcDbEntity
8
1
62
256
6
ByLayer
370
13
48
1
60
0
100
AcDbSpline
70
4
71
3
72
9
73
5
40
0
40
0
40
0
40
0
40
0.0395823387318113
40
1
40
1
40
1
40
1
41
1
10
34.8574870461034
20
-1.56375816272393
30
0
41
1
10
34.8563101845251
20
-1.55830944639934
30
0
41
1
10
34.826614687925
20
-1.41566147012034
30
0
41
1
10
34.7979547342383
20
-1.14806724048887
30
0
41
1
10
34.7702344751141
20
-0.829438725924547
30
0
0
SPLINE
5
F2
100
AcDbEntity
8
1
62
256
6
ByLayer
370
13
48
1
60
0
100
AcDbSpline
70
4
71
3
72
8
73
4
40
0
40
0
40
0
40
0
40
1
40
1
40
1
40
1
41
1.04
10
34.6452230046566
20
-1.49400276252286
30
0
41
1.04
10
34.61571070124
20
-1.31938989112088
30
0
41
1.04
10
34.587082425091
20
-1.02582194475726
30
0
41
1.04
10
34.5580281557501
20
-0.67406627333806
30
0
0
SPLINE
5
F3
100
AcDbEntity
8
1
62
256
6
ByLayer
370
13
48
1
60
0
100
AcDbSpline
70
4
71
3
72
9
73
5
40
0
40
0
40
0
40
0
40
0.387626943401153
40
1
40
1
40
1
40
1
41
1
10
39.3718092513954
20
1.14750757054742
30
0
41
1
10
39.3598496033499
20
1.26235795149401
30
0
41
1
10
39.3293047579989
20
1.51740583124172
30
0
41
1
10
39.3008755082921
20
1.63396330307668
30
0
41
1
10
39.283985200146
20
1.66013392131217
30
0
0
SPLINE
5
F4
100
AcDbEntity
8
1
62
256
6
ByLayer
370
18
48
1
60
0
100
AcDbSpline
70
4
71
3
72
23
73
19
40
0
40
0
40
0
40
0
40
0.249999999999996
40
0.249999999999996
40
0.281249999999996
40
0.281249999999996
40
0.312499999999996
40
0.374999999999997
40
0.374999999999997
40
0.499999999999997
40
0.499999999999997
40
0.624999999999997
40
0.624999999999997
40
0.687499999999997
40
0.687499999999997
40
0.749999999999998
40
0.749999999999998
40
1
40
1
40
1
40
1
41
1
10
39.5200971733348
20
2.02091668525131
30
0
41
1
10
39.5306518953272
20
1.99620745578397
30
0
41
1
10
39.5412915113245
20
1.9577808565947
30
0
41
1
10
39.5537118795011
20
1.89882050056923
30
0
41
1
10
39.5550989012049
20
1.89204251931136
30
0
41
1
10
39.5578700252948
20
1.87811492184454
30
0
41
1
10
39.5620280011388
20
1.85664419945277
30
0
41
1
10
39.5661828196436
20
1.83344265030095
30
0
41
1
10
39.5745005963634
20
1.78478639021088
30
0
41
1
10
39.5800673338094
20
1.74935534739686
30
0
41
1
10
39.5911567324211
20
1.67266321515655
30
0
41
1
10
39.5966773896869
20
1.63140257366004
30
0
41
1
10
39.6048991221035
20
1.56504271822394
30
0
41
1
10
39.6076333812944
20
1.542148923773
30
0
41
1
10
39.6130710882553
20
1.49493707063709
30
0
41
1
10
39.615760486195
20
1.47074310938581
30
0
41
1
10
39.6290721484087
20
1.34684305070903
30
0
41
1
10
39.6391889047571
20
1.23836327116547
30
0
41
1
10
39.6496254453295
20
1.12027853483195
30
0
0
SPLINE
5
F5
100
AcDbEntity
8
1
62
256
6
ByLayer
370
18
48
1
60
0
100
AcDbSpline
70
4
71
3
72
24
73
20
40
0
40
0
40
0
40
0
40
0.250000000000001
40
0.250000000000001
40
0.312500000000001
40
0.312500000000001
40
0.375000000000001
40
0.375000000000001
40
0.5
40
0.5
40
0.625
40
0.625
40
0.6875
40
0.6875
40
0.75
40
0.75
40
0.875
40
0.875
40
1
40
1
40
1
40
1
41
1
10
39.7564594749014
20
1.01844397483811
30
0
41
1
10
39.7509489457801
20
1.1316720100763
30
0
41
1
10
39.7456672281767
20
1.23741509553611
30
0
41
1
10
39.7393078575109
20
1.36008729371736
30
0
41
1
10
39.7380462361965
20
1.38419477362697
30
0
41
1
10
39.7355472208044
20
1.43116885447787
30
0
41
1
10
39.7343115833555
20
1.45398643524388
30
0
41
1
10
39.7306144489714
20
1.52049789269031
30
0
41
1
10
39.7281580207629
20
1.56225816870654
30
0
41
1
10
39.7231570756336
20
1.64078234099358
30
0
41
1
10
39.720617870809
20
1.67754500143656
30
0
41
1
10
39.7167457598226
20
1.72888686986369
30
0
41
1
10
39.7154448739283
20
1.74536541075932
30
0
41
1
10
39.7128261081122
20
1.77702102137246
30
0
41
1
10
39.7115051487111
20
1.79223040047921
30
0
41
1
10
39.7075565786308
20
1.83550961249992
30
0
41
1
10
39.7049485954208
20
1.86127644102538
30
0
41
1
10
39.6996819109627
20
1.90682070227294
30
0
41
1
10
39.6970214360595
20
1.92660096077913
30
0
41
1
10
39.6943114136377
20
1.94334146835951
30
0
0
SPLINE
5
F6
100
AcDbEntity
8
1
62
256
6
ByLayer
370
13
48
1
60
0
100
AcDbSpline
70
4
71
3
72
10
73
6
40
0
40
0
40
0
40
0
40
0.0707008693371033
40
0.599571247507295
40
1
40
1
40
1
40
1
41
1.04
10
40.0060316946911
20
0.718956432749296
30
0
41
1.04
10
40.0039331327935
20
0.744056515650999
30
0
41
1.04
10
39.9861631025661
20
0.954008696330751
30
0
41
1.04
10
39.9568444697995
20
1.25967724810667
30
0
41
1.04
10
39.9298678528851
20
1.45426566228098
30
0
41
1.04
10
39.9182107736106
20
1.51893649570358
30
0
0
SPLINE
5
F7
100
AcDbEntity
8
1
62
256
6
ByLayer
370
13
48
1
60
0
100
AcDbSpline
70
4
71
3
72
9
73
5
40
0
40
0
40
0
40
0
40
0.135443926811724
40
1
40
1
40
1
40
1
41
1.04
10
39.441771061754
20
-1.63868497182758
30
0
41
1.04
10
39.4376616952653
20
-1.62814873817533
30
0
41
1.04
10
39.407418239906
20
-1.53166295434699
30
0
41
1.04
10
39.3783583363519
20
-1.29906604065336
30
0
41
1.04
10
39.3539737018616
20
-1.04761412397715
30
0
0
SPLINE
5
F8
100
AcDbEntity
8
1
62
256
6
ByLayer
370
13
48
1
60
0
100
AcDbSpline
70
4
71
3
72
9
73
5
40
0
40
0
40
0
40
0
40
0.157687788587299
40
1
40
1
40
1
40
1
41
1
10
41.0647458103482
20
-0.128130117407949
30
0
41
1
10
41.0601207045908
20
-0.0671178498891152
30
0
41
1
10
41.0307682817875
20
0.321582176994099
30
0
41
1
10
41.0015132846302
20
0.704252583598816
30
0
41
1
10
40.9767548044993
20
0.971185313633754
30
0
0
SPLINE
5
F9
100
AcDbEntity
8
1
62
256
6
ByLayer
370
18
48
1
60
0
100
AcDbSpline
70
4
71
3
72
22
73
18
40
0
40
0
40
0
40
0
40
0.249999999999999
40
0.249999999999999
40
0.374999999999998
40
0.374999999999998
40
0.437499999999998
40
0.437499999999998
40
0.499999999999998
40
0.499999999999998
40
0.75
40
0.75
40
0.8125
40
0.8125
40
0.875
40
0.875
40
1
40
1
40
1
40
1
41
1
10
41.0342214538694
20
0.99855190531548
30
0
41
1
10
41.0441631738528
20
0.910107882677409
30
0
41
1
10
41.0537903542282
20
0.816717385866497
30
0
41
1
10
41.0678031902246
20
0.669390845100963
30
0
41
1
10
41.0724004129025
20
0.619062892506804
30
0
41
1
10
41.0792260340887
20
0.541702191327175
30
0
41
1
10
41.0814956085056
20
0.515538122553409
30
0
41
1
10
41.085979540529
20
0.463076624475093
30
0
41
1
10
41.0881971548437
20
0.436744531186093
30
0
41
1
10
41.0991912745798
20
0.304588862279218
30
0
41
1
10
41.1076858478182
20
0.19729448082137
30
0
41
1
10
41.1183625403773
20
0.0612439940935872
30
0
41
1
10
41.1205024897485
20
0.033936425528907
30
0
41
1
10
41.1247860524702
20
-0.0208773596152128
30
0
41
1
10
41.1269335003041
20
-0.0484435436483466
30
0
41
1
10
41.1333240551062
20
-0.130921457665977
30
0
41
1
10
41.1375129976745
20
-0.185595445681088
30
0
41
1
10
41.1416080333213
20
-0.239962158380166
30
0
0
SPLINE
5
FA
100
AcDbEntity
8
1
62
256
6
ByLayer
370
13
48
1
60
0
100
AcDbSpline
70
4
71
3
72
9
73
5
40
0
40
0
40
0
40
0
40
0.940186607326031
40
1
40
1
40
1
40
1
41
1
10
38.8075411252796
20
-1.45842016882338
30
0
41
1
10
38.7802041936637
20
-1.28095780666197
30
0
41
1
10
38.7513437812206
20
-0.984167422692991
30
0
41
1
10
38.721601900364
20
-0.6198478098718
30
0
41
1
10
38.7198198078204
20
-0.597835717456718
30
0
0
SPLINE
5
FB
100
AcDbEntity
8
1
62
256
6
ByLayer
370
13
48
1
60
0
100
AcDbSpline
70
4
71
3
72
9
73
5
40
0
40
0
40
0
40
0
40
0.174785855220209
40
1
40
1
40
1
40
1
41
1
10
35.4217585092954
20
0.953838925331269
30
0
41
1
10
35.416835519054
20
1.00724489419125
30
0
41
1
10
35.3885157730477
20
1.3019371852661
30
0
41
1
10
35.3592508436156
20
1.52125891937587
30
0
41
1
10
35.3344604127325
20
1.6104672655394
30
0
0
SPLINE
5
FC
100
AcDbEntity
8
1
62
256
6
ByLayer
370
13
48
1
60
0
100
AcDbSpline
70
4
71
3
72
9
73
5
40
0
40
0
40
0
40
0
40
0.369318071167147
40
1
40
1
40
1
40
1
41
1.04
10
36.0559618792136
20
0.485711867381101
30
0
41
1.04
10
36.0453356688842
20
0.620365353262259
30
0
41
1.04
10
36.0164128408589
20
0.972745996270828
30
0
41
1.04
10
35.9871106206267
20
1.25847937667708
30
0
41
1.04
10
35.968544143693
20
1.39411264964245
30
0
0
SPLINE
5
FD
100
AcDbEntity
8
1
62
256
6
ByLayer
370
13
48
1
60
0
100
AcDbSpline
70
4
71
3
72
9
73
5
40
0
40
0
40
0
40
0
40
0.994725993178264
40
1
40
1
40
1
40
1
41
1.04
10
40.8524984735001
20
0.0462613259827549
30
0
41
1.04
10
40.8233123499591
20
0.432031780956357
30
0
41
1.04
10
40.7940659411143
20
0.814420114361416
30
0
41
1.04
10
40.7646074293132
20
1.10641328114663
30
0
41
1.04
10
40.7644520590083
20
1.10795073263041
30
0
0
SPLINE
5
FE
100
AcDbEntity
8
1
62
256
6
ByLayer
370
13
48
1
60
0
100
AcDbSpline
70
4
71
3
72
10
73
6
40
0
40
0
40
0
40
0
40
0.23044659083293
40
0.76097816215758
40
1
40
1
40
1
40
1
41
1
10
40.2182797774566
20
0.557623588163835
30
0
41
1
10
40.2114074978705
20
0.643512125780489
30
0
41
1
10
40.1888604245803
20
0.917197756243809
30
0
41
1
10
40.1596323834615
20
1.21974969649457
30
0
41
1
10
40.1373240589006
20
1.39126398369928
30
0
41
1
10
40.1303953951474
20
1.43808677579591
30
0
0
SPLINE
5
FF
100
AcDbEntity
8
1
62
256
6
ByLayer
370
18
48
1
60
0
100
AcDbSpline
70
4
71
3
72
24
73
20
40
0
40
0
40
0
40
0
40
0.125
40
0.125
40
0.25
40
0.25
40
0.3125
40
0.3125
40
0.375
40
0.375
40
0.5
40
0.5
40
0.749999999999999
40
0.749999999999999
40
0.812499999999999
40
0.812499999999999
40
0.874999999999999
40
0.874999999999999
40
1
40
1
40
1
40
1
41
1
10
40.2768016325738
20
1.59519269987308
30
0
41
1
10
40.282057000726
20
1.56217250894772
30
0
41
1
10
40.2872967304538
20
1.52674624383715
30
0
41
1
10
40.2978100568067
20
1.45117214134751
30
0
41
1
10
40.3030856264638
20
1.4110242393368
30
0
41
1
10
40.3110143479441
20
1.34717897288226
30
0
41
1
10
40.3136594969791
20
1.3252917011001
30
0
41
1
10
40.3189489228214
20
1.28027126805466
30
0
41
1
10
40.3215995200987
20
1.25707063163097
30
0
41
1
10
40.3294698459284
20
1.18622919163167
30
0
41
1
10
40.3346238534012
20
1.13727335976509
30
0
41
1
10
40.3499056455146
20
0.985385460770061
30
0
41
1
10
40.3598910982048
20
0.877485577019968
30
0
41
1
10
40.3722220359616
20
0.734046867261242
30
0
41
1
10
40.3746838640455
20
0.704857542209851
30
0
41
1
10
40.3795499475874
20
0.646124428261174
30
0
41
1
10
40.381957872322
20
0.616543938236816
30
0
41
1
10
40.3891194989921
20
0.527171903259926
30
0
41
1
10
40.3938113103676
20
0.466751572362512
30
0
41
1
10
40.3984527349898
20
0.405500027376831
30
0
0
SPLINE
5
100
100
AcDbEntity
8
1
62
256
6
ByLayer
370
18
48
1
60
0
100
AcDbSpline
70
4
71
3
72
22
73
18
40
0
40
0
40
0
40
0
40
0.249999999999999
40
0.249999999999999
40
0.374999999999998
40
0.374999999999998
40
0.437499999999998
40
0.437499999999998
40
0.499999999999998
40
0.499999999999998
40
0.749999999999998
40
0.749999999999998
40
0.812499999999999
40
0.812499999999999
40
0.874999999999999
40
0.874999999999999
40
1
40
1
40
1
40
1
41
1
10
40.7260686973444
20
0.107144708025089
30
0
41
1
10
40.7194632376995
20
0.221470363954353
30
0
41
1
10
40.7129797541725
20
0.333631885215254
30
0
41
1
10
40.7036272348844
20
0.498676412209363
30
0
41
1
10
40.7005710249553
20
0.553154237030157
30
0
41
1
10
40.696094345342
20
0.634032255736003
30
0
41
1
10
40.6946213039931
20
0.660829261886278
30
0
41
1
10
40.6917442101343
20
0.713551019628966
30
0
41
1
10
40.6903365572169
20
0.739549664662917
30
0
41
1
10
40.6834313883244
20
0.867764528952591
30
0
41
1
10
40.6783363880223
20
0.964699820151111
30
0
41
1
10
40.672083991295
20
1.07883412497611
30
0
41
1
10
40.6708389513757
20
1.10130599015093
30
0
41
1
10
40.6683474069651
20
1.14552674065646
30
0
41
1
10
40.6670996454135
20
1.16729478139646
30
0
41
1
10
40.6633690737743
20
1.23090366016513
30
0
41
1
10
40.6608816406749
20
1.27124996078828
30
0
41
1
10
40.6583708829124
20
1.30961511962687
30
0
0
SPLINE
5
101
100
AcDbEntity
8
1
62
256
6
ByLayer
370
13
48
1
60
0
100
AcDbSpline
70
4
71
3
72
9
73
5
40
0
40
0
40
0
40
0
40
0.730126270703113
40
1
40
1
40
1
40
1
41
1.04
10
36.9023937107669
20
-0.203160899017208
30
0
41
1.04
10
36.8814625541353
20
0.0718944721756615
30
0
41
1.04
10
36.8525528493806
20
0.462869461278823
30
0
41
1.04
10
36.8229338266947
20
0.812686065788389
30
0
41
1.04
10
36.8149417916976
20
0.901874952092886
30
0
0
SPLINE
5
102
100
AcDbEntity
8
1
62
256
6
ByLayer
370
13
48
1
60
0
100
AcDbSpline
70
4
71
3
72
9
73
5
40
0
40
0
40
0
40
0
40
0.532124028991663
40
1
40
1
40
1
40
1
41
1
10
36.2681895990475
20
0.316432772705951
30
0
41
1
10
36.252894103605
20
0.515382105739377
30
0
41
1
10
36.2239251709113
20
0.879032406775906
30
0
41
1
10
36.194574366107
20
1.17463396233109
30
0
41
1
10
36.1807848986882
20
1.29060220848777
30
0
0
SPLINE
5
103
100
AcDbEntity
8
1
62
256
6
ByLayer
370
18
48
1
60
0
100
AcDbSpline
70
4
71
3
72
27
73
23
40
0
40
0
40
0
40
0
40
0.124999999999999
40
0.124999999999999
40
0.249999999999998
40
0.249999999999998
40
0.374999999999997
40
0.374999999999997
40
0.499999999999996
40
0.499999999999996
40
0.531249999999997
40
0.531249999999997
40
0.562499999999997
40
0.562499999999997
40
0.624999999999998
40
0.624999999999998
40
0.749999999999998
40
0.874999999999999
40
0.874999999999999
40
0.9375
40
0.9375
40
1
40
1
40
1
40
1
41
1
10
36.4538149123109
20
1.50407542525497
30
0
41
1
10
36.4579419976999
20
1.4542822852095
30
0
41
1
10
36.4620678681123
20
1.40183963969295
30
0
41
1
10
36.4704185237864
20
1.29146736787544
30
0
41
1
10
36.4745739352101
20
1.23446457544503
30
0
41
1
10
36.4829891236165
20
1.11700773259506
30
0
41
1
10
36.4872690197702
20
1.05654657968878
30
0
41
1
10
36.4959240778912
20
0.932177528883528
30
0
41
1
10
36.5002927403305
20
0.868269442000269
30
0
41
1
10
36.5057662496965
20
0.786175636892665
30
0
41
1
10
36.5068616676585
20
0.769646179315345
30
0
41
1
10
36.5090533154282
20
0.736363435340166
30
0
41
1
10
36.5101509360708
20
0.719588563015805
30
0
41
1
10
36.5134277179351
20
0.669180397124364
30
0
41
1
10
36.5155941713975
20
0.635412273796419
30
0
41
1
10
36.5220380931988
20
0.53362935305654
30
0
41
1
10
36.5304795858862
20
0.396644847731153
30
0
41
1
10
36.5386714833589
20
0.257157953907495
30
0
41
1
10
36.5447768864731
20
0.151595748899098
30
0
41
1
10
36.5468059887053
20
0.116250244923322
30
0
41
1
10
36.5508665025476
20
0.0452382991614115
30
0
41
1
10
36.5529030049765
20
0.009482255907443
30
0
41
1
10
36.5549290678755
20
-0.0260729811385829
30
0
0
SPLINE
5
104
100
AcDbEntity
8
1
62
256
6
ByLayer
370
13
48
1
60
0
100
AcDbSpline
70
4
71
3
72
9
73
5
40
0
40
0
40
0
40
0
40
0.889911649072057
40
1
40
1
40
1
40
1
41
1
10
37.1146623545536
20
-0.375444966350813
30
0
41
1
10
37.0890643592242
20
-0.0450905946965747
30
0
41
1
10
37.0600784446488
20
0.355319876184126
30
0
41
1
10
37.0303733595667
20
0.712807463879273
30
0
41
1
10
37.0270981323361
20
0.751489876329742
30
0
0
SPLINE
5
105
100
AcDbEntity
8
1
62
256
6
ByLayer
370
13
48
1
60
0
100
AcDbSpline
70
4
71
3
72
9
73
5
40
0
40
0
40
0
40
0
40
0.431258369114129
40
1
40
1
40
1
40
1
41
1.04
10
37.748836707367
20
-0.857487214209676
30
0
41
1.04
10
37.7367992882936
20
-0.721012952972089
30
0
41
1.04
10
37.708437289367
20
-0.373069221655069
30
0
41
1.04
10
37.6787351670877
20
0.0295383209577474
30
0
41
1.04
10
37.6613205735953
20
0.257144647484199
30
0
0
SPLINE
5
106
100
AcDbEntity
8
1
62
256
6
ByLayer
370
13
48
1
60
0
100
AcDbSpline
70
4
71
3
72
9
73
5
40
0
40
0
40
0
40
0
40
0.593233519868493
40
1
40
1
40
1
40
1
41
1
10
37.9611034410921
20
-1.00239740598096
30
0
41
1
10
37.9444958537374
20
-0.826478457620652
30
0
41
1
10
37.9159353355444
20
-0.481291492682374
30
0
41
1
10
37.8859932950676
20
-0.0808784727550744
30
0
41
1
10
37.8735515110002
20
0.083821256923585
30
0
0
SPLINE
5
107
100
AcDbEntity
8
1
62
256
6
ByLayer
370
13
48
1
60
0
100
AcDbSpline
70
4
71
3
72
9
73
5
40
0
40
0
40
0
40
0
40
0.780915438896399
40
1
40
1
40
1
40
1
41
1.04
10
38.5952694712646
20
-1.36477721213923
30
0
41
1.04
10
38.5727158334059
20
-1.19203728770189
30
0
41
1.04
10
38.5438631168607
20
-0.887886809701454
30
0
41
1.04
10
38.5141384486365
20
-0.515819780717582
30
0
41
1.04
10
38.5075855165683
20
-0.432047425345827
30
0
0
SPLINE
5
108
100
AcDbEntity
8
1
62
256
6
ByLayer
370
18
48
1
60
0
100
AcDbSpline
70
4
71
3
72
27
73
23
40
0
40
0
40
0
40
0
40
0.0625
40
0.0625
40
0.125
40
0.125
40
0.25
40
0.25
40
0.375000000000001
40
0.375000000000001
40
0.4375
40
0.46875
40
0.46875
40
0.5
40
0.5
40
0.625
40
0.75
40
0.875
40
0.875
40
0.9375
40
0.9375
40
1
40
1
40
1
40
1
41
1
10
37.4781038377542
20
-0.956201805625255
30
0
41
1
10
37.4760161223732
20
-0.924571107385503
30
0
41
1
10
37.4739186009608
20
-0.892428321916157
30
0
41
1
10
37.4697009448416
20
-0.827208245368269
30
0
41
1
10
37.4675964064033
20
-0.794373222466959
30
0
41
1
10
37.4612820236454
20
-0.695208328294541
30
0
41
1
10
37.4570705564387
20
-0.628220290974753
30
0
41
1
10
37.4485892862294
20
-0.492526308285676
30
0
41
1
10
37.4443182934368
20
-0.423820415737708
30
0
41
1
10
37.4379139099308
20
-0.319458026676244
30
0
41
1
10
37.434711561271
20
-0.266950384661556
30
0
41
1
10
37.4315110402455
20
-0.213944976913723
30
0
41
1
10
37.4293775374182
20
-0.178496135329311
30
0
41
1
10
37.4283098773839
20
-0.160698624373453
30
0
41
1
10
37.4230001628292
20
-0.0719130886815265
30
0
41
1
10
37.4146504946698
20
0.0695138946463487
30
0
41
1
10
37.4023929538236
20
0.279814072040864
30
0
41
1
10
37.3942237876789
20
0.418779137615246
30
0
41
1
10
37.3880188067895
20
0.522522107030596
30
0
41
1
10
37.3859326223782
20
0.55709843998855
30
0
41
1
10
37.38176441832
20
0.625361726236122
30
0
41
1
10
37.3796781580219
20
0.659120759336417
30
0
41
1
10
37.3775837423753
20
0.692513497378485
30
0
0
SPLINE
5
109
100
AcDbEntity
8
1
62
256
6
ByLayer
370
18
48
1
60
0
100
AcDbSpline
70
4
71
3
72
8
73
4
40
0
40
0
40
0
40
0
40
1
40
1
40
1
40
1
41
1
10
40.8943538435172
20
1.61871232288789
30
0
41
1
10
40.8573664233609
20
1.54404641883141
30
0
41
1
10
40.820159252599
20
1.46889810977342
30
0
41
1
10
40.7825906057142
20
1.39331283089112
30
0
0
SPLINE
5
10A
100
AcDbEntity
8
1
62
256
6
ByLayer
370
18
48
1
60
0
100
AcDbSpline
70
4
71
3
72
16
73
12
40
0
40
0
40
0
40
0
40
0.225752850621254
40
0.225752850621254
40
0.451505701242509
40
0.451505701242509
40
0.677258551863763
40
0.677258551863763
40
0.903011402485017
40
0.903011402485017
40
1
40
1
40
1
40
1
41
1
10
40.7825906057142
20
1.39331283089112
30
0
41
1
10
40.77686428905
20
1.3817919144376
30
0
41
1
10
40.7702340883996
20
1.37107911086247
30
0
41
1
10
40.7555646885253
20
1.35090388214257
30
0
41
1
10
40.747452569332
20
1.34139658613731
30
0
41
1
10
40.7304879728409
20
1.3241200931908
30
0
41
1
10
40.7215885201943
20
1.31627138119248
30
0
41
1
10
40.7029963994552
20
1.30209571302547
30
0
41
1
10
40.6932069620698
20
1.29572636160921
30
0
41
1
10
40.6790969174011
20
1.28809169591599
30
0
41
1
10
40.6748354222596
20
1.2859778262916
30
0
41
1
10
40.6705535223371
20
1.28405438375995
30
0
0
SPLINE
5
10B
100
AcDbEntity
8
1
62
256
6
ByLayer
370
18
48
1
60
0
100
AcDbSpline
70
4
71
3
72
22
73
18
40
0
40
0
40
0
40
0
40
0.0319181817635653
40
0.0319181817635653
40
0.273938636322595
40
0.273938636322595
40
0.394948863602163
40
0.394948863602163
40
0.51595909088173
40
0.51595909088173
40
0.636969318161298
40
0.636969318161298
40
0.757979545440865
40
0.757979545440865
40
0.878989772720433
40
0.878989772720433
40
1
40
1
40
1
40
1
41
1
10
35.608428558966
20
-1.61537989302883
30
0
41
1
10
35.607130212947
20
-1.61526026699667
30
0
41
1
10
35.605829601991
20
-1.61515889276114
30
0
41
1
10
35.5946557456804
20
-1.61444821829605
30
0
41
1
10
35.5846700474795
20
-1.61485417233473
30
0
41
1
10
35.5695401327304
20
-1.61724505357125
30
0
41
1
10
35.5644714416498
20
-1.61834185280756
30
0
41
1
10
35.5542836282117
20
-1.62122722575023
30
0
41
1
10
35.5491694653024
20
-1.6230204092264
30
0
41
1
10
35.539174007975
20
-1.62730111433814
30
0
41
1
10
35.5342594155508
20
-1.62979591143795
30
0
41
1
10
35.524627532459
20
-1.63560488917557
30
0
41
1
10
35.5198737010847
20
-1.63895202588588
30
0
41
1
10
35.5108745506591
20
-1.64643038144791
30
0
41
1
10
35.506612214468
20
-1.65056207343096
30
0
41
1
10
35.4986388225727
20
-1.65973695366213
30
0
41
1
10
35.4949209636794
20
-1.66480551927708
30
0
41
1
10
35.491651006358
20
-1.67024953026876
30
0
0
SPLINE
5
10C
100
AcDbEntity
8
1
62
256
6
ByLayer
370
18
48
1
60
0
100
AcDbSpline
70
4
71
3
72
12
73
8
40
0
40
0
40
0
40
0
40
0.49999999999999
40
0.49999999999999
40
0.749999999999995
40
0.749999999999995
40
1
40
1
40
1
40
1
41
1
10
35.491651006354
20
-1.67024953027555
30
0
41
1
10
35.445896418815
20
-1.74642437081471
30
0
41
1
10
35.4004025662122
20
-1.82134598446325
30
0
41
1
10
35.3327331417524
20
-1.93118187635045
30
0
41
1
10
35.3102660956553
20
-1.96737803026377
30
0
41
1
10
35.2655965059229
20
-2.03873294864238
30
0
41
1
10
35.2433766050656
20
-2.07391982596397
30
0
41
1
10
35.2212477711184
20
-2.10861736420924
30
0
0
SPLINE
5
10D
100
AcDbEntity
8
1
62
256
6
ByLayer
370
18
48
1
60
0
100
AcDbSpline
70
4
71
3
72
10
73
6
40
0
40
0
40
0
40
0
40
0.5
40
0.5
40
1
40
1
40
1
40
1
41
1
10
35.144812089648
20
-2.09748040217352
30
0
41
1
10
35.0979163659795
20
-2.01345149947355
30
0
41
1
10
35.0506124992992
20
-1.92682029041654
30
0
41
1
10
34.9547278712353
20
-1.74840810046999
30
0
41
1
10
34.9064107196694
20
-1.65712346410697
30
0
41
1
10
34.8574870461034
20
-1.56375816272393
30
0
0
SPLINE
5
10E
100
AcDbEntity
8
1
62
256
6
ByLayer
370
18
48
1
60
0
100
AcDbSpline
70
4
71
3
72
28
73
24
40
0
40
0
40
0
40
0
40
0.125
40
0.125
40
0.250000000000001
40
0.250000000000001
40
0.375000000000001
40
0.375000000000001
40
0.500000000000001
40
0.500000000000001
40
0.625000000000002
40
0.625000000000002
40
0.687500000000001
40
0.687500000000001
40
0.750000000000001
40
0.750000000000001
40
0.812500000000001
40
0.812500000000001
40
0.875000000000001
40
0.875000000000001
40
0.9375
40
0.9375
40
1
40
1
40
1
40
1
41
1
10
34.8574870461034
20
-1.5637581627239
30
0
41
1
10
34.8517442782145
20
-1.55279873928677
30
0
41
1
10
34.8450934219895
20
-1.5428403741827
30
0
41
1
10
34.8303799147575
20
-1.52446020604126
30
0
41
1
10
34.8222417183614
20
-1.5160044353544
30
0
41
1
10
34.8052247702369
20
-1.50102865768847
30
0
41
1
10
34.7962984909123
20
-1.49443478310886
30
0
41
1
10
34.7776676582064
20
-1.4829688267638
30
0
41
1
10
34.7678682869235
20
-1.47806998720915
30
0
41
1
10
34.7481263738084
20
-1.47045388429604
30
0
41
1
10
34.7381452558124
20
-1.46768899330058
30
0
41
1
10
34.7230269644735
20
-1.46531489627284
30
0
41
1
10
34.7179629309429
20
-1.4648218776988
30
0
41
1
10
34.7077857688641
20
-1.4645199919822
30
0
41
1
10
34.7026789125638
20
-1.46471723494392
30
0
41
1
10
34.6926966736609
20
-1.46588191020442
30
0
41
1
10
34.6877883362953
20
-1.46684634372062
30
0
41
1
10
34.6781683085729
20
-1.46965572936918
30
0
41
1
10
34.6734202813907
20
-1.47152213226172
30
0
41
1
10
34.6644314169757
20
-1.47619423635675
30
0
41
1
10
34.6601733350368
20
-1.47899523355019
30
0
41
1
10
34.6522067233163
20
-1.48567767642541
30
0
41
1
10
34.648491373449
20
-1.48958228507575
30
0
41
1
10
34.6452230046604
20
-1.49400276251586
30
0
0
SPLINE
5
10F
100
AcDbEntity
8
1
62
256
6
ByLayer
370
18
48
1
60
0
100
AcDbSpline
70
4
71
3
72
8
73
4
40
0
40
0
40
0
40
0
40
1
40
1
40
1
40
1
41
1
10
34.6452230046566
20
-1.49400276252285
30
0
41
1
10
34.5964695296563
20
-1.55994196655834
30
0
41
1
10
34.5480150329917
20
-1.62218465060013
30
0
41
1
10
34.4999876094232
20
-1.68040922820765
30
0
0
SPLINE
5
110
100
AcDbEntity
8
1
62
256
6
ByLayer
370
18
48
1
60
0
100
AcDbSpline
70
4
71
3
72
12
73
8
40
0
40
0
40
0
40
0
40
0.5
40
0.5
40
0.75
40
0.75
40
1
40
1
40
1
40
1
41
1
10
33.6656696342337
20
-1.31375055740662
30
0
41
1
10
33.7083417411405
20
-1.29807197589682
30
0
41
1
10
33.7507555799624
20
-1.28656142976749
30
0
41
1
10
33.8134762545709
20
-1.27565931014703
30
0
41
1
10
33.8342358085131
20
-1.27309763223837
30
0
41
1
10
33.8754153433952
20
-1.27038078242643
30
0
41
1
10
33.8957683360553
20
-1.27023312441907
30
0
41
1
10
33.9156696342337
20
-1.27152162394441
30
0
0
SPLINE
5
111
100
AcDbEntity
8
1
62
256
6
ByLayer
370
18
48
1
60
0
100
AcDbSpline
70
4
71
3
72
10
73
6
40
0
40
0
40
0
40
0
40
0.499999999999999
40
0.499999999999999
40
1
40
1
40
1
40
1
41
1
10
33.9156696342337
20
-1.27152162394441
30
0
41
1
10
33.9336327674239
20
-1.27268463795394
30
0
41
1
10
33.9516219780409
20
-1.2737270132867
30
0
41
1
10
33.9874682234674
20
-1.27532071371871
30
0
41
1
10
34.0052999455808
20
-1.27583570967729
30
0
41
1
10
34.0230484049141
20
-1.27607278088519
30
0
0
SPLINE
5
112
100
AcDbEntity
8
1
62
256
6
ByLayer
370
18
48
1
60
0
100
AcDbSpline
70
4
71
3
72
12
73
8
40
0
40
0
40
0
40
0
40
0.413245899151017
40
0.413245899151017
40
0.826491798302033
40
0.826491798302033
40
1
40
1
40
1
40
1
41
1
10
34.0230484049115
20
-1.27607278089823
30
0
41
1
10
34.029783133465
20
-1.26811793614337
30
0
41
1
10
34.0369369658185
20
-1.26063839069198
30
0
41
1
10
34.0516661786273
20
-1.24682524332758
30
0
41
1
10
34.0592894274886
20
-1.24043711511084
30
0
41
1
10
34.0704547911375
20
-1.23207014776955
30
0
41
1
10
34.073808843553
20
-1.22967862808579
30
0
41
1
10
34.0771940520518
20
-1.2273836255074
30
0
0
SPLINE
5
113
100
AcDbEntity
8
1
62
256
6
ByLayer
370
18
48
1
60
0
100
AcDbSpline
70
4
71
3
72
22
73
18
40
0
40
0
40
0
40
0
40
0.0567624353609649
40
0.0567624353609649
40
0.24540994828874
40
0.24540994828874
40
0.434057461216516
40
0.434057461216516
40
0.622704974144292
40
0.622704974144292
40
0.717028730608219
40
0.717028730608219
40
0.811352487072146
40
0.811352487072146
40
0.905676243536073
40
0.905676243536073
40
1
40
1
40
1
40
1
41
1
10
39.1360217344259
20
1.6193787119492
30
0
41
1
10
39.1388157062919
20
1.61829720929563
30
0
41
1
10
39.1416419097953
20
1.61730607926586
30
0
41
1
10
39.1539956293706
20
1.61340419655056
30
0
41
1
10
39.1639012178507
20
1.6113948762974
30
0
41
1
10
39.1836849122402
20
1.60955906566994
30
0
41
1
10
39.1936375221767
20
1.6096944025428
30
0
41
1
10
39.2136237976604
20
1.61231668810325
30
0
41
1
10
39.2237134368632
20
1.6148452983592
30
0
41
1
10
39.2381854809916
20
1.62063515078799
30
0
41
1
10
39.2429241415825
20
1.62290137107271
30
0
41
1
10
39.2522012166705
20
1.62820386300874
30
0
41
1
10
39.2567645972349
20
1.63126417474226
30
0
41
1
10
39.2653971666191
20
1.63811083981346
30
0
41
1
10
39.2694926268178
20
1.6419058765787
30
0
41
1
10
39.2771732367596
20
1.65035531586784
30
0
41
1
10
39.2807771820527
20
1.65504345385654
30
0
41
1
10
39.283985200146
20
1.66013392131211
30
0
0
SPLINE
5
114
100
AcDbEntity
8
1
62
256
6
ByLayer
370
18
48
1
60
0
100
AcDbSpline
70
4
71
3
72
8
73
4
40
0
40
0
40
0
40
0
40
1
40
1
40
1
40
1
41
1
10
39.2839852001459
20
1.6601339213122
30
0
41
1
10
39.364046450907
20
1.78717472332494
30
0
41
1
10
39.442863878113
20
1.90814740509376
30
0
41
1
10
39.5200971733348
20
2.02091668525134
30
0
0
SPLINE
5
115
100
AcDbEntity
8
1
62
256
6
ByLayer
370
18
48
1
60
0
100
AcDbSpline
70
4
71
3
72
10
73
6
40
0
40
0
40
0
40
0
40
0.5
40
0.5
40
1
40
1
40
1
40
1
41
1
10
39.5200971733347
20
2.02091668525134
30
0
41
1
10
39.5489621960305
20
2.00923047471909
30
0
41
1
10
39.5779372989933
20
1.99691024587616
30
0
41
1
10
39.6361243680955
20
1.97099328380637
30
0
41
1
10
39.665235605588
20
1.95743721269747
30
0
41
1
10
39.6943114136377
20
1.94334146835948
30
0
0
SPLINE
5
116
100
AcDbEntity
8
1
62
256
6
ByLayer
370
18
48
1
60
0
100
AcDbSpline
70
4
71
3
72
12
73
8
40
0
40
0
40
0
40
0
40
0.250000000000005
40
0.250000000000005
40
0.50000000000001
40
0.50000000000001
40
1
40
1
40
1
40
1
41
1
10
39.6943114136377
20
1.94334146835951
30
0
41
1
10
39.7126082757711
20
1.90886518161795
30
0
41
1
10
39.7309878288342
20
1.87412684464459
30
0
41
1
10
39.767956207196
20
1.80412523258792
30
0
41
1
10
39.7865520706183
20
1.7688495742733
30
0
41
1
10
39.84252763308
20
1.66259205844534
30
0
41
1
10
39.8801512046932
20
1.59107281404508
30
0
41
1
10
39.9182107736106
20
1.51893649570357
30
0
0
SPLINE
5
117
100
AcDbEntity
8
1
62
256
6
ByLayer
370
18
48
1
60
0
100
AcDbSpline
70
4
71
3
72
26
73
22
40
0
40
0
40
0
40
0
40
0.125
40
0.125
40
0.25
40
0.25
40
0.375
40
0.375
40
0.5
40
0.5
40
0.625
40
0.625
40
0.75
40
0.75
40
0.8125
40
0.8125
40
0.875
40
0.875
40
0.9375
40
0.9375
40
1
40
1
40
1
40
1
41
1
10
39.918210773613
20
1.51893649569982
30
0
41
1
10
39.9241468612322
20
1.50768551419088
30
0
41
1
10
39.9310530711046
20
1.49747781576505
30
0
41
1
10
39.9463208120154
20
1.47861370212556
30
0
41
1
10
39.9547760590193
20
1.46991358649785
30
0
41
1
10
39.9723446468213
20
1.45452074262346
30
0
41
1
10
39.9815112090752
20
1.4477441791183
30
0
41
1
10
40.00052629815
20
1.43589904071789
30
0
41
1
10
40.0104367739503
20
1.43082329243012
30
0
41
1
10
40.0302192039888
20
1.42278340662034
30
0
41
1
10
40.0401675288606
20
1.41975802144037
30
0
41
1
10
40.0601410823189
20
1.41589854668646
30
0
41
1
10
40.0702131110695
20
1.4150872122456
30
0
41
1
10
40.0846597182615
20
1.41592253479038
30
0
41
1
10
40.0893904956632
20
1.41653882659625
30
0
41
1
10
40.0986538046957
20
1.41854410904088
30
0
41
1
10
40.1032092612333
20
1.41994696897692
30
0
41
1
10
40.1118265189374
20
1.42357265043566
30
0
41
1
10
40.1159161245212
20
1.42579596239128
30
0
41
1
10
40.1235885930907
20
1.43119353510963
30
0
41
1
10
40.1271895702053
20
1.43439262031703
30
0
41
1
10
40.1303953951475
20
1.43808677579574
30
0
0
SPLINE
5
118
100
AcDbEntity
8
1
62
256
6
ByLayer
370
18
48
1
60
0
100
AcDbSpline
70
4
71
3
72
8
73
4
40
0
40
0
40
0
40
0
40
1
40
1
40
1
40
1
41
1
10
40.1303953951474
20
1.43808677579591
30
0
41
1
10
40.1797044938972
20
1.49490693303488
30
0
41
1
10
40.2285144138318
20
1.54733096149556
30
0
41
1
10
40.2768016325739
20
1.59519269987311
30
0
0
SPLINE
5
119
100
AcDbEntity
8
1
62
256
6
ByLayer
370
18
48
1
60
0
100
AcDbSpline
70
4
71
3
72
12
73
8
40
0
40
0
40
0
40
0
40
0.499999999999986
40
0.499999999999986
40
0.749999999999993
40
0.749999999999993
40
1
40
1
40
1
40
1
41
1
10
40.276801632574
20
1.59519269987334
30
0
41
1
10
40.3393298441822
20
1.55143509339945
30
0
41
1
10
40.4023349194497
20
1.50563824242181
30
0
41
1
10
40.4978910415375
20
1.43406302660807
30
0
41
1
10
40.5299604345465
20
1.40968109184979
30
0
41
1
10
40.5942014240073
20
1.36013936481987
30
0
41
1
10
40.6262979296923
20
1.33503868161668
30
0
41
1
10
40.6583708829126
20
1.30961511962681
30
0
0
SPLINE
5
11A
100
AcDbEntity
8
1
62
256
6
ByLayer
370
18
48
1
60
0
100
AcDbSpline
70
4
71
3
72
8
73
4
40
0
40
0
40
0
40
0
40
1
40
1
40
1
40
1
41
1
10
40.6583708829124
20
1.30961511962687
30
0
41
1
10
40.6934512756546
20
1.24169507723497
30
0
41
1
10
40.7287752162298
20
1.17444861239423
30
0
41
1
10
40.7644520590084
20
1.10795073263037
30
0
0
SPLINE
5
11B
100
AcDbEntity
8
1
62
256
6
ByLayer
370
18
48
1
60
0
100
AcDbSpline
70
4
71
3
72
26
73
22
40
0
40
0
40
0
40
0
40
0.125
40
0.125
40
0.25
40
0.25
40
0.375
40
0.375
40
0.5
40
0.5
40
0.625
40
0.625
40
0.75
40
0.75
40
0.8125
40
0.8125
40
0.875
40
0.875
40
0.9375
40
0.9375
40
1
40
1
40
1
40
1
41
1
10
40.7644520590108
20
1.10795073262773
30
0
41
1
10
40.770402512075
20
1.09685971443381
30
0
41
1
10
40.7773243602521
20
1.08632254989735
30
0
41
1
10
40.7926184145221
20
1.06607932682149
30
0
41
1
10
40.8010838554326
20
1.05630856580447
30
0
41
1
10
40.8186643967272
20
1.03820646121332
30
0
41
1
10
40.827833403664
20
1.02978811486366
30
0
41
1
10
40.8468486186086
20
1.01410756791554
30
0
41
1
10
40.8567579639545
20
1.00681945023061
30
0
41
1
10
40.8765392662458
20
0.993917104749386
30
0
41
1
10
40.8864862348914
20
0.988230132048812
30
0
41
1
10
40.9064548944075
20
0.978512380811907
30
0
41
1
10
40.9165295116657
20
0.974480302132037
30
0
41
1
10
40.9309822181651
20
0.970195390200047
30
0
41
1
10
40.9357148776307
20
0.969049545649625
30
0
41
1
10
40.9449814099895
20
0.96740148286699
30
0
41
1
10
40.9495401521323
20
0.966901377434908
30
0
41
1
10
40.9581665114005
20
0.966678422039564
30
0
41
1
10
40.9622601626023
20
0.966946554889802
30
0
41
1
10
40.9699395359632
20
0.968361676906909
30
0
41
1
10
40.9735443349782
20
0.969520961310081
30
0
41
1
10
40.9767548044993
20
0.971185313633526
30
0
0
SPLINE
5
11C
100
AcDbEntity
8
1
62
256
6
ByLayer
370
18
48
1
60
0
100
AcDbSpline
70
4
71
3
72
8
73
4
40
0
40
0
40
0
40
0
40
1
40
1
40
1
40
1
41
1
10
40.9767548044993
20
0.971185313633754
30
0
41
1
10
40.9959865492489
20
0.981155319219283
30
0
41
1
10
41.0151373645862
20
0.990272509095689
30
0
41
1
10
41.0342214538694
20
0.99855190531548
30
0
0
SPLINE
5
11D
100
AcDbEntity
8
1
62
256
6
ByLayer
370
18
48
1
60
0
100
AcDbSpline
70
4
71
3
72
26
73
22
40
0
40
0
40
0
40
0
40
0.0521702421965018
40
0.0521702421965018
40
0.210141868497085
40
0.210141868497085
40
0.368113494797668
40
0.368113494797668
40
0.526085121098251
40
0.526085121098251
40
0.605070934248542
40
0.605070934248542
40
0.684056747398834
40
0.684056747398834
40
0.763042560549125
40
0.763042560549125
40
0.842028373699417
40
0.842028373699417
40
0.921014186849708
40
0.921014186849708
40
1
40
1
40
1
40
1
41
1
10
39.618616007236
20
-1.6241369991659
30
0
41
1
10
39.6159072635301
20
-1.62203738136014
30
0
41
1
10
39.6131432718182
20
-1.6200428646298
30
0
41
1
10
39.6018469194139
20
-1.61245488440332
30
0
41
1
10
39.5929366231818
20
-1.60770212608622
30
0
41
1
10
39.5743282219391
20
-1.60004047198248
30
0
41
1
10
39.564533740311
20
-1.59712368186524
30
0
41
1
10
39.5447917808876
20
-1.59349324161582
30
0
41
1
10
39.5348056631238
20
-1.59273932012357
30
0
41
1
10
39.519670431821
20
-1.59343109736696
30
0
41
1
10
39.514599061673
20
-1.59396845153603
30
0
41
1
10
39.5044042055608
20
-1.59574970808407
30
0
41
1
10
39.4992887346055
20
-1.59699822012763
30
0
41
1
10
39.489290554227
20
-1.60023328245003
30
0
41
1
10
39.484374722132
20
-1.60222350621453
30
0
41
1
10
39.4747412476586
20
-1.60706301909116
30
0
41
1
10
39.469987556681
20
-1.60994153907851
30
0
41
1
10
39.4609909221808
20
-1.61655385440355
30
0
41
1
10
39.4567294104107
20
-1.62028741796345
30
0
41
1
10
39.4487566013826
20
-1.62874852509182
30
0
41
1
10
39.4450397992399
20
-1.63349974651007
30
0
41
1
10
39.441771061757
20
-1.63868497182167
30
0
0
SPLINE
5
11E
100
AcDbEntity
8
1
62
256
6
ByLayer
370
18
48
1
60
0
100
AcDbSpline
70
4
71
3
72
12
73
8
40
0
40
0
40
0
40
0
40
0.500000000000009
40
0.500000000000009
40
0.750000000000005
40
0.750000000000005
40
1
40
1
40
1
40
1
41
1
10
39.4417710617541
20
-1.63868497182759
30
0
41
1
10
39.396006238495
20
-1.71128208959036
30
0
41
1
10
39.3505007979501
20
-1.78189925452528
30
0
41
1
10
39.2828163542368
20
-1.88424468585669
30
0
41
1
10
39.2603451159976
20
-1.9177699644797
30
0
41
1
10
39.2156685231719
20
-1.98345945344641
30
0
41
1
10
39.1934455685776
20
-2.01565097458351
30
0
41
1
10
39.1713130829069
20
-2.04719582688085
30
0
0
SPLINE
5
11F
100
AcDbEntity
8
1
62
256
6
ByLayer
370
18
48
1
60
0
100
AcDbSpline
70
4
71
3
72
8
73
4
40
0
40
0
40
0
40
0
40
1
40
1
40
1
40
1
41
1
10
39.093924122921
20
-2.02411629992829
30
0
41
1
10
39.1197204808133
20
-2.03229885915107
30
0
41
1
10
39.1455121187389
20
-2.03999370115798
30
0
41
1
10
39.1713130829069
20
-2.04719582688085
30
0
0
SPLINE
5
120
100
AcDbEntity
8
1
62
256
6
ByLayer
370
18
48
1
60
0
100
AcDbSpline
70
4
71
3
72
10
73
6
40
0
40
0
40
0
40
0
40
0.5
40
0.5
40
1
40
1
40
1
40
1
41
1
10
39.0939241229209
20
-2.02411629992858
30
0
41
1
10
39.0471223860253
20
-1.93319225693133
30
0
41
1
10
38.9999351967163
20
-1.84037372462089
30
0
41
1
10
38.9043591035563
20
-1.65122457543211
30
0
41
1
10
38.8562473305349
20
-1.55541345731643
30
0
41
1
10
38.8075411252793
20
-1.45842016882202
30
0
0
SPLINE
5
121
100
AcDbEntity
8
1
62
256
6
ByLayer
370
18
48
1
60
0
100
AcDbSpline
70
4
71
3
72
28
73
24
40
0
40
0
40
0
40
0
40
0.124999999999979
40
0.124999999999979
40
0.249999999999959
40
0.249999999999959
40
0.374999999999938
40
0.374999999999938
40
0.499999999999918
40
0.499999999999918
40
0.624999999999897
40
0.624999999999897
40
0.687499999999914
40
0.687499999999914
40
0.749999999999931
40
0.749999999999931
40
0.812499999999949
40
0.812499999999949
40
0.874999999999966
40
0.874999999999966
40
0.937499999999983
40
0.937499999999983
40
1
40
1
40
1
40
1
41
1
10
38.8075411252796
20
-1.45842016882338
30
0
41
1
10
38.8018138040447
20
-1.44701481055515
30
0
41
1
10
38.7951829582519
20
-1.43648353629683
30
0
41
1
10
38.7805130015503
20
-1.41676972497976
30
0
41
1
10
38.7723995038837
20
-1.40754617935806
30
0
41
1
10
38.7554312601124
20
-1.3909101848383
30
0
41
1
10
38.7465290756211
20
-1.38341967049962
30
0
41
1
10
38.7279383117819
20
-1.37003112377411
30
0
41
1
10
38.7181532220811
20
-1.36409484256714
30
0
41
1
10
38.6984193215716
20
-1.35433345964256
30
0
41
1
10
38.6884355841693
20
-1.35045889964596
30
0
41
1
10
38.6733018964247
20
-1.34635438618764
30
0
41
1
10
38.6682308454866
20
-1.34527344430865
30
0
41
1
10
38.658036214397
20
-1.34376876065855
30
0
41
1
10
38.6529114077325
20
-1.34335100953211
30
0
41
1
10
38.6428959290492
20
-1.34328919619117
30
0
41
1
10
38.6379714170201
20
-1.34363774863218
30
0
41
1
10
38.6283205376464
20
-1.34520646245076
30
0
41
1
10
38.6235568422199
20
-1.34644293612476
30
0
41
1
10
38.6145357502735
20
-1.3498829681518
30
0
41
1
10
38.61026313623
20
-1.35207949262806
30
0
41
1
10
38.602271098054
20
-1.35757902580528
30
0
41
1
10
38.5985450644745
20
-1.36090352697991
30
0
41
1
10
38.595269471269
20
-1.36477721213498
30
0
0
SPLINE
5
122
100
AcDbEntity
8
1
62
256
6
ByLayer
370
18
48
1
60
0
100
AcDbSpline
70
4
71
3
72
12
73
8
40
0
40
0
40
0
40
0
40
0.5
40
0.5
40
0.75
40
0.75
40
1
40
1
40
1
40
1
41
1
10
38.595269471263
20
-1.36477721213888
30
0
41
1
10
38.5494297171978
20
-1.41898686630941
30
0
41
1
10
38.503841141382
20
-1.46934872918888
30
0
41
1
10
38.4360297213914
20
-1.53876715442283
30
0
41
1
10
38.4135156864997
20
-1.56089501148074
30
0
41
1
10
38.3687528006325
20
-1.60305900191204
30
0
41
1
10
38.3464865244227
20
-1.62311341673771
30
0
41
1
10
38.3243129644488
20
-1.64215670028392
30
0
0
SPLINE
5
123
100
AcDbEntity
8
1
62
256
6
ByLayer
370
18
48
1
60
0
100
AcDbSpline
70
4
71
3
72
10
73
6
40
0
40
0
40
0
40
0
40
0.5
40
0.5
40
1
40
1
40
1
40
1
41
1
10
38.2477837927854
20
-1.59025136633289
30
0
41
1
10
38.2009248281823
20
-1.49079145564772
30
0
41
1
10
38.1537007287051
20
-1.39181137687967
30
0
41
1
10
38.0580535839582
20
-1.1951890415553
30
0
41
1
10
38.0099000509141
20
-1.09808417496308
30
0
41
1
10
37.9611034410921
20
-1.00239740598096
30
0
0
SPLINE
5
124
100
AcDbEntity
8
1
62
256
6
ByLayer
370
18
48
1
60
0
100
AcDbSpline
70
4
71
3
72
28
73
24
40
0
40
0
40
0
40
0
40
0.12499999999998
40
0.12499999999998
40
0.249999999999959
40
0.249999999999959
40
0.374999999999939
40
0.374999999999939
40
0.499999999999918
40
0.499999999999918
40
0.624999999999898
40
0.624999999999898
40
0.687499999999915
40
0.687499999999915
40
0.749999999999932
40
0.749999999999932
40
0.812499999999949
40
0.812499999999949
40
0.874999999999966
40
0.874999999999966
40
0.937499999999983
40
0.937499999999983
40
1
40
1
40
1
40
1
41
1
10
37.9611034410921
20
-1.00239740598096
30
0
41
1
10
37.9553739749394
20
-0.991162320057271
30
0
41
1
10
37.9487399082462
20
-0.980386202770461
30
0
41
1
10
37.934060571341
20
-0.959555573124902
30
0
41
1
10
37.9259400923904
20
-0.949443947794975
30
0
41
1
10
37.9089546111496
20
-0.930519283711106
30
0
41
1
10
37.900042629285
20
-0.921626824156021
30
0
41
1
10
37.8814313046803
20
-0.904924976357051
30
0
41
1
10
37.8716360739726
20
-0.897055874710674
30
0
41
1
10
37.851890411666
20
-0.882987557689574
30
0
41
1
10
37.8419021432397
20
-0.876735445530187
30
0
41
1
10
37.8267660612827
20
-0.868657108023939
30
0
41
1
10
37.8216949414942
20
-0.866182936233031
30
0
41
1
10
37.8115017643827
20
-0.861729801710879
30
0
41
1
10
37.8063843058196
20
-0.859757357219934
30
0
41
1
10
37.79638297052
20
-0.85648103730253
30
0
41
1
10
37.7914657060342
20
-0.855160883491294
30
0
41
1
10
37.7818292570216
20
-0.853248274700235
30
0
41
1
10
37.7770734054438
20
-0.852656499287946
30
0
41
1
10
37.7680699247434
20
-0.852370193249158
30
0
41
1
10
37.7638053750189
20
-0.852664859251774
30
0
41
1
10
37.755827529654
20
-0.854271386054705
30
0
41
1
10
37.7521078596827
20
-0.855597267919649
30
0
41
1
10
37.7488367073711
20
-0.857487214204042
30
0
0
SPLINE
5
125
100
AcDbEntity
8
1
62
256
6
ByLayer
370
18
48
1
60
0
100
AcDbSpline
70
4
71
3
72
12
73
8
40
0
40
0
40
0
40
0
40
0.50000000000001
40
0.50000000000001
40
0.750000000000005
40
0.750000000000005
40
1
40
1
40
1
40
1
41
1
10
37.748836707367
20
-0.857487214209669
30
0
41
1
10
37.7030301331516
20
-0.883952495103841
30
0
41
1
10
37.6574808987336
20
-0.905373072683176
30
0
41
1
10
37.5897272027587
20
-0.92998789653609
30
0
41
1
10
37.5672323346872
20
-0.936944494529712
30
0
41
1
10
37.5225070625053
20
-0.948396475733404
30
0
41
1
10
37.5002593830838
20
-0.952898579513459
30
0
41
1
10
37.4781038377542
20
-0.956201805625227
30
0
0
SPLINE
5
126
100
AcDbEntity
8
1
62
256
6
ByLayer
370
18
48
1
60
0
100
AcDbSpline
70
4
71
3
72
8
73
4
40
0
40
0
40
0
40
0
40
1
40
1
40
1
40
1
41
1
10
37.401454597065
20
-0.883937145594558
30
0
41
1
10
37.4269991419716
20
-0.908237091156479
30
0
41
1
10
37.4525454479405
20
-0.932328385173946
30
0
41
1
10
37.4781038377542
20
-0.956201805625227
30
0
0
SPLINE
5
127
100
AcDbEntity
8
1
62
256
6
ByLayer
370
18
48
1
60
0
100
AcDbSpline
70
4
71
3
72
10
73
6
40
0
40
0
40
0
40
0
40
0.5
40
0.5
40
1
40
1
40
1
40
1
41
1
10
37.401454597065
20
-0.883937145594729
30
0
41
1
10
37.3545540418384
20
-0.793083886436818
30
0
41
1
10
37.3072772330841
20
-0.705005770446576
30
0
41
1
10
37.2115588072642
20
-0.534888688087477
30
0
41
1
10
37.163405890898
20
-0.453311808076336
30
0
41
1
10
37.1146623545537
20
-0.37544496635195
30
0
0
SPLINE
5
128
100
AcDbEntity
8
1
62
256
6
ByLayer
370
18
48
1
60
0
100
AcDbSpline
70
4
71
3
72
28
73
24
40
0
40
0
40
0
40
0
40
0.124999999999979
40
0.124999999999979
40
0.249999999999959
40
0.249999999999959
40
0.374999999999938
40
0.374999999999938
40
0.499999999999918
40
0.499999999999918
40
0.624999999999897
40
0.624999999999897
40
0.687499999999914
40
0.687499999999914
40
0.749999999999931
40
0.749999999999931
40
0.812499999999949
40
0.812499999999949
40
0.874999999999966
40
0.874999999999966
40
0.937499999999983
40
0.937499999999983
40
1
40
1
40
1
40
1
41
1
10
37.114662354553
20
-0.375444966350813
30
0
41
1
10
37.1089319526675
20
-0.366290761914598
30
0
41
1
10
37.1022967507641
20
-0.357097315884488
30
0
41
1
10
37.0876169307214
20
-0.338672510532206
30
0
41
1
10
37.0794975635812
20
-0.329378344340341
30
0
41
1
10
37.0625154881913
20
-0.311344483091375
30
0
41
1
10
37.0536058617603
20
-0.302536858004828
30
0
41
1
10
37.0350021779722
20
-0.285297727383408
30
0
41
1
10
37.0252122604797
20
-0.276793741251595
30
0
41
1
10
37.0054760235184
20
-0.260716439500442
30
0
41
1
10
36.9954929568324
20
-0.253097936263998
30
0
41
1
10
36.9803638022509
20
-0.242339167599283
30
0
41
1
10
36.9752948370503
20
-0.238865363268161
30
0
41
1
10
36.9651052646895
20
-0.232166890596261
30
0
41
1
10
36.9599864579669
20
-0.228945863296389
30
0
41
1
10
36.9499817187447
20
-0.222959023608013
30
0
41
1
10
36.9450622332411
20
-0.220170154161906
30
0
41
1
10
36.9354201132071
20
-0.21505750800452
30
0
41
1
10
36.9306604324063
20
-0.212718493459846
30
0
41
1
10
36.9216479067591
20
-0.208722871461106
30
0
41
1
10
36.9173787732133
20
-0.207053569294686
30
0
41
1
10
36.9093920252777
20
-0.204477914371978
30
0
41
1
10
36.9056681627639
20
-0.203576091744821
30
0
41
1
10
36.9023937107708
20
-0.203160899014023
30
0
0
SPLINE
5
129
100
AcDbEntity
8
1
62
256
6
ByLayer
370
18
48
1
60
0
100
AcDbSpline
70
4
71
3
72
12
73
8
40
0
40
0
40
0
40
0
40
0.5
40
0.5
40
0.75
40
0.75
40
1
40
1
40
1
40
1
41
1
10
36.9023937107669
20
-0.203160899017178
30
0
41
1
10
36.856548401903
20
-0.197347822812219
30
0
41
1
10
36.8109595549693
20
-0.186177655267471
30
0
41
1
10
36.7431524842596
20
-0.161708417065512
30
0
41
1
10
36.7206408438537
20
-0.152270706409837
30
0
41
1
10
36.6758845983412
20
-0.130977628140897
30
0
41
1
10
36.6536228269354
20
-0.119114709083391
30
0
41
1
10
36.6314548397597
20
-0.106065571446351
30
0
0
SPLINE
5
12A
100
AcDbEntity
8
1
62
256
6
ByLayer
370
18
48
1
60
0
100
AcDbSpline
70
4
71
3
72
10
73
6
40
0
40
0
40
0
40
0
40
0.5
40
0.5
40
1
40
1
40
1
40
1
41
1
10
36.5549290678676
20
-0.026072981136906
30
0
41
1
10
36.5080890667056
20
0.0406073870343846
30
0
41
1
10
36.4608708202849
20
0.102714581341218
30
0
41
1
10
36.3652052216899
20
0.217365951082059
30
0
41
1
10
36.3170274390621
20
0.269618788930899
30
0
41
1
10
36.2681895990475
20
0.316432772705951
30
0
0
SPLINE
5
12B
100
AcDbEntity
8
1
62
256
6
ByLayer
370
18
48
1
60
0
100
AcDbSpline
70
4
71
3
72
28
73
24
40
0
40
0
40
0
40
0
40
0.125
40
0.125
40
0.25
40
0.25
40
0.375
40
0.375
40
0.5
40
0.5
40
0.625
40
0.625
40
0.6875
40
0.6875
40
0.75
40
0.75
40
0.8125
40
0.8125
40
0.875
40
0.875
40
0.9375
40
0.9375
40
1
40
1
40
1
40
1
41
1
10
36.2681895990475
20
0.316432772705951
30
0
41
1
10
36.2624599327559
20
0.321924999731749
30
0
41
1
10
36.2558253797845
20
0.327945012754526
30
0
41
1
10
36.2411444721247
20
0.340769413206772
30
0
41
1
10
36.2330227979702
20
0.347632462759293
30
0
41
1
10
36.2160320474232
20
0.361635269497924
30
0
41
1
10
36.2071163924571
20
0.368819246121035
30
0
41
1
10
36.188497872042
20
0.383574348608846
30
0
41
1
10
36.1786996796638
20
0.391217118955325
30
0
41
1
10
36.1589536876708
20
0.406459108986183
30
0
41
1
10
36.1489665211892
20
0.414090918006991
30
0
41
1
10
36.1338338147554
20
0.42561358064512
30
0
41
1
10
36.1287640968472
20
0.42946718778029
30
0
41
1
10
36.118574072935
20
0.437214043658486
30
0
41
1
10
36.1134619725727
20
0.44110119602621
30
0
41
1
10
36.1034697553431
20
0.448715955488012
30
0
41
1
10
36.0985567229953
20
0.45246861881489
30
0
41
1
10
36.0889275865919
20
0.459854670221716
30
0
41
1
10
36.0841752972223
20
0.46351604170755
30
0
41
1
10
36.0751805558696
20
0.470491933824263
30
0
41
1
10
36.0709197675918
20
0.473820268816382
30
0
41
1
10
36.0629481229454
20
0.480106365083202
30
0
41
1
10
36.0592312678508
20
0.483069690095846
30
0
41
1
10
36.0559618792179
20
0.485711867380729
30
0
0
SPLINE
5
12C
100
AcDbEntity
8
1
62
256
6
ByLayer
370
18
48
1
60
0
100
AcDbSpline
70
4
71
3
72
12
73
8
40
0
40
0
40
0
40
0
40
0.49999999999999
40
0.49999999999999
40
0.749999999999995
40
0.749999999999995
40
1
40
1
40
1
40
1
41
1
10
36.0559618792136
20
0.48571186738107
30
0
41
1
10
36.0100966103193
20
0.522778177093983
30
0
41
1
10
35.9644990270836
20
0.564655880214133
30
0
41
1
10
35.8966899292173
20
0.634002943409826
30
0
41
1
10
35.8741796007503
20
0.658207296104678
30
0
41
1
10
35.8294292320353
20
0.708574820345234
30
0
41
1
10
35.8071719083576
20
0.734755344334559
30
0
41
1
10
35.785009268845
20
0.761901962365329
30
0
0
SPLINE
5
12D
100
AcDbEntity
8
1
62
256
6
ByLayer
370
18
48
1
60
0
100
AcDbSpline
70
4
71
3
72
10
73
6
40
0
40
0
40
0
40
0
40
0.5
40
0.5
40
1
40
1
40
1
40
1
41
1
10
35.7086146019441
20
0.83596538837557
30
0
41
1
10
35.6617241446262
20
0.867158847312965
30
0
41
1
10
35.6144624471785
20
0.89280512290614
30
0
41
1
10
35.5187322668551
20
0.932378956212773
30
0
41
1
10
35.4705387605961
20
0.94621309626109
30
0
41
1
10
35.4217585092954
20
0.953838925331183
30
0
0
SPLINE
5
12E
100
AcDbEntity
8
1
62
256
6
ByLayer
370
18
48
1
60
0
100
AcDbSpline
70
4
71
3
72
28
73
24
40
0
40
0
40
0
40
0
40
0.124999999999979
40
0.124999999999979
40
0.249999999999959
40
0.249999999999959
40
0.374999999999938
40
0.374999999999938
40
0.499999999999918
40
0.499999999999918
40
0.624999999999897
40
0.624999999999897
40
0.687499999999914
40
0.687499999999914
40
0.749999999999931
40
0.749999999999931
40
0.812499999999949
40
0.812499999999949
40
0.874999999999966
40
0.874999999999966
40
0.937499999999983
40
0.937499999999983
40
1
40
1
40
1
40
1
41
1
10
35.4217585092954
20
0.953838925331183
30
0
41
1
10
35.416021011257
20
0.954735869856165
30
0
41
1
10
35.4093771208882
20
0.956563949007318
30
0
41
1
10
35.3946789978558
20
0.961624238629156
30
0
41
1
10
35.3865498802318
20
0.964900314256454
30
0
41
1
10
35.3695489051622
20
0.972520041645964
30
0
41
1
10
35.3606296768564
20
0.976876541822463
30
0
41
1
10
35.3420103425833
20
0.986679383028047
30
0
41
1
10
35.3322148279145
20
0.992185216633629
30
0
41
1
10
35.3124736444902
20
1.00405808821972
30
0
41
1
10
35.3024909043138
20
1.01043602682787
30
0
41
1
10
35.2873669033646
20
1.02080765107479
30
0
41
1
10
35.2823004212452
20
1.02440034535479
30
0
41
1
10
35.2721172276928
20
1.03190630231754
30
0
41
1
10
35.2670032224098
20
1.03582022190864
30
0
41
1
10
35.2570072629353
20
1.04380755370082
30
0
41
1
10
35.2520919633606
20
1.04790452374081
30
0
41
1
10
35.242457643735
20
1.05634339799471
30
0
41
1
10
35.2377018711926
20
1.0607224757174
30
0
41
1
10
35.2286967638306
20
1.06952890439049
30
0
41
1
10
35.2244310152389
20
1.0739662817881
30
0
41
1
10
35.2164503576814
20
1.08292081513215
30
0
41
1
10
35.2127289396543
20
1.08745333621991
30
0
41
1
10
35.209456205647
20
1.09188107427204
30
0
0
SPLINE
5
12F
100
AcDbEntity
8
1
62
256
6
ByLayer
370
18
48
1
60
0
100
AcDbSpline
70
4
71
3
72
12
73
8
40
0
40
0
40
0
40
0
40
0.50000000000001
40
0.50000000000001
40
0.750000000000005
40
0.750000000000005
40
1
40
1
40
1
40
1
41
1
10
35.2094562056461
20
1.09188107426971
30
0
41
1
10
35.1636439026547
20
1.15386132588225
30
0
41
1
10
35.1180823523623
20
1.2192011686227
30
0
41
1
10
35.0502985322616
20
1.32144739037113
30
0
41
1
10
35.0277916080012
20
1.35623877430183
30
0
41
1
10
34.9830401401539
20
1.42697874225198
30
0
41
1
10
34.9607781720522
20
1.46295309010952
30
0
41
1
10
34.9386076122748
20
1.49950926055794
30
0
0
SPLINE
5
130
100
AcDbEntity
8
1
62
256
6
ByLayer
370
18
48
1
60
0
100
AcDbSpline
70
4
71
3
72
8
73
4
40
0
40
0
40
0
40
0
40
1
40
1
40
1
40
1
41
1
10
34.8620889741438
20
1.55513352194691
30
0
41
1
10
34.8876164071144
20
1.5369436204839
30
0
41
1
10
34.9131190660317
20
1.51839941163175
30
0
41
1
10
34.9386076122748
20
1.49950926055794
30
0
0
SPLINE
5
131
100
AcDbEntity
8
1
62
256
6
ByLayer
370
18
48
1
60
0
100
AcDbSpline
70
4
71
3
72
28
73
24
40
0
40
0
40
0
40
0
40
0.125000000000021
40
0.125000000000021
40
0.250000000000041
40
0.250000000000041
40
0.375000000000062
40
0.375000000000062
40
0.500000000000083
40
0.500000000000083
40
0.625000000000103
40
0.625000000000103
40
0.687500000000086
40
0.687500000000086
40
0.750000000000069
40
0.750000000000069
40
0.812500000000052
40
0.812500000000052
40
0.875000000000034
40
0.875000000000034
40
0.937500000000017
40
0.937500000000017
40
1
40
1
40
1
40
1
41
1
10
34.5752684033431
20
1.42826835997656
30
0
41
1
10
34.5695336952968
20
1.42442106374472
30
0
41
1
10
34.5628940387955
20
1.42174560909385
30
0
41
1
10
34.5482061889913
20
1.41817206308866
30
0
41
1
10
34.5400832903298
20
1.41729546437617
30
0
41
1
10
34.5230937050064
20
1.41721265210796
30
0
41
1
10
34.5141795628018
20
1.4179858321744
30
0
41
1
10
34.4955675043518
20
1.42113238509054
30
0
41
1
10
34.4857738914881
20
1.42354281025047
30
0
41
1
10
34.4660329743586
20
1.42997363255085
30
0
41
1
10
34.4560492238599
20
1.43398303870413
30
0
41
1
10
34.4409222794812
20
1.44139248553236
30
0
41
1
10
34.4358545760627
20
1.44409713597474
30
0
41
1
10
34.4256684458926
20
1.45005317676004
30
0
41
1
10
34.4205515784629
20
1.45330842385422
30
0
41
1
10
34.4105507350012
20
1.46027129429072
30
0
41
1
10
34.4056331867997
20
1.46399674893976
30
0
41
1
10
34.3959952662044
20
1.47201577366565
30
0
41
1
10
34.3912379065428
20
1.47634864630288
30
0
41
1
10
34.3822300765202
20
1.48544881608345
30
0
41
1
10
34.3779636751863
20
1.49022160639544
30
0
41
1
10
34.3699828890321
20
1.50028474898593
30
0
41
1
10
34.3662615511246
20
1.50559776345966
30
0
41
1
10
34.3629890135069
20
1.51104208863114
30
0
0
SPLINE
5
132
100
AcDbEntity
8
1
62
256
6
ByLayer
370
18
48
1
60
0
100
AcDbSpline
70
4
71
3
72
8
73
4
40
0
40
0
40
0
40
0
40
1
40
1
40
1
40
1
41
1
10
34.3629890135027
20
1.51104208863703
30
0
41
1
10
34.3386383513891
20
1.55155282928979
30
0
41
1
10
34.3143726871616
20
1.59242827403867
30
0
41
1
10
34.2901741224968
20
1.63365407233187
30
0
0
SPLINE
5
133
100
AcDbEntity
8
1
62
256
6
ByLayer
370
18
48
1
60
0
100
AcDbSpline
70
4
71
3
72
8
73
4
40
0
40
0
40
0
40
0
40
1
40
1
40
1
40
1
41
1
10
25.2098795885726
20
-1.19272007110374
30
0
41
1
10
25.2084797920194
20
-1.22302961069053
30
0
41
1
10
25.2084386754026
20
-1.25412587650538
30
0
41
1
10
25.20963129112
20
-1.2856285148215
30
0
0
SPLINE
5
134
100
AcDbEntity
8
1
62
256
6
ByLayer
370
18
48
1
60
0
100
AcDbSpline
70
4
71
3
72
8
73
4
40
0
40
0
40
0
40
0
40
1
40
1
40
1
40
1
41
1
10
34.4298762263577
20
-0.610265119649881
30
0
41
1
10
34.4721486873705
20
-0.636081278173805
30
0
41
1
10
34.5148540433321
20
-0.657427660220122
30
0
41
1
10
34.5580281557502
20
-0.674066273338326
30
0
0
SPLINE
5
135
100
AcDbEntity
8
1
62
256
6
ByLayer
370
18
48
1
60
0
100
AcDbSpline
70
4
71
3
72
26
73
22
40
0
40
0
40
0
40
0
40
0.125
40
0.125
40
0.25
40
0.25
40
0.375
40
0.375
40
0.5
40
0.5
40
0.625
40
0.625
40
0.75
40
0.75
40
0.8125
40
0.8125
40
0.875
40
0.875
40
0.9375
40
0.9375
40
1
40
1
40
1
40
1
41
1
10
34.5580281557502
20
-0.674066273338326
30
0
41
1
10
34.5639350593526
20
-0.676342699610558
30
0
41
1
10
34.5708005800079
20
-0.679564400035332
30
0
41
1
10
34.5859773580752
20
-0.68738902189267
30
0
41
1
10
34.5943791015593
20
-0.692053706382268
30
0
41
1
10
34.6118546820189
20
-0.702288785543317
30
0
41
1
10
34.6209813570934
20
-0.707883277806332
30
0
41
1
10
34.6399344777823
20
-0.720008549886558
30
0
41
1
10
34.649829774599
20
-0.726590180138402
30
0
41
1
10
34.6696105912723
20
-0.740317585895383
30
0
41
1
10
34.6795677053656
20
-0.747505089812137
30
0
41
1
10
34.6995768092194
20
-0.762669230497124
30
0
41
1
10
34.7096981056954
20
-0.770710957437046
30
0
41
1
10
34.7242285046407
20
-0.783001049319466
30
0
41
1
10
34.7289873672172
20
-0.787153460641747
30
0
41
1
10
34.738306309473
20
-0.795591858287651
30
0
41
1
10
34.7428921050002
20
-0.799904715908212
30
0
41
1
10
34.751566951345
20
-0.808444223121967
30
0
41
1
10
34.7556824153636
20
-0.812692544251547
30
0
41
1
10
34.7633995857146
20
-0.82113898864543
30
0
41
1
10
34.7670186429519
20
-0.825361157403677
30
0
41
1
10
34.7702344751141
20
-0.829438725924916
30
0
0
SPLINE
5
136
100
AcDbEntity
8
1
62
256
6
ByLayer
370
18
48
1
60
0
100
AcDbSpline
70
4
71
3
72
12
73
8
40
0
40
0
40
0
40
0
40
0.500000000000009
40
0.500000000000009
40
0.750000000000005
40
0.750000000000005
40
1
40
1
40
1
40
1
41
1
10
34.7702344751141
20
-0.829438725924547
30
0
41
1
10
34.8166521375696
20
-0.88829478236994
30
0
41
1
10
34.8626499659343
20
-0.950955263413221
30
0
41
1
10
34.9309618503817
20
-1.04974171938446
30
0
41
1
10
34.9536178216027
20
-1.08346361763205
30
0
41
1
10
34.9986478924557
20
-1.15226087678374
30
0
41
1
10
35.0210379131668
20
-1.18735450490047
30
0
41
1
10
35.0433279515616
20
-1.22311727841216
30
0
0
SPLINE
5
137
100
AcDbEntity
8
1
62
256
6
ByLayer
370
18
48
1
60
0
100
AcDbSpline
70
4
71
3
72
10
73
6
40
0
40
0
40
0
40
0
40
0.5
40
0.5
40
1
40
1
40
1
40
1
41
1
10
35.1200782487988
20
-1.28780430633236
30
0
41
1
10
35.1664182059156
20
-1.29018093826252
30
0
41
1
10
35.2131994399428
20
-1.28698548667825
30
0
41
1
10
35.3080703616198
20
-1.26927739444702
30
0
41
1
10
35.3558912596471
20
-1.25483272609938
30
0
41
1
10
35.4043702262094
20
-1.2346660157483
30
0
0
SPLINE
5
138
100
AcDbEntity
8
1
62
256
6
ByLayer
370
18
48
1
60
0
100
AcDbSpline
70
4
71
3
72
26
73
22
40
0
40
0
40
0
40
0
40
0.124999999999987
40
0.124999999999987
40
0.249999999999973
40
0.249999999999973
40
0.37499999999996
40
0.37499999999996
40
0.499999999999947
40
0.499999999999947
40
0.624999999999933
40
0.624999999999933
40
0.74999999999992
40
0.74999999999992
40
0.81249999999994
40
0.81249999999994
40
0.87499999999996
40
0.87499999999996
40
0.93749999999998
40
0.93749999999998
40
1
40
1
40
1
40
1
41
1
10
35.4043702262094
20
-1.2346660157483
30
0
41
1
10
35.4102869852679
20
-1.23220470985518
30
0
41
1
10
35.4171643330868
20
-1.23103932735475
30
0
41
1
10
35.4323629305052
20
-1.23061333536637
30
0
41
1
10
35.4407741973026
20
-1.23139270803344
30
0
41
1
10
35.4582612259612
20
-1.23459490995222
30
0
41
1
10
35.4673906815241
20
-1.23700697322178
30
0
41
1
10
35.4863420267408
20
-1.24338361988094
30
0
41
1
10
35.49623303739
20
-1.24738975852463
30
0
41
1
10
35.5160049486256
20
-1.25677853809265
30
0
41
1
10
35.5259565126718
20
-1.26217506847198
30
0
41
1
10
35.5459542393256
20
-1.27458629803107
30
0
41
1
10
35.5560727471425
20
-1.28167039668969
30
0
41
1
10
35.5706063356941
20
-1.29335632257224
30
0
41
1
10
35.5753668970056
20
-1.2974422633678
30
0
41
1
10
35.5846904913621
20
-1.30605618963781
30
0
41
1
10
35.5892801070163
20
-1.31061574952531
30
0
41
1
10
35.5979653183574
20
-1.31999779630854
30
0
41
1
10
35.6020863803793
20
-1.32483913980931
30
0
41
1
10
35.609814930501
20
-1.33487028805945
30
0
41
1
10
35.6134401577
20
-1.3400929891821
30
0
41
1
10
35.6166617761564
20
-1.3453867824839
30
0
0
SPLINE
5
139
100
AcDbEntity
8
1
62
256
6
ByLayer
370
18
48
1
60
0
100
AcDbSpline
70
4
71
3
72
12
73
8
40
0
40
0
40
0
40
0
40
0.5
40
0.5
40
0.75
40
0.75
40
1
40
1
40
1
40
1
41
1
10
35.6166617761564
20
-1.34538678248364
30
0
41
1
10
35.663136922976
20
-1.42175517441424
30
0
41
1
10
35.7092175818653
20
-1.49995997165257
30
0
41
1
10
35.7776716046426
20
-1.61923908012986
30
0
41
1
10
35.800376209266
20
-1.65932511896517
30
0
41
1
10
35.8454980106982
20
-1.73992737551794
30
0
41
1
10
35.8679308732537
20
-1.78046910534411
30
0
41
1
10
35.8902602642122
20
-1.82123454960086
30
0
0
SPLINE
5
13A
100
AcDbEntity
8
1
62
256
6
ByLayer
370
18
48
1
60
0
100
AcDbSpline
70
4
71
3
72
10
73
6
40
0
40
0
40
0
40
0
40
0.5
40
0.5
40
1
40
1
40
1
40
1
41
1
10
35.9663448718057
20
-1.86082856636901
30
0
41
1
10
36.0126917125847
20
-1.82452841026321
30
0
41
1
10
36.0594616090589
20
-1.78341252708216
30
0
41
1
10
36.1543195927886
20
-1.69132685489083
30
0
41
1
10
36.2021496492076
20
-1.64059146507989
30
0
41
1
10
36.2506921508639
20
-1.58499255675471
30
0
0
SPLINE
5
13B
100
AcDbEntity
8
1
62
256
6
ByLayer
370
18
48
1
60
0
100
AcDbSpline
70
4
71
3
72
26
73
22
40
0
40
0
40
0
40
0
40
0.125
40
0.125
40
0.25
40
0.25
40
0.374999999999999
40
0.374999999999999
40
0.499999999999999
40
0.499999999999999
40
0.624999999999999
40
0.624999999999999
40
0.749999999999999
40
0.749999999999999
40
0.812499999999999
40
0.812499999999999
40
0.874999999999999
40
0.874999999999999
40
0.9375
40
0.9375
40
1
40
1
40
1
40
1
41
1
10
36.2506921508639
20
-1.58499255675471
30
0
41
1
10
36.2566096803155
20
-1.57821482247701
30
0
41
1
10
36.2634887823086
20
-1.57285784941024
30
0
41
1
10
36.2786935312378
20
-1.56423894915639
30
0
41
1
10
36.2871103395174
20
-1.56098820593601
30
0
41
1
10
36.3046105580824
20
-1.55658500553108
30
0
41
1
10
36.3137472252398
20
-1.55538796871272
30
0
41
1
10
36.3327143012974
20
-1.55489772776434
30
0
41
1
10
36.342612553846
20
-1.55563013379893
30
0
41
1
10
36.362393613986
20
-1.55904983000448
30
0
41
1
10
36.3723485488066
20
-1.56172160626008
30
0
41
1
10
36.3923486068385
20
-1.56924041425833
30
0
41
1
10
36.4024600682414
20
-1.57414472048271
30
0
41
1
10
36.4169739062011
20
-1.58320212756402
30
0
41
1
10
36.4217271343794
20
-1.58651349695433
30
0
41
1
10
36.4310345688482
20
-1.59380857173457
30
0
41
1
10
36.4356144970475
20
-1.5978216881638
30
0
41
1
10
36.4442789122412
20
-1.60640788701698
30
0
41
1
10
36.4483895401125
20
-1.61099540470738
30
0
41
1
10
36.4560980403094
20
-1.62085200980968
30
0
41
1
10
36.4597138210333
20
-1.62615676553364
30
0
41
1
10
36.4629284665441
20
-1.63173430032862
30
0
0
SPLINE
5
13C
100
AcDbEntity
8
1
62
256
6
ByLayer
370
18
48
1
60
0
100
AcDbSpline
70
4
71
3
72
12
73
8
40
0
40
0
40
0
40
0
40
0.500000000000009
40
0.500000000000009
40
0.750000000000004
40
0.750000000000004
40
1
40
1
40
1
40
1
41
1
10
36.4629284665441
20
-1.63173430032853
30
0
41
1
10
36.5093858392408
20
-1.71233964603073
30
0
41
1
10
36.5554272282984
20
-1.79265922033443
30
0
41
1
10
36.6238021633366
20
-1.91196603398944
30
0
41
1
10
36.646477725281
20
-1.95153639931362
30
0
41
1
10
36.6915377270662
20
-2.03007237404336
30
0
41
1
10
36.7139375521096
20
-2.06906483071933
30
0
41
1
10
36.7362333119572
20
-2.1077757429502
30
0
0
SPLINE
5
13D
100
AcDbEntity
8
1
62
256
6
ByLayer
370
18
48
1
60
0
100
AcDbSpline
70
4
71
3
72
10
73
6
40
0
40
0
40
0
40
0
40
0.5
40
0.5
40
1
40
1
40
1
40
1
41
1
10
36.8128634750371
20
-2.11621136085202
30
0
41
1
10
36.859126340352
20
-2.04761656903938
30
0
41
1
10
36.9058545600972
20
-1.97550173603315
30
0
41
1
10
37.0006680843271
20
-1.82454161214378
30
0
41
1
10
37.0484804386406
20
-1.74613236097662
30
0
41
1
10
37.0969777797907
20
-1.66484409868309
30
0
0
SPLINE
5
13E
100
AcDbEntity
8
1
62
256
6
ByLayer
370
18
48
1
60
0
100
AcDbSpline
70
4
71
3
72
26
73
22
40
0
40
0
40
0
40
0
40
0.124999999999987
40
0.124999999999987
40
0.249999999999974
40
0.249999999999974
40
0.374999999999961
40
0.374999999999961
40
0.499999999999948
40
0.499999999999948
40
0.624999999999935
40
0.624999999999935
40
0.749999999999922
40
0.749999999999922
40
0.812499999999941
40
0.812499999999941
40
0.874999999999961
40
0.874999999999961
40
0.93749999999998
40
0.93749999999998
40
1
40
1
40
1
40
1
41
1
10
37.0969777797906
20
-1.66484409868309
30
0
41
1
10
37.1029065788569
20
-1.65490661011015
30
0
41
1
10
37.1098010300842
20
-1.64627763637225
30
0
41
1
10
37.1250397437304
20
-1.63095759900259
30
0
41
1
10
37.1334758727876
20
-1.62424705659731
30
0
41
1
10
37.1510090525944
20
-1.61303143091922
30
0
41
1
10
37.1601599860562
20
-1.60845525889201
30
0
41
1
10
37.1791494557207
20
-1.60123799275584
30
0
41
1
10
37.189053407634
20
-1.59860382238281
30
0
41
1
10
37.2088355957715
20
-1.5955331124967
30
0
41
1
10
37.2187879239332
20
-1.59505357107599
30
0
41
1
10
37.2387766613121
20
-1.596447476083
30
0
41
1
10
37.2488710527899
20
-1.59835907119373
30
0
41
1
10
37.263356636767
20
-1.60326869698602
30
0
41
1
10
37.2681006356668
20
-1.6052475104006
30
0
41
1
10
37.2773902773103
20
-1.60998972414666
30
0
41
1
10
37.2819606559975
20
-1.61277555421555
30
0
41
1
10
37.2906075973015
20
-1.61910610824441
30
0
41
1
10
37.2947108573951
20
-1.62265814780758
30
0
41
1
10
37.3024075820496
20
-1.6306585808386
30
0
41
1
10
37.3060191486462
20
-1.63513920578833
30
0
41
1
10
37.3092320472094
20
-1.64004695219111
30
0
0
SPLINE
5
13F
100
AcDbEntity
8
1
62
256
6
ByLayer
370
18
48
1
60
0
100
AcDbSpline
70
4
71
3
72
12
73
8
40
0
40
0
40
0
40
0
40
0.50000000000001
40
0.50000000000001
40
0.750000000000005
40
0.750000000000005
40
1
40
1
40
1
40
1
41
1
10
37.3092320472094
20
-1.6400469521912
30
0
41
1
10
37.3556425481638
20
-1.71093962577802
30
0
41
1
10
37.40161774304
20
-1.77937072154208
30
0
41
1
10
37.4699253182936
20
-1.87803847671557
30
0
41
1
10
37.4925843940625
20
-1.91026511152151
30
0
41
1
10
37.5376273586468
20
-1.97323965074071
30
0
41
1
10
37.56002550215
20
-2.00400832001969
30
0
41
1
10
37.582322441365
20
-2.03404617990043
30
0
0
SPLINE
5
140
100
AcDbEntity
8
1
62
256
6
ByLayer
370
18
48
1
60
0
100
AcDbSpline
70
4
71
3
72
8
73
4
40
0
40
0
40
0
40
0
40
1
40
1
40
1
40
1
41
1
10
37.6596932914331
20
-2.00933246435724
30
0
41
1
10
37.6338792947553
20
-2.01806840374192
30
0
41
1
10
37.608093331775
20
-2.02630617616168
30
0
41
1
10
37.582322441365
20
-2.03404617990043
30
0
0
SPLINE
5
141
100
AcDbEntity
8
1
62
256
6
ByLayer
370
18
48
1
60
0
100
AcDbSpline
70
4
71
3
72
10
73
6
40
0
40
0
40
0
40
0
40
0.5
40
0.5
40
1
40
1
40
1
40
1
41
1
10
37.6596932914331
20
-2.00933246435724
30
0
41
1
10
37.7059562173897
20
-1.92015080618651
30
0
41
1
10
37.7526388074284
20
-1.8295816993822
30
0
41
1
10
37.8472592470387
20
-1.64605068138391
30
0
41
1
10
37.8949507515255
20
-1.55357030058826
30
0
41
1
10
37.9433857602886
20
-1.46049708921424
30
0
0
SPLINE
5
142
100
AcDbEntity
8
1
62
256
6
ByLayer
370
18
48
1
60
0
100
AcDbSpline
70
4
71
3
72
26
73
22
40
0
40
0
40
0
40
0
40
0.125
40
0.125
40
0.25
40
0.25
40
0.375
40
0.375
40
0.5
40
0.5
40
0.625
40
0.625
40
0.75
40
0.75
40
0.8125
40
0.8125
40
0.875
40
0.875
40
0.9375
40
0.9375
40
1
40
1
40
1
40
1
41
1
10
37.9433857602885
20
-1.46049708921427
30
0
41
1
10
37.9493056950022
20
-1.44912128173715
30
0
41
1
10
37.9561888770335
20
-1.43870107758096
30
0
41
1
10
37.971404137748
20
-1.41928633997199
30
0
41
1
10
37.9798279586593
20
-1.41024415705033
30
0
41
1
10
37.997341473315
20
-1.39407462199557
30
0
41
1
10
38.0064843762364
20
-1.38686260707641
30
0
41
1
10
38.0254634260168
20
-1.37406219112222
30
0
41
1
10
38.0353661212428
20
-1.36846024512681
30
0
41
1
10
38.055151062504
20
-1.35932273653347
30
0
41
1
10
38.0651070886764
20
-1.35572327618539
30
0
41
1
10
38.0851080512286
20
-1.3506590404063
30
0
41
1
10
38.0952130694004
20
-1.34921052660801
30
0
41
1
10
38.1097128538028
20
-1.34908734058493
30
0
41
1
10
38.1144613980636
20
-1.34938194341868
30
0
41
1
10
38.1237596685812
20
-1.35073771008197
30
0
41
1
10
38.1283341438556
20
-1.35181125610234
30
0
41
1
10
38.1369876555315
20
-1.35479069120413
30
0
41
1
10
38.1410935445838
20
-1.35669480855964
30
0
41
1
10
38.1487943054111
20
-1.36146237419879
30
0
41
1
10
38.1524071703643
20
-1.36434892124595
30
0
41
1
10
38.1556207884567
20
-1.36774188835562
30
0
0
SPLINE
5
143
100
AcDbEntity
8
1
62
256
6
ByLayer
370
18
48
1
60
0
100
AcDbSpline
70
4
71
3
72
8
73
4
40
0
40
0
40
0
40
0
40
1
40
1
40
1
40
1
41
1
10
38.3905170090268
20
-1.58311859267582
30
0
41
1
10
38.4035625891403
20
-1.59317720845809
30
0
41
1
10
38.4165668509428
20
-1.60287364936977
30
0
41
1
10
38.4295350484958
20
-1.61221227035179
30
0
0
SPLINE
5
144
100
AcDbEntity
8
1
62
256
6
ByLayer
370
18
48
1
60
0
100
AcDbSpline
70
4
71
3
72
8
73
4
40
0
40
0
40
0
40
0
40
1
40
1
40
1
40
1
41
1
10
38.5057848653236
20
-1.55906759676202
30
0
41
1
10
38.4803388400234
20
-1.57717612030234
30
0
41
1
10
38.4549274057963
20
-1.59489336891653
30
0
41
1
10
38.4295350484956
20
-1.61221227035202
30
0
0
SPLINE
5
145
100
AcDbEntity
8
1
62
256
6
ByLayer
370
18
48
1
60
0
100
AcDbSpline
70
4
71
3
72
8
73
4
40
0
40
0
40
0
40
0
40
1
40
1
40
1
40
1
41
1
10
38.5057848653236
20
-1.5590675967488
30
0
41
1
10
38.5378680512643
20
-1.49364912702447
30
0
41
1
10
38.5701636667287
20
-1.42867438414834
30
0
41
1
10
38.6027595094232
20
-1.36422011253998
30
0
0
SPLINE
5
146
100
AcDbEntity
8
1
62
256
6
ByLayer
370
18
48
1
60
0
100
AcDbSpline
70
4
71
3
72
8
73
4
40
0
40
0
40
0
40
0
40
1
40
1
40
1
40
1
41
1
10
41.1416080333213
20
-0.239962158380052
30
0
41
1
10
41.116131378621
20
-0.201478276494242
30
0
41
1
10
41.0905251494412
20
-0.16418068144165
30
0
41
1
10
41.0647458103482
20
-0.128130117407949
30
0
0
SPLINE
5
147
100
AcDbEntity
8
1
62
256
6
ByLayer
370
18
48
1
60
0
100
AcDbSpline
70
4
71
3
72
28
73
24
40
0
40
0
40
0
40
0
40
0.12499999999998
40
0.12499999999998
40
0.249999999999959
40
0.249999999999959
40
0.374999999999939
40
0.374999999999939
40
0.499999999999919
40
0.499999999999919
40
0.624999999999898
40
0.624999999999898
40
0.687499999999915
40
0.687499999999915
40
0.749999999999932
40
0.749999999999932
40
0.812499999999949
40
0.812499999999949
40
0.874999999999966
40
0.874999999999966
40
0.937499999999983
40
0.937499999999983
40
1
40
1
40
1
40
1
41
1
10
41.0647458103483
20
-0.128130117407949
30
0
41
1
10
41.0590163075696
20
-0.120117817090318
30
0
41
1
10
41.0523826732744
20
-0.111890838043024
30
0
41
1
10
41.0377075236298
20
-0.0951287190052597
30
0
41
1
10
41.0295927471343
20
-0.086528291840466
30
0
41
1
10
41.0126243824732
20
-0.0695878668475416
30
0
41
1
10
41.0037238624845
20
-0.0611880958185509
30
0
41
1
10
40.9851292288495
20
-0.0445106183169344
30
0
41
1
10
40.9753388040309
20
-0.0361578465921752
30
0
41
1
10
40.9555979704191
20
-0.0200826941531886
30
0
41
1
10
40.9456130018683
20
-0.0123195935734657
30
0
41
1
10
40.9304795298967
20
-0.0010945483943772
30
0
41
1
10
40.9254086886934
20
0.0025763936876047
30
0
41
1
10
40.9152134669287
20
0.0097643069020137
30
0
41
1
10
40.9100886154776
20
0.0132796038549259
30
0
41
1
10
40.9000743733693
20
0.0199492479705725
30
0
41
1
10
40.8951513210529
20
0.023128815245542
30
0
41
1
10
40.8855058376926
20
0.029140139241207
30
0
41
1
10
40.8807461682656
20
0.0319927485790004
30
0
41
1
10
40.8717349920871
20
0.0371297247542941
30
0
41
1
10
40.8674684974834
20
0.0394257684081651
30
0
41
1
10
40.8594891875308
20
0.0433803605586149
30
0
41
1
10
40.8557690476034
20
0.045038953838997
30
0
41
1
10
40.852498473504
20
0.0462613259844602
30
0
0
SPLINE
5
148
100
AcDbEntity
8
1
62
256
6
ByLayer
370
18
48
1
60
0
100
AcDbSpline
70
4
71
3
72
8
73
4
40
0
40
0
40
0
40
0
40
1
40
1
40
1
40
1
41
1
10
40.8524984735001
20
0.0462613259827833
30
0
41
1
10
40.810110473191
20
0.0621037772755244
30
0
41
1
10
40.7679309821082
20
0.0824828363573999
30
0
41
1
10
40.7260686973444
20
0.107144708025089
30
0
0
SPLINE
5
149
100
AcDbEntity
8
1
62
256
6
ByLayer
370
18
48
1
60
0
100
AcDbSpline
70
4
71
3
72
8
73
4
40
0
40
0
40
0
40
0
40
1
40
1
40
1
40
1
41
1
10
40.7260686973444
20
0.107144708025089
30
0
41
1
10
40.6155816505759
20
0.20461619637058
30
0
41
1
10
40.50665678899
20
0.304372221293704
30
0
41
1
10
40.3984527349899
20
0.405500027376775
30
0
0
SPLINE
5
14A
100
AcDbEntity
8
1
62
256
6
ByLayer
370
18
48
1
60
0
100
AcDbSpline
70
4
71
3
72
10
73
6
40
0
40
0
40
0
40
0
40
0.5
40
0.5
40
1
40
1
40
1
40
1
41
1
10
40.3984527349899
20
0.405500027376775
30
0
41
1
10
40.3687992099169
20
0.435143382921325
30
0
41
1
10
40.338922930993
20
0.462767838737932
30
0
41
1
10
40.2788984965156
20
0.513543372251291
30
0
41
1
10
40.2487130218869
20
0.536728458246415
30
0
41
1
10
40.2182797774566
20
0.557623588163864
30
0
0
SPLINE
5
14B
100
AcDbEntity
8
1
62
256
6
ByLayer
370
18
48
1
60
0
100
AcDbSpline
70
4
71
3
72
28
73
24
40
0
40
0
40
0
40
0
40
0.125
40
0.125
40
0.250000000000001
40
0.250000000000001
40
0.375000000000001
40
0.375000000000001
40
0.500000000000001
40
0.500000000000001
40
0.625000000000002
40
0.625000000000002
40
0.687500000000001
40
0.687500000000001
40
0.750000000000001
40
0.750000000000001
40
0.812500000000001
40
0.812500000000001
40
0.875000000000001
40
0.875000000000001
40
0.9375
40
0.9375
40
1
40
1
40
1
40
1
41
1
10
40.2182797774566
20
0.557623588163864
30
0
41
1
10
40.2125515600611
20
0.561556519039783
30
0
41
1
10
40.205918600134
20
0.566171245337273
30
0
41
1
10
40.1912413151293
20
0.576423832261838
30
0
41
1
10
40.1831231772595
20
0.582118144475373
30
0
41
1
10
40.1661462766786
20
0.594084932652379
30
0
41
1
10
40.1572403088069
20
0.600390046392448
30
0
41
1
10
40.1386403507219
20
0.613646705731298
30
0
41
1
10
40.1288494286185
20
0.620666704877863
30
0
41
1
10
40.1091104305897
20
0.634992140088912
30
0
41
1
10
40.0991262069736
20
0.642322176578062
30
0
41
1
10
40.0839936649714
20
0.653655887654338
30
0
41
1
10
40.0789231416497
20
0.657490725255826
30
0
41
1
10
40.0687292673727
20
0.665301535168112
30
0
41
1
10
40.0636083097177
20
0.669276890042994
30
0
41
1
10
40.0536008563183
20
0.677179841514601
30
0
41
1
10
40.0486805848653
20
0.681132797344276
30
0
41
1
10
40.03903886413
20
0.689050764481181
30
0
41
1
10
40.0342805732795
20
0.693048246614552
30
0
41
1
10
40.0252722031993
20
0.70083551044317
30
0
41
1
10
40.0210057315613
20
0.704636461770747
30
0
41
1
10
40.0130245619853
20
0.712020872419401
30
0
41
1
10
40.0093034997278
20
0.715614053845911
30
0
41
1
10
40.0060316946951
20
0.718956432748314
30
0
0
SPLINE
5
14C
100
AcDbEntity
8
1
62
256
6
ByLayer
370
18
48
1
60
0
100
AcDbSpline
70
4
71
3
72
12
73
8
40
0
40
0
40
0
40
0
40
0.49999999999999
40
0.49999999999999
40
0.749999999999995
40
0.749999999999995
40
1
40
1
40
1
40
1
41
1
10
40.0060316946911
20
0.718956432749479
30
0
41
1
10
39.9638753235055
20
0.76202213020116
30
0
41
1
10
39.9219287765824
20
0.808775821470761
30
0
41
1
10
39.859482683113
20
0.883880863189262
30
0
41
1
10
39.8387314025584
20
0.909760633801568
30
0
41
1
10
39.7974526472793
20
0.96299203835855
30
0
41
1
10
39.7769144050393
20
0.990355693727224
30
0
41
1
10
39.7564594749014
20
1.01844397483799
30
0
0
SPLINE
5
14D
100
AcDbEntity
8
1
62
256
6
ByLayer
370
18
48
1
60
0
100
AcDbSpline
70
4
71
3
72
8
73
4
40
0
40
0
40
0
40
0
40
1
40
1
40
1
40
1
41
1
10
39.7564594749012
20
1.01844397483805
30
0
41
1
10
39.7207113830952
20
1.05264669745949
30
0
41
1
10
39.6851098994891
20
1.08660034960542
30
0
41
1
10
39.6496254453295
20
1.12027853483195
30
0
0
SPLINE
5
14E
100
AcDbEntity
8
1
62
256
6
ByLayer
370
18
48
1
60
0
100
AcDbSpline
70
4
71
3
72
10
73
6
40
0
40
0
40
0
40
0
40
0.5
40
0.5
40
1
40
1
40
1
40
1
41
1
10
39.6496254453295
20
1.12027853483195
30
0
41
1
10
39.604139420946
20
1.13597649004433
30
0
41
1
10
39.5583349215013
20
1.14615333391902
30
0
41
1
10
39.4656852137693
20
1.1553191358428
30
0
41
1
10
39.419058613325
20
1.15431230822764
30
0
41
1
10
39.3718092513954
20
1.14750757054742
30
0
0
SPLINE
5
14F
100
AcDbEntity
8
1
62
256
6
ByLayer
370
18
48
1
60
0
100
AcDbSpline
70
4
71
3
72
26
73
22
40
0
40
0
40
0
40
0
40
0.124999999999999
40
0.124999999999999
40
0.249999999999998
40
0.249999999999998
40
0.374999999999998
40
0.374999999999998
40
0.437499999999997
40
0.437499999999997
40
0.499999999999997
40
0.499999999999997
40
0.624999999999997
40
0.624999999999997
40
0.687499999999998
40
0.687499999999998
40
0.749999999999998
40
0.749999999999998
40
0.874999999999999
40
0.874999999999999
40
1
40
1
40
1
40
1
41
1
10
39.3718092513954
20
1.14750757054742
30
0
41
1
10
39.3660949631869
20
1.14668461271898
30
0
41
1
10
39.3594799444357
20
1.14688798443007
30
0
41
1
10
39.3448422504754
20
1.1488526613976
30
0
41
1
10
39.3367517473591
20
1.15064848780497
30
0
41
1
10
39.3197708603871
20
1.15557288321185
30
0
41
1
10
39.3108384537369
20
1.15870079928891
30
0
41
1
10
39.2968047414299
20
1.16439200185695
30
0
41
1
10
39.2920110865717
20
1.16646246221967
30
0
41
1
10
39.2823699725439
20
1.17088239501669
30
0
41
1
10
39.2775037421094
20
1.1732390117954
30
0
41
1
10
39.262773862495
20
1.18076741850783
30
0
41
1
10
39.2527810239406
20
1.18638815038949
30
0
41
1
10
39.2375260002169
20
1.19593682175815
30
0
41
1
10
39.2323682548736
20
1.19932870857099
30
0
41
1
10
39.222181715083
20
1.20640329327313
30
0
41
1
10
39.2171364790261
20
1.21009445667585
30
0
41
1
10
39.2021735419622
20
1.22169598669922
30
0
41
1
10
39.1922975212801
20
1.2302578683566
30
0
41
1
10
39.1743650030419
20
1.24832550913118
30
0
41
1
10
39.1661114368396
20
1.25803826648135
30
0
41
1
10
39.1595702387306
20
1.2677909719701
30
0
0
SPLINE
5
150
100
AcDbEntity
8
1
62
256
6
ByLayer
370
18
48
1
60
0
100
AcDbSpline
70
4
71
3
72
12
73
8
40
0
40
0
40
0
40
0
40
0.499999999999999
40
0.499999999999999
40
0.75
40
0.75
40
1
40
1
40
1
40
1
41
1
10
39.1595702387306
20
1.2677909719701
30
0
41
1
10
39.1136580778313
20
1.3362444534495
30
0
41
1
10
39.0680030817359
20
1.4073806912549
30
0
41
1
10
39.0001125955397
20
1.51736897911201
30
0
41
1
10
38.9775763040261
20
1.55458307522312
30
0
41
1
10
38.9327787527171
20
1.6298446509073
30
0
41
1
10
38.9104996492364
20
1.66791929763082
30
0
41
1
10
38.8883162727948
20
1.70641298544032
30
0
0
SPLINE
5
151
100
AcDbEntity
8
1
62
256
6
ByLayer
370
18
48
1
60
0
100
AcDbSpline
70
4
71
3
72
10
73
6
40
0
40
0
40
0
40
0
40
0.5
40
0.5
40
1
40
1
40
1
40
1
41
1
10
38.8128709628651
20
1.75221556086367
30
0
41
1
10
38.7659421181962
20
1.72800436198449
30
0
41
1
10
38.718599119098
20
1.6984368896664
30
0
41
1
10
38.6226585636314
20
1.6282525789438
30
0
41
1
10
38.574331179616
20
1.58784045280365
30
0
41
1
10
38.5254004274748
20
1.54176630119801
30
0
0
SPLINE
5
152
100
AcDbEntity
8
1
62
256
6
ByLayer
370
18
48
1
60
0
100
AcDbSpline
70
4
71
3
72
28
73
24
40
0
40
0
40
0
40
0
40
0.125
40
0.125
40
0.25
40
0.25
40
0.375000000000001
40
0.375000000000001
40
0.500000000000001
40
0.500000000000001
40
0.625000000000001
40
0.625000000000001
40
0.687500000000001
40
0.687500000000001
40
0.750000000000001
40
0.750000000000001
40
0.8125
40
0.8125
40
0.875
40
0.875
40
0.9375
40
0.9375
40
1
40
1
40
1
40
1
41
1
10
38.5254004274748
20
1.54176630119801
30
0
41
1
10
38.5196633093407
20
1.53636411874373
30
0
41
1
10
38.5130202425757
20
1.53217150906465
30
0
41
1
10
38.4983242171485
20
1.52562458412083
30
0
41
1
10
38.4901958518722
20
1.52328252947362
30
0
41
1
10
38.4732000878315
20
1.52042098612188
30
0
41
1
10
38.4642856023017
20
1.51986923516876
30
0
41
1
10
38.4456754787615
20
1.5204812253472
30
0
41
1
10
38.4358836781368
20
1.52167212085757
30
0
41
1
10
38.4161442280505
20
1.52586460495095
30
0
41
1
10
38.4061609845335
20
1.52884784066546
30
0
41
1
10
38.3910347842192
20
1.5348726361006
30
0
41
1
10
38.3859673506606
20
1.5371417561729
30
0
41
1
10
38.3757824107642
20
1.5422856681439
30
0
41
1
10
38.3706651849182
20
1.5451657181703
30
0
41
1
10
38.3606657900959
20
1.55146545046659
30
0
41
1
10
38.3557499961992
20
1.5549001126067
30
0
41
1
10
38.3461177759866
20
1.56242991631595
30
0
41
1
10
38.3413641199284
20
1.56656354393871
30
0
41
1
10
38.3323624131356
20
1.5753874266272
30
0
41
1
10
38.3280995755112
20
1.58008049738976
30
0
41
1
10
38.320126599104
20
1.5901193303653
30
0
41
1
10
38.3164087581357
20
1.59549023237113
30
0
41
1
10
38.3131394506411
20
1.60107193460121
30
0
0
SPLINE
5
153
100
AcDbEntity
8
1
62
256
6
ByLayer
370
18
48
1
60
0
100
AcDbSpline
70
4
71
3
72
12
73
8
40
0
40
0
40
0
40
0
40
0.50000000000001
40
0.50000000000001
40
0.750000000000005
40
0.750000000000005
40
1
40
1
40
1
40
1
41
1
10
38.3131394506374
20
1.60107193460698
30
0
41
1
10
38.2673976642009
20
1.67916707610777
30
0
41
1
10
38.2219065617707
20
1.75785097943205
30
0
41
1
10
38.1542286010859
20
1.87595767049112
30
0
41
1
10
38.1317567436248
20
1.91534738979257
30
0
41
1
10
38.0870749794298
20
1.99391672366858
30
0
41
1
10
38.0648477134063
20
2.03312655839986
30
0
41
1
10
38.0427114469831
20
2.07225191962883
30
0
0
SPLINE
5
154
100
AcDbEntity
8
1
62
256
6
ByLayer
370
18
48
1
60
0
100
AcDbSpline
70
4
71
3
72
10
73
6
40
0
40
0
40
0
40
0
40
0.5
40
0.5
40
1
40
1
40
1
40
1
41
1
10
37.9660360719715
20
2.08839418297472
30
0
41
1
10
37.9191563829705
20
2.02718589001904
30
0
41
1
10
37.8718750764946
20
1.9617892052475
30
0
41
1
10
37.7760685093186
20
1.82250054927178
30
0
41
1
10
37.7278246143375
20
1.7490302690145
30
0
41
1
10
37.6789996640195
20
1.6716047647003
30
0
0
SPLINE
5
155
100
AcDbEntity
8
1
62
256
6
ByLayer
370
18
48
1
60
0
100
AcDbSpline
70
4
71
3
72
28
73
24
40
0
40
0
40
0
40
0
40
0.125
40
0.125
40
0.25
40
0.25
40
0.375
40
0.375
40
0.5
40
0.5
40
0.625
40
0.625
40
0.6875
40
0.6875
40
0.75
40
0.75
40
0.8125
40
0.8125
40
0.875
40
0.875
40
0.9375
40
0.9375
40
1
40
1
40
1
40
1
41
1
10
37.6789996640197
20
1.67160476470036
30
0
41
1
10
37.6732644948983
20
1.66251006294112
30
0
41
1
10
37.6666239144896
20
1.65459017786685
30
0
41
1
10
37.6519341035072
20
1.64054501470585
30
0
41
1
10
37.6438099671579
20
1.63440586703845
30
0
41
1
10
37.6268208050009
20
1.62414987009794
30
0
41
1
10
37.6179087291646
20
1.61997402233271
30
0
41
1
10
37.5993026086785
20
1.61346873749469
30
0
41
1
10
37.5895125556202
20
1.61113600744957
30
0
41
1
10
37.5697755175523
20
1.60863767302485
30
0
41
1
10
37.5597929215741
20
1.60843572002966
30
0
41
1
10
37.5446658390045
20
1.6099351640874
30
0
41
1
10
37.5395977954494
20
1.61073826076094
30
0
41
1
10
37.5294106141846
20
1.61304369079988
30
0
41
1
10
37.5242910193841
20
1.6145524870067
30
0
41
1
10
37.5142854716566
20
1.6182898500951
30
0
41
1
10
37.509365889862
20
1.62052359979745
30
0
41
1
10
37.4997243634977
20
1.62583433071293
30
0
41
1
10
37.4949650836573
20
1.6289428431119
30
0
41
1
10
37.4859519203574
20
1.63599019353921
30
0
41
1
10
37.4816829346468
20
1.63992705732275
30
0
41
1
10
37.4736973925365
20
1.64876071931749
30
0
41
1
10
37.4699739245083
20
1.65368312294495
30
0
41
1
10
37.4667000891569
20
1.65901393490003
30
0
0
SPLINE
5
156
100
AcDbEntity
8
1
62
256
6
ByLayer
370
18
48
1
60
0
100
AcDbSpline
70
4
71
3
72
12
73
8
40
0
40
0
40
0
40
0
40
0.5
40
0.5
40
0.75
40
0.75
40
1
40
1
40
1
40
1
41
1
10
37.466700089153
20
1.65901393490717
30
0
41
1
10
37.420884883352
20
1.73361519631413
30
0
41
1
10
37.3753180677068
20
1.80660292425114
30
0
41
1
10
37.3075344173401
20
1.91298558003936
30
0
41
1
10
37.2850287966953
20
1.9479385994307
30
0
41
1
10
37.2402831439694
20
2.01663632404461
30
0
41
1
10
37.218025601637
20
2.05040853755938
30
0
41
1
10
37.1958602751861
20
2.08360899077994
30
0
0
SPLINE
5
157
100
AcDbEntity
8
1
62
256
6
ByLayer
370
18
48
1
60
0
100
AcDbSpline
70
4
71
3
72
8
73
4
40
0
40
0
40
0
40
0
40
1
40
1
40
1
40
1
41
1
10
37.1188531163169
20
2.06646181111432
30
0
41
1
10
37.144532983372
20
2.07267760346545
30
0
41
1
10
37.1701993804157
20
2.07839336189789
30
0
41
1
10
37.1958602751861
20
2.08360899077971
30
0
0
SPLINE
5
158
100
AcDbEntity
8
1
62
256
6
ByLayer
370
18
48
1
60
0
100
AcDbSpline
70
4
71
3
72
10
73
6
40
0
40
0
40
0
40
0
40
0.5
40
0.5
40
1
40
1
40
1
40
1
41
1
10
37.1188531163169
20
2.06646181111432
30
0
41
1
10
37.0720089098571
20
1.9787591770953
30
0
41
1
10
37.0248259491261
20
1.88875887664562
30
0
41
1
10
36.9292965143401
20
1.70440164765415
30
0
41
1
10
36.8812198703598
20
1.61055533885215
30
0
41
1
10
36.8325062972952
20
1.51509692483188
30
0
0
SPLINE
5
159
100
AcDbEntity
8
1
62
256
6
ByLayer
370
18
48
1
60
0
100
AcDbSpline
70
4
71
3
72
28
73
24
40
0
40
0
40
0
40
0
40
0.125
40
0.125
40
0.250000000000001
40
0.250000000000001
40
0.375000000000001
40
0.375000000000001
40
0.500000000000001
40
0.500000000000001
40
0.625000000000001
40
0.625000000000001
40
0.687500000000001
40
0.687500000000001
40
0.750000000000001
40
0.750000000000001
40
0.812500000000001
40
0.812500000000001
40
0.875
40
0.875
40
0.9375
40
0.9375
40
1
40
1
40
1
40
1
41
1
10
36.8325062972952
20
1.51509692483188
30
0
41
1
10
36.826781022266
20
1.50387775859679
30
0
41
1
10
36.8201524390007
20
1.49359236316783
30
0
41
1
10
36.8054856107306
20
1.47446120731294
30
0
41
1
10
36.797372666983
20
1.4655776599007
30
0
41
1
10
36.7803991436867
20
1.44968608203851
30
0
41
1
10
36.7714920040601
20
1.44260201018105
30
0
41
1
10
36.7528888500142
20
1.43009599794388
30
0
41
1
10
36.7430966975604
20
1.42464115758281
30
0
41
1
10
36.7233539645891
20
1.4158899207192
30
0
41
1
10
36.713366324442
20
1.41254452366383
30
0
41
1
10
36.6982287466271
20
1.40927671989238
30
0
41
1
10
36.6931567297287
20
1.40848190147108
30
0
41
1
10
36.6829607639053
20
1.40756666215552
30
0
41
1
10
36.6778395812502
20
1.40745259150302
30
0
41
1
10
36.6678308195079
20
1.40800022346042
30
0
41
1
10
36.66290961163
20
1.40865662198729
30
0
41
1
10
36.6532646700527
20
1.41084969458961
30
0
41
1
10
36.6485039700138
20
1.4124056821085
30
0
41
1
10
36.6394911652891
20
1.41647456440049
30
0
41
1
10
36.635222347635
20
1.41898143662192
30
0
41
1
10
36.6272368860045
20
1.42509228689332
30
0
41
1
10
36.6235140110922
20
1.42871827249502
30
0
41
1
10
36.6202404614619
20
1.43287803353107
30
0
0
SPLINE
5
15A
100
AcDbEntity
8
1
62
256
6
ByLayer
370
18
48
1
60
0
100
AcDbSpline
70
4
71
3
72
12
73
8
40
0
40
0
40
0
40
0
40
0.5
40
0.5
40
0.75
40
0.75
40
1
40
1
40
1
40
1
41
1
10
36.6202404614574
20
1.43287803353891
30
0
41
1
10
36.5743590049515
20
1.49118046259917
30
0
41
1
10
36.5287393298788
20
1.54586800275555
30
0
41
1
10
36.4608890400505
20
1.62219300050981
30
0
41
1
10
36.4383636547248
20
1.64669014749143
30
0
41
1
10
36.3935810448234
20
1.69370154768328
30
0
41
1
10
36.3713065457085
20
1.7162354544777
30
0
41
1
10
36.349126154841
20
1.73781372437378
30
0
0
SPLINE
5
15B
100
AcDbEntity
8
1
62
256
6
ByLayer
370
18
48
1
60
0
100
AcDbSpline
70
4
71
3
72
8
73
4
40
0
40
0
40
0
40
0
40
1
40
1
40
1
40
1
41
1
10
36.2726490852627
20
1.69059505077115
30
0
41
1
10
36.2981524377808
20
1.7067470569539
30
0
41
1
10
36.3236418379428
20
1.72248787214613
30
0
41
1
10
36.349126154841
20
1.73781372437358
30
0
0
SPLINE
5
15C
100
AcDbEntity
8
1
62
256
6
ByLayer
370
18
48
1
60
0
100
AcDbSpline
70
4
71
3
72
10
73
6
40
0
40
0
40
0
40
0
40
0.742081034140502
40
0.742081034140502
40
1
40
1
40
1
40
1
41
1
10
36.2726490852627
20
1.69059505077115
30
0
41
1
10
36.2257209844222
20
1.59169505130839
30
0
41
1
10
36.1784352541792
20
1.49283619110415
30
0
41
1
10
36.1139708871116
20
1.35989314508822
30
0
41
1
10
36.0973120378782
20
1.3256961929128
30
0
41
1
10
36.0806102584115
20
1.29159724029577
30
0
0
SPLINE
5
15D
100
AcDbEntity
8
1
62
256
6
ByLayer
370
18
48
1
60
0
100
AcDbSpline
70
4
71
3
72
10
73
6
40
0
40
0
40
0
40
0
40
0.324665724127876
40
0.324665724127876
40
1
40
1
40
1
40
1
41
1
10
34.5457402291642
20
1.7537168084861
30
0
41
1
10
34.5634503354083
20
1.78413913925627
30
0
41
1
10
34.5810988300039
20
1.81443628822231
30
0
41
1
10
34.6352585685484
20
1.90728558088077
30
0
41
1
10
34.671563041445
20
1.96934503232811
30
0
41
1
10
34.7075206051475
20
2.03043471412772
30
0
0
SPLINE
5
15E
100
AcDbEntity
8
1
62
256
6
ByLayer
370
18
48
1
60
0
100
AcDbSpline
70
4
71
3
72
26
73
22
40
0
40
0
40
0
40
0
40
0.125
40
0.125
40
0.25
40
0.25
40
0.375
40
0.375
40
0.5
40
0.5
40
0.624999999999999
40
0.624999999999999
40
0.749999999999999
40
0.749999999999999
40
0.812499999999999
40
0.812499999999999
40
0.875
40
0.875
40
0.9375
40
0.9375
40
1
40
1
40
1
40
1
41
1
10
35.1222213428323
20
1.64877246767009
30
0
41
1
10
35.1281325803601
20
1.63845339555382
30
0
41
1
10
35.1350038874047
20
1.62937996507728
30
0
41
1
10
35.1501922279357
20
1.61308291262088
30
0
41
1
10
35.1585998578848
20
1.60583399981815
30
0
41
1
10
35.1760847075494
20
1.59349780069903
30
0
41
1
10
35.1852149161368
20
1.58833688808954
30
0
41
1
10
35.2041722094872
20
1.57990701786426
30
0
41
1
10
35.2140681995317
20
1.57663919453822
30
0
41
1
10
35.2338490331982
20
1.57230476193655
30
0
41
1
10
35.2438051246905
20
1.57119086433195
30
0
41
1
10
35.2638099651461
20
1.57131054730286
30
0
41
1
10
35.2739290166913
20
1.57257909093909
30
0
41
1
10
35.2884570206295
20
1.57657197685546
30
0
41
1
10
35.2932150222239
20
1.57825105648141
30
0
41
1
10
35.3025321615193
20
1.58240708164831
30
0
41
1
10
35.3071174236107
20
1.58490556313995
30
0
41
1
10
35.3157921730079
20
1.59069422652757
30
0
41
1
10
35.3199076052539
20
1.59398939136531
30
0
41
1
10
35.3276247351311
20
1.60150847977323
30
0
41
1
10
35.3312440355222
20
1.60576329452846
30
0
41
1
10
35.3344604127325
20
1.61046726553929
30
0
0
SPLINE
5
15F
100
AcDbEntity
8
1
62
256
6
ByLayer
370
18
48
1
60
0
100
AcDbSpline
70
4
71
3
72
12
73
8
40
0
40
0
40
0
40
0
40
0.5
40
0.5
40
0.75
40
0.75
40
1
40
1
40
1
40
1
41
1
10
35.3344604127325
20
1.6104672655394
30
0
41
1
10
35.3808841927195
20
1.67836232292663
30
0
41
1
10
35.4269034956347
20
1.74349982590908
30
0
41
1
10
35.4952501460288
20
1.83656998220169
30
0
41
1
10
35.5179172013232
20
1.86681816125514
30
0
41
1
10
35.562966667533
20
1.92565741670003
30
0
41
1
10
35.5853647919208
20
1.95427003668507
30
0
41
1
10
35.6076646299089
20
1.98210068719004
30
0
0
SPLINE
5
160
100
AcDbEntity
8
1
62
256
6
ByLayer
370
18
48
1
60
0
100
AcDbSpline
70
4
71
3
72
10
73
6
40
0
40
0
40
0
40
0
40
0.5
40
0.5
40
1
40
1
40
1
40
1
41
1
10
35.6839393435367
20
1.95202239644612
30
0
41
1
10
35.7302909228609
20
1.86053629193634
30
0
41
1
10
35.7771151760898
20
1.76807233111418
30
0
41
1
10
35.8720897690231
20
1.58149840786916
30
0
41
1
10
35.9199776844053
20
1.48789950381251
30
0
41
1
10
35.9685441437621
20
1.39411264913687
30
0
0
SPLINE
5
161
100
AcDbEntity
8
1
62
256
6
ByLayer
370
18
48
1
60
0
100
AcDbSpline
70
4
71
3
72
26
73
22
40
0
40
0
40
0
40
0
40
0.125000000000013
40
0.125000000000013
40
0.250000000000025
40
0.250000000000025
40
0.375000000000038
40
0.375000000000038
40
0.50000000000005
40
0.50000000000005
40
0.625000000000063
40
0.625000000000063
40
0.750000000000076
40
0.750000000000076
40
0.812500000000057
40
0.812500000000057
40
0.875000000000038
40
0.875000000000038
40
0.937500000000019
40
0.937500000000019
40
1
40
1
40
1
40
1
41
1
10
35.9685441437621
20
1.39411264913687
30
0
41
1
10
35.9744657947915
20
1.38267732871441
30
0
41
1
10
35.9813502450245
20
1.37211767707927
30
0
41
1
10
35.9965664106526
20
1.3523069711998
30
0
41
1
10
36.0049892960445
20
1.34300452306934
30
0
41
1
10
36.0224993166573
20
1.32622593903304
30
0
41
1
10
36.031640085992
20
1.31866412296643
30
0
41
1
10
36.0506132027225
20
1.30507584562437
30
0
41
1
10
36.060512663482
20
1.29903145524102
30
0
41
1
10
36.08029258362
20
1.28894373087439
30
0
41
1
10
36.090245916217
20
1.28483438534587
30
0
41
1
10
36.1102410673815
20
1.27866882790457
30
0
41
1
10
36.1203463745766
20
1.27662262335681
30
0
41
1
10
36.1348508738541
20
1.27557099479165
30
0
41
1
10
36.1396011955054
20
1.27554937334514
30
0
41
1
10
36.1489033849831
20
1.27625740090653
30
0
41
1
10
36.1534805770738
20
1.27699745001314
30
0
41
1
10
36.1621402100658
20
1.27931229295982
30
0
41
1
10
36.1662490659666
20
1.28088351336197
30
0
41
1
10
36.1739551971557
20
1.28498491835242
30
0
41
1
10
36.1775703530641
20
1.28753625286106
30
0
41
1
10
36.1807848922998
20
1.29060226221429
30
0
0
SPLINE
5
162
100
AcDbEntity
8
1
62
256
6
ByLayer
370
18
48
1
60
0
100
AcDbSpline
70
4
71
3
72
12
73
8
40
0
40
0
40
0
40
0
40
0.500000000000009
40
0.500000000000009
40
0.750000000000004
40
0.750000000000004
40
1
40
1
40
1
40
1
41
1
10
36.1807848922998
20
1.29060226221452
30
0
41
1
10
36.2271853109308
20
1.33485871923281
30
0
41
1
10
36.2731660187486
20
1.37478433269467
30
0
41
1
10
36.3414673924409
20
1.42819423092587
30
0
41
1
10
36.3641209112396
20
1.44491203580819
30
0
41
1
10
36.4091456059116
20
1.47613316872352
30
0
41
1
10
36.4315315540904
20
1.49064824599415
30
0
41
1
10
36.4538149123109
20
1.50407542525494
30
0
0
SPLINE
5
163
100
AcDbEntity
8
1
62
256
6
ByLayer
370
18
48
1
60
0
100
AcDbSpline
70
4
71
3
72
8
73
4
40
0
40
0
40
0
40
0
40
1
40
1
40
1
40
1
41
1
10
36.5304623154572
20
1.4465448349944
30
0
41
1
10
36.504909976588
20
1.46608458061198
30
0
41
1
10
36.4793604954659
20
1.48526068018376
30
0
41
1
10
36.4538149123109
20
1.50407542525494
30
0
0
SPLINE
5
164
100
AcDbEntity
8
1
62
256
6
ByLayer
370
18
48
1
60
0
100
AcDbSpline
70
4
71
3
72
10
73
6
40
0
40
0
40
0
40
0
40
0.5
40
0.5
40
1
40
1
40
1
40
1
41
1
10
36.5304623154572
20
1.44654483499465
30
0
41
1
10
36.5767723859435
20
1.35262348952054
30
0
41
1
10
36.6235118837201
20
1.25998794382292
30
0
41
1
10
36.718401976695
20
1.07777283577593
30
0
41
1
10
36.7662835511012
20
0.988674730559666
30
0
41
1
10
36.8149417917376
20
0.901874951646448
30
0
0
SPLINE
5
165
100
AcDbEntity
8
1
62
256
6
ByLayer
370
18
48
1
60
0
100
AcDbSpline
70
4
71
3
72
26
73
22
40
0
40
0
40
0
40
0
40
0.125
40
0.125
40
0.25
40
0.25
40
0.375
40
0.375
40
0.5
40
0.5
40
0.624999999999999
40
0.624999999999999
40
0.749999999999999
40
0.749999999999999
40
0.812499999999999
40
0.812499999999999
40
0.875
40
0.875
40
0.9375
40
0.9375
40
1
40
1
40
1
40
1
41
1
10
36.8149417917376
20
0.901874951646448
30
0
41
1
10
36.8208612526593
20
0.891315426836428
30
0
41
1
10
36.8277439941041
20
0.88110420258721
30
0
41
1
10
36.8429613128511
20
0.861218994889953
30
0
41
1
10
36.8513885089395
20
0.851474791511805
30
0
41
1
10
36.8689118524505
20
0.833160945136058
30
0
41
1
10
36.8780607901394
20
0.824509552014803
30
0
41
1
10
36.8970531839887
20
0.808124687768668
30
0
41
1
10
36.9069617793133
20
0.800358509048039
30
0
41
1
10
36.9267533049631
20
0.786291392736871
30
0
41
1
10
36.9367112770215
20
0.77991588663005
30
0
41
1
10
36.9567110446371
20
0.768575695961999
30
0
41
1
10
36.9668065713519
20
0.763600463180495
30
0
41
1
10
36.9812862226454
20
0.75773812385637
30
0
41
1
10
36.9860275233166
20
0.756037087233523
30
0
41
1
10
36.9953104001569
20
0.753210083817976
30
0
41
1
10
36.9998756502659
20
0.752082544750266
30
0
41
1
10
37.0085095414225
20
0.750560100084073
30
0
41
1
10
37.0126058226911
20
0.750153187623795
30
0
41
1
10
37.0202882717447
20
0.75016004274238
30
0
41
1
10
37.0238922062023
20
0.750581442948118
30
0
41
1
10
37.0270981266307
20
0.751489943714176
30
0
0
SPLINE
5
166
100
AcDbEntity
8
1
62
256
6
ByLayer
370
18
48
1
60
0
100
AcDbSpline
70
4
71
3
72
12
73
8
40
0
40
0
40
0
40
0
40
0.50000000000001
40
0.50000000000001
40
0.750000000000005
40
0.750000000000005
40
1
40
1
40
1
40
1
41
1
10
37.0270981266307
20
0.751489943714489
30
0
41
1
10
37.0735086625239
20
0.764641863219339
30
0
41
1
10
37.1194880652864
20
0.772577219922283
30
0
41
1
10
37.1877652247289
20
0.776861849166409
30
0
41
1
10
37.2104069378228
20
0.777017401318147
30
0
41
1
10
37.2554019664511
20
0.774831732641076
30
0
41
1
10
37.277771084936
20
0.772491439308681
30
0
41
1
10
37.3000381720157
20
0.76892675625038
30
0
0
SPLINE
5
167
100
AcDbEntity
8
1
62
256
6
ByLayer
370
18
48
1
60
0
100
AcDbSpline
70
4
71
3
72
8
73
4
40
0
40
0
40
0
40
0
40
1
40
1
40
1
40
1
41
1
10
37.3775837423825
20
0.69251349737894
30
0
41
1
10
37.351723218836
20
0.718174481454099
30
0
41
1
10
37.3258846808184
20
0.74365431158256
30
0
41
1
10
37.3000381720154
20
0.768926756250664
30
0
0
SPLINE
5
168
100
AcDbEntity
8
1
62
256
6
ByLayer
370
18
48
1
60
0
100
AcDbSpline
70
4
71
3
72
10
73
6
40
0
40
0
40
0
40
0
40
0.5
40
0.5
40
1
40
1
40
1
40
1
41
1
10
37.377583742382
20
0.69251349737408
30
0
41
1
10
37.423796841336
20
0.612584103115182
30
0
41
1
10
37.4704415595846
20
0.536081666454777
30
0
41
1
10
37.5651293938101
20
0.390482777270847
30
0
41
1
10
37.6128825664354
20
0.321728980927901
30
0
41
1
10
37.6613205735956
20
0.257144647480885
30
0
0
SPLINE
5
169
100
AcDbEntity
8
1
62
256
6
ByLayer
370
18
48
1
60
0
100
AcDbSpline
70
4
71
3
72
26
73
22
40
0
40
0
40
0
40
0
40
0.125
40
0.125
40
0.25
40
0.25
40
0.375
40
0.375
40
0.5
40
0.5
40
0.625
40
0.625
40
0.75
40
0.75
40
0.8125
40
0.8125
40
0.875
40
0.875
40
0.9375
40
0.9375
40
1
40
1
40
1
40
1
41
1
10
37.6613205735956
20
0.257144647480885
30
0
41
1
10
37.6672420164867
20
0.249249350697113
30
0
41
1
10
37.6741273850333
20
0.2411075699967
30
0
41
1
10
37.6893480856701
20
0.224482346244741
30
0
41
1
10
37.6977751924831
20
0.215923531353866
30
0
41
1
10
37.7152967502918
20
0.199111506667464
30
0
41
1
10
37.7244449475263
20
0.190793713684314
30
0
41
1
10
37.7434358097805
20
0.174283460377495
30
0
41
1
10
37.7533443954509
20
0.166046018616328
30
0
41
1
10
37.7731354721454
20
0.150228011393324
30
0
41
1
10
37.7830915772224
20
0.142577729559832
30
0
41
1
10
37.8030868819957
20
0.127789122629764
30
0
41
1
10
37.8131844442085
20
0.120615340155894
30
0
41
1
10
37.8276728791866
20
0.110771594724469
30
0
41
1
10
37.8324176582356
20
0.107625477920777
30
0
41
1
10
37.8417087669584
20
0.101637679541568
30
0
41
1
10
37.8462796819895
20
0.0987820023923689
30
0
41
1
10
37.854927085605
20
0.093585629260474
30
0
41
1
10
37.859030473987
20
0.0912262898937968
30
0
41
1
10
37.8667273852022
20
0.0870617036100327
30
0
41
1
10
37.8703388630343
20
0.0852492434686951
30
0
41
1
10
37.8735515110002
20
0.0838212569232439
30
0
0
SPLINE
5
16A
100
AcDbEntity
8
1
62
256
6
ByLayer
370
18
48
1
60
0
100
AcDbSpline
70
4
71
3
72
10
73
6
40
0
40
0
40
0
40
0
40
0.5
40
0.5
40
1
40
1
40
1
40
1
41
1
10
38.2234283256042
20
-0.178218385095221
30
0
41
1
10
38.2697503970246
20
-0.230483544203309
30
0
41
1
10
38.3164967796287
20
-0.277967730611351
30
0
41
1
10
38.4112780752101
20
-0.363039548803982
30
0
41
1
10
38.4590710122542
20
-0.400333909424319
30
0
41
1
10
38.5075855165683
20
-0.432047425345843
30
0
0
SPLINE
5
16B
100
AcDbEntity
8
1
62
256
6
ByLayer
370
18
48
1
60
0
100
AcDbSpline
70
4
71
3
72
26
73
22
40
0
40
0
40
0
40
0
40
0.124999999999987
40
0.124999999999987
40
0.249999999999974
40
0.249999999999974
40
0.374999999999962
40
0.374999999999962
40
0.499999999999949
40
0.499999999999949
40
0.624999999999936
40
0.624999999999936
40
0.749999999999923
40
0.749999999999923
40
0.812499999999942
40
0.812499999999942
40
0.874999999999961
40
0.874999999999961
40
0.937499999999981
40
0.937499999999981
40
1
40
1
40
1
40
1
41
1
10
38.5075855165683
20
-0.432047425345843
30
0
41
1
10
38.5135168182828
20
-0.435924666472488
30
0
41
1
10
38.5204139160381
20
-0.440601745864484
30
0
41
1
10
38.5356575085217
20
-0.451114522265698
30
0
41
1
10
38.5440964633633
20
-0.457019192980425
30
0
41
1
10
38.5616345354483
20
-0.469438881979755
30
0
41
1
10
38.5707872413052
20
-0.475990726023042
30
0
41
1
10
38.589779828617
20
-0.489774449806703
30
0
41
1
10
38.5996848297132
20
-0.497054174900597
30
0
41
1
10
38.6194680381208
20
-0.511857168965889
30
0
41
1
10
38.629420695478
20
-0.519432635164577
30
0
41
1
10
38.6494093944314
20
-0.53503753613515
30
0
41
1
10
38.6595017549716
20
-0.54311794380888
30
0
41
1
10
38.6739813328828
20
-0.555155428029849
30
0
41
1
10
38.678723020502
20
-0.559172943451614
30
0
41
1
10
38.6880072488336
20
-0.567225496872823
30
0
41
1
10
38.6925743796357
20
-0.57128406647206
30
0
41
1
10
38.7012141243546
20
-0.57919519231092
30
0
41
1
10
38.705313490853
20
-0.58306965671062
30
0
41
1
10
38.7130021044609
20
-0.590630677080668
30
0
41
1
10
38.7166096827188
20
-0.594338306057494
30
0
41
1
10
38.7198198078204
20
-0.597835717457031
30
0
0
SPLINE
5
16C
100
AcDbEntity
8
1
62
256
6
ByLayer
370
18
48
1
60
0
100
AcDbSpline
70
4
71
3
72
12
73
8
40
0
40
0
40
0
40
0
40
0.499999999999991
40
0.499999999999991
40
0.749999999999995
40
0.749999999999995
40
1
40
1
40
1
40
1
41
1
10
38.7198198078204
20
-0.597835717456718
30
0
41
1
10
38.7662927695085
20
-0.648467721142907
30
0
41
1
10
38.8123455363958
20
-0.703308406328716
30
0
41
1
10
38.8807423286107
20
-0.791171146645354
30
0
41
1
10
38.903424958732
20
-0.821390852928545
30
0
41
1
10
38.9484975957327
20
-0.883510506140112
30
0
41
1
10
38.9709029377519
20
-0.915430421494818
30
0
41
1
10
38.9932009361166
20
-0.948198911098501
30
0
0
SPLINE
5
16D
100
AcDbEntity
8
1
62
256
6
ByLayer
370
18
48
1
60
0
100
AcDbSpline
70
4
71
3
72
10
73
6
40
0
40
0
40
0
40
0
40
0.5
40
0.5
40
1
40
1
40
1
40
1
41
1
10
39.0702580727529
20
-1.01984224359984
30
0
41
1
10
39.1164704301859
20
-1.03583553066838
30
0
41
1
10
39.1631165113774
20
-1.04629401710304
30
0
41
1
10
39.2577900287905
20
-1.055596951637
30
0
41
1
10
39.3055322813544
20
-1.0544910684022
30
0
41
1
10
39.3539737018615
20
-1.04761412397716
30
0
0
SPLINE
5
16E
100
AcDbEntity
8
1
62
256
6
ByLayer
370
18
48
1
60
0
100
AcDbSpline
70
4
71
3
72
26
73
22
40
0
40
0
40
0
40
0
40
0.125000000000013
40
0.125000000000013
40
0.250000000000026
40
0.250000000000026
40
0.375000000000039
40
0.375000000000039
40
0.500000000000052
40
0.500000000000052
40
0.625000000000065
40
0.625000000000065
40
0.750000000000078
40
0.750000000000078
40
0.812500000000058
40
0.812500000000058
40
0.875000000000039
40
0.875000000000039
40
0.937500000000019
40
0.937500000000019
40
1
40
1
40
1
40
1
41
1
10
39.3539737018615
20
-1.04761412397716
30
0
41
1
10
39.3599034699253
20
-1.04677230957532
30
0
41
1
10
39.3668004483369
20
-1.04714749040085
30
0
41
1
10
39.3820460010257
20
-1.04967945813661
30
0
41
1
10
39.3904873577485
20
-1.05188639071545
30
0
41
1
10
39.4080303395322
20
-1.05773086731267
30
0
41
1
10
39.4171851493986
20
-1.06137062711019
30
0
41
1
10
39.4361818889688
20
-1.07002699266164
30
0
41
1
10
39.4460879625282
20
-1.07508645035503
30
0
41
1
10
39.4658697364442
20
-1.08632161762344
30
0
41
1
10
39.4758206205089
20
-1.09252409752864
30
0
41
1
10
39.4958042366
20
-1.10628667352026
30
0
41
1
10
39.5058900197337
20
-1.11390245073272
30
0
41
1
10
39.5203580657821
20
-1.12609765823893
30
0
41
1
10
39.5250958932654
20
-1.13030829725867
30
0
41
1
10
39.5343729256508
20
-1.13906755212113
30
0
41
1
10
39.5389360494605
20
-1.14364472153605
30
0
41
1
10
39.5475682482452
20
-1.15293616557363
30
0
41
1
10
39.5516645205246
20
-1.15767250936108
30
0
41
1
10
39.5593485549829
20
-1.16735452539774
30
0
41
1
10
39.5629545480248
20
-1.17233118076021
30
0
41
1
10
39.5661639808765
20
-1.17730570628555
30
0
0
SPLINE
5
16F
100
AcDbEntity
8
1
62
256
6
ByLayer
370
18
48
1
60
0
100
AcDbSpline
70
4
71
3
72
10
73
6
40
0
40
0
40
0
40
0
40
0.5
40
0.5
40
1
40
1
40
1
40
1
41
1
10
39.5661639808764
20
-1.17730570628532
30
0
41
1
10
39.6011149359113
20
-1.2314786477346
30
0
41
1
10
39.6358163289003
20
-1.287134748998
30
0
41
1
10
39.7046845890835
20
-1.40089856175294
30
0
41
1
10
39.738862214478
20
-1.45901510158805
30
0
41
1
10
39.7727296411537
20
-1.51797295263182
30
0
0
SPLINE
5
170
100
AcDbEntity
8
1
62
256
6
ByLayer
370
18
48
1
60
0
100
AcDbSpline
70
4
71
3
72
8
73
4
40
0
40
0
40
0
40
0
40
1
40
1
40
1
40
1
41
1
10
39.7727296411537
20
-1.51797295263182
30
0
41
1
10
39.8533084625592
20
-1.55994286899266
30
0
41
1
10
39.93421924006
20
-1.59671146725233
30
0
41
1
10
40.0153560724846
20
-1.62864154196831
30
0
0
SPLINE
5
171
100
AcDbEntity
8
1
62
256
6
ByLayer
370
18
48
1
60
0
100
AcDbSpline
70
4
71
3
72
10
73
6
40
0
40
0
40
0
40
0
40
0.5
40
0.5
40
1
40
1
40
1
40
1
41
1
10
40.0153560724846
20
-1.62864154196828
30
0
41
1
10
40.0457300542026
20
-1.60893178465241
30
0
41
1
10
40.076369934303
20
-1.58708178781808
30
0
41
1
10
40.1379868159236
20
-1.53923309366417
30
0
41
1
10
40.1689977007203
20
-1.51321283558195
30
0
41
1
10
40.2002871693209
20
-1.48502625498176
30
0
0
SPLINE
5
172
100
AcDbEntity
8
1
62
256
6
ByLayer
370
18
48
1
60
0
100
AcDbSpline
70
4
71
3
72
26
73
22
40
0
40
0
40
0
40
0
40
0.125
40
0.125
40
0.25
40
0.25
40
0.375000000000001
40
0.375000000000001
40
0.500000000000001
40
0.500000000000001
40
0.625000000000001
40
0.625000000000001
40
0.750000000000001
40
0.750000000000001
40
0.812500000000001
40
0.812500000000001
40
0.875
40
0.875
40
0.9375
40
0.9375
40
1
40
1
40
1
40
1
41
1
10
40.2002871693209
20
-1.48502625498176
30
0
41
1
10
40.2062363200563
20
-1.47966706468051
30
0
41
1
10
40.2131552900674
20
-1.47574693121109
30
0
41
1
10
40.2284421208122
20
-1.47001290285374
30
0
41
1
10
40.2369032487603
20
-1.46822268716056
30
0
41
1
10
40.2544760302061
20
-1.46664054648136
30
0
41
1
10
40.2636416394615
20
-1.46681559508863
30
0
41
1
10
40.2826500819078
20
-1.46899037143501
30
0
41
1
10
40.2925569837249
20
-1.47102143808868
30
0
41
1
10
40.3123361502302
20
-1.47686140898699
30
0
41
1
10
40.3222828491811
20
-1.48066702394115
30
0
41
1
10
40.3422518575405
20
-1.49028576311881
30
0
41
1
10
40.3523291252725
20
-1.49615443898958
30
0
41
1
10
40.3667856689017
20
-1.50643684224579
30
0
41
1
10
40.3715194650542
20
-1.51012269514655
30
0
41
1
10
40.3807874791447
20
-1.51808944810338
30
0
41
1
10
40.3853468424725
20
-1.52240046068087
30
0
41
1
10
40.3939734288608
20
-1.53147738498248
30
0
41
1
10
40.3980665336793
20
-1.53626004740542
30
0
41
1
10
40.4057435440661
20
-1.5463901371065
30
0
41
1
10
40.4093465107337
20
-1.55177406482588
30
0
41
1
10
40.412554710666
20
-1.5573650740377
30
0
0
SPLINE
5
173
100
AcDbEntity
8
1
62
256
6
ByLayer
370
18
48
1
60
0
100
AcDbSpline
70
4
71
3
72
8
73
4
40
0
40
0
40
0
40
0
40
1
40
1
40
1
40
1
41
1
10
40.412554710666
20
-1.55736507403762
30
0
41
1
10
40.4516627954283
20
-1.62551969867806
30
0
41
1
10
40.4904769625796
20
-1.69401059040911
30
0
41
1
10
40.528968469467
20
-1.76250748137758
30
0
0
SPLINE
5
174
100
AcDbEntity
8
1
62
256
6
ByLayer
370
18
48
1
60
0
100
AcDbSpline
70
4
71
3
72
13
73
9
40
0
40
0
40
0
40
0
40
0.125000000000006
40
0.125000000000006
40
0.250000000000012
40
0.5
40
0.5
40
1
40
1
40
1
40
1
41
1
10
40.528968469467
20
-1.76250748137758
30
0
41
1
10
40.5477249969942
20
-1.76488088451211
30
0
41
1
10
40.5665325598764
20
-1.7669897637935
30
0
41
1
10
40.6040878012417
20
-1.77066490656355
30
0
41
1
10
40.6603978010906
20
-1.77537145914334
30
0
41
1
10
40.7166291925303
20
-1.7776970931119
30
0
41
1
10
40.8290810575359
20
-1.77916453297087
30
0
41
1
10
40.903996492649
20
-1.77588707848159
30
0
41
1
10
40.9793263071532
20
-1.76832394357254
30
0
0
SPLINE
5
175
100
AcDbEntity
8
1
62
256
6
ByLayer
370
18
48
1
60
0
100
AcDbSpline
70
4
71
3
72
8
73
4
40
0
40
0
40
0
40
0
40
1
40
1
40
1
40
1
41
1
10
40.9793263071532
20
-1.76832394357251
30
0
41
1
10
41.0016180568132
20
-1.73575117660076
30
0
41
1
10
41.0240376824316
20
-1.70239142026247
30
0
41
1
10
41.0466136851793
20
-1.66824686246901
30
0
0
SPLINE
5
176
100
AcDbEntity
8
1
62
256
6
ByLayer
370
18
48
1
60
0
100
AcDbSpline
70
4
71
3
72
10
73
6
40
0
40
0
40
0
40
0
40
0.959174964758504
40
0.959174964758504
40
1
40
1
40
1
40
1
41
1
10
36.8378228596837
20
-2.11089893638848
30
0
41
1
10
36.8358021803281
20
-2.1146805801275
30
0
41
1
10
36.8337785488428
20
-2.1176650924065
30
0
41
1
10
36.8316629589033
20
-2.11992830822695
30
0
41
1
10
36.8315766050891
20
-2.12001920087769
30
0
41
1
10
36.8314902664843
20
-2.12010859133898
30
0
0
SPLINE
5
177
100
AcDbEntity
8
1
62
256
6
ByLayer
370
18
48
1
60
0
100
AcDbSpline
70
4
71
3
72
8
73
4
40
0
40
0
40
0
40
0
40
1
40
1
40
1
40
1
41
1
10
36.8237470174497
20
-2.12412608058386
30
0
41
1
10
36.820110889709
20
-2.12412954956011
30
0
41
1
10
36.8164936558663
20
-2.12147509704394
30
0
41
1
10
36.8128634750371
20
-2.11621136085199
30
0
0
SPLINE
5
178
100
AcDbEntity
8
1
62
256
6
ByLayer
370
18
48
1
60
0
100
AcDbSpline
70
4
71
3
72
9
73
5
40
0
40
0
40
0
40
0
40
0.801123771693485
40
1
40
1
40
1
40
1
41
1
10
36.7362333119573
20
-2.1077757429504
30
0
41
1
10
36.7404732530935
20
-2.11651233564075
30
0
41
1
10
36.7457314212398
20
-2.12304032808109
30
0
41
1
10
36.7509666344864
20
-2.12412709920875
30
0
41
1
10
36.7520072721868
20
-2.12412663099585
30
0
0
SPLINE
5
179
100
AcDbEntity
8
1
62
256
6
ByLayer
370
18
48
1
60
0
100
AcDbSpline
70
4
71
3
72
8
73
4
40
0
40
0
40
0
40
0
40
1
40
1
40
1
40
1
41
1
10
37.9308071916159
20
2.11528977889441
30
0
41
1
10
37.9336258090732
20
2.11959355262871
30
0
41
1
10
37.9364579923056
20
2.12231889704685
30
0
41
1
10
37.9393149934473
20
2.12347983412658
30
0
0
SPLINE
5
17A
100
AcDbEntity
8
1
62
256
6
ByLayer
370
18
48
1
60
0
100
AcDbSpline
70
4
71
3
72
14
73
10
40
0
40
0
40
0
40
0
40
0.455294959343502
40
0.455294959343502
40
0.727647479671753
40
0.727647479671753
40
0.863823739835877
40
0.863823739835877
40
1
40
1
40
1
40
1
41
1
10
37.9424866070564
20
2.1241262193065
30
0
41
1
10
37.946072343464
20
2.12413404517886
30
0
41
1
10
37.9496755772312
20
2.12169580306346
30
0
41
1
10
37.9554085285515
20
2.11383500463279
30
0
41
1
10
37.9575494191717
20
2.1100035817862
30
0
41
1
10
37.9607502468572
20
2.10289594784868
30
0
41
1
10
37.9618167506465
20
2.10029608729624
30
0
41
1
10
37.9639354525999
20
2.09466784820899
30
0
41
1
10
37.9649886512148
20
2.09163780821231
30
0
41
1
10
37.9660360719715
20
2.08839418297484
30
0
0
SPLINE
5
17B
100
AcDbEntity
8
1
62
256
6
ByLayer
370
18
48
1
60
0
100
AcDbSpline
70
4
71
3
72
14
73
10
40
0
40
0
40
0
40
0
40
0.45213825317387
40
0.45213825317387
40
0.678207379760805
40
0.678207379760805
40
0.90427650634774
40
0.90427650634774
40
1
40
1
40
1
40
1
41
1
10
38.0427114469833
20
2.07225191962857
30
0
41
1
10
38.0384613629508
20
2.08773775601836
30
0
41
1
10
38.034182240648
20
2.09984405046097
30
0
41
1
10
38.0277343474426
20
2.11278461142859
30
0
41
1
10
38.0255767321454
20
2.11622551265432
30
0
41
1
10
38.021297183844
20
2.12128088315424
30
0
41
1
10
38.0191696554542
20
2.12290944461674
30
0
41
1
10
38.0161547581886
20
2.12396970797025
30
0
41
1
10
38.0152597118783
20
2.12412695360027
30
0
41
1
10
38.0143660323785
20
2.12412645141541
30
0
0
SPLINE
5
17C
100
AcDbEntity
8
1
62
256
6
ByLayer
370
18
48
1
60
0
100
AcDbSpline
70
4
71
3
72
18
73
14
40
0
40
0
40
0
40
0
40
0.103600422301762
40
0.103600422301762
40
0.207200844603524
40
0.207200844603524
40
0.414401689207048
40
0.414401689207048
40
0.828803378414097
40
0.828803378414097
40
0.932403800715857
40
0.932403800715857
40
1
40
1
40
1
40
1
41
1
10
34.2901741224968
20
1.63365407233187
30
0
41
1
10
34.2887713515968
20
1.64375926655114
30
0
41
1
10
34.2873644915693
20
1.65335678775511
30
0
41
1
10
34.2845464835666
20
1.67152159765453
30
0
41
1
10
34.2831322648595
20
1.68010468106405
30
0
41
1
10
34.2789205223812
20
1.70406356129425
30
0
41
1
10
34.2761472392899
20
1.71771933226603
30
0
41
1
10
34.2678410015549
20
1.75187590788886
30
0
41
1
10
34.2622767323908
20
1.76559236326869
30
0
41
1
10
34.2552485183073
20
1.77123890766069
30
0
41
1
10
34.2538392532703
20
1.77178909148245
30
0
41
1
10
34.2515028699098
20
1.77172265443272
30
0
41
1
10
34.2505792092016
20
1.77144363535786
30
0
41
1
10
34.249657465446
20
1.77091475211279
30
0
0
SPLINE
5
17D
100
AcDbEntity
8
1
62
256
6
ByLayer
370
18
48
1
60
0
100
AcDbSpline
70
4
71
3
72
23
73
19
40
0
40
0
40
0
40
0
40
0.0070757487162639
40
0.0070757487162639
40
0.106368173844637
40
0.106368173844637
40
0.20566059897301
40
0.20566059897301
40
0.404245449229757
40
0.404245449229757
40
0.602830299486503
40
0.602830299486503
40
0.80141514974325
40
0.80141514974325
40
0.851061362307437
40
0.851061362307437
40
0.900707574871625
40
1
40
1
40
1
40
1
41
1
10
36.0296471459111
20
-2.12412575581567
30
0
41
1
10
36.0294984267594
20
-2.12412562932002
30
0
41
1
10
36.0293497121267
20
-2.12412103939664
30
0
41
1
10
36.0271141725893
20
-2.12398490931059
30
0
41
1
10
36.025027882079
20
-2.12297686466053
30
0
41
1
10
36.0208489105674
20
-2.11916640357552
30
0
41
1
10
36.0187526510299
20
-2.11635312331848
30
0
41
1
10
36.0125089730087
20
-2.10530067299635
30
0
41
1
10
36.0083865962874
20
-2.09444926697472
30
0
41
1
10
36.0001260950327
20
-2.06597000251443
30
0
41
1
10
35.9959813155032
20
-2.04834181960462
30
0
41
1
10
35.9875902166229
20
-2.00629472898959
30
0
41
1
10
35.983355760179
20
-1.98187627932799
30
0
41
1
10
35.9780208379432
20
-1.94697057538471
30
0
41
1
10
35.9769507520248
20
-1.93976278562818
30
0
41
1
10
35.9748178596933
20
-1.92498578771224
30
0
41
1
10
35.9716254798913
20
-1.90225338202001
30
0
41
1
10
35.9684529312374
20
-1.87783975636671
30
0
41
1
10
35.9663448717982
20
-1.86082856638004
30
0
0
SPLINE
5
17E
100
AcDbEntity
8
1
62
256
6
ByLayer
370
18
48
1
60
0
100
AcDbSpline
70
4
71
3
72
22
73
18
40
0
40
0
40
0
40
0
40
0.184962066252315
40
0.184962066252315
40
0.277443099378473
40
0.277443099378473
40
0.369924132504631
40
0.369924132504631
40
0.554886198756948
40
0.554886198756948
40
0.739848265009264
40
0.739848265009264
40
0.924810331261581
40
0.924810331261581
40
0.97105084782466
40
0.97105084782466
40
1
40
1
40
1
40
1
41
1
10
35.8902602642122
20
-1.82123454960089
30
0
41
1
10
35.8945232875691
20
-1.85745155100656
30
0
41
1
10
35.8987235797771
20
-1.89067187381292
30
0
41
1
10
35.9049515466687
20
-1.93594372560662
30
0
41
1
10
35.9070161779038
20
-1.95027315973328
30
0
41
1
10
35.9111351933066
20
-1.97738129897743
30
0
41
1
10
35.9131933327815
20
-1.9901780717004
30
0
41
1
10
35.9193132801611
20
-2.02581231977135
30
0
41
1
10
35.9233384191936
20
-2.04604287358492
30
0
41
1
10
35.9314889918111
20
-2.07964225361113
30
0
41
1
10
35.9356316189479
20
-2.09301061715354
30
0
41
1
10
35.9440325514008
20
-2.11287202516939
30
0
41
1
10
35.9482882395955
20
-2.1193656819834
30
0
41
1
10
35.9536653507801
20
-2.12304673404685
30
0
41
1
10
35.9547447223479
20
-2.12356033579968
30
0
41
1
10
35.9564949473406
20
-2.12402841273826
30
0
41
1
10
35.9571681292295
20
-2.12412063142474
30
0
41
1
10
35.9578406226288
20
-2.12412548594475
30
0
0
SPLINE
5
17F
100
AcDbEntity
8
1
62
256
6
ByLayer
370
18
48
1
60
0
100
AcDbSpline
70
4
71
3
72
21
73
17
40
0
40
0
40
0
40
0
40
0.0018659420235997
40
0.0018659420235997
40
0.168221618352999
40
0.334577294682399
40
0.334577294682399
40
0.417755132847099
40
0.459344051929449
40
0.459344051929449
40
0.500932971011799
40
0.500932971011799
40
0.667288647341199
40
0.667288647341199
40
0.833644323670599
40
1
40
1
40
1
40
1
41
1
10
38.7363045337545
20
2.12412572100337
30
0
41
1
10
38.7363514743682
20
2.12412578297597
30
0
41
1
10
38.7363984094414
20
2.12412539775039
30
0
41
1
10
38.7406292836145
20
2.12405037096317
30
0
41
1
10
38.7489065834943
20
2.11680957413589
30
0
41
1
10
38.7571431733862
20
2.09565527810415
30
0
41
1
10
38.7633839427618
20
2.07451841444507
30
0
41
1
10
38.7665205168415
20
2.06262980887166
30
0
41
1
10
38.7696988652009
20
2.04872831630161
30
0
41
1
10
38.771829147089
20
2.03900804817414
30
0
41
1
10
38.772900235396
20
2.03391970479544
30
0
41
1
10
38.7782585808696
20
2.00749104416752
30
0
41
1
10
38.7825977994661
20
1.98309153274482
30
0
41
1
10
38.7913570435279
20
1.92797931909621
30
0
41
1
10
38.8001349142793
20
1.86655128073684
30
0
41
1
10
38.8086684539433
20
1.79249518267588
30
0
41
1
10
38.8128709628651
20
1.75221556086367
30
0
0
SPLINE
5
180
100
AcDbEntity
8
1
62
256
6
ByLayer
370
18
48
1
60
0
100
AcDbSpline
70
4
71
3
72
20
73
16
40
0
40
0
40
0
40
0
40
0.0783227384314373
40
0.0783227384314373
40
0.117484107647156
40
0.117484107647156
40
0.156645476862875
40
0.313290953725752
40
0.469936430588629
40
0.626581907451506
40
0.626581907451506
40
0.783227384314383
40
0.783227384314383
40
0.93987286117726
40
1
40
1
40
1
40
1
41
1
10
38.888316272795
20
1.70641298544021
30
0
41
1
10
38.8863007614977
20
1.72749845600521
30
0
41
1
10
38.8842929336842
20
1.74792984602112
30
0
41
1
10
38.8812698371927
20
1.77757524857682
30
0
41
1
10
38.8802591418673
20
1.78729910453515
30
0
41
1
10
38.8782398107573
20
1.80630661558513
30
0
41
1
10
38.8731888093438
20
1.85278110643779
30
0
41
1
10
38.8640162965654
20
1.92717585202479
30
0
41
1
10
38.8514903582778
20
2.00708959809586
30
0
41
1
10
38.8429232779253
20
2.04744545859523
30
0
41
1
10
38.8342513531991
20
2.08110808547056
30
0
41
1
10
38.8299367822736
20
2.09430801876871
30
0
41
1
10
38.8213573149763
20
2.11369033072052
30
0
41
1
10
38.8154550133028
20
2.12224711628161
30
0
41
1
10
38.8095887876631
20
2.12412500479601
30
0
41
1
10
38.8079631256856
20
2.12412721639939
30
0
0
SPLINE
5
181
100
AcDbEntity
8
1
62
256
6
ByLayer
370
18
48
1
60
0
100
AcDbSpline
70
4
71
3
72
25
73
21
40
0
40
0
40
0
40
0
40
0.0473931709737004
40
0.183479860834599
40
0.183479860834599
40
0.319566550695497
40
0.319566550695497
40
0.387609895625947
40
0.387609895625947
40
0.455653240556397
40
0.455653240556397
40
0.591739930417297
40
0.591739930417297
40
0.727826620278196
40
0.727826620278196
40
0.795869965208647
40
0.795869965208647
40
0.863913310139098
40
0.863913310139098
40
1
40
1
40
1
40
1
41
1
10
34.7204270064165
20
2.04271474921276
30
0
41
1
10
34.722706820004
20
2.04405854265218
30
0
41
1
10
34.7314972907779
20
2.04753113194386
30
0
41
1
10
34.7401722720158
20
2.04440030090865
30
0
41
1
10
34.7530133021837
20
2.03256808360544
30
0
41
1
10
34.75942789678
20
2.02306296993382
30
0
41
1
10
34.7690940758469
20
2.00329754206791
30
0
41
1
10
34.7723223921181
20
1.99576867687381
30
0
41
1
10
34.7787039613269
20
1.97902087625837
30
0
41
1
10
34.7818658314588
20
1.96978739680617
30
0
41
1
10
34.7912845082901
20
1.93956153009631
30
0
41
1
10
34.7974656368636
20
1.91604456184945
30
0
41
1
10
34.8099458339676
20
1.86252605706645
30
0
41
1
10
34.8162588378056
20
1.83253296011247
30
0
41
1
10
34.8258497750923
20
1.78260636852619
30
0
41
1
10
34.8290674629138
20
1.7651358127423
30
0
41
1
10
34.8355404531151
20
1.72852640476248
30
0
41
1
10
34.8387776096699
20
1.70949030843658
30
0
41
1
10
34.8484894355805
20
1.65020347782584
30
0
41
1
10
34.8549640932074
20
1.60777952790579
30
0
41
1
10
34.8614359353945
20
1.56243205339499
30
0
0
SPLINE
5
182
100
AcDbEntity
8
1
62
256
6
ByLayer
370
18
48
1
60
0
100
AcDbSpline
70
4
71
3
72
8
73
4
40
0
40
0
40
0
40
0
40
1
40
1
40
1
40
1
41
1
10
34.8614359353945
20
2.09284678290351
30
0
41
1
10
34.8557189555326
20
2.11143983911674
30
0
41
1
10
34.8499122326674
20
2.11836670620787
30
0
41
1
10
34.8441345402876
20
2.11407642379686
30
0
0
SPLINE
5
183
100
AcDbEntity
8
1
62
256
6
ByLayer
370
18
48
1
60
0
100
AcDbSpline
70
4
71
3
72
8
73
4
40
0
40
0
40
0
40
0
40
1
40
1
40
1
40
1
41
1
10
34.8614359353954
20
1.56243205338458
30
0
41
1
10
34.8616536511149
20
1.56000567005697
30
0
41
1
10
34.861871330692
20
1.55757282525266
30
0
41
1
10
34.8620889741438
20
1.55513352194691
30
0
0
SPLINE
5
184
100
AcDbEntity
8
1
62
256
6
ByLayer
370
18
48
1
60
0
100
AcDbSpline
70
4
71
3
72
84
73
80
40
0
40
0
40
0
40
0
40
0.0624999999999898
40
0.0624999999999898
40
0.12499999999998
40
0.12499999999998
40
0.156249999999972
40
0.156249999999972
40
0.171874999999969
40
0.171874999999969
40
0.187499999999965
40
0.187499999999965
40
0.218749999999963
40
0.218749999999963
40
0.234374999999959
40
0.234374999999959
40
0.249999999999955
40
0.249999999999955
40
0.31249999999995
40
0.31249999999995
40
0.343749999999948
40
0.343749999999948
40
0.374999999999945
40
0.374999999999945
40
0.406249999999942
40
0.406249999999942
40
0.43749999999994
40
0.43749999999994
40
0.468749999999937
40
0.468749999999937
40
0.484374999999936
40
0.484374999999936
40
0.499999999999935
40
0.499999999999935
40
0.531249999999936
40
0.531249999999936
40
0.539062499999938
40
0.539062499999938
40
0.546874999999939
40
0.546874999999939
40
0.562499999999942
40
0.562499999999942
40
0.570312499999943
40
0.570312499999943
40
0.578124999999944
40
0.578124999999944
40
0.585937499999945
40
0.585937499999945
40
0.593749999999947
40
0.593749999999947
40
0.60937499999995
40
0.60937499999995
40
0.617187499999951
40
0.617187499999951
40
0.624999999999952
40
0.624999999999952
40
0.640624999999955
40
0.640624999999955
40
0.656249999999959
40
0.656249999999959
40
0.687499999999963
40
0.687499999999963
40
0.718749999999968
40
0.718749999999968
40
0.73437499999997
40
0.73437499999997
40
0.749999999999973
40
0.749999999999973
40
0.781249999999977
40
0.781249999999977
40
0.812499999999982
40
0.812499999999982
40
0.874999999999991
40
0.874999999999991
40
0.906249999999994
40
0.906249999999994
40
0.937499999999998
40
0.937499999999998
40
1
40
1
40
1
40
1
41
1
10
26.412917438923
20
-1.41471295012244
30
0
41
1
10
26.342119979604
20
-1.39458794372791
30
0
41
1
10
26.2694524174769
20
-1.37267253244465
30
0
41
1
10
26.119027378333
20
-1.3284337321702
30
0
41
1
10
26.0413088167429
20
-1.30608019876945
30
0
41
1
10
25.9197977491514
20
-1.27490708476057
30
0
41
1
10
25.8784738598371
20
-1.26490884406707
30
0
41
1
10
25.815043328627
20
-1.25091769790114
30
0
41
1
10
25.7936020427763
20
-1.24640962162096
30
0
41
1
10
25.7504889003562
20
-1.23786260436614
30
0
41
1
10
25.7288642874825
20
-1.23383168540582
30
0
41
1
10
25.663772526348
20
-1.22257823377018
30
0
41
1
10
25.6200945491985
20
-1.21616485317429
30
0
41
1
10
25.5540287133839
20
-1.20890300720217
30
0
41
1
10
25.5319219142114
20
-1.20684636519025
30
0
41
1
10
25.487607898504
20
-1.20316910540561
30
0
41
1
10
25.4654067286486
20
-1.20152099463039
30
0
41
1
10
25.354253413172
20
-1.19392153507837
30
0
41
1
10
25.2647654957366
20
-1.19032467871162
30
0
41
1
10
25.1294951028217
20
-1.18970410788694
30
0
41
1
10
25.0841030211037
20
-1.19030221429497
30
0
41
1
10
24.9939403486214
20
-1.19325760002167
30
0
41
1
10
24.9490966832495
20
-1.19560980013324
30
0
41
1
10
24.8599318010672
20
-1.20218051478989
30
0
41
1
10
24.8156091509362
20
-1.20639461316537
30
0
41
1
10
24.7275573130385
20
-1.21683516624813
30
0
41
1
10
24.6838293212086
20
-1.22306821079948
30
0
41
1
10
24.5971135745477
20
-1.23786505530836
30
0
41
1
10
24.553972259535
20
-1.24647339741799
30
0
41
1
10
24.491259588794
20
-1.2611331634177
30
0
41
1
10
24.4706488539362
20
-1.26631633198966
30
0
41
1
10
24.4300908710495
20
-1.27730324019748
30
0
41
1
10
24.4100945163798
20
-1.28312244694794
30
0
41
1
10
24.3515998821351
20
-1.30145119345485
30
0
41
1
10
24.3148839052772
20
-1.31475784193728
30
0
41
1
10
24.2725685838155
20
-1.33264740503213
30
0
41
1
10
24.2642859444665
20
-1.33628775796626
30
0
41
1
10
24.2481096962284
20
-1.34369078183874
30
0
41
1
10
24.2402057997161
20
-1.34745935348317
30
0
41
1
10
24.217361629069
20
-1.35882533207842
30
0
41
1
10
24.2030950442344
20
-1.36648592556929
30
0
41
1
10
24.1848044659209
20
-1.37848363456399
30
0
41
1
10
24.1792041151301
20
-1.38259690391465
30
0
41
1
10
24.1696524628569
20
-1.39080625683795
30
0
41
1
10
24.1656656288112
20
-1.39491738158753
30
0
41
1
10
24.1590263869302
20
-1.40309279907831
30
0
41
1
10
24.156394673569
20
-1.40715990312245
30
0
41
1
10
24.152451894818
20
-1.41521855689217
30
0
41
1
10
24.1511677501446
20
-1.41916494980703
30
0
41
1
10
24.1491928930178
20
-1.43058140563031
30
0
41
1
10
24.1503323732049
20
-1.43770178298919
30
0
41
1
10
24.1549159662798
20
-1.44765399809378
30
0
41
1
10
24.156930613093
20
-1.45084587488307
30
0
41
1
10
24.1617299724208
20
-1.45689016149387
30
0
41
1
10
24.1645210978537
20
-1.45975833223963
30
0
41
1
10
24.1738964048677
20
-1.46793952920376
30
0
41
1
10
24.1814742568386
20
-1.47283105044355
30
0
41
1
10
24.1986618131784
20
-1.48163214382331
30
0
41
1
10
24.2083251120992
20
-1.48555351046196
30
0
41
1
10
24.2393388802284
20
-1.49585999599535
30
0
41
1
10
24.2626428904154
20
-1.50084252905074
30
0
41
1
10
24.3125162582839
20
-1.50788716518156
30
0
41
1
10
24.3391135733556
20
-1.5099371633936
30
0
41
1
10
24.3807232662751
20
-1.51112219736203
30
0
41
1
10
24.3949082852682
20
-1.5111993216384
30
0
41
1
10
24.4236372032502
20
-1.51075462265999
30
0
41
1
10
24.4381745577683
20
-1.51023424276477
30
0
41
1
10
24.4822119143424
20
-1.50783759515332
30
0
41
1
10
24.5121405594682
20
-1.50512952125064
30
0
41
1
10
24.5727955466906
20
-1.49769817573608
30
0
41
1
10
24.6035240186124
20
-1.49297334548623
30
0
41
1
10
24.6965805565007
20
-1.47594071008615
30
0
41
1
10
24.759759675842
20
-1.46079294332344
30
0
41
1
10
24.8554980586346
20
-1.4325765764589
30
0
41
1
10
24.8875786067766
20
-1.42224997243881
30
0
41
1
10
24.952010631053
20
-1.39973503916312
30
0
41
1
10
24.9842991010352
20
-1.38756650050689
30
0
41
1
10
25.0809985810048
20
-1.34844546153283
30
0
41
1
10
25.1453639919629
20
-1.31883547214335
30
0
41
1
10
25.2096312910485
20
-1.28562851293228
30
0
0
SPLINE
5
185
100
AcDbEntity
8
1
62
256
6
ByLayer
370
18
48
1
60
0
100
AcDbSpline
70
4
71
3
72
84
73
80
40
0
40
0
40
0
40
0
40
0.0624999999999842
40
0.0624999999999842
40
0.124999999999968
40
0.124999999999968
40
0.15624999999996
40
0.15624999999996
40
0.171874999999956
40
0.171874999999956
40
0.187499999999953
40
0.187499999999953
40
0.218749999999944
40
0.218749999999944
40
0.234374999999941
40
0.234374999999941
40
0.249999999999937
40
0.249999999999937
40
0.31249999999993
40
0.31249999999993
40
0.343749999999927
40
0.343749999999927
40
0.374999999999924
40
0.374999999999924
40
0.406249999999921
40
0.406249999999921
40
0.437499999999918
40
0.437499999999918
40
0.468749999999915
40
0.468749999999915
40
0.484374999999911
40
0.484374999999911
40
0.499999999999907
40
0.499999999999907
40
0.531249999999904
40
0.531249999999904
40
0.539062499999903
40
0.539062499999903
40
0.546874999999902
40
0.546874999999902
40
0.562499999999904
40
0.562499999999904
40
0.570312499999906
40
0.570312499999906
40
0.578124999999908
40
0.578124999999908
40
0.58593749999991
40
0.58593749999991
40
0.593749999999912
40
0.593749999999912
40
0.609374999999916
40
0.609374999999916
40
0.617187499999918
40
0.617187499999918
40
0.624999999999919
40
0.624999999999919
40
0.640624999999923
40
0.640624999999923
40
0.656249999999927
40
0.656249999999927
40
0.687499999999932
40
0.687499999999932
40
0.718749999999937
40
0.718749999999937
40
0.734374999999939
40
0.734374999999939
40
0.749999999999942
40
0.749999999999942
40
0.78124999999995
40
0.78124999999995
40
0.812499999999958
40
0.812499999999958
40
0.874999999999974
40
0.874999999999974
40
0.906249999999981
40
0.906249999999981
40
0.937499999999987
40
0.937499999999987
40
1
40
1
40
1
40
1
41
1
10
26.412917438923
20
1.16725631096773
30
0
41
1
10
26.3421199796041
20
1.2036242013227
30
0
41
1
10
26.2694524174769
20
1.23517029347707
30
0
41
1
10
26.119027378333
20
1.28938809454411
30
0
41
1
10
26.0413088167429
20
1.31209599721325
30
0
41
1
10
25.9197977491514
20
1.34017624531111
30
0
41
1
10
25.8784738598372
20
1.34854267118661
30
0
41
1
10
25.815043328627
20
1.35964123946357
30
0
41
1
10
25.7936020427764
20
1.36310813863147
30
0
41
1
10
25.7504889003563
20
1.36951892045724
30
0
41
1
10
25.7288642874826
20
1.37245751537924
30
0
41
1
10
25.6637725263481
20
1.38048960087471
30
0
41
1
10
25.6200945491987
20
1.3848216858751
30
0
41
1
10
25.554028713384
20
1.3896233589175
30
0
41
1
10
25.5319219142115
20
1.39096096535269
30
0
41
1
10
25.4876078985041
20
1.39333100769866
30
0
41
1
10
25.4654067286486
20
1.39438041434235
30
0
41
1
10
25.354253413172
20
1.39918017845054
30
0
41
1
10
25.2647654957366
20
1.4013342284814
30
0
41
1
10
25.1294951028218
20
1.40171052587485
30
0
41
1
10
25.0841030211037
20
1.40135035003189
30
0
41
1
10
24.9939403486214
20
1.39954471418673
30
0
41
1
10
24.9490966832496
20
1.39810306920106
30
0
41
1
10
24.8599318010673
20
1.39397156159222
30
0
41
1
10
24.8156091509363
20
1.39128592464232
30
0
41
1
10
24.7275573130385
20
1.38437426719693
30
0
41
1
10
24.6838293212087
20
1.38014802715099
30
0
41
1
10
24.5971135745478
20
1.36957014031813
30
0
41
1
10
24.5539722595351
20
1.36318763902017
30
0
41
1
10
24.4912595887941
20
1.35152618473882
30
0
41
1
10
24.4706488539363
20
1.34728506469904
30
0
41
1
10
24.4300908710496
20
1.33794936883419
30
0
41
1
10
24.4100945163799
20
1.33284111290902
30
0
41
1
10
24.3515998821351
20
1.31604323103878
30
0
41
1
10
24.3148839052773
20
1.30298309756796
30
0
41
1
10
24.2725685838156
20
1.28329046260524
30
0
41
1
10
24.2642859444665
20
1.27918133726609
30
0
41
1
10
24.2481096962284
20
1.2705830768837
30
0
41
1
10
24.2402057997161
20
1.266086073493
30
0
41
1
10
24.2173616290691
20
1.25210594881241
30
0
41
1
10
24.2030950442345
20
1.24215484670353
30
0
41
1
10
24.1848044659209
20
1.22540787429881
30
0
41
1
10
24.1792041151301
20
1.21947153080487
30
0
41
1
10
24.169652462857
20
1.20715591757636
30
0
41
1
10
24.1656656288113
20
1.20075706582838
30
0
41
1
10
24.1590263869302
20
1.18750223938954
30
0
41
1
10
24.156394673569
20
1.1806422048644
30
0
41
1
10
24.152451894818
20
1.16644472325655
30
0
41
1
10
24.1511677501446
20
1.15918391397645
30
0
41
1
10
24.1491928930178
20
1.13722516365749
30
0
41
1
10
24.1503323732048
20
1.12222375410499
30
0
41
1
10
24.1549159662797
20
1.09917530622548
30
0
41
1
10
24.156930613093
20
1.09140691146266
30
0
41
1
10
24.1617299724208
20
1.07595461550238
30
0
41
1
10
24.1645210978536
20
1.06823507238011
30
0
41
1
10
24.1738964048677
20
1.04507260013475
30
0
41
1
10
24.1814742568386
20
1.02962466680387
30
0
41
1
10
24.1986618131783
20
0.998633295662216
30
0
41
1
10
24.2083251120991
20
0.983027023138476
30
0
41
1
10
24.2393388802284
20
0.936578862403849
30
0
41
1
10
24.2626428904154
20
0.906040533031927
30
0
41
1
10
24.3125162582839
20
0.845162014372079
30
0
41
1
10
24.3391135733556
20
0.814830992564055
30
0
41
1
10
24.3807232662751
20
0.769231529380704
30
0
41
1
10
24.3949082852682
20
0.753990202836974
30
0
41
1
10
24.4236372032502
20
0.723589181015683
30
0
41
1
10
24.4381745577682
20
0.708435418776844
30
0
41
1
10
24.4822119143424
20
0.66305490502009
30
0
41
1
10
24.5121405594683
20
0.632912999012177
30
0
41
1
10
24.5727955466906
20
0.572630951287579
30
0
41
1
10
24.6035240186124
20
0.542492091439613
30
0
41
1
10
24.6965805565007
20
0.451857736420948
30
0
41
1
10
24.759759675842
20
0.391133555488409
30
0
41
1
10
24.8554980586346
20
0.299031885048237
30
0
41
1
10
24.8875786067766
20
0.268165497250209
30
0
41
1
10
24.952010631053
20
0.206039905885461
30
0
41
1
10
24.9842991010351
20
0.174841280411982
30
0
41
1
10
25.0809985810047
20
0.081100182137277
30
0
41
1
10
25.1453639919629
20
0.0182727221602761
30
0
41
1
10
25.2096312910485
20
-0.0448898241903066
30
0
0
SPLINE
5
186
100
AcDbEntity
8
1
62
256
6
ByLayer
370
18
48
1
60
0
100
AcDbSpline
70
4
71
3
72
24
73
20
40
0
40
0
40
0
40
0
40
0.0312499999999997
40
0.0312499999999997
40
0.0624999999999994
40
0.0624999999999994
40
0.124999999999999
40
0.124999999999999
40
0.249999999999999
40
0.249999999999999
40
0.374999999999999
40
0.374999999999999
40
0.499999999999999
40
0.499999999999999
40
0.624999999999999
40
0.624999999999999
40
0.75
40
0.75
40
1
40
1
40
1
40
1
41
1
10
41.7360564821111
20
-0.636743323461019
30
0
41
1
10
41.737643561601
20
-0.626423150986795
30
0
41
1
10
41.7388815956282
20
-0.616143184107699
30
0
41
1
10
41.7410582176082
20
-0.595584178026087
30
0
41
1
10
41.7419835287472
20
-0.585307777758345
30
0
41
1
10
41.7444706972397
20
-0.554447881275848
30
0
41
1
10
41.7457486707927
20
-0.533828285706278
30
0
41
1
10
41.7490215116358
20
-0.471755848882083
30
0
41
1
10
41.7504475106647
20
-0.430219256993922
30
0
41
1
10
41.7526953735588
20
-0.346721583106046
30
0
41
1
10
41.7534944384996
20
-0.304763814122367
30
0
41
1
10
41.7547091069472
20
-0.220398172833114
30
0
41
1
10
41.7551080602421
20
-0.177992541229827
30
0
41
1
10
41.7555578471986
20
-0.0927225894434685
30
0
41
1
10
41.7556076372256
20
-0.0498175050734915
30
0
41
1
10
41.7554010940993
20
0.0362986582716474
30
0
41
1
10
41.7551458189521
20
0.0791377426966164
30
0
41
1
10
41.7540033738797
20
0.207005092739251
30
0
41
1
10
41.7527399629224
20
0.291387222790434
30
0
41
1
10
41.7511624113595
20
0.374882697014499
30
0
0
SPLINE
5
187
100
AcDbEntity
8
1
62
256
6
ByLayer
370
18
48
1
60
0
100
AcDbSpline
70
4
71
3
72
26
73
22
40
0
40
0
40
0
40
0
40
0.0625
40
0.0625
40
0.125
40
0.125
40
0.25
40
0.375
40
0.5
40
0.5
40
0.5625
40
0.5625
40
0.624999999999999
40
0.624999999999999
40
0.749999999999999
40
0.749999999999999
40
0.875
40
0.875
40
0.9375
40
0.9375
40
1
40
1
40
1
40
1
41
1
10
35.2212477711184
20
-2.10861736420921
30
0
41
1
10
35.2191526405837
20
-2.10436593290882
30
0
41
1
10
35.2170417219243
20
-2.09923629839352
30
0
41
1
10
35.2127738854568
20
-2.0871944602097
30
0
41
1
10
35.2106117356228
20
-2.08026839527543
30
0
41
1
10
35.2040693945083
20
-2.05684877314562
30
0
41
1
10
35.1953092871365
20
-2.01890919040795
30
0
41
1
10
35.1824318153106
20
-1.94251899826358
30
0
41
1
10
35.1740860980535
20
-1.8786506220041
30
0
41
1
10
35.1678715334107
20
-1.82576891738015
30
0
41
1
10
35.1658008809035
20
-1.80725366841881
30
0
41
1
10
35.1616921138868
20
-1.76886634190461
30
0
41
1
10
35.1596532898723
20
-1.74899461040454
30
0
41
1
10
35.1535476406218
20
-1.68738462231545
30
0
41
1
10
35.1494765913113
20
-1.64365691008703
30
0
41
1
10
35.1412250395168
20
-1.55097864638483
30
0
41
1
10
35.1370569613876
20
-1.50202766821604
30
0
41
1
10
35.1307360751987
20
-1.42462806868235
30
0
41
1
10
35.1286176836865
20
-1.398164800654
30
0
41
1
10
35.1243570871969
20
-1.34388688040363
30
0
41
1
10
35.1222119473772
20
-1.31603034703093
30
0
41
1
10
35.1200782487916
20
-1.28780430633878
30
0
0
SPLINE
5
188
100
AcDbEntity
8
1
62
256
6
ByLayer
370
18
48
1
60
0
100
AcDbSpline
70
4
71
3
72
29
73
25
40
0
40
0
40
0
40
0
40
0.125
40
0.125
40
0.15625
40
0.15625
40
0.1875
40
0.25
40
0.25
40
0.375
40
0.5
40
0.5
40
0.5625
40
0.5625
40
0.625
40
0.625
40
0.75
40
0.75
40
0.875000000000001
40
0.875000000000001
40
0.937500000000001
40
0.96875
40
0.96875
40
1
40
1
40
1
40
1
41
1
10
35.0433279515617
20
-1.22311727841208
30
0
41
1
10
35.0475026384016
20
-1.28069869335815
30
0
41
1
10
35.0516739790253
20
-1.33642616732993
30
0
41
1
10
35.0569146736923
20
-1.40369223238196
30
0
41
1
10
35.0579655142676
20
-1.41704191400001
30
0
41
1
10
35.0600602516695
20
-1.44336518853709
30
0
41
1
10
35.0631944793558
20
-1.48231938381244
30
0
41
1
10
35.0663096639644
20
-1.51969977438492
30
0
41
1
10
35.072527370989
20
-1.59239534144339
30
0
41
1
10
35.0807835135753
20
-1.68382537009293
30
0
41
1
10
35.0891152649057
20
-1.76436362338765
30
0
41
1
10
35.0954490769292
20
-1.82059970379197
30
0
41
1
10
35.0975745371329
20
-1.83864919301169
30
0
41
1
10
35.1018633838584
20
-1.87332626175382
30
0
41
1
10
35.104012040166
20
-1.88983299069949
30
0
41
1
10
35.1104666773993
20
-1.93678573104137
30
0
41
1
10
35.1147991004736
20
-1.96472584024465
30
0
41
1
10
35.1234950340478
20
-2.01402653358855
30
0
41
1
10
35.1278367555058
20
-2.03538744005661
30
0
41
1
10
35.1342640341767
20
-2.06245383815497
30
0
41
1
10
35.1374577627883
20
-2.07474096856595
30
0
41
1
10
35.1406197838313
20
-2.08512957674449
30
0
41
1
10
35.1427213949292
20
-2.09162856143354
30
0
41
1
10
35.1437704404833
20
-2.09466851841583
30
0
41
1
10
35.144812089648
20
-2.09748040217355
30
0
0
SPLINE
5
189
100
AcDbEntity
8
1
62
256
6
ByLayer
370
18
48
1
60
0
100
AcDbSpline
70
4
71
3
72
22
73
18
40
0
40
0
40
0
40
0
40
0.25
40
0.25
40
0.3125
40
0.3125
40
0.375
40
0.375
40
0.5
40
0.5
40
0.75
40
0.75
40
0.8125
40
0.8125
40
0.874999999999999
40
0.874999999999999
40
1
40
1
40
1
40
1
41
1
10
34.4999876094234
20
-1.68040922820731
30
0
41
1
10
34.4942635389185
20
-1.62166683340467
30
0
41
1
10
34.4884745904894
20
-1.55414535216494
30
0
41
1
10
34.4811326403055
20
-1.45860012749199
30
0
41
1
10
34.4796588365762
20
-1.4389294855132
30
0
41
1
10
34.4766990045896
20
-1.39844217231834
30
0
41
1
10
34.4752178691887
20
-1.37769026946287
30
0
41
1
10
34.4707978550836
20
-1.31434066553098
30
0
41
1
10
34.4678706826647
20
-1.27048988464926
30
0
41
1
10
34.4591195286705
20
-1.13418867692854
30
0
41
1
10
34.4533306811152
20
-1.03703157782846
30
0
41
1
10
34.4459979661135
20
-0.907439352264987
30
0
41
1
10
34.4445230443478
20
-0.881051741189225
30
0
41
1
10
34.4415866954029
20
-0.827967994965547
30
0
41
1
10
34.4401225145639
20
-0.801224572865777
30
0
41
1
10
34.4357338763063
20
-0.720399228707493
30
0
41
1
10
34.4328133357334
20
-0.665723498486926
30
0
41
1
10
34.4298762263579
20
-0.610265119649824
30
0
0
SPLINE
5
18A
100
AcDbEntity
8
1
62
256
6
ByLayer
370
18
48
1
60
0
100
AcDbSpline
70
4
71
3
72
23
73
19
40
0
40
0
40
0
40
0
40
0.125
40
0.125
40
0.249999999999999
40
0.249999999999999
40
0.499999999999997
40
0.499999999999997
40
0.562499999999998
40
0.562499999999998
40
0.624999999999998
40
0.624999999999998
40
0.749999999999999
40
0.874999999999999
40
0.874999999999999
40
0.9375
40
0.9375
40
1
40
1
40
1
40
1
41
1
10
41.706427899894
20
-0.632390414626599
30
0
41
1
10
41.702399593012
20
-0.588674333244256
30
0
41
1
10
41.698520446481
20
-0.544199056701387
30
0
41
1
10
41.6909741244668
20
-0.453741175904355
30
0
41
1
10
41.6873015513915
20
-0.407676325672213
30
0
41
1
10
41.6766063078915
20
-0.269104170714002
30
0
41
1
10
41.6698093940182
20
-0.175655176805122
30
0
41
1
10
41.6618482836957
20
-0.0575103963209358
30
0
41
1
10
41.6602830085642
20
-0.0338142387300877
30
0
41
1
10
41.657209762823
20
0.0137145898475524
30
0
41
1
10
41.6557009038705
20
0.0375642217917687
30
0
41
1
10
41.6513048622509
20
0.108682566429138
30
0
41
1
10
41.6457632199421
20
0.202777811743573
30
0
41
1
10
41.6409036114836
20
0.295442663052256
30
0
41
1
10
41.6375523828322
20
0.364400178713168
30
0
41
1
10
41.6364844745605
20
0.387295672370698
30
0
41
1
10
41.6344578318431
20
0.432903192039362
30
0
41
1
10
41.6334979327837
20
0.455643764268302
30
0
41
1
10
41.6326035859368
20
0.478209927881522
30
0
0
SPLINE
5
18B
100
AcDbEntity
8
1
62
256
6
ByLayer
370
18
48
1
60
0
100
AcDbSpline
70
4
71
3
72
24
73
20
40
0
40
0
40
0
40
0
40
0.125
40
0.125
40
0.249999999999999
40
0.249999999999999
40
0.3125
40
0.3125
40
0.375
40
0.375
40
0.499999999999999
40
0.624999999999999
40
0.749999999999999
40
0.749999999999999
40
0.812499999999999
40
0.812499999999999
40
0.874999999999999
40
0.874999999999999
40
1
40
1
40
1
40
1
41
1
10
39.1713130829069
20
-2.04719582688085
30
0
41
1
10
39.1672225241817
20
-2.02829661622434
30
0
41
1
10
39.1630539206755
20
-2.00608338057657
30
0
41
1
10
39.1545799949249
20
-1.95512862875893
30
0
41
1
10
39.1502797156665
20
-1.92638702733626
30
0
41
1
10
39.1437709829716
20
-1.87830437558483
30
0
41
1
10
39.1415916420843
20
-1.86144691652461
30
0
41
1
10
39.1372183544142
20
-1.82604042083938
30
0
41
1
10
39.1350231242973
20
-1.8074744297931
30
0
41
1
10
39.128495562143
20
-1.74986321251834
30
0
41
1
10
39.1198993950739
20
-1.66756987761727
30
0
41
1
10
39.1073333408232
20
-1.52811299894202
30
0
41
1
10
39.0990986327486
20
-1.42442546873434
30
0
41
1
10
39.0929055035888
20
-1.34250534494586
30
0
41
1
10
39.0908474059441
20
-1.31463063135564
30
0
41
1
10
39.0867486887618
20
-1.25807490626383
30
0
41
1
10
39.0847044672756
20
-1.22934621407407
30
0
41
1
10
39.0785544764335
20
-1.14182943081343
30
0
41
1
10
39.0744248886925
20
-1.08171421784087
30
0
41
1
10
39.0702580727529
20
-1.01984224359984
30
0
0
SPLINE
5
18C
100
AcDbEntity
8
1
62
256
6
ByLayer
370
18
48
1
60
0
100
AcDbSpline
70
4
71
3
72
23
73
19
40
0
40
0
40
0
40
0
40
0.125
40
0.249999999999999
40
0.249999999999999
40
0.312499999999999
40
0.312499999999999
40
0.374999999999999
40
0.374999999999999
40
0.499999999999999
40
0.624999999999999
40
0.749999999999999
40
0.749999999999999
40
0.8125
40
0.8125
40
0.875
40
0.875
40
1
40
1
40
1
40
1
41
1
10
38.9932009361166
20
-0.948198911098473
30
0
41
1
10
38.9974463801908
20
-1.01166551955029
30
0
41
1
10
39.0059235803425
20
-1.13473493200365
30
0
41
1
10
39.0143943166322
20
-1.25021353833989
30
0
41
1
10
39.0207580735764
20
-1.33394142733636
30
0
41
1
10
39.0228811868053
20
-1.36136966201857
30
0
41
1
10
39.0271345954
20
-1.41524710567373
30
0
41
1
10
39.0292706082856
20
-1.44176421852228
30
0
41
1
10
39.0356337565868
20
-1.51905943016666
30
0
41
1
10
39.0440187762275
20
-1.61640815930358
30
0
41
1
10
39.0564434992097
20
-1.74578363167927
30
0
41
1
10
39.0647459994638
20
-1.82092564178612
30
0
41
1
10
39.0710365378209
20
-1.87298575736852
30
0
41
1
10
39.0731456107532
20
-1.88961830015634
30
0
41
1
10
39.0773416078647
20
-1.92107052888227
30
0
41
1
10
39.0794324976234
20
-1.93594162093666
30
0
41
1
10
39.0856772259557
20
-1.97803234543244
30
0
41
1
10
39.0897976615515
20
-2.00273562165117
30
0
41
1
10
39.0939241229207
20
-2.02411629992829
30
0
0
SPLINE
5
18D
100
AcDbEntity
8
1
62
256
6
ByLayer
370
18
48
1
60
0
100
AcDbSpline
70
4
71
3
72
24
73
20
40
0
40
0
40
0
40
0
40
0.125
40
0.125
40
0.187499999999999
40
0.187499999999999
40
0.249999999999999
40
0.249999999999999
40
0.374999999999999
40
0.5
40
0.625
40
0.625
40
0.6875
40
0.6875
40
0.749999999999999
40
0.749999999999999
40
0.875
40
0.875
40
1
40
1
40
1
40
1
41
1
10
35.7850092688449
20
0.761901962365329
30
0
41
1
10
35.7809793968197
20
0.827597529206002
30
0
41
1
10
35.7769573713322
20
0.892049393340955
30
0
41
1
10
35.7708287061862
20
0.986826882755111
30
0
41
1
10
35.7687696407338
20
1.01810207767389
30
0
41
1
10
35.7645984000204
20
1.08000467096696
30
0
41
1
10
35.7624835058243
20
1.11063160691543
30
0
41
1
10
35.7561222461574
20
1.20050090651145
30
0
41
1
10
35.7475679844462
20
1.31568938036841
30
0
41
1
10
35.7347225034817
20
1.47492307611029
30
0
41
1
10
35.7261797749455
20
1.57201134295926
30
0
41
1
10
35.7197541820792
20
1.64130786159129
30
0
41
1
10
35.7176199508095
20
1.66369655290003
30
0
41
1
10
35.7133783904303
20
1.70686090076009
30
0
41
1
10
35.7112677596911
20
1.72767218547293
30
0
41
1
10
35.704949112511
20
1.78782683037656
30
0
41
1
10
35.7007455176918
20
1.82489623266196
30
0
41
1
10
35.6923386112747
20
1.89301112004853
30
0
41
1
10
35.6881402608286
20
1.9240569800024
30
0
41
1
10
35.6839393435304
20
1.9520223964557
30
0
0
SPLINE
5
18E
100
AcDbEntity
8
1
62
256
6
ByLayer
370
18
48
1
60
0
100
AcDbSpline
70
4
71
3
72
28
73
24
40
0
40
0
40
0
40
0
40
0.0312500000000001
40
0.0312500000000001
40
0.0625000000000001
40
0.0625000000000001
40
0.125
40
0.125
40
0.25
40
0.375000000000001
40
0.375000000000001
40
0.437500000000001
40
0.437500000000001
40
0.5
40
0.5
40
0.625000000000001
40
0.625000000000001
40
0.750000000000001
40
0.875000000000001
40
0.875000000000001
40
0.9375
40
0.9375
40
1
40
1
40
1
40
1
41
1
10
35.6076646299091
20
1.9821006871905
30
0
41
1
10
35.6087535556529
20
1.97573151751527
30
0
41
1
10
35.6098431664677
20
1.96914531610449
30
0
41
1
10
35.6120232605995
20
1.9555341938738
30
0
41
1
10
35.6131152679324
20
1.94849887855881
30
0
41
1
10
35.6163769593069
20
1.9268283924651
30
0
41
1
10
35.6185337781975
20
1.91162232416653
30
0
41
1
10
35.6249509183713
20
1.86377228910877
30
0
41
1
10
35.6333624871145
20
1.7940316047048
30
0
41
1
10
35.641542012563
20
1.71261691823364
30
0
41
1
10
35.6476500276926
20
1.64712707621706
30
0
41
1
10
35.649682028839
20
1.62455766880652
30
0
41
1
10
35.6537541956674
20
1.57791484048821
30
0
41
1
10
35.6557998703376
20
1.55377276931787
30
0
41
1
10
35.6619209078056
20
1.4797703506683
30
0
41
1
10
35.6659947343346
20
1.42824241194006
30
0
41
1
10
35.6742965374754
20
1.32093646113739
30
0
41
1
10
35.6827205770151
20
1.20937827275699
30
0
41
1
10
35.6913260306534
20
1.08931349793639
30
0
41
1
10
35.6978295653062
20
0.995976531789864
30
0
41
1
10
35.7000068204052
20
0.964296047547322
30
0
41
1
10
35.7043271179834
20
0.900548992718768
30
0
41
1
10
35.7064763063619
20
0.868395064669414
30
0
41
1
10
35.7086146019513
20
0.835965388379776
30
0
0
SPLINE
5
18F
100
AcDbEntity
8
1
62
256
6
ByLayer
370
18
48
1
60
0
100
AcDbSpline
70
4
71
3
72
27
73
23
40
0
40
0
40
0
40
0
40
0.125
40
0.125
40
0.1875
40
0.1875
40
0.25
40
0.25
40
0.374999999999999
40
0.499999999999999
40
0.499999999999999
40
0.562499999999999
40
0.562499999999999
40
0.624999999999999
40
0.624999999999999
40
0.749999999999999
40
0.874999999999999
40
0.874999999999999
40
0.937499999999999
40
0.968749999999999
40
0.968749999999999
40
1
40
1
40
1
40
1
41
1
10
36.6314548397596
20
-0.106065571446351
30
0
41
1
10
36.6272891133781
20
-0.035664005361042
30
0
41
1
10
36.6231341541691
20
0.0351281634534359
30
0
41
1
10
36.6168709811668
20
0.141919500146855
30
0
41
1
10
36.6147863088336
20
0.177472695215727
30
0
41
1
10
36.6106393030429
20
0.248037385620933
30
0
41
1
10
36.6085728368674
20
0.283119257773279
30
0
41
1
10
36.6023770360226
20
0.387771491229216
30
0
41
1
10
36.5941262283528
20
0.525728288989768
30
0
41
1
10
36.5856935821975
20
0.660539722959783
30
0
41
1
10
36.5792209210151
20
0.76043864636793
30
0
41
1
10
36.5770330749717
20
0.793576510238211
30
0
41
1
10
36.5726251410196
20
0.859266862834659
30
0
41
1
10
36.5704206038982
20
0.891625502091301
30
0
41
1
10
36.5638379608946
20
0.987274134126125
30
0
41
1
10
36.5551511885323
20
1.11100714196201
30
0
41
1
10
36.5467973723038
20
1.22729446134278
30
0
41
1
10
36.5406276701729
20
1.31168612286467
30
0
41
1
10
36.5375654205869
20
1.35317464168321
30
0
41
1
10
36.534518942364
20
1.39358350459423
30
0
41
1
10
36.5324884806343
20
1.42027980702323
30
0
41
1
10
36.5314732052811
20
1.43351055956407
30
0
41
1
10
36.5304623154574
20
1.4465448349944
30
0
0
SPLINE
5
190
100
AcDbEntity
8
1
62
256
6
ByLayer
370
18
48
1
60
0
100
AcDbSpline
70
4
71
3
72
24
73
20
40
0
40
0
40
0
40
0
40
0.125000000000001
40
0.250000000000003
40
0.250000000000003
40
0.312500000000003
40
0.312500000000003
40
0.375000000000004
40
0.375000000000004
40
0.500000000000004
40
0.625000000000005
40
0.625000000000005
40
0.687500000000005
40
0.687500000000005
40
0.718750000000004
40
0.718750000000004
40
0.750000000000004
40
0.875000000000002
40
1
40
1
40
1
40
1
41
1
10
38.1471268778445
20
-0.0988159376184967
30
0
41
1
10
38.1512795943702
20
-0.16929906925256
30
0
41
1
10
38.1594833432604
20
-0.309592728423326
30
0
41
1
10
38.167687417914
20
-0.448529253217316
30
0
41
1
10
38.1739682959497
20
-0.552200004859799
30
0
41
1
10
38.1760838508257
20
-0.586696720713206
30
0
41
1
10
38.1803084961775
20
-0.654736254709661
30
0
41
1
10
38.1824233824031
20
-0.688376139474087
30
0
41
1
10
38.1887755295656
20
-0.788175479588801
30
0
41
1
10
38.1972654291592
20
-0.918259166118986
30
0
41
1
10
38.2057826205075
20
-1.04244783540511
30
0
41
1
10
38.2121814545707
20
-1.13333769655341
30
0
41
1
10
38.2143163182719
20
-1.16325834547504
30
0
41
1
10
38.217522944018
20
-1.20756351660546
30
0
41
1
10
38.218592184381
20
-1.22223040790186
30
0
41
1
10
38.2207203871977
20
-1.25120596450785
30
0
41
1
10
38.2260230492107
20
-1.3228526670581
30
0
41
1
10
38.2354146435479
20
-1.44479042157033
30
0
41
1
10
38.243649821094
20
-1.54340611990054
30
0
41
1
10
38.2477837927922
20
-1.59025136634099
30
0
0
SPLINE
5
191
100
AcDbEntity
8
1
62
256
6
ByLayer
370
18
48
1
60
0
100
AcDbSpline
70
4
71
3
72
25
73
21
40
0
40
0
40
0
40
0
40
0.125
40
0.250000000000001
40
0.375000000000001
40
0.375000000000001
40
0.437500000000001
40
0.437500000000001
40
0.5
40
0.5
40
0.625
40
0.625
40
0.75
40
0.75
40
0.8125
40
0.8125
40
0.84375
40
0.84375
40
0.875
40
1
40
1
40
1
40
1
41
1
10
38.3243129644488
20
-1.64215670028392
30
0
41
1
10
38.3200639651865
20
-1.5969166524215
30
0
41
1
10
38.3116643723617
20
-1.50161839327129
30
0
41
1
10
38.2992198830939
20
-1.34467984169544
30
0
41
1
10
38.2909102152291
20
-1.23075500469847
30
0
41
1
10
38.2846207879917
20
-1.14172996323685
30
0
41
1
10
38.2825093933757
20
-1.11137830907097
30
0
41
1
10
38.2783010699249
20
-1.05008611205247
30
0
41
1
10
38.2762006237932
20
-1.01909821194323
30
0
41
1
10
38.2698973275071
20
-0.925128378529593
30
0
41
1
10
38.265686734002
20
-0.86114307890054
30
0
41
1
10
38.2572283557549
20
-0.730533158685517
30
0
41
1
10
38.2529901090371
20
-0.663908031603711
30
0
41
1
10
38.2466250600575
20
-0.561957926778859
30
0
41
1
10
38.2445016849538
20
-0.527638561414506
30
0
41
1
10
38.2413112501073
20
-0.475645817491284
30
0
41
1
10
38.2402453606578
20
-0.458204665719109
30
0
41
1
10
38.2381208759838
20
-0.423311730695588
30
0
41
1
10
38.2328256884563
20
-0.336021969799873
30
0
41
1
10
38.2276014488859
20
-0.248449915959327
30
0
41
1
10
38.2234283255978
20
-0.17821838509613
30
0
0
SPLINE
5
192
100
AcDbEntity
8
1
62
256
6
ByLayer
370
18
48
1
60
0
100
AcDbSpline
70
4
71
3
72
24
73
20
40
0
40
0
40
0
40
0
40
0.125
40
0.125
40
0.1875
40
0.1875
40
0.21875
40
0.21875
40
0.25
40
0.375
40
0.5
40
0.5
40
0.625
40
0.625
40
0.75
40
0.75
40
0.875
40
0.875
40
1
40
1
40
1
40
1
41
1
10
37.3000381720158
20
0.768926756250579
30
0
41
1
10
37.3041382687009
20
0.703244883099813
30
0
41
1
10
37.3083165123339
20
0.63627256218146
30
0
41
1
10
37.3146757680243
20
0.533843214710259
30
0
41
1
10
37.3168108868288
20
0.499371014484609
30
0
41
1
10
37.320034301522
20
0.447158901568798
30
0
41
1
10
37.3211128429019
20
0.429660915129517
30
0
41
1
10
37.3232643792968
20
0.394693375681072
30
0
41
1
10
37.3286369225797
20
0.307227218943609
30
0
41
1
10
37.3382405624569
20
0.149368009871779
30
0
41
1
10
37.3466807031951
20
0.0084649219734558
30
0
41
1
10
37.3551015406007
20
-0.132730152871545
30
0
41
1
10
37.3593046160941
20
-0.203517408736246
30
0
41
1
10
37.3677457846129
20
-0.345213281793775
30
0
41
1
10
37.3719174270224
20
-0.414998383263736
30
0
41
1
10
37.3802650732712
20
-0.552510689689285
30
0
41
1
10
37.3844483910488
20
-0.620237263739114
30
0
41
1
10
37.3929121852042
20
-0.753637555476161
30
0
41
1
10
37.3971766571484
20
-0.819312315332155
30
0
41
1
10
37.4014545970648
20
-0.883937145594643
30
0
0
SPLINE
5
193
100
AcDbEntity
8
1
62
256
6
ByLayer
370
18
48
1
60
0
100
AcDbSpline
70
4
71
3
72
32
73
28
40
0
40
0
40
0
40
0
40
0.0312500000000002
40
0.0312500000000002
40
0.0625000000000004
40
0.0625000000000004
40
0.0937500000000006
40
0.0937500000000006
40
0.125000000000001
40
0.125000000000001
40
0.250000000000001
40
0.250000000000001
40
0.5
40
0.5
40
0.625
40
0.625
40
0.75
40
0.75
40
0.78125
40
0.78125
40
0.8125
40
0.8125
40
0.84375
40
0.84375
40
0.875
40
0.875
40
1
40
1
40
1
40
1
41
1
10
42.2000000000001
20
1.15867073043836
30
0
41
1
10
42.2000000000001
20
1.14417562003777
30
0
41
1
10
42.2000000000001
20
1.12988044362612
30
0
41
1
10
42.2000000000001
20
1.10171703237936
30
0
41
1
10
42.2
20
1.08807993781289
30
0
41
1
10
42.2
20
1.06126003713283
30
0
41
1
10
42.2
20
1.04796514178725
30
0
41
1
10
42.2
20
1.0213741951037
30
0
41
1
10
42.2
20
1.00812444839403
30
0
41
1
10
42.2
20
0.942146325820886
30
0
41
1
10
42.2
20
0.89019642984303
30
0
41
1
10
42.2
20
0.736754693739044
30
0
41
1
10
42.2000000000001
20
0.637667115692636
30
0
41
1
10
42.2000000000001
20
0.493933352995356
30
0
41
1
10
42.2
20
0.446848120230101
30
0
41
1
10
42.2
20
0.354709238563004
30
0
41
1
10
42.2
20
0.309584519079351
30
0
41
1
10
42.2
20
0.254446775565896
30
0
41
1
10
42.2
20
0.243401246038047
30
0
41
1
10
42.2
20
0.221717327621945
30
0
41
1
10
42.2
20
0.211172779757902
30
0
41
1
10
42.2
20
0.190731626113688
30
0
41
1
10
42.2
20
0.180806554262176
30
0
41
1
10
42.2
20
0.161779420394481
30
0
41
1
10
42.2
20
0.152676985202362
30
0
41
1
10
42.2
20
0.109136513393338
30
0
41
1
10
42.2
20
0.0805407910424947
30
0
41
1
10
42.2
20
0.0583460707556185
30
0
0
SPLINE
5
194
100
AcDbEntity
8
1
62
256
6
ByLayer
370
18
48
1
60
0
100
AcDbSpline
70
4
71
3
72
18
73
14
40
0
40
0
40
0
40
0
40
0.0625000000000153
40
0.0625000000000153
40
0.125000000000031
40
0.125000000000031
40
0.250000000000026
40
0.250000000000026
40
0.500000000000017
40
0.500000000000017
40
0.750000000000009
40
0.750000000000009
40
1
40
1
40
1
40
1
41
1
10
41.7099602242374
20
1.6457301208464
30
0
41
1
10
41.7209316110243
20
1.63560213932865
30
0
41
1
10
41.7319438866534
20
1.62538423427151
30
0
41
1
10
41.754097543158
20
1.60471427865204
30
0
41
1
10
41.7652215668801
20
1.59428669895894
30
0
41
1
10
41.7983468546684
20
1.56322534901844
30
0
41
1
10
41.8201724332219
20
1.54271652257225
30
0
41
1
10
41.8848694130278
20
1.48161595448823
30
0
41
1
10
41.9270327617033
20
1.4413669140865
30
0
41
1
10
42.0092783373844
20
1.36102399696702
30
0
41
1
10
42.0493749838835
20
1.32092493217544
30
0
41
1
10
42.1269373824285
20
1.24027775570124
30
0
41
1
10
42.1644231613527
20
1.19972820794445
30
0
41
1
10
42.2000000000001
20
1.15867073043836
30
0
0
SPLINE
5
195
100
AcDbEntity
8
1
62
256
6
ByLayer
370
18
48
1
60
0
100
AcDbSpline
70
4
71
3
72
8
73
4
40
0
40
0
40
0
40
0
40
1
40
1
40
1
40
1
41
1
10
41.7099602242374
20
1.64573012084642
30
0
41
1
10
41.6843608361064
20
1.64929191767737
30
0
41
1
10
41.6588453614421
20
1.65246123410091
30
0
41
1
10
41.6334032751282
20
1.65523446212737
30
0
0
SPLINE
5
196
100
AcDbEntity
8
1
62
256
6
ByLayer
370
18
48
1
60
0
100
AcDbSpline
70
4
71
3
72
8
73
4
40
0
40
0
40
0
40
0
40
1
40
1
40
1
40
1
41
1
10
41.6334032751282
20
1.65523446212737
30
0
41
1
10
41.6319473901963
20
1.65268432463102
30
0
41
1
10
41.6304909273424
20
1.65013137239174
30
0
41
1
10
41.6290338772569
20
1.64757560117223
30
0
0
SPLINE
5
197
100
AcDbEntity
8
1
62
256
6
ByLayer
370
18
48
1
60
0
100
AcDbSpline
70
4
71
3
72
28
73
24
40
0
40
0
40
0
40
0
40
0.125
40
0.125
40
0.25
40
0.25
40
0.375
40
0.375
40
0.499999999999999
40
0.499999999999999
40
0.624999999999999
40
0.624999999999999
40
0.687499999999999
40
0.687499999999999
40
0.749999999999999
40
0.749999999999999
40
0.8125
40
0.8125
40
0.875
40
0.875
40
0.9375
40
0.9375
40
1
40
1
40
1
40
1
41
1
10
41.6290338772569
20
1.64757560117221
30
0
41
1
10
41.6233073160778
20
1.63753079873661
30
0
41
1
10
41.6166771027492
20
1.62859339991533
30
0
41
1
10
41.6020098183445
20
1.61242129682728
30
0
41
1
10
41.5938996371506
20
1.60516439514754
30
0
41
1
10
41.5769394360763
20
1.59265930319884
30
0
41
1
10
41.568041587712
20
1.58734385975069
30
0
41
1
10
41.549446702578
20
1.57852957061772
30
0
41
1
10
41.5396542841009
20
1.57501771957754
30
0
41
1
10
41.5199110898599
20
1.57020847991612
30
0
41
1
10
41.5099246905196
20
1.56886842972872
30
0
41
1
10
41.4947870868904
20
1.56868383387541
30
0
41
1
10
41.489714545986
20
1.56892955170954
30
0
41
1
10
41.4795146491472
20
1.57012971039816
30
0
41
1
10
41.4743886096696
20
1.57109063226065
30
0
41
1
10
41.4643708034811
20
1.57377101886675
30
0
41
1
10
41.4594454148322
20
1.57549176485435
30
0
41
1
10
41.4497957028707
20
1.57980657115183
30
0
41
1
10
41.4450342357954
20
1.58242838644043
30
0
41
1
10
41.4360218573834
20
1.58856026819873
30
0
41
1
10
41.4317549309376
20
1.59206712103361
30
0
41
1
10
41.4237747819127
20
1.60010686158199
30
0
41
1
10
41.4200545960371
20
1.60466488651451
30
0
41
1
10
41.4167839212232
20
1.60968316868656
30
0
0
SPLINE
5
198
100
AcDbEntity
8
1
62
256
6
ByLayer
370
18
48
1
60
0
100
AcDbSpline
70
4
71
3
72
8
73
4
40
0
40
0
40
0
40
0
40
1
40
1
40
1
40
1
41
1
10
41.4167839212195
20
1.60968316869361
30
0
41
1
10
41.4036056346603
20
1.6299029594937
30
0
41
1
10
41.3904525906908
20
1.64992028724677
30
0
41
1
10
41.3773222532608
20
1.66973473053946
30
0
0
SPLINE
5
199
100
AcDbEntity
8
1
62
256
6
ByLayer
370
18
48
1
60
0
100
AcDbSpline
70
4
71
3
72
14
73
10
40
0
40
0
40
0
40
0
40
0.500000000000012
40
0.500000000000012
40
0.750000000000018
40
0.750000000000018
40
0.875000000000009
40
0.875000000000009
40
1
40
1
40
1
40
1
41
1
10
41.3773222532608
20
1.66973473053946
30
0
41
1
10
41.2961993816282
20
1.66995897636704
30
0
41
1
10
41.2155926660323
20
1.66587016192383
30
0
41
1
10
41.094905754417
20
1.6531381217633
30
0
41
1
10
41.0547149210079
20
1.64779436824133
30
0
41
1
10
40.9944239960406
20
1.63811042506427
30
0
41
1
10
40.9743070015455
20
1.63460040915592
30
0
41
1
10
40.9342341148014
20
1.62705397933979
30
0
41
1
10
40.9142628938313
20
1.62301520921636
30
0
41
1
10
40.8943538435172
20
1.61871232288783
30
0
0
SPLINE
5
19A
100
AcDbEntity
8
1
62
256
6
ByLayer
370
18
48
1
60
0
100
AcDbSpline
70
4
71
3
72
8
73
4
40
0
40
0
40
0
40
0
40
1
40
1
40
1
40
1
41
1
10
35.144812089648
20
-2.09748040217355
30
0
41
1
10
35.1703082229822
20
-2.10169273522462
30
0
41
1
10
35.1957834664969
20
-2.10540469252089
30
0
41
1
10
35.2212477711184
20
-2.10861736420924
30
0
0
SPLINE
5
19B
100
AcDbEntity
8
1
62
256
6
ByLayer
370
18
48
1
60
0
100
AcDbSpline
70
4
71
3
72
17
73
13
40
0
40
0
40
0
40
0
40
0.499999999999993
40
0.499999999999993
40
0.624999999999991
40
0.624999999999991
40
0.749999999999989
40
0.874999999999987
40
0.874999999999987
40
0.937499999999993
40
0.937499999999993
40
1
40
1
40
1
40
1
41
1
10
34.4999876094234
20
-1.68040922820728
30
0
41
1
10
34.4062535582207
20
-1.58399569615506
30
0
41
1
10
34.311039160594
20
-1.48252164285043
30
0
41
1
10
34.1887472233378
20
-1.34994635651111
30
0
41
1
10
34.1641572306936
20
-1.3231797463605
30
0
41
1
10
34.1149123292158
20
-1.26942519499738
30
0
41
1
10
34.0655357095047
20
-1.2153761642887
30
0
41
1
10
34.0158181673845
20
-1.16079895492703
30
0
41
1
10
33.978373610941
20
-1.11968993848964
30
0
41
1
10
33.965867200901
20
-1.10595698276254
30
0
41
1
10
33.9408184578728
20
-1.07842452390869
30
0
41
1
10
33.9282814233974
20
-1.0646219725013
30
0
41
1
10
33.9156696342337
20
-1.0508175454508
30
0
0
SPLINE
5
19C
100
AcDbEntity
8
1
62
256
6
ByLayer
370
18
48
1
60
0
100
AcDbSpline
70
4
71
3
72
10
73
6
40
0
40
0
40
0
40
0
40
0.5
40
0.5
40
1
40
1
40
1
40
1
41
1
10
33.9156696342337
20
-1.0508175454508
30
0
41
1
10
33.8782485431862
20
-1.00985771692777
30
0
41
1
10
33.8381843234036
20
-0.972715573557821
30
0
41
1
10
33.7543519282639
20
-0.904996729241788
30
0
41
1
10
33.7106301426851
20
-0.87436827161298
30
0
41
1
10
33.6656696342337
20
-0.846689807926566
30
0
0
SPLINE
5
19D
100
AcDbEntity
8
1
62
256
6
ByLayer
370
18
48
1
60
0
100
AcDbSpline
70
4
71
3
72
70
73
66
40
0
40
0
40
0
40
0
40
0.0382599372613293
40
0.0382599372613293
40
0.0765198745226587
40
0.0765198745226587
40
0.114779811783988
40
0.114779811783988
40
0.153039749045318
40
0.153039749045318
40
0.191299686306647
40
0.191299686306647
40
0.229559623567976
40
0.229559623567976
40
0.267819560829306
40
0.267819560829306
40
0.306079498090635
40
0.306079498090635
40
0.344339435351964
40
0.344339435351964
40
0.382599372613294
40
0.382599372613294
40
0.401729341243958
40
0.401729341243958
40
0.420859309874623
40
0.420859309874623
40
0.459119247135953
40
0.459119247135953
40
0.497379184397282
40
0.497379184397282
40
0.535639121658611
40
0.535639121658611
40
0.573899058919941
40
0.573899058919941
40
0.593029027550605
40
0.593029027550605
40
0.61215899618127
40
0.61215899618127
40
0.6504189334426
40
0.6504189334426
40
0.688678870703929
40
0.688678870703929
40
0.726938807965259
40
0.726938807965259
40
0.765198745226588
40
0.765198745226588
40
0.784328713857253
40
0.784328713857253
40
0.803458682487918
40
0.803458682487918
40
0.841718619749247
40
0.841718619749247
40
0.879978557010577
40
0.879978557010577
40
0.899108525641241
40
0.899108525641241
40
0.918238494271906
40
0.918238494271906
40
0.956498431533233
40
0.956498431533233
40
0.975628400163898
40
0.975628400163898
40
0.994758368794562
40
0.994758368794562
40
1
40
1
40
1
40
1
41
1
10
33.6656696342337
20
-0.846689807926566
30
0
41
1
10
33.5893956730926
20
-0.79973424322381
30
0
41
1
10
33.513573410961
20
-0.751222254348932
30
0
41
1
10
33.3625573272617
20
-0.651454814591858
30
0
41
1
10
33.2872880293661
20
-0.600289695002544
30
0
41
1
10
33.136713613296
20
-0.496078557305651
30
0
41
1
10
33.0614980530871
20
-0.442921508962371
30
0
41
1
10
32.9110615160174
20
-0.334687839370304
30
0
41
1
10
32.8358103194914
20
-0.279648568049112
30
0
41
1
10
32.6847707070537
20
-0.168328162060874
30
0
41
1
10
32.6089563456013
20
-0.112083839942016
30
0
41
1
10
32.4564296178264
20
0.0011855207995666
30
0
41
1
10
32.3805110733755
20
0.0576324546972273
30
0
41
1
10
32.2294217922196
20
0.169884651359297
30
0
41
1
10
32.1541996682687
20
0.225678043222274
30
0
41
1
10
32.0037270502667
20
0.335708947430078
30
0
41
1
10
31.928506639811
20
0.389990510844427
30
0
41
1
10
31.7780423779618
20
0.497013923106351
30
0
41
1
10
31.7027564914355
20
0.549699483000609
30
0
41
1
10
31.551764195171
20
0.652990316988479
30
0
41
1
10
31.4760415118361
20
0.703572965920557
30
0
41
1
10
31.3616390736875
20
0.777235006955891
30
0
41
1
10
31.3235526928084
20
0.801354608250193
30
0
41
1
10
31.2476443266723
20
0.848629960811024
30
0
41
1
10
31.2097862907819
20
0.871792488837798
30
0
41
1
10
31.0964314318923
20
0.93979240075933
30
0
41
1
10
31.0211719138438
20
0.983160549701438
30
0
41
1
10
30.8708012831877
20
1.06552249728244
30
0
41
1
10
30.7956097821867
20
1.10444231546236
30
0
41
1
10
30.6451129385152
20
1.17769814634892
30
0
41
1
10
30.5698673514255
20
1.2120829581157
30
0
41
1
10
30.4190169244458
20
1.27596430887249
30
0
41
1
10
30.3433674152242
20
1.3054224851553
30
0
41
1
10
30.2291442665202
20
1.3455190122485
30
0
41
1
10
30.190990586126
20
1.35819719922429
30
0
41
1
10
30.1150070999345
20
1.38201491302633
30
0
41
1
10
30.0771087440984
20
1.39317895241953
30
0
41
1
10
29.9636337231758
20
1.42443168832278
30
0
41
1
10
29.8882842743529
20
1.44228660467539
30
0
41
1
10
29.737894641339
20
1.47197489867196
30
0
41
1
10
29.6627804009558
20
1.48377951659899
30
0
41
1
10
29.512347322636
20
1.5012552753098
30
0
41
1
10
29.4371145869328
20
1.50694531929247
30
0
41
1
10
29.2862679859135
20
1.51208749055095
30
0
41
1
10
29.2106777155308
20
1.511535556323
30
0
41
1
10
29.0966075239073
20
1.50592084110551
30
0
41
1
10
29.0584076158314
20
1.50324861151256
30
0
41
1
10
28.982311813427
20
1.49635652268827
30
0
41
1
10
28.9443640674739
20
1.49213346410272
30
0
41
1
10
28.8308077159996
20
1.47715748299845
30
0
41
1
10
28.7554609948364
20
1.46410040877737
30
0
41
1
10
28.605030977206
20
1.43205465196468
30
0
41
1
10
28.5299605417064
20
1.41305913452212
30
0
41
1
10
28.4171787005965
20
1.38032451961905
30
0
41
1
10
28.3795451343428
20
1.36871361153408
30
0
41
1
10
28.3042561021622
20
1.34405863222256
30
0
41
1
10
28.2666085823918
20
1.33100804436359
30
0
41
1
10
28.1535207818401
20
1.28975084147308
30
0
41
1
10
28.0779394058271
20
1.25943817852445
30
0
41
1
10
27.9639887656323
20
1.20987595624703
30
0
41
1
10
27.9258378252532
20
1.19263760197813
30
0
41
1
10
27.8497173001148
20
1.15704258481685
30
0
41
1
10
27.8117376941513
20
1.13869157091344
30
0
41
1
10
27.763461565623
20
1.11461018778192
30
0
41
1
10
27.7530858918972
20
1.10938887500575
30
0
41
1
10
27.7427167774403
20
1.10412610048132
30
0
0
SPLINE
5
19E
100
AcDbEntity
8
1
62
256
6
ByLayer
370
18
48
1
60
0
100
AcDbSpline
70
4
71
3
72
105
73
101
40
0
40
0
40
0
40
0
40
0.0066343123472742
40
0.0066343123472742
40
0.0243729853410691
40
0.0243729853410691
40
0.0421116583348639
40
0.0421116583348639
40
0.0598503313286588
40
0.0598503313286588
40
0.0775890043224537
40
0.0775890043224537
40
0.113066350310045
40
0.113066350310045
40
0.130805023303841
40
0.130805023303841
40
0.148543696297637
40
0.148543696297637
40
0.157413032794534
40
0.157413032794534
40
0.166282369291431
40
0.166282369291431
40
0.184021042285227
40
0.184021042285227
40
0.201759715279022
40
0.201759715279022
40
0.219498388272818
40
0.219498388272818
40
0.254975734260409
40
0.254975734260409
40
0.272714407254205
40
0.272714407254205
40
0.290453080248001
40
0.290453080248001
40
0.308191753241797
40
0.308191753241797
40
0.317061089738696
40
0.317061089738696
40
0.325930426235594
40
0.325930426235594
40
0.361407772223191
40
0.361407772223191
40
0.37914644521699
40
0.37914644521699
40
0.396885118210788
40
0.396885118210788
40
0.414623791204586
40
0.414623791204586
40
0.432362464198385
40
0.450101137192183
40
0.450101137192183
40
0.467839810185982
40
0.467839810185982
40
0.48557848317978
40
0.48557848317978
40
0.503317156173579
40
0.503317156173579
40
0.538794502161175
40
0.538794502161175
40
0.556533175154975
40
0.556533175154975
40
0.574271848148774
40
0.574271848148774
40
0.609749194136375
40
0.609749194136375
40
0.627487867130174
40
0.627487867130174
40
0.636357203627073
40
0.636357203627073
40
0.645226540123973
40
0.645226540123973
40
0.680703886111572
40
0.680703886111572
40
0.698442559105372
40
0.698442559105372
40
0.716181232099173
40
0.716181232099173
40
0.733919905092973
40
0.733919905092973
40
0.751658578086773
40
0.751658578086773
40
0.787135924074373
40
0.787135924074373
40
0.804874597068175
40
0.804874597068175
40
0.822613270061976
40
0.822613270061976
40
0.85809061604958
40
0.85809061604958
40
0.893567962037184
40
0.893567962037184
40
0.929045308024788
40
0.929045308024788
40
0.946783981018591
40
0.946783981018591
40
0.964522654012394
40
0.964522654012394
40
0.982261327006197
40
0.982261327006197
40
1
40
1
40
1
40
1
41
1
10
26.2155996797853
20
1.51110045269874
30
0
41
1
10
26.2321989532189
20
1.51109581428815
30
0
41
1
10
26.2488254871982
20
1.51094158028485
30
0
41
1
10
26.3099936631798
20
1.50982625316411
30
0
41
1
10
26.3544553925747
20
1.50794561019393
30
0
41
1
10
26.4429385053713
20
1.50206661479427
30
0
41
1
10
26.4870344595616
20
1.49806861554453
30
0
41
1
10
26.5750726890286
20
1.48799909698965
30
0
41
1
10
26.6189705195303
20
1.48191936486734
30
0
41
1
10
26.7065702807571
20
1.46767669258239
30
0
41
1
10
26.7503200192077
20
1.45952537763239
30
0
41
1
10
26.8817760141135
20
1.43214799340879
30
0
41
1
10
26.969540383873
20
1.40997270952502
30
0
41
1
10
27.1012283845552
20
1.37073626872802
30
0
41
1
10
27.1451485188523
20
1.35666611751276
30
0
41
1
10
27.2330922155507
20
1.32654384668234
30
0
41
1
10
27.2771229906119
20
1.31049409281488
30
0
41
1
10
27.3434136546417
20
1.28502681081153
30
0
41
1
10
27.3655497009738
20
1.276304979815
30
0
41
1
10
27.409903518037
20
1.2583964068325
30
0
41
1
10
27.4321431169476
20
1.24920036661646
30
0
41
1
10
27.4988236498945
20
1.22098302527073
30
0
41
1
10
27.5431548824948
20
1.20136620141761
30
0
41
1
10
27.6315788898672
20
1.16055218566535
30
0
41
1
10
27.6756685207482
20
1.13935195984851
30
0
41
1
10
27.7636334507569
20
1.09540090548239
30
0
41
1
10
27.8074928182241
20
1.07263397094675
30
0
41
1
10
27.938949315094
20
1.00220004964422
30
0
41
1
10
28.0265812829128
20
0.9525666741809
30
0
41
1
10
28.1581096816293
20
0.874233844505369
30
0
41
1
10
28.2019736657278
20
0.847482080859692
30
0
41
1
10
28.2898202619921
20
0.792776068673419
30
0
41
1
10
28.3338098646753
20
0.764831503475762
30
0
41
1
10
28.4218310926163
20
0.707629190487125
30
0
41
1
10
28.4658957567276
20
0.678407853838763
30
0
41
1
10
28.5322860653199
20
0.633899204914115
30
0
41
1
10
28.5544584161353
20
0.618942331852281
30
0
41
1
10
28.5988883768504
20
0.588786905355704
30
0
41
1
10
28.6211502054643
20
0.573585222177229
30
0
41
1
10
28.7321874001536
20
0.497301138670423
30
0
41
1
10
28.8205096653052
20
0.435102649117624
30
0
41
1
10
28.952365563048
20
0.34023986062752
30
0
41
1
10
28.9961997760412
20
0.308340078493302
30
0
41
1
10
29.083726280692
20
0.244107395901778
30
0
41
1
10
29.127450877256
20
0.211817698480388
30
0
41
1
10
29.2150934625874
20
0.147260957865569
30
0
41
1
10
29.2589781788832
20
0.114949428270677
30
0
41
1
10
29.3467552260721
20
0.0500984683771151
30
0
41
1
10
29.4345646276081
20
-0.014947181991829
30
0
41
1
10
29.5225615569619
20
-0.0802184440689473
30
0
41
1
10
29.6106940233331
20
-0.145548632329422
30
0
41
1
10
29.6548220273892
20
-0.178251833917102
30
0
41
1
10
29.7434179921589
20
-0.243436719102135
30
0
41
1
10
29.787968634888
20
-0.275937676850447
30
0
41
1
10
29.8766667927794
20
-0.34018351447304
30
0
41
1
10
29.9208792478067
20
-0.372009736357143
30
0
41
1
10
30.0531259036339
20
-0.466585290581406
30
0
41
1
10
30.1408134586416
20
-0.528368537404987
30
0
41
1
10
30.2722104205315
20
-0.618419907000032
30
0
41
1
10
30.3159891681319
20
-0.647997077752734
30
0
41
1
10
30.4036646202851
20
-0.706083725999662
30
0
41
1
10
30.447583616311
20
-0.73456763306848
30
0
41
1
10
30.5794370568759
20
-0.818527097284857
30
0
41
1
10
30.6672891332012
20
-0.872716791613044
30
0
41
1
10
30.7994974489052
20
-0.950638995105606
30
0
41
1
10
30.8436497513011
20
-0.97603956436572
30
0
41
1
10
30.9101616249136
20
-1.01309906486287
30
0
41
1
10
30.9323978334002
20
-1.02529100670526
30
0
41
1
10
30.9767853587417
20
-1.0492324949918
30
0
41
1
10
30.9989530775977
20
-1.0609915443531
30
0
41
1
10
31.1096632115554
20
-1.1187406775729
30
0
41
1
10
31.1978028618671
20
-1.16162152757124
30
0
41
1
10
31.3294637465064
20
-1.22097286419711
30
0
41
1
10
31.3732432246397
20
-1.23993748473433
30
0
41
1
10
31.4607475735046
20
-1.27609633814401
30
0
41
1
10
31.5045327150586
20
-1.29324574754617
30
0
41
1
10
31.59226434496
20
-1.32564501567387
30
0
41
1
10
31.6361890276249
20
-1.34091222050503
30
0
41
1
10
31.7240536084755
20
-1.36964392401629
30
0
41
1
10
31.7679989373
20
-1.38310280073099
30
0
41
1
10
31.9000013641617
20
-1.42064657837068
30
0
41
1
10
31.9881835351392
20
-1.44191324412387
30
0
41
1
10
32.1214287957889
20
-1.46766709778032
30
0
41
1
10
32.1657953010048
20
-1.47517000645459
30
0
41
1
10
32.2543028253458
20
-1.48803878291747
30
0
41
1
10
32.2984638520131
20
-1.49341118132187
30
0
41
1
10
32.4305838134897
20
-1.50639439046358
30
0
41
1
10
32.5181293325142
20
-1.51085539923705
30
0
41
1
10
32.6933174148962
20
-1.51132495601601
30
0
41
1
10
32.7809545866963
20
-1.50735542862955
30
0
41
1
10
32.956734964908
20
-1.49108049689309
30
0
41
1
10
33.0448574855317
20
-1.47878675595825
30
0
41
1
10
33.1773563094593
20
-1.45386373894979
30
0
41
1
10
33.221634960403
20
-1.44445737830111
30
0
41
1
10
33.3103420991043
20
-1.42359878191147
30
0
41
1
10
33.3547318844512
20
-1.4121861808699
30
0
41
1
10
33.4436420169725
20
-1.38746943017713
30
0
41
1
10
33.4881020906921
20
-1.37413723917834
30
0
41
1
10
33.5768903952733
20
-1.34543030124408
30
0
41
1
10
33.6212515425763
20
-1.33007064846896
30
0
41
1
10
33.6656696342335
20
-1.31375055740628
30
0
0
SPLINE
5
19F
100
AcDbEntity
8
1
62
256
6
ByLayer
370
18
48
1
60
0
100
AcDbSpline
70
4
71
3
72
14
73
10
40
0
40
0
40
0
40
0
40
0.499999999999991
40
0.499999999999991
40
0.749999999999995
40
0.749999999999995
40
0.874999999999998
40
0.874999999999998
40
1
40
1
40
1
40
1
41
1
10
41.0342214538691
20
0.998551905315423
30
0
41
1
10
41.1319897014737
20
0.915099101026073
30
0
41
1
10
41.2305987309675
20
0.829697814435065
30
0
41
1
10
41.3800430173433
20
0.699027023255297
30
0
41
1
10
41.4300951364427
20
0.655021497115683
30
0
41
1
10
41.5058314996082
20
0.58860689020085
30
0
41
1
10
41.5311553610748
20
0.566444450108634
30
0
41
1
10
41.5818282689349
20
0.522260673542576
30
0
41
1
10
41.6071988165539
20
0.5002131176864
30
0
41
1
10
41.6326035859363
20
0.478209927882034
30
0
0
SPLINE
5
1A0
100
AcDbEntity
8
1
62
256
6
ByLayer
370
18
48
1
60
0
100
AcDbSpline
70
4
71
3
72
16
73
12
40
0
40
0
40
0
40
0
40
0.249999999999949
40
0.249999999999949
40
0.499999999999898
40
0.499999999999898
40
0.624999999999872
40
0.624999999999872
40
0.749999999999847
40
0.749999999999847
40
1
40
1
40
1
40
1
41
1
10
41.6326035859364
20
0.478209927882119
30
0
41
1
10
41.6407526950219
20
0.468657007817825
30
0
41
1
10
41.649786315222
20
0.459026725458756
30
0
41
1
10
41.6685189637491
20
0.440494806759972
30
0
41
1
10
41.6783001517936
20
0.43148770238912
30
0
41
1
10
41.6935397585192
20
0.418317760549542
30
0
41
1
10
41.6987384599992
20
0.413967363365543
30
0
41
1
10
41.7091436203916
20
0.405527398837904
30
0
41
1
10
41.7143642010487
20
0.401424376151027
30
0
41
1
10
41.7300695704641
20
0.389455995661081
30
0
41
1
10
41.7405977216395
20
0.381924962748883
30
0
41
1
10
41.7511624113594
20
0.374882697014471
30
0
0
SPLINE
5
1A1
100
AcDbEntity
8
1
62
256
6
ByLayer
370
18
48
1
60
0
100
AcDbSpline
70
4
71
3
72
23
73
19
40
0
40
0
40
0
40
0
40
0.124999999999985
40
0.124999999999985
40
0.24999999999997
40
0.24999999999997
40
0.499999999999939
40
0.499999999999939
40
0.562499999999951
40
0.562499999999951
40
0.624999999999963
40
0.624999999999963
40
0.749999999999987
40
0.875000000000011
40
0.875000000000011
40
0.937500000000006
40
0.937500000000006
40
1
40
1
40
1
40
1
41
1
10
42.2000000000007
20
0.05834607075451
30
0
41
1
10
42.1796175972
20
0.0621635595973942
30
0
41
1
10
42.1592946985738
20
0.067614622065463
30
0
41
1
10
42.1187106021351
20
0.081492880296139
30
0
41
1
10
42.098770947075
20
0.0898110589016028
30
0
41
1
10
42.0398281631484
20
0.118358718984069
30
0
41
1
10
42.0016623171531
20
0.142122423173078
30
0
41
1
10
41.9548171195292
20
0.176750381604137
30
0
41
1
10
41.9454922359893
20
0.183926039421209
30
0
41
1
10
41.9269200022269
20
0.198763814166426
30
0
41
1
10
41.9176548035808
20
0.20644157091445
30
0
41
1
10
41.8901162217647
20
0.230054837174123
30
0
41
1
10
41.8540926413605
20
0.263060816396347
30
0
41
1
10
41.8192324318582
20
0.298851616946763
30
0
41
1
10
41.7934517571844
20
0.326661073812772
30
0
41
1
10
41.7849195729851
20
0.336093048859681
30
0
41
1
10
41.767974860049
20
0.355285006734846
30
0
41
1
10
41.7595641236875
20
0.365048894473972
30
0
41
1
10
41.7511624113607
20
0.374882697017398
30
0
0
SPLINE
5
1A2
100
AcDbEntity
8
1
62
256
6
ByLayer
370
18
48
1
60
0
100
AcDbSpline
70
4
71
3
72
8
73
4
40
0
40
0
40
0
40
0
40
1
40
1
40
1
40
1
41
1
10
38.2477837927839
20
-1.5902513663427
30
0
41
1
10
38.2732874194089
20
-1.60793107775564
30
0
41
1
10
38.2987941443653
20
-1.62523487189077
30
0
41
1
10
38.3243129644488
20
-1.64215670028392
30
0
0
SPLINE
5
1A3
100
AcDbEntity
8
1
62
256
6
ByLayer
370
18
48
1
60
0
100
AcDbSpline
70
4
71
3
72
8
73
4
40
0
40
0
40
0
40
0
40
1
40
1
40
1
40
1
41
1
10
36.5549290678661
20
-0.0260729811384692
30
0
41
1
10
36.5804334641289
20
-0.0527443156197478
30
0
41
1
10
36.6059390665811
20
-0.0794113861850008
30
0
41
1
10
36.6314548397597
20
-0.106065571446379
30
0
0
SPLINE
5
1A4
100
AcDbEntity
8
1
62
256
6
ByLayer
370
18
48
1
60
0
100
AcDbSpline
70
4
71
3
72
8
73
4
40
0
40
0
40
0
40
0
40
1
40
1
40
1
40
1
41
1
10
35.7086146019428
20
0.835965388379208
30
0
41
1
10
35.7340722478742
20
0.81147121342201
30
0
41
1
10
35.7595335758131
20
0.786780287655915
30
0
41
1
10
35.785009268845
20
0.761901962365329
30
0
0
SPLINE
5
1A5
100
AcDbEntity
8
1
62
256
6
ByLayer
370
18
48
1
60
0
100
AcDbSpline
70
4
71
3
72
10
73
6
40
0
40
0
40
0
40
0
40
0.5
40
0.5
40
1
40
1
40
1
40
1
41
1
10
34.8620889741438
20
1.55513352194691
30
0
41
1
10
34.8151813678781
20
1.5454357988736
30
0
41
1
10
34.7678955479893
20
1.53006508428106
30
0
41
1
10
34.6721737969425
20
1.48776153284098
30
0
41
1
10
34.6240124410421
20
1.46096972002027
30
0
41
1
10
34.5752684033429
20
1.42826835997664
30
0
0
SPLINE
5
1A6
100
AcDbEntity
8
1
62
256
6
ByLayer
370
18
48
1
60
0
100
AcDbSpline
70
4
71
3
72
14
73
10
40
0
40
0
40
0
40
0
40
0.500000000000024
40
0.500000000000024
40
0.750000000000024
40
0.750000000000024
40
0.875000000000012
40
0.875000000000012
40
1
40
1
40
1
40
1
41
1
10
34.2901741224969
20
1.63365407233189
30
0
41
1
10
34.2290083051721
20
1.62775476135638
30
0
41
1
10
34.1674093463361
20
1.61744642058076
30
0
41
1
10
34.0739340792433
20
1.59532562396438
30
0
41
1
10
34.0425950784746
20
1.58684021923506
30
0
41
1
10
33.9952509395122
20
1.57242096360179
30
0
41
1
10
33.9794105242278
20
1.56733016355471
30
0
41
1
10
33.9476320057005
20
1.55660066006885
30
0
41
1
10
33.9317178753271
20
1.55098039968408
30
0
41
1
10
33.9156696342337
20
1.54501973037858
30
0
0
SPLINE
5
1A7
100
AcDbEntity
8
1
62
256
6
ByLayer
370
18
48
1
60
0
100
AcDbSpline
70
4
71
3
72
10
73
6
40
0
40
0
40
0
40
0
40
0.5
40
0.5
40
1
40
1
40
1
40
1
41
1
10
33.9156696342337
20
1.54501973037858
30
0
41
1
10
33.8782485431862
20
1.53112071506055
30
0
41
1
10
33.8381843234036
20
1.52051247608918
30
0
41
1
10
33.7543519282639
20
1.50740853367515
30
0
41
1
10
33.7106301426851
20
1.50489899109499
30
0
41
1
10
33.6656696342337
20
1.50727510668162
30
0
0
SPLINE
5
1A8
100
AcDbEntity
8
1
62
256
6
ByLayer
370
18
48
1
60
0
100
AcDbSpline
70
4
71
3
72
22
73
18
40
0
40
0
40
0
40
0
40
0.13600818778359
40
0.13600818778359
40
0.272016375567179
40
0.272016375567179
40
0.408024563350769
40
0.408024563350769
40
0.544032751134359
40
0.544032751134359
40
0.680040938917948
40
0.680040938917948
40
0.816049126701538
40
0.816049126701538
40
0.952057314485128
40
0.952057314485128
40
1
40
1
40
1
40
1
41
1
10
33.6656696342337
20
1.50727510668162
30
0
41
1
10
33.5893956730926
20
1.5113061053105
30
0
41
1
10
33.513573410961
20
1.51213870554167
30
0
41
1
10
33.3625573272618
20
1.50752733172047
30
0
41
1
10
33.287288029366
20
1.5020813886446
30
0
41
1
10
33.136713613296
20
1.48510911747215
30
0
41
1
10
33.0614980530871
20
1.47357297231545
30
0
41
1
10
32.9110615160173
20
1.44441386334884
30
0
41
1
10
32.8358103194914
20
1.42679384821417
30
0
41
1
10
32.6847707070536
20
1.38558344954782
30
0
41
1
10
32.6089563456013
20
1.36201059336659
30
0
41
1
10
32.4564296178262
20
1.3089778609025
30
0
41
1
10
32.3805110733754
20
1.27979080032748
30
0
41
1
10
32.2294217922195
20
1.21632547215577
30
0
41
1
10
32.1541996682686
20
1.18204345330295
30
0
41
1
10
32.0524426713553
20
1.13265736216493
30
0
41
1
10
32.02592395892
20
1.11950661159878
30
0
41
1
10
31.9994060122551
20
1.10607770117812
30
0
0
SPLINE
5
1A9
100
AcDbEntity
8
1
62
256
6
ByLayer
370
18
48
1
60
0
100
AcDbSpline
70
4
71
3
72
16
73
12
40
0
40
0
40
0
40
0
40
0.0645461435693482
40
0.0645461435693482
40
0.376364095712893
40
0.376364095712893
40
0.532273071784665
40
0.532273071784665
40
0.688182047856437
40
0.688182047856437
40
1
40
1
40
1
40
1
41
1
10
27.1428687020089
20
-1.51110077225178
30
0
41
1
10
27.1272731931368
20
-1.51110363960751
30
0
41
1
10
27.1116730631382
20
-1.51097324460383
30
0
41
1
10
27.0206834967814
20
-1.5094348131536
30
0
41
1
10
26.945165629309
20
-1.50503520337134
30
0
41
1
10
26.8313527425503
20
-1.49366519290786
30
0
41
1
10
26.793288619617
20
-1.48907443406225
30
0
41
1
10
26.7170779591903
20
-1.47832323889364
30
0
41
1
10
26.6789962507543
20
-1.47217836772293
30
0
41
1
10
26.5648078526688
20
-1.45146598412256
30
0
41
1
10
26.4888353243871
20
-1.43459605587816
30
0
41
1
10
26.4128797159092
20
-1.41470210362777
30
0
0
SPLINE
5
1AA
100
AcDbEntity
8
1
62
256
6
ByLayer
370
18
48
1
60
0
100
AcDbSpline
70
4
71
3
72
10
73
6
40
0
40
0
40
0
40
0
40
0.713777617707185
40
0.713777617707185
40
1
40
1
40
1
40
1
41
1
10
25.2096376920126
20
-1.28562010562447
30
0
41
1
10
25.2539648065855
20
-1.26840049083492
30
0
41
1
10
25.2981499167528
20
-1.25030713675912
30
0
41
1
10
25.3598574360956
20
-1.22374222822054
30
0
41
1
10
25.3774995868802
20
-1.21600094488471
30
0
41
1
10
25.3951269460613
20
-1.20812646253424
30
0
0
SPLINE
5
1AB
100
AcDbEntity
8
1
62
256
6
ByLayer
370
18
48
1
60
0
100
AcDbSpline
70
4
71
3
72
46
73
42
40
0
40
0
40
0
40
0
40
0.0037773497062424
40
0.0037773497062424
40
0.0867959038974025
40
0.0867959038974025
40
0.12830518099298
40
0.12830518099298
40
0.149059819540767
40
0.149059819540767
40
0.169814458088554
40
0.169814458088554
40
0.252833012279702
40
0.252833012279702
40
0.294342289375276
40
0.294342289375276
40
0.335851566470849
40
0.335851566470849
40
0.377360843566423
40
0.377360843566423
40
0.418870120661997
40
0.418870120661997
40
0.501888674853144
40
0.501888674853144
40
0.543397951948718
40
0.543397951948718
40
0.584907229044292
40
0.584907229044292
40
0.667925783235436
40
0.667925783235436
40
0.750944337426579
40
0.750944337426579
40
0.833962891617722
40
0.833962891617722
40
0.875472168713291
40
0.875472168713291
40
0.916981445808861
40
0.916981445808861
40
0.95849072290443
40
0.95849072290443
40
1
40
1
40
1
40
1
41
1
10
30.4795369183741
20
1.51109986609697
30
0
41
1
10
30.483535909053
20
1.51110129681024
30
0
41
1
10
30.4875352029886
20
1.51109410244894
30
0
41
1
10
30.5794370568759
20
1.51073075121704
30
0
41
1
10
30.6672891332011
20
1.50620739958464
30
0
41
1
10
30.7994974489051
20
1.49295911513744
30
0
41
1
10
30.8436497513011
20
1.48746609814458
30
0
41
1
10
30.9101616249135
20
1.47762830610495
30
0
41
1
10
30.9323978334
20
1.47407901967429
30
0
41
1
10
30.9767853587416
20
1.46647824440393
30
0
41
1
10
30.9989530775977
20
1.46242481291864
30
0
41
1
10
31.1096632115554
20
1.44090754031453
30
0
41
1
10
31.1978028618671
20
1.41969913720345
30
0
41
1
10
31.3294637465063
20
1.38203279334755
30
0
41
1
10
31.3732432246397
20
1.36848890647858
30
0
41
1
10
31.4607475735045
20
1.33951075713347
30
0
41
1
10
31.5045327150585
20
1.32411394240413
30
0
41
1
10
31.59226434496
20
1.29159634638998
30
0
41
1
10
31.6361890276249
20
1.27446317423275
30
0
41
1
10
31.7240536084754
20
1.23836993799287
30
0
41
1
10
31.7679989373
20
1.21941162517564
30
0
41
1
10
31.9000013641616
20
1.15986304486859
30
0
41
1
10
31.9881835351392
20
1.11655688000027
30
0
41
1
10
32.1214287957887
20
1.04664220028306
30
0
41
1
10
32.1657953010047
20
1.02267398697555
30
0
41
1
10
32.2543028253458
20
0.973532081766166
30
0
41
1
10
32.2984638520131
20
0.948342774246782
30
0
41
1
10
32.4305838134897
20
0.870844198994519
30
0
41
1
10
32.5181293325142
20
0.816537182661591
30
0
41
1
10
32.6933174148962
20
0.703989903435257
30
0
41
1
10
32.7809545866963
20
0.645753760449736
30
0
41
1
10
32.956734964908
20
0.52588805787957
30
0
41
1
10
33.0448574855317
20
0.464239604824428
30
0
41
1
10
33.1773563094593
20
0.369035163259383
30
0
41
1
10
33.221634960403
20
0.336813045628901
30
0
41
1
10
33.3103420991043
20
0.27201201315512
30
0
41
1
10
33.3547318844512
20
0.239539161423238
30
0
41
1
10
33.4436420169724
20
0.174532094718501
30
0
41
1
10
33.4881020906921
20
0.141917504384111
30
0
41
1
10
33.5768903952733
20
0.0762735517604938
30
0
41
1
10
33.6212515425763
20
0.0432880574310275
30
0
41
1
10
33.6656696342335
20
0.0102594637211268
30
0
0
SPLINE
5
1AC
100
AcDbEntity
8
1
62
256
6
ByLayer
370
18
48
1
60
0
100
AcDbSpline
70
4
71
3
72
12
73
8
40
0
40
0
40
0
40
0
40
0.500000000000026
40
0.500000000000026
40
0.750000000000013
40
0.750000000000013
40
1
40
1
40
1
40
1
41
1
10
33.6656696342337
20
0.0102594637210132
30
0
41
1
10
33.7083417411405
20
-0.0214708432144732
30
0
41
1
10
33.7507555799625
20
-0.052477389331699
30
0
41
1
10
33.8134762545709
20
-0.0984846520274516
30
0
41
1
10
33.8342358085131
20
-0.113730552269033
30
0
41
1
10
33.8754153433952
20
-0.144031347581716
30
0
41
1
10
33.8957683360554
20
-0.159041433096121
30
0
41
1
10
33.9156696342337
20
-0.173679865420524
30
0
0
SPLINE
5
1AD
100
AcDbEntity
8
1
62
256
6
ByLayer
370
18
48
1
60
0
100
AcDbSpline
70
4
71
3
72
14
73
10
40
0
40
0
40
0
40
0
40
0.125000000000008
40
0.125000000000008
40
0.250000000000017
40
0.250000000000017
40
0.500000000000011
40
0.500000000000011
40
1
40
1
40
1
40
1
41
1
10
33.9156696342337
20
-0.173679865420524
30
0
41
1
10
33.9377932993865
20
-0.189952963396621
30
0
41
1
10
33.9599638955743
20
-0.206253908934656
30
0
41
1
10
34.0040374249716
20
-0.239451952312777
30
0
41
1
10
34.0259415082747
20
-0.256348715864732
30
0
41
1
10
34.0913276239591
20
-0.307841673184043
30
0
41
1
10
34.1344694773813
20
-0.343261519973083
30
0
41
1
10
34.2627723370646
20
-0.452595757001859
30
0
41
1
10
34.3467618593639
20
-0.529663650546723
30
0
41
1
10
34.4298762263578
20
-0.610265119649938
30
0
0
SPLINE
5
1AE
100
AcDbEntity
8
1
62
256
6
ByLayer
370
18
48
1
60
0
100
AcDbSpline
70
4
71
3
72
8
73
4
40
0
40
0
40
0
40
0
40
1
40
1
40
1
40
1
41
1
10
35.1200782487995
20
-1.2878043063389
30
0
41
1
10
35.0944766784284
20
-1.26654635694206
30
0
41
1
10
35.0688948563873
20
-1.24498291748858
30
0
41
1
10
35.0433279515614
20
-1.22311727841208
30
0
0
SPLINE
5
1AF
100
AcDbEntity
8
1
62
256
6
ByLayer
370
18
48
1
60
0
100
AcDbSpline
70
4
71
3
72
8
73
4
40
0
40
0
40
0
40
0
40
1
40
1
40
1
40
1
41
1
10
35.9663448718058
20
-1.86082856637944
30
0
41
1
10
35.9409616367066
20
-1.84804245032041
30
0
41
1
10
35.9156025313249
20
-1.83484215559645
30
0
41
1
10
35.8902602642122
20
-1.82123454960086
30
0
0
SPLINE
5
1B0
100
AcDbEntity
8
1
62
256
6
ByLayer
370
18
48
1
60
0
100
AcDbSpline
70
4
71
3
72
8
73
4
40
0
40
0
40
0
40
0
40
1
40
1
40
1
40
1
41
1
10
36.812863475037
20
-2.11621136085199
30
0
41
1
10
36.7872745292003
20
-2.11390144298719
30
0
41
1
10
36.7617432889901
20
-2.11108759853295
30
0
41
1
10
36.7362333119569
20
-2.1077757429504
30
0
0
SPLINE
5
1B1
100
AcDbEntity
8
1
62
256
6
ByLayer
370
18
48
1
60
0
100
AcDbSpline
70
4
71
3
72
22
73
18
40
0
40
0
40
0
40
0
40
0.0304768085454586
40
0.0304768085454586
40
0.272857606409094
40
0.272857606409094
40
0.51523840427273
40
0.51523840427273
40
0.575833603738639
40
0.575833603738639
40
0.636428803204547
40
0.636428803204547
40
0.697024002670456
40
0.697024002670456
40
0.757619202136365
40
0.757619202136365
40
1
40
1
40
1
40
1
41
1
10
42.2
20
-0.783786067934557
30
0
41
1
10
42.2
20
-0.785204568074192
30
0
41
1
10
42.2
20
-0.786644750777413
30
0
41
1
10
42.2
20
-0.799732987334465
30
0
41
1
10
42.2
20
-0.812728815798039
30
0
41
1
10
42.2
20
-0.841343040185023
30
0
41
1
10
42.2
20
-0.856947081731533
30
0
41
1
10
42.2
20
-0.878193076821674
30
0
41
1
10
42.2
20
-0.882417605031776
30
0
41
1
10
42.2
20
-0.891425506973263
30
0
41
1
10
42.2
20
-0.896337737613038
30
0
41
1
10
42.2
20
-0.907051692907913
30
0
41
1
10
42.2
20
-0.912870153982482
30
0
41
1
10
42.2000000000001
20
-0.92531561940649
30
0
41
1
10
42.2000000000001
20
-0.931935286209864
30
0
41
1
10
42.2
20
-0.966937201623324
30
0
41
1
10
42.2
20
-1.00095991230478
30
0
41
1
10
42.2
20
-1.04116206793714
30
0
0
SPLINE
5
1B2
100
AcDbEntity
8
1
62
256
6
ByLayer
370
18
48
1
60
0
100
AcDbSpline
70
4
71
3
72
18
73
14
40
0
40
0
40
0
40
0
40
0.0625000000000069
40
0.0625000000000069
40
0.125000000000014
40
0.125000000000014
40
0.250000000000027
40
0.250000000000027
40
0.500000000000018
40
0.500000000000018
40
0.750000000000009
40
0.750000000000009
40
1
40
1
40
1
40
1
41
1
10
41.7360564821112
20
-0.636743323461047
30
0
41
1
10
41.746557513712
20
-0.637487991036892
30
0
41
1
10
41.7571315533056
20
-0.637985877328816
30
0
41
1
10
41.7781764682072
20
-0.639195117315154
30
0
41
1
10
41.7886448118817
20
-0.63991177852651
30
0
41
1
10
41.8198705827685
20
-0.642427177108971
30
0
41
1
10
41.8404463535616
20
-0.644595579378006
30
0
41
1
10
41.9015132183823
20
-0.652152135913269
30
0
41
1
10
41.9413586747588
20
-0.658561253054614
30
0
41
1
10
42.0191436943309
20
-0.673257516259241
30
0
41
1
10
42.0570959007491
20
-0.681524743682189
30
0
41
1
10
42.1305952762554
20
-0.699586612470966
30
0
41
1
10
42.1661585497188
20
-0.709364952882197
30
0
41
1
10
42.2
20
-0.720000228703668
30
0
0
SPLINE
5
1B3
100
AcDbEntity
8
1
62
256
6
ByLayer
370
18
48
1
60
0
100
AcDbSpline
70
4
71
3
72
10
73
6
40
0
40
0
40
0
40
0
40
0.5
40
0.5
40
1
40
1
40
1
40
1
41
1
10
41.7360564821112
20
-0.636743323461019
30
0
41
1
10
41.7306498119804
20
-0.635036432277332
30
0
41
1
10
41.7253935934896
20
-0.633748250421831
30
0
41
1
10
41.7153375591138
20
-0.632216863310759
30
0
41
1
10
41.7106759714965
20
-0.631993805731923
30
0
41
1
10
41.706427899894
20
-0.632390414625945
30
0
0
SPLINE
5
1B4
100
AcDbEntity
8
1
62
256
6
ByLayer
370
18
48
1
60
0
100
AcDbSpline
70
4
71
3
72
10
73
6
40
0
40
0
40
0
40
0
40
0.5
40
0.5
40
1
40
1
40
1
40
1
41
1
10
41.706427899894
20
-0.632390414626599
30
0
41
1
10
41.6106623134645
20
-0.574914339981632
30
0
41
1
10
41.5160450966221
20
-0.513173064816584
30
0
41
1
10
41.3279639880216
20
-0.382264741785434
30
0
41
1
10
41.2346731429388
20
-0.312853930804266
30
0
41
1
10
41.1416080333213
20
-0.239962158380109
30
0
0
SPLINE
5
1B5
100
AcDbEntity
8
1
62
256
6
ByLayer
370
18
48
1
60
0
100
AcDbSpline
70
4
71
3
72
8
73
4
40
0
40
0
40
0
40
0
40
1
40
1
40
1
40
1
41
1
10
38.8128709628651
20
1.75221556086367
30
0
41
1
10
38.8380305377194
20
1.73733957312973
30
0
41
1
10
38.8631759016179
20
1.72206996783404
30
0
41
1
10
38.8883162727948
20
1.70641298544021
30
0
0
SPLINE
5
1B6
100
AcDbEntity
8
1
62
256
6
ByLayer
370
18
48
1
60
0
100
AcDbSpline
70
4
71
3
72
8
73
4
40
0
40
0
40
0
40
0
40
1
40
1
40
1
40
1
41
1
10
37.9660360719713
20
2.08839418297484
30
0
41
1
10
37.9916059215022
20
2.08350622462814
30
0
41
1
10
38.0171609813968
20
2.07812433441583
30
0
41
1
10
38.0427114469831
20
2.07225191962857
30
0
0
SPLINE
5
1B7
100
AcDbEntity
8
1
62
256
6
ByLayer
370
18
48
1
60
0
100
AcDbSpline
70
4
71
3
72
60
73
56
40
0
40
0
40
0
40
0
40
0.0218380983413081
40
0.0218380983413081
40
0.0445860495426735
40
0.0445860495426735
40
0.090081951945407
40
0.090081951945407
40
0.13557785434814
40
0.13557785434814
40
0.181073756750874
40
0.181073756750874
40
0.226569659153607
40
0.226569659153607
40
0.249317610354974
40
0.249317610354974
40
0.272065561556341
40
0.272065561556341
40
0.317561463959072
40
0.317561463959072
40
0.363057366361803
40
0.363057366361803
40
0.408553268764534
40
0.408553268764534
40
0.454049171167265
40
0.454049171167265
40
0.47679712236863
40
0.47679712236863
40
0.499545073569995
40
0.499545073569995
40
0.545040975972724
40
0.545040975972724
40
0.590536878375452
40
0.590536878375452
40
0.613284829576814
40
0.613284829576814
40
0.636032780778177
40
0.636032780778177
40
0.681528683180905
40
0.681528683180905
40
0.704276634382271
40
0.704276634382271
40
0.727024585583636
40
0.727024585583636
40
0.81801639038909
40
0.81801639038909
40
0.863512292791817
40
0.863512292791817
40
0.909008195194544
40
0.909008195194544
40
0.931756146395907
40
0.931756146395907
40
0.954504097597271
40
0.954504097597271
40
1
40
1
40
1
40
1
41
1
10
31.3951976846924
20
-1.51109999523516
30
0
41
1
10
31.3585925929888
20
-1.51109839893914
30
0
41
1
10
31.3220346342496
20
-1.51036307005049
30
0
41
1
10
31.2476443266723
20
-1.50738229158432
30
0
41
1
10
31.2097862907819
20
-1.50507535106004
30
0
41
1
10
31.0964314318923
20
-1.49582638279975
30
0
41
1
10
31.0211719138438
20
-1.48655122345684
30
0
41
1
10
30.8708012831877
20
-1.46196361856707
30
0
41
1
10
30.7956097821867
20
-1.44668410393194
30
0
41
1
10
30.6451129385152
20
-1.41023746506272
30
0
41
1
10
30.5698673514255
20
-1.38903765667868
30
0
41
1
10
30.4190169244457
20
-1.34074680141802
30
0
41
1
10
30.3433674152242
20
-1.31367769129281
30
0
41
1
10
30.22914426652
20
-1.26887411977296
30
0
41
1
10
30.1909905861259
20
-1.25324192855658
30
0
41
1
10
30.1150070999344
20
-1.22081060041339
30
0
41
1
10
30.0771087440983
20
-1.20398465121596
30
0
41
1
10
29.9636337231758
20
-1.15174489479304
30
0
41
1
10
29.8882842743529
20
-1.11456430874341
30
0
41
1
10
29.737894641339
20
-1.03580489222514
30
0
41
1
10
29.6627804009559
20
-0.994295826775641
30
0
41
1
10
29.512347322636
20
-0.907422129198835
30
0
41
1
10
29.4371145869328
20
-0.861966664768488
30
0
41
1
10
29.2862679859135
20
-0.767342477065171
30
0
41
1
10
29.2106777155308
20
-0.71814268281048
30
0
41
1
10
29.0966075239072
20
-0.641964998581557
30
0
41
1
10
29.0584076158313
20
-0.616169534714487
30
0
41
1
10
28.9823118134269
20
-0.56418599584083
30
0
41
1
10
28.9443640674739
20
-0.537944618007145
30
0
41
1
10
28.8308077159996
20
-0.458492706826974
30
0
41
1
10
28.7554609948364
20
-0.404586527239218
30
0
41
1
10
28.605030977206
20
-0.295504353448763
30
0
41
1
10
28.5299605417064
20
-0.240310968091194
30
0
41
1
10
28.4171787005965
20
-0.157075316954604
30
0
41
1
10
28.3795451343429
20
-0.129270030982667
30
0
41
1
10
28.3042561021622
20
-0.0734611619294867
30
0
41
1
10
28.2666085823918
20
-0.0454464718895622
30
0
41
1
10
28.1535207818401
20
0.0387454960505238
30
0
41
1
10
28.0779394058271
20
0.0950760266170505
30
0
41
1
10
27.9639887656323
20
0.179483638121951
30
0
41
1
10
27.9258378252531
20
0.207658613621305
30
0
41
1
10
27.8497173001147
20
0.263563835789967
30
0
41
1
10
27.8117376941512
20
0.291292287954235
30
0
41
1
10
27.6222710956174
20
0.428878651943819
30
0
41
1
10
27.4722184181434
20
0.535743702625098
30
0
41
1
10
27.2467330645525
20
0.687899757914863
30
0
41
1
10
27.171453352732
20
0.737206357059904
30
0
41
1
10
27.0206834967813
20
0.83300861439281
30
0
41
1
10
26.9451656293091
20
0.879466999152243
30
0
41
1
10
26.8313527425503
20
0.94655707482579
30
0
41
1
10
26.793288619617
20
0.968509247447372
30
0
41
1
10
26.7170779591904
20
1.01135782451297
30
0
41
1
10
26.6789962507543
20
1.03220411621004
30
0
41
1
10
26.5648078526688
20
1.09301531128571
30
0
41
1
10
26.4888353243871
20
1.13132840738746
30
0
41
1
10
26.4128797159092
20
1.16727591088687
30
0
0
SPLINE
5
1B8
100
AcDbEntity
8
1
62
256
6
ByLayer
370
18
48
1
60
0
100
AcDbSpline
70
4
71
3
72
30
73
26
40
0
40
0
40
0
40
0
40
0.0738564125047911
40
0.0738564125047911
40
0.158052227328437
40
0.158052227328437
40
0.242248042152082
40
0.242248042152082
40
0.284345949563905
40
0.284345949563905
40
0.326443856975728
40
0.326443856975728
40
0.494835486623016
40
0.494835486623016
40
0.663227116270303
40
0.663227116270303
40
0.747422931093948
40
0.747422931093948
40
0.789520838505769
40
0.789520838505769
40
0.831618745917591
40
0.831618745917591
40
0.915814560741231
40
0.915814560741231
40
1
40
1
40
1
40
1
41
1
10
26.41291327706
20
1.16725161243812
30
0
41
1
10
26.3950316121058
20
1.14706416816259
30
0
41
1
10
26.3737626906759
20
1.12353209585194
30
0
41
1
10
26.320765856044
20
1.06578628760883
30
0
41
1
10
26.2883520797711
20
1.03094167499751
30
0
41
1
10
26.216673563952
20
0.954795047029648
30
0
41
1
10
26.1765759740472
20
0.912616290584538
30
0
41
1
10
26.1139724368997
20
0.847466980375486
30
0
41
1
10
26.092429932368
20
0.825180711728819
30
0
41
1
10
26.0490276358432
20
0.780340186356028
30
0
41
1
10
26.0270952007198
20
0.75772300899331
30
0
41
1
10
25.9178981246793
20
0.645339672266942
30
0
41
1
10
25.8306376264817
20
0.556225784023013
30
0
41
1
10
25.6571746205387
20
0.380616404917731
30
0
41
1
10
25.575610275612
20
0.298821499198567
30
0
41
1
10
25.460931970666
20
0.185047834180068
30
0
41
1
10
25.4242731481239
20
0.148902932503006
30
0
41
1
10
25.3725808412551
20
0.0982447677726555
30
0
41
1
10
25.3559110957185
20
0.0819714734846002
30
0
41
1
10
25.3252696839147
20
0.0523717792334537
30
0
41
1
10
25.3112267252687
20
0.0389539448923415
30
0
41
1
10
25.2737023954015
20
0.0035287128857817
30
0
41
1
10
25.2540699585617
20
-0.0143650114707441
30
0
41
1
10
25.2255268290257
20
-0.0389878426528583
30
0
41
1
10
25.2166339097393
20
-0.0457328205517911
30
0
41
1
10
25.2121568732361
20
-0.0479076133523506
30
0
0
SPLINE
5
1B9
100
AcDbEntity
8
1
62
256
6
ByLayer
370
18
48
1
60
0
100
AcDbSpline
70
4
71
3
72
71
73
67
40
0
40
0
40
0
40
0
40
0.0282981492888589
40
0.0282981492888589
40
0.0565962985777179
40
0.0565962985777179
40
0.113192597155436
40
0.113192597155436
40
0.169788895733154
40
0.169788895733154
40
0.198087045022013
40
0.198087045022013
40
0.226385194310872
40
0.226385194310872
40
0.25468334359973
40
0.25468334359973
40
0.282981492888589
40
0.282981492888589
40
0.311279642177448
40
0.311279642177448
40
0.339577791466307
40
0.339577791466307
40
0.396174090044022
40
0.396174090044022
40
0.42447223933288
40
0.42447223933288
40
0.452770388621737
40
0.452770388621737
40
0.466919463266166
40
0.466919463266166
40
0.481068537910595
40
0.481068537910595
40
0.50936668719945
40
0.50936668719945
40
0.537664836488304
40
0.537664836488304
40
0.565962985777159
40
0.565962985777159
40
0.622559284354871
40
0.622559284354871
40
0.650857433643727
40
0.650857433643727
40
0.679155582932583
40
0.679155582932583
40
0.707453732221439
40
0.707453732221439
40
0.721602806865866
40
0.721602806865866
40
0.735751881510293
40
0.735751881510293
40
0.792348180087999
40
0.792348180087999
40
0.820646329376852
40
0.820646329376852
40
0.848944478665706
40
0.848944478665706
40
0.877242627954559
40
0.877242627954559
40
0.905540777243412
40
0.933838926532265
40
0.933838926532265
40
0.962137075821119
40
0.962137075821119
40
0.990435225109972
40
0.990435225109972
40
1
40
1
40
1
40
1
41
1
10
25.2096376920126
20
-0.0449058154869419
30
0
41
1
10
25.2539648065855
20
-0.0776584600674823
30
0
41
1
10
25.2981499167528
20
-0.110318396664269
30
0
41
1
10
25.386240809055
20
-0.17544925940129
30
0
41
1
10
25.4301623582956
20
-0.207897782803627
30
0
41
1
10
25.5617940330035
20
-0.304571532095736
30
0
41
1
10
25.6494641480714
20
-0.368002956437493
30
0
41
1
10
25.8248789445714
20
-0.492539242012157
30
0
41
1
10
25.9125642667476
20
-0.553719946161294
30
0
41
1
10
26.0444289329775
20
-0.643350937859054
30
0
41
1
10
26.0883865045999
20
-0.672937577864303
30
0
41
1
10
26.1766063041864
20
-0.731146750402218
30
0
41
1
10
26.220957194632
20
-0.759661360503884
30
0
41
1
10
26.3099936631795
20
-0.815693160435103
30
0
41
1
10
26.3544553925744
20
-0.843121785306806
30
0
41
1
10
26.4429385053711
20
-0.896702201434778
30
0
41
1
10
26.4870344595614
20
-0.922844826971613
30
0
41
1
10
26.5750726890283
20
-0.973697817453171
30
0
41
1
10
26.61897051953
20
-0.998457060612168
30
0
41
1
10
26.7065702807569
20
-1.04658824202775
30
0
41
1
10
26.7503200192074
20
-1.06990978890227
30
0
41
1
10
26.8817760141133
20
-1.13732814075314
30
0
41
1
10
26.9695403838727
20
-1.17904348110534
30
0
41
1
10
27.101228384555
20
-1.23688783199975
30
0
41
1
10
27.1451485188521
20
-1.2553630614633
30
0
41
1
10
27.2330922155505
20
-1.29063298919655
30
0
41
1
10
27.2771229906116
20
-1.30742056409406
30
0
41
1
10
27.3434136546415
20
-1.33120725640833
30
0
41
1
10
27.3655497009734
20
-1.33890519781139
30
0
41
1
10
27.4099035180367
20
-1.35383536863299
30
0
41
1
10
27.4321431169474
20
-1.36107438156299
30
0
41
1
10
27.4988236498942
20
-1.38203526586332
30
0
41
1
10
27.5431548824945
20
-1.39498109483028
30
0
41
1
10
27.6315788898669
20
-1.41885157193838
30
0
41
1
10
27.6756685207479
20
-1.42977736682548
30
0
41
1
10
27.7636334507567
20
-1.44960909792576
30
0
41
1
10
27.8074928182239
20
-1.4585197029939
30
0
41
1
10
27.9389493150939
20
-1.48214864164299
30
0
41
1
10
28.0265812829127
20
-1.49373163741868
30
0
41
1
10
28.1581096816291
20
-1.50489338215365
30
0
41
1
10
28.2019736657276
20
-1.50757379958199
30
0
41
1
10
28.2898202619919
20
-1.5108351782377
30
0
41
1
10
28.3338098646752
20
-1.51141817576388
30
0
41
1
10
28.4218310926162
20
-1.51045524452329
30
0
41
1
10
28.4658957567273
20
-1.50890433429956
30
0
41
1
10
28.5322860653197
20
-1.50497260009487
30
0
41
1
10
28.5544584161351
20
-1.50339457477139
30
0
41
1
10
28.5988883768502
20
-1.49970162856854
30
0
41
1
10
28.6211502054641
20
-1.49758556667828
30
0
41
1
10
28.7321874001534
20
-1.48571198927294
30
0
41
1
10
28.820509665305
20
-1.47205309193885
30
0
41
1
10
28.9523655630478
20
-1.445479992711
30
0
41
1
10
28.9961997760411
20
-1.43559992103621
30
0
41
1
10
29.0837262806918
20
-1.41382628993321
30
0
41
1
10
29.1274508772559
20
-1.40194510003016
30
0
41
1
10
29.2150934625873
20
-1.37635672573995
30
0
41
1
10
29.2589781788831
20
-1.36263688677605
30
0
41
1
10
29.3467552260719
20
-1.33328313253654
30
0
41
1
10
29.4345646363616
20
-1.302025473067
30
0
41
1
10
29.5225615569618
20
-1.26700435589703
30
0
41
1
10
29.610694023333
20
-1.23010090863997
30
0
41
1
10
29.6548220273891
20
-1.21070085591029
30
0
41
1
10
29.7434179921588
20
-1.17015386692194
30
0
41
1
10
29.7879686348879
20
-1.14899218549448
30
0
41
1
10
29.8473077031917
20
-1.11975086836694
30
0
41
1
10
29.8622820840855
20
-1.11227920286422
30
0
41
1
10
29.877241103165
20
-1.10472314260008
30
0
0
SPLINE
5
1BA
100
AcDbEntity
8
1
62
256
6
ByLayer
370
18
48
1
60
0
100
AcDbSpline
70
4
71
3
72
8
73
4
40
0
40
0
40
0
40
0
40
1
40
1
40
1
40
1
41
1
10
35.6839393435372
20
1.95202239645687
30
0
41
1
10
35.6584781332293
20
1.96250627714372
30
0
41
1
10
35.6330558214431
20
1.97253371105103
30
0
41
1
10
35.6076646299086
20
1.9821006871905
30
0
0
SPLINE
5
1BB
100
AcDbEntity
8
1
62
256
6
ByLayer
370
18
48
1
60
0
100
AcDbSpline
70
4
71
3
72
12
73
8
40
0
40
0
40
0
40
0
40
0.5
40
0.5
40
0.75
40
0.75
40
1
40
1
40
1
40
1
41
1
10
37.8735515110002
20
0.083821256923585
30
0
41
1
10
37.9200657297843
20
0.0631462003034642
30
0
41
1
10
37.9661496155391
20
0.0372899524915908
30
0
41
1
10
38.0345849570278
20
-0.0086108327523107
30
0
41
1
10
38.0572795254902
20
-0.0250968628246824
30
0
41
1
10
38.1023831727265
20
-0.0602878131578279
30
0
41
1
10
38.1248068755098
20
-0.0790032714415645
30
0
41
1
10
38.1471268778444
20
-0.098815937618923
30
0
0
SPLINE
5
1BC
100
AcDbEntity
8
1
62
256
6
ByLayer
370
18
48
1
60
0
100
AcDbSpline
70
4
71
3
72
8
73
4
40
0
40
0
40
0
40
0
40
1
40
1
40
1
40
1
41
1
10
38.2234283256046
20
-0.178218385095022
30
0
41
1
10
38.1979825721347
20
-0.151772517335218
30
0
41
1
10
38.1725491441734
20
-0.125304654712295
30
0
41
1
10
38.1471268778442
20
-0.0988159376187525
30
0
0
SPLINE
5
1BD
100
AcDbEntity
8
1
62
256
6
ByLayer
370
18
48
1
60
0
100
AcDbSpline
70
4
71
3
72
8
73
4
40
0
40
0
40
0
40
0
40
1
40
1
40
1
40
1
41
1
10
39.0702580727529
20
-1.01984224359984
30
0
41
1
10
39.0445697861677
20
-0.996180984391174
30
0
41
1
10
39.0188961662224
20
-0.972289172075847
30
0
41
1
10
38.9932009361165
20
-0.948198911098473
30
0
0
SPLINE
5
1BE
100
AcDbEntity
8
1
62
256
6
ByLayer
370
18
48
1
60
0
100
AcDbSpline
70
4
71
3
72
26
73
22
40
0
40
0
40
0
40
0
40
0.125
40
0.125
40
0.25
40
0.25
40
0.375
40
0.375
40
0.499999999999999
40
0.499999999999999
40
0.624999999999999
40
0.624999999999999
40
0.749999999999999
40
0.749999999999999
40
0.812499999999999
40
0.812499999999999
40
0.874999999999999
40
0.874999999999999
40
0.9375
40
0.9375
40
1
40
1
40
1
40
1
41
1
10
41.0466136851793
20
-1.66824686246901
30
0
41
1
10
41.0525608850556
20
-1.6592521563594
30
0
41
1
10
41.0594797916785
20
-1.65166015319625
30
0
41
1
10
41.0747722445111
20
-1.63854127874242
30
0
41
1
10
41.0832402636684
20
-1.63300610854563
30
0
41
1
10
41.1008303030039
20
-1.62417276594434
30
0
41
1
10
41.1100053214307
20
-1.62081178129864
30
0
41
1
10
41.1290361539308
20
-1.61606835578471
30
0
41
1
10
41.1389529498001
20
-1.61470172446528
30
0
41
1
10
41.1587442340614
20
-1.61412327591918
30
0
41
1
10
41.1686956506457
20
-1.61487842111998
30
0
41
1
10
41.1886706291351
20
-1.61872054343564
30
0
41
1
10
41.1987377437144
20
-1.62184925670761
30
0
41
1
10
41.2131717853152
20
-1.6284738352015
30
0
41
1
10
41.2178975920305
20
-1.63100930245028
30
0
41
1
10
41.227149420925
20
-1.63683040177568
30
0
41
1
10
41.2316984895328
20
-1.64014017275915
30
0
41
1
10
41.2403030626298
20
-1.6474464185367
30
0
41
1
10
41.24438602672
20
-1.65145424748596
30
0
41
1
10
41.2520452008095
20
-1.66029021917467
30
0
41
1
10
41.2556401465743
20
-1.66515273890698
30
0
41
1
10
41.2588424891129
20
-1.67039110579634
30
0
0
SPLINE
5
1BF
100
AcDbEntity
8
1
62
256
6
ByLayer
370
18
48
1
60
0
100
AcDbSpline
70
4
71
3
72
8
73
4
40
0
40
0
40
0
40
0
40
1
40
1
40
1
40
1
41
1
10
41.2588424891129
20
-1.67039110579637
30
0
41
1
10
41.2679515106357
20
-1.68529157199043
30
0
41
1
10
41.2770415675948
20
-1.70012239189947
30
0
41
1
10
41.2861141518123
20
-1.71488313026194
30
0
0
SPLINE
5
1C0
100
AcDbEntity
8
1
62
256
6
ByLayer
370
18
48
1
60
0
100
AcDbSpline
70
4
71
3
72
14
73
10
40
0
40
0
40
0
40
0
40
0.250000000000013
40
0.250000000000013
40
0.37500000000002
40
0.37500000000002
40
0.500000000000026
40
0.500000000000026
40
1
40
1
40
1
40
1
41
1
10
41.2861141518123
20
-1.71488313026214
30
0
41
1
10
41.3239493383875
20
-1.70558935963353
30
0
41
1
10
41.3619227089426
20
-1.69528935197189
30
0
41
1
10
41.4191489117956
20
-1.67831469574787
30
0
41
1
10
41.4382705990587
20
-1.67240188538671
30
0
41
1
10
41.4766334885771
20
-1.66006237193324
30
0
41
1
10
41.4958937343974
20
-1.65362870527076
30
0
41
1
10
41.5922638542328
20
-1.62028260728559
30
0
41
1
10
41.6696600709546
20
-1.58984511361129
30
0
41
1
10
41.7474004183803
20
-1.55592733067829
30
0
0
SPLINE
5
1C1
100
AcDbEntity
8
1
62
256
6
ByLayer
370
18
48
1
60
0
100
AcDbSpline
70
4
71
3
72
26
73
22
40
0
40
0
40
0
40
0
40
0.0625000000000152
40
0.0625000000000152
40
0.12500000000003
40
0.12500000000003
40
0.25000000000002
40
0.25000000000002
40
0.5
40
0.5
40
0.562499999999995
40
0.562499999999995
40
0.624999999999991
40
0.624999999999991
40
0.749999999999982
40
0.749999999999982
40
0.874999999999973
40
0.874999999999973
40
0.937499999999986
40
0.937499999999986
40
1
40
1
40
1
40
1
41
1
10
42.2000000000004
20
-1.0411620679385
30
0
41
1
10
42.1897064752526
20
-1.05096821657159
30
0
41
1
10
42.1794246413908
20
-1.06095342961294
30
0
41
1
10
42.1588778159834
20
-1.08125923891325
30
0
41
1
10
42.1485871388894
20
-1.09160614801556
30
0
41
1
10
42.1179236799057
20
-1.12292241691961
30
0
41
1
10
42.0978363328908
20
-1.14408237158122
30
0
41
1
10
42.0384147628012
20
-1.20822019831846
30
0
41
1
10
41.9999028039041
20
-1.25184144107149
30
0
41
1
10
41.9525937238669
20
-1.3069753692306
30
0
41
1
10
41.9431744440157
20
-1.31803331483181
30
0
41
1
10
41.9244101191504
20
-1.34020200959461
30
0
41
1
10
41.915072972271
20
-1.35130370990845
30
0
41
1
10
41.8873734863355
20
-1.38441497702627
30
0
41
1
10
41.8692483790567
20
-1.40631743742821
30
0
41
1
10
41.8335701390944
20
-1.44974495294889
30
0
41
1
10
41.8160161117463
20
-1.47127026428419
30
0
41
1
10
41.7900428038478
20
-1.50325043960496
30
0
41
1
10
41.7814460959929
20
-1.51385886738655
30
0
41
1
10
41.7643693833825
20
-1.53496656601845
30
0
41
1
10
41.7558837627271
20
-1.54546708966379
30
0
41
1
10
41.747400418379
20
-1.55592733067365
30
0
0
SPLINE
5
1C2
100
AcDbEntity
8
SK1
62
256
6
ByLayer
370
18
48
1
60
0
100
AcDbSpline
70
4
71
3
72
22
73
18
40
0
40
0
40
0
40
0
40
0.124791167756064
40
0.124791167756064
40
0.249582335512128
40
0.249582335512128
40
0.499164671024255
40
0.499164671024255
40
0.623955838780319
40
0.623955838780319
40
0.686351422658351
40
0.686351422658351
40
0.748747006536383
40
0.748747006536383
40
0.99832934204851
40
0.99832934204851
40
1
40
1
40
1
40
1
41
1
10
-20
20
1.69999999999996
30
0
41
1
10
-20.0312316853358
20
1.69999999999996
30
0
41
1
10
-20.0617192417948
20
1.69999999999996
30
0
41
1
10
-20.1208596891054
20
1.69999999999996
30
0
41
1
10
-20.1493656186911
20
1.69999999999996
30
0
41
1
10
-20.2310529984633
20
1.69999999999996
30
0
41
1
10
-20.2804608464447
20
1.69999999999996
30
0
41
1
10
-20.3435532811028
20
1.69999999999996
30
0
41
1
10
-20.3627338867565
20
1.69999999999996
30
0
41
1
10
-20.38816586535
20
1.69999999999996
30
0
41
1
10
-20.3960857212648
20
1.69999999999996
30
0
41
1
10
-20.4107049699779
20
1.69999999999996
30
0
41
1
10
-20.4174169984215
20
1.69999999999996
30
0
41
1
10
-20.4473858919688
20
1.69999999999996
30
0
41
1
10
-20.4599620558586
20
1.69999999999996
30
0
41
1
10
-20.4600011669707
20
1.69999999999996
30
0
41
1
10
-20.4599995832013
20
1.69999999999996
30
0
41
1
10
-20.4599985831013
20
1.69999999999996
30
0
0
SPLINE
5
1C3
100
AcDbEntity
8
SK1
62
256
6
ByLayer
370
18
48
1
60
0
100
AcDbSpline
70
4
71
3
72
22
73
18
40
0
40
0
40
0
40
0
40
0.0016706645743915
40
0.0016706645743915
40
0.251252998430793
40
0.251252998430793
40
0.313648581894894
40
0.313648581894894
40
0.376044165358994
40
0.376044165358994
40
0.500835332287195
40
0.500835332287195
40
0.750417666143598
40
0.750417666143598
40
0.875208833071799
40
0.875208833071799
40
1
40
1
40
1
40
1
41
1
10
-20.4599985830967
20
-1.70000000000002
30
0
41
1
10
-20.4599995831967
20
-1.70000000000002
30
0
41
1
10
-20.4600011669717
20
-1.70000000000002
30
0
41
1
10
-20.4599620558586
20
-1.70000000000002
30
0
41
1
10
-20.4473858919688
20
-1.70000000000002
30
0
41
1
10
-20.4174169984215
20
-1.70000000000002
30
0
41
1
10
-20.4107049699778
20
-1.70000000000002
30
0
41
1
10
-20.3960857212648
20
-1.70000000000002
30
0
41
1
10
-20.38816586535
20
-1.70000000000002
30
0
41
1
10
-20.3627338867565
20
-1.70000000000002
30
0
41
1
10
-20.3435532811027
20
-1.70000000000002
30
0
41
1
10
-20.2804608464446
20
-1.70000000000002
30
0
41
1
10
-20.2310529984632
20
-1.70000000000002
30
0
41
1
10
-20.149365618691
20
-1.70000000000002
30
0
41
1
10
-20.1208596891054
20
-1.70000000000002
30
0
41
1
10
-20.0617192417947
20
-1.70000000000002
30
0
41
1
10
-20.0312316853357
20
-1.70000000000002
30
0
41
1
10
-19.9999999999999
20
-1.70000000000002
30
0
0
SPLINE
5
1C4
100
AcDbEntity
8
SK1
62
256
6
ByLayer
370
18
48
1
60
0
100
AcDbSpline
70
4
71
3
72
36
73
32
40
0
40
0
40
0
40
0
40
0.125
40
0.125
40
0.1875
40
0.1875
40
0.21875
40
0.21875
40
0.25
40
0.25
40
0.375
40
0.375
40
0.40625
40
0.40625
40
0.4375
40
0.4375
40
0.5
40
0.5
40
0.625
40
0.625
40
0.65625
40
0.65625
40
0.6875
40
0.6875
40
0.75
40
0.75
40
0.875
40
0.875
40
0.9375
40
0.9375
40
1
40
1
40
1
40
1
41
1
10
-20
20
-1.33251641640922
30
0
41
1
10
-20.0619570033713
20
-1.23208453757155
30
0
41
1
10
-20.1208934451722
20
-1.12965097552558
30
0
41
1
10
-20.2025079673024
20
-0.971500902838301
30
0
41
1
10
-20.228570378338
20
-0.918027140039612
30
0
41
1
10
-20.2655373688126
20
-0.836407210974187
30
0
41
1
10
-20.2775195132155
20
-0.808927766947448
30
0
41
1
10
-20.3006145980522
20
-0.753621537637287
30
0
41
1
10
-20.3117094621023
20
-0.725840868162408
30
0
41
1
10
-20.3647255977526
20
-0.586244858368786
30
0
41
1
10
-20.3993082575669
20
-0.472361658462375
30
0
41
1
10
-20.4292131408545
20
-0.326253405457749
30
0
41
1
10
-20.434526040706
20
-0.296843505489079
30
0
41
1
10
-20.4437226189511
20
-0.237620982341923
30
0
41
1
10
-20.4476123873896
20
-0.207728264162228
30
0
41
1
10
-20.4569241252164
20
-0.118263345594499
30
0
41
1
10
-20.460018842259
20
-0.0587803152315871
30
0
41
1
10
-20.4599620558586
20
0.119187946780414
30
0
41
1
10
-20.4473858919688
20
0.237188039676823
30
0
41
1
10
-20.4174169984215
20
0.3839546979614
30
0
41
1
10
-20.4107049699778
20
0.413306545192626
30
0
41
1
10
-20.3960857212648
20
0.471362685163768
30
0
41
1
10
-20.38816586535
20
0.500139234671508
30
0
41
1
10
-20.3627338867565
20
0.585779561952279
30
0
41
1
10
-20.3435532811027
20
0.641955637443374
30
0
41
1
10
-20.2804608464447
20
0.808196053664091
30
0
41
1
10
-20.2310529984632
20
0.915995088215112
30
0
41
1
10
-20.149365618691
20
1.0745711851834
30
0
41
1
10
-20.1208596891054
20
1.12690362148609
30
0
41
1
10
-20.0617192417947
20
1.23069114925624
30
0
41
1
10
-20.0312316853357
20
1.28189006802472
30
0
41
1
10
-19.9999999999999
20
1.33251641640928
30
0
0
SPLINE
5
1C5
100
AcDbEntity
8
1
62
256
6
ByLayer
370
18
48
1
60
0
100
AcDbSpline
70
4
71
2
72
6
73
3
40
0
40
0
40
0
40
1
40
1
40
1
41
1
10
41.0085151272227
20
-1.76454191926476
30
0
41
1
10
41.0390142009915
20
-1.71224060737731
30
0
41
1
10
41.0695528133839
20
-1.65997257238067
30
0
0
SPLINE
5
1C6
100
AcDbEntity
8
1
62
256
6
ByLayer
370
18
48
1
60
0
100
AcDbSpline
70
4
71
1
72
4
73
2
40
0
40
0
40
1
40
1
41
1
10
40.5945237144031
20
-1.88439157108087
30
0
41
1
10
40.9958431621298
20
-1.78602856448447
30
0
0
SPLINE
5
1C7
100
AcDbEntity
8
1
62
256
6
ByLayer
370
18
48
1
60
0
100
AcDbSpline
70
4
71
2
72
6
73
3
40
0
40
0
40
0
40
1
40
1
40
1
41
1
10
40.4417634134497
20
-1.65494805956163
30
0
41
1
10
40.498371463302
20
-1.75200086714028
30
0
41
1
10
40.5548851844582
20
-1.84920066108845
30
0
0
SPLINE
5
1C8
100
AcDbEntity
8
1
62
256
6
ByLayer
370
18
48
1
60
0
100
AcDbSpline
70
4
71
1
72
4
73
2
40
0
40
0
40
1
40
1
41
1
10
39.8909449825003
20
-2.05529802982397
30
0
41
1
10
40.0803402942777
20
-2.00891363833745
30
0
0
SPLINE
5
1C9
100
AcDbEntity
8
1
62
256
6
ByLayer
370
18
48
1
60
0
100
AcDbSpline
70
4
71
1
72
4
73
2
40
0
40
0
40
1
40
1
41
1
10
34.5456193026354
20
1.75358559140665
30
0
41
1
10
34.4896553392406
20
1.65744872143497
30
0
0
SPLINE
5
1CA
100
AcDbEntity
8
1
62
256
6
ByLayer
370
18
48
1
60
0
100
AcDbSpline
70
4
71
2
72
6
73
3
40
0
40
0
40
0
40
1
40
1
40
1
41
1
10
35.1212518147079
20
1.65087246707534
30
0
41
1
10
34.988654862179
20
1.87704857315569
30
0
41
1
10
34.8561883637159
20
2.1042951693714
30
0
0
SPLINE
5
1CB
100
AcDbEntity
8
1
62
256
6
ByLayer
370
18
48
1
60
0
100
AcDbSpline
70
4
71
2
72
6
73
3
40
0
40
0
40
0
40
1
40
1
40
1
41
1
10
37.9014625816639
20
0.0656109223909311
30
0
41
1
10
37.9133542818344
20
0.0591002365497673
30
0
41
1
10
37.9251350091009
20
0.0522771490415153
30
0
0
SPLINE
5
1CC
100
AcDbEntity
8
1
62
256
6
ByLayer
370
18
48
1
60
0
100
AcDbSpline
70
4
71
2
72
6
73
3
40
0
40
0
40
0
40
1
40
1
40
1
41
1
10
38.2359564522504
20
-0.202976529758473
30
0
41
1
10
38.2453439660823
20
-0.213306964842815
30
0
41
1
10
38.2546377099176
20
-0.223901373403692
30
0
0
SPLINE
5
1CD
100
AcDbEntity
8
1
62
256
6
ByLayer
370
18
48
1
60
0
100
AcDbSpline
70
4
71
1
72
4
73
2
40
0
40
0
40
1
40
1
41
1
10
38.2546377099176
20
-0.223901373403692
30
0
41
1
10
38.2572090414704
20
-0.226151774209626
30
0
0
SPLINE
5
1CE
100
AcDbEntity
8
1
62
256
6
ByLayer
370
18
48
1
60
0
100
AcDbSpline
70
4
71
3
72
8
73
4
40
0
40
0
40
0
40
0
40
1
40
1
40
1
40
1
41
1
10
41.0861951268863
20
-0.111600679191412
30
0
41
1
10
41.0670043695923
20
-0.100068574886961
30
0
41
1
10
41.0477855591822
20
-0.088477122150465
30
0
41
1
10
41.0285478858962
20
-0.0768177839351551
30
0
0
SPLINE
5
1CF
100
AcDbEntity
8
1
62
256
6
ByLayer
370
18
48
1
60
0
100
AcDbSpline
70
4
71
1
72
4
73
2
40
0
40
0
40
1
40
1
41
1
10
40.7664643329457
20
0.0881609708511348
30
0
41
1
10
40.6634073591021
20
0.178208286325827
30
0
0
SPLINE
5
1D0
100
AcDbEntity
8
1
62
256
6
ByLayer
370
18
48
1
60
0
100
AcDbSpline
70
4
71
2
72
6
73
3
40
0
40
0
40
0
40
1
40
1
40
1
41
1
10
41.071195478928
20
-1.65726196311516
30
0
41
1
10
41.0900326232261
20
-1.61344664494155
30
0
41
1
10
41.1462029391679
20
-1.62073909429768
30
0
0
SPLINE
5
1D1
100
AcDbEntity
8
1
62
256
6
ByLayer
370
18
48
1
60
0
100
AcDbSpline
70
4
71
2
72
6
73
3
40
0
40
0
40
0
40
1
40
1
40
1
41
1
10
36.8356769683782
20
-2.11459493395122
30
0
41
1
10
36.9683849132786
20
-1.88621157535812
30
0
41
1
10
37.1013329090836
20
-1.65859308054206
30
0
0
SPLINE
5
1D2
100
AcDbEntity
8
1
62
256
6
ByLayer
370
18
48
1
60
0
100
AcDbSpline
70
4
71
2
72
6
73
3
40
0
40
0
40
0
40
1
40
1
40
1
41
1
10
37.9330073467667
20
2.11907358602474
30
0
41
1
10
37.7998638150071
20
1.88948707392751
30
0
41
1
10
37.6662025730409
20
1.65990158950993
30
0
0
SPLINE
5
1D3
100
AcDbEntity
8
1
62
256
6
ByLayer
370
18
48
1
60
0
100
AcDbSpline
70
4
71
3
72
11
73
7
40
0
40
0
40
0
40
0
40
0.249125406885721
40
0.502214789700765
40
0.754152066910272
40
1
40
1
40
1
40
1
41
1
10
36.3081130986264
20
-1.65726087313095
30
0
41
1
10
36.314452114376
20
-1.64516246728294
30
0
41
1
10
36.3335470703146
20
-1.62680030128115
30
0
41
1
10
36.3907591482136
20
-1.60790516184102
30
0
41
1
10
36.4481543560088
20
-1.62636727974203
30
0
41
1
10
36.4673848767399
20
-1.64481372514027
30
0
41
1
10
36.4738578212607
20
-1.65692586213592
30
0
0
SPLINE
5
1D4
100
AcDbEntity
8
1
62
256
6
ByLayer
370
18
48
1
60
0
100
AcDbSpline
70
4
71
3
72
11
73
7
40
0
40
0
40
0
40
0
40
0.24445191831877
40
0.495471564657585
40
0.748767405566614
40
1
40
1
40
1
40
1
41
1
10
38.4578103291065
20
1.65593473440947
30
0
41
1
10
38.4514797295975
20
1.64434420433534
30
0
41
1
10
38.4325831645714
20
1.62661922128314
30
0
41
1
10
38.3756117221867
20
1.60836711286595
30
0
41
1
10
38.3189840424861
20
1.62660646689088
30
0
41
1
10
38.3003868313344
20
1.64347831401636
30
0
41
1
10
38.2943461771254
20
1.65468389757561
30
0
0
SPLINE
5
1D5
100
AcDbEntity
8
1
62
256
6
ByLayer
370
18
48
1
60
0
100
AcDbSpline
70
4
71
2
72
6
73
3
40
0
40
0
40
0
40
1
40
1
40
1
41
1
10
34.3226916342553
20
1.65906451869947
30
0
41
1
10
34.2962928650317
20
1.70423781640915
30
0
41
1
10
34.2699279095156
20
1.7494344408513
30
0
0
SPLINE
5
1D6
100
AcDbEntity
8
1
62
256
6
ByLayer
370
18
48
1
60
0
100
AcDbSpline
70
4
71
3
72
11
73
7
40
0
40
0
40
0
40
0
40
0.247864418262382
40
0.500706214553028
40
0.753080714003713
40
1
40
1
40
1
40
1
41
1
10
40.2771775217068
20
-1.65757942572208
30
0
41
1
10
40.2836042020122
20
-1.64541351751902
30
0
41
1
10
40.3028164739487
20
-1.62691022990219
30
0
41
1
10
40.3601130900624
20
-1.60810331045224
30
0
41
1
10
40.417508378774
20
-1.62672917710736
30
0
41
1
10
40.4367242088224
20
-1.6452694645362
30
0
41
1
10
40.4431683881642
20
-1.65745687270251
30
0
0
SPLINE
5
1D7
100
AcDbEntity
8
1
62
256
6
ByLayer
370
18
48
1
60
0
100
AcDbSpline
70
4
71
3
72
11
73
7
40
0
40
0
40
0
40
0
40
0.245084066893474
40
0.498205792975953
40
0.752314670394213
40
1
40
1
40
1
40
1
41
1
10
34.4934538720032
20
1.66321803577247
30
0
41
1
10
34.4865646705031
20
1.6494784207469
30
0
41
1
10
34.4665547979775
20
1.62820294664928
30
0
41
1
10
34.4083583714691
20
1.60768906637719
30
0
41
1
10
34.3503222663391
20
1.62569438890043
30
0
41
1
10
34.3303913904663
20
1.64486696822908
30
0
41
1
10
34.3235887128954
20
1.65757414686965
30
0
0
SPLINE
5
1D8
100
AcDbEntity
8
1
62
256
6
ByLayer
370
18
48
1
60
0
100
AcDbSpline
70
4
71
2
72
6
73
3
40
0
40
0
40
0
40
1
40
1
40
1
41
1
10
36.0425966686985
20
-2.11279720080179
30
0
41
1
10
36.1754909179642
20
-1.88410071071968
30
0
41
1
10
36.3087349898974
20
-1.65617837556124
30
0
0
SPLINE
5
1D9
100
AcDbEntity
8
1
62
256
6
ByLayer
370
18
48
1
60
0
100
AcDbSpline
70
4
71
2
72
6
73
3
40
0
40
0
40
0
40
1
40
1
40
1
41
1
10
35.6805457042791
20
-1.65846454207383
30
0
41
1
10
35.8141542295758
20
-1.88777868543858
30
0
41
1
10
35.9473287765779
20
-2.1173916096977
30
0
0
SPLINE
5
1DA
100
AcDbEntity
8
1
62
256
6
ByLayer
370
18
48
1
60
0
100
AcDbSpline
70
4
71
2
72
6
73
3
40
0
40
0
40
0
40
1
40
1
40
1
41
1
10
40.0655803851474
20
-2.0193157276147
30
0
41
1
10
40.1680870662898
20
-1.84278781395329
30
0
41
1
10
40.2706760839604
20
-1.66650976022046
30
0
0
SPLINE
5
1DB
100
AcDbEntity
8
1
62
256
6
ByLayer
370
18
48
1
60
0
100
AcDbSpline
70
4
71
2
72
6
73
3
40
0
40
0
40
0
40
1
40
1
40
1
41
1
10
35.6083021409803
20
-1.62121980999424
30
0
41
1
10
35.6621765513395
20
-1.61498850935089
30
0
41
1
10
35.6798675306565
20
-1.65728684050683
30
0
0
SPLINE
5
1DC
100
AcDbEntity
8
1
62
256
6
ByLayer
370
18
48
1
60
0
100
AcDbSpline
70
4
71
2
72
6
73
3
40
0
40
0
40
0
40
1
40
1
40
1
41
1
10
38.7263451344593
20
2.11799294781488
30
0
41
1
10
38.5937917012712
20
1.88939515621519
30
0
41
1
10
38.4610699749537
20
1.66131614521106
30
0
0
SPLINE
5
1DD
100
AcDbEntity
8
1
62
256
6
ByLayer
370
18
48
1
60
0
100
AcDbSpline
70
4
71
2
72
6
73
3
40
0
40
0
40
0
40
1
40
1
40
1
41
1
10
39.1369192278672
20
1.6221259683241
30
0
41
1
10
39.098175734097
20
1.62951683522078
30
0
41
1
10
39.0902884627497
20
1.65024104672165
30
0
0
SPLINE
5
1DE
100
AcDbEntity
8
1
62
256
6
ByLayer
370
18
48
1
60
0
100
AcDbSpline
70
4
71
2
72
6
73
3
40
0
40
0
40
0
40
1
40
1
40
1
41
1
10
39.0853694501319
20
1.65933577799856
30
0
41
1
10
38.9511390860344
20
1.88912333250607
30
0
41
1
10
38.8175688151415
20
2.11887633842918
30
0
0
SPLINE
5
1DF
100
AcDbEntity
8
1
62
256
6
ByLayer
370
18
48
1
60
0
100
AcDbSpline
70
4
71
2
72
6
73
3
40
0
40
0
40
0
40
1
40
1
40
1
41
1
10
39.6182916022639
20
-1.62466409767347
30
0
41
1
10
39.6244603453218
20
-1.62703775967077
30
0
41
1
10
39.6283985942659
20
-1.62877492677345
30
0
0
SPLINE
5
1E0
100
AcDbEntity
8
1
62
256
6
ByLayer
370
18
48
1
60
0
100
AcDbSpline
70
4
71
1
72
4
73
2
40
0
40
0
40
1
40
1
41
1
10
39.6342087944028
20
-1.631720570613
30
0
41
1
10
39.6391189538735
20
-1.63420992703396
30
0
0
SPLINE
5
1E1
100
AcDbEntity
8
1
62
256
6
ByLayer
370
18
48
1
60
0
100
AcDbSpline
70
4
71
2
72
6
73
3
40
0
40
0
40
0
40
1
40
1
40
1
41
1
10
39.6491509635115
20
-1.65661042211346
30
0
41
1
10
39.7627267870378
20
-1.85140317990914
30
0
41
1
10
39.8761590997364
20
-2.04672657639375
30
0
0
SPLINE
5
1E2
100
AcDbEntity
8
1
62
256
6
ByLayer
370
18
48
1
60
0
100
AcDbSpline
70
4
71
2
72
6
73
3
40
0
40
0
40
0
40
1
40
1
40
1
41
1
10
36.4814027015104
20
-1.66710956995055
30
0
41
1
10
36.6135783747628
20
-1.89478873078823
30
0
41
1
10
36.7456433482094
20
-2.12271399610148
30
0
0
SPLINE
5
1E3
100
AcDbEntity
8
1
62
256
6
ByLayer
370
18
48
1
60
0
100
AcDbSpline
70
4
71
2
72
6
73
3
40
0
40
0
40
0
40
1
40
1
40
1
41
1
10
38.2893919503448
20
1.66273032660837
30
0
41
1
10
38.1568392192181
20
1.89007907133342
30
0
41
1
10
38.0244609572614
20
2.11801152389035
30
0
0
SPLINE
5
1E4
100
AcDbEntity
8
1
62
256
6
ByLayer
370
18
48
1
60
0
100
AcDbSpline
70
4
71
1
72
4
73
2
40
0
40
0
40
1
40
1
41
1
10
24.6452451973773
20
0.502091970266633
30
0
41
1
10
24.6699023921904
20
0.478017434654248
30
0
0
LINE
5
7F
100
AcDbEntity
8
80
62
256
6
ByLayer
370
18
48
1
60
0
100
AcDbLine
10
0
20
0
30
0
11
-5
21
0
31
0
39
0
210
0
220
0
230
1
0
LINE
5
80
100
AcDbEntity
8
81
62
256
6
ByLayer
370
18
48
1
60
0
100
AcDbLine
10
42.2
20
0
30
0
11
47.2
21
0
31
0
39
0
210
0
220
0
230
1
0
LINE
5
81
100
AcDbEntity
8
4
62
256
6
ByLayer
370
18
48
0.05
60
0
100
AcDbLine
10
0
20
0
30
0
11
42.2
21
0
31
0
39
0
210
0
220
0
230
1
0
LINE
5
83
100
AcDbEntity
8
SK4
62
256
6
ByLayer
370
18
48
0.05
60
0
100
AcDbLine
10
-21
20
0
30
0
11
42.2
21
0
31
0
39
0
210
0
220
0
230
1
0
LINE
5
85
100
AcDbEntity
8
1
62
256
6
ByLayer
370
18
48
1
60
0
100
AcDbLine
10
0
20
2.25
30
0
11
0
21
-2.25
31
0
39
0
210
0
220
0
230
1
0
LINE
5
86
100
AcDbEntity
8
1
62
256
6
ByLayer
370
13
48
1
60
0
100
AcDbLine
10
37.101045
20
-1.659067
30
0
11
37.096978
21
-1.664844
31
0
39
0
210
0
220
0
230
1
0
LINE
5
87
100
AcDbEntity
8
1
62
256
6
ByLayer
370
18
48
1
60
0
100
AcDbLine
10
36.481431
20
-1.667137
30
0
11
36.475431
21
-1.659536
31
0
39
0
210
0
220
0
230
1
0
LINE
5
88
100
AcDbEntity
8
1
62
256
6
ByLayer
370
18
48
1
60
0
100
AcDbLine
10
38.293128
20
1.656898
30
0
11
38.289218
21
1.662966
31
0
39
0
210
0
220
0
230
1
0
LINE
5
89
100
AcDbEntity
8
1
62
256
6
ByLayer
370
18
48
1
60
0
100
AcDbLine
10
40.445329
20
-1.66092
30
0
11
40.44193
21
-1.655255
31
0
39
0
210
0
220
0
230
1
0
LINE
5
8A
100
AcDbEntity
8
1
62
256
6
ByLayer
370
18
48
1
60
0
100
AcDbLine
10
36.308562
20
-1.656483
30
0
11
36.305818
21
-1.660912
31
0
39
0
210
0
220
0
230
1
0
LINE
5
8B
100
AcDbEntity
8
1
62
256
6
ByLayer
370
18
48
1
60
0
100
AcDbLine
10
40.275459
20
-1.660369
30
0
11
40.270693
21
-1.666492
31
0
39
0
210
0
220
0
230
1
0
LINE
5
8C
100
AcDbEntity
8
1
62
256
6
ByLayer
370
18
48
1
60
0
100
AcDbLine
10
38.461022
20
1.661245
30
0
11
38.458703
21
1.657518
31
0
39
0
210
0
220
0
230
1
0
LINE
5
8D
100
AcDbEntity
8
1
62
256
6
ByLayer
370
18
48
1
60
0
100
AcDbLine
10
39.087726
20
1.655292
30
0
11
39.0851
21
1.659761
31
0
39
0
210
0
220
0
230
1
0
LINE
5
8E
100
AcDbEntity
8
1
62
256
6
ByLayer
370
18
48
1
60
0
100
AcDbLine
10
42.2
20
1.17
30
0
11
42.2
21
1.158671
31
0
39
0
210
0
220
0
230
1
0
LINE
5
8F
100
AcDbEntity
8
1
62
256
6
ByLayer
370
13
48
1
60
0
100
AcDbLine
10
33.91567
20
1.54502
30
0
11
33.91567
21
1.578087
31
0
39
0
210
0
220
0
230
1
0
LINE
5
90
100
AcDbEntity
8
1
62
256
6
ByLayer
370
18
48
1
60
0
100
AcDbLine
10
36.044278
20
-2.109902
30
0
11
36.041618
21
-2.114582
31
0
39
0
210
0
220
0
230
1
0
LINE
5
91
100
AcDbEntity
8
1
62
256
6
ByLayer
370
18
48
1
60
0
100
AcDbLine
10
38.723992
20
2.113936
30
0
11
38.729649
21
2.121133
31
0
39
0
210
0
220
0
230
1
0
LINE
5
92
100
AcDbEntity
8
1
62
256
6
ByLayer
370
18
48
1
60
0
100
AcDbLine
10
34.861436
20
2.092847
30
0
11
34.861436
21
1.562432
31
0
39
0
210
0
220
0
230
1
0
LINE
5
93
100
AcDbEntity
8
1
62
256
6
ByLayer
370
13
48
1
60
0
100
AcDbLine
10
33.66567
20
1.5111
30
0
11
33.66567
21
1.507275
31
0
39
0
210
0
220
0
230
1
0
LINE
5
94
100
AcDbEntity
8
1
62
256
6
ByLayer
370
13
48
1
60
0
100
AcDbLine
10
21.043744
20
-1.5111
30
0
11
21.043744
21
1.5111
31
0
39
0
210
0
220
0
230
1
0
LINE
5
95
100
AcDbEntity
8
1
62
256
6
ByLayer
370
13
48
1
60
0
100
AcDbLine
10
33.66567
20
-0.84669
30
0
11
33.66567
21
0.010259
31
0
39
0
210
0
220
0
230
1
0
LINE
5
96
100
AcDbEntity
8
1
62
256
6
ByLayer
370
18
48
1
60
0
100
AcDbLine
10
42.2
20
0.058346
30
0
11
42.2
21
-0.72
31
0
39
0
210
0
220
0
230
1
0
LINE
5
97
100
AcDbEntity
8
1
62
256
6
ByLayer
370
13
48
1
60
0
100
AcDbLine
10
33.91567
20
-0.17368
30
0
11
33.91567
21
-1.050818
31
0
39
0
210
0
220
0
230
1
0
LINE
5
98
100
AcDbEntity
8
1
62
256
6
ByLayer
370
18
48
1
60
0
100
AcDbLine
10
25.209011
20
-0.048406
30
0
11
25.209631
21
-0.04489
31
0
39
0
210
0
220
0
230
1
0
LINE
5
99
100
AcDbEntity
8
1
62
256
6
ByLayer
370
13
48
1
60
0
100
AcDbLine
10
20.95692
20
1.518696
30
0
11
20.95692
21
-1.518696
31
0
39
0
210
0
220
0
230
1
0
LINE
5
9A
100
AcDbEntity
8
1
62
256
6
ByLayer
370
18
48
1
60
0
100
AcDbLine
10
16.80949
20
2.25
30
0
11
16.80949
21
-2.25
31
0
39
0
210
0
220
0
230
1
0
LINE
5
9B
100
AcDbEntity
8
SK1
62
256
6
ByLayer
370
18
48
1
60
0
100
AcDbLine
10
-21
20
1.16
30
0
11
-21
21
-1.16
31
0
39
0
210
0
220
0
230
1
0
LINE
5
9D
100
AcDbEntity
8
SK1
62
256
6
ByLayer
370
18
48
1
60
0
100
AcDbLine
10
-15
20
1.332516
30
0
11
-15
21
-1.332516
31
0
39
0
210
0
220
0
230
1
0
LINE
5
9E
100
AcDbEntity
8
SK1
62
256
6
ByLayer
370
18
48
1
60
0
100
AcDbLine
10
-15
20
1.7
30
0
11
-14.54
21
2.16
31
0
39
0
210
0
220
0
230
1
0
LINE
5
9F
100
AcDbEntity
8
SK1
62
256
6
ByLayer
370
18
48
1
60
0
100
AcDbLine
10
-20
20
1.7
30
0
11
-15
21
1.7
31
0
39
0
210
0
220
0
230
1
0
LINE
5
A0
100
AcDbEntity
8
SK1
62
256
6
ByLayer
370
18
48
1
60
0
100
AcDbLine
10
-20
20
1.332516
30
0
11
-20
21
1.7
31
0
39
0
210
0
220
0
230
1
0
LINE
5
A1
100
AcDbEntity
8
SK1
62
256
6
ByLayer
370
18
48
1
60
0
100
AcDbLine
10
-15
20
1.332516
30
0
11
-20
21
1.332516
31
0
39
0
210
0
220
0
230
1
0
LINE
5
A2
100
AcDbEntity
8
SK1
62
256
6
ByLayer
370
18
48
1
60
0
100
AcDbLine
10
-20
20
-1.332516
30
0
11
-15
21
-1.332516
31
0
39
0
210
0
220
0
230
1
0
LINE
5
A3
100
AcDbEntity
8
SK1
62
256
6
ByLayer
370
18
48
1
60
0
100
AcDbLine
10
-20
20
-1.7
30
0
11
-20
21
-1.332516
31
0
39
0
210
0
220
0
230
1
0
LINE
5
A4
100
AcDbEntity
8
SK1
62
256
6
ByLayer
370
18
48
1
60
0
100
AcDbLine
10
-15
20
-1.7
30
0
11
-20
21
-1.7
31
0
39
0
210
0
220
0
230
1
0
LINE
5
A5
100
AcDbEntity
8
SK1
62
256
6
ByLayer
370
18
48
1
60
0
100
AcDbLine
10
-15
20
-1.7
30
0
11
-14.54
21
-2.16
31
0
39
0
210
0
220
0
230
1
0
LINE
5
A6
100
AcDbEntity
8
SK1
62
256
6
ByLayer
370
18
48
1
60
0
100
AcDbLine
10
-14.4
20
2.16
30
0
11
-14.4
21
-2.16
31
0
39
0
210
0
220
0
230
1
0
LINE
5
A7
100
AcDbEntity
8
SK1
62
256
6
ByLayer
370
18
48
1
60
0
100
AcDbLine
10
0
20
2.25
30
0
11
0
21
-2.25
31
0
39
0
210
0
220
0
230
1
0
LINE
5
A8
100
AcDbEntity
8
SK1
62
256
6
ByLayer
370
18
48
1
60
0
100
AcDbLine
10
-14.31
20
-2.25
30
0
11
-14.31
21
2.25
31
0
39
0
210
0
220
0
230
1
0
LINE
5
A9
100
AcDbEntity
8
1
62
256
6
ByLayer
370
18
48
1
60
0
100
AcDbLine
10
34.844267
20
2.114213
30
0
11
34.712427
21
2.038095
31
0
39
0
210
0
220
0
230
1
0
LINE
5
AA
100
AcDbEntity
8
1
62
256
6
ByLayer
370
18
48
1
60
0
100
AcDbLine
10
16.80949
20
2.25
30
0
11
0
21
2.25
31
0
39
0
210
0
220
0
230
1
0
LINE
5
AB
100
AcDbEntity
8
1
62
256
6
ByLayer
370
18
48
1
60
0
100
AcDbLine
10
0
20
-2.25
30
0
11
16.80949
21
-2.25
31
0
39
0
210
0
220
0
230
1
0
LINE
5
AC
100
AcDbEntity
8
1
62
256
6
ByLayer
370
18
48
1
60
0
100
AcDbLine
10
42.2
20
1.17
30
0
11
42.00362
21
1.36638
31
0
39
0
210
0
220
0
230
1
0
LINE
5
AD
100
AcDbEntity
8
1
62
256
6
ByLayer
370
18
48
1
60
0
100
AcDbLine
10
36.751922
20
-2.124126
30
0
11
36.823743
21
-2.124126
31
0
39
0
210
0
220
0
230
1
0
LINE
5
AE
100
AcDbEntity
8
1
62
256
6
ByLayer
370
18
48
1
60
0
100
AcDbLine
10
38.014402
20
2.124126
30
0
11
37.942485
21
2.124126
31
0
39
0
210
0
220
0
230
1
0
LINE
5
AF
100
AcDbEntity
8
1
62
256
6
ByLayer
370
18
48
1
60
0
100
AcDbLine
10
34.247703
20
1.769787
30
0
11
33.91567
21
1.578087
31
0
39
0
210
0
220
0
230
1
0
LINE
5
B0
100
AcDbEntity
8
1
62
256
6
ByLayer
370
18
48
1
60
0
100
AcDbLine
10
35.957856
20
-2.124126
30
0
11
36.029698
21
-2.124126
31
0
39
0
210
0
220
0
230
1
0
LINE
5
B1
100
AcDbEntity
8
1
62
256
6
ByLayer
370
18
48
1
60
0
100
AcDbLine
10
38.808008
20
2.124126
30
0
11
38.73628
21
2.124126
31
0
39
0
210
0
220
0
230
1
0
LINE
5
B2
100
AcDbEntity
8
1
62
256
6
ByLayer
370
18
48
1
60
0
100
AcDbLine
10
21.043744
20
-1.5111
30
0
11
24.394127
21
-1.5111
31
0
39
0
210
0
220
0
230
1
0
LINE
5
B3
100
AcDbEntity
8
1
62
256
6
ByLayer
370
18
48
1
60
0
100
AcDbLine
10
27.142769
20
-1.5111
30
0
11
28.347823
21
-1.5111
31
0
39
0
210
0
220
0
230
1
0
LINE
5
B4
100
AcDbEntity
8
1
62
256
6
ByLayer
370
18
48
1
60
0
100
AcDbLine
10
31.39528
20
-1.5111
30
0
11
32.613203
21
-1.5111
31
0
39
0
210
0
220
0
230
1
0
LINE
5
B5
100
AcDbEntity
8
1
62
256
6
ByLayer
370
18
48
1
60
0
100
AcDbLine
10
33.66567
20
1.5111
30
0
11
33.521489
21
1.5111
31
0
39
0
210
0
220
0
230
1
0
LINE
5
B6
100
AcDbEntity
8
1
62
256
6
ByLayer
370
18
48
1
60
0
100
AcDbLine
10
30.47966
20
1.5111
30
0
11
29.268621
21
1.5111
31
0
39
0
210
0
220
0
230
1
0
LINE
5
B7
100
AcDbEntity
8
1
62
256
6
ByLayer
370
18
48
1
60
0
100
AcDbLine
10
26.215469
20
1.5111
30
0
11
21.043744
21
1.5111
31
0
39
0
210
0
220
0
230
1
0
LINE
5
B8
100
AcDbEntity
8
1
62
256
6
ByLayer
370
18
48
1
60
0
100
AcDbLine
10
20.95692
20
1.518696
30
0
11
16.80949
21
2.25
31
0
39
0
210
0
220
0
230
1
0
LINE
5
B9
100
AcDbEntity
8
1
62
256
6
ByLayer
370
18
48
1
60
0
100
AcDbLine
10
16.80949
20
-2.25
30
0
11
20.95692
21
-1.518696
31
0
39
0
210
0
220
0
230
1
0
LINE
5
BA
100
AcDbEntity
8
SK1
62
256
6
ByLayer
370
18
48
1
60
0
100
AcDbLine
10
-21
20
-1.16
30
0
11
-20.46
21
-1.7
31
0
39
0
210
0
220
0
230
1
0
LINE
5
BB
100
AcDbEntity
8
SK1
62
256
6
ByLayer
370
18
48
1
60
0
100
AcDbLine
10
-20.46
20
1.7
30
0
11
-21
21
1.16
31
0
39
0
210
0
220
0
230
1
0
LINE
5
BC
100
AcDbEntity
8
SK1
62
256
6
ByLayer
370
18
48
1
60
0
100
AcDbLine
10
-14.4
20
2.16
30
0
11
-14.54
21
2.16
31
0
39
0
210
0
220
0
230
1
0
LINE
5
BD
100
AcDbEntity
8
SK1
62
256
6
ByLayer
370
18
48
1
60
0
100
AcDbLine
10
-14.54
20
-2.16
30
0
11
-14.4
21
-2.16
31
0
39
0
210
0
220
0
230
1
0
LINE
5
BE
100
AcDbEntity
8
SK1
62
256
6
ByLayer
370
18
48
1
60
0
100
AcDbLine
10
-14.4
20
-2.16
30
0
11
-14.31
21
-2.25
31
0
39
0
210
0
220
0
230
1
0
LINE
5
BF
100
AcDbEntity
8
SK1
62
256
6
ByLayer
370
18
48
1
60
0
100
AcDbLine
10
-14.31
20
2.25
30
0
11
-14.4
21
2.16
31
0
39
0
210
0
220
0
230
1
0
LINE
5
C0
100
AcDbEntity
8
SK1
62
256
6
ByLayer
370
18
48
1
60
0
100
AcDbLine
10
0
20
2.25
30
0
11
-14.31
21
2.25
31
0
39
0
210
0
220
0
230
1
0
LINE
5
C1
100
AcDbEntity
8
SK1
62
256
6
ByLayer
370
18
48
1
60
0
100
AcDbLine
10
-14.31
20
-2.25
30
0
11
0
21
-2.25
31
0
39
0
210
0
220
0
230
1
0
LINE
5
C2
100
AcDbEntity
8
SK2
62
256
6
ByLayer
370
18
48
1
60
0
100
AcDbLine
10
9.249745
20
18.86497
30
0
11
9.249745
21
-9.75
31
0
39
0
210
0
220
0
230
1
0
LINE
5
C4
100
AcDbEntity
8
1
62
256
6
ByLayer
370
18
48
1
60
1
100
AcDbLine
10
9.249745
20
2.25
30
0
11
8.788961
21
5.749998
31
0
39
0
210
0
220
0
230
1
0
LINE
5
C5
100
AcDbEntity
8
1
62
256
6
ByLayer
370
18
48
1
60
1
100
AcDbLine
10
8.788961
20
5.749998
30
0
11
9.710529
21
5.750002
31
0
39
0
210
0
220
0
230
1
0
LINE
5
C6
100
AcDbEntity
8
1
62
256
6
ByLayer
370
18
48
1
60
1
100
AcDbLine
10
9.710529
20
5.750002
30
0
11
9.249745
21
2.25
31
0
39
0
210
0
220
0
230
1
0
LINE
5
C7
100
AcDbEntity
8
1
62
256
6
ByLayer
370
18
48
1
60
1
100
AcDbLine
10
9.249745
20
-2.25
30
0
11
9.710529
21
-5.749998
31
0
39
0
210
0
220
0
230
1
0
LINE
5
C8
100
AcDbEntity
8
1
62
256
6
ByLayer
370
18
48
1
60
1
100
AcDbLine
10
9.710529
20
-5.749998
30
0
11
8.788961
21
-5.750002
31
0
39
0
210
0
220
0
230
1
0
LINE
5
C9
100
AcDbEntity
8
1
62
256
6
ByLayer
370
18
48
1
60
1
100
AcDbLine
10
8.788961
20
-5.750002
30
0
11
9.249745
21
-2.25
31
0
39
0
210
0
220
0
230
1
0
LINE
5
CA
100
AcDbEntity
8
2
62
256
6
ByLayer
370
18
48
1
60
0
100
AcDbLine
10
42
20
-39.624126
30
0
11
-21
21
-39.624126
31
0
39
0
210
0
220
0
230
1
0
LINE
5
CC
100
AcDbEntity
8
2
62
256
6
ByLayer
370
18
48
1
60
0
100
AcDbLine
10
-21
20
-2.7475
30
0
11
-21
21
-41.624126
31
0
39
0
210
0
220
0
230
1
0
LINE
5
CD
100
AcDbEntity
8
2
62
256
6
ByLayer
370
18
48
1
60
0
100
AcDbLine
10
42
20
-3.711626
30
0
11
42
21
-41.624126
31
0
39
0
210
0
220
0
230
1
0
LINE
5
CE
100
AcDbEntity
8
1
62
256
6
ByLayer
370
18
48
1
60
1
100
AcDbLine
10
-21
20
-39.624126
30
0
11
-17.500002
21
-39.163342
31
0
39
0
210
0
220
0
230
1
0
LINE
5
CF
100
AcDbEntity
8
1
62
256
6
ByLayer
370
18
48
1
60
1
100
AcDbLine
10
-17.500002
20
-39.163342
30
0
11
-17.499998
21
-40.084909
31
0
39
0
210
0
220
0
230
1
0
LINE
5
D0
100
AcDbEntity
8
1
62
256
6
ByLayer
370
18
48
1
60
1
100
AcDbLine
10
-17.499998
20
-40.084909
30
0
11
-21
21
-39.624126
31
0
39
0
210
0
220
0
230
1
0
LINE
5
D1
100
AcDbEntity
8
1
62
256
6
ByLayer
370
18
48
1
60
1
100
AcDbLine
10
42
20
-39.624126
30
0
11
38.500002
21
-40.084909
31
0
39
0
210
0
220
0
230
1
0
LINE
5
D2
100
AcDbEntity
8
1
62
256
6
ByLayer
370
18
48
1
60
1
100
AcDbLine
10
38.500002
20
-40.084909
30
0
11
38.499998
21
-39.163342
31
0
39
0
210
0
220
0
230
1
0
LINE
5
D3
100
AcDbEntity
8
1
62
256
6
ByLayer
370
18
48
1
60
1
100
AcDbLine
10
38.499998
20
-39.163342
30
0
11
42
21
-39.624126
31
0
39
0
210
0
220
0
230
1
0
LINE
5
1E9
100
AcDbEntity
8
1
62
256
6
ByLayer
370
18
48
1
60
1
100
AcDbLine
10
9.249745
20
2.25
30
0
11
8.788961
21
5.749998
31
0
39
0
210
0
220
0
230
1
0
LINE
5
1EA
100
AcDbEntity
8
1
62
256
6
ByLayer
370
18
48
1
60
1
100
AcDbLine
10
8.788961
20
5.749998
30
0
11
9.710529
21
5.750002
31
0
39
0
210
0
220
0
230
1
0
LINE
5
1EB
100
AcDbEntity
8
1
62
256
6
ByLayer
370
18
48
1
60
1
100
AcDbLine
10
9.710529
20
5.750002
30
0
11
9.249745
21
2.25
31
0
39
0
210
0
220
0
230
1
0
LINE
5
1ED
100
AcDbEntity
8
1
62
256
6
ByLayer
370
18
48
1
60
1
100
AcDbLine
10
9.249745
20
-2.25
30
0
11
9.710529
21
-5.749998
31
0
39
0
210
0
220
0
230
1
0
LINE
5
1EE
100
AcDbEntity
8
1
62
256
6
ByLayer
370
18
48
1
60
1
100
AcDbLine
10
9.710529
20
-5.749998
30
0
11
8.788961
21
-5.750002
31
0
39
0
210
0
220
0
230
1
0
LINE
5
1EF
100
AcDbEntity
8
1
62
256
6
ByLayer
370
18
48
1
60
1
100
AcDbLine
10
8.788961
20
-5.750002
30
0
11
9.249745
21
-2.25
31
0
39
0
210
0
220
0
230
1
0
LINE
5
1F2
100
AcDbEntity
8
1
62
256
6
ByLayer
370
18
48
1
60
1
100
AcDbLine
10
-21
20
-39.624126
30
0
11
-17.500002
21
-39.163342
31
0
39
0
210
0
220
0
230
1
0
LINE
5
1F3
100
AcDbEntity
8
1
62
256
6
ByLayer
370
18
48
1
60
1
100
AcDbLine
10
-17.500002
20
-39.163342
30
0
11
-17.499998
21
-40.084909
31
0
39
0
210
0
220
0
230
1
0
LINE
5
1F4
100
AcDbEntity
8
1
62
256
6
ByLayer
370
18
48
1
60
1
100
AcDbLine
10
-17.499998
20
-40.084909
30
0
11
-21
21
-39.624126
31
0
39
0
210
0
220
0
230
1
0
LINE
5
1F6
100
AcDbEntity
8
1
62
256
6
ByLayer
370
18
48
1
60
1
100
AcDbLine
10
42
20
-39.624126
30
0
11
38.500002
21
-40.084909
31
0
39
0
210
0
220
0
230
1
0
LINE
5
1F7
100
AcDbEntity
8
1
62
256
6
ByLayer
370
18
48
1
60
1
100
AcDbLine
10
38.500002
20
-40.084909
30
0
11
38.499998
21
-39.163342
31
0
39
0
210
0
220
0
230
1
0
LINE
5
1F8
100
AcDbEntity
8
1
62
256
6
ByLayer
370
18
48
1
60
1
100
AcDbLine
10
38.499998
20
-39.163342
30
0
11
42
21
-39.624126
31
0
39
0
210
0
220
0
230
1
0
MTEXT
5
1E5
100
AcDbEntity
8
SK2
62
256
6
ByLayer
370
18
48
1
60
0
100
AcDbMText
10
7.90863
20
7.908437
30
0
210
0
220
0
230
1
1
%%c
40
3
41
0
44
1.084337
50
90
71
7
72
5
7
iso_b_vert
0
MTEXT
5
1E8
100
AcDbEntity
8
SK2
62
256
6
ByLayer
370
18
48
1
60
0
100
AcDbMText
10
7.90863
20
13.885
30
0
210
0
220
0
230
1
1
\W0.7610;4.5
40
3
41
0
44
1.084337
50
90
71
7
72
5
7
iso_b_vert
0
MTEXT
5
1F1
100
AcDbEntity
8
2
62
256
6
ByLayer
370
18
48
1
60
0
100
AcDbMText
10
8.867172
20
-38.739011
30
0
210
0
220
0
230
1
1
\W0.6740;63
40
3
41
0
44
1.084337
50
0
71
7
72
5
7
iso_b_vert
0
MTEXT
5
1FA
100
AcDbEntity
8
SK6
62
256
6
ByLayer
370
18
48
1
60
0
100
AcDbMText
10
-8.254926
20
-82.114886
30
0
210
0
220
0
230
1
1
\W0.7194;T300-XM100DE-8-32   C110
40
3
41
0
44
1.084337
50
0
71
7
72
5
7
iso_b_vert
0
HATCH
5
1EC
100
AcDbEntity
8
SK2
62
256
6
ByLayer
370
13
48
1
60
0
100
AcDbHatch
10
0
20
0
30
0
210
0
220
0
230
1
2
ANSI31
70
0
71
0
91
1
92
5
93
3
72
1
10
9.24974493174227
20
2.25000000000003
11
8.7889611901895
21
5.74999830744684
72
1
10
8.7889611901895
20
5.74999830744684
11
9.71052867329504
21
5.75000169255321
72
1
10
9.71052867329504
20
5.75000169255321
11
9.24974493174227
21
2.25000000000003
97
0
75
0
76
1
52
0
41
0.0062
77
0
78
1
53
45
43
0
44
0
45
-0.0139193969876572
46
0.0139193969876572
79
0
47
0
98
1
10
0
20
0
0
HATCH
5
1F0
100
AcDbEntity
8
SK2
62
256
6
ByLayer
370
13
48
1
60
0
100
AcDbHatch
10
0
20
0
30
0
210
0
220
0
230
1
2
ANSI31
70
0
71
0
91
1
92
5
93
3
72
1
10
9.24974493174227
20
-2.24999999999997
11
9.71052867329504
21
-5.74999830744679
72
1
10
9.71052867329504
20
-5.74999830744679
11
8.7889611901895
21
-5.75000169255316
72
1
10
8.7889611901895
20
-5.75000169255316
11
9.24974493174227
21
-2.24999999999997
97
0
75
0
76
1
52
0
41
0.0062
77
0
78
1
53
45
43
0
44
0
45
-0.0139193969876572
46
0.0139193969876572
79
0
47
0
98
1
10
0
20
0
0
HATCH
5
1F5
100
AcDbEntity
8
2
62
256
6
ByLayer
370
13
48
1
60
0
100
AcDbHatch
10
0
20
0
30
0
210
0
220
0
230
1
2
ANSI31
70
0
71
0
91
1
92
5
93
3
72
1
10
-21
20
-39.6241257266734
11
-17.5000016925532
21
-39.1633419851206
72
1
10
-17.5000016925532
20
-39.1633419851206
11
-17.4999983074468
21
-40.0849094682262
72
1
10
-17.4999983074468
20
-40.0849094682262
11
-21
21
-39.6241257266734
97
0
75
0
76
1
52
0
41
0.0062
77
0
78
1
53
45
43
0
44
0
45
-0.0139193969876572
46
0.0139193969876572
79
0
47
0
98
1
10
0
20
0
0
HATCH
5
1F9
100
AcDbEntity
8
2
62
256
6
ByLayer
370
13
48
1
60
0
100
AcDbHatch
10
0
20
0
30
0
210
0
220
0
230
1
2
ANSI31
70
0
71
0
91
1
92
5
93
3
72
1
10
42
20
-39.6241257266734
11
38.5000016925532
21
-40.0849094682262
72
1
10
38.5000016925532
20
-40.0849094682262
11
38.4999983074468
21
-39.1633419851206
72
1
10
38.4999983074468
20
-39.1633419851206
11
42
21
-39.6241257266734
97
0
75
0
76
1
52
0
41
0.0062
77
0
78
1
53
45
43
0
44
0
45
-0.0139193969876572
46
0.0139193969876572
79
0
47
0
98
1
10
0
20
0
0
DIMENSION
5
1FD
100
AcDbEntity
8
2
62
256
6
ByLayer
370
18
48
1
60
0
100
AcDbDimension
2
_U0
10
60.665874
20
-2.124126
30
0
11
60.665874
21
20.740324
31
0
70
32
71
1
72
1
41
1
210
0
220
0
230
1
3
Standard
100
AcDbAlignedDimension
13
42
23
2.124126
33
0
14
42
24
-2.124126
34
0
50
90
100
AcDbRotatedDimension
1001
ACAD
1000
DSTYLE
1002
{
1070
   371
1070
    13
1070
   372
1070
    13
1070
     3
1000

1070
   170
1070
     0
1070
   144
1040
1.0
1070
   277
1070
     2
1070
   284
1070
     8
1070
   278
1070
    46
1070
   146
1040
1.166667
1070
   345
1005
16
1070
   347
1005
16
1070
   346
1005
16
1070
   344
1005
0
1070
   343
1005
0
1070
   172
1070
     1
1070
    76
1070
     0
1070
    75
1070
     0
1070
   282
1070
     0
1070
   281
1070
     0
1070
    71
1070
     0
1070
    74
1070
     0
1070
   279
1070
     0
1070
   173
1070
     1
1070
   340
1005
1E6
1070
   271
1070
     3
1070
   272
1070
     3
1070
    77
1070
     1
1070
    73
1070
     0
1070
   171
1070
     3
1070
   274
1070
     4
1070
   177
1070
     2
1070
   176
1070
     2
1070
   178
1070
     2
1070
    78
1070
     8
1070
    48
1040
-0.1
1070
    41
1040
3.5
1070
   147
1040
1.5
1070
    42
1040
1.5875
1070
    44
1040
2.0
1070
   140
1040
3.0
1002
}
1001
ACAD_DSTYLE_DIM_LINETYPE
1070
   380
1005
16
1001
ACAD_DSTYLE_DIM_EXT1_LINETYPE
1070
   381
1005
16
1001
ACAD_DSTYLE_DIM_EXT2_LINETYPE
1070
   382
1005
16
0
DIMENSION
5
218
100
AcDbEntity
8
SK2
62
256
6
ByLayer
370
18
48
1
60
0
100
AcDbDimension
2
_U1
10
39.82
20
11.172832
30
0
11
40.91
21
11.172832
31
0
70
32
71
1
72
1
41
1
210
0
220
0
230
1
3
Standard
100
AcDbAlignedDimension
13
42
23
2.124126
33
0
14
39.82
24
0
34
0
50
0
100
AcDbRotatedDimension
1001
ACAD
1000
DSTYLE
1002
{
1070
   371
1070
    13
1070
   372
1070
    13
1070
   170
1070
     0
1070
   144
1040
1.0
1070
   277
1070
     2
1070
   284
1070
     8
1070
   278
1070
    46
1070
   146
1040
1.166667
1070
   345
1005
16
1070
   347
1005
16
1070
   346
1005
16
1070
   344
1005
0
1070
   343
1005
0
1070
   172
1070
     1
1070
    76
1070
     0
1070
    75
1070
     0
1070
   282
1070
     0
1070
   281
1070
     0
1070
    71
1070
     0
1070
    74
1070
     0
1070
   279
1070
     0
1070
   173
1070
     1
1070
   340
1005
1E6
1070
   271
1070
     3
1070
   272
1070
     3
1070
    77
1070
     1
1070
    73
1070
     1
1070
   171
1070
     3
1070
   274
1070
     4
1070
   177
1070
     2
1070
   176
1070
     2
1070
   178
1070
     2
1070
    78
1070
     8
1070
    48
1040
-0.1
1070
    41
1040
3.5
1070
   147
1040
1.5
1070
    42
1040
1.5875
1070
    44
1040
2.0
1070
   140
1040
3.0
1002
}
1001
ACAD_DSTYLE_DIM_LINETYPE
1070
   380
1005
16
1001
ACAD_DSTYLE_DIM_EXT1_LINETYPE
1070
   381
1005
16
1001
ACAD_DSTYLE_DIM_EXT2_LINETYPE
1070
   382
1005
16
0
DIMENSION
5
232
100
AcDbEntity
8
SK2
62
256
6
ByLayer
370
18
48
1
60
0
100
AcDbDimension
2
_U2
10
35
20
-9.124126
30
0
11
54.5
21
-9.124126
31
0
70
32
71
1
72
1
41
1
210
0
220
0
230
1
3
Standard
100
AcDbAlignedDimension
13
42
23
-2.124126
33
0
14
35
24
-2.124126
34
0
50
0
100
AcDbRotatedDimension
1001
ACAD
1000
DSTYLE
1002
{
1070
   371
1070
    13
1070
   372
1070
    13
1070
   170
1070
     0
1070
   144
1040
1.0
1070
   277
1070
     2
1070
   284
1070
     8
1070
   278
1070
    46
1070
   146
1040
0.833333
1070
   345
1005
16
1070
   347
1005
16
1070
   346
1005
16
1070
   344
1005
0
1070
   343
1005
0
1070
   172
1070
     1
1070
    76
1070
     0
1070
    75
1070
     0
1070
   282
1070
     0
1070
   281
1070
     0
1070
    47
1040
0.5
1070
    72
1070
     0
1070
    71
1070
     1
1070
    74
1070
     0
1070
   279
1070
     0
1070
   173
1070
     1
1070
   340
1005
1E6
1070
   271
1070
     1
1070
   272
1070
     3
1070
    77
1070
     1
1070
    73
1070
     1
1070
   171
1070
     3
1070
   274
1070
     4
1070
   177
1070
     2
1070
   176
1070
     2
1070
   178
1070
     2
1070
    78
1070
     8
1070
    48
1040
0.5
1070
    41
1040
3.5
1070
   147
1040
1.5
1070
    42
1040
1.5875
1070
    44
1040
2.0
1070
   140
1040
3.0
1002
}
1001
ACAD_DSTYLE_DIM_LINETYPE
1070
   380
1005
16
1001
ACAD_DSTYLE_DIM_EXT1_LINETYPE
1070
   381
1005
16
1001
ACAD_DSTYLE_DIM_EXT2_LINETYPE
1070
   382
1005
16
0
DIMENSION
5
24D
100
AcDbEntity
8
SK2
62
256
6
ByLayer
370
18
48
1
60
0
100
AcDbDimension
2
_U3
10
21
20
-31.624126
30
0
11
31.5
21
-31.624126
31
0
70
32
71
1
72
1
41
1
210
0
220
0
230
1
3
Standard
100
AcDbAlignedDimension
13
42
23
-2.124126
33
0
14
21
24
-1.5111
34
0
50
0
100
AcDbRotatedDimension
1001
ACAD
1000
DSTYLE
1002
{
1070
   371
1070
    13
1070
   372
1070
    13
1070
   170
1070
     0
1070
   144
1040
1.0
1070
   277
1070
     2
1070
   284
1070
     8
1070
   278
1070
    46
1070
   146
1040
1.166667
1070
   345
1005
16
1070
   347
1005
16
1070
   346
1005
16
1070
   344
1005
0
1070
   343
1005
0
1070
   172
1070
     1
1070
    76
1070
     0
1070
    75
1070
     0
1070
   282
1070
     0
1070
   281
1070
     0
1070
    71
1070
     0
1070
    74
1070
     0
1070
   279
1070
     0
1070
   173
1070
     1
1070
   340
1005
1E6
1070
   271
1070
     1
1070
   272
1070
     3
1070
    77
1070
     1
1070
    73
1070
     1
1070
   171
1070
     3
1070
   274
1070
     4
1070
   177
1070
     2
1070
   176
1070
     2
1070
   178
1070
     2
1070
    78
1070
     8
1070
    48
1040
-0.1
1070
    41
1040
3.5
1070
   147
1040
1.5
1070
    42
1040
1.5875
1070
    44
1040
2.0
1070
   140
1040
3.0
1002
}
1001
ACAD_DSTYLE_DIM_LINETYPE
1070
   380
1005
16
1001
ACAD_DSTYLE_DIM_EXT1_LINETYPE
1070
   381
1005
16
1001
ACAD_DSTYLE_DIM_EXT2_LINETYPE
1070
   382
1005
16
0
DIMENSION
5
265
100
AcDbEntity
8
2
62
256
6
ByLayer
370
18
48
1
60
0
100
AcDbDimension
2
_U4
10
24.15
20
-20.624126
30
0
11
33.075
21
-20.624126
31
0
70
32
71
1
72
1
41
1
210
0
220
0
230
1
3
Standard
100
AcDbAlignedDimension
13
42
23
-2.124126
33
0
14
24.15
24
0
34
0
50
0
100
AcDbRotatedDimension
1001
ACAD
1000
DSTYLE
1002
{
1070
   371
1070
    13
1070
   372
1070
    13
1070
   170
1070
     0
1070
   144
1040
1.0
1070
   277
1070
     2
1070
   284
1070
     8
1070
   278
1070
    46
1070
   146
1040
1.166667
1070
   345
1005
16
1070
   347
1005
16
1070
   346
1005
16
1070
   344
1005
0
1070
   343
1005
0
1070
   172
1070
     1
1070
    76
1070
     0
1070
    75
1070
     0
1070
   282
1070
     0
1070
   281
1070
     0
1070
    71
1070
     0
1070
    74
1070
     0
1070
   279
1070
     0
1070
   173
1070
     1
1070
   340
1005
1E6
1070
   271
1070
     1
1070
   272
1070
     3
1070
    77
1070
     1
1070
    73
1070
     1
1070
   171
1070
     3
1070
   274
1070
     4
1070
   177
1070
     2
1070
   176
1070
     2
1070
   178
1070
     2
1070
    78
1070
     8
1070
    48
1040
-0.1
1070
    41
1040
3.5
1070
   147
1040
1.5
1070
    42
1040
1.5875
1070
    44
1040
2.0
1070
   140
1040
3.0
1002
}
1001
ACAD_DSTYLE_DIM_LINETYPE
1070
   380
1005
16
1001
ACAD_DSTYLE_DIM_EXT1_LINETYPE
1070
   381
1005
16
1001
ACAD_DSTYLE_DIM_EXT2_LINETYPE
1070
   382
1005
16
0
ENDSEC
0
SECTION
2
OBJECTS
0
DICTIONARY
5
2ed
330
0
100
AcDbDictionary
280
0
281
1
3
ACAD_GROUP
350
2ee
3
ACAD_MLINESTYLE
350
2ef
0
DICTIONARY
5
2ee
330
0
100
AcDbDictionary
280
0
281
1
0
DICTIONARY
5
2ef
330
0
100
AcDbDictionary
280
0
281
1
3
Standard
350
18
0
MLINESTYLE
5
18
330
2ef
100
AcDbMlineStyle
2
Standard
70
0
3

62
256
51
90
52
90
71
2
49
-0.5
62
256
6
ByLayer
49
0.5
62
256
6
ByLayer
0
RASTERVARIABLES
5
2db
330

100
AcDbRasterVariables
90
0
70
1
71
1
72
1
0
ENDSEC
0
EOF
