0
SECTION
2
HEADER
9
$ACADVER
1
AC1015
9
$DWGCODEPAGE
3
ANSI_1252
9
$HANDSEED
5
2de
9
$ANGBASE
50
0
9
$ANGDIR
70
0
9
$ATTMODE
70
1
9
$AUNITS
70
0
9
$AUPREC
70
0
9
$CECOLOR
62
256
9
$CELTSCALE
40
1
9
$CELTYPE
6
ByLayer
9
$CELWEIGHT
370
18
9
$CLAYER
8
0
9
$CMLJUST
70
0
9
$CMLSCALE
40
1
9
$CMLSTYLE
2
Standard
9
$DIMSTYLE
2
Standard
9
$TEXTSIZE
40
0.2
9
$TEXTSTYLE
7
Standard
9
$LUNITS
70
2
9
$LUPREC
70
4
9
$EXTNAMES
290
1
9
$INSUNITS
70
4
9
$LTSCALE
40
1
9
$LWDISPLAY
290
1
9
$PDMODE
70
0
9
$PDSIZE
40
0
9
$PLINEGEN
70
0
0
ENDSEC
0
SECTION
2
CLASSES
0
CLASS
1
RASTERVARIABLES
2
AcDbRasterVariables
3
ISM
90
0
280
0
281
0
0
ENDSEC
0
SECTION
2
TABLES
0
TABLE
2
VPORT
5
2d4
100
AcDbSymbolTable
0
VPORT
5
1
100
AcDbSymbolTableRecord
100
AcDbViewportTableRecord
2
*Active
70
0
10
0
20
0
11
1
21
1
12
-1
22
1
13
0
23
0
14
0.5
24
0.5
15
10
25
10
16
0
26
0
36
1
17
0
27
0
37
0
0
ENDTAB
0
TABLE
2
LTYPE
5
2d5
100
AcDbSymbolTable
0
LTYPE
5
14
100
AcDbSymbolTableRecord
100
AcDbLinetypeTableRecord
70
0
2
ByBlock
3

72
65
73
0
40
0
0
LTYPE
5
15
100
AcDbSymbolTableRecord
100
AcDbLinetypeTableRecord
70
0
2
ByLayer
3

72
65
73
0
40
0
0
LTYPE
5
16
100
AcDbSymbolTableRecord
100
AcDbLinetypeTableRecord
70
0
2
Continuous
3
Solid line
72
65
73
0
40
0
0
LTYPE
5
6E
100
AcDbSymbolTableRecord
100
AcDbLinetypeTableRecord
70
0
2
CENTER
3
____ _ ____ _ ____ _ ____
72
65
73
4
40
47.5
49
22
74
0
49
-8.5
74
0
49
8.5
74
0
49
-8.5
74
0
0
LTYPE
5
6F
100
AcDbSymbolTableRecord
100
AcDbLinetypeTableRecord
70
0
2
DASHED
3
__ __ __ __ __ __ __ __ __
72
65
73
2
40
25.72
49
12.86
74
0
49
-12.86
74
0
0
ENDTAB
0
TABLE
2
LAYER
5
2d6
100
AcDbSymbolTable
0
LAYER
5
10
100
AcDbSymbolTableRecord
100
AcDbLayerTableRecord
2
0
70
0
62
7
6
Continuous
290
1
370
-3
390
0
0
LAYER
5
71
100
AcDbSymbolTableRecord
100
AcDbLayerTableRecord
2
81
70
0
62
-3
6
Continuous
290
1
370
-3
390
0
0
LAYER
5
73
100
AcDbSymbolTableRecord
100
AcDbLayerTableRecord
2
80
70
0
62
-6
6
Continuous
290
1
370
-3
390
0
0
LAYER
5
75
100
AcDbSymbolTableRecord
100
AcDbLayerTableRecord
2
1
70
0
62
4
6
Continuous
290
1
370
-3
390
0
0
LAYER
5
81
100
AcDbSymbolTableRecord
100
AcDbLayerTableRecord
2
4
70
0
62
-2
6
CENTER
290
1
370
-3
390
0
0
LAYER
5
C1
100
AcDbSymbolTableRecord
100
AcDbLayerTableRecord
2
2
70
0
62
7
6
Continuous
290
1
370
-3
390
0
0
LAYER
5
1E4
100
AcDbSymbolTableRecord
100
AcDbLayerTableRecord
2
Defpoints
70
0
62
7
6
Continuous
290
0
370
-3
390
0
0
LAYER
5
2c0
100
AcDbSymbolTableRecord
100
AcDbLayerTableRecord
2
SK4
70
0
62
2
6
CENTER
290
1
370
-3
390
0
0
LAYER
5
2c1
100
AcDbSymbolTableRecord
100
AcDbLayerTableRecord
2
SK1
70
0
62
4
6
Continuous
290
1
370
-3
390
0
0
LAYER
5
2c2
100
AcDbSymbolTableRecord
100
AcDbLayerTableRecord
2
SK2
70
0
62
7
6
Continuous
290
1
370
-3
390
0
0
LAYER
5
2c3
100
AcDbSymbolTableRecord
100
AcDbLayerTableRecord
2
SK6
70
0
62
5
6
Continuous
290
1
370
-3
390
0
0
ENDTAB
0
TABLE
2
STYLE
5
2d7
100
AcDbSymbolTable
0
STYLE
5
11
100
AcDbSymbolTableRecord
100
AcDbTextStyleTableRecord
2
Standard
3
txt
70
0
71
0
40
0
41
1
42
0
50
0
0
STYLE
5
1CA
100
AcDbSymbolTableRecord
100
AcDbTextStyleTableRecord
2
iso_b_vert
3
simplex.shx
70
0
71
0
40
0
41
1
42
0
50
0
0
STYLE
5
1CB
100
AcDbSymbolTableRecord
100
AcDbTextStyleTableRecord
2
DWGDirectTextStyle
3
simplex
70
0
71
0
40
0
41
1
42
0
50
0
0
ENDTAB
0
TABLE
2
DIMSTYLE
5
2d8
100
AcDbSymbolTable
100
AcDbDimStyleTable
0
DIMSTYLE
105
27
100
AcDbSymbolTableRecord
100
AcDbDimStyleTableRecord
2
Standard
70
0
3
<>
41
0.18
42
0.0625
44
0.18
140
0.18
147
0.09
73
0
74
0
77
1
271
2
275
0
278
52
280
0
340
11
0
ENDTAB
0
TABLE
2
VIEW
5
2d9
100
AcDbSymbolTable
0
ENDTAB
0
TABLE
2
UCS
5
2da
100
AcDbSymbolTable
0
ENDTAB
0
TABLE
2
APPID
5
2db
100
AcDbSymbolTable
0
APPID
5
12
100
AcDbSymbolTableRecord
100
AcDbRegAppTableRecord
2
ACAD
70
0
0
APPID
5
1E0
100
AcDbSymbolTableRecord
100
AcDbRegAppTableRecord
2
ACAD_DSTYLE_DIMBREAK
70
0
0
APPID
5
27F
100
AcDbSymbolTableRecord
100
AcDbRegAppTableRecord
2
ACAD_DSTYLE_DIM_LINETYPE
70
0
0
APPID
5
280
100
AcDbSymbolTableRecord
100
AcDbRegAppTableRecord
2
ACAD_DSTYLE_DIM_EXT1_LINETYPE
70
0
0
APPID
5
281
100
AcDbSymbolTableRecord
100
AcDbRegAppTableRecord
2
ACAD_DSTYLE_DIM_EXT2_LINETYPE
70
0
0
APPID
5
2BC
100
AcDbSymbolTableRecord
100
AcDbRegAppTableRecord
2
ACAD_MLEADERVER
70
0
0
ENDTAB
0
TABLE
2
BLOCK_RECORD
5
2dc
100
AcDbSymbolTable
0
BLOCK_RECORD
5
1F
100
AcDbSymbolTableRecord
100
AcDbBlockTableRecord
2
*Model_Space
340
0
70
0
0
BLOCK_RECORD
5
1B
100
AcDbSymbolTableRecord
100
AcDbBlockTableRecord
2
*Paper_Space
340
0
70
0
0
BLOCK_RECORD
5
23
100
AcDbSymbolTableRecord
100
AcDbBlockTableRecord
2
*Paper_Space0
340
0
70
0
0
BLOCK_RECORD
5
1E5
100
AcDbSymbolTableRecord
100
AcDbBlockTableRecord
2
*D1
340
0
70
0
0
BLOCK_RECORD
5
1F3
100
AcDbSymbolTableRecord
100
AcDbBlockTableRecord
2
_U0
340
0
70
0
0
BLOCK_RECORD
5
1FF
100
AcDbSymbolTableRecord
100
AcDbBlockTableRecord
2
*D3
340
0
70
0
0
BLOCK_RECORD
5
20C
100
AcDbSymbolTableRecord
100
AcDbBlockTableRecord
2
_U1
340
0
70
0
0
BLOCK_RECORD
5
219
100
AcDbSymbolTableRecord
100
AcDbBlockTableRecord
2
*D5
340
0
70
0
0
BLOCK_RECORD
5
227
100
AcDbSymbolTableRecord
100
AcDbBlockTableRecord
2
_U2
340
0
70
0
0
BLOCK_RECORD
5
234
100
AcDbSymbolTableRecord
100
AcDbBlockTableRecord
2
*D7
340
0
70
0
0
BLOCK_RECORD
5
240
100
AcDbSymbolTableRecord
100
AcDbBlockTableRecord
2
_U3
340
0
70
0
0
BLOCK_RECORD
5
24C
100
AcDbSymbolTableRecord
100
AcDbBlockTableRecord
2
*D9
340
0
70
0
0
BLOCK_RECORD
5
258
100
AcDbSymbolTableRecord
100
AcDbBlockTableRecord
2
_U4
340
0
70
0
0
ENDTAB
0
ENDSEC
0
SECTION
2
BLOCKS
0
BLOCK
5
20
100
AcDbEntity
8
0
100
AcDbBlockBegin
2
*Model_Space
70
0
10
0
20
0
30
0
3
*Model_Space
0
ENDBLK
5
21
100
AcDbEntity
8
0
100
AcDbBlockEnd
0
BLOCK
5
1C
100
AcDbEntity
8
0
100
AcDbBlockBegin
2
*Paper_Space
70
0
10
0
20
0
30
0
3
*Paper_Space
0
ENDBLK
5
1D
100
AcDbEntity
8
0
100
AcDbBlockEnd
0
BLOCK
5
24
100
AcDbEntity
8
0
100
AcDbBlockBegin
2
*Paper_Space0
70
0
10
0
20
0
30
0
3
*Paper_Space0
0
ENDBLK
5
25
100
AcDbEntity
8
0
100
AcDbBlockEnd
0
BLOCK
5
1E6
100
AcDbEntity
8
0
100
AcDbBlockBegin
2
*D1
70
1
10
0
20
0
30
0
3
*D1
0
LINE
5
1E8
100
AcDbEntity
8
0
62
256
6
ByLayer
370
-2
48
1
60
0
100
AcDbLine
10
58.5875
20
3.229283
30
0
11
78.5
21
3.229283
31
0
39
0
210
0
220
0
230
1
0
LINE
5
1E9
100
AcDbEntity
8
0
62
256
6
ByLayer
370
-2
48
1
60
0
100
AcDbLine
10
58.5875
20
-3.229283
30
0
11
78.5
21
-3.229283
31
0
39
0
210
0
220
0
230
1
0
LINE
5
1EA
100
AcDbEntity
8
0
62
256
6
ByLayer
370
-2
48
1
60
0
100
AcDbLine
10
76.5
20
3.229283
30
0
11
76.5
21
34.563025
31
0
39
0
210
0
220
0
230
1
0
LINE
5
1EB
100
AcDbEntity
8
0
62
256
6
ByLayer
370
-2
48
1
60
0
100
AcDbLine
10
76.5
20
6.729283
30
0
11
76.5
21
10.229283
31
0
39
0
210
0
220
0
230
1
0
LINE
5
1EC
100
AcDbEntity
8
0
62
256
6
ByLayer
370
-2
48
1
60
0
100
AcDbLine
10
76.5
20
-6.729283
30
0
11
76.5
21
-10.229283
31
0
39
0
210
0
220
0
230
1
0
SOLID
5
1ED
100
AcDbEntity
8
0
62
256
6
ByLayer
370
-1
48
1
60
0
100
AcDbTrace
10
75.916667
20
6.729283
30
0
11
77.083333
21
6.729283
31
0
12
76.5
22
3.229283
32
0
13
76.5
23
3.229283
33
0
39
0
210
0
220
0
230
1
0
SOLID
5
1EE
100
AcDbEntity
8
0
62
256
6
ByLayer
370
-1
48
1
60
0
100
AcDbTrace
10
77.083333
20
-6.729283
30
0
11
75.916667
21
-6.729283
31
0
12
76.5
22
-3.229283
32
0
13
76.5
23
-3.229283
33
0
39
0
210
0
220
0
230
1
0
MTEXT
5
1EF
100
AcDbEntity
8
0
62
256
6
ByLayer
370
18
48
1
60
0
100
AcDbMText
10
70.5
20
24.205882
30
0
210
0
220
0
230
1
1
\A1;6.459
40
3
41
0
44
1
50
90
71
5
72
5
7
iso_b_vert
0
POINT
5
1F0
100
AcDbEntity
8
Defpoints
62
0
6
ByLayer
370
-1
48
1
60
0
100
AcDbPoint
10
57
20
3.229283
30
0
39
0
210
0
220
0
230
1
50
360
0
POINT
5
1F1
100
AcDbEntity
8
Defpoints
62
0
6
ByLayer
370
-1
48
1
60
0
100
AcDbPoint
10
57
20
-3.229283
30
0
39
0
210
0
220
0
230
1
50
360
0
POINT
5
1F2
100
AcDbEntity
8
Defpoints
62
0
6
ByLayer
370
-1
48
1
60
0
100
AcDbPoint
10
76.5
20
-3.229283
30
0
39
0
210
0
220
0
230
1
50
360
0
ENDBLK
5
1E7
100
AcDbEntity
8
0
100
AcDbBlockEnd
0
BLOCK
5
1FA
100
AcDbEntity
8
0
100
AcDbBlockBegin
2
_U0
70
0
10
0
20
0
30
0
3
_U0
0
MTEXT
5
1F4
100
AcDbEntity
8
2
62
256
6
ByLayer
370
18
48
1
60
0
100
AcDbMText
10
75.908886
20
13.364283
30
0
210
0
220
0
230
1
1
\W0.7278;UNC 1/4-20
40
3
41
0
44
1.084337
50
90
71
7
72
5
7
iso_b_vert
0
LINE
5
1F5
100
AcDbEntity
8
2
62
256
6
ByLayer
370
13
48
1
60
0
100
AcDbLine
10
58.5875
20
3.229283
30
0
11
78.5
21
3.229283
31
0
39
0
210
0
220
0
230
1
0
LINE
5
1F6
100
AcDbEntity
8
2
62
256
6
ByLayer
370
13
48
1
60
0
100
AcDbLine
10
58.5875
20
-3.229283
30
0
11
78.5
21
-3.229283
31
0
39
0
210
0
220
0
230
1
0
LINE
5
1F7
100
AcDbEntity
8
2
62
256
6
ByLayer
370
13
48
1
60
0
100
AcDbLine
10
76.5
20
-10.729283
30
0
11
76.5
21
35.18248
31
0
39
0
210
0
220
0
230
1
0
SOLID
5
1F8
100
AcDbEntity
8
2
62
256
6
ByLayer
370
18
48
1
60
0
100
AcDbTrace
10
76.5
20
3.229283
30
0
11
76.039216
21
6.729282
31
0
12
76.960784
22
6.729285
32
0
13
76.960784
23
6.729285
33
0
39
0
210
0
220
0
230
1
0
SOLID
5
1F9
100
AcDbEntity
8
2
62
256
6
ByLayer
370
18
48
1
60
0
100
AcDbTrace
10
76.5
20
-3.229283
30
0
11
76.960784
21
-6.729282
31
0
12
76.039216
22
-6.729285
32
0
13
76.039216
23
-6.729285
33
0
39
0
210
0
220
0
230
1
0
ENDBLK
5
1FB
100
AcDbEntity
8
0
100
AcDbBlockEnd
0
BLOCK
5
200
100
AcDbEntity
8
0
100
AcDbBlockBegin
2
*D3
70
1
10
0
20
0
30
0
3
*D3
0
LINE
5
202
100
AcDbEntity
8
0
62
256
6
ByLayer
370
-2
48
1
60
0
100
AcDbLine
10
57
20
4.816783
30
0
11
57
21
14.147372
31
0
39
0
210
0
220
0
230
1
0
LINE
5
203
100
AcDbEntity
8
0
62
256
6
ByLayer
370
-2
48
1
60
0
100
AcDbLine
10
53.51
20
1.5875
30
0
11
53.51
21
14.147372
31
0
39
0
210
0
220
0
230
1
0
LINE
5
204
100
AcDbEntity
8
0
62
256
6
ByLayer
370
-2
48
1
60
0
100
AcDbLine
10
60.5
20
12.147372
30
0
11
64
21
12.147372
31
0
39
0
210
0
220
0
230
1
0
LINE
5
205
100
AcDbEntity
8
0
62
256
6
ByLayer
370
-2
48
1
60
0
100
AcDbLine
10
50.01
20
12.147372
30
0
11
46.51
21
12.147372
31
0
39
0
210
0
220
0
230
1
0
SOLID
5
206
100
AcDbEntity
8
0
62
256
6
ByLayer
370
-1
48
1
60
0
100
AcDbTrace
10
60.5
20
12.730706
30
0
11
60.5
21
11.564039
31
0
12
57
22
12.147372
32
0
13
57
23
12.147372
33
0
39
0
210
0
220
0
230
1
0
SOLID
5
207
100
AcDbEntity
8
0
62
256
6
ByLayer
370
-1
48
1
60
0
100
AcDbTrace
10
50.01
20
11.564039
30
0
11
50.01
21
12.730706
31
0
12
53.51
22
12.147372
32
0
13
53.51
23
12.147372
33
0
39
0
210
0
220
0
230
1
0
MTEXT
5
208
100
AcDbEntity
8
0
62
256
6
ByLayer
370
18
48
1
60
0
100
AcDbMText
10
55.255
20
18.147372
30
0
210
0
220
0
230
1
1
\A1;3.49
40
3
41
0
44
1
50
0
71
5
72
5
7
iso_b_vert
0
POINT
5
209
100
AcDbEntity
8
Defpoints
62
0
6
ByLayer
370
-1
48
1
60
0
100
AcDbPoint
10
57
20
3.229283
30
0
39
0
210
0
220
0
230
1
50
360
0
POINT
5
20A
100
AcDbEntity
8
Defpoints
62
0
6
ByLayer
370
-1
48
1
60
0
100
AcDbPoint
10
53.51
20
0
30
0
39
0
210
0
220
0
230
1
50
360
0
POINT
5
20B
100
AcDbEntity
8
Defpoints
62
0
6
ByLayer
370
-1
48
1
60
0
100
AcDbPoint
10
53.51
20
12.147372
30
0
39
0
210
0
220
0
230
1
50
360
0
ENDBLK
5
201
100
AcDbEntity
8
0
100
AcDbBlockEnd
0
BLOCK
5
214
100
AcDbEntity
8
0
100
AcDbBlockBegin
2
_U1
70
0
10
0
20
0
30
0
3
_U1
0
MTEXT
5
20D
100
AcDbEntity
8
SK2
62
256
6
ByLayer
370
18
48
1
60
0
100
AcDbMText
10
51.762101
20
12.930006
30
0
210
0
220
0
230
1
1
\W0.6474;'C'
40
3.5
41
0
44
1.084337
50
0
71
7
72
5
7
iso_b_vert
0
MTEXT
5
20E
100
AcDbEntity
8
SK2
62
256
6
ByLayer
370
18
48
1
60
0
100
AcDbMText
10
51.735601
20
20.032487
30
0
210
0
220
0
230
1
1
\W0.7756;3.49
40
3
41
0
44
1.084337
50
0
71
7
72
5
7
iso_b_vert
0
LINE
5
20F
100
AcDbEntity
8
SK2
62
256
6
ByLayer
370
13
48
1
60
0
100
AcDbLine
10
57
20
4.816783
30
0
11
57
21
14.147372
31
0
39
0
210
0
220
0
230
1
0
LINE
5
210
100
AcDbEntity
8
SK2
62
256
6
ByLayer
370
13
48
1
60
0
100
AcDbLine
10
53.51
20
1.5875
30
0
11
53.51
21
14.147372
31
0
39
0
210
0
220
0
230
1
0
LINE
5
211
100
AcDbEntity
8
SK2
62
256
6
ByLayer
370
13
48
1
60
0
100
AcDbLine
10
64.5
20
12.147372
30
0
11
46.01
21
12.147372
31
0
39
0
210
0
220
0
230
1
0
SOLID
5
212
100
AcDbEntity
8
SK2
62
256
6
ByLayer
370
18
48
1
60
0
100
AcDbTrace
10
57
20
12.147372
30
0
11
60.499998
21
12.608156
31
0
12
60.500002
22
11.686588
32
0
13
60.500002
23
11.686588
33
0
39
0
210
0
220
0
230
1
0
SOLID
5
213
100
AcDbEntity
8
SK2
62
256
6
ByLayer
370
18
48
1
60
0
100
AcDbTrace
10
53.51
20
12.147372
30
0
11
50.010002
21
11.686588
31
0
12
50.009998
22
12.608156
32
0
13
50.009998
23
12.608156
33
0
39
0
210
0
220
0
230
1
0
ENDBLK
5
215
100
AcDbEntity
8
0
100
AcDbBlockEnd
0
BLOCK
5
21A
100
AcDbEntity
8
0
100
AcDbBlockBegin
2
*D5
70
1
10
0
20
0
30
0
3
*D5
0
LINE
5
21C
100
AcDbEntity
8
0
62
256
6
ByLayer
370
-2
48
1
60
0
100
AcDbLine
10
57
20
-4.816783
30
0
11
57
21
-12.229283
31
0
39
0
210
0
220
0
230
1
0
LINE
5
21D
100
AcDbEntity
8
0
62
256
6
ByLayer
370
-2
48
1
60
0
100
AcDbLine
10
47
20
-4.816783
30
0
11
47
21
-12.229283
31
0
39
0
210
0
220
0
230
1
0
LINE
5
21E
100
AcDbEntity
8
0
62
256
6
ByLayer
370
-2
48
1
60
0
100
AcDbLine
10
57
20
-10.229283
30
0
11
77.428571
21
-10.229283
31
0
39
0
210
0
220
0
230
1
0
LINE
5
21F
100
AcDbEntity
8
0
62
256
6
ByLayer
370
-2
48
1
60
0
100
AcDbLine
10
60.5
20
-10.229283
30
0
11
64
21
-10.229283
31
0
39
0
210
0
220
0
230
1
0
LINE
5
220
100
AcDbEntity
8
0
62
256
6
ByLayer
370
-2
48
1
60
0
100
AcDbLine
10
43.5
20
-10.229283
30
0
11
40
21
-10.229283
31
0
39
0
210
0
220
0
230
1
0
SOLID
5
221
100
AcDbEntity
8
0
62
256
6
ByLayer
370
-1
48
1
60
0
100
AcDbTrace
10
60.5
20
-9.64595
30
0
11
60.5
21
-10.812617
31
0
12
57
22
-10.229283
32
0
13
57
23
-10.229283
33
0
39
0
210
0
220
0
230
1
0
SOLID
5
222
100
AcDbEntity
8
0
62
256
6
ByLayer
370
-1
48
1
60
0
100
AcDbTrace
10
43.5
20
-10.812617
30
0
11
43.5
21
-9.64595
31
0
12
47
22
-10.229283
32
0
13
47
23
-10.229283
33
0
39
0
210
0
220
0
230
1
0
MTEXT
5
223
100
AcDbEntity
8
0
62
256
6
ByLayer
370
18
48
1
60
0
100
AcDbMText
10
70.714286
20
-4.229283
30
0
210
0
220
0
230
1
1
\A1;10
40
3
41
0
44
1
50
0
71
5
72
5
7
iso_b_vert
0
POINT
5
224
100
AcDbEntity
8
Defpoints
62
0
6
ByLayer
370
-1
48
1
60
0
100
AcDbPoint
10
57
20
-3.229283
30
0
39
0
210
0
220
0
230
1
50
360
0
POINT
5
225
100
AcDbEntity
8
Defpoints
62
0
6
ByLayer
370
-1
48
1
60
0
100
AcDbPoint
10
47
20
-3.229283
30
0
39
0
210
0
220
0
230
1
50
360
0
POINT
5
226
100
AcDbEntity
8
Defpoints
62
0
6
ByLayer
370
-1
48
1
60
0
100
AcDbPoint
10
47
20
-10.229283
30
0
39
0
210
0
220
0
230
1
50
360
0
ENDBLK
5
21B
100
AcDbEntity
8
0
100
AcDbBlockEnd
0
BLOCK
5
22F
100
AcDbEntity
8
0
100
AcDbBlockBegin
2
_U2
70
0
10
0
20
0
30
0
3
_U2
0
MTEXT
5
228
100
AcDbEntity
8
SK2
62
256
6
ByLayer
370
18
48
1
60
0
100
AcDbMText
10
63.159
20
-9.344169
30
0
210
0
220
0
230
1
1
\W0.5321;10
40
3
41
0
44
1.084337
50
0
71
7
72
5
7
iso_b_vert
0
MTEXT
5
229
100
AcDbEntity
8
SK2
62
256
6
ByLayer
370
18
48
1
60
0
100
AcDbMText
10
68.466271
20
-8.991688
30
0
210
0
220
0
230
1
1
\W0.8315;\W0.4158;%%p\W0.8315;0.5
40
2.5
41
0
44
1.084337
50
0
71
7
72
5
7
iso_b_vert
0
LINE
5
22A
100
AcDbEntity
8
SK2
62
256
6
ByLayer
370
13
48
1
60
0
100
AcDbLine
10
57
20
-4.816783
30
0
11
57
21
-12.229283
31
0
39
0
210
0
220
0
230
1
0
LINE
5
22B
100
AcDbEntity
8
SK2
62
256
6
ByLayer
370
13
48
1
60
0
100
AcDbLine
10
47
20
-4.816783
30
0
11
47
21
-12.229283
31
0
39
0
210
0
220
0
230
1
0
LINE
5
22C
100
AcDbEntity
8
SK2
62
256
6
ByLayer
370
13
48
1
60
0
100
AcDbLine
10
47
20
-10.229283
30
0
11
75.583008
21
-10.229283
31
0
39
0
210
0
220
0
230
1
0
SOLID
5
22D
100
AcDbEntity
8
SK2
62
256
6
ByLayer
370
18
48
1
60
0
100
AcDbTrace
10
57
20
-10.229283
30
0
11
53.500002
21
-10.690067
31
0
12
53.499998
22
-9.7685
32
0
13
53.499998
23
-9.7685
33
0
39
0
210
0
220
0
230
1
0
SOLID
5
22E
100
AcDbEntity
8
SK2
62
256
6
ByLayer
370
18
48
1
60
0
100
AcDbTrace
10
47
20
-10.229283
30
0
11
50.499998
21
-9.7685
31
0
12
50.500002
22
-10.690067
32
0
13
50.500002
23
-10.690067
33
0
39
0
210
0
220
0
230
1
0
ENDBLK
5
230
100
AcDbEntity
8
0
100
AcDbBlockEnd
0
BLOCK
5
235
100
AcDbEntity
8
0
100
AcDbBlockBegin
2
*D7
70
1
10
0
20
0
30
0
3
*D7
0
LINE
5
237
100
AcDbEntity
8
0
62
256
6
ByLayer
370
-2
48
1
60
0
100
AcDbLine
10
57
20
-4.816783
30
0
11
57
21
-34.729283
31
0
39
0
210
0
220
0
230
1
0
LINE
5
238
100
AcDbEntity
8
0
62
256
6
ByLayer
370
-2
48
1
60
0
100
AcDbLine
10
27
20
-3.8444
30
0
11
27
21
-34.729283
31
0
39
0
210
0
220
0
230
1
0
LINE
5
239
100
AcDbEntity
8
0
62
256
6
ByLayer
370
-2
48
1
60
0
100
AcDbLine
10
53.5
20
-32.729283
30
0
11
30.5
21
-32.729283
31
0
39
0
210
0
220
0
230
1
0
SOLID
5
23A
100
AcDbEntity
8
0
62
256
6
ByLayer
370
-1
48
1
60
0
100
AcDbTrace
10
53.5
20
-33.312617
30
0
11
53.5
21
-32.14595
31
0
12
57
22
-32.729283
32
0
13
57
23
-32.729283
33
0
39
0
210
0
220
0
230
1
0
SOLID
5
23B
100
AcDbEntity
8
0
62
256
6
ByLayer
370
-1
48
1
60
0
100
AcDbTrace
10
30.5
20
-32.14595
30
0
11
30.5
21
-33.312617
31
0
12
27
22
-32.729283
32
0
13
27
23
-32.729283
33
0
39
0
210
0
220
0
230
1
0
MTEXT
5
23C
100
AcDbEntity
8
0
62
256
6
ByLayer
370
18
48
1
60
0
100
AcDbMText
10
42
20
-26.729283
30
0
210
0
220
0
230
1
1
\A1;30
40
3
41
0
44
1
50
0
71
5
72
5
7
iso_b_vert
0
POINT
5
23D
100
AcDbEntity
8
Defpoints
62
0
6
ByLayer
370
-1
48
1
60
0
100
AcDbPoint
10
57
20
-3.229283
30
0
39
0
210
0
220
0
230
1
50
360
0
POINT
5
23E
100
AcDbEntity
8
Defpoints
62
0
6
ByLayer
370
-1
48
1
60
0
100
AcDbPoint
10
27
20
-2.2569
30
0
39
0
210
0
220
0
230
1
50
360
0
POINT
5
23F
100
AcDbEntity
8
Defpoints
62
0
6
ByLayer
370
-1
48
1
60
0
100
AcDbPoint
10
27
20
-32.729283
30
0
39
0
210
0
220
0
230
1
50
360
0
ENDBLK
5
236
100
AcDbEntity
8
0
100
AcDbBlockEnd
0
BLOCK
5
247
100
AcDbEntity
8
0
100
AcDbBlockBegin
2
_U3
70
0
10
0
20
0
30
0
3
_U3
0
MTEXT
5
241
100
AcDbEntity
8
SK2
62
256
6
ByLayer
370
18
48
1
60
0
100
AcDbMText
10
40.367172
20
-31.844169
30
0
210
0
220
0
230
1
1
\W0.6740;30
40
3
41
0
44
1.084337
50
0
71
7
72
5
7
iso_b_vert
0
LINE
5
242
100
AcDbEntity
8
SK2
62
256
6
ByLayer
370
13
48
1
60
0
100
AcDbLine
10
57
20
-4.816783
30
0
11
57
21
-34.729283
31
0
39
0
210
0
220
0
230
1
0
LINE
5
243
100
AcDbEntity
8
SK2
62
256
6
ByLayer
370
13
48
1
60
0
100
AcDbLine
10
27
20
-3.8444
30
0
11
27
21
-34.729283
31
0
39
0
210
0
220
0
230
1
0
LINE
5
244
100
AcDbEntity
8
SK2
62
256
6
ByLayer
370
13
48
1
60
0
100
AcDbLine
10
57
20
-32.729283
30
0
11
27
21
-32.729283
31
0
39
0
210
0
220
0
230
1
0
SOLID
5
245
100
AcDbEntity
8
SK2
62
256
6
ByLayer
370
18
48
1
60
0
100
AcDbTrace
10
57
20
-32.729283
30
0
11
53.500002
21
-33.190067
31
0
12
53.499998
22
-32.2685
32
0
13
53.499998
23
-32.2685
33
0
39
0
210
0
220
0
230
1
0
SOLID
5
246
100
AcDbEntity
8
SK2
62
256
6
ByLayer
370
18
48
1
60
0
100
AcDbTrace
10
27
20
-32.729283
30
0
11
30.499998
21
-32.2685
31
0
12
30.500002
22
-33.190067
32
0
13
30.500002
23
-33.190067
33
0
39
0
210
0
220
0
230
1
0
ENDBLK
5
248
100
AcDbEntity
8
0
100
AcDbBlockEnd
0
BLOCK
5
24D
100
AcDbEntity
8
0
100
AcDbBlockBegin
2
*D9
70
1
10
0
20
0
30
0
3
*D9
0
LINE
5
24F
100
AcDbEntity
8
0
62
256
6
ByLayer
370
-2
48
1
60
0
100
AcDbLine
10
57
20
-4.816783
30
0
11
57
21
-23.729283
31
0
39
0
210
0
220
0
230
1
0
LINE
5
250
100
AcDbEntity
8
0
62
256
6
ByLayer
370
-2
48
1
60
0
100
AcDbLine
10
31.5
20
-1.5875
30
0
11
31.5
21
-23.729283
31
0
39
0
210
0
220
0
230
1
0
LINE
5
251
100
AcDbEntity
8
0
62
256
6
ByLayer
370
-2
48
1
60
0
100
AcDbLine
10
53.5
20
-21.729283
30
0
11
35
21
-21.729283
31
0
39
0
210
0
220
0
230
1
0
SOLID
5
252
100
AcDbEntity
8
0
62
256
6
ByLayer
370
-1
48
1
60
0
100
AcDbTrace
10
53.5
20
-22.312617
30
0
11
53.5
21
-21.14595
31
0
12
57
22
-21.729283
32
0
13
57
23
-21.729283
33
0
39
0
210
0
220
0
230
1
0
SOLID
5
253
100
AcDbEntity
8
0
62
256
6
ByLayer
370
-1
48
1
60
0
100
AcDbTrace
10
35
20
-21.14595
30
0
11
35
21
-22.312617
31
0
12
31.5
22
-21.729283
32
0
13
31.5
23
-21.729283
33
0
39
0
210
0
220
0
230
1
0
MTEXT
5
254
100
AcDbEntity
8
0
62
256
6
ByLayer
370
18
48
1
60
0
100
AcDbMText
10
44.25
20
-15.729283
30
0
210
0
220
0
230
1
1
\A1;25.5
40
3
41
0
44
1
50
0
71
5
72
5
7
iso_b_vert
0
POINT
5
255
100
AcDbEntity
8
Defpoints
62
0
6
ByLayer
370
-1
48
1
60
0
100
AcDbPoint
10
57
20
-3.229283
30
0
39
0
210
0
220
0
230
1
50
360
0
POINT
5
256
100
AcDbEntity
8
Defpoints
62
0
6
ByLayer
370
-1
48
1
60
0
100
AcDbPoint
10
31.5
20
0
30
0
39
0
210
0
220
0
230
1
50
360
0
POINT
5
257
100
AcDbEntity
8
Defpoints
62
0
6
ByLayer
370
-1
48
1
60
0
100
AcDbPoint
10
31.5
20
-21.729283
30
0
39
0
210
0
220
0
230
1
50
360
0
ENDBLK
5
24E
100
AcDbEntity
8
0
100
AcDbBlockEnd
0
BLOCK
5
25F
100
AcDbEntity
8
0
100
AcDbBlockBegin
2
_U4
70
0
10
0
20
0
30
0
3
_U4
0
MTEXT
5
259
100
AcDbEntity
8
2
62
256
6
ByLayer
370
18
48
1
60
0
100
AcDbMText
10
40.888544
20
-20.844169
30
0
210
0
220
0
230
1
1
\W0.7346;25.5
40
3
41
0
44
1.084337
50
0
71
7
72
5
7
iso_b_vert
0
LINE
5
25A
100
AcDbEntity
8
2
62
256
6
ByLayer
370
13
48
1
60
0
100
AcDbLine
10
57
20
-4.816783
30
0
11
57
21
-23.729283
31
0
39
0
210
0
220
0
230
1
0
LINE
5
25B
100
AcDbEntity
8
2
62
256
6
ByLayer
370
13
48
1
60
0
100
AcDbLine
10
31.5
20
-1.5875
30
0
11
31.5
21
-23.729283
31
0
39
0
210
0
220
0
230
1
0
LINE
5
25C
100
AcDbEntity
8
2
62
256
6
ByLayer
370
13
48
1
60
0
100
AcDbLine
10
57
20
-21.729283
30
0
11
31.5
21
-21.729283
31
0
39
0
210
0
220
0
230
1
0
SOLID
5
25D
100
AcDbEntity
8
2
62
256
6
ByLayer
370
18
48
1
60
0
100
AcDbTrace
10
57
20
-21.729283
30
0
11
53.500002
21
-22.190067
31
0
12
53.499998
22
-21.2685
32
0
13
53.499998
23
-21.2685
33
0
39
0
210
0
220
0
230
1
0
SOLID
5
25E
100
AcDbEntity
8
2
62
256
6
ByLayer
370
18
48
1
60
0
100
AcDbTrace
10
31.5
20
-21.729283
30
0
11
34.999998
21
-21.2685
31
0
12
35.000002
22
-22.190067
32
0
13
35.000002
23
-22.190067
33
0
39
0
210
0
220
0
230
1
0
ENDBLK
5
260
100
AcDbEntity
8
0
100
AcDbBlockEnd
0
ENDSEC
0
SECTION
2
ENTITIES
0
ARC
5
CA
100
AcDbEntity
8
SK1
62
256
6
ByLayer
370
18
48
1
60
0
100
AcDbCircle
39
0
10
-17.45
20
0
30
0
40
2.87999999999977
210
0
220
0
230
1
100
AcDbArc
50
328.287282
51
31.712718
0
ARC
5
CB
100
AcDbEntity
8
1
62
256
6
ByLayer
370
18
48
1
60
0
100
AcDbCircle
39
0
10
44.847834
20
3.3569
30
0
40
1.1
210
0
220
0
230
1
100
AcDbArc
50
270
51
289.637375
0
ARC
5
CC
100
AcDbEntity
8
1
62
256
6
ByLayer
370
18
48
1
60
0
100
AcDbCircle
39
0
10
27.096238
20
-3.3569
30
0
40
1.1
210
0
220
0
230
1
100
AcDbArc
50
90
51
100
0
ARC
5
CD
100
AcDbEntity
8
1
62
256
6
ByLayer
370
18
48
1
60
0
100
AcDbCircle
39
0
10
27.096238
20
3.3569
30
0
40
1.1
210
0
220
0
230
1
100
AcDbArc
50
260
51
270
0
POINT
5
70
100
AcDbEntity
8
81
62
256
6
ByLayer
370
18
48
1
60
0
100
AcDbPoint
10
58.55
20
0
30
0
39
0
210
0
220
0
230
1
50
360
0
POINT
5
72
100
AcDbEntity
8
80
62
256
6
ByLayer
370
18
48
1
60
0
100
AcDbPoint
10
0
20
0
30
0
39
0
210
0
220
0
230
1
50
360
0
POINT
5
74
100
AcDbEntity
8
1
62
256
6
ByLayer
370
18
48
1
60
1
100
AcDbPoint
10
57
20
3.229283
30
0
39
0
210
0
220
0
230
1
50
360
0
POINT
5
76
100
AcDbEntity
8
1
62
256
6
ByLayer
370
18
48
1
60
1
100
AcDbPoint
10
57
20
-3.229283
30
0
39
0
210
0
220
0
230
1
50
360
0
POINT
5
77
100
AcDbEntity
8
1
62
256
6
ByLayer
370
18
48
1
60
1
100
AcDbPoint
10
57
20
3.229283
30
0
39
0
210
0
220
0
230
1
50
360
0
POINT
5
78
100
AcDbEntity
8
1
62
256
6
ByLayer
370
18
48
1
60
1
100
AcDbPoint
10
53.51
20
0
30
0
39
0
210
0
220
0
230
1
50
360
0
POINT
5
79
100
AcDbEntity
8
1
62
256
6
ByLayer
370
18
48
1
60
1
100
AcDbPoint
10
57
20
-3.229283
30
0
39
0
210
0
220
0
230
1
50
360
0
POINT
5
7A
100
AcDbEntity
8
1
62
256
6
ByLayer
370
18
48
1
60
1
100
AcDbPoint
10
47
20
-3.229283
30
0
39
0
210
0
220
0
230
1
50
360
0
POINT
5
7B
100
AcDbEntity
8
1
62
256
6
ByLayer
370
18
48
1
60
1
100
AcDbPoint
10
57
20
-3.229283
30
0
39
0
210
0
220
0
230
1
50
360
0
POINT
5
7C
100
AcDbEntity
8
1
62
256
6
ByLayer
370
18
48
1
60
1
100
AcDbPoint
10
27
20
-2.2569
30
0
39
0
210
0
220
0
230
1
50
360
0
POINT
5
7D
100
AcDbEntity
8
1
62
256
6
ByLayer
370
18
48
1
60
1
100
AcDbPoint
10
57
20
-3.229283
30
0
39
0
210
0
220
0
230
1
50
360
0
POINT
5
7E
100
AcDbEntity
8
1
62
256
6
ByLayer
370
18
48
1
60
1
100
AcDbPoint
10
31.5
20
0
30
0
39
0
210
0
220
0
230
1
50
360
0
SPLINE
5
CE
100
AcDbEntity
8
1
62
256
6
ByLayer
370
18
48
1
60
0
100
AcDbSpline
70
4
71
3
72
10
73
6
40
0
40
0
40
0
40
0
40
0.462077347277585
40
0.462077347277585
40
1
40
1
40
1
40
1
41
1
10
56.3691214383618
20
2.45008617167878
30
0
41
1
10
56.3716620326979
20
2.45550521621158
30
0
41
1
10
56.3742118932773
20
2.46033408333199
30
0
41
1
10
56.3797434637978
20
2.469472941991
30
0
41
1
10
56.3827181159539
20
2.47355347486047
30
0
41
1
10
56.3856926270615
20
2.47679853344778
30
0
0
SPLINE
5
CF
100
AcDbEntity
8
1
62
256
6
ByLayer
370
13
48
1
60
0
100
AcDbSpline
70
4
71
3
72
8
73
4
40
0
40
0
40
0
40
0
40
1
40
1
40
1
40
1
41
1.04
10
55.4950424756838
20
-2.48762150735703
30
0
41
1.04
10
55.4858491620553
20
-2.50351049607426
30
0
41
1.04
10
55.4766200895156
20
-2.51178065957406
30
0
41
1.04
10
55.467357386047
20
-2.51195245535871
30
0
0
SPLINE
5
D0
100
AcDbEntity
8
1
62
256
6
ByLayer
370
18
48
1
60
0
100
AcDbSpline
70
4
71
3
72
8
73
4
40
0
40
0
40
0
40
0
40
1
40
1
40
1
40
1
41
1
10
48.143769550782
20
-2.49727325691313
30
0
41
1
10
48.1418177565347
20
-2.49464541639401
30
0
41
1
10
48.1398672728919
20
-2.49165959831504
30
0
41
1
10
48.1379180129279
20
-2.48832029364138
30
0
0
SPLINE
5
D1
100
AcDbEntity
8
1
62
256
6
ByLayer
370
13
48
1
60
0
100
AcDbSpline
70
4
71
3
72
8
73
4
40
0
40
0
40
0
40
0
40
1
40
1
40
1
40
1
41
1
10
48.1379180129267
20
-2.48832029363936
30
0
41
1
10
48.13622568816
20
-2.48542114826776
30
0
41
1
10
48.1345342857424
20
-2.48225556202598
30
0
41
1
10
48.1328437487896
20
-2.47882647379185
30
0
0
SPLINE
5
D2
100
AcDbEntity
8
1
62
256
6
ByLayer
370
18
48
1
60
0
100
AcDbSpline
70
4
71
3
72
11
73
7
40
0
40
0
40
0
40
0
40
0.534484096032991
40
0.843610277817073
40
0.843610277817073
40
1
40
1
40
1
40
1
41
1
10
55.3788815518794
20
-2.68633613827754
30
0
41
1
10
55.3760498475245
20
-2.69143807566942
30
0
41
1
10
55.3715710443121
20
-2.69832771134676
30
0
41
1
10
55.3670722244644
20
-2.70334307540395
30
0
41
1
10
55.3645846125262
20
-2.70572623076296
30
0
41
1
10
55.3637476678763
20
-2.70646166271283
30
0
41
1
10
55.36291048211
20
-2.70713088126155
30
0
0
SPLINE
5
D3
100
AcDbEntity
8
1
62
256
6
ByLayer
370
18
48
1
60
0
100
AcDbSpline
70
4
71
3
72
8
73
4
40
0
40
0
40
0
40
0
40
1
40
1
40
1
40
1
41
1
10
55.3522605864629
20
-2.71205274621107
30
0
41
1
10
55.3483841865521
20
-2.7125367504533
30
0
41
1
10
55.3445072635246
20
-2.71159452374076
30
0
41
1
10
55.340619287988
20
-2.7092374400417
30
0
0
SPLINE
5
D4
100
AcDbEntity
8
1
62
256
6
ByLayer
370
18
48
1
60
0
100
AcDbSpline
70
4
71
3
72
13
73
9
40
0
40
0
40
0
40
0
40
0.720910404894477
40
0.720910404894477
40
0.901138006118095
40
0.991251806729902
40
0.991251806729902
40
1
40
1
40
1
40
1
41
1
10
54.6718051545242
20
-2.7733019325172
30
0
41
1
10
54.6845581364979
20
-2.82230212011351
30
0
41
1
10
54.6973331561927
20
-2.85347633837168
30
0
41
1
10
54.7134900410753
20
-2.86961260518012
30
0
41
1
10
54.718345246752
20
-2.87273451317466
30
0
41
1
10
54.7232131638913
20
-2.87323740902391
30
0
41
1
10
54.7249952449752
20
-2.87309882014048
30
0
41
1
10
54.7251529768826
20
-2.87308377556988
30
0
41
1
10
54.7253107389694
20
-2.87306595098047
30
0
0
SPLINE
5
D5
100
AcDbEntity
8
1
62
256
6
ByLayer
370
13
48
1
60
0
100
AcDbSpline
70
4
71
3
72
9
73
5
40
0
40
0
40
0
40
0
40
0.70021723663411
40
1
40
1
40
1
40
1
41
1
10
50.0836747422881
20
2.50657577020741
30
0
41
1
10
50.0742459945708
20
2.51414985523181
30
0
41
1
10
50.0607264926745
20
2.5133044426266
30
0
41
1
10
50.0470965185467
20
2.4951301418173
30
0
41
1
10
50.0430017506172
20
2.48812844043528
30
0
0
SPLINE
5
D6
100
AcDbEntity
8
1
62
256
6
ByLayer
370
13
48
1
60
0
100
AcDbSpline
70
4
71
3
72
9
73
5
40
0
40
0
40
0
40
0
40
0.0200968586789389
40
1
40
1
40
1
40
1
41
1
10
54.487216337497
20
-2.48676994533429
30
0
41
1
10
54.4869855928713
20
-2.48636343641135
30
0
41
1
10
54.4755037795336
20
-2.46588850324659
30
0
41
1
10
54.4640122041143
20
-2.43309810406208
30
0
41
1
10
54.4527558893358
20
-2.39000509069066
30
0
0
SPLINE
5
D7
100
AcDbEntity
8
1
62
256
6
ByLayer
370
13
48
1
60
0
100
AcDbSpline
70
4
71
3
72
9
73
5
40
0
40
0
40
0
40
0
40
0.638634280367014
40
1
40
1
40
1
40
1
41
1.04
10
51.0983269164016
20
2.33545557262221
30
0
41
1.04
10
51.0878416702937
20
2.38327220179937
30
0
41
1.04
10
51.0715858300909
20
2.44282512419781
30
0
41
1.04
10
51.0556151444873
20
2.47823380198892
30
0
41
1.04
10
51.0498764468387
20
2.48795623336774
30
0
0
SPLINE
5
D8
100
AcDbEntity
8
1
62
256
6
ByLayer
370
13
48
1
60
0
100
AcDbSpline
70
4
71
3
72
9
73
5
40
0
40
0
40
0
40
0
40
0.552028699424019
40
1
40
1
40
1
40
1
41
1.04
10
47.8729450484743
20
-2.49056605821382
30
0
41
1.04
10
47.858090450612
20
-2.51429318172359
30
0
41
1.04
10
47.8313180207309
20
-2.52102959257506
30
0
41
1.04
10
47.8047942590183
20
-2.46084237543937
30
0
41
1.04
10
47.7929424080769
20
-2.4214590168036
30
0
0
SPLINE
5
D9
100
AcDbEntity
8
1
62
256
6
ByLayer
370
13
48
1
60
0
100
AcDbSpline
70
4
71
3
72
8
73
4
40
0
40
0
40
0
40
0
40
1
40
1
40
1
40
1
41
1
10
46.8683973357267
20
-2.4880832348295
30
0
41
1
10
46.8384069801767
20
-2.43721127579568
30
0
41
1
10
46.808554826857
20
-2.30510298628713
30
0
41
1
10
46.7785670358268
20
-2.10099930303167
30
0
0
SPLINE
5
DA
100
AcDbEntity
8
1
62
256
6
ByLayer
370
18
48
1
60
0
100
AcDbSpline
70
4
71
3
72
8
73
4
40
0
40
0
40
0
40
0
40
1
40
1
40
1
40
1
41
1.04
10
54.2274919445224
20
-2.48302087861241
30
0
41
1.04
10
54.2253422093288
20
-2.48702568693267
30
0
41
1.04
10
54.2231934928854
20
-2.49061005922509
30
0
41
1.04
10
54.2210456424827
20
-2.49377293997293
30
0
0
SPLINE
5
DB
100
AcDbEntity
8
1
62
256
6
ByLayer
370
13
48
1
60
0
100
AcDbSpline
70
4
71
3
72
9
73
5
40
0
40
0
40
0
40
0
40
0.474955197288106
40
1
40
1
40
1
40
1
41
1.04
10
54.2210456424826
20
-2.49377293997299
30
0
41
1.04
10
54.2039279107179
20
-2.51898016305483
30
0
41
1.04
10
54.1680029976735
20
-2.51568656829749
30
0
41
1.04
10
54.131979252866
20
-2.39134702187609
30
0
41
1.04
10
54.1131034914499
20
-2.29668456472322
30
0
0
SPLINE
5
DC
100
AcDbEntity
8
1
62
256
6
ByLayer
370
18
48
1
60
0
100
AcDbSpline
70
4
71
3
72
24
73
20
40
0
40
0
40
0
40
0
40
0.0387324952345491
40
0.0387324952345491
40
0.0824264727238876
40
0.0824264727238876
40
0.126120450213226
40
0.300896360170581
40
0.300896360170581
40
0.475672270127935
40
0.475672270127935
40
0.563060225106612
40
0.606754202595951
40
0.606754202595951
40
0.65044818008529
40
0.65044818008529
40
0.825224090042645
40
0.825224090042645
40
1
40
1
40
1
40
1
41
1
10
53.8636918271462
20
-3.09440364613448
30
0
41
1
10
53.8621219030858
20
-3.09498603928932
30
0
41
1
10
53.8605514193003
20
-3.09529901379156
30
0
41
1
10
53.8572068205185
20
-3.09538562542301
30
0
41
1
10
53.8554330357359
20
-3.09508365859583
30
0
41
1
10
53.8519004239413
20
-3.09379082602209
30
0
41
1
10
53.8430948574119
20
-3.08883582413173
30
0
41
1
10
53.8343638817225
20
-3.07539271819709
30
0
41
1
10
53.8202781737314
20
-3.04341035925899
30
0
41
1
10
53.8132064515618
20
-3.0221737569216
30
0
41
1
10
53.8024973892171
20
-2.98258375964721
30
0
41
1
10
53.7971122168427
20
-2.96085932663237
30
0
41
1
10
53.7917075592098
20
-2.93615163674798
30
0
41
1
10
53.7881016571572
20
-2.91900559973448
30
0
41
1
10
53.7862952345246
20
-2.91008428386101
30
0
41
1
10
53.7772974545567
20
-2.86397098736055
30
0
41
1
10
53.7702025092799
20
-2.82219250899652
30
0
41
1
10
53.7560946878535
20
-2.72908826806105
30
0
41
1
10
53.7490522684665
20
-2.67780898329494
30
0
41
1
10
53.7419363744182
20
-2.62174399410438
30
0
0
SPLINE
5
DD
100
AcDbEntity
8
1
62
256
6
ByLayer
370
18
48
1
60
0
100
AcDbSpline
70
4
71
3
72
21
73
17
40
0
40
0
40
0
40
0
40
0.188603507781876
40
0.188603507781876
40
0.377207015563753
40
0.377207015563753
40
0.424357892509222
40
0.424357892509222
40
0.47150876945469
40
0.565810523345626
40
0.565810523345626
40
0.754414031127496
40
0.754414031127496
40
0.943017538909365
40
0.943017538909365
40
1
40
1
40
1
40
1
41
1
10
53.4915336365888
20
-2.52923149783686
30
0
41
1
10
53.4982959636688
20
-2.59377297119698
30
0
41
1
10
53.5049354146694
20
-2.65358237445929
30
0
41
1
10
53.5182195826064
20
-2.76401654665048
30
0
41
1
10
53.5248989749919
20
-2.8146913652304
30
0
41
1
10
53.5333150290388
20
-2.87212360632921
30
0
41
1
10
53.5350038079698
20
-2.88332787032707
30
0
41
1
10
53.5383777379307
20
-2.90506095973035
30
0
41
1
10
53.5434291989544
20
-2.93662397133508
30
0
41
1
10
53.5484600524129
20
-2.96511248119256
30
0
41
1
10
53.5585243192131
20
-3.01807085316094
30
0
41
1
10
53.5652444366303
20
-3.04803812645631
30
0
41
1
10
53.5788673356211
20
-3.0975111367392
30
0
41
1
10
53.5857471808349
20
-3.11697901662251
30
0
41
1
10
53.5947555237221
20
-3.13519330073936
30
0
41
1
10
53.5968506307984
20
-3.13892026768872
30
0
41
1
10
53.598947624207
20
-3.14213681522943
30
0
0
SPLINE
5
DE
100
AcDbEntity
8
1
62
256
6
ByLayer
370
18
48
1
60
0
100
AcDbSpline
70
4
71
3
72
12
73
8
40
0
40
0
40
0
40
0
40
0.0353813608509762
40
0.0353813608509762
40
0.532151861508162
40
0.532151861508162
40
1
40
1
40
1
40
1
41
1
10
53.6023274031849
20
-3.14687583359228
30
0
41
1
10
53.6025747076509
20
-3.14718996118685
30
0
41
1
10
53.6028220155953
20
-3.14749691406217
30
0
41
1
10
53.6065416175641
20
-3.15200543915864
30
0
41
1
10
53.6099926997748
20
-3.15477386895557
30
0
41
1
10
53.6166494262077
20
-3.15740186367398
30
0
41
1
10
53.6198558640999
20
-3.15742334215292
30
0
41
1
10
53.6230421953889
20
-3.15620322311432
30
0
0
SPLINE
5
DF
100
AcDbEntity
8
1
62
256
6
ByLayer
370
18
48
1
60
0
100
AcDbSpline
70
4
71
3
72
8
73
4
40
0
40
0
40
0
40
0
40
1
40
1
40
1
40
1
41
1
10
53.2205401439745
20
-2.49199196270183
30
0
41
1
10
53.2178817208471
20
-2.48790493689168
30
0
41
1
10
53.2152340611836
20
-2.48318913047817
30
0
41
1
10
53.2125968133465
20
-2.47786173099902
30
0
0
SPLINE
5
E0
100
AcDbEntity
8
1
62
256
6
ByLayer
370
13
48
1
60
0
100
AcDbSpline
70
4
71
3
72
8
73
4
40
0
40
0
40
0
40
0
40
1
40
1
40
1
40
1
41
1
10
53.2125968133466
20
-2.477861730999
30
0
41
1
10
53.1725904585625
20
-2.39704648464951
30
0
41
1
10
53.134980082694
20
-2.17549088818365
30
0
41
1
10
53.0985381637186
20
-1.87319446178108
30
0
0
SPLINE
5
E1
100
AcDbEntity
8
1
62
256
6
ByLayer
370
13
48
1
60
0
100
AcDbSpline
70
4
71
3
72
10
73
6
40
0
40
0
40
0
40
0
40
0.003301696554461
40
0.863957139365702
40
1
40
1
40
1
40
1
41
1.04
10
46.5834680471297
20
-2.5104479412622
30
0
41
1.04
10
46.5833079587315
20
-2.51050643501347
30
0
41
1.04
10
46.5414192471853
20
-2.52518848922019
30
0
41
1.04
10
46.4934572068567
20
-2.35320400323253
30
0
41
1.04
10
46.4452788823479
20
-1.99629648100248
30
0
41
1.04
10
46.4387026383206
20
-1.94447888249548
30
0
0
SPLINE
5
E2
100
AcDbEntity
8
1
62
256
6
ByLayer
370
13
48
1
60
0
100
AcDbSpline
70
4
71
3
72
9
73
5
40
0
40
0
40
0
40
0
40
0.465116854492763
40
1
40
1
40
1
40
1
41
1
10
51.4381780085875
20
2.22629047790045
30
0
41
1
10
51.4197950462578
20
2.33175547048234
30
0
41
1
10
51.3808792346512
20
2.49564027548465
30
0
41
1
10
51.3435717123641
20
2.52333147518513
30
0
41
1
10
51.323873642425
20
2.50270731004025
30
0
0
SPLINE
5
E3
100
AcDbEntity
8
1
62
256
6
ByLayer
370
18
48
1
60
0
100
AcDbSpline
70
4
71
3
72
8
73
4
40
0
40
0
40
0
40
0
40
1
40
1
40
1
40
1
41
1
10
51.3238736823996
20
2.50270735189417
30
0
41
1
10
51.3206336193296
20
2.49931496677587
30
0
41
1
10
51.3174005121595
20
2.49496384161296
30
0
41
1
10
51.3141734573151
20
2.48966968270224
30
0
0
SPLINE
5
E4
100
AcDbEntity
8
1
62
256
6
ByLayer
370
13
48
1
60
0
100
AcDbSpline
70
4
71
3
72
9
73
5
40
0
40
0
40
0
40
0
40
0.456898340880761
40
1
40
1
40
1
40
1
41
1.04
10
52.4527011048219
20
1.7604491286652
30
0
41
1.04
10
52.4337428658843
20
1.92805290526374
30
0
41
1.04
10
52.3922347483378
20
2.2442200575631
30
0
41
1.04
10
52.3505884083671
20
2.42343237789047
30
0
41
1.04
10
52.3275975578841
20
2.47329141872489
30
0
0
SPLINE
5
E5
100
AcDbEntity
8
1
62
256
6
ByLayer
370
18
48
1
60
0
100
AcDbSpline
70
4
71
3
72
8
73
4
40
0
40
0
40
0
40
0
40
1
40
1
40
1
40
1
41
1.04
10
52.3275977259787
20
2.47329105418627
30
0
41
1.04
10
52.3245809118936
20
2.47983349013082
30
0
41
1.04
10
52.3215576813986
20
2.48555855438892
30
0
41
1.04
10
52.318527284656
20
2.49045026137244
30
0
0
SPLINE
5
E6
100
AcDbEntity
8
1
62
256
6
ByLayer
370
18
48
1
60
0
100
AcDbSpline
70
4
71
3
72
26
73
22
40
0
40
0
40
0
40
0
40
0.0941506557356405
40
0.245125546446367
40
0.245125546446367
40
0.320612991801731
40
0.320612991801731
40
0.358356714479413
40
0.358356714479413
40
0.396100437157095
40
0.396100437157095
40
0.547075327867821
40
0.547075327867821
40
0.698050218578547
40
0.698050218578547
40
0.849025109289274
40
0.849025109289274
40
0.886768831966955
40
0.886768831966955
40
0.924512554644637
40
1
40
1
40
1
40
1
41
1
10
51.7549624583294
20
3.22928597012086
30
0
41
1
10
51.7592927158468
20
3.22928853951603
30
0
41
1
10
51.7705546163812
20
3.2234231965337
30
0
41
1
10
51.7818706686561
20
3.20250321069574
30
0
41
1
10
51.7924111933331
20
3.17454586803757
30
0
41
1
10
51.7959391040446
20
3.16378557550394
30
0
41
1
10
51.801255008155
20
3.14544884221945
30
0
41
1
10
51.803030696448
20
3.13897035429542
30
0
41
1
10
51.8065887219407
20
3.12527272739115
30
0
41
1
10
51.8083734767942
20
3.11804271543346
30
0
41
1
10
51.8172668633624
20
3.08021916838828
30
0
41
1
10
51.8243018860708
20
3.04455434472658
30
0
41
1
10
51.8382607956824
20
2.96276357448832
30
0
41
1
10
51.8451856661669
20
2.91663662354856
30
0
41
1
10
51.8590495063328
20
2.81392887173129
30
0
41
1
10
51.8659891033497
20
2.75734891525866
30
0
41
1
10
51.8747824824805
20
2.67988515066094
30
0
41
1
10
51.876549715073
20
2.66403126465895
30
0
41
1
10
51.880081590895
20
2.63180289213841
30
0
41
1
10
51.8853798645371
20
2.582655666519
30
0
41
1
10
51.8906745097273
20
2.53112371337261
30
0
41
1
10
51.8941988504975
20
2.49572657722473
30
0
0
SPLINE
5
E7
100
AcDbEntity
8
1
62
256
6
ByLayer
370
18
48
1
60
0
100
AcDbSpline
70
4
71
3
72
27
73
23
40
0
40
0
40
0
40
0
40
0.0624999999999995
40
0.0937499999999993
40
0.0937499999999993
40
0.124999999999999
40
0.124999999999999
40
0.249999999999999
40
0.374999999999999
40
0.499999999999999
40
0.499999999999999
40
0.562499999999999
40
0.562499999999999
40
0.624999999999999
40
0.624999999999999
40
0.75
40
0.75
40
0.875
40
0.875
40
0.9375
40
0.9375
40
1
40
1
40
1
40
1
41
1
10
46.3274831124521
20
-2.94096450328524
30
0
41
1
10
46.325038349253
20
-2.9393061835118
30
0
41
1
10
46.3213586766939
20
-2.93513793768074
30
0
41
1
10
46.3176598447736
20
-2.92840974242671
30
0
41
1
10
46.315189519285
20
-2.92334905063709
30
0
41
1
10
46.3139505070336
20
-2.920526913419
30
0
41
1
10
46.3077654517969
20
-2.90501679795747
30
0
41
1
10
46.2979605496432
20
-2.87136026924745
30
0
41
1
10
46.2834462099883
20
-2.79517603815142
30
0
41
1
10
46.2738064539428
20
-2.72729796090951
30
0
41
1
10
46.2665383884097
20
-2.66980947318601
30
0
41
1
10
46.2641065764525
20
-2.64952551224488
30
0
41
1
10
46.2592294531732
20
-2.60680092711908
30
0
41
1
10
46.2567992057853
20
-2.58449483712337
30
0
41
1
10
46.2495154605825
20
-2.51479653305819
30
0
41
1
10
46.2446690958021
20
-2.46463079589145
30
0
41
1
10
46.2348949882604
20
-2.35700640016071
30
0
41
1
10
46.229972870312
20
-2.29955014879189
30
0
41
1
10
46.2225538639639
20
-2.20786447894645
30
0
41
1
10
46.2200742175082
20
-2.17638381088031
30
0
41
1
10
46.2150960659381
20
-2.11155544104827
30
0
41
1
10
46.2125958319901
20
-2.07818391024506
30
0
41
1
10
46.2100839869931
20
-2.04390504663903
30
0
0
SPLINE
5
E8
100
AcDbEntity
8
1
62
256
6
ByLayer
370
18
48
1
60
0
100
AcDbSpline
70
4
71
3
72
11
73
7
40
0
40
0
40
0
40
0
40
0.0588708649384649
40
0.470762393917886
40
0.953907600566401
40
1
40
1
40
1
40
1
41
1
10
57
20
0.0778016515343154
30
0
41
1
10
57
20
0.0517947059302344
30
0
41
1
10
57
20
-0.156485209459873
30
0
41
1
10
56.9999999999999
20
-0.581366249992101
30
0
41
1
10
57
20
-0.971051789486779
30
0
41
1
10
57
20
-1.16924705222644
30
0
41
1
10
57
20
-1.18634382122121
30
0
0
SPLINE
5
E9
100
AcDbEntity
8
1
62
256
6
ByLayer
370
18
48
1
60
0
100
AcDbSpline
70
4
71
3
72
10
73
6
40
0
40
0
40
0
40
0
40
0.396420040772845
40
0.79518144675975
40
1
40
1
40
1
40
1
41
1
10
56.7000000374373
20
-1.19912875790283
30
0
41
1
10
56.7000000424287
20
-1.01762767627122
30
0
41
1
10
56.6999999956995
20
-0.626882931207859
30
0
41
1
10
56.6999999369387
20
-0.101189192214406
30
0
41
1
10
56.699999923607
20
0.213712273505564
30
0
41
1
10
56.6999999208013
20
0.319362755486395
30
0
0
SPLINE
5
EA
100
AcDbEntity
8
1
62
256
6
ByLayer
370
18
48
1
60
0
100
AcDbSpline
70
4
71
3
72
24
73
20
40
0
40
0
40
0
40
0
40
0.125000000000001
40
0.125000000000001
40
0.250000000000003
40
0.250000000000003
40
0.312500000000002
40
0.312500000000002
40
0.375000000000002
40
0.375000000000002
40
0.500000000000002
40
0.500000000000002
40
0.625000000000001
40
0.625000000000001
40
0.750000000000001
40
0.750000000000001
40
0.875
40
0.875
40
1
40
1
40
1
40
1
41
1
10
56.5436894877014
20
0.446179353461446
30
0
41
1
10
56.5486670419579
20
0.377318578555475
30
0
41
1
10
56.5538448396191
20
0.307823053827093
30
0
41
1
10
56.564196407026
20
0.168271885792137
30
0
41
1
10
56.5693669763212
20
0.098252658758895
30
0
41
1
10
56.5766709124496
20
-0.0069406126318654
30
0
41
1
10
56.5790156861525
20
-0.0420013837539557
30
0
41
1
10
56.5835268343839
20
-0.111788449394339
30
0
41
1
10
56.585700124618
20
-0.146562068150843
30
0
41
1
10
56.5920347146153
20
-0.250525560260087
30
0
41
1
10
56.5960111854678
20
-0.31935899429854
30
0
41
1
10
56.6037530923408
20
-0.456067758202238
30
0
41
1
10
56.6075143274305
20
-0.523943514333581
30
0
41
1
10
56.6151327268504
20
-0.658696207224267
30
0
41
1
10
56.6190246217521
20
-0.725568331148992
30
0
41
1
10
56.6275076074824
20
-0.858228875514897
30
0
41
1
10
56.6320395960797
20
-0.923614110121264
30
0
41
1
10
56.6412666776295
20
-1.05181610756992
30
0
41
1
10
56.6460001192943
20
-1.11468232094373
30
0
41
1
10
56.650100846675
20
-1.17610559111367
30
0
0
SPLINE
5
EB
100
AcDbEntity
8
1
62
256
6
ByLayer
370
13
48
1
60
0
100
AcDbSpline
70
4
71
3
72
9
73
5
40
0
40
0
40
0
40
0
40
0.922896575994708
40
1
40
1
40
1
40
1
41
1.04
10
52.904308910722
20
-2.49539125719353
30
0
41
1.04
10
52.8566143674502
20
-2.42893824174982
30
0
41
1.04
10
52.8086940499975
20
-2.13673160050041
30
0
41
1.04
10
52.7624655032187
20
-1.72159814547462
30
0
41
1.04
10
52.7589106340148
20
-1.68890812186551
30
0
0
SPLINE
5
EC
100
AcDbEntity
8
1
62
256
6
ByLayer
370
13
48
1
60
0
100
AcDbSpline
70
4
71
3
72
10
73
6
40
0
40
0
40
0
40
0
40
0.0491573477079098
40
0.905992816019654
40
1
40
1
40
1
40
1
41
1
10
51.8896030047842
20
-2.28610470088384
30
0
41
1
10
51.8871206236682
20
-2.27332244220125
30
0
41
1
10
51.8414659077237
20
-2.02894667549026
30
0
41
1
10
51.7939732705765
20
-1.58977346457397
30
0
41
1
10
51.7486636678704
20
-1.08565081704498
30
0
41
1
10
51.7441916560073
20
-1.03515873136897
30
0
0
SPLINE
5
ED
100
AcDbEntity
8
1
62
256
6
ByLayer
370
18
48
1
60
0
100
AcDbSpline
70
4
71
3
72
28
73
24
40
0
40
0
40
0
40
0
40
0.0624999999999991
40
0.0624999999999991
40
0.124999999999998
40
0.124999999999998
40
0.249999999999999
40
0.249999999999999
40
0.374999999999999
40
0.374999999999999
40
0.437499999999999
40
0.437499999999999
40
0.5
40
0.5
40
0.625
40
0.625
40
0.750000000000001
40
0.750000000000001
40
0.875000000000002
40
0.875000000000002
40
0.937500000000001
40
0.937500000000001
40
1
40
1
40
1
40
1
41
1
10
56.6192732084228
20
-1.16164493488404
30
0
41
1
10
56.6154344940516
20
-1.12968027760559
30
0
41
1
10
56.6117380094638
20
-1.09726335894447
30
0
41
1
10
56.6043901764023
20
-1.03157882002037
30
0
41
1
10
56.6007461856306
20
-0.998351120476372
30
0
41
1
10
56.5897662626876
20
-0.898091636374772
30
0
41
1
10
56.582339715406
20
-0.830287749729308
30
0
41
1
10
56.5669443711865
20
-0.692840206795466
30
0
41
1
10
56.5589527757328
20
-0.623199199887722
30
0
41
1
10
56.5469982093532
20
-0.517261957817823
30
0
41
1
10
56.5430131708858
20
-0.481704849673207
30
0
41
1
10
56.5350710028669
20
-0.410090564507868
30
0
41
1
10
56.5311061794151
20
-0.373963665938049
30
0
41
1
10
56.5193416745863
20
-0.265306288596236
30
0
41
1
10
56.5117140760665
20
-0.192905151670175
30
0
41
1
10
56.4970469032201
20
-0.048160435868482
30
0
41
1
10
56.4900600595772
20
0.0241877520122102
30
0
41
1
10
56.4765874848652
20
0.168818000462323
30
0
41
1
10
56.470030703901
20
0.24109378642396
30
0
41
1
10
56.4600492655729
20
0.349409700991657
30
0
41
1
10
56.456699354003
20
0.385498837820251
30
0
41
1
10
56.4499049273609
20
0.457639889381824
30
0
41
1
10
56.4464543972531
20
0.493728971290835
30
0
41
1
10
56.4429644756183
20
0.529599539281435
30
0
0
SPLINE
5
EE
100
AcDbEntity
8
1
62
256
6
ByLayer
370
18
48
1
60
0
100
AcDbSpline
70
4
71
3
72
22
73
18
40
0
40
0
40
0
40
0
40
0.250000000000001
40
0.250000000000001
40
0.375000000000001
40
0.375000000000001
40
0.4375
40
0.4375
40
0.499999999999999
40
0.499999999999999
40
0.749999999999999
40
0.749999999999999
40
0.812499999999999
40
0.812499999999999
40
0.874999999999999
40
0.874999999999999
40
1
40
1
40
1
40
1
41
1
10
55.4594237283527
20
1.37067200117059
30
0
41
1
10
55.4718729144898
20
1.22545414955778
30
0
41
1
10
55.4840353795757
20
1.07404728116472
30
0
41
1
10
55.5023839050592
20
0.838129154919386
30
0
41
1
10
55.5085205812151
20
0.758013530279555
30
0
41
1
10
55.5178123557412
20
0.635580035205123
30
0
41
1
10
55.5209314665753
20
0.594290445715501
30
0
41
1
10
55.5271482694603
20
0.511701865254395
30
0
41
1
10
55.5302499448173
20
0.470351256990909
30
0
41
1
10
55.5457366203619
20
0.263321372732037
30
0
41
1
10
55.5580621391027
20
0.0968199148057352
30
0
41
1
10
55.5734397837689
20
-0.11242689551176
30
0
41
1
10
55.5765174899201
20
-0.15433209439459
30
0
41
1
10
55.5826945078612
20
-0.238253814236714
30
0
41
1
10
55.5857995003254
20
-0.280346817975698
30
0
41
1
10
55.5951263564834
20
-0.406233519266721
30
0
41
1
10
55.6013379776106
20
-0.489307933182545
30
0
41
1
10
55.6075707939583
20
-0.571541712149184
30
0
0
SPLINE
5
EF
100
AcDbEntity
8
1
62
256
6
ByLayer
370
13
48
1
60
0
100
AcDbSpline
70
4
71
3
72
8
73
4
40
0
40
0
40
0
40
0
40
1
40
1
40
1
40
1
41
1
10
55.5014778009701
20
-0.409604502797606
30
0
41
1
10
55.451654208465
20
0.199650150017817
30
0
41
1
10
55.4039728559113
20
0.818605219532373
30
0
41
1
10
55.3557315848046
20
1.32820311928094
30
0
0
SPLINE
5
F0
100
AcDbEntity
8
1
62
256
6
ByLayer
370
13
48
1
60
0
100
AcDbSpline
70
4
71
3
72
9
73
5
40
0
40
0
40
0
40
0
40
0.552430090642615
40
1
40
1
40
1
40
1
41
1
10
52.7925693420397
20
1.56331156321332
30
0
41
1
10
52.765906332935
20
1.82239628057019
30
0
41
1
10
52.7176481469874
20
2.21538645770784
30
0
41
1
10
52.6692040740028
20
2.42219543880833
30
0
41
1
10
52.6471923053055
20
2.47128491855929
30
0
0
SPLINE
5
F1
100
AcDbEntity
8
1
62
256
6
ByLayer
370
13
48
1
60
0
100
AcDbSpline
70
4
71
3
72
9
73
5
40
0
40
0
40
0
40
0
40
0.759429586824297
40
1
40
1
40
1
40
1
41
1.04
10
53.8072146571562
20
0.882013931485413
30
0
41
1.04
10
53.7721903193744
20
1.29058935313078
30
0
41
1.04
10
53.7246468225703
20
1.79198206163773
30
0
41
1.04
10
53.6739339496013
20
2.14086140573038
30
0
41
1.04
10
53.6615635886671
20
2.21353047378186
30
0
0
SPLINE
5
F2
100
AcDbEntity
8
1
62
256
6
ByLayer
370
18
48
1
60
0
100
AcDbSpline
70
4
71
3
72
22
73
18
40
0
40
0
40
0
40
0
40
0.249999999999999
40
0.249999999999999
40
0.312499999999999
40
0.312499999999999
40
0.374999999999999
40
0.374999999999999
40
0.499999999999999
40
0.499999999999999
40
0.749999999999998
40
0.749999999999998
40
0.812499999999999
40
0.812499999999999
40
0.874999999999999
40
0.874999999999999
40
1
40
1
40
1
40
1
41
1
10
53.3826465171599
20
1.32689602606902
30
0
41
1
10
53.3707881351024
20
1.49299569953075
30
0
41
1
10
53.3591907353456
20
1.65172915099907
30
0
41
1
10
53.3447722662937
20
1.84079019715165
30
0
41
1
10
53.341890239263
20
1.87813292479768
30
0
41
1
10
53.3361145822063
20
1.95186894904882
30
0
41
1
10
53.3332155190133
20
1.98832714468446
30
0
41
1
10
53.3245487284566
20
2.09534217218445
30
0
41
1
10
53.3187929185402
20
2.16379290477246
30
0
41
1
10
53.3013437193782
20
2.36087955707177
30
0
41
1
10
53.2893680051107
20
2.48138958937602
30
0
41
1
10
53.2742530450038
20
2.61789740694672
30
0
41
1
10
53.2712256316759
20
2.64448947990115
30
0
41
1
10
53.2651654523797
20
2.69623421110228
30
0
41
1
10
53.2621299004353
20
2.72140580472003
30
0
41
1
10
53.2530809030341
20
2.79413587798996
30
0
41
1
10
53.2470777225933
20
2.83916801879045
30
0
41
1
10
53.241150845862
20
2.88070355081632
30
0
0
SPLINE
5
F3
100
AcDbEntity
8
1
62
256
6
ByLayer
370
13
48
1
60
0
100
AcDbSpline
70
4
71
3
72
8
73
4
40
0
40
0
40
0
40
0
40
1
40
1
40
1
40
1
41
1.04
10
55.161650740998
20
-0.148180963195443
30
0
41
1.04
10
55.1122374939964
20
0.463189934159741
30
0
41
1.04
10
55.0645590331874
20
1.06758262594503
30
0
41
1.04
10
55.0158832739181
20
1.54459695526061
30
0
0
SPLINE
5
F4
100
AcDbEntity
8
1
62
256
6
ByLayer
370
13
48
1
60
0
100
AcDbSpline
70
4
71
3
72
9
73
5
40
0
40
0
40
0
40
0
40
0.788871508900075
40
1
40
1
40
1
40
1
41
1.04
10
47.4864516434974
20
0.533415513906076
30
0
41
1.04
10
47.4473769088678
20
1.00758038312984
30
0
41
1.04
10
47.3995017260311
20
1.54988867477302
30
0
41
1.04
10
47.3517280245262
20
1.93926987981971
30
0
41
1.04
10
47.3416390240478
20
2.013997814488
30
0
0
SPLINE
5
F5
100
AcDbEntity
8
1
62
256
6
ByLayer
370
18
48
1
60
0
100
AcDbSpline
70
4
71
3
72
27
73
23
40
0
40
0
40
0
40
0
40
0.124999999999999
40
0.249999999999998
40
0.249999999999998
40
0.281249999999998
40
0.281249999999998
40
0.312499999999999
40
0.312499999999999
40
0.375
40
0.375
40
0.500000000000001
40
0.500000000000001
40
0.625000000000002
40
0.625000000000002
40
0.687500000000003
40
0.687500000000003
40
0.718750000000003
40
0.718750000000003
40
0.750000000000002
40
0.875000000000001
40
1
40
1
40
1
40
1
41
1
10
47.0570668018087
20
0.897523791506217
30
0
41
1
10
47.0500666335999
20
1.00453117052908
30
0
41
1
10
47.0361457923237
20
1.21456404305619
30
0
41
1
10
47.0222561004864
20
1.41667487959566
30
0
41
1
10
47.0135351585748
20
1.54045041811338
30
0
41
1
10
47.0117889142273
20
1.56507800777609
30
0
41
1
10
47.0082907793703
20
1.61407507272716
30
0
41
1
10
47.0065396729583
20
1.63843291529176
30
0
41
1
10
47.0013063478237
20
1.71069071200813
30
0
41
1
10
46.9978339685475
20
1.75791862127832
30
0
41
1
10
46.9874448827596
20
1.89682386821866
30
0
41
1
10
46.9805570173076
20
1.98573000186917
30
0
41
1
10
46.9667278911254
20
2.15624733951046
30
0
41
1
10
46.9597809365769
20
2.23785833678295
30
0
41
1
10
46.9492234447689
20
2.35470303634318
30
0
41
1
10
46.9456850741236
20
2.39272098158554
30
0
41
1
10
46.9403510700263
20
2.44832294073981
30
0
41
1
10
46.9385687985104
20
2.46661652417674
30
0
41
1
10
46.9350166347704
20
2.50251286555664
30
0
41
1
10
46.926153531904
20
2.59066221565485
30
0
41
1
10
46.9103633831206
20
2.73522596600799
30
0
41
1
10
46.8964960014434
20
2.84411537739524
30
0
41
1
10
46.8895645847981
20
2.89360967244349
30
0
0
SPLINE
5
F6
100
AcDbEntity
8
1
62
256
6
ByLayer
370
13
48
1
60
0
100
AcDbSpline
70
4
71
3
72
9
73
5
40
0
40
0
40
0
40
0
40
0.911477532908764
40
1
40
1
40
1
40
1
41
1
10
54.1469456506086
20
0.6311689342009
30
0
41
1
10
54.1047466614078
20
1.13987509717307
30
0
41
1
10
54.0569495825771
20
1.67234312341938
30
0
41
1
10
54.0058792327508
20
2.04584775753526
30
0
41
1
10
54.001333385067
20
2.07753800924522
30
0
0
SPLINE
5
F7
100
AcDbEntity
8
1
62
256
6
ByLayer
370
18
48
1
60
0
100
AcDbSpline
70
4
71
3
72
26
73
22
40
0
40
0
40
0
40
0
40
0.125000000000002
40
0.125000000000002
40
0.250000000000004
40
0.250000000000004
40
0.312500000000005
40
0.312500000000005
40
0.375000000000005
40
0.375000000000005
40
0.500000000000005
40
0.625000000000005
40
0.625000000000005
40
0.750000000000005
40
0.750000000000005
40
0.781250000000005
40
0.781250000000005
40
0.812500000000005
40
0.875000000000003
40
0.875000000000003
40
1
40
1
40
1
40
1
41
1
10
54.2781669225402
20
2.35508547192404
30
0
41
1
10
54.2845979371614
20
2.29488454115688
30
0
41
1
10
54.2910399471861
20
2.23111308571484
30
0
41
1
10
54.3040605490869
20
2.09661494108653
30
0
41
1
10
54.3106600042209
20
2.02591710332149
30
0
41
1
10
54.3206584131025
20
1.9145566766322
30
0
41
1
10
54.3240057630381
20
1.87654686006562
30
0
41
1
10
54.3307208761582
20
1.79870053946064
30
0
41
1
10
54.334093589736
20
1.75879935847675
30
0
41
1
10
54.3441221138729
20
1.63766979023202
30
0
41
1
10
54.3573204396638
20
1.47156827299631
30
0
41
1
10
54.3702244333533
20
1.29652511347766
30
0
41
1
10
54.3830901446053
20
1.11705172103638
30
0
41
1
10
54.3895080699066
20
1.02510433983218
30
0
41
1
10
54.3976103314237
20
0.907353786485345
30
0
41
1
10
54.399236460349
20
0.883637462391363
30
0
41
1
10
54.4024842811599
20
0.836137628483783
30
0
41
1
10
54.4073533408744
20
0.764729646119207
30
0
41
1
10
54.4122251409052
20
0.692851976460531
30
0
41
1
10
54.4220008010129
20
0.548477681471297
30
0
41
1
10
54.4285748106424
20
0.451405240433275
30
0
41
1
10
54.4352231576985
20
0.353503050569202
30
0
0
SPLINE
5
F8
100
AcDbEntity
8
1
62
256
6
ByLayer
370
18
48
1
60
0
100
AcDbSpline
70
4
71
3
72
24
73
20
40
0
40
0
40
0
40
0
40
0.125000000000003
40
0.125000000000003
40
0.250000000000006
40
0.375000000000008
40
0.375000000000008
40
0.406250000000009
40
0.406250000000009
40
0.437500000000009
40
0.500000000000009
40
0.500000000000009
40
0.750000000000003
40
0.750000000000003
40
0.812500000000002
40
0.812500000000002
40
0.875000000000001
40
0.875000000000001
40
1
40
1
40
1
40
1
41
1
10
54.9700090371717
20
-0.0961015916230963
30
0
41
1
10
54.9631270221544
20
-0.0035642243579446
30
0
41
1
10
54.9563389271152
20
0.0885413413047615
30
0
41
1
10
54.9428515116389
20
0.271912009583076
30
0
41
1
10
54.9294299612487
20
0.454444052904734
30
0
41
1
10
54.9158876078463
20
0.635301803206744
30
0
41
1
10
54.9073333025762
20
0.747796911882403
30
0
41
1
10
54.9056196357962
20
0.770247254664099
30
0
41
1
10
54.9022007052181
20
0.814857070394652
30
0
41
1
10
54.8970786366568
20
0.881418608628792
30
0
41
1
10
54.8919721927696
20
0.946930668909829
30
0
41
1
10
54.8749774933131
20
1.16299493140713
30
0
41
1
10
54.8614972612792
20
1.32851120527988
30
0
41
1
10
54.844667413237
20
1.52586800790436
30
0
41
1
10
54.8412994249541
20
1.56485973587669
30
0
41
1
10
54.8345427941922
20
1.64186413746569
30
0
41
1
10
54.8311753977924
20
1.67963325169353
30
0
41
1
10
54.82108870411
20
1.79060724479658
30
0
41
1
10
54.8143704065094
20
1.86156128600618
30
0
41
1
10
54.8076198760275
20
1.92956796948715
30
0
0
SPLINE
5
F9
100
AcDbEntity
8
1
62
256
6
ByLayer
370
13
48
1
60
0
100
AcDbSpline
70
4
71
3
72
10
73
6
40
0
40
0
40
0
40
0
40
0.28480575777081
40
0.56679763864401
40
1
40
1
40
1
40
1
41
1.04
10
50.1953582117046
20
-1.46214782054956
30
0
41
1.04
10
50.1815748059596
20
-1.32327362500926
30
0
41
1.04
10
50.1539366566937
20
-1.02483072543165
30
0
41
1.04
10
50.1045537669554
20
-0.435484049466258
30
0
41
1.04
10
50.0705483217707
20
-0.0093509374113847
30
0
41
1.04
10
50.0502156775052
20
0.242037813845286
30
0
0
SPLINE
5
FA
100
AcDbEntity
8
1
62
256
6
ByLayer
370
13
48
1
60
0
100
AcDbSpline
70
4
71
3
72
10
73
6
40
0
40
0
40
0
40
0
40
0.445393852698734
40
0.728050790152545
40
1
40
1
40
1
40
1
41
1
10
50.5351686015568
20
-1.66762002305484
30
0
41
1
10
50.5138542139038
20
-1.46969018180798
30
0
41
1
10
50.4785638598107
20
-1.0977916821937
30
0
41
1
10
50.4292967231242
20
-0.508188949688474
30
0
41
1
10
50.4027584710273
20
-0.179050658337559
30
0
41
1
10
50.3898812113777
20
-0.0192002375660252
30
0
0
SPLINE
5
FB
100
AcDbEntity
8
1
62
256
6
ByLayer
370
13
48
1
60
0
100
AcDbSpline
70
4
71
3
72
10
73
6
40
0
40
0
40
0
40
0
40
0.0876747224588987
40
0.948465635123222
40
1
40
1
40
1
40
1
41
1
10
47.8262571063911
20
0.273715629188615
30
0
41
1
10
47.8218853751301
20
0.327733263177379
30
0
41
1
10
47.774712958283
20
0.908482895502345
30
0
41
1
10
47.7271046600983
20
1.45500428769074
30
0
41
1
10
47.6837547304685
20
1.82678350436669
30
0
41
1
10
47.6813061972202
20
1.84737007700076
30
0
0
SPLINE
5
FC
100
AcDbEntity
8
1
62
256
6
ByLayer
370
13
48
1
60
0
100
AcDbSpline
70
4
71
3
72
9
73
5
40
0
40
0
40
0
40
0
40
0.254761192854394
40
1
40
1
40
1
40
1
41
1
10
49.1806982876818
20
-0.762957258298457
30
0
41
1
10
49.1674994042007
20
-0.60652890533342
30
0
41
1
10
49.1167311364098
20
0.0149857383302674
30
0
41
1
10
49.0694288841065
20
0.613265648841718
30
0
41
1
10
49.035645247757
20
0.999576016855031
30
0
0
SPLINE
5
FD
100
AcDbEntity
8
1
62
256
6
ByLayer
370
13
48
1
60
0
100
AcDbSpline
70
4
71
3
72
10
73
6
40
0
40
0
40
0
40
0
40
0.102893687757358
40
0.966311238116874
40
1
40
1
40
1
40
1
41
1.04
10
48.8409314210927
20
-0.50838820905848
30
0
41
1.04
10
48.835616956165
20
-0.443640009993565
30
0
41
1.04
10
48.7860919236173
20
0.164522360902835
30
0
41
1.04
10
48.7383262472161
20
0.772949900131573
30
0
41
1.04
10
48.6975618809778
20
1.21722690890307
30
0
41
1.04
10
48.6960339434335
20
1.23376651158309
30
0
0
SPLINE
5
FE
100
AcDbEntity
8
1
62
256
6
ByLayer
370
13
48
1
60
0
100
AcDbSpline
70
4
71
3
72
9
73
5
40
0
40
0
40
0
40
0
40
0.746380878598494
40
1
40
1
40
1
40
1
41
1.04
10
51.5497964635739
20
-2.16470408680626
30
0
41
1.04
10
51.5124667735857
20
-1.93003500427633
30
0
41
1.04
10
51.4645695770787
20
-1.48113131541941
30
0
41
1.04
10
51.4165031245808
20
-0.933030083438087
30
0
41
1.04
10
51.4044847419576
20
-0.791576361280432
30
0
0
SPLINE
5
FF
100
AcDbEntity
8
1
62
256
6
ByLayer
370
18
48
1
60
0
100
AcDbSpline
70
4
71
3
72
24
73
20
40
0
40
0
40
0
40
0
40
0.125
40
0.125
40
0.1875
40
0.1875
40
0.249999999999999
40
0.249999999999999
40
0.375
40
0.375
40
0.5
40
0.5
40
0.625
40
0.625
40
0.75
40
0.75
40
0.875
40
0.875
40
1
40
1
40
1
40
1
41
1
10
48.4122527755066
20
-0.439638112776521
30
0
41
1
10
48.4053229067726
20
-0.329536713201151
30
0
41
1
10
48.3983121067991
20
-0.218731314738335
30
0
41
1
10
48.3876727788962
20
-0.0514545511014148
30
0
41
1
10
48.3841061556897
20
0.0044828561986492
30
0
41
1
10
48.3769348542896
20
0.116721392435664
30
0
41
1
10
48.3733222483974
20
0.173146358351346
30
0
41
1
10
48.362551943107
20
0.341103216621178
30
0
41
1
10
48.3554304814663
20
0.451827099076979
30
0
41
1
10
48.3413152224986
20
0.670850327527717
30
0
41
1
10
48.3343226201786
20
0.779149577937147
30
0
41
1
10
48.3204312636112
20
0.993311152284804
30
0
41
1
10
48.3135341392058
20
1.09917382444988
30
0
41
1
10
48.2997131063584
20
1.30836466509354
30
0
41
1
10
48.2929081149633
20
1.40989208739768
30
0
41
1
10
48.2792684714216
20
1.606850691886
30
0
41
1
10
48.2724285883715
20
1.7023097149289
30
0
41
1
10
48.2586144489749
20
1.88720955003038
30
0
41
1
10
48.2516410894904
20
1.9766508087535
30
0
41
1
10
48.24457568102
20
2.06299795634038
30
0
0
SPLINE
5
100
100
AcDbEntity
8
1
62
256
6
ByLayer
370
18
48
1
60
0
100
AcDbSpline
70
4
71
3
72
27
73
23
40
0
40
0
40
0
40
0
40
0.0625000000000005
40
0.0625000000000005
40
0.125000000000001
40
0.125000000000001
40
0.250000000000001
40
0.375000000000001
40
0.375000000000001
40
0.500000000000001
40
0.500000000000001
40
0.562500000000002
40
0.562500000000002
40
0.625000000000002
40
0.625000000000002
40
0.750000000000001
40
0.750000000000001
40
0.875
40
0.875
40
0.9375
40
0.9375
40
1
40
1
40
1
40
1
41
1
10
49.4693330023443
20
1.00286033904692
30
0
41
1
10
49.4728214124729
20
0.949839880186289
30
0
41
1
10
49.4763042114301
20
0.896246972099533
30
0
41
1
10
49.4832721611396
20
0.78789612707655
30
0
41
1
10
49.4867656693326
20
0.73300440290123
30
0
41
1
10
49.4971621252486
20
0.568352168239699
30
0
41
1
10
49.5108573927381
20
0.348009030825352
30
0
41
1
10
49.5245320991061
20
0.126116454002982
30
0
41
1
10
49.5383429110979
20
-0.0965445233067328
30
0
41
1
10
49.5453168184835
20
-0.208259072850296
30
0
41
1
10
49.5559623023041
20
-0.376423051214459
30
0
41
1
10
49.5595154710201
20
-0.43215544244336
30
0
41
1
10
49.566608234759
20
-0.542763734063897
30
0
41
1
10
49.5701499311292
20
-0.597677253077819
30
0
41
1
10
49.5807558075326
20
-0.761263104362712
30
0
41
1
10
49.5877989010708
20
-0.86878386869256
30
0
41
1
10
49.6018625238926
20
-1.08076498036564
30
0
41
1
10
49.6088840838441
20
-1.18522543823337
30
0
41
1
10
49.6194619834053
20
-1.33955348588171
30
0
41
1
10
49.6230052041478
20
-1.39073331694573
30
0
41
1
10
49.6300455990878
20
-1.4912299221935
30
0
41
1
10
49.6335485699894
20
-1.54063371632324
30
0
41
1
10
49.6370401906391
20
-1.58920834467781
30
0
0
SPLINE
5
101
100
AcDbEntity
8
1
62
256
6
ByLayer
370
18
48
1
60
0
100
AcDbSpline
70
4
71
3
72
31
73
27
40
0
40
0
40
0
40
0
40
0.125
40
0.125
40
0.15625
40
0.15625
40
0.187500000000001
40
0.187500000000001
40
0.25
40
0.25
40
0.374999999999999
40
0.374999999999999
40
0.499999999999998
40
0.499999999999998
40
0.562499999999998
40
0.562499999999998
40
0.593749999999998
40
0.593749999999998
40
0.624999999999998
40
0.749999999999999
40
0.875
40
0.875
40
0.937500000000001
40
0.96875
40
0.96875
40
1
40
1
40
1
40
1
41
1
10
50.82332649525
20
-0.327432261497762
30
0
41
1
10
50.8303242917757
20
-0.438135087429089
30
0
41
1
10
50.8373214968032
20
-0.548426378572714
30
0
41
1
10
50.8460709742852
20
-0.685762563707613
30
0
41
1
10
50.8478205700617
20
-0.713203363804666
30
0
41
1
10
50.8513185897907
20
-0.768031509967159
30
0
41
1
10
50.8530673792649
20
-0.795424474106397
30
0
41
1
10
50.8582827923735
20
-0.877038402501768
30
0
41
1
10
50.8617280875562
20
-0.930857300108755
30
0
41
1
10
50.8720134736188
20
-1.09057472296345
30
0
41
1
10
50.8787971430932
20
-1.1947387425781
30
0
41
1
10
50.8927007219845
20
-1.39847980804345
30
0
41
1
10
50.8997943507605
20
-1.49805865520139
30
0
41
1
10
50.9105502876468
20
-1.64393690730338
30
0
41
1
10
50.9141551451496
20
-1.69198014269216
30
0
41
1
10
50.9195830613103
20
-1.76315284857071
30
0
41
1
10
50.9213965601263
20
-1.78673704702325
30
0
41
1
10
50.9250080478451
20
-1.83333065421755
30
0
41
1
10
50.934011976063
20
-1.94854899347752
30
0
41
1
10
50.949964120749
20
-2.14472765503103
30
0
41
1
10
50.9637877452769
20
-2.30352316691096
30
0
41
1
10
50.974094951218
20
-2.41671828051875
30
0
41
1
10
50.9792345882096
20
-2.47183750759871
30
0
41
1
10
50.9843790949955
20
-2.5247007602693
30
0
41
1
10
50.9878137003679
20
-2.55943526932839
30
0
41
1
10
50.9895344171849
20
-2.57655751564582
30
0
41
1
10
50.9912495875398
20
-2.59332561585745
30
0
0
SPLINE
5
102
100
AcDbEntity
8
1
62
256
6
ByLayer
370
18
48
1
60
0
100
AcDbSpline
70
4
71
3
72
26
73
22
40
0
40
0
40
0
40
0
40
0.0067533761638456
40
0.0067533761638456
40
0.106078038547494
40
0.106078038547494
40
0.205402700931143
40
0.205402700931143
40
0.40405202569844
40
0.40405202569844
40
0.503376688082034
40
0.503376688082034
40
0.602701350465627
40
0.602701350465627
40
0.70202601284922
40
0.70202601284922
40
0.801350675232813
40
0.801350675232813
40
0.900675337616407
40
0.900675337616407
40
1
40
1
40
1
40
1
41
1
10
53.1330520278577
20
-2.42544640443515
30
0
41
1
10
53.1325421835925
20
-2.42527004317174
30
0
41
1
10
53.1320315391564
20
-2.42509541038842
30
0
41
1
10
53.1239980886777
20
-2.4223795248306
30
0
41
1
10
53.1162800806619
20
-2.42021286842839
30
0
41
1
10
53.1007581136957
20
-2.41673014700066
30
0
41
1
10
53.0929254987046
20
-2.41540202333817
30
0
41
1
10
53.0692221298442
20
-2.41268554040849
30
0
41
1
10
53.0531487511475
20
-2.41253982141285
30
0
41
1
10
53.0286234272642
20
-2.41530311760221
30
0
41
1
10
53.0203364628362
20
-2.41674145014108
30
0
41
1
10
53.0039980942739
20
-2.42069278462401
30
0
41
1
10
52.9959125083721
20
-2.42320400000182
30
0
41
1
10
52.9799383460264
20
-2.42942243526235
30
0
41
1
10
52.9720494389802
20
-2.43312772455755
30
0
41
1
10
52.9565145888058
20
-2.4419585177931
30
0
41
1
10
52.949046550866
20
-2.4469847075938
30
0
41
1
10
52.9347907257627
20
-2.45839100429342
30
0
41
1
10
52.92798256901
20
-2.46478927009309
30
0
41
1
10
52.9152526412011
20
-2.47912586697569
30
0
41
1
10
52.9094613106396
20
-2.48691265157745
30
0
41
1
10
52.904308910722
20
-2.49539125719355
30
0
0
SPLINE
5
103
100
AcDbEntity
8
1
62
256
6
ByLayer
370
18
48
1
60
0
100
AcDbSpline
70
4
71
3
72
14
73
10
40
0
40
0
40
0
40
0
40
0.25
40
0.25
40
0.5
40
0.5
40
0.75
40
0.75
40
1
40
1
40
1
40
1
41
1
10
52.904308910722
20
-2.49539125719355
30
0
41
1
10
52.8681358982059
20
-2.55491627698376
30
0
41
1
10
52.8320536924464
20
-2.61383283903223
30
0
41
1
10
52.760033160406
20
-2.73046136382385
30
0
41
1
10
52.7241250350313
20
-2.78812338625946
30
0
41
1
10
52.6525745915568
20
-2.9019647226614
30
0
41
1
10
52.6169166773657
20
-2.95816776534261
30
0
41
1
10
52.5459855609506
20
-3.06880953876873
30
0
41
1
10
52.5106848859838
20
-3.1232921021367
30
0
41
1
10
52.4755154754974
20
-3.17693699957047
30
0
0
SPLINE
5
104
100
AcDbEntity
8
1
62
256
6
ByLayer
370
18
48
1
60
0
100
AcDbSpline
70
4
71
3
72
8
73
4
40
0
40
0
40
0
40
0
40
1
40
1
40
1
40
1
41
1
10
52.3452851722375
20
-3.15108781234679
30
0
41
1
10
52.3886885998143
20
-3.16055375710641
30
0
41
1
10
52.4320914189629
20
-3.16917208988289
30
0
41
1
10
52.4755154754974
20
-3.17693699957047
30
0
0
SPLINE
5
105
100
AcDbEntity
8
1
62
256
6
ByLayer
370
18
48
1
60
0
100
AcDbSpline
70
4
71
3
72
10
73
6
40
0
40
0
40
0
40
0
40
0.5
40
0.5
40
1
40
1
40
1
40
1
41
1
10
52.3452851722375
20
-3.1510878123471
30
0
41
1
10
52.2707497261085
20
-3.01352908653428
30
0
41
1
10
52.1956918457009
20
-2.87229262678861
30
0
41
1
10
52.0436819581114
20
-2.58298029144618
30
0
41
1
10
51.9671358824549
20
-2.43575340370953
30
0
41
1
10
51.8896030047842
20
-2.2861047008837
30
0
0
SPLINE
5
106
100
AcDbEntity
8
1
62
256
6
ByLayer
370
18
48
1
60
0
100
AcDbSpline
70
4
71
3
72
30
73
26
40
0
40
0
40
0
40
0
40
0.124999999999968
40
0.124999999999968
40
0.249999999999936
40
0.249999999999936
40
0.374999999999904
40
0.374999999999904
40
0.43749999999992
40
0.43749999999992
40
0.499999999999936
40
0.499999999999936
40
0.624999999999899
40
0.624999999999899
40
0.687499999999916
40
0.687499999999916
40
0.749999999999933
40
0.749999999999933
40
0.812499999999949
40
0.812499999999949
40
0.874999999999966
40
0.874999999999966
40
0.937499999999983
40
0.937499999999983
40
1
40
1
40
1
40
1
41
1
10
51.8896030047842
20
-2.2861047008837
30
0
41
1
10
51.8804910996839
20
-2.26851751955502
30
0
41
1
10
51.8699354498628
20
-2.25240362289921
30
0
41
1
10
51.8465392918367
20
-2.22248218427998
30
0
41
1
10
51.8335788384895
20
-2.2086092610574
30
0
41
1
10
51.8063250455743
20
-2.18380370244424
30
0
41
1
10
51.7919754810851
20
-2.17277154354616
30
0
41
1
10
51.7694132163135
20
-2.15824622717949
30
0
41
1
10
51.7616963353578
20
-2.15373730182191
30
0
41
1
10
51.7461767880156
20
-2.14556963909879
30
0
41
1
10
51.7383453803708
20
-2.14188995707207
30
0
41
1
10
51.7146456791245
20
-2.1320830107926
30
0
41
1
10
51.6985748090801
20
-2.12716397713362
30
0
41
1
10
51.674053506087
20
-2.12264527474048
30
0
41
1
10
51.6657687994978
20
-2.12162329231353
30
0
41
1
10
51.6494370559629
20
-2.12071352067389
30
0
41
1
10
51.6413548407889
20
-2.12081375468733
30
0
41
1
10
51.6253874691034
20
-2.12224736759975
30
0
41
1
10
51.6175019823878
20
-2.12357876498854
30
0
41
1
10
51.601973933653
20
-2.1277001052971
30
0
41
1
10
51.5945111517161
20
-2.13044381853982
30
0
41
1
10
51.5802632189761
20
-2.13744665957773
30
0
41
1
10
51.5734585088848
20
-2.14171746576585
30
0
41
1
10
51.5607355566535
20
-2.15201307615953
30
0
41
1
10
51.5549469588787
20
-2.15792827681821
30
0
41
1
10
51.5497964635757
20
-2.16470408680391
30
0
0
SPLINE
5
107
100
AcDbEntity
8
1
62
256
6
ByLayer
370
18
48
1
60
0
100
AcDbSpline
70
4
71
3
72
14
73
10
40
0
40
0
40
0
40
0
40
0.25
40
0.25
40
0.5
40
0.5
40
0.75
40
0.75
40
1
40
1
40
1
40
1
41
1
10
51.5497964635739
20
-2.16470408680624
30
0
41
1
10
51.5136053928925
20
-2.21231578310116
30
0
41
1
10
51.4775066864194
20
-2.25853915064224
30
0
41
1
10
51.4054559484363
20
-2.34826886774917
30
0
41
1
10
51.3695341942134
20
-2.39173571778193
30
0
41
1
10
51.297958423705
20
-2.47578324800509
30
0
41
1
10
51.2622891372934
20
-2.51637984259514
30
0
41
1
10
51.1913359830034
20
-2.59452671665605
30
0
41
1
10
51.156024804485
20
-2.63210948656752
30
0
41
1
10
51.1208455482473
20
-2.66821804031764
30
0
0
SPLINE
5
108
100
AcDbEntity
8
1
62
256
6
ByLayer
370
18
48
1
60
0
100
AcDbSpline
70
4
71
3
72
10
73
6
40
0
40
0
40
0
40
0
40
0.5
40
0.5
40
1
40
1
40
1
40
1
41
1
10
50.9912495875323
20
-2.59332561584623
30
0
41
1
10
50.9167517635267
20
-2.43791732762566
30
0
41
1
10
50.841656984036
20
-2.282666169739
30
0
41
1
10
50.6894549292044
20
-1.97305713383807
30
0
41
1
10
50.6127976938409
20
-1.81956634306107
30
0
41
1
10
50.5351686015568
20
-1.66762002305484
30
0
0
SPLINE
5
109
100
AcDbEntity
8
1
62
256
6
ByLayer
370
18
48
1
60
0
100
AcDbSpline
70
4
71
3
72
30
73
26
40
0
40
0
40
0
40
0
40
0.125000000000041
40
0.125000000000041
40
0.250000000000081
40
0.250000000000081
40
0.375000000000122
40
0.375000000000122
40
0.43750000000011
40
0.43750000000011
40
0.500000000000097
40
0.500000000000097
40
0.625000000000073
40
0.625000000000073
40
0.68750000000006
40
0.68750000000006
40
0.750000000000048
40
0.750000000000048
40
0.812500000000036
40
0.812500000000036
40
0.875000000000024
40
0.875000000000024
40
0.937500000000012
40
0.937500000000012
40
1
40
1
40
1
40
1
41
1
10
50.5351686015568
20
-1.66762002305484
30
0
41
1
10
50.5260520165201
20
-1.6497757908657
30
0
41
1
10
50.515490558307
20
-1.63281226457482
30
0
41
1
10
50.4920813090985
20
-1.60028248459758
30
0
41
1
10
50.4791130188515
20
-1.58462516287494
30
0
41
1
10
50.4518434316669
20
-1.5555133173298
30
0
41
1
10
50.4374859985616
20
-1.54195653770108
30
0
41
1
10
50.4149121623972
20
-1.52307646909432
30
0
41
1
10
50.4071918540567
20
-1.51701554441678
30
0
41
1
10
50.3916666441191
20
-1.50559699526971
30
0
41
1
10
50.3838327107049
20
-1.50021302599527
30
0
41
1
10
50.3601265062997
20
-1.48504461302693
30
0
41
1
10
50.3440527080103
20
-1.47622531992082
30
0
41
1
10
50.3195301036216
20
-1.46523941546857
30
0
41
1
10
50.3112471166581
20
-1.46194579514344
30
0
41
1
10
50.2949229673482
20
-1.45635665358424
30
0
41
1
10
50.2868450203552
20
-1.45404031339305
30
0
41
1
10
50.2708870925067
20
-1.45046351090562
30
0
41
1
10
50.2630060686657
20
-1.44920130541811
30
0
41
1
10
50.2474906802735
20
-1.44792020611453
30
0
41
1
10
50.2400349640461
20
-1.44791699290664
30
0
41
1
10
50.2258000832938
20
-1.44932171782975
30
0
41
1
10
50.219002196215
20
-1.45073305105751
30
0
41
1
10
50.2062900589678
20
-1.45521886932713
30
0
41
1
10
50.2005056950684
20
-1.4582438215138
30
0
41
1
10
50.1953582117046
20
-1.46214782054955
30
0
0
SPLINE
5
10A
100
AcDbEntity
8
1
62
256
6
ByLayer
370
18
48
1
60
0
100
AcDbSpline
70
4
71
3
72
14
73
10
40
0
40
0
40
0
40
0
40
0.25
40
0.25
40
0.5
40
0.5
40
0.75
40
0.75
40
1
40
1
40
1
40
1
41
1
10
50.1953582117046
20
-1.46214782054955
30
0
41
1
10
50.1591647552941
20
-1.48959797607969
30
0
41
1
10
50.123066161444
20
-1.51511499407275
30
0
41
1
10
50.0510203190819
20
-1.56238283799542
30
0
41
1
10
50.0151034623196
20
-1.58411145385577
30
0
41
1
10
49.9435417327958
20
-1.6237737976239
30
0
41
1
10
49.9078817115389
20
-1.64171309738109
30
0
41
1
10
49.8369492742956
20
-1.67379420886448
30
0
41
1
10
49.8016495691501
20
-1.68795214553566
30
0
41
1
10
49.7664823028462
20
-1.70025935418928
30
0
0
SPLINE
5
10B
100
AcDbEntity
8
1
62
256
6
ByLayer
370
18
48
1
60
0
100
AcDbSpline
70
4
71
3
72
10
73
6
40
0
40
0
40
0
40
0
40
0.5
40
0.5
40
1
40
1
40
1
40
1
41
1
10
49.6370401906315
20
-1.58920834467071
30
0
41
1
10
49.5624617359969
20
-1.44292822355351
30
0
41
1
10
49.4873021439417
20
-1.30046948104862
30
0
41
1
10
49.3350078510408
20
-1.0240543558964
30
0
41
1
10
49.2583178202537
20
-0.890878727780404
30
0
41
1
10
49.1806982873658
20
-0.762957254553839
30
0
0
SPLINE
5
10C
100
AcDbEntity
8
1
62
256
6
ByLayer
370
18
48
1
60
0
100
AcDbSpline
70
4
71
3
72
30
73
26
40
0
40
0
40
0
40
0
40
0.125000000000066
40
0.125000000000066
40
0.250000000000132
40
0.250000000000132
40
0.375000000000198
40
0.375000000000198
40
0.437500000000199
40
0.437500000000199
40
0.5000000000002
40
0.5000000000002
40
0.625000000000202
40
0.625000000000202
40
0.687500000000169
40
0.687500000000169
40
0.750000000000135
40
0.750000000000135
40
0.812500000000101
40
0.812500000000101
40
0.875000000000067
40
0.875000000000067
40
0.937500000000034
40
0.937500000000034
40
1
40
1
40
1
40
1
41
1
10
49.1806982873658
20
-0.762957254553839
30
0
41
1
10
49.1715797673097
20
-0.747929406848016
30
0
41
1
10
49.161015258286
20
-0.733035663108069
30
0
41
1
10
49.1375997142845
20
-0.703491531892411
30
0
41
1
10
49.1246280129028
20
-0.68874023782692
30
0
41
1
10
49.0973531934251
20
-0.660317031515092
30
0
41
1
10
49.0829940026003
20
-0.646557665121293
30
0
41
1
10
49.0604195186698
20
-0.626549549706937
30
0
41
1
10
49.0526996740985
20
-0.619971225774634
30
0
41
1
10
49.0371761412809
20
-0.607247914890451
30
0
41
1
10
49.0293432856775
20
-0.601075735982079
30
0
41
1
10
49.0056410252361
20
-0.583122094196568
30
0
41
1
10
48.9895708041649
20
-0.57189383358201
30
0
41
1
10
48.9650549182593
20
-0.556287536338772
30
0
41
1
10
48.9567748966563
20
-0.55127373930776
30
0
41
1
10
48.9404573134463
20
-0.541936882079739
30
0
41
1
10
48.9323826189157
20
-0.5375875674886
30
0
41
1
10
48.9164311092784
20
-0.529586654319928
30
0
41
1
10
48.9085528864987
20
-0.525933499419011
30
0
41
1
10
48.8930444368106
20
-0.519444425665711
30
0
41
1
10
48.8855919159444
20
-0.516683264568314
30
0
41
1
10
48.8713628646698
20
-0.512228185386846
30
0
41
1
10
48.8645675897711
20
-0.51052922689442
30
0
41
1
10
48.8518601187594
20
-0.508420685591403
30
0
41
1
10
48.8460776025868
20
-0.508030384569025
30
0
41
1
10
48.8409314192252
20
-0.50838818630578
30
0
0
SPLINE
5
10D
100
AcDbEntity
8
1
62
256
6
ByLayer
370
18
48
1
60
0
100
AcDbSpline
70
4
71
3
72
14
73
10
40
0
40
0
40
0
40
0
40
0.25
40
0.25
40
0.5
40
0.5
40
0.75
40
0.75
40
1
40
1
40
1
40
1
41
1
10
48.8409314192252
20
-0.508388186305751
30
0
41
1
10
48.804758711454
20
-0.510903187570648
30
0
41
1
10
48.7686806817849
20
-0.511276050673217
30
0
41
1
10
48.6966742117663
20
-0.507861741946527
30
0
41
1
10
48.6607760145335
20
-0.504073662601201
30
0
41
1
10
48.5892485074456
20
-0.492453532169179
30
0
41
1
10
48.5536037989481
20
-0.484616245245604
30
0
41
1
10
48.4826985141615
20
-0.465039169789236
30
0
41
1
10
48.4474107001409
20
-0.453295032812292
30
0
41
1
10
48.4122527755066
20
-0.439638112776493
30
0
0
SPLINE
5
10E
100
AcDbEntity
8
1
62
256
6
ByLayer
370
18
48
1
60
0
100
AcDbSpline
70
4
71
3
72
10
73
6
40
0
40
0
40
0
40
0
40
0.5
40
0.5
40
1
40
1
40
1
40
1
41
1
10
48.2820002052226
20
-0.310646724190264
30
0
41
1
10
48.2074114082511
20
-0.198650528672971
30
0
41
1
10
48.1322989634817
20
-0.0935064075871708
30
0
41
1
10
47.9802579864632
20
0.102058314937665
30
0
41
1
10
47.9037371349658
20
0.191925256300635
30
0
41
1
10
47.8262571063911
20
0.273715629188615
30
0
0
SPLINE
5
10F
100
AcDbEntity
8
1
62
256
6
ByLayer
370
18
48
1
60
0
100
AcDbSpline
70
4
71
3
72
30
73
26
40
0
40
0
40
0
40
0
40
0.12500000000002
40
0.12500000000002
40
0.25000000000004
40
0.25000000000004
40
0.375000000000061
40
0.375000000000061
40
0.437500000000103
40
0.437500000000103
40
0.500000000000145
40
0.500000000000145
40
0.625000000000161
40
0.625000000000161
40
0.687500000000134
40
0.687500000000134
40
0.750000000000107
40
0.750000000000107
40
0.812500000000081
40
0.812500000000081
40
0.875000000000054
40
0.875000000000054
40
0.937500000000027
40
0.937500000000027
40
1
40
1
40
1
40
1
41
1
10
47.8262571063911
20
0.273715629188615
30
0
41
1
10
47.8171464798955
20
0.2833330951606
30
0
41
1
10
47.8065911958439
20
0.293586464067346
30
0
41
1
10
47.7831936570828
20
0.315045499638643
30
0
41
1
10
47.7702310712803
20
0.32634413404034
30
0
41
1
10
47.7429712222819
20
0.34917181009402
30
0
41
1
10
47.7286179447258
20
0.360758481572077
30
0
41
1
10
47.706049512606
20
0.378440205838132
30
0
41
1
10
47.6983304000256
20
0.384401010614994
30
0
41
1
10
47.6828067244403
20
0.396234156495922
30
0
41
1
10
47.6749733947307
20
0.402129463951525
30
0
41
1
10
47.6512685247806
20
0.419769314406949
30
0
41
1
10
47.6351949971328
20
0.431467133511632
30
0
41
1
10
47.6106716203623
20
0.44899663549694
30
0
41
1
10
47.6023872319155
20
0.454865034549613
30
0
41
1
10
47.5860582580639
20
0.466338633822886
30
0
41
1
10
47.577977776589
20
0.471970001127858
30
0
41
1
10
47.5620145538414
20
0.483012803000065
30
0
41
1
10
47.554131588139
20
0.48842450222179
30
0
41
1
10
47.5386088064363
20
0.499000530781757
30
0
41
1
10
47.5311495246162
20
0.504041987128858
30
0
41
1
10
47.5169078103589
20
0.513584920002444
30
0
41
1
10
47.5101066746659
20
0.518098974203355
30
0
41
1
10
47.497388293608
20
0.526433362394641
30
0
41
1
10
47.4916013193841
20
0.530168710983901
30
0
41
1
10
47.4864516434975
20
0.533415513906277
30
0
0
SPLINE
5
110
100
AcDbEntity
8
1
62
256
6
ByLayer
370
18
48
1
60
0
100
AcDbSpline
70
4
71
3
72
14
73
10
40
0
40
0
40
0
40
0
40
0.25
40
0.25
40
0.5
40
0.5
40
0.75
40
0.75
40
1
40
1
40
1
40
1
41
1
10
47.4864516434975
20
0.533415513906249
30
0
41
1
10
47.4502179860248
20
0.556260358428432
30
0
41
1
10
47.4140786335088
20
0.581098545947157
30
0
41
1
10
47.3419494076203
20
0.634636902228266
30
0
41
1
10
47.3059904060094
20
0.663316635659896
30
0
41
1
10
47.2343433753897
20
0.724289757635574
30
0
41
1
10
47.1986403307321
20
0.756598145687576
30
0
41
1
10
47.1276212068528
20
0.82454954405182
30
0
41
1
10
47.0922777767991
20
0.860214893279249
30
0
41
1
10
47.0570668018087
20
0.897523791506842
30
0
0
SPLINE
5
111
100
AcDbEntity
8
1
62
256
6
ByLayer
370
18
48
1
60
0
100
AcDbSpline
70
4
71
3
72
16
73
12
40
0
40
0
40
0
40
0
40
0.25
40
0.25
40
0.5
40
0.5
40
0.75
40
0.75
40
0.875
40
0.875
40
1
40
1
40
1
40
1
41
1
10
44.8478335981666
20
-0.906034081532653
30
0
41
1
10
44.8949537145286
20
-0.936002424786523
30
0
41
1
10
44.9419001960244
20
-0.966618471007365
30
0
41
1
10
45.035164341283
20
-1.02951830222986
30
0
41
1
10
45.0814861661729
20
-1.06179567693968
30
0
41
1
10
45.1733744354597
20
-1.12822984931779
30
0
41
1
10
45.2189424760898
20
-1.1623829629203
30
0
41
1
10
45.2867288710734
20
-1.2151176122874
30
0
41
1
10
45.3092613105657
20
-1.23297001412877
30
0
41
1
10
45.3538782058696
20
-1.26895836680825
30
0
41
1
10
45.3759870929101
20
-1.28711427598378
30
0
41
1
10
45.3978335981668
20
-1.30551080068989
30
0
0
SPLINE
5
112
100
AcDbEntity
8
1
62
256
6
ByLayer
370
18
48
1
60
0
100
AcDbSpline
70
4
71
3
72
14
73
10
40
0
40
0
40
0
40
0
40
0.124999999999997
40
0.124999999999997
40
0.249999999999993
40
0.249999999999993
40
0.499999999999986
40
0.499999999999986
40
1
40
1
40
1
40
1
41
1
10
45.3978335981666
20
-1.30551080068972
30
0
41
1
10
45.4329167100477
20
-1.33505361895294
30
0
41
1
10
45.4678520845458
20
-1.36474328093635
30
0
41
1
10
45.5373061839962
20
-1.42454303748232
30
0
41
1
10
45.5718497572108
20
-1.4546269094613
30
0
41
1
10
45.6749800733182
20
-1.54537606459934
30
0
41
1
10
45.7430697927715
20
-1.60653532416384
30
0
41
1
10
45.9457057138838
20
-1.79160169256599
30
0
41
1
10
46.0786435904197
20
-1.91707182892753
30
0
41
1
10
46.210083986993
20
-2.04390504663911
30
0
0
SPLINE
5
113
100
AcDbEntity
8
1
62
256
6
ByLayer
370
18
48
1
60
0
100
AcDbSpline
70
4
71
3
72
10
73
6
40
0
40
0
40
0
40
0
40
0.5
40
0.5
40
1
40
1
40
1
40
1
41
1
10
46.2100839869927
20
-2.0439050466394
30
0
41
1
10
46.2477796913843
20
-2.03163679456031
30
0
41
1
10
46.2856811045949
20
-2.01722767329105
30
0
41
1
10
46.3618886131434
20
-1.98409864966638
30
0
41
1
10
46.4001725444386
20
-1.96539032214778
30
0
41
1
10
46.4387026383206
20
-1.94447888249547
30
0
0
SPLINE
5
114
100
AcDbEntity
8
1
62
256
6
ByLayer
370
18
48
1
60
0
100
AcDbSpline
70
4
71
3
72
30
73
26
40
0
40
0
40
0
40
0
40
0.125000000000025
40
0.125000000000025
40
0.187500000000039
40
0.187500000000039
40
0.250000000000052
40
0.250000000000052
40
0.375000000000078
40
0.375000000000078
40
0.500000000000105
40
0.500000000000105
40
0.625000000000131
40
0.625000000000131
40
0.687500000000109
40
0.687500000000109
40
0.750000000000087
40
0.750000000000087
40
0.812500000000066
40
0.812500000000066
40
0.875000000000044
40
0.875000000000044
40
0.937500000000022
40
0.937500000000022
40
1
40
1
40
1
40
1
41
1
10
46.4387026383206
20
-1.94447888249547
30
0
41
1
10
46.4481244917367
20
-1.93936535955092
30
0
41
1
10
46.4590869489727
20
-1.93628791171452
30
0
41
1
10
46.4772950869407
20
-1.93395087480485
30
0
41
1
10
46.4836654918749
20
-1.93356196474363
30
0
41
1
10
46.4969755482804
20
-1.93352586762512
30
0
41
1
10
46.5038534449736
20
-1.93388105667484
30
0
41
1
10
46.5249035293742
20
-1.93596793125118
30
0
41
1
10
46.5395681388513
20
-1.93870647521459
30
0
41
1
10
46.5700365116851
20
-1.94677369573426
30
0
41
1
10
46.5859454939867
20
-1.95216695121749
30
0
41
1
10
46.61772167907
20
-1.96533000157135
30
0
41
1
10
46.6337119700012
20
-1.97311411578301
30
0
41
1
10
46.6578192222303
20
-1.98685915579551
30
0
41
1
10
46.6659174548088
20
-1.99181719454984
30
0
41
1
10
46.681942166638
20
-2.00239674675427
30
0
41
1
10
46.6898315896753
20
-2.00798990584983
30
0
41
1
10
46.7053333668698
20
-2.01984262595118
30
0
41
1
10
46.7129460834293
20
-2.02610141747465
30
0
41
1
10
46.7278464902385
20
-2.03938843676889
30
0
41
1
10
46.7351571734378
20
-2.04644913136136
30
0
41
1
10
46.7489545426109
20
-2.0610355743587
30
0
41
1
10
46.7554948441413
20
-2.06860342858982
30
0
41
1
10
46.7677493912606
20
-2.08437222091027
30
0
41
1
10
46.7734815819197
20
-2.09261304311704
30
0
41
1
10
46.7785670358269
20
-2.10099930303272
30
0
0
SPLINE
5
115
100
AcDbEntity
8
1
62
256
6
ByLayer
370
18
48
1
60
0
100
AcDbSpline
70
4
71
3
72
12
73
8
40
0
40
0
40
0
40
0
40
0.499999999999999
40
0.499999999999999
40
0.75
40
0.75
40
1
40
1
40
1
40
1
41
1
10
46.7785670358268
20
-2.10099930303187
30
0
41
1
10
46.851960845273
20
-2.22203069441716
30
0
41
1
10
46.9247917011539
20
-2.34573398981021
30
0
41
1
10
47.0330755857063
20
-2.53400930222776
30
0
41
1
10
47.0690109247374
20
-2.59722036882897
30
0
41
1
10
47.1404674026035
20
-2.72418529612489
30
0
41
1
10
47.1760124650108
20
-2.7879806868448
30
0
41
1
10
47.2114116385456
20
-2.85206473781906
30
0
0
SPLINE
5
116
100
AcDbEntity
8
1
62
256
6
ByLayer
370
18
48
1
60
0
100
AcDbSpline
70
4
71
3
72
10
73
6
40
0
40
0
40
0
40
0
40
0.5
40
0.5
40
1
40
1
40
1
40
1
41
1
10
47.3404659530093
20
-2.90977989723197
30
0
41
1
10
47.4142369863712
20
-2.84275425923909
30
0
41
1
10
47.4886915376178
20
-2.76846534030005
30
0
41
1
10
47.6396728448309
20
-2.60528055567255
30
0
41
1
10
47.7157846203266
20
-2.51683303729408
30
0
41
1
10
47.7929424080768
20
-2.4214590168036
30
0
0
SPLINE
5
117
100
AcDbEntity
8
1
62
256
6
ByLayer
370
18
48
1
60
0
100
AcDbSpline
70
4
71
3
72
30
73
26
40
0
40
0
40
0
40
0
40
0.12500000000002
40
0.12500000000002
40
0.187500000000003
40
0.187500000000003
40
0.249999999999987
40
0.249999999999987
40
0.374999999999954
40
0.374999999999954
40
0.499999999999921
40
0.499999999999921
40
0.624999999999888
40
0.624999999999888
40
0.687499999999907
40
0.687499999999907
40
0.749999999999925
40
0.749999999999925
40
0.812499999999944
40
0.812499999999944
40
0.874999999999963
40
0.874999999999963
40
0.937499999999981
40
0.937499999999981
40
1
40
1
40
1
40
1
41
1
10
47.7929424080769
20
-2.4214590168036
30
0
41
1
10
47.8023815458409
20
-2.40979138681104
30
0
41
1
10
47.8133669589504
20
-2.4003282848181
30
0
41
1
10
47.8316115996451
20
-2.38861200796234
30
0
41
1
10
47.8379944897085
20
-2.38513063490467
30
0
41
1
10
47.8513296217627
20
-2.37897266971291
30
0
41
1
10
47.8582199859992
20
-2.37632778119362
30
0
41
1
10
47.8793040484331
20
-2.36966110658986
30
0
41
1
10
47.8939880445417
20
-2.36685186749651
30
0
41
1
10
47.9244937429794
20
-2.36433636373678
30
0
41
1
10
47.9404197030348
20
-2.36466974039223
30
0
41
1
10
47.972216837545
20
-2.36858508274975
30
0
41
1
10
47.9882113113688
20
-2.37213403203919
30
0
41
1
10
48.0123075664013
20
-2.38014888364518
30
0
41
1
10
48.0204005066968
20
-2.38329386192305
30
0
41
1
10
48.0363970175676
20
-2.39051585077311
30
0
41
1
10
48.0442713788912
20
-2.39457384352741
30
0
41
1
10
48.0597427309374
20
-2.4036607393505
30
0
41
1
10
48.0673401463476
20
-2.40868862061853
30
0
41
1
10
48.0822106417901
20
-2.41985784185121
30
0
41
1
10
48.0895060122991
20
-2.42603109219292
30
0
41
1
10
48.1032761401192
20
-2.43929291205089
30
0
41
1
10
48.1098043242777
20
-2.4464143962644
30
0
41
1
10
48.1220380449564
20
-2.46178794191735
30
0
41
1
10
48.1277625653075
20
-2.47008505642427
30
0
41
1
10
48.1328437516144
20
-2.47882647952142
30
0
0
SPLINE
5
118
100
AcDbEntity
8
1
62
256
6
ByLayer
370
18
48
1
60
0
100
AcDbSpline
70
4
71
3
72
12
73
8
40
0
40
0
40
0
40
0
40
0.500000000000012
40
0.500000000000012
40
0.750000000000006
40
0.750000000000006
40
1
40
1
40
1
40
1
41
1
10
48.1328437516142
20
-2.47882647952119
30
0
41
1
10
48.2062145383187
20
-2.60504997356907
30
0
41
1
10
48.2790107993673
20
-2.73054112807387
30
0
41
1
10
48.387256277507
20
-2.91658354274952
30
0
41
1
10
48.4231804968606
20
-2.97823152961857
30
0
41
1
10
48.4946193719935
20
-3.10047721044714
30
0
41
1
10
48.530157535418
20
-3.16111587635393
30
0
41
1
10
48.5655518956813
20
-3.22126039420942
30
0
0
SPLINE
5
119
100
AcDbEntity
8
1
62
256
6
ByLayer
370
18
48
1
60
0
100
AcDbSpline
70
4
71
3
72
10
73
6
40
0
40
0
40
0
40
0
40
0.5
40
0.5
40
1
40
1
40
1
40
1
41
1
10
48.6963178552564
20
-3.22779380267758
30
0
41
1
10
48.769984300095
20
-3.11291332176063
30
0
41
1
10
48.8442172544907
20
-2.99309929580943
30
0
41
1
10
48.9946162790017
20
-2.74403008339826
30
0
41
1
10
49.0703903063794
20
-2.61547833276398
30
0
41
1
10
49.1472491299804
20
-2.48311572689943
30
0
0
SPLINE
5
11A
100
AcDbEntity
8
1
62
256
6
ByLayer
370
18
48
1
60
0
100
AcDbSpline
70
4
71
3
72
30
73
26
40
0
40
0
40
0
40
0
40
0.124999999999974
40
0.124999999999974
40
0.187499999999961
40
0.187499999999961
40
0.249999999999948
40
0.249999999999948
40
0.374999999999922
40
0.374999999999922
40
0.499999999999895
40
0.499999999999895
40
0.624999999999869
40
0.624999999999869
40
0.687499999999891
40
0.687499999999891
40
0.749999999999913
40
0.749999999999913
40
0.812499999999935
40
0.812499999999935
40
0.874999999999956
40
0.874999999999956
40
0.937499999999978
40
0.937499999999978
40
1
40
1
40
1
40
1
41
1
10
49.1472491299804
20
-2.48311572689943
30
0
41
1
10
49.1566701912884
20
-2.46689122376111
30
0
41
1
10
49.1676358119052
20
-2.45263359760887
30
0
41
1
10
49.1858521185343
20
-2.43347298306989
30
0
41
1
10
49.1922257105984
20
-2.42746661447532
30
0
41
1
10
49.205542978323
20
-2.41617580051647
30
0
41
1
10
49.212424929761
20
-2.4109471967291
30
0
41
1
10
49.2334862274325
20
-2.39655230125464
30
0
41
1
10
49.2481585174474
20
-2.38858978658172
30
0
41
1
10
49.2786524593846
20
-2.37574763078712
30
0
41
1
10
49.2945776002242
20
-2.37087754084018
30
0
41
1
10
49.3263801356588
20
-2.36470896455177
30
0
41
1
10
49.3423829299093
20
-2.36333279601331
30
0
41
1
10
49.366497664606
20
-2.36412616662358
30
0
41
1
10
49.3745986209642
20
-2.36487975970556
30
0
41
1
10
49.3906036473168
20
-2.36743940716045
30
0
41
1
10
49.3984818738738
20
-2.36923488061006
30
0
41
1
10
49.4139597169386
20
-2.37393800746554
30
0
41
1
10
49.4215594237165
20
-2.37684424001259
30
0
41
1
10
49.4364328891353
20
-2.3839248922599
30
0
41
1
10
49.4437278976552
20
-2.38812513965502
30
0
41
1
10
49.4574967715981
20
-2.3977349604416
30
0
41
1
10
49.4640244087739
20
-2.40316277752126
30
0
41
1
10
49.4762583353459
20
-2.41545443902487
30
0
41
1
10
49.4819834271215
20
-2.42235916966175
30
0
41
1
10
49.4870661319199
20
-2.42993039737499
30
0
0
SPLINE
5
11B
100
AcDbEntity
8
1
62
256
6
ByLayer
370
18
48
1
60
0
100
AcDbSpline
70
4
71
3
72
12
73
8
40
0
40
0
40
0
40
0
40
0.499999999999988
40
0.499999999999988
40
0.749999999999994
40
0.749999999999994
40
1
40
1
40
1
40
1
41
1
10
49.4870661319197
20
-2.42993039737533
30
0
41
1
10
49.5607223667233
20
-2.53964916884138
30
0
41
1
10
49.6337613440074
20
-2.64530933371128
30
0
41
1
10
49.7423072047406
20
-2.79716695772572
30
0
41
1
10
49.7783189882287
20
-2.84667379279358
30
0
41
1
10
49.8499129426303
20
-2.94325400873552
30
0
41
1
10
49.8855184677961
20
-2.99036030790032
30
0
41
1
10
49.920971080402
20
-3.03628462176709
30
0
0
SPLINE
5
11C
100
AcDbEntity
8
1
62
256
6
ByLayer
370
18
48
1
60
0
100
AcDbSpline
70
4
71
3
72
8
73
4
40
0
40
0
40
0
40
0
40
1
40
1
40
1
40
1
41
1
10
50.0500253834478
20
-2.99032595644223
30
0
41
1
10
50.0069439777503
20
-3.00644699721445
30
0
41
1
10
49.963927314651
20
-3.02176579228242
30
0
41
1
10
49.9209710804018
20
-3.03628462176741
30
0
0
SPLINE
5
11D
100
AcDbEntity
8
1
62
256
6
ByLayer
370
18
48
1
60
0
100
AcDbSpline
70
4
71
3
72
10
73
6
40
0
40
0
40
0
40
0
40
0.5
40
0.5
40
1
40
1
40
1
40
1
41
1
10
50.0500253834478
20
-2.9903259564426
30
0
41
1
10
50.1236373477421
20
-2.84740987266966
30
0
41
1
10
50.1979161973912
20
-2.70303292727141
30
0
41
1
10
50.3485682315456
20
-2.41184761747843
30
0
41
1
10
50.4245271777104
20
-2.26583434720146
30
0
41
1
10
50.5015721809141
20
-2.11961811541977
30
0
0
SPLINE
5
11E
100
AcDbEntity
8
1
62
256
6
ByLayer
370
18
48
1
60
0
100
AcDbSpline
70
4
71
3
72
18
73
14
40
0
40
0
40
0
40
0
40
0.229403658251133
40
0.229403658251133
40
0.344105487376748
40
0.344105487376748
40
0.458807316502364
40
0.458807316502364
40
0.688210974753591
40
0.688210974753591
40
0.917614633004819
40
0.917614633004819
40
1
40
1
40
1
40
1
41
1
10
50.5015721809141
20
-2.11961811541977
30
0
41
1
10
50.5110087395822
20
-2.10170938685766
30
0
41
1
10
50.5219939523195
20
-2.08521279733344
30
0
41
1
10
50.5402424645313
20
-2.06207426410325
30
0
41
1
10
50.5466273065049
20
-2.05463568503663
30
0
41
1
10
50.5599680505359
20
-2.04027776306862
30
0
41
1
10
50.5668633365713
20
-2.03342709754676
30
0
41
1
10
50.5879606844451
20
-2.01397308263967
30
0
41
1
10
50.6026553012304
20
-2.00236168550913
30
0
41
1
10
50.6331879971955
20
-1.98167416908672
30
0
41
1
10
50.649127072295
20
-1.97257776310022
30
0
41
1
10
50.670748753607
20
-1.96243203793819
30
0
41
1
10
50.6764743773571
20
-1.959947662811
30
0
41
1
10
50.6822110674232
20
-1.95766673455117
30
0
0
SPLINE
5
11F
100
AcDbEntity
8
1
62
256
6
ByLayer
370
18
48
1
60
0
100
AcDbSpline
70
4
71
3
72
10
73
6
40
0
40
0
40
0
40
0
40
0.5
40
0.5
40
1
40
1
40
1
40
1
41
1
10
54.001333385067
20
2.07753800924522
30
0
41
1
10
54.0479855856954
20
2.12887645702952
30
0
41
1
10
54.0943788841221
20
2.17768895842335
30
0
41
1
10
54.1866878615604
20
2.2702577155267
30
0
41
1
10
54.2325792153776
20
2.31398682662987
30
0
41
1
10
54.27816692254
20
2.35508547192387
30
0
0
SPLINE
5
120
100
AcDbEntity
8
1
62
256
6
ByLayer
370
18
48
1
60
0
100
AcDbSpline
70
4
71
3
72
8
73
4
40
0
40
0
40
0
40
0
40
1
40
1
40
1
40
1
41
1
10
54.27816692254
20
2.35508547192387
30
0
41
1
10
54.4531993692488
20
2.22030738915345
30
0
41
1
10
54.6294339374402
20
2.07811484309991
30
0
41
1
10
54.8076198760284
20
1.92956796948701
30
0
0
SPLINE
5
121
100
AcDbEntity
8
1
62
256
6
ByLayer
370
18
48
1
60
0
100
AcDbSpline
70
4
71
3
72
8
73
4
40
0
40
0
40
0
40
0
40
1
40
1
40
1
40
1
41
1
10
54.8076198760275
20
1.92956796948715
30
0
41
1
10
54.8764019715798
20
1.79902591543976
30
0
41
1
10
54.9457112540709
20
1.6706196682058
30
0
41
1
10
55.0158832739181
20
1.54459695526023
30
0
0
SPLINE
5
122
100
AcDbEntity
8
1
62
256
6
ByLayer
370
18
48
1
60
0
100
AcDbSpline
70
4
71
3
72
30
73
26
40
0
40
0
40
0
40
0
40
0.125
40
0.125
40
0.1875
40
0.1875
40
0.25
40
0.25
40
0.375
40
0.375
40
0.499999999999999
40
0.499999999999999
40
0.624999999999999
40
0.624999999999999
40
0.687499999999999
40
0.687499999999999
40
0.749999999999999
40
0.749999999999999
40
0.8125
40
0.8125
40
0.875
40
0.875
40
0.9375
40
0.9375
40
1
40
1
40
1
40
1
41
1
10
55.0158832739181
20
1.54459695526023
30
0
41
1
10
55.0253433545876
20
1.52760749089461
30
0
41
1
10
55.0363567958768
20
1.51137269610229
30
0
41
1
10
55.0546438595094
20
1.48788754483414
30
0
41
1
10
55.0610410101825
20
1.48020677505002
30
0
41
1
10
55.0744042679383
20
1.46512323498814
30
0
41
1
10
55.0813088836692
20
1.45779264244751
30
0
41
1
10
55.1024286907859
20
1.4365873944852
30
0
41
1
10
55.1171310097155
20
1.42339378820958
30
0
41
1
10
55.147664106983
20
1.39874018535892
30
0
41
1
10
55.1635948148434
20
1.38723674686369
30
0
41
1
10
55.1953909815773
20
1.36680179170472
30
0
41
1
10
55.211382986115
20
1.35775120792266
30
0
41
1
10
55.2354708897832
20
1.34607242333291
30
0
41
1
10
55.2435615706753
20
1.34248190733322
30
0
41
1
10
55.2595322909771
20
1.336108184887
30
0
41
1
10
55.2673926359433
20
1.33332838097166
30
0
41
1
10
55.282832728838
20
1.32863616317604
30
0
41
1
10
55.2904125417915
20
1.3267223867303
30
0
41
1
10
55.3052434459235
20
1.32387397088971
30
0
41
1
10
55.3125171034251
20
1.32294499048629
30
0
41
1
10
55.3262453977816
20
1.32226718178808
30
0
41
1
10
55.3327528201536
20
1.32250359046856
30
0
41
1
10
55.34494773413
20
1.32429988034576
30
0
41
1
10
55.3506574650298
20
1.32587657324353
30
0
41
1
10
55.3557315848047
20
1.32820311928018
30
0
0
SPLINE
5
123
100
AcDbEntity
8
1
62
256
6
ByLayer
370
18
48
1
60
0
100
AcDbSpline
70
4
71
3
72
8
73
4
40
0
40
0
40
0
40
0
40
1
40
1
40
1
40
1
41
1
10
55.3557315848046
20
1.32820311928094
30
0
41
1
10
55.3904368303562
20
1.34411589924497
30
0
41
1
10
55.4249903664035
20
1.35825977156156
30
0
41
1
10
55.4594237283527
20
1.37067200117062
30
0
0
SPLINE
5
124
100
AcDbEntity
8
1
62
256
6
ByLayer
370
18
48
1
60
0
100
AcDbSpline
70
4
71
3
72
10
73
6
40
0
40
0
40
0
40
0
40
0.5
40
0.5
40
1
40
1
40
1
40
1
41
1
10
55.4594237283525
20
1.37067200117048
30
0
41
1
10
55.6212955037242
20
1.2302508104238
30
0
41
1
10
55.7837385659927
20
1.08936863210962
30
0
41
1
10
56.1111535300346
20
0.808467545965186
30
0
41
1
10
56.2761367808762
20
0.668464609245859
30
0
41
1
10
56.442964475609
20
0.529599539285329
30
0
0
SPLINE
5
125
100
AcDbEntity
8
1
62
256
6
ByLayer
370
18
48
1
60
0
100
AcDbSpline
70
4
71
3
72
12
73
8
40
0
40
0
40
0
40
0
40
0.5
40
0.5
40
0.75
40
0.75
40
1
40
1
40
1
40
1
41
1
10
56.4429644756092
20
0.529599539286124
30
0
41
1
10
56.4584722236492
20
0.514953560254071
30
0
41
1
10
56.4747270854817
20
0.500665201093113
30
0
41
1
10
56.5001185620726
20
0.479680178227142
30
0
41
1
10
56.508798361506
20
0.47272558999876
30
0
41
1
10
56.5261996061563
20
0.459191461012892
30
0
41
1
10
56.5349316629276
20
0.452600555832021
30
0
41
1
10
56.5436894877017
20
0.446179353461901
30
0
0
SPLINE
5
126
100
AcDbEntity
8
1
62
256
6
ByLayer
370
18
48
1
60
0
100
AcDbSpline
70
4
71
3
72
8
73
4
40
0
40
0
40
0
40
0
40
1
40
1
40
1
40
1
41
1
10
56.543689487702
20
0.446179353461645
30
0
41
1
10
56.5954363002652
20
0.403593154872596
30
0
41
1
10
56.6475031855506
20
0.361278673970901
30
0
41
1
10
56.6999999208012
20
0.319362755486594
30
0
0
SPLINE
5
127
100
AcDbEntity
8
1
62
256
6
ByLayer
370
18
48
1
60
0
100
AcDbSpline
70
4
71
3
72
10
73
6
40
0
40
0
40
0
40
0
40
0.5
40
0.5
40
1
40
1
40
1
40
1
41
1
10
56.6999999208013
20
0.319362755486594
30
0
41
1
10
56.7477075183925
20
0.271056015051329
30
0
41
1
10
56.7964293121388
20
0.226483378812702
30
0
41
1
10
56.8965165802692
20
0.145373327184444
30
0
41
1
10
56.9476657439695
20
0.109056278642868
30
0
41
1
10
57
20
0.0778016515384934
30
0
0
SPLINE
5
128
100
AcDbEntity
8
1
62
256
6
ByLayer
370
18
48
1
60
0
100
AcDbSpline
70
4
71
3
72
15
73
11
40
0
40
0
40
0
40
0
40
0.25
40
0.5
40
0.5
40
0.625
40
0.625
40
0.75
40
0.75
40
1
40
1
40
1
40
1
41
1
10
57.0000000000001
20
0.0778016515384934
30
0
41
1
10
57.0000000000001
20
0.0797948899325718
30
0
41
1
10
56.9999999999999
20
0.0893543324694974
30
0
41
1
10
57
20
0.109650923843958
30
0
41
1
10
57
20
0.129068598052868
30
0
41
1
10
57
20
0.13626486891377
30
0
41
1
10
57
20
0.151980094252451
30
0
41
1
10
57
20
0.160466406224202
30
0
41
1
10
57
20
0.187761585445315
30
0
41
1
10
57
20
0.208395568273971
30
0
41
1
10
57
20
0.231481304976569
30
0
0
SPLINE
5
129
100
AcDbEntity
8
1
62
256
6
ByLayer
370
18
48
1
60
0
100
AcDbSpline
70
4
71
3
72
22
73
18
40
0
40
0
40
0
40
0
40
0.0624999999999993
40
0.0624999999999993
40
0.124999999999999
40
0.124999999999999
40
0.249999999999997
40
0.249999999999997
40
0.499999999999996
40
0.499999999999996
40
0.562499999999996
40
0.562499999999996
40
0.624999999999996
40
0.624999999999996
40
0.749999999999997
40
0.749999999999997
40
1
40
1
40
1
40
1
41
1
10
57
20
1.5077551257684
30
0
41
1
10
57
20
1.51862139309387
30
0
41
1
10
57
20
1.5294948060189
30
0
41
1
10
56.9999999999999
20
1.55129707550663
30
0
41
1
10
57
20
1.56220234887152
30
0
41
1
10
57.0000000000001
20
1.59559560850278
30
0
41
1
10
57.0000000000001
20
1.6184802590488
30
0
41
1
10
57.0000000000001
20
1.68869421756122
30
0
41
1
10
57
20
1.73761841314274
30
0
41
1
10
56.9999999999999
20
1.80150572524227
30
0
41
1
10
57.0000000000001
20
1.81441976325482
30
0
41
1
10
57
20
1.84052569476486
30
0
41
1
10
57
20
1.8536904621138
30
0
41
1
10
56.9999999999999
20
1.89319700785856
30
0
41
1
10
57
20
1.91967398666495
30
0
41
1
10
57
20
1.99950866297735
30
0
41
1
10
57.0000000000001
20
2.05326895396922
30
0
41
1
10
57.0000000000001
20
2.10758217727414
30
0
0
SPLINE
5
12A
100
AcDbEntity
8
1
62
256
6
ByLayer
370
18
48
1
60
0
100
AcDbSpline
70
4
71
3
72
10
73
6
40
0
40
0
40
0
40
0
40
0.5
40
0.5
40
1
40
1
40
1
40
1
41
1
10
57
20
2.10758217727388
30
0
41
1
10
56.9515002736527
20
2.15770451705399
30
0
41
1
10
56.9022181977592
20
2.20779259189501
30
0
41
1
10
56.8021651966139
20
2.30841845247304
30
0
41
1
10
56.7514235462361
20
2.35892588779538
30
0
41
1
10
56.7000000374373
20
2.40987621635622
30
0
0
SPLINE
5
12B
100
AcDbEntity
8
1
62
256
6
ByLayer
370
18
48
1
60
0
100
AcDbSpline
70
4
71
3
72
8
73
4
40
0
40
0
40
0
40
0
40
1
40
1
40
1
40
1
41
1
10
56.7000000374373
20
2.40987621635622
30
0
41
1
10
56.5943198601015
20
2.43553812223337
30
0
41
1
10
56.4894015215583
20
2.45793956245592
30
0
41
1
10
56.3856926270622
20
2.47679853344758
30
0
0
SPLINE
5
12C
100
AcDbEntity
8
1
62
256
6
ByLayer
370
18
48
1
60
0
100
AcDbSpline
70
4
71
3
72
28
73
24
40
0
40
0
40
0
40
0
40
0.124999999999986
40
0.124999999999986
40
0.249999999999972
40
0.249999999999972
40
0.312499999999932
40
0.312499999999932
40
0.374999999999892
40
0.374999999999892
40
0.499999999999884
40
0.499999999999884
40
0.624999999999877
40
0.624999999999877
40
0.749999999999869
40
0.749999999999869
40
0.812499999999902
40
0.812499999999902
40
0.874999999999934
40
0.874999999999934
40
0.937499999999967
40
0.937499999999967
40
1
40
1
40
1
40
1
41
1
10
56.3856926270615
20
2.47679853344778
30
0
41
1
10
56.375745436711
20
2.46484090685146
30
0
41
1
10
56.3647543377976
20
2.45414402713547
30
0
41
1
10
56.3409069238805
20
2.43502225088343
30
0
41
1
10
56.3283240006402
20
2.4268185092497
30
0
41
1
10
56.308561463678
20
2.41637868286563
30
0
41
1
10
56.3018245257364
20
2.41321302458522
30
0
41
1
10
56.2880536569863
20
2.40751810715301
30
0
41
1
10
56.2809899901364
20
2.40498081049995
30
0
41
1
10
56.2596197911238
20
2.39844889458021
30
0
41
1
10
56.2451269961953
20
2.39550217430548
30
0
41
1
10
56.2156871075074
20
2.39258416126518
30
0
41
1
10
56.2007407675338
20
2.39260269466018
30
0
41
1
10
56.1703629815489
20
2.39628813136474
30
0
41
1
10
56.1553903325913
20
2.3999025992056
30
0
41
1
10
56.1334974682541
20
2.40852837419601
30
0
41
1
10
56.126241070327
20
2.41197315994981
30
0
41
1
10
56.1121988317762
20
2.42000473120535
30
0
41
1
10
56.1054407630082
20
2.4245654836829
30
0
41
1
10
56.0925150313507
20
2.43490326718631
30
0
41
1
10
56.0863141658315
20
2.440715263524
30
0
41
1
10
56.074763016501
20
2.45362072584285
30
0
41
1
10
56.0694777044072
20
2.46063028686336
30
0
41
1
10
56.0647349029935
20
2.46825900384945
30
0
0
SPLINE
5
12D
100
AcDbEntity
8
1
62
256
6
ByLayer
370
18
48
1
60
0
100
AcDbSpline
70
4
71
3
72
8
73
4
40
0
40
0
40
0
40
0
40
1
40
1
40
1
40
1
41
1
10
56.0647349029925
20
2.46825900384871
30
0
41
1
10
56.0522404585521
20
2.4883561093819
30
0
41
1
10
56.0397569245218
20
2.50836238889323
30
0
41
1
10
56.0272836140362
20
2.52827870281115
30
0
0
SPLINE
5
12E
100
AcDbEntity
8
1
62
256
6
ByLayer
370
18
48
1
60
0
100
AcDbSpline
70
4
71
3
72
8
73
4
40
0
40
0
40
0
40
0
40
1
40
1
40
1
40
1
41
1
10
56.0272836140362
20
2.52827870281115
30
0
41
1
10
55.7534266162099
20
2.55675601242842
30
0
41
1
10
55.4848617053228
20
2.55887453485045
30
0
41
1
10
55.2171794364832
20
2.53293584712213
30
0
0
SPLINE
5
12F
100
AcDbEntity
8
1
62
256
6
ByLayer
370
18
48
1
60
0
100
AcDbSpline
70
4
71
3
72
8
73
4
40
0
40
0
40
0
40
0
40
1
40
1
40
1
40
1
41
1
10
55.2171794364831
20
2.53293584712219
30
0
41
1
10
55.1618620540649
20
2.42473243950607
30
0
41
1
10
55.1061803783567
20
2.31551949977416
30
0
41
1
10
55.0499812275338
20
2.20536022569499
30
0
0
SPLINE
5
130
100
AcDbEntity
8
1
62
256
6
ByLayer
370
18
48
1
60
0
100
AcDbSpline
70
4
71
3
72
30
73
26
40
0
40
0
40
0
40
0
40
0.125000000000005
40
0.125000000000005
40
0.250000000000011
40
0.250000000000011
40
0.375000000000016
40
0.375000000000016
40
0.437499999999988
40
0.437499999999988
40
0.499999999999959
40
0.499999999999959
40
0.62499999999997
40
0.62499999999997
40
0.687499999999975
40
0.687499999999975
40
0.74999999999998
40
0.74999999999998
40
0.812499999999985
40
0.812499999999985
40
0.87499999999999
40
0.87499999999999
40
0.937499999999995
40
0.937499999999995
40
1
40
1
40
1
40
1
41
1
10
55.0499812275338
20
2.20536022569499
30
0
41
1
10
55.0408790670803
20
2.1875185435089
30
0
41
1
10
55.0303341136994
20
2.17105813500294
30
0
41
1
10
55.0069564574379
20
2.14030751600575
30
0
41
1
10
54.9940034307702
20
2.12594585657979
30
0
41
1
10
54.9667586344235
20
2.10006860145242
30
0
41
1
10
54.9524113378046
20
2.08845236569905
30
0
41
1
10
54.9298488119551
20
2.07297837239966
30
0
41
1
10
54.9221299644787
20
2.06813916750093
30
0
41
1
10
54.9066052831022
20
2.05929688555872
30
0
41
1
10
54.8987712438466
20
2.05527193628129
30
0
41
1
10
54.8750636898847
20
2.04440327422643
30
0
41
1
10
54.8589876552415
20
2.03874253539956
30
0
41
1
10
54.8344596422209
20
2.03304271148045
30
0
41
1
10
54.8261722530237
20
2.03161318166678
30
0
41
1
10
54.8098361804011
20
2.02987977308251
30
0
41
1
10
54.8017526644775
20
2.02956232690247
30
0
41
1
10
54.7857844606146
20
2.03014563415854
30
0
41
1
10
54.7778994421416
20
2.03104443805592
30
0
41
1
10
54.762374158855
20
2.03428106059718
30
0
41
1
10
54.7549130485372
20
2.03658305641639
30
0
41
1
10
54.7406713499335
20
2.04270161494648
30
0
41
1
10
54.7338711384111
20
2.04652840567033
30
0
41
1
10
54.7211567659899
20
2.055940201059
30
0
41
1
10
54.7153728722838
20
2.06142432633464
30
0
41
1
10
54.7102268720833
20
2.0677809234744
30
0
0
SPLINE
5
131
100
AcDbEntity
8
1
62
256
6
ByLayer
370
18
48
1
60
0
100
AcDbSpline
70
4
71
3
72
10
73
6
40
0
40
0
40
0
40
0
40
0.5
40
0.5
40
1
40
1
40
1
40
1
41
1
10
54.7102268720833
20
2.06778092347437
30
0
41
1
10
54.6651248088358
20
2.12349325053765
30
0
41
1
10
54.6201520829766
20
2.17686181422502
30
0
41
1
10
54.5304703143559
20
2.27896447513751
30
0
41
1
10
54.4858153072497
20
2.32763426404779
30
0
41
1
10
54.441378002312
20
2.37389110502733
30
0
0
SPLINE
5
132
100
AcDbEntity
8
1
62
256
6
ByLayer
370
18
48
1
60
0
100
AcDbSpline
70
4
71
3
72
8
73
4
40
0
40
0
40
0
40
0
40
1
40
1
40
1
40
1
41
1
10
54.441378002312
20
2.3738911050273
30
0
41
1
10
54.3985466613069
20
2.3603619211799
30
0
41
1
10
54.3558540661259
20
2.34608642421443
30
0
41
1
10
54.3132823992533
20
2.3310719050946
30
0
0
SPLINE
5
133
100
AcDbEntity
8
1
62
256
6
ByLayer
370
18
48
1
60
0
100
AcDbSpline
70
4
71
3
72
8
73
4
40
0
40
0
40
0
40
0
40
1
40
1
40
1
40
1
41
1
10
54.204076822268
20
2.29084236602623
30
0
41
1
10
54.1507001834296
20
2.27034195127277
30
0
41
1
10
54.097491167163
20
2.24867901209638
30
0
41
1
10
54.0444141697103
20
2.22586811762727
30
0
0
SPLINE
5
134
100
AcDbEntity
8
1
62
256
6
ByLayer
370
18
48
1
60
0
100
AcDbSpline
70
4
71
3
72
8
73
4
40
0
40
0
40
0
40
0
40
1
40
1
40
1
40
1
41
1
10
54.0444141697103
20
2.22586811762719
30
0
41
1
10
54.0220672368584
20
2.17978304936486
30
0
41
1
10
53.9996532163303
20
2.13377788493781
30
0
41
1
10
53.977159935993
20
2.08785922203836
30
0
0
SPLINE
5
135
100
AcDbEntity
8
1
62
256
6
ByLayer
370
18
48
1
60
0
100
AcDbSpline
70
4
71
3
72
10
73
6
40
0
40
0
40
0
40
0
40
0.5
40
0.5
40
1
40
1
40
1
40
1
41
1
10
46.5834680471297
20
-2.51044794126219
30
0
41
1
10
46.5405362436518
20
-2.5831985369972
30
0
41
1
10
46.4977316746312
20
-2.65550201457987
30
0
41
1
10
46.4123327304126
20
-2.79917360633115
30
0
41
1
10
46.3698238597614
20
-2.87039768905956
30
0
41
1
10
46.3274831124521
20
-2.94096450328524
30
0
0
SPLINE
5
136
100
AcDbEntity
8
1
62
256
6
ByLayer
370
18
48
1
60
0
100
AcDbSpline
70
4
71
3
72
16
73
12
40
0
40
0
40
0
40
0
40
0.0667029878261646
40
0.0667029878261646
40
0.340124854399559
40
0.340124854399559
40
0.613546720972954
40
0.613546720972954
40
0.886968587546349
40
0.886968587546349
40
1
40
1
40
1
40
1
41
1
10
34.97784665635
20
2.0432912489749
30
0
41
1
10
34.9717629491086
20
2.0251821592353
30
0
41
1
10
34.9653972290465
20
2.00715466319525
30
0
41
1
10
34.9310697550029
20
1.91577123292606
30
0
41
1
10
34.8982739898518
20
1.84308014127185
30
0
41
1
10
34.8251900172229
20
1.70690240757671
30
0
41
1
10
34.7847317677198
20
1.64269535914883
30
0
41
1
10
34.6949732930419
20
1.52342683749163
30
0
41
1
10
34.6473642708248
20
1.47059302830425
30
0
41
1
10
34.5756613626869
20
1.40691044740623
30
0
41
1
10
34.5540243477514
20
1.38953754515862
30
0
41
1
10
34.5322577791906
20
1.37405049962587
30
0
0
SPLINE
5
137
100
AcDbEntity
8
1
62
256
6
ByLayer
370
18
48
1
60
0
100
AcDbSpline
70
4
71
3
72
28
73
24
40
0
40
0
40
0
40
0
40
0.0342664206030249
40
0.0342664206030249
40
0.108553619018196
40
0.108553619018196
40
0.257128015848538
40
0.257128015848538
40
0.40570241267888
40
0.40570241267888
40
0.554276809509223
40
0.554276809509223
40
0.628564007924352
40
0.628564007924352
40
0.702851206339482
40
0.702851206339482
40
0.777138404754611
40
0.777138404754611
40
0.851425603169741
40
0.851425603169741
40
0.92571280158487
40
0.92571280158487
40
1
40
1
40
1
40
1
41
1
10
52.3500550379277
20
2.45407696497077
30
0
41
1
10
52.3530058974647
20
2.45149978946566
30
0
41
1
10
52.3560190039081
20
2.44900410943029
30
0
41
1
10
52.3657564455044
20
2.4413497332649
30
0
41
1
10
52.3726450801781
20
2.43653598073644
30
0
41
1
10
52.3937232075074
20
2.42340076936989
30
0
41
1
10
52.4084053828591
20
2.41630042914846
30
0
41
1
10
52.4389168507578
20
2.40522706469403
30
0
41
1
10
52.4548503597671
20
2.4012694008766
30
0
41
1
10
52.4866660675343
20
2.39691373810888
30
0
41
1
10
52.5026736220229
20
2.39644555198777
30
0
41
1
10
52.5267887675349
20
2.39860818807006
30
0
41
1
10
52.5348888556497
20
2.39982196362655
30
0
41
1
10
52.5508870864983
20
2.40329125721044
30
0
41
1
10
52.5587602328695
20
2.40553484826762
30
0
41
1
10
52.5742239092389
20
2.41111927634009
30
0
41
1
10
52.5818146490759
20
2.41445885834563
30
0
41
1
10
52.5966658826638
20
2.42238818396154
30
0
41
1
10
52.6039490530419
20
2.42700582040968
30
0
41
1
10
52.6176922846508
20
2.43740404413245
30
0
41
1
10
52.6242054910809
20
2.4432055111335
30
0
41
1
10
52.6364087143697
20
2.45619318783568
30
0
41
1
10
52.6421198475186
20
2.46342361108489
30
0
41
1
10
52.6471923053056
20
2.47128491855909
30
0
0
SPLINE
5
138
100
AcDbEntity
8
1
62
256
6
ByLayer
370
18
48
1
60
0
100
AcDbSpline
70
4
71
3
72
12
73
8
40
0
40
0
40
0
40
0
40
0.499999999999989
40
0.499999999999989
40
0.749999999999994
40
0.749999999999994
40
1
40
1
40
1
40
1
41
1
10
52.6471923053055
20
2.47128491855929
30
0
41
1
10
52.7207473877129
20
2.58528076502549
30
0
41
1
10
52.793700022289
20
2.6957471685389
30
0
41
1
10
52.9021313502911
20
2.85541297857805
30
0
41
1
10
52.938108103976
20
2.90762662592417
30
0
41
1
10
53.0096340972602
20
3.00980175055028
30
0
41
1
10
53.0452072612314
20
3.05979867286266
30
0
41
1
10
53.0806282185793
20
3.10870455269597
30
0
0
SPLINE
5
139
100
AcDbEntity
8
1
62
256
6
ByLayer
370
18
48
1
60
0
100
AcDbSpline
70
4
71
3
72
8
73
4
40
0
40
0
40
0
40
0
40
1
40
1
40
1
40
1
41
1
10
53.2103104809597
20
3.07146142244037
30
0
41
1
10
53.1670858767771
20
3.08469480666992
30
0
41
1
10
53.1238597955512
20
3.09710916765968
30
0
41
1
10
53.0806282185793
20
3.10870455269591
30
0
0
SPLINE
5
13A
100
AcDbEntity
8
1
62
256
6
ByLayer
370
18
48
1
60
0
100
AcDbSpline
70
4
71
3
72
10
73
6
40
0
40
0
40
0
40
0
40
0.5
40
0.5
40
1
40
1
40
1
40
1
41
1
10
53.210310480959
20
3.07146142242652
30
0
41
1
10
53.2839096954969
20
2.93184546821146
30
0
41
1
10
53.35815548257
20
2.79020605981285
30
0
41
1
10
53.5086919567463
20
2.50333358620188
30
0
41
1
10
53.5845714896153
20
2.35885925078537
30
0
41
1
10
53.6615635886671
20
2.21353047378187
30
0
0
SPLINE
5
13B
100
AcDbEntity
8
1
62
256
6
ByLayer
370
18
48
1
60
0
100
AcDbSpline
70
4
71
3
72
30
73
26
40
0
40
0
40
0
40
0
40
0.124999999999973
40
0.124999999999973
40
0.187499999999959
40
0.187499999999959
40
0.249999999999945
40
0.249999999999945
40
0.374999999999919
40
0.374999999999919
40
0.499999999999894
40
0.499999999999894
40
0.624999999999868
40
0.624999999999868
40
0.68749999999989
40
0.68749999999989
40
0.749999999999912
40
0.749999999999912
40
0.812499999999934
40
0.812499999999934
40
0.874999999999956
40
0.874999999999956
40
0.937499999999978
40
0.937499999999978
40
1
40
1
40
1
40
1
41
1
10
53.6615635886671
20
2.21353047378187
30
0
41
1
10
53.6710103807827
20
2.19569889415652
30
0
41
1
10
53.6820063326651
20
2.17940819023642
30
0
41
1
10
53.7002674181689
20
2.15671637714681
30
0
41
1
10
53.706655948885
20
2.14945045138825
30
0
41
1
10
53.7200030881691
20
2.13548256867881
30
0
41
1
10
53.7269010217395
20
2.1288476822505
30
0
41
1
10
53.7480039840928
20
2.11009251005606
30
0
41
1
10
53.7626995314204
20
2.09901679391086
30
0
41
1
10
53.7932293301675
20
2.07953385298495
30
0
41
1
10
53.8091641245043
20
2.07111209712843
30
0
41
1
10
53.8409714069683
20
2.05762706591193
30
0
41
1
10
53.8569708922065
20
2.05246017599086
30
0
41
1
10
53.8810694901292
20
2.04731382459738
30
0
41
1
10
53.88916407159
20
2.04603353973101
30
0
41
1
10
53.9051391925495
20
2.04448230849923
30
0
41
1
10
53.9130012469796
20
2.04420696341819
30
0
41
1
10
53.9284439152428
20
2.04472921406909
30
0
41
1
10
53.9360246379163
20
2.04552537805858
30
0
41
1
10
53.9508569044077
20
2.04833532264965
30
0
41
1
10
53.9581300742487
20
2.05036721102326
30
0
41
1
10
53.9718562290604
20
2.05570968078581
30
0
41
1
10
53.9783623488038
20
2.05902380865257
30
0
41
1
10
53.9905543361991
20
2.06713069718913
30
0
41
1
10
53.9962619026927
20
2.07195709281294
30
0
41
1
10
54.001333385067
20
2.07753800924468
30
0
0
SPLINE
5
13C
100
AcDbEntity
8
1
62
256
6
ByLayer
370
18
48
1
60
0
100
AcDbSpline
70
4
71
3
72
8
73
4
40
0
40
0
40
0
40
0
40
1
40
1
40
1
40
1
41
1
10
56.650100846637
20
-1.1761055911181
30
0
41
1
10
56.6398713266773
20
-1.17071034734107
30
0
41
1
10
56.6294725234352
20
-1.16581058761938
30
0
41
1
10
56.6192732085026
20
-1.16164493486301
30
0
0
SPLINE
5
13D
100
AcDbEntity
8
1
62
256
6
ByLayer
370
18
48
1
60
0
100
AcDbSpline
70
4
71
3
72
12
73
8
40
0
40
0
40
0
40
0
40
0.249999999999993
40
0.249999999999993
40
0.499999999999987
40
0.499999999999987
40
1
40
1
40
1
40
1
41
1
10
56.6192732085026
20
-1.16164493486315
30
0
41
1
10
56.5324915520594
20
-1.12066299047782
30
0
41
1
10
56.4463505053173
20
-1.07768008564267
30
0
41
1
10
56.2756304668927
20
-0.987230802585458
30
0
41
1
10
56.1909436958143
20
-0.939906840094977
30
0
41
1
10
55.938577130481
20
-0.791882595410101
30
0
41
1
10
55.7725273295962
20
-0.685207228082248
30
0
41
1
10
55.6075707939583
20
-0.571541712149269
30
0
0
SPLINE
5
13E
100
AcDbEntity
8
1
62
256
6
ByLayer
370
18
48
1
60
0
100
AcDbSpline
70
4
71
3
72
8
73
4
40
0
40
0
40
0
40
0
40
1
40
1
40
1
40
1
41
1
10
55.6075707939582
20
-0.571541712149525
30
0
41
1
10
55.5723709491263
20
-0.516241556733434
30
0
41
1
10
55.5370221718798
20
-0.462245944477644
30
0
41
1
10
55.5014778009707
20
-0.409604502805252
30
0
0
SPLINE
5
13F
100
AcDbEntity
8
1
62
256
6
ByLayer
370
18
48
1
60
0
100
AcDbSpline
70
4
71
3
72
30
73
26
40
0
40
0
40
0
40
0
40
0.124999999999925
40
0.124999999999925
40
0.24999999999985
40
0.24999999999985
40
0.374999999999774
40
0.374999999999774
40
0.437499999999769
40
0.437499999999769
40
0.499999999999764
40
0.499999999999764
40
0.624999999999823
40
0.624999999999823
40
0.687499999999852
40
0.687499999999852
40
0.749999999999882
40
0.749999999999882
40
0.812499999999911
40
0.812499999999911
40
0.874999999999941
40
0.874999999999941
40
0.93749999999997
40
0.93749999999997
40
1
40
1
40
1
40
1
41
1
10
55.5014778009675
20
-0.409604502797407
30
0
41
1
10
55.4923806899374
20
-0.396131622917181
30
0
41
1
10
55.4818463955446
20
-0.382527216939991
30
0
41
1
10
55.4584996834181
20
-0.355153758637528
30
0
41
1
10
55.4455684585153
20
-0.34128564201589
30
0
41
1
10
55.418367282026
20
-0.314196111130542
30
0
41
1
10
55.4040416866047
20
-0.30089615646807
30
0
41
1
10
55.3815077601083
20
-0.281270529300997
30
0
41
1
10
55.3737962573054
20
-0.274764608697495
30
0
41
1
10
55.3582816791229
20
-0.262075403599027
30
0
41
1
10
55.3504514909406
20
-0.255867333439255
30
0
41
1
10
55.3267513391111
20
-0.237643553541489
30
0
41
1
10
55.3106748858804
20
-0.226021711962403
30
0
41
1
10
55.2861356833407
20
-0.209440890632976
30
0
41
1
10
55.2778380669669
20
-0.204029633057246
30
0
41
1
10
55.2614690901842
20
-0.193762473691351
30
0
41
1
10
55.2533686871683
20
-0.188884576453688
30
0
41
1
10
55.2373664099916
20
-0.17968315069885
30
0
41
1
10
55.2294642017854
20
-0.175358758122798
30
0
41
1
10
55.2139050383318
20
-0.167353153589431
30
0
41
1
10
55.2064209314903
20
-0.163761555113268
30
0
41
1
10
55.192145948423
20
-0.157497086629348
30
0
41
1
10
55.1853320479785
20
-0.154814199578425
30
0
41
1
10
55.1725934118404
20
-0.150561577525423
30
0
41
1
10
55.1668014093351
20
-0.149034566909847
30
0
41
1
10
55.161650740998
20
-0.148180963195387
30
0
0
SPLINE
5
140
100
AcDbEntity
8
1
62
256
6
ByLayer
370
18
48
1
60
0
100
AcDbSpline
70
4
71
3
72
10
73
6
40
0
40
0
40
0
40
0
40
0.5
40
0.5
40
1
40
1
40
1
40
1
41
1
10
55.161650740998
20
-0.148180963195443
30
0
41
1
10
55.129575223187
20
-0.142865190687104
30
0
41
1
10
55.0975689533463
20
-0.135849538795299
30
0
41
1
10
55.0336708908075
20
-0.118458046131707
30
0
41
1
10
55.0017819551163
20
-0.108080692158694
30
0
41
1
10
54.9700090371719
20
-0.0961015916225563
30
0
0
SPLINE
5
141
100
AcDbEntity
8
1
62
256
6
ByLayer
370
18
48
1
60
0
100
AcDbSpline
70
4
71
3
72
8
73
4
40
0
40
0
40
0
40
0
40
1
40
1
40
1
40
1
41
1
10
54.9700090371722
20
-0.0961015916229258
30
0
41
1
10
54.7884830130085
20
0.0491438664074622
30
0
41
1
10
54.6107054237544
20
0.199553362306659
30
0
41
1
10
54.4352231576985
20
0.353503050569174
30
0
0
SPLINE
5
142
100
AcDbEntity
8
1
62
256
6
ByLayer
370
18
48
1
60
0
100
AcDbSpline
70
4
71
3
72
12
73
8
40
0
40
0
40
0
40
0
40
0.25
40
0.25
40
0.5
40
0.5
40
1
40
1
40
1
40
1
41
1
10
54.4352231576985
20
0.353503050569174
30
0
41
1
10
54.411466617352
20
0.379921563850502
30
0
41
1
10
54.3876179211708
20
0.405581165320797
30
0
41
1
10
54.3398064416053
20
0.455255085173093
30
0
41
1
10
54.3158548572579
20
0.479258895027357
30
0
41
1
10
54.2438238420116
20
0.548741429404203
30
0
41
1
10
54.1955675424246
20
0.591697230098617
30
0
41
1
10
54.1469456506093
20
0.631168934192686
30
0
0
SPLINE
5
143
100
AcDbEntity
8
1
62
256
6
ByLayer
370
18
48
1
60
0
100
AcDbSpline
70
4
71
3
72
30
73
26
40
0
40
0
40
0
40
0
40
0.124999999999966
40
0.124999999999966
40
0.249999999999932
40
0.249999999999932
40
0.374999999999898
40
0.374999999999898
40
0.43749999999988
40
0.43749999999988
40
0.499999999999862
40
0.499999999999862
40
0.624999999999897
40
0.624999999999897
40
0.687499999999914
40
0.687499999999914
40
0.749999999999931
40
0.749999999999931
40
0.812499999999948
40
0.812499999999948
40
0.874999999999965
40
0.874999999999965
40
0.937499999999983
40
0.937499999999983
40
1
40
1
40
1
40
1
41
1
10
54.1469456506093
20
0.631168934192686
30
0
41
1
10
54.1378553733037
20
0.638548505874184
30
0
41
1
10
54.127328635143
20
0.646801058356715
30
0
41
1
10
54.1039975919425
20
0.664625382891956
30
0
41
1
10
54.0910746997548
20
0.674282656119118
30
0
41
1
10
54.0638896095107
20
0.694264086302439
30
0
41
1
10
54.0495716819421
20
0.704633243440185
30
0
41
1
10
54.02704838407
20
0.720792273258837
30
0
41
1
10
54.0193400676715
20
0.726298147456248
30
0
41
1
10
54.0038313027236
20
0.737343869492463
30
0
41
1
10
53.9960038996191
20
0.7429031634951
30
0
41
1
10
53.9723117086143
20
0.759711441981409
30
0
41
1
10
53.9562398510353
20
0.771086566100649
30
0
41
1
10
53.931706630827
20
0.788546196845545
30
0
41
1
10
53.9234105540639
20
0.794466892468932
30
0
41
1
10
53.9070434374857
20
0.806209286079564
30
0
41
1
10
53.8989437992868
20
0.812051057306462
30
0
41
1
10
53.8829426138744
20
0.823684879512314
30
0
41
1
10
53.8750407291985
20
0.829476979619386
30
0
41
1
10
53.8594816358875
20
0.841016452917728
30
0
41
1
10
53.8519962728133
20
0.846636866640267
30
0
41
1
10
53.8377191551014
20
0.857530203719932
30
0
41
1
10
53.8309039455618
20
0.862821226104586
30
0
41
1
10
53.8181615018937
20
0.872943382122514
30
0
41
1
10
53.812367418057
20
0.877668515014619
30
0
41
1
10
53.8072146571562
20
0.882013931485432
30
0
0
SPLINE
5
144
100
AcDbEntity
8
1
62
256
6
ByLayer
370
18
48
1
60
0
100
AcDbSpline
70
4
71
3
72
14
73
10
40
0
40
0
40
0
40
0
40
0.25
40
0.25
40
0.5
40
0.5
40
0.75
40
0.75
40
1
40
1
40
1
40
1
41
1
10
53.8072146571562
20
0.882013931485432
30
0
41
1
10
53.7713981492649
20
0.912218640439249
30
0
41
1
10
53.735669493005
20
0.944246880745794
30
0
41
1
10
53.6643539708872
20
1.01187306511349
30
0
41
1
10
53.6287953272046
20
1.04744713732819
30
0
41
1
10
53.5579490745333
20
1.12190522927457
30
0
41
1
10
53.522641098793
20
1.16081347350428
30
0
41
1
10
53.4524123208304
20
1.24160948086171
30
0
41
1
10
53.4174636488919
20
1.28352372615362
30
0
41
1
10
53.3826465171599
20
1.32689602606885
30
0
0
SPLINE
5
145
100
AcDbEntity
8
1
62
256
6
ByLayer
370
18
48
1
60
0
100
AcDbSpline
70
4
71
3
72
8
73
4
40
0
40
0
40
0
40
0
40
1
40
1
40
1
40
1
41
1
10
53.3826465171599
20
1.32689602606888
30
0
41
1
10
53.3723044568505
20
1.3367812773958
30
0
41
1
10
53.3619721288314
20
1.34666138384992
30
0
41
1
10
53.3516492587918
20
1.35653606197405
30
0
0
SPLINE
5
146
100
AcDbEntity
8
1
62
256
6
ByLayer
370
18
48
1
60
0
100
AcDbSpline
70
4
71
3
72
10
73
6
40
0
40
0
40
0
40
0
40
0.5
40
0.5
40
1
40
1
40
1
40
1
41
1
10
53.2492144550834
20
1.44844456539784
30
0
41
1
10
53.1744896452134
20
1.48592840818535
30
0
41
1
10
53.0991848998148
20
1.51450014554248
30
0
41
1
10
52.9467739821513
20
1.55315015505161
30
0
41
1
10
52.8700991089194
20
1.56311829826709
30
0
41
1
10
52.7925693420397
20
1.56331156321332
30
0
0
SPLINE
5
147
100
AcDbEntity
8
1
62
256
6
ByLayer
370
18
48
1
60
0
100
AcDbSpline
70
4
71
3
72
30
73
26
40
0
40
0
40
0
40
0
40
0.125000000000101
40
0.125000000000101
40
0.250000000000203
40
0.250000000000203
40
0.375000000000304
40
0.375000000000304
40
0.437500000000322
40
0.437500000000322
40
0.500000000000341
40
0.500000000000341
40
0.625000000000308
40
0.625000000000308
40
0.687500000000257
40
0.687500000000257
40
0.750000000000205
40
0.750000000000205
40
0.812500000000154
40
0.812500000000154
40
0.875000000000103
40
0.875000000000103
40
0.937500000000051
40
0.937500000000051
40
1
40
1
40
1
40
1
41
1
10
52.7925693420397
20
1.56331156321332
30
0
41
1
10
52.7834627278318
20
1.56333426403361
30
0
41
1
10
52.7729167845429
20
1.56482423600505
30
0
41
1
10
52.7495473781718
20
1.57005176739821
30
0
41
1
10
52.7366052094785
20
1.57384688209558
30
0
41
1
10
52.709386466079
20
1.58330046614645
30
0
41
1
10
52.6950538004182
20
1.58896270892038
30
0
41
1
10
52.6725133515321
20
1.59888408222724
30
0
41
1
10
52.6648011844301
20
1.60244454171155
30
0
41
1
10
52.6492869950023
20
1.60994873690865
30
0
41
1
10
52.6414574517203
20
1.61390360451205
30
0
41
1
10
52.6177606902531
20
1.62640588118876
30
0
41
1
10
52.6016882393312
20
1.63557693567097
30
0
41
1
10
52.5771585257249
20
1.65090790177149
30
0
41
1
10
52.5688652340459
20
1.65631693771218
30
0
41
1
10
52.5525053632137
20
1.66750744634334
30
0
41
1
10
52.544409275322
20
1.67330452023435
30
0
41
1
10
52.5284149216948
20
1.68536192531212
30
0
41
1
10
52.5205163235939
20
1.6916214946414
30
0
41
1
10
52.5049633185994
20
1.70470169167982
30
0
41
1
10
52.4974805988251
20
1.7113793685154
30
0
41
1
10
52.4832066827658
20
1.72501996386001
30
0
41
1
10
52.4763923188282
20
1.73200548039333
30
0
41
1
10
52.4636498352817
20
1.74625083461274
30
0
41
1
10
52.4578549890741
20
1.75335971037444
30
0
41
1
10
52.4527011048218
20
1.76044912866522
30
0
0
SPLINE
5
148
100
AcDbEntity
8
1
62
256
6
ByLayer
370
18
48
1
60
0
100
AcDbSpline
70
4
71
3
72
14
73
10
40
0
40
0
40
0
40
0
40
0.25
40
0.25
40
0.5
40
0.5
40
0.75
40
0.75
40
1
40
1
40
1
40
1
41
1
10
52.4527011048218
20
1.76044912866522
30
0
41
1
10
52.4165140922926
20
1.81022612324989
30
0
41
1
10
52.3804157838388
20
1.86125060323667
30
0
41
1
10
52.3083599401497
20
1.96572205359095
30
0
41
1
10
52.2724329801642
20
2.01912283110426
30
0
41
1
10
52.2008474241936
20
2.12803007497618
30
0
41
1
10
52.1651740686748
20
2.18356943611647
30
0
41
1
10
52.0942189370077
20
2.29637959317321
30
0
41
1
10
52.0589080670587
20
2.35368987620339
30
0
41
1
10
52.0237283613389
20
2.4118609879566
30
0
0
SPLINE
5
149
100
AcDbEntity
8
1
62
256
6
ByLayer
370
18
48
1
60
0
100
AcDbSpline
70
4
71
3
72
8
73
4
40
0
40
0
40
0
40
0
40
1
40
1
40
1
40
1
41
1
10
51.8941988504926
20
2.49572657722427
30
0
41
1
10
51.9373970142221
20
2.46841458212458
30
0
41
1
10
51.980567965306
20
2.44045520698563
30
0
41
1
10
52.0237283613389
20
2.4118609879566
30
0
0
SPLINE
5
14A
100
AcDbEntity
8
1
62
256
6
ByLayer
370
18
48
1
60
0
100
AcDbSpline
70
4
71
3
72
10
73
6
40
0
40
0
40
0
40
0
40
0.5
40
0.5
40
1
40
1
40
1
40
1
41
1
10
51.8941988504932
20
2.49572657721927
30
0
41
1
10
51.8195395618557
20
2.46848744438739
30
0
41
1
10
51.7443334613488
20
2.43247493721395
30
0
41
1
10
51.5921736117095
20
2.34252475410352
30
0
41
1
10
51.5156384119682
20
2.28885505359563
30
0
41
1
10
51.4381780085875
20
2.22629047790045
30
0
0
SPLINE
5
14B
100
AcDbEntity
8
1
62
256
6
ByLayer
370
18
48
1
60
0
100
AcDbSpline
70
4
71
3
72
30
73
26
40
0
40
0
40
0
40
0
40
0.125000000000048
40
0.125000000000048
40
0.250000000000096
40
0.250000000000096
40
0.375000000000144
40
0.375000000000144
40
0.437500000000136
40
0.437500000000136
40
0.500000000000128
40
0.500000000000128
40
0.625000000000044
40
0.625000000000044
40
0.687500000000037
40
0.687500000000037
40
0.750000000000029
40
0.750000000000029
40
0.812500000000022
40
0.812500000000022
40
0.875000000000015
40
0.875000000000015
40
0.937500000000007
40
0.937500000000007
40
1
40
1
40
1
40
1
41
1
10
51.4381780085875
20
2.22629047790045
30
0
41
1
10
51.4290747378094
20
2.2189377886707
30
0
41
1
10
51.4185321011257
20
2.21339133477088
30
0
41
1
10
51.3951673920457
20
2.20508771168556
30
0
41
1
10
51.3822264295108
20
2.20235013011782
30
0
41
1
10
51.3550086579417
20
2.19961817832984
30
0
41
1
10
51.3406756460205
20
2.19958531959415
30
0
41
1
10
51.3181331644386
20
2.20154389575876
30
0
41
1
10
51.3104202661895
20
2.20254149786061
30
0
41
1
10
51.294904902381
20
2.20520438339284
30
0
41
1
10
51.2870747045557
20
2.20687019265998
30
0
41
1
10
51.2633757755389
20
2.21290305977925
30
0
41
1
10
51.247301611941
20
2.21828415400398
30
0
41
1
10
51.222768857708
20
2.22883636096358
30
0
41
1
10
51.2144754332434
20
2.23279910783433
30
0
41
1
10
51.1981181395476
20
2.24150255563248
30
0
41
1
10
51.1900232536648
20
2.24625181389652
30
0
41
1
10
51.1740310613218
20
2.25664520550436
30
0
41
1
10
51.1661334228733
20
2.26228789007746
30
0
41
1
10
51.1505820094504
20
2.27464190588262
30
0
41
1
10
51.1431022008437
20
2.28121702224914
30
0
41
1
10
51.1288308493624
20
2.29523635914973
30
0
41
1
10
51.1220170601931
20
2.30270337560862
30
0
41
1
10
51.1092761155134
20
2.31859622622332
30
0
41
1
10
51.1034813044558
20
2.32685349522433
30
0
41
1
10
51.0983269164016
20
2.33545557262221
30
0
0
SPLINE
5
14C
100
AcDbEntity
8
1
62
256
6
ByLayer
370
18
48
1
60
0
100
AcDbSpline
70
4
71
3
72
14
73
10
40
0
40
0
40
0
40
0
40
0.25
40
0.25
40
0.5
40
0.5
40
0.75
40
0.75
40
1
40
1
40
1
40
1
41
1
10
51.0983269164016
20
2.33545557262224
30
0
41
1
10
51.062114936679
20
2.39588917774233
30
0
41
1
10
51.025993833975
20
2.45675243768986
30
0
41
1
10
50.953897422619
20
2.57930143311739
30
0
41
1
10
50.9179530181858
20
2.64093467070666
30
0
41
1
10
50.8463363292742
20
2.76468199494806
30
0
41
1
10
50.8106491374403
20
2.82682398533399
30
0
41
1
10
50.7396728440413
20
2.95122420898917
30
0
41
1
10
50.7043547932848
20
3.01353044796204
30
0
41
1
10
50.6691702059128
20
3.07592162848172
30
0
0
SPLINE
5
14D
100
AcDbEntity
8
1
62
256
6
ByLayer
370
18
48
1
60
0
100
AcDbSpline
70
4
71
3
72
10
73
6
40
0
40
0
40
0
40
0
40
0.5
40
0.5
40
1
40
1
40
1
40
1
41
1
10
50.5400071729774
20
3.11265173078354
30
0
41
1
10
50.465367519323
20
3.02548784546946
30
0
41
1
10
50.3901446635472
20
2.9312790268543
30
0
41
1
10
50.2378568028539
20
2.72872572150899
30
0
41
1
10
50.1612183381189
20
2.62094780016901
30
0
41
1
10
50.0836747422881
20
2.50657577020741
30
0
0
SPLINE
5
14E
100
AcDbEntity
8
1
62
256
6
ByLayer
370
18
48
1
60
0
100
AcDbSpline
70
4
71
3
72
30
73
26
40
0
40
0
40
0
40
0
40
0.124999999999995
40
0.124999999999995
40
0.249999999999989
40
0.249999999999989
40
0.374999999999984
40
0.374999999999984
40
0.437500000000013
40
0.437500000000013
40
0.500000000000042
40
0.500000000000042
40
0.625000000000031
40
0.625000000000031
40
0.687500000000026
40
0.687500000000026
40
0.750000000000021
40
0.750000000000021
40
0.812500000000015
40
0.812500000000015
40
0.87500000000001
40
0.87500000000001
40
0.937500000000005
40
0.937500000000005
40
1
40
1
40
1
40
1
41
1
10
50.0836747422881
20
2.50657577020741
30
0
41
1
10
50.0745593565278
20
2.49313113738992
30
0
41
1
10
50.0640016176753
20
2.48152894473162
30
0
41
1
10
50.0406057065133
20
2.46118231878941
30
0
41
1
10
50.027648134591
20
2.45241637270826
30
0
41
1
10
50.0004016677503
20
2.43803697392732
30
0
41
1
10
49.986056404025
20
2.43234944961665
30
0
41
1
10
49.9635006468919
20
2.42605814250717
30
0
41
1
10
49.9557855380464
20
2.42433796666228
30
0
41
1
10
49.9402684733886
20
2.42173305012815
30
0
41
1
10
49.9324380783806
20
2.42083803102241
30
0
41
1
10
49.9087405614204
20
2.41940468933851
30
0
41
1
10
49.8926700014918
20
2.42009302348708
30
0
41
1
10
49.8681469084445
20
2.42407709814484
30
0
41
1
10
49.8598594105342
20
2.42591934997276
30
0
41
1
10
49.8435179189884
20
2.43065054565687
30
0
41
1
10
49.8354307310045
20
2.43353921052082
30
0
41
1
10
49.8194534078518
20
2.44048571612498
30
0
41
1
10
49.8115629414689
20
2.44454167252147
30
0
41
1
10
49.79602519285
20
2.45404270232709
30
0
41
1
10
49.7885544301927
20
2.45938181531597
30
0
41
1
10
49.7742956916484
20
2.47136095255234
30
0
41
1
10
49.7674868800061
20
2.47802002063207
30
0
41
1
10
49.7547548567129
20
2.49281461867417
30
0
41
1
10
49.7489629697698
20
2.50079312821714
30
0
41
1
10
49.743810262758
20
2.50942098617426
30
0
0
SPLINE
5
14F
100
AcDbEntity
8
1
62
256
6
ByLayer
370
18
48
1
60
0
100
AcDbSpline
70
4
71
3
72
14
73
10
40
0
40
0
40
0
40
0
40
0.25
40
0.25
40
0.5
40
0.5
40
0.75
40
0.75
40
1
40
1
40
1
40
1
41
1
10
49.7438102627581
20
2.50942098617426
30
0
41
1
10
49.7076266639952
20
2.57000796497778
30
0
41
1
10
49.6715342022817
20
2.63013438405773
30
0
41
1
10
49.5994935265188
20
2.74946688027168
30
0
41
1
10
49.5635757876392
20
2.80862151144581
30
0
41
1
10
49.4920082547021
20
2.92571095883216
30
0
41
1
10
49.4563431388646
20
2.9836693023567
30
0
41
1
10
49.3854047190979
20
3.09805660167498
30
0
41
1
10
49.3501032324309
20
3.15453191098098
30
0
41
1
10
49.3149337905267
20
3.2102946758844
30
0
0
SPLINE
5
150
100
AcDbEntity
8
1
62
256
6
ByLayer
370
18
48
1
60
0
100
AcDbSpline
70
4
71
3
72
8
73
4
40
0
40
0
40
0
40
0
40
1
40
1
40
1
40
1
41
1
10
49.1848874728901
20
3.19368993731484
30
0
41
1
10
49.2282582632964
20
3.20008604902947
30
0
41
1
10
49.2716044626473
20
3.20562061007678
30
0
41
1
10
49.3149337905267
20
3.21029467588437
30
0
0
SPLINE
5
151
100
AcDbEntity
8
1
62
256
6
ByLayer
370
18
48
1
60
0
100
AcDbSpline
70
4
71
3
72
10
73
6
40
0
40
0
40
0
40
0
40
0.5
40
0.5
40
1
40
1
40
1
40
1
41
1
10
49.1848874728913
20
3.19368993730018
30
0
41
1
10
49.1103010787693
20
3.06176631214453
30
0
41
1
10
49.0351473268322
20
2.92570755165986
30
0
41
1
10
48.8830438991255
20
2.6455565813541
30
0
41
1
10
48.8065195631956
20
2.50224672961184
30
0
41
1
10
48.7291217854605
20
2.35576997052973
30
0
0
SPLINE
5
152
100
AcDbEntity
8
1
62
256
6
ByLayer
370
18
48
1
60
0
100
AcDbSpline
70
4
71
3
72
30
73
26
40
0
40
0
40
0
40
0
40
0.125000000000101
40
0.125000000000101
40
0.250000000000202
40
0.250000000000202
40
0.375000000000303
40
0.375000000000303
40
0.437500000000322
40
0.437500000000322
40
0.50000000000034
40
0.50000000000034
40
0.625000000000308
40
0.625000000000308
40
0.687500000000257
40
0.687500000000257
40
0.750000000000206
40
0.750000000000206
40
0.812500000000154
40
0.812500000000154
40
0.875000000000103
40
0.875000000000103
40
0.937500000000051
40
0.937500000000051
40
1
40
1
40
1
40
1
41
1
10
48.7291217854605
20
2.35576997052973
30
0
41
1
10
48.720012568573
20
2.33853060518237
30
0
41
1
10
48.7094622173556
20
2.322839394326
30
0
41
1
10
48.6860831665132
20
2.29387345050793
30
0
41
1
10
48.6731355826249
20
2.28053947172717
30
0
41
1
10
48.6459085307
20
2.25687773469156
30
0
41
1
10
48.6315726483774
20
2.2464530334324
30
0
41
1
10
48.6090297351325
20
2.232896544971
30
0
41
1
10
48.6013180818078
20
2.22872062879659
30
0
41
1
10
48.5858065903522
20
2.22122831271497
30
0
41
1
10
48.5779786952513
20
2.21789249275986
30
0
41
1
10
48.5542878025281
20
2.20913807793775
30
0
41
1
10
48.5382204987103
20
2.20494813925657
30
0
41
1
10
48.5137004175154
20
2.20158094707116
30
0
41
1
10
48.5054121401527
20
2.20095415701522
30
0
41
1
10
48.4890652710577
20
2.20084165536429
30
0
41
1
10
48.4809753214982
20
2.20134558359248
30
0
41
1
10
48.4649922710017
20
2.20359882408579
30
0
41
1
10
48.4570988358547
20
2.20534614099901
30
0
41
1
10
48.4415548277734
20
2.21031452951647
30
0
41
1
10
48.4340774413482
20
2.21348251296743
30
0
41
1
10
48.4198094014453
20
2.22132767672434
30
0
41
1
10
48.4129965712915
20
2.22601794224465
30
0
41
1
10
48.4002547504641
20
2.23714643300446
30
0
41
1
10
48.3944586174391
20
2.24346431033578
30
0
41
1
10
48.3893023444939
20
2.25062635320401
30
0
0
SPLINE
5
153
100
AcDbEntity
8
1
62
256
6
ByLayer
370
18
48
1
60
0
100
AcDbSpline
70
4
71
3
72
14
73
10
40
0
40
0
40
0
40
0
40
0.25
40
0.25
40
0.5
40
0.5
40
0.75
40
0.75
40
1
40
1
40
1
40
1
41
1
10
48.3893023444939
20
2.25062635320401
30
0
41
1
10
48.3530687589541
20
2.30095466120159
30
0
41
1
10
48.316926567807
20
2.35001136810917
30
0
41
1
10
48.2447875581279
20
2.44562847109353
30
0
41
1
10
48.2088213987411
20
2.49214659646964
30
0
41
1
10
48.1371579354396
20
2.5824882116099
30
0
41
1
10
48.1014455385637
20
2.62632876193982
30
0
41
1
10
48.0304152687456
20
2.7110996988828
30
0
41
1
10
47.9950699560139
20
2.75206216677483
30
0
41
1
10
47.9598594986131
20
2.79162782759778
30
0
0
SPLINE
5
154
100
AcDbEntity
8
1
62
256
6
ByLayer
370
18
48
1
60
0
100
AcDbSpline
70
4
71
3
72
8
73
4
40
0
40
0
40
0
40
0
40
1
40
1
40
1
40
1
41
1
10
47.8301919918217
20
2.72446367452821
30
0
41
1
10
47.8734404615032
20
2.74759410275416
30
0
41
1
10
47.9166584470386
20
2.7699840231293
30
0
41
1
10
47.9598594986131
20
2.79162782759778
30
0
0
SPLINE
5
155
100
AcDbEntity
8
1
62
256
6
ByLayer
370
18
48
1
60
0
100
AcDbSpline
70
4
71
3
72
10
73
6
40
0
40
0
40
0
40
0
40
0.568242646790444
40
0.568242646790444
40
1
40
1
40
1
40
1
41
1
10
47.8301919918228
20
2.72446367451536
30
0
41
1
10
47.7556350663545
20
2.57051753396806
30
0
41
1
10
47.6805249857809
20
2.41606004648457
30
0
41
1
10
47.5467800704105
20
2.14377257122632
30
0
41
1
10
47.4887635100874
20
2.02655861580394
30
0
41
1
10
47.4302757035014
20
1.90979594956426
30
0
0
SPLINE
5
156
100
AcDbEntity
8
1
62
256
6
ByLayer
370
18
48
1
60
0
100
AcDbSpline
70
4
71
3
72
8
73
4
40
0
40
0
40
0
40
0
40
1
40
1
40
1
40
1
41
1
10
46.8895645847979
20
2.89360967244349
30
0
41
1
10
46.8686344309757
20
2.90287125512347
30
0
41
1
10
46.8477112377319
20
2.91195627829288
30
0
41
1
10
46.8267949192431
20
2.92086407251227
30
0
0
SPLINE
5
157
100
AcDbEntity
8
1
62
256
6
ByLayer
370
18
48
1
60
0
100
AcDbSpline
70
4
71
3
72
10
73
6
40
0
40
0
40
0
40
0
40
0.5
40
0.5
40
1
40
1
40
1
40
1
41
1
10
46.8895645847979
20
2.89360967244374
30
0
41
1
10
46.963174731678
20
2.74802037230037
30
0
41
1
10
47.0375105089603
20
2.60155064318761
30
0
41
1
10
47.1883689787541
20
2.30734931638304
30
0
41
1
10
47.2644595705817
20
2.16045863936404
30
0
41
1
10
47.3416390240478
20
2.01399781448802
30
0
0
SPLINE
5
158
100
AcDbEntity
8
1
62
256
6
ByLayer
370
18
48
1
60
0
100
AcDbSpline
70
4
71
3
72
30
73
26
40
0
40
0
40
0
40
0
40
0.12499999999998
40
0.12499999999998
40
0.18749999999997
40
0.18749999999997
40
0.249999999999961
40
0.249999999999961
40
0.375000000000003
40
0.375000000000003
40
0.500000000000045
40
0.500000000000045
40
0.625000000000087
40
0.625000000000087
40
0.687500000000073
40
0.687500000000073
40
0.750000000000058
40
0.750000000000058
40
0.812500000000044
40
0.812500000000044
40
0.875000000000029
40
0.875000000000029
40
0.937500000000015
40
0.937500000000015
40
1
40
1
40
1
40
1
41
1
10
47.3416390240478
20
2.01399781448802
30
0
41
1
10
47.3510507872141
20
1.99613743151079
30
0
41
1
10
47.362004076612
20
1.97955394297733
30
0
41
1
10
47.3802019269473
20
1.9561381956697
30
0
41
1
10
47.3865694073114
20
1.94858201032909
30
0
41
1
10
47.3998751417029
20
1.93394144226761
30
0
41
1
10
47.4067551828357
20
1.92692457565073
30
0
41
1
10
47.4278079767989
20
1.90691632871344
30
0
41
1
10
47.4424758435942
20
1.89485725015427
30
0
41
1
10
47.4729646544766
20
1.87312864407792
30
0
41
1
10
47.4888914338728
20
1.86343114355699
30
0
41
1
10
47.5206999081636
20
1.84719630056833
30
0
41
1
10
47.5367065607333
20
1.84054771740637
30
0
41
1
10
47.5608272707253
20
1.83299479745404
30
0
41
1
10
47.5689306005296
20
1.83087640728701
30
0
41
1
10
47.584937958778
20
1.82760309839213
30
0
41
1
10
47.5928163143164
20
1.82644790272056
30
0
41
1
10
47.6082920878816
20
1.8251689070575
30
0
41
1
10
47.6158896907005
20
1.82504378195506
30
0
41
1
10
47.6307565603938
20
1.82596454820171
30
0
41
1
10
47.6380452758468
20
1.82702469661874
30
0
41
1
10
47.651797209683
20
1.83042770834808
30
0
41
1
10
47.6583148458834
20
1.83276805221846
30
0
41
1
10
47.6705263671
20
1.83892048157034
30
0
41
1
10
47.6762377258707
20
1.84275965101733
30
0
41
1
10
47.6813061972203
20
1.84737007699974
30
0
0
SPLINE
5
159
100
AcDbEntity
8
1
62
256
6
ByLayer
370
18
48
1
60
0
100
AcDbSpline
70
4
71
3
72
12
73
8
40
0
40
0
40
0
40
0
40
0.5
40
0.5
40
0.75
40
0.75
40
1
40
1
40
1
40
1
41
1
10
47.6813061972202
20
1.84737007700076
30
0
41
1
10
47.7548064045068
20
1.91422796017869
30
0
41
1
10
47.8277181592507
20
1.97402107077448
30
0
41
1
10
47.9360467246758
20
2.05269842966081
30
0
41
1
10
47.971981486052
20
2.07707659884281
30
0
41
1
10
48.0433925658497
20
2.12205729204439
30
0
41
1
10
48.0789013335911
20
2.14271945093867
30
0
41
1
10
48.1142669648518
20
2.16168594904744
30
0
0
SPLINE
5
15A
100
AcDbEntity
8
1
62
256
6
ByLayer
370
18
48
1
60
0
100
AcDbSpline
70
4
71
3
72
10
73
6
40
0
40
0
40
0
40
0
40
0.5
40
0.5
40
1
40
1
40
1
40
1
41
1
10
48.24457568102
20
2.06299795634038
30
0
41
1
10
48.3181291671062
20
1.9184304425367
30
0
41
1
10
48.3923919824988
20
1.77665098328686
30
0
41
1
10
48.5430495723536
20
1.49926549555295
30
0
41
1
10
48.6190047327063
20
1.36444711628209
30
0
41
1
10
48.6960339434336
20
1.23376651158227
30
0
0
SPLINE
5
15B
100
AcDbEntity
8
1
62
256
6
ByLayer
370
18
48
1
60
0
100
AcDbSpline
70
4
71
3
72
30
73
26
40
0
40
0
40
0
40
0
40
0.125000000000073
40
0.125000000000073
40
0.187500000000083
40
0.187500000000083
40
0.250000000000093
40
0.250000000000093
40
0.375000000000112
40
0.375000000000112
40
0.500000000000132
40
0.500000000000132
40
0.625000000000152
40
0.625000000000152
40
0.687500000000126
40
0.687500000000126
40
0.750000000000101
40
0.750000000000101
40
0.812500000000076
40
0.812500000000076
40
0.875000000000051
40
0.875000000000051
40
0.937500000000025
40
0.937500000000025
40
1
40
1
40
1
40
1
41
1
10
48.6960339434303
20
1.23376651158927
30
0
41
1
10
48.7054374474208
20
1.21781340008565
30
0
41
1
10
48.7163815791257
20
1.20230193060928
30
0
41
1
10
48.7345657762297
20
1.1795584183557
30
0
41
1
10
48.7409287078276
20
1.17206609941465
30
0
41
1
10
48.754225528896
20
1.15724864738706
30
0
41
1
10
48.7611016201894
20
1.14999044819578
30
0
41
1
10
48.7821433260272
20
1.12884442124309
30
0
41
1
10
48.7968051916878
20
1.11547946736894
30
0
41
1
10
48.8272863177026
20
1.09008980289218
30
0
41
1
10
48.8432118856978
20
1.07800981492124
30
0
41
1
10
48.8750203742579
20
1.05605895852443
30
0
41
1
10
48.8910282331295
20
1.04606848157346
30
0
41
1
10
48.9151523937198
20
1.03266586840007
30
0
41
1
10
48.9232572701101
20
1.02844399420087
30
0
41
1
10
48.9392678931912
20
1.02070517172126
30
0
41
1
10
48.9471477680932
20
1.01719708175978
30
0
41
1
10
48.9626265181103
20
1.01094877651016
30
0
41
1
10
48.9702254865431
20
1.00820731844593
30
0
41
1
10
48.9850946962732
20
1.00359038532906
30
0
41
1
10
48.9923841039496
20
1.00171726833688
30
0
41
1
10
49.0061365986241
20
0.999078550087432
30
0
41
1
10
49.0126542449166
20
0.998292349339067
30
0
41
1
10
49.0248656482647
20
0.997948444492351
30
0
41
1
10
49.0305767677833
20
0.998401758201766
30
0
41
1
10
49.0356452474844
20
0.999576019945238
30
0
0
SPLINE
5
15C
100
AcDbEntity
8
1
62
256
6
ByLayer
370
18
48
1
60
0
100
AcDbSpline
70
4
71
3
72
12
73
8
40
0
40
0
40
0
40
0
40
0.499999999999988
40
0.499999999999988
40
0.749999999999994
40
0.749999999999994
40
1
40
1
40
1
40
1
41
1
10
49.0356452474866
20
0.999576019947654
30
0
41
1
10
49.1092868552011
20
1.01663725483169
30
0
41
1
10
49.1823329911233
20
1.02532937038859
30
0
41
1
10
49.290846001366
20
1.02601580017404
30
0
41
1
10
49.3268410145308
20
1.02419177339615
30
0
41
1
10
49.3983706661721
20
1.01651274924984
30
0
41
1
10
49.4339306555542
20
1.01065153036268
30
0
41
1
10
49.4693330023442
20
1.00286033904683
30
0
0
SPLINE
5
15D
100
AcDbEntity
8
1
62
256
6
ByLayer
370
18
48
1
60
0
100
AcDbSpline
70
4
71
3
72
10
73
6
40
0
40
0
40
0
40
0
40
0.5
40
0.5
40
1
40
1
40
1
40
1
41
1
10
49.5986041173297
20
0.878754105791216
30
0
41
1
10
49.6721334066249
20
0.759926739884975
30
0
41
1
10
49.7463874642488
20
0.647124220968379
30
0
41
1
10
49.8970967852802
20
0.434119381705074
30
0
41
1
10
49.9731112561853
20
0.334529224573089
30
0
41
1
10
50.0502156775052
20
0.242037813845258
30
0
0
SPLINE
5
15E
100
AcDbEntity
8
1
62
256
6
ByLayer
370
18
48
1
60
0
100
AcDbSpline
70
4
71
3
72
30
73
26
40
0
40
0
40
0
40
0
40
0.124999999999881
40
0.124999999999881
40
0.187499999999848
40
0.187499999999848
40
0.249999999999815
40
0.249999999999815
40
0.374999999999811
40
0.374999999999811
40
0.499999999999806
40
0.499999999999806
40
0.624999999999802
40
0.624999999999802
40
0.687499999999835
40
0.687499999999835
40
0.749999999999868
40
0.749999999999868
40
0.812499999999901
40
0.812499999999901
40
0.874999999999934
40
0.874999999999934
40
0.937499999999967
40
0.937499999999967
40
1
40
1
40
1
40
1
41
1
10
50.0502156775052
20
0.242037813845286
30
0
41
1
10
50.0596339117129
20
0.230740073021508
30
0
41
1
10
50.0705970063419
20
0.218974395159961
30
0
41
1
10
50.0888116581915
20
0.200825325646576
30
0
41
1
10
50.0951851143538
20
0.194689229303094
30
0
41
1
10
50.1085033869616
20
0.182251243447695
30
0
41
1
10
50.115390138899
20
0.176004724168422
30
0
41
1
10
50.1364609681845
20
0.157373823065086
30
0
41
1
10
50.1511394719421
20
0.145014790969697
30
0
41
1
10
50.1816465559996
20
0.120359281114247
30
0
41
1
10
50.1975785868716
20
0.107992125873039
30
0
41
1
10
50.2293903293519
20
0.0841335281115789
30
0
41
1
10
50.2453963891393
20
0.0725341433504809
30
0
41
1
10
50.269512558407
20
0.0556064361771291
30
0
41
1
10
50.2776145650755
20
0.0500128604564622
30
0
41
1
10
50.2936080471663
20
0.0391560517179528
30
0
41
1
10
50.3014793590705
20
0.0339053541732426
30
0
41
1
10
50.3169410579172
20
0.0237736185212611
30
0
41
1
10
50.3245315286877
20
0.0188917636599228
30
0
41
1
10
50.3393838189802
20
0.0095382139937215
30
0
41
1
10
50.3466639635108
20
0.0050570708692419
30
0
41
1
10
50.360399913983
20
-0.0031654564283485
30
0
41
1
10
50.3669101835076
20
-0.0069419338398973
30
0
41
1
10
50.3791087843891
20
-0.0137226792147658
30
0
41
1
10
50.3848151973224
20
-0.0167342326060407
30
0
41
1
10
50.3898812113778
20
-0.0192002375674178
30
0
0
SPLINE
5
15F
100
AcDbEntity
8
1
62
256
6
ByLayer
370
18
48
1
60
0
100
AcDbSpline
70
4
71
3
72
12
73
8
40
0
40
0
40
0
40
0
40
0.499999999999988
40
0.499999999999988
40
0.749999999999994
40
0.749999999999994
40
1
40
1
40
1
40
1
41
1
10
50.3898812113777
20
-0.0192002375660252
30
0
41
1
10
50.4634650216906
20
-0.0550189382891233
30
0
41
1
10
50.536456822166
20
-0.0989479469992034
30
0
41
1
10
50.6449143825941
20
-0.176268544071121
30
0
41
1
10
50.6808944921356
20
-0.203947064267311
30
0
41
1
10
50.7523972495287
20
-0.26293609367238
30
0
41
1
10
50.7879446771325
20
-0.294272183768129
30
0
41
1
10
50.82332649525
20
-0.327432261497734
30
0
0
SPLINE
5
160
100
AcDbEntity
8
1
62
256
6
ByLayer
370
18
48
1
60
0
100
AcDbSpline
70
4
71
3
72
10
73
6
40
0
40
0
40
0
40
0
40
0.5
40
0.5
40
1
40
1
40
1
40
1
41
1
10
50.9526867651929
20
-0.456453911328566
30
0
41
1
10
51.0262628783881
20
-0.529148068299037
30
0
41
1
10
51.1005754628663
20
-0.593671970409531
30
0
41
1
10
51.2513692024066
20
-0.705850157464425
30
0
41
1
10
51.3273963654001
20
-0.753188366042082
30
0
41
1
10
51.4044847419576
20
-0.791576361280363
30
0
0
SPLINE
5
161
100
AcDbEntity
8
1
62
256
6
ByLayer
370
18
48
1
60
0
100
AcDbSpline
70
4
71
3
72
30
73
26
40
0
40
0
40
0
40
0
40
0.125000000000018
40
0.125000000000018
40
0.187500000000028
40
0.187500000000028
40
0.250000000000038
40
0.250000000000038
40
0.374999999999997
40
0.374999999999997
40
0.499999999999956
40
0.499999999999956
40
0.624999999999915
40
0.624999999999915
40
0.687499999999929
40
0.687499999999929
40
0.749999999999943
40
0.749999999999943
40
0.812499999999957
40
0.812499999999957
40
0.874999999999972
40
0.874999999999972
40
0.937499999999986
40
0.937499999999986
40
1
40
1
40
1
40
1
41
1
10
51.4044847419576
20
-0.79157636128042
30
0
41
1
10
51.4139067573757
20
-0.796268278520841
30
0
41
1
10
51.4248742554852
20
-0.802264839446252
30
0
41
1
10
51.443095031394
20
-0.812703187239094
30
0
41
1
10
51.4494704801997
20
-0.816430278581834
30
0
41
1
10
51.4627926044111
20
-0.824355915398144
30
0
41
1
10
51.4696810465243
20
-0.828520277579003
30
0
41
1
10
51.4907567521565
20
-0.841446616556823
30
0
41
1
10
51.5054380772285
20
-0.850687559467588
30
0
41
1
10
51.5359504611503
20
-0.870399037211939
30
0
41
1
10
51.5518849086017
20
-0.880945568100771
30
0
41
1
10
51.5837009021511
20
-0.902645881800765
30
0
41
1
10
51.5997089079411
20
-0.91387690929966
30
0
41
1
10
51.6238272938559
20
-0.931442918636407
30
0
41
1
10
51.6319299523636
20
-0.937453845799752
30
0
41
1
10
51.6479239786572
20
-0.949579772781789
30
0
41
1
10
51.6557953535613
20
-0.955677940092386
30
0
41
1
10
51.6712567237076
20
-0.967963954402194
30
0
41
1
10
51.6788468025167
20
-0.974152041817433
30
0
41
1
10
51.6936977790296
20
-0.986641733458072
30
0
41
1
10
51.7009773993659
20
-0.992963512674947
30
0
41
1
10
51.7147122243786
20
-1.00535907653295
30
0
41
1
10
51.7212217668291
20
-1.01147640827281
30
0
41
1
10
51.7334188399644
20
-1.02352449898302
30
0
41
1
10
51.7391250568649
20
-1.02948005489216
30
0
41
1
10
51.7441916560074
20
-1.0351587313699
30
0
0
SPLINE
5
162
100
AcDbEntity
8
1
62
256
6
ByLayer
370
18
48
1
60
0
100
AcDbSpline
70
4
71
3
72
12
73
8
40
0
40
0
40
0
40
0
40
0.5
40
0.5
40
0.75
40
0.75
40
1
40
1
40
1
40
1
41
1
10
51.7441916560073
20
-1.03515873136874
30
0
41
1
10
51.8177948308987
20
-1.11765363696051
30
0
41
1
10
51.8907995935873
20
-1.2066793428987
30
0
41
1
10
51.9992733061673
20
-1.34885900237038
30
0
41
1
10
52.035258640159
20
-1.39768914195397
30
0
41
1
10
52.1067818287028
20
-1.49789960639936
30
0
41
1
10
52.1423465465023
20
-1.54930272967624
30
0
41
1
10
52.1777424473475
20
-1.60203481327545
30
0
0
SPLINE
5
163
100
AcDbEntity
8
1
62
256
6
ByLayer
370
18
48
1
60
0
100
AcDbSpline
70
4
71
3
72
10
73
6
40
0
40
0
40
0
40
0
40
0.5
40
0.5
40
1
40
1
40
1
40
1
41
1
10
52.3072091046963
20
-1.71353137967938
30
0
41
1
10
52.3807575921057
20
-1.72749822937007
30
0
41
1
10
52.4550362303617
20
-1.73251572200473
30
0
41
1
10
52.605788158079
20
-1.72433219566369
30
0
41
1
10
52.6818116803873
20
-1.71118989247944
30
0
41
1
10
52.7589106340148
20
-1.68890812186521
30
0
0
SPLINE
5
164
100
AcDbEntity
8
1
62
256
6
ByLayer
370
18
48
1
60
0
100
AcDbSpline
70
4
71
3
72
30
73
26
40
0
40
0
40
0
40
0
40
0.125000000000047
40
0.125000000000047
40
0.187500000000044
40
0.187500000000044
40
0.250000000000041
40
0.250000000000041
40
0.375000000000034
40
0.375000000000034
40
0.500000000000028
40
0.500000000000028
40
0.625000000000021
40
0.625000000000021
40
0.687500000000018
40
0.687500000000018
40
0.750000000000014
40
0.750000000000014
40
0.812500000000011
40
0.812500000000011
40
0.875000000000007
40
0.875000000000007
40
0.937500000000004
40
0.937500000000004
40
1
40
1
40
1
40
1
41
1
10
52.7589106340149
20
-1.6889081218655
30
0
41
1
10
52.7683417576495
20
-1.68618250597089
30
0
41
1
10
52.7793214168397
20
-1.68538150315462
30
0
41
1
10
52.7975611708884
20
-1.68632583355242
30
0
41
1
10
52.8039430815007
20
-1.68700829625661
30
0
41
1
10
52.8172780152242
20
-1.68907166560283
30
0
41
1
10
52.8241729658987
20
-1.69044560130374
30
0
41
1
10
52.845264997486
20
-1.69546993901346
30
0
41
1
10
52.8599543606012
20
-1.70002322377957
30
0
41
1
10
52.8904754466062
20
-1.71144161653092
30
0
41
1
10
52.9064088609433
20
-1.71837479199073
30
0
41
1
10
52.9382151931558
20
-1.73422502222633
30
0
41
1
10
52.9542150807744
20
-1.74317577989251
30
0
41
1
10
52.9783162850259
20
-1.75838530183725
30
0
41
1
10
52.9864125366073
20
-1.76378822289891
30
0
41
1
10
53.0023879850759
20
-1.7751097459095
30
0
41
1
10
53.0102499699042
20
-1.78101186723157
30
0
41
1
10
53.0256924765068
20
-1.79334783485382
30
0
41
1
10
53.0332730600547
20
-1.79978133152855
30
0
41
1
10
53.0481048155457
20
-1.81326355302258
30
0
41
1
10
53.0553747430808
20
-1.82033943412779
30
0
41
1
10
53.0690917935179
20
-1.83477506378782
30
0
41
1
10
53.075593018075
20
-1.84217928449041
30
0
41
1
10
53.0877749934491
20
-1.85741512528955
30
0
41
1
10
53.0934752585852
20
-1.86528539125075
30
0
41
1
10
53.0985381637187
20
-1.87319446178188
30
0
0
SPLINE
5
165
100
AcDbEntity
8
1
62
256
6
ByLayer
370
18
48
1
60
0
100
AcDbSpline
70
4
71
3
72
14
73
10
40
0
40
0
40
0
40
0
40
0.25
40
0.25
40
0.5
40
0.5
40
0.75
40
0.75
40
1
40
1
40
1
40
1
41
1
10
53.0985381637186
20
-1.87319446178108
30
0
41
1
10
53.1318304913192
20
-1.92520242167589
30
0
41
1
10
53.1649851943146
20
-1.97796140117586
30
0
41
1
10
53.2310719253196
20
-2.08493378909543
30
0
41
1
10
53.263993953473
20
-2.13913206541187
30
0
41
1
10
53.3295323863068
20
-2.24871637602738
30
0
41
1
10
53.3621812146154
20
-2.30415690458611
30
0
41
1
10
53.4271017709522
20
-2.41596642773914
30
0
41
1
10
53.459389875198
20
-2.47236207431911
30
0
41
1
10
53.4915336365888
20
-2.52923149783683
30
0
0
SPLINE
5
166
100
AcDbEntity
8
1
62
256
6
ByLayer
370
18
48
1
60
0
100
AcDbSpline
70
4
71
3
72
8
73
4
40
0
40
0
40
0
40
0
40
1
40
1
40
1
40
1
41
1
10
53.4915336365893
20
-2.52923149783675
30
0
41
1
10
53.5744895398215
20
-2.56338614227505
30
0
41
1
10
53.6578058078849
20
-2.59432180386025
30
0
41
1
10
53.7419363744185
20
-2.62174399410426
30
0
0
SPLINE
5
167
100
AcDbEntity
8
1
62
256
6
ByLayer
370
18
48
1
60
0
100
AcDbSpline
70
4
71
3
72
12
73
8
40
0
40
0
40
0
40
0
40
0.250000000000006
40
0.250000000000006
40
0.500000000000012
40
0.500000000000012
40
1
40
1
40
1
40
1
41
1
10
53.7419363744185
20
-2.62174399410398
30
0
41
1
10
53.7722454641094
20
-2.60002449079491
30
0
41
1
10
53.8026936438339
20
-2.57695909546828
30
0
41
1
10
53.863939792683
20
-2.52809016207749
30
0
41
1
10
53.8947599065801
20
-2.50226467627252
30
0
41
1
10
53.987560273544
20
-2.42088545239389
30
0
41
1
10
54.0499453834427
20
-2.36139750113154
30
0
41
1
10
54.1131034914499
20
-2.29668456472322
30
0
0
SPLINE
5
168
100
AcDbEntity
8
1
62
256
6
ByLayer
370
18
48
1
60
0
100
AcDbSpline
70
4
71
3
72
30
73
26
40
0
40
0
40
0
40
0
40
0.125000000000026
40
0.125000000000026
40
0.187500000000039
40
0.187500000000039
40
0.250000000000052
40
0.250000000000052
40
0.375000000000079
40
0.375000000000079
40
0.500000000000105
40
0.500000000000105
40
0.625000000000131
40
0.625000000000131
40
0.687500000000109
40
0.687500000000109
40
0.750000000000087
40
0.750000000000087
40
0.812500000000066
40
0.812500000000066
40
0.875000000000044
40
0.875000000000044
40
0.937500000000022
40
0.937500000000022
40
1
40
1
40
1
40
1
41
1
10
54.1131034914499
20
-2.29668456472322
30
0
41
1
10
54.1225400914945
20
-2.28701565414514
30
0
41
1
10
54.1335269976421
20
-2.27955756391307
30
0
41
1
10
54.1517797905931
20
-2.27084694218877
30
0
41
1
10
54.1581664210217
20
-2.26836744477481
30
0
41
1
10
54.1715117014419
20
-2.26421327858858
30
0
41
1
10
54.1784124239578
20
-2.26255989792188
30
0
41
1
10
54.1995209615393
20
-2.25881808580414
30
0
41
1
10
54.2142215017429
20
-2.25790193809345
30
0
41
1
10
54.2447651540002
20
-2.25907148454834
30
0
41
1
10
54.260707423297
20
-2.26120656358213
30
0
41
1
10
54.2925245840821
20
-2.26849854749196
30
0
41
1
10
54.308528205479
20
-2.27363987620822
30
0
41
1
10
54.332631575779
20
-2.28389358928655
30
0
41
1
10
54.3407285798839
20
-2.28776532907696
30
0
41
1
10
54.3566928680714
20
-2.29634386469087
30
0
41
1
10
54.3645490091843
20
-2.30103828874311
30
0
41
1
10
54.3799794528271
20
-2.31130745298739
30
0
41
1
10
54.387553810848
20
-2.31688130071453
30
0
41
1
10
54.40237258913
20
-2.32903707886217
30
0
41
1
10
54.4096343177284
20
-2.33564714888033
30
0
41
1
10
54.4233360567972
20
-2.34962924649616
30
0
41
1
10
54.4298302687164
20
-2.35703942644406
30
0
41
1
10
54.4420000302788
20
-2.3728226297313
30
0
41
1
10
54.447695514187
20
-2.38124101448628
30
0
41
1
10
54.4527558893359
20
-2.390005090691
30
0
0
SPLINE
5
169
100
AcDbEntity
8
1
62
256
6
ByLayer
370
18
48
1
60
0
100
AcDbSpline
70
4
71
3
72
8
73
4
40
0
40
0
40
0
40
0
40
1
40
1
40
1
40
1
41
1
10
54.4527558893358
20
-2.39000509069066
30
0
41
1
10
54.5264222222486
20
-2.51758799440228
30
0
41
1
10
54.5994649031187
20
-2.64562702026171
30
0
41
1
10
54.6718051545241
20
-2.77330193251717
30
0
0
SPLINE
5
16A
100
AcDbEntity
8
1
62
256
6
ByLayer
370
18
48
1
60
0
100
AcDbSpline
70
4
71
3
72
14
73
10
40
0
40
0
40
0
40
0
40
0.500000000000017
40
0.500000000000017
40
0.750000000000008
40
0.750000000000008
40
0.875000000000004
40
0.875000000000004
40
1
40
1
40
1
40
1
41
1
10
54.6718051545242
20
-2.77330193251717
30
0
41
1
10
54.7815588699485
20
-2.77416599696133
30
0
41
1
10
54.8919969745832
20
-2.76939371932889
30
0
41
1
10
55.0590608730441
20
-2.75349866754632
30
0
41
1
10
55.1149645142548
20
-2.74675038212175
30
0
41
1
10
55.199348626042
20
-2.7343599673822
30
0
41
1
10
55.2276008075225
20
-2.72984429163415
30
0
41
1
10
55.2840941672997
20
-2.72008432904141
30
0
41
1
10
55.3123498900009
20
-2.71483953503096
30
0
41
1
10
55.3406192879884
20
-2.70923744004159
30
0
0
SPLINE
5
16B
100
AcDbEntity
8
1
62
256
6
ByLayer
370
18
48
1
60
0
100
AcDbSpline
70
4
71
3
72
8
73
4
40
0
40
0
40
0
40
0
40
1
40
1
40
1
40
1
41
1
10
55.3406192879882
20
-2.70923744004131
30
0
41
1
10
55.3825815229967
20
-2.6450618019862
30
0
41
1
10
55.4248015291774
20
-2.57929432842747
30
0
41
1
10
55.4673573860471
20
-2.51195245535871
30
0
0
SPLINE
5
16C
100
AcDbEntity
8
1
62
256
6
ByLayer
370
18
48
1
60
0
100
AcDbSpline
70
4
71
3
72
30
73
26
40
0
40
0
40
0
40
0
40
0.125000000000001
40
0.125000000000001
40
0.187500000000001
40
0.187500000000001
40
0.250000000000002
40
0.250000000000002
40
0.375000000000002
40
0.375000000000002
40
0.500000000000001
40
0.500000000000001
40
0.625000000000001
40
0.625000000000001
40
0.687500000000001
40
0.687500000000001
40
0.750000000000001
40
0.750000000000001
40
0.812500000000001
40
0.812500000000001
40
0.875
40
0.875
40
0.9375
40
0.9375
40
1
40
1
40
1
40
1
41
1
10
55.4673573860471
20
-2.51195245535871
30
0
41
1
10
55.4767993224202
20
-2.49701120572766
30
0
41
1
10
55.4877930202456
20
-2.48418526465073
30
0
41
1
10
55.506055024334
20
-2.46732307835049
30
0
41
1
10
55.5124445914715
20
-2.46210899685815
30
0
41
1
10
55.5257951168836
20
-2.45245146753774
30
0
41
1
10
55.5326979430479
20
-2.44805395158605
30
0
41
1
10
55.5538119029788
20
-2.43618223134345
30
0
41
1
10
55.5685145352531
20
-2.42994482512103
30
0
41
1
10
55.599058460545
20
-2.4206334026544
30
0
41
1
10
55.6149999426314
20
-2.4175816528701
30
0
41
1
10
55.6468155354246
20
-2.4150085118757
30
0
41
1
10
55.6628173709384
20
-2.41542428111291
30
0
41
1
10
55.6869160450548
20
-2.41890250562301
30
0
41
1
10
55.6950106965305
20
-2.42055613916037
30
0
41
1
10
55.7109763798853
20
-2.42488284213411
30
0
41
1
10
55.7188331298141
20
-2.42754503223628
30
0
41
1
10
55.7342646407536
20
-2.4339464461417
30
0
41
1
10
55.7418394612939
20
-2.43768438350028
30
0
41
1
10
55.7566590063902
20
-2.44638746524362
30
0
41
1
10
55.7639230197627
20
-2.45137951464753
30
0
41
1
10
55.777629723424
20
-2.46247520342678
30
0
41
1
10
55.7841261520341
20
-2.46860327571233
30
0
41
1
10
55.7962997907048
20
-2.48219316957071
30
0
41
1
10
55.8019978261058
20
-2.48969972193194
30
0
41
1
10
55.8070609994438
20
-2.49779996103842
30
0
0
SPLINE
5
16D
100
AcDbEntity
8
1
62
256
6
ByLayer
370
18
48
1
60
0
100
AcDbSpline
70
4
71
3
72
8
73
4
40
0
40
0
40
0
40
0
40
1
40
1
40
1
40
1
41
1
10
55.8070609994438
20
-2.49779996103854
30
0
41
1
10
55.8223885946025
20
-2.52232157573016
30
0
41
1
10
55.8376864318102
20
-2.5467084899108
30
0
41
1
10
55.8529571392198
20
-2.57096079408581
30
0
0
SPLINE
5
16E
100
AcDbEntity
8
1
62
256
6
ByLayer
370
18
48
1
60
0
100
AcDbSpline
70
4
71
3
72
12
73
8
40
0
40
0
40
0
40
0
40
0.5
40
0.5
40
0.75
40
0.75
40
1
40
1
40
1
40
1
41
1
10
55.8529571392201
20
-2.57096079408558
30
0
41
1
10
55.9918043774699
20
-2.52408392960567
30
0
41
1
10
56.1315271552875
20
-2.46976302610994
30
0
41
1
10
56.3429191142356
20
-2.37781560662219
30
0
41
1
10
56.4136672458093
20
-2.34541303652483
30
0
41
1
10
56.5559351447669
20
-2.27715324988631
30
0
41
1
10
56.6275421180608
20
-2.24129918931521
30
0
41
1
10
56.6999999208012
20
-2.20383143021425
30
0
0
SPLINE
5
16F
100
AcDbEntity
8
1
62
256
6
ByLayer
370
18
48
1
60
0
100
AcDbSpline
70
4
71
3
72
10
73
6
40
0
40
0
40
0
40
0
40
0.5
40
0.5
40
1
40
1
40
1
40
1
41
1
10
56.6999999208012
20
-2.20383143021422
30
0
41
1
10
56.7477075183924
20
-2.14436286069571
30
0
41
1
10
56.7964293121386
20
-2.08442333430668
30
0
41
1
10
56.8965165802688
20
-1.9640478743635
30
0
41
1
10
56.9476657439696
20
-1.90388518868801
30
0
41
1
10
57
20
-1.84445681779764
30
0
0
SPLINE
5
170
100
AcDbEntity
8
1
62
256
6
ByLayer
370
18
48
1
60
0
100
AcDbSpline
70
4
71
3
72
15
73
11
40
0
40
0
40
0
40
0
40
0.25
40
0.500000000000001
40
0.500000000000001
40
0.625000000000001
40
0.625000000000001
40
0.75
40
0.75
40
1
40
1
40
1
40
1
41
1
10
56.9999999999999
20
-1.84445681779764
30
0
41
1
10
56.9999999999999
20
-1.80370959837904
30
0
41
1
10
57
20
-1.7256756841438
30
0
41
1
10
57
20
-1.65433128241375
30
0
41
1
10
57
20
-1.60344582989436
30
0
41
1
10
57
20
-1.58687198136354
30
0
41
1
10
57
20
-1.5549407677189
30
0
41
1
10
57
20
-1.53957146893529
30
0
41
1
10
57
20
-1.49520831294504
30
0
41
1
10
57
20
-1.46794857595586
30
0
41
1
10
57
20
-1.44302634294252
30
0
0
SPLINE
5
171
100
AcDbEntity
8
1
62
256
6
ByLayer
370
18
48
1
60
0
100
AcDbSpline
70
4
71
3
72
10
73
6
40
0
40
0
40
0
40
0
40
0.5
40
0.5
40
1
40
1
40
1
40
1
41
1
10
57
20
-1.186343821224
30
0
41
1
10
56.9515002736527
20
-1.18558468058581
30
0
41
1
10
56.9022181977592
20
-1.1859314670069
30
0
41
1
10
56.8021651966139
20
-1.18977740090813
30
0
41
1
10
56.7514235462361
20
-1.19328210261386
30
0
41
1
10
56.7000000374373
20
-1.19912875790283
30
0
0
SPLINE
5
172
100
AcDbEntity
8
1
62
256
6
ByLayer
370
18
48
1
60
0
100
AcDbSpline
70
4
71
3
72
8
73
4
40
0
40
0
40
0
40
0
40
1
40
1
40
1
40
1
41
1
10
56.7000000374373
20
-1.19912875790283
30
0
41
1
10
56.6833500212705
20
-1.19151915362849
30
0
41
1
10
56.6667147592943
20
-1.18384760761941
30
0
41
1
10
56.650100846637
20
-1.17610559111807
30
0
0
SPLINE
5
173
100
AcDbEntity
8
1
62
256
6
ByLayer
370
18
48
1
60
0
100
AcDbSpline
70
4
71
3
72
8
73
4
40
0
40
0
40
0
40
0
40
1
40
1
40
1
40
1
41
1
10
48.7314951717694
20
-3.19356176467286
30
0
41
1
10
48.7267187125664
20
-3.20539116524503
30
0
41
1
10
48.7219531524735
20
-3.2143406834727
30
0
41
1
10
48.7171230958799
20
-3.22033028712161
30
0
0
SPLINE
5
174
100
AcDbEntity
8
1
62
256
6
ByLayer
370
18
48
1
60
0
100
AcDbSpline
70
4
71
3
72
8
73
4
40
0
40
0
40
0
40
0
40
1
40
1
40
1
40
1
41
1
10
48.5655518956813
20
-3.22126039420939
30
0
41
1
10
48.5703902865853
20
-3.22659909084891
30
0
41
1
10
48.5752604807403
20
-3.22928708350219
30
0
41
1
10
48.5801470924504
20
-3.22928551459955
30
0
0
SPLINE
5
175
100
AcDbEntity
8
1
62
256
6
ByLayer
370
18
48
1
60
0
100
AcDbSpline
70
4
71
3
72
16
73
12
40
0
40
0
40
0
40
0
40
0.229097160835251
40
0.229097160835251
40
0.42182287062644
40
0.42182287062644
40
0.518185725522035
40
0.518185725522035
40
0.614548580417629
40
0.614548580417629
40
1
40
1
40
1
40
1
41
1
10
50.4848715637594
20
3.2292859806129
30
0
41
1
10
50.4890581625673
20
3.22929390895328
30
0
41
1
10
50.493260840905
20
3.22726430087869
30
0
41
1
10
50.5010306513714
20
3.21973622139617
30
0
41
1
10
50.5045928169731
20
3.21483673166773
30
0
41
1
10
50.5099565458303
20
3.20525059699341
30
0
41
1
10
50.5117472650691
20
3.20168193043534
30
0
41
1
10
50.5153148739584
20
3.19384124531024
30
0
41
1
10
50.5170943897441
20
3.18956481851313
30
0
41
1
10
50.525971997185
20
3.16642136055515
30
0
41
1
10
50.5330092789159
20
3.14228477063301
30
0
41
1
10
50.540007172981
20
3.11265173078968
30
0
0
SPLINE
5
176
100
AcDbEntity
8
1
62
256
6
ByLayer
370
18
48
1
60
0
100
AcDbSpline
70
4
71
3
72
15
73
11
40
0
40
0
40
0
40
0
40
0.335826093312826
40
0.335826093312826
40
0.50373913996924
40
0.587695663297448
40
0.587695663297448
40
0.671652186625656
40
0.671652186625656
40
1
40
1
40
1
40
1
41
1
10
50.669170205913
20
3.07592162848161
30
0
41
1
10
50.6622415045048
20
3.10983137037098
30
0
41
1
10
50.6553456454592
20
3.13822454396649
30
0
41
1
10
50.6449065651406
20
3.17247059394538
30
0
41
1
10
50.6396660645002
20
3.18750367155423
30
0
41
1
10
50.6343836309895
20
3.19935057702301
30
0
41
1
10
50.6308517026891
20
3.20653191910063
30
0
41
1
10
50.6290785603471
20
3.20976686605246
30
0
41
1
10
50.6203914203142
20
3.22380069481892
30
0
41
1
10
50.6135072891574
20
3.2292943514191
30
0
41
1
10
50.6066372287573
20
3.22928326781854
30
0
0
SPLINE
5
177
100
AcDbEntity
8
1
62
256
6
ByLayer
370
18
48
1
60
0
100
AcDbSpline
70
4
71
3
72
23
73
19
40
0
40
0
40
0
40
0
40
0.0742060609263691
40
0.0742060609263691
40
0.132068182118471
40
0.132068182118471
40
0.189930303310573
40
0.189930303310573
40
0.305654545694776
40
0.305654545694776
40
0.537103030463183
40
0.76855151523159
40
0.76855151523159
40
0.884275757615795
40
0.884275757615795
40
0.942137878807898
40
0.942137878807898
40
1
40
1
40
1
40
1
41
1
10
47.4319769431169
20
-3.22928550356286
30
0
41
1
10
47.4297830812595
20
-3.22928161228907
30
0
41
1
10
47.4275819896721
20
-3.22868164504465
30
0
41
1
10
47.42364467641
20
-3.22654398331
30
0
41
1
10
47.4219125994273
20
-3.22524099484164
30
0
41
1
10
47.4184295527153
20
-3.22189349268919
30
0
41
1
10
47.416680910598
20
-3.21985023435502
30
0
41
1
10
47.4114294566187
20
-3.21264638825986
30
0
41
1
10
47.4079136793712
20
-3.20640461590816
30
0
41
1
10
47.3973357249266
20
-3.18344386556359
30
0
41
1
10
47.3831518144084
20
-3.14155724016044
30
0
41
1
10
47.3689160667931
20
-3.07743680300536
30
0
41
1
10
47.3582316047534
20
-3.02085500946492
30
0
41
1
10
47.3546685146338
20
-3.00057636712199
30
0
41
1
10
47.3493195610482
20
-2.96798524129937
30
0
41
1
10
47.3475374412553
20
-2.95676778215756
30
0
41
1
10
47.3439917295742
20
-2.93373944469835
30
0
41
1
10
47.3422256787536
20
-2.92191377183585
30
0
41
1
10
47.3404659530003
20
-2.90977989724519
30
0
0
SPLINE
5
178
100
AcDbEntity
8
1
62
256
6
ByLayer
370
18
48
1
60
0
100
AcDbSpline
70
4
71
3
72
22
73
18
40
0
40
0
40
0
40
0
40
0.106289872510693
40
0.159434808766039
40
0.159434808766039
40
0.212579745021386
40
0.212579745021386
40
0.425159490042771
40
0.425159490042771
40
0.637739235064158
40
0.637739235064158
40
0.850318980085544
40
0.850318980085544
40
0.903463916340891
40
0.903463916340891
40
0.956608852596238
40
1
40
1
40
1
40
1
41
1
10
47.2114116385456
20
-2.85206473781904
30
0
41
1
10
47.2149509871586
20
-2.87817645400636
30
0
41
1
10
47.2202752834787
20
-2.91551549965942
30
0
41
1
10
47.2256214628368
20
-2.95006748053626
30
0
41
1
10
47.2291906539631
20
-2.97247535806758
30
0
41
1
10
47.2309800820735
20
-2.98337906825742
30
0
41
1
10
47.2398932596568
20
-3.03603624576263
30
0
41
1
10
47.2469384979999
20
-3.07239101668671
30
0
41
1
10
47.2609082209056
20
-3.13392898055474
30
0
41
1
10
47.2678326688461
20
-3.15911112821155
30
0
41
1
10
47.2816486864565
20
-3.1983055032232
30
0
41
1
10
47.2885401596564
20
-3.21231863042558
30
0
41
1
10
47.2972138514102
20
-3.22262950683867
30
0
41
1
10
47.2989541215308
20
-3.22433181506665
30
0
41
1
10
47.3024257953395
20
-3.22699321372707
30
0
41
1
10
47.3055724625357
20
-3.22873936088405
30
0
41
1
10
47.3087121611077
20
-3.22928140080703
30
0
41
1
10
47.3101225374751
20
-3.22928340883732
30
0
0
SPLINE
5
179
100
AcDbEntity
8
1
62
256
6
ByLayer
370
18
48
1
60
0
100
AcDbSpline
70
4
71
3
72
28
73
24
40
0
40
0
40
0
40
0
40
0.142747307831944
40
0.142747307831944
40
0.178434134789931
40
0.178434134789931
40
0.214120961747918
40
0.214120961747918
40
0.285494615663892
40
0.285494615663892
40
0.428241923495841
40
0.57098923132779
40
0.57098923132779
40
0.642362885243763
40
0.642362885243763
40
0.67804971220175
40
0.67804971220175
40
0.713736539159736
40
0.713736539159736
40
0.856483846991682
40
0.999231154823629
40
0.999231154823629
40
1
40
1
40
1
40
1
41
1
10
52.0237283613389
20
2.4118609879566
30
0
41
1
10
52.0166660336256
20
2.48588992187632
30
0
41
1
10
52.0096068499088
20
2.55575955078331
30
0
41
1
10
52.0007578253245
20
2.6377557342438
30
0
41
1
10
51.9989866270964
20
2.65388722945536
30
0
41
1
10
51.9954401395802
20
2.68560829976133
30
0
41
1
10
51.9936671750774
20
2.7011762011345
30
0
41
1
10
51.9883702769325
20
2.74680303124436
30
0
41
1
10
51.9848592942165
20
2.7758675688531
30
0
41
1
10
51.9743656328811
20
2.85907725976244
30
0
41
1
10
51.9604824827355
20
2.95942063976904
30
0
41
1
10
51.9466731684831
20
3.03884377584348
30
0
41
1
10
51.9362698919119
20
3.09041895016347
30
0
41
1
10
51.932794208373
20
3.10627601121402
30
0
41
1
10
51.9275577089123
20
3.12801590596902
30
0
41
1
10
51.9258102482436
20
3.13491245188212
30
0
41
1
10
51.9223259357752
20
3.14794545047226
30
0
41
1
10
51.9205867442772
20
3.15409177970116
30
0
41
1
10
51.9119008433059
20
3.18299213237154
30
0
41
1
10
51.8980668941136
20
3.21754260688485
30
0
41
1
10
51.88413158885
20
3.22921998679985
30
0
41
1
10
51.8770542811652
20
3.22928308716339
30
0
41
1
10
51.8770163645316
20
3.22928325731871
30
0
41
1
10
51.8769784458337
20
3.22928325955644
30
0
0
SPLINE
5
17A
100
AcDbEntity
8
1
62
256
6
ByLayer
370
18
48
1
60
0
100
AcDbSpline
70
4
71
3
72
40
73
36
40
0
40
0
40
0
40
0
40
0.124999999999813
40
0.124999999999813
40
0.249999999999625
40
0.249999999999625
40
0.312499999999528
40
0.312499999999528
40
0.343749999999475
40
0.343749999999475
40
0.374999999999421
40
0.374999999999421
40
0.390624999999405
40
0.390624999999405
40
0.398437499999414
40
0.398437499999414
40
0.406249999999423
40
0.406249999999423
40
0.414062499999431
40
0.414062499999431
40
0.42187499999944
40
0.42187499999944
40
0.437499999999459
40
0.437499999999459
40
0.468749999999497
40
0.468749999999497
40
0.499999999999535
40
0.499999999999535
40
0.562499999999595
40
0.562499999999595
40
0.624999999999655
40
0.624999999999655
40
0.749999999999773
40
0.749999999999773
40
1
40
1
40
1
40
1
41
1
10
45.4296965562922
20
-2.2870873095911
30
0
41
1
10
45.4306430205295
20
-2.27760625597068
30
0
41
1
10
45.4318153939061
20
-2.26771228459913
30
0
41
1
10
45.4350003612236
20
-2.2473192768384
30
0
41
1
10
45.4369650790215
20
-2.23678713759244
30
0
41
1
10
45.4414205623841
20
-2.22107744909488
30
0
41
1
10
45.4431517246878
20
-2.21584535735619
30
0
41
1
10
45.4466224401244
20
-2.20833530017009
30
0
41
1
10
45.4479240417809
20
-2.2058890300861
30
0
41
1
10
45.4511165049246
20
-2.20129989224225
30
0
41
1
10
45.4529435415861
20
-2.19910491867293
30
0
41
1
10
45.4569847680042
20
-2.19671058179901
30
0
41
1
10
45.4585107291539
20
-2.19603502638339
30
0
41
1
10
45.4618319285927
20
-2.19589852681526
30
0
41
1
10
45.4631319622941
20
-2.19601920975498
30
0
41
1
10
45.4661966911929
20
-2.19699731234553
30
0
41
1
10
45.4679625165052
20
-2.19791930675655
30
0
41
1
10
45.4710597226686
20
-2.20008980279846
30
0
41
1
10
45.4724257235518
20
-2.201298910491
30
0
41
1
10
45.4748539578451
20
-2.20368434021435
30
0
41
1
10
45.4759265009098
20
-2.20487298784079
30
0
41
1
10
45.4788814074292
20
-2.20836455301455
30
0
41
1
10
45.4805452606046
20
-2.21064046309678
30
0
41
1
10
45.4851483565783
20
-2.21735881580426
30
0
41
1
10
45.4876392281736
20
-2.22161677993699
30
0
41
1
10
45.4922459259682
20
-2.22995285616747
30
0
41
1
10
45.494327140209
20
-2.23401927450544
30
0
41
1
10
45.5002125040507
20
-2.24601593694075
30
0
41
1
10
45.5036636035703
20
-2.25375066802428
30
0
41
1
10
45.5100987212006
20
-2.26875408975508
30
0
41
1
10
45.5130748605051
20
-2.27603440303381
30
0
41
1
10
45.5215755479225
20
-2.29733838595715
30
0
41
1
10
45.5266796103335
20
-2.31082828871803
30
0
41
1
10
45.5411753963807
20
-2.34952697796706
30
0
41
1
10
45.5497622627657
20
-2.37300010448052
30
0
41
1
10
45.557881432863
20
-2.39422926662655
30
0
0
SPLINE
5
17B
100
AcDbEntity
8
1
62
256
6
ByLayer
370
18
48
1
60
0
100
AcDbSpline
70
4
71
3
72
24
73
20
40
0
40
0
40
0
40
0
40
0.125
40
0.249999999999999
40
0.249999999999999
40
0.312499999999999
40
0.34375
40
0.34375
40
0.375
40
0.375
40
0.5
40
0.5
40
0.749999999999999
40
0.749999999999999
40
0.812499999999999
40
0.812499999999999
40
0.874999999999999
40
0.874999999999999
40
1
40
1
40
1
40
1
41
1
10
45.9915054527247
20
1.66267474794864
30
0
41
1
10
45.986814272089
20
1.72787632166143
30
0
41
1
10
45.977488453799
20
1.85289731921463
30
0
41
1
10
45.9682409528182
20
1.96727069046875
30
0
41
1
10
45.961304302038
20
2.04899280285017
30
0
41
1
10
45.9578354296013
20
2.08883767921134
30
0
41
1
10
45.9543570382479
20
2.12712976568665
30
0
41
1
10
45.9520347905471
20
2.15230836651662
30
0
41
1
10
45.9508716603635
20
2.16472610829149
30
0
41
1
10
45.945075504984
20
2.22561005870753
30
0
41
1
10
45.940477194892
20
2.27073926372878
30
0
41
1
10
45.9266560989165
20
2.39564232237814
30
0
41
1
10
45.9173480045171
20
2.46498909989106
30
0
41
1
10
45.9054623014965
20
2.53391549814006
30
0
41
1
10
45.9030736737108
20
2.54680629866738
30
0
41
1
10
45.8982707802554
20
2.57076030186528
30
0
41
1
10
45.8958724451485
20
2.58174255483581
30
0
41
1
10
45.8886983700276
20
2.61168554158351
30
0
41
1
10
45.883936828713
20
2.62768415595664
30
0
41
1
10
45.8791815402368
20
2.63979730188231
30
0
0
SPLINE
5
17C
100
AcDbEntity
8
1
62
256
6
ByLayer
370
13
48
1
60
0
100
AcDbSpline
70
4
71
3
72
9
73
5
40
0
40
0
40
0
40
0
40
0.611232598143008
40
1
40
1
40
1
40
1
41
1.04
10
46.1320004545307
20
1.48314322600259
30
0
41
1.04
10
46.1021049231528
20
1.78213734462127
30
0
41
1.04
10
46.0537412645417
20
2.18697006961044
30
0
41
1.04
10
46.0059812317114
20
2.39808642225993
30
0
41
1.04
10
45.9873491674529
20
2.44910089785419
30
0
0
SPLINE
5
17D
100
AcDbEntity
8
1
62
256
6
ByLayer
370
18
48
1
60
0
100
AcDbSpline
70
4
71
3
72
24
73
20
40
0
40
0
40
0
40
0
40
0.079751185421461
40
0.079751185421461
40
0.159502370842922
40
0.159502370842922
40
0.319004741685857
40
0.319004741685857
40
0.638009483371727
40
0.638009483371727
40
0.797511854214655
40
0.797511854214655
40
0.837387446925391
40
0.837387446925391
40
0.877263039636126
40
0.877263039636126
40
0.957014225057597
40
0.957014225057597
40
1
40
1
40
1
40
1
41
1
10
34.9778567922615
20
2.04332142092594
30
0
41
1
10
34.9500524764707
20
2.03422700269334
30
0
41
1
10
34.9220821607107
20
2.02499975595686
30
0
41
1
10
34.8656637500095
20
2.0064527629643
30
0
41
1
10
34.8372533540619
20
1.99710331344647
30
0
41
1
10
34.7514363975587
20
1.9688906771718
30
0
41
1
10
34.6934253878414
20
1.94987737580695
30
0
41
1
10
34.5166395874309
20
1.89315743594275
30
0
41
1
10
34.3951087156387
20
1.85575998778376
30
0
41
1
10
34.2055702250329
20
1.8045662322483
30
0
41
1
10
34.1411918783009
20
1.78831280098783
30
0
41
1
10
34.0589912910525
20
1.76952200075266
30
0
41
1
10
34.0424634264922
20
1.76584169107951
30
0
41
1
10
34.0092231211623
20
1.75865354427143
30
0
41
1
10
33.9924890771262
20
1.755141546369
30
0
41
1
10
33.9422745020089
20
1.74494515521477
30
0
41
1
10
33.9087194832549
20
1.73858627164606
30
0
41
1
10
33.8569518833716
20
1.72954766650915
30
0
41
1
10
33.8387980108552
20
1.72652083356826
30
0
41
1
10
33.820619672886
20
1.72364230607411
30
0
0
SPLINE
5
17E
100
AcDbEntity
8
1
62
256
6
ByLayer
370
18
48
1
60
0
100
AcDbSpline
70
4
71
3
72
18
73
14
40
0
40
0
40
0
40
0
40
0.044768898641142
40
0.044768898641142
40
0.108450972065066
40
0.108450972065066
40
0.235815118912913
40
0.235815118912913
40
0.490543412608609
40
0.490543412608609
40
0.745271706304305
40
0.745271706304305
40
1
40
1
40
1
40
1
41
1
10
32.0391384622534
20
2.25689928537432
30
0
41
1
10
32.0556802964293
20
2.25688464116541
30
0
41
1
10
32.0723443676276
20
2.25665972852625
30
0
41
1
10
32.1129812329804
20
2.25561923122399
30
0
41
1
10
32.1370969149506
20
2.25459195808619
30
0
41
1
10
32.2097207349467
20
2.25032446171954
30
0
41
1
10
32.258551452167
20
2.24590544104467
30
0
41
1
10
32.4058656332181
20
2.22826339615583
30
0
41
1
10
32.5051447336222
20
2.21068339679641
30
0
41
1
10
32.7046173276284
20
2.16461564216709
30
0
41
1
10
32.8048224602357
20
2.13611026438989
30
0
41
1
10
33.0057399413332
20
2.06812698635571
30
0
41
1
10
33.1064523935501
20
2.02863765030983
30
0
41
1
10
33.2075234608579
20
1.98346263298069
30
0
0
SPLINE
5
17F
100
AcDbEntity
8
1
62
256
6
ByLayer
370
18
48
1
60
0
100
AcDbSpline
70
4
71
3
72
29
73
25
40
0
40
0
40
0
40
0
40
0.0624999999999998
40
0.0624999999999998
40
0.125
40
0.125
40
0.25
40
0.25
40
0.375000000000001
40
0.375000000000001
40
0.437500000000001
40
0.437500000000001
40
0.500000000000001
40
0.500000000000001
40
0.625000000000001
40
0.625000000000001
40
0.75
40
0.75
40
0.812500000000001
40
0.812500000000001
40
0.843750000000001
40
0.843750000000001
40
0.875000000000001
40
1
40
1
40
1
40
1
41
1
10
52.4755154754974
20
-3.17693699957047
30
0
41
1
10
52.4719614122123
20
-3.16682012547224
30
0
41
1
10
52.4684080065602
20
-3.15527291343966
30
0
41
1
10
52.4613188899761
20
-3.12944102627685
30
0
41
1
10
52.4577798409666
20
-3.11514675088364
30
0
41
1
10
52.4471752524539
20
-3.06818906080119
30
0
41
1
10
52.4401225127195
20
-3.03146149087672
30
0
41
1
10
52.4260353115462
20
-2.94721563922505
30
0
41
1
10
52.4190019551698
20
-2.89969796280195
30
0
41
1
10
52.4084400473255
20
-2.82010573400174
30
0
41
1
10
52.4049076994464
20
-2.79210294070967
30
0
41
1
10
52.3979024961729
20
-2.73387373633267
30
0
41
1
10
52.3944242015136
20
-2.70361396918958
30
0
41
1
10
52.3840417217064
20
-2.60946363158283
30
0
41
1
10
52.3771925141468
20
-2.54221069830442
30
0
41
1
10
52.3634781904707
20
-2.39885555353413
30
0
41
1
10
52.3566055742701
20
-2.32275374837451
30
0
41
1
10
52.3461246611266
20
-2.20184493746601
30
0
41
1
10
52.3426060065817
20
-2.1604136155361
30
0
41
1
10
52.3372874866158
20
-2.09653694989149
30
0
41
1
10
52.335511609029
20
-2.07500037800654
30
0
41
1
10
52.33196555327
20
-2.03158769949414
30
0
41
1
10
52.3231055118765
20
-1.92209554187508
30
0
41
1
10
52.3142686161551
20
-1.80787266142116
30
0
41
1
10
52.3072091046963
20
-1.71353137967935
30
0
0
SPLINE
5
180
100
AcDbEntity
8
1
62
256
6
ByLayer
370
18
48
1
60
0
100
AcDbSpline
70
4
71
3
72
27
73
23
40
0
40
0
40
0
40
0
40
0.124999999999997
40
0.124999999999997
40
0.187499999999996
40
0.218749999999996
40
0.218749999999996
40
0.249999999999996
40
0.249999999999996
40
0.374999999999996
40
0.374999999999996
40
0.499999999999996
40
0.624999999999996
40
0.624999999999996
40
0.656249999999997
40
0.656249999999997
40
0.687499999999997
40
0.749999999999997
40
0.749999999999997
40
0.874999999999999
40
0.874999999999999
40
1
40
1
40
1
40
1
41
1
10
52.1777424473475
20
-1.60203481327545
30
0
41
1
10
52.184737834917
20
-1.69877031077957
30
0
41
1
10
52.1916903209636
20
-1.79250514666825
30
0
41
1
10
52.2021405352345
20
-1.92857118111732
30
0
41
1
10
52.2073710916737
20
-1.99546791329115
30
0
41
1
10
52.2126266087716
20
-2.06063262971185
30
0
41
1
10
52.2161377425923
20
-2.10368627003857
30
0
41
1
10
52.2178996544207
20
-2.12504953550663
30
0
41
1
10
52.2266933645229
20
-2.23041141205152
30
0
41
1
10
52.2336788246549
20
-2.31007431670937
30
0
41
1
10
52.2476544509869
20
-2.46045071972102
30
0
41
1
10
52.2616352000404
20
-2.60187603372853
30
0
41
1
10
52.2757664877154
20
-2.72542010009036
30
0
41
1
10
52.2846631625495
20
-2.79687209012909
30
0
41
1
10
52.2864482411679
20
-2.81089358794048
30
0
41
1
10
52.2900088542951
20
-2.83823230577141
30
0
41
1
10
52.2953346254283
20
-2.87818437238911
30
0
41
1
10
52.3006166993903
20
-2.91500745305186
30
0
41
1
10
52.3110861645784
20
-2.98455246016229
30
0
41
1
10
52.317920980938
20
-3.0254586308057
30
0
41
1
10
52.3315000981706
20
-3.09645188124597
30
0
41
1
10
52.3382911967265
20
-3.12653821065058
30
0
41
1
10
52.3452851722374
20
-3.15108781234682
30
0
0
SPLINE
5
181
100
AcDbEntity
8
1
62
256
6
ByLayer
370
18
48
1
60
0
100
AcDbSpline
70
4
71
3
72
30
73
26
40
0
40
0
40
0
40
0
40
0.124999999999999
40
0.124999999999999
40
0.187499999999999
40
0.187499999999999
40
0.249999999999998
40
0.249999999999998
40
0.374999999999998
40
0.374999999999998
40
0.499999999999997
40
0.499999999999997
40
0.531249999999997
40
0.531249999999997
40
0.562499999999997
40
0.562499999999997
40
0.624999999999997
40
0.624999999999997
40
0.749999999999998
40
0.749999999999998
40
0.874999999999998
40
0.874999999999998
40
0.937499999999999
40
0.937499999999999
40
1
40
1
40
1
40
1
41
1
10
53.0806282185793
20
3.10870455269591
30
0
41
1
10
53.0876375922914
20
3.07854619989885
30
0
41
1
10
53.0946481740913
20
3.04278699195999
30
0
41
1
10
53.1052147468203
20
2.98049520634385
30
0
41
1
10
53.1087505474781
20
2.95824525811614
30
0
41
1
10
53.1157692183874
20
2.91135776700409
30
0
41
1
10
53.1192618400092
20
2.88666709814473
30
0
41
1
10
53.129710279842
20
2.8089201595767
30
0
41
1
10
53.1366397257952
20
2.75219869134958
30
0
41
1
10
53.150481219775
20
2.6290824835722
30
0
41
1
10
53.1573922001814
20
2.56268794090641
30
0
41
1
10
53.1660802281094
20
2.47352123462986
30
0
41
1
10
53.1678204304674
20
2.4553784338535
30
0
41
1
10
53.1713081186143
20
2.41846748784784
30
0
41
1
10
53.1730573113339
20
2.39968070426968
30
0
41
1
10
53.1783077373581
20
2.34249699820825
30
0
41
1
10
53.1817960024119
20
2.3034513832298
30
0
41
1
10
53.1922547783246
20
2.18360644581659
30
0
41
1
10
53.1992184627152
20
2.10010607189682
30
0
41
1
10
53.2133077371092
20
1.92604373203523
30
0
41
1
10
53.2204448807628
20
1.83548241497036
30
0
41
1
10
53.2312097369675
20
1.69427219677277
30
0
41
1
10
53.2348080781117
20
1.6463056405976
30
0
41
1
10
53.2420175003713
20
1.54854512516755
30
0
41
1
10
53.2456341785299
20
1.49866769905554
30
0
41
1
10
53.2492144550866
20
1.44844456539977
30
0
0
SPLINE
5
182
100
AcDbEntity
8
1
62
256
6
ByLayer
370
18
48
1
60
0
100
AcDbSpline
70
4
71
3
72
10
73
6
40
0
40
0
40
0
40
0
40
0.5
40
0.5
40
1
40
1
40
1
40
1
41
1
10
53.2411508458624
20
2.88070355081575
30
0
41
1
10
53.235982116573
20
2.91823705391627
30
0
41
1
10
53.2308294465645
20
2.95307394931402
30
0
41
1
10
53.2205114584217
20
3.01705522615566
30
0
41
1
10
53.2154068094513
20
3.04582289172649
30
0
41
1
10
53.2103104809507
20
3.07146142244025
30
0
0
SPLINE
5
183
100
AcDbEntity
8
1
62
256
6
ByLayer
370
18
48
1
60
0
100
AcDbSpline
70
4
71
3
72
21
73
17
40
0
40
0
40
0
40
0
40
0.125
40
0.249999999999999
40
0.374999999999999
40
0.374999999999999
40
0.499999999999999
40
0.499999999999999
40
0.562499999999999
40
0.562499999999999
40
0.624999999999999
40
0.624999999999999
40
0.749999999999999
40
0.874999999999999
40
0.874999999999999
40
1
40
1
40
1
40
1
41
1
10
53.3516492587918
20
1.35653606197403
30
0
41
1
10
53.3474922981924
20
1.43885934607275
30
0
41
1
10
53.3390701857587
20
1.59911803342425
30
0
41
1
10
53.3252361173352
20
1.82671878098068
30
0
41
1
10
53.3151641618353
20
1.97002262869049
30
0
41
1
10
53.3049177535043
20
2.10908219803142
30
0
41
1
10
53.2997062748048
20
2.17649023928721
30
0
41
1
10
53.2921665711769
20
2.27433482017037
30
0
41
1
10
53.2897134777991
20
2.30642516442194
30
0
41
1
10
53.2849635059126
20
2.36888321834016
30
0
41
1
10
53.2826504914348
20
2.39933114926006
30
0
41
1
10
53.2757990275354
20
2.48836368086896
30
0
41
1
10
53.2668699620126
20
2.60091724506492
30
0
41
1
10
53.2579632723802
20
2.70132682412466
30
0
41
1
10
53.2493239033238
20
2.79563377201677
30
0
41
1
10
53.2452902858154
20
2.83973966190501
30
0
41
1
10
53.2411508458646
20
2.88070355081578
30
0
0
SPLINE
5
184
100
AcDbEntity
8
1
62
256
6
ByLayer
370
13
48
1
60
0
100
AcDbSpline
70
4
71
3
72
9
73
5
40
0
40
0
40
0
40
0
40
0.770073784462343
40
1
40
1
40
1
40
1
41
1
10
46.4718254609057
20
1.26341662467777
30
0
41
1
10
46.4340359310865
20
1.66850042675011
30
0
41
1
10
46.3857044199907
20
2.09829541189762
30
0
41
1
10
46.3379739997884
20
2.33462750683395
30
0
41
1
10
46.3269993359684
20
2.37838440096144
30
0
0
SPLINE
5
185
100
AcDbEntity
8
1
62
256
6
ByLayer
370
18
48
1
60
0
100
AcDbSpline
70
4
71
3
72
16
73
12
40
0
40
0
40
0
40
0
40
0.25
40
0.25
40
0.5
40
0.5
40
0.625
40
0.625
40
0.75
40
0.75
40
1
40
1
40
1
40
1
41
1
10
46.7236932927196
20
2.90525327982846
30
0
41
1
10
46.7321991859753
20
2.87400426757597
30
0
41
1
10
46.7407110749883
20
2.83929450673199
30
0
41
1
10
46.7578546798525
20
2.76303518860348
30
0
41
1
10
46.7664751540681
20
2.7214796085737
30
0
41
1
10
46.7794431969988
20
2.65389069718111
30
0
41
1
10
46.7837724423292
20
2.6304841465454
30
0
41
1
10
46.7924422342689
20
2.58188513741899
30
0
41
1
10
46.7967736099396
20
2.55674186554179
30
0
41
1
10
46.8097088700429
20
2.47907051220321
30
0
41
1
10
46.8182726946097
20
2.42419324404983
30
0
41
1
10
46.8267949192431
20
2.3662138122817
30
0
0
SPLINE
5
186
100
AcDbEntity
8
1
62
256
6
ByLayer
370
18
48
1
60
0
100
AcDbSpline
70
4
71
3
72
17
73
13
40
0
40
0
40
0
40
0
40
0.249999999999999
40
0.499999999999997
40
0.499999999999997
40
0.562499999999997
40
0.562499999999997
40
0.624999999999997
40
0.624999999999997
40
0.749999999999998
40
0.749999999999998
40
1
40
1
40
1
40
1
41
1
10
46.826794919245
20
2.36621381226146
30
0
41
1
10
46.8353040183269
20
2.27401611036521
30
0
41
1
10
46.8520385036515
20
2.07876919317005
30
0
41
1
10
46.8685720289712
20
1.86243509732975
30
0
41
1
10
46.8790076149687
20
1.72052123467771
30
0
41
1
10
46.8811000205584
20
1.69180199349424
30
0
41
1
10
46.8853002326003
20
1.63368267542958
30
0
41
1
10
46.8874111250809
20
1.60423919203765
30
0
41
1
10
46.8937523460166
20
1.51518438303791
30
0
41
1
10
46.8979776364092
20
1.45507633274957
30
0
41
1
10
46.9106789979222
20
1.27259412354863
30
0
41
1
10
46.9191608698794
20
1.14806900026653
30
0
41
1
10
46.9276476318083
20
1.02071342137097
30
0
0
SPLINE
5
187
100
AcDbEntity
8
1
62
256
6
ByLayer
370
18
48
1
60
0
100
AcDbSpline
70
4
71
3
72
32
73
28
40
0
40
0
40
0
40
0
40
0.0312500000000002
40
0.0312500000000002
40
0.0625000000000004
40
0.125000000000001
40
0.125000000000001
40
0.250000000000002
40
0.375000000000003
40
0.375000000000003
40
0.406250000000003
40
0.406250000000003
40
0.437500000000003
40
0.437500000000003
40
0.500000000000003
40
0.500000000000003
40
0.625000000000003
40
0.625000000000003
40
0.750000000000003
40
0.750000000000003
40
0.812500000000003
40
0.812500000000003
40
0.843750000000003
40
0.843750000000003
40
0.875000000000003
40
0.875000000000003
40
1
40
1
40
1
40
1
41
1
10
48.1142669648518
20
2.16168594904744
30
0
41
1
10
48.1160264774184
20
2.14082461713909
30
0
41
1
10
48.1177937245907
20
2.11964722951973
30
0
41
1
10
48.121326147988
20
2.07687133582763
30
0
41
1
10
48.1266175969328
20
2.01212756155263
30
0
41
1
10
48.1318893644577
20
1.9456657634895
30
0
41
1
10
48.1424135919852
20
1.81049098283702
30
0
41
1
10
48.1563930946568
20
1.62426628036118
30
0
41
1
10
48.1703722915805
20
1.42618500055238
30
0
41
1
10
48.1791527650288
20
1.29859929596751
30
0
41
1
10
48.1809110700032
20
1.27289242879073
30
0
41
1
10
48.1844333243358
20
1.22109526215544
30
0
41
1
10
48.1861995604851
20
1.19497090039644
30
0
41
1
10
48.1914916570111
20
1.11626828395543
30
0
41
1
10
48.1950021895847
20
1.06349267500733
30
0
41
1
10
48.2054959646802
20
0.904264673173373
30
0
41
1
10
48.212442149744
20
0.796913510836816
30
0
41
1
10
48.2262983432248
20
0.579860341890111
30
0
41
1
10
48.2332074719053
20
0.470158258324943
30
0
41
1
10
48.2435651645947
20
0.303819102094934
30
0
41
1
10
48.2470178114577
20
0.248074524121336
30
0
41
1
10
48.252217446951
20
0.164003083600136
30
0
41
1
10
48.2539562330527
20
0.135871397915707
30
0
41
1
10
48.2574368749453
20
0.0796056190439174
30
0
41
1
10
48.2591756539061
20
0.0515213943935748
30
0
41
1
10
48.2678771903649
20
-0.0886583115811561
30
0
41
1
10
48.2749078315334
20
-0.200028654829168
30
0
41
1
10
48.2820002052224
20
-0.31064672419015
30
0
0
SPLINE
5
188
100
AcDbEntity
8
1
62
256
6
ByLayer
370
18
48
1
60
0
100
AcDbSpline
70
4
71
3
72
32
73
28
40
0
40
0
40
0
40
0
40
0.125000000000002
40
0.125000000000002
40
0.156250000000002
40
0.156250000000002
40
0.187500000000003
40
0.250000000000003
40
0.250000000000003
40
0.375000000000004
40
0.375000000000004
40
0.500000000000004
40
0.500000000000004
40
0.531250000000004
40
0.531250000000004
40
0.562500000000004
40
0.562500000000004
40
0.625000000000004
40
0.625000000000004
40
0.750000000000002
40
0.875
40
0.875
40
0.9375
40
0.9375
40
0.96875
40
0.96875
40
1
40
1
40
1
40
1
41
1
10
49.7664823028462
20
-1.70025935418917
30
0
41
1
10
49.7596567346915
20
-1.60569019198078
30
0
41
1
10
49.7527828564592
20
-1.50787616602148
30
0
41
1
10
49.743972944472
20
-1.38143510498142
30
0
41
1
10
49.7421973381178
20
-1.35589974585392
30
0
41
1
10
49.7386349176533
20
-1.30462103490564
30
0
41
1
10
49.7332766217759
20
-1.22741258526841
30
0
41
1
10
49.7279105733293
20
-1.14934173530239
30
0
41
1
10
49.7172236966248
20
-0.992066329396096
30
0
41
1
10
49.7101720440538
20
-0.885706630645302
30
0
41
1
10
49.6961911275132
20
-0.669998260224617
30
0
41
1
10
49.6892337763299
20
-0.560651388004288
30
0
41
1
10
49.6804911672681
20
-0.422065112603207
30
0
41
1
10
49.6787406136941
20
-0.394252464273961
30
0
41
1
10
49.6752338029412
20
-0.338434424593373
30
0
41
1
10
49.6734750384993
20
-0.310388959389485
30
0
41
1
10
49.6682079169127
20
-0.226281322041558
30
0
41
1
10
49.6647131133965
20
-0.170319358794075
30
0
41
1
10
49.6542609719705
20
-0.0027569567218393
30
0
41
1
10
49.640409818799
20
0.219798598200924
30
0
41
1
10
49.62656960751
20
0.440653100556034
30
0
41
1
10
49.6161314834441
20
0.605643229659222
30
0
41
1
10
49.6126423719875
20
0.660531265014328
30
0
41
1
10
49.6073850358506
20
0.742696604705998
30
0
41
1
10
49.6056262753193
20
0.770093801147965
30
0
41
1
10
49.6021110743136
20
0.82464706615761
30
0
41
1
10
49.6003565039097
20
0.851774390030727
30
0
41
1
10
49.5986041173297
20
0.878754105791216
30
0
0
SPLINE
5
189
100
AcDbEntity
8
1
62
256
6
ByLayer
370
18
48
1
60
0
100
AcDbSpline
70
4
71
3
72
30
73
26
40
0
40
0
40
0
40
0
40
0.0625000000000001
40
0.0625000000000001
40
0.0937499999999995
40
0.0937499999999995
40
0.124999999999999
40
0.249999999999997
40
0.374999999999996
40
0.374999999999996
40
0.437499999999996
40
0.468749999999996
40
0.468749999999996
40
0.499999999999996
40
0.499999999999996
40
0.624999999999996
40
0.624999999999996
40
0.749999999999997
40
0.749999999999997
40
0.874999999999997
40
0.874999999999997
40
0.906249999999997
40
0.906249999999997
40
0.937499999999998
40
1
40
1
40
1
40
1
41
1
10
51.1208455482473
20
-2.66821804031767
30
0
41
1
10
51.1173653466225
20
-2.63673358233856
30
0
41
1
10
51.1138700614394
20
-2.60396412717685
30
0
41
1
10
51.1085962544534
20
-2.55284234966831
30
0
41
1
10
51.1068323035546
20
-2.53546394256347
30
0
41
1
10
51.1033136601393
20
-2.50025358670328
30
0
41
1
10
51.0945277703247
20
-2.41097094379066
30
0
41
1
10
51.0787821913702
20
-2.23912667746555
30
0
41
1
10
51.064784386249
20
-2.07091035840946
30
0
41
1
10
51.0542528345221
20
-1.93889915706467
30
0
41
1
10
51.0489787595328
20
-1.87142844087685
30
0
41
1
10
51.0436853362149
20
-1.80172370655268
30
0
41
1
10
51.0401512096324
20
-1.7547513907158
30
0
41
1
10
51.0383802987982
20
-1.73099635756037
30
0
41
1
10
51.0295618878068
20
-1.61165048232127
30
0
41
1
10
51.0225796334855
20
-1.51384439568173
30
0
41
1
10
51.0087377261432
20
-1.31371992128584
30
0
41
1
10
51.001888197029
20
-1.21140049655324
30
0
41
1
10
50.9881112942065
20
-1.00225770133147
30
0
41
1
10
50.9811362824541
20
-0.895437589584475
30
0
41
1
10
50.9722412887846
20
-0.7590125567597
30
0
41
1
10
50.9704537032275
20
-0.731556776174699
30
0
41
1
10
50.9668867133165
20
-0.676665940069597
30
0
41
1
10
50.9615416386865
20
-0.594256969680259
30
0
41
1
10
50.9562200141271
20
-0.511631981198207
30
0
41
1
10
50.9526867651932
20
-0.456453911328566
30
0
0
SPLINE
5
18A
100
AcDbEntity
8
1
62
256
6
ByLayer
370
18
48
1
60
0
100
AcDbSpline
70
4
71
3
72
8
73
4
40
0
40
0
40
0
40
0
40
1
40
1
40
1
40
1
41
1
10
50.9912495875308
20
-2.5933256158574
30
0
41
1
10
51.0344403941927
20
-2.61898319377173
30
0
41
1
10
51.0776326164445
20
-2.64395145693442
30
0
41
1
10
51.1208455482473
20
-2.66821804031767
30
0
0
SPLINE
5
18B
100
AcDbEntity
8
1
62
256
6
ByLayer
370
18
48
1
60
0
100
AcDbSpline
70
4
71
3
72
8
73
4
40
0
40
0
40
0
40
0
40
1
40
1
40
1
40
1
41
1
10
49.63704019063
20
-1.58920834467844
30
0
41
1
10
49.6801787917956
20
-1.62665152042001
30
0
41
1
10
49.7233199448501
20
-1.66367412814125
30
0
41
1
10
49.7664823028461
20
-1.70025935418926
30
0
0
SPLINE
5
18C
100
AcDbEntity
8
1
62
256
6
ByLayer
370
18
48
1
60
0
100
AcDbSpline
70
4
71
3
72
8
73
4
40
0
40
0
40
0
40
0
40
1
40
1
40
1
40
1
41
1
10
48.2820002052226
20
-0.310646724190207
30
0
41
1
10
48.3254098038422
20
-0.353730555701105
30
0
41
1
10
48.368820273695
20
-0.396734798131035
30
0
41
1
10
48.4122527755066
20
-0.439638112776493
30
0
0
SPLINE
5
18D
100
AcDbEntity
8
1
62
256
6
ByLayer
370
18
48
1
60
0
100
AcDbSpline
70
4
71
3
72
8
73
4
40
0
40
0
40
0
40
0
40
1
40
1
40
1
40
1
41
1
10
46.9276476318083
20
1.02071342137103
30
0
41
1
10
46.9708126551954
20
0.97988492265236
30
0
41
1
10
47.0139462973885
20
0.938815625585306
30
0
41
1
10
47.0570668018091
20
0.897523791506558
30
0
0
SPLINE
5
18E
100
AcDbEntity
8
1
62
256
6
ByLayer
370
18
48
1
60
0
100
AcDbSpline
70
4
71
3
72
10
73
6
40
0
40
0
40
0
40
0
40
0.5
40
0.5
40
1
40
1
40
1
40
1
41
1
10
46.9276476318083
20
1.02071342137103
30
0
41
1
10
46.8530859493027
20
1.07917961723425
30
0
41
1
10
46.7779702093487
20
1.1290317476122
30
0
41
1
10
46.6258656994728
20
1.21049078981577
30
0
41
1
10
46.5493024985883
20
1.24175156545937
30
0
41
1
10
46.4718254609057
20
1.26341662467758
30
0
0
SPLINE
5
18F
100
AcDbEntity
8
1
62
256
6
ByLayer
370
18
48
1
60
0
100
AcDbSpline
70
4
71
3
72
30
73
26
40
0
40
0
40
0
40
0
40
0.125000000000013
40
0.125000000000013
40
0.250000000000026
40
0.250000000000026
40
0.37500000000004
40
0.37500000000004
40
0.437500000000015
40
0.437500000000015
40
0.49999999999999
40
0.49999999999999
40
0.624999999999941
40
0.624999999999941
40
0.687499999999951
40
0.687499999999951
40
0.749999999999961
40
0.749999999999961
40
0.812499999999971
40
0.812499999999971
40
0.87499999999998
40
0.87499999999998
40
0.93749999999999
40
0.93749999999999
40
1
40
1
40
1
40
1
41
1
10
46.4718254609034
20
1.26341662468201
30
0
41
1
10
46.4627147200515
20
1.26596427939339
30
0
41
1
10
46.4521595058457
20
1.26980496106108
30
0
41
1
10
46.4287627739921
20
1.27946424503415
30
0
41
1
10
46.41580104378
20
1.28535189482588
30
0
41
1
10
46.3885423119642
20
1.29862257423568
30
0
41
1
10
46.374189435309
20
1.3060234330913
30
0
41
1
10
46.3516211243029
20
1.31830415719943
30
0
41
1
10
46.3439015762186
20
1.32261002870087
30
0
41
1
10
46.3283765326139
20
1.33149291437758
30
0
41
1
10
46.3205424794399
20
1.33608486292633
30
0
41
1
10
46.2968354303911
20
1.35033932149668
30
0
41
1
10
46.2807604229287
20
1.36046958330769
30
0
41
1
10
46.2562355092668
20
1.37687009112716
30
0
41
1
10
46.2479498044813
20
1.38257109210949
30
0
41
1
10
46.2316172112066
20
1.39418383604553
30
0
41
1
10
46.2235353031646
20
1.40011718060117
30
0
41
1
10
46.2075700693052
20
1.4122806742574
30
0
41
1
10
46.1996864190357
20
1.41851033931289
30
0
41
1
10
46.1841635587134
20
1.43133339533347
30
0
41
1
10
46.1767017462198
20
1.43778106564787
30
0
41
1
10
46.1624588236372
20
1.45075572037717
30
0
41
1
10
46.1556583375083
20
1.45730102289141
30
0
41
1
10
46.1429381468866
20
1.47041836049687
30
0
41
1
10
46.1371505743286
20
1.47685273706134
30
0
41
1
10
46.1320004545307
20
1.48314322600257
30
0
0
SPLINE
5
190
100
AcDbEntity
8
1
62
256
6
ByLayer
370
18
48
1
60
0
100
AcDbSpline
70
4
71
3
72
8
73
4
40
0
40
0
40
0
40
0
40
1
40
1
40
1
40
1
41
1
10
46.1320004545307
20
1.48314322600257
30
0
41
1
10
46.0850217576634
20
1.54052421609998
30
0
41
1
10
46.0381866537852
20
1.60043228024296
30
0
41
1
10
45.9915054527247
20
1.66267474794864
30
0
0
SPLINE
5
191
100
AcDbEntity
8
1
62
256
6
ByLayer
370
18
48
1
60
0
100
AcDbSpline
70
4
71
3
72
10
73
6
40
0
40
0
40
0
40
0
40
0.5
40
0.5
40
1
40
1
40
1
40
1
41
1
10
45.9915054527248
20
1.66267474794859
30
0
41
1
10
45.894496340354
20
1.70620237822666
30
0
41
1
10
45.7968490966139
20
1.74300031161357
30
0
41
1
10
45.5993290896245
20
1.80258547822612
30
0
41
1
10
45.4994637166648
20
1.8253769397156
30
0
41
1
10
45.3978335981666
20
1.8406146200997
30
0
0
SPLINE
5
192
100
AcDbEntity
8
1
62
256
6
ByLayer
370
18
48
1
60
0
100
AcDbSpline
70
4
71
3
72
14
73
10
40
0
40
0
40
0
40
0
40
0.25
40
0.25
40
0.5
40
0.5
40
0.75
40
0.75
40
1
40
1
40
1
40
1
41
1
10
45.3978335981666
20
1.8406146200997
30
0
41
1
10
45.3569414478243
20
1.84674569154131
30
0
41
1
10
45.3148335742033
20
1.85382651702918
30
0
41
1
10
45.2274960947621
20
1.86917409660128
30
0
41
1
10
45.1823751279738
20
1.8776270926052
30
0
41
1
10
45.0899303655348
20
1.89727103186775
30
0
41
1
10
45.0426061245988
20
1.90845509676601
30
0
41
1
10
44.9463342567213
20
1.93442224664383
30
0
41
1
10
44.8973853191777
20
1.94919740343732
30
0
41
1
10
44.8478335981666
20
1.96613077715455
30
0
0
SPLINE
5
193
100
AcDbEntity
8
1
62
256
6
ByLayer
370
18
48
1
60
0
100
AcDbSpline
70
4
71
3
72
40
73
36
40
0
40
0
40
0
40
0
40
0.153057318264277
40
0.153057318264277
40
0.229585977396419
40
0.229585977396419
40
0.26785030696249
40
0.26785030696249
40
0.30611463652856
40
0.30611463652856
40
0.382643295660695
40
0.382643295660695
40
0.420907625226766
40
0.420907625226766
40
0.459171954792837
40
0.459171954792837
40
0.61222927305712
40
0.61222927305712
40
0.650493602623189
40
0.650493602623189
40
0.688757932189258
40
0.688757932189258
40
0.765286591321397
40
0.765286591321397
40
0.841815250453535
40
0.841815250453535
40
0.880079580019607
40
0.880079580019607
40
0.918343909585679
40
0.918343909585679
40
0.956608239151752
40
0.956608239151752
40
0.994872568717824
40
0.994872568717824
40
1
40
1
40
1
40
1
41
1
10
44.8478335981666
20
1.96613077715455
30
0
41
1
10
44.640349089886
20
2.03703472655448
30
0
41
1
10
44.4349551491405
20
2.09551647677065
30
0
41
1
10
44.1274751982398
20
2.16355758738069
30
0
41
1
10
44.025058146632
20
2.18295009892711
30
0
41
1
10
43.8711942626209
20
2.207033673719
30
0
41
1
10
43.8198671641247
20
2.21422799050018
30
0
41
1
10
43.7170678397037
20
2.22694243220789
30
0
41
1
10
43.6656191496866
20
2.23247094762533
30
0
41
1
10
43.511328830606
20
2.2465940112811
30
0
41
1
10
43.4084176025297
20
2.25269153895903
30
0
41
1
10
43.2536312925161
20
2.25668695051914
30
0
41
1
10
43.2019679893221
20
2.25716086506517
30
0
41
1
10
43.0984508665082
20
2.2563679240485
30
0
41
1
10
43.0466525646896
20
2.25509892630043
30
0
41
1
10
42.7884438882429
20
2.24444901708762
30
0
41
1
10
42.5833734868688
20
2.2221081888905
30
0
41
1
10
42.3265497873353
20
2.17815716271522
30
0
41
1
10
42.2751716082533
20
2.16856605377529
30
0
41
1
10
42.1724781930585
20
2.14774689673081
30
0
41
1
10
42.1211520078034
20
2.1365222045911
30
0
41
1
10
41.967191765833
20
2.10040384791196
30
0
41
1
10
41.8645656692924
20
2.07306900337628
30
0
41
1
10
41.6589362798087
20
2.01199057857403
30
0
41
1
10
41.5559343674475
20
1.97824541796061
30
0
41
1
10
41.4008169454169
20
1.92294475665543
30
0
41
1
10
41.3489654562961
20
1.90371291828231
30
0
41
1
10
41.2455878243782
20
1.86395306552365
30
0
41
1
10
41.1939951564532
20
1.84340172934526
30
0
41
1
10
41.0909334905259
20
1.80103399045788
30
0
41
1
10
41.0394614196728
20
1.77922035879371
30
0
41
1
10
40.936574181285
20
1.73440873687463
30
0
41
1
10
40.8851581793851
20
1.71141255666552
30
0
41
1
10
40.8269263191988
20
1.68463123500831
30
0
41
1
10
40.8200468227327
20
1.68145507271018
30
0
41
1
10
40.8131687827054
20
1.67826746243685
30
0
0
SPLINE
5
194
100
AcDbEntity
8
1
62
256
6
ByLayer
370
18
48
1
60
0
100
AcDbSpline
70
4
71
3
72
59
73
55
40
0
40
0
40
0
40
0
40
0.0409567897250439
40
0.0409567897250439
40
0.0691639429684197
40
0.0691639429684197
40
0.0973710962117953
40
0.0973710962117953
40
0.153785402698544
40
0.153785402698544
40
0.18199255594192
40
0.18199255594192
40
0.210199709185296
40
0.210199709185296
40
0.266614015672047
40
0.266614015672047
40
0.323028322158799
40
0.323028322158799
40
0.351235475402174
40
0.351235475402174
40
0.365339052023864
40
0.365339052023864
40
0.379442628645554
40
0.379442628645554
40
0.407649781888938
40
0.407649781888938
40
0.435856935132323
40
0.435856935132323
40
0.492271241619091
40
0.492271241619091
40
0.54868554810586
40
0.54868554810586
40
0.605099854592628
40
0.605099854592628
40
0.633307007836013
40
0.633307007836013
40
0.661514161079397
40
0.661514161079397
40
0.675617737701089
40
0.675617737701089
40
0.689721314322781
40
0.717928467566166
40
0.717928467566166
40
0.77434277405293
40
0.77434277405293
40
0.802549927296312
40
0.802549927296312
40
0.830757080539694
40
0.830757080539694
40
0.887171387026463
40
0.887171387026463
40
0.943585693513232
40
0.943585693513232
40
1
40
1
40
1
40
1
41
1
10
38.3985617480982
20
2.25690116396135
30
0
41
1
10
38.4865938848308
20
2.25685871931938
30
0
41
1
10
38.5749259578886
20
2.25433743114428
30
0
41
1
10
38.7245984989987
20
2.24588928488947
30
0
41
1
10
38.7857735443835
20
2.24126273531596
30
0
41
1
10
38.9084223398065
20
2.22961526491608
30
0
41
1
10
38.9696355443571
20
2.22261824116487
30
0
41
1
10
39.1526678506201
20
2.19817476996383
30
0
41
1
10
39.2740117403491
20
2.17727017372078
30
0
41
1
10
39.455163681016
20
2.13904398928557
30
0
41
1
10
39.5153965628907
20
2.12514806140371
30
0
41
1
10
39.6359253115691
20
2.09523603151146
30
0
41
1
10
39.6962269379882
20
2.07922728025832
30
0
41
1
10
39.8772683411753
20
2.02811050055593
30
0
41
1
10
39.9981356886918
20
1.98991715460846
30
0
41
1
10
40.2402137526038
20
1.90535280841487
30
0
41
1
10
40.3614600629576
20
1.85900222635007
30
0
41
1
10
40.5438371595744
20
1.78340345240832
30
0
41
1
10
40.604716285026
20
1.75719234373363
30
0
41
1
10
40.6961882785575
20
1.71634808175654
30
0
41
1
10
40.7267043548658
20
1.7024784946158
30
0
41
1
10
40.78779021841
20
1.67422551373235
30
0
41
1
10
40.8183743944965
20
1.65983432639695
30
0
41
1
10
40.9098843535333
20
1.61603972829806
30
0
41
1
10
40.9706754680017
20
1.5859756573127
30
0
41
1
10
41.0921506774824
20
1.52447624358197
30
0
41
1
10
41.152856509525
20
1.49306698547105
30
0
41
1
10
41.3348649951512
20
1.39689437269834
30
0
41
1
10
41.4559787036528
20
1.33009822099868
30
0
41
1
10
41.6979683097626
20
1.19148897528368
30
0
41
1
10
41.8188542003304
20
1.11968920788601
30
0
41
1
10
42.0605164492589
20
0.971198465018801
30
0
41
1
10
42.1812923024613
20
0.894504226961658
30
0
41
1
10
42.3626216184393
20
0.775999002592187
30
0
41
1
10
42.4231087897319
20
0.73593922708892
30
0
41
1
10
42.5446006265456
20
0.655304045652201
30
0
41
1
10
42.6055542213624
20
0.614659609949882
30
0
41
1
10
42.6972407852266
20
0.553120099368812
30
0
41
1
10
42.7278746835626
20
0.532493501258728
30
0
41
1
10
42.7890855419743
20
0.491166784463047
30
0
41
1
10
42.8807864848408
20
0.429086372992799
30
0
41
1
10
42.9721805055259
20
0.366791001186584
30
0
41
1
10
43.1546332919452
20
0.2420185322039
30
0
41
1
10
43.2758339902392
20
0.158612165353816
30
0
41
1
10
43.457023527285
20
0.0332159854546319
30
0
41
1
10
43.5173137404502
20
-0.0086367868426862
30
0
41
1
10
43.6376668604826
20
-0.0924705491290183
30
0
41
1
10
43.6977190502472
20
-0.134467094742661
30
0
41
1
10
43.8777394532012
20
-0.260344532756505
30
0
41
1
10
43.9980000577147
20
-0.343486846350004
30
0
41
1
10
44.2393819867305
20
-0.507702201364253
30
0
41
1
10
44.3604737377037
20
-0.588819000144554
30
0
41
1
10
44.6034632805673
20
-0.749056060735199
30
0
41
1
10
44.7253775999361
20
-0.828152198553539
30
0
41
1
10
44.8478335981666
20
-0.906034081532653
30
0
0
SPLINE
5
195
100
AcDbEntity
8
1
62
256
6
ByLayer
370
18
48
1
60
0
100
AcDbSpline
70
4
71
3
72
8
73
4
40
0
40
0
40
0
40
0
40
1
40
1
40
1
40
1
41
1
10
47.34046595301
20
-2.90977989724513
30
0
41
1
10
47.2974259178183
20
-2.89129196865201
30
0
41
1
10
47.2544094700905
20
-2.87205260609349
30
0
41
1
10
47.2114116385456
20
-2.85206473781904
30
0
0
SPLINE
5
196
100
AcDbEntity
8
1
62
256
6
ByLayer
370
18
48
1
60
0
100
AcDbSpline
70
4
71
3
72
8
73
4
40
0
40
0
40
0
40
0
40
1
40
1
40
1
40
1
41
1
10
48.6963178552565
20
-3.22779380268966
30
0
41
1
10
48.6526642240447
20
-3.22648074382639
30
0
41
1
10
48.6090785131558
20
-3.22430140978523
30
0
41
1
10
48.5655518956813
20
-3.22126039420942
30
0
0
SPLINE
5
197
100
AcDbEntity
8
1
62
256
6
ByLayer
370
18
48
1
60
0
100
AcDbSpline
70
4
71
3
72
42
73
38
40
0
40
0
40
0
40
0
40
0.125000000000006
40
0.125000000000006
40
0.250000000000011
40
0.250000000000011
40
0.375000000000017
40
0.375000000000017
40
0.437500000000022
40
0.437500000000022
40
0.468750000000023
40
0.468750000000023
40
0.500000000000024
40
0.500000000000024
40
0.625000000000029
40
0.625000000000029
40
0.656250000000031
40
0.656250000000031
40
0.687500000000033
40
0.687500000000033
40
0.750000000000032
40
0.750000000000032
40
0.765625000000029
40
0.765625000000029
40
0.781250000000025
40
0.781250000000025
40
0.796875000000022
40
0.796875000000022
40
0.812500000000018
40
0.812500000000018
40
0.875000000000004
40
0.875000000000004
40
0.906250000000003
40
0.906250000000003
40
0.937500000000002
40
0.937500000000002
40
1
40
1
40
1
40
1
41
1
10
57
20
1.50775512576828
30
0
41
1
10
57.0361134234697
20
1.4584171149553
30
0
41
1
10
57.0707628742953
20
1.40721496427193
30
0
41
1
10
57.1360123669054
20
1.30095694085955
30
0
41
1
10
57.166629875332
20
1.24589740560145
30
0
41
1
10
57.2220614238595
20
1.13165850296696
30
0
41
1
10
57.2468986892415
20
1.07247700918165
30
0
41
1
10
57.2775598844419
20
0.980365208018441
30
0
41
1
10
57.2866694477338
20
0.949104194071566
30
0
41
1
10
57.2982430725017
20
0.901349247389192
30
0
41
1
10
57.3017513235102
20
0.885287091777485
30
0
41
1
10
57.3079822159312
20
0.852871799387685
30
0
41
1
10
57.3107092140165
20
0.836479031489802
30
0
41
1
10
57.3220473338761
20
0.754493444430352
30
0
41
1
10
57.3238409969771
20
0.688560038474208
30
0
41
1
10
57.3143739792191
20
0.607106877541668
30
0
41
1
10
57.311888848802
20
0.590847993347182
30
0
41
1
10
57.3057728053398
20
0.558829679489349
30
0
41
1
10
57.3021386501587
20
0.543027593959181
30
0
41
1
10
57.2895248655999
20
0.496298822458897
30
0
41
1
10
57.2788367879616
20
0.466045452086519
30
0
41
1
10
57.262716379689
20
0.429542451953978
30
0
41
1
10
57.2593522590045
20
0.422309550053001
30
0
41
1
10
57.2523603005664
20
0.407971216113736
30
0
41
1
10
57.248752661333
20
0.400846860166183
30
0
41
1
10
57.2412030457907
20
0.386798839935921
30
0
41
1
10
57.2372071489895
20
0.379890115959853
30
0
41
1
10
57.2287970179083
20
0.36666766401629
30
0
41
1
10
57.2243906629624
20
0.360320139586747
30
0
41
1
10
57.20143576825
20
0.329830804717375
30
0
41
1
10
57.1801717433056
20
0.309368748998224
30
0
41
1
10
57.1449230691333
20
0.283868183411357
30
0
41
1
10
57.1325588751057
20
0.276217814239686
30
0
41
1
10
57.1073603191915
20
0.262829855515605
30
0
41
1
10
57.0944724893861
20
0.25704493423504
30
0
41
1
10
57.0550963923872
20
0.242125843807202
30
0
41
1
10
57.027905649631
20
0.235408106699054
30
0
41
1
10
57
20
0.231481304976569
30
0
0
SPLINE
5
198
100
AcDbEntity
8
1
62
256
6
ByLayer
370
18
48
1
60
0
100
AcDbSpline
70
4
71
3
72
14
73
10
40
0
40
0
40
0
40
0
40
0.499999999999989
40
0.499999999999989
40
0.624999999999991
40
0.624999999999991
40
0.749999999999994
40
0.749999999999994
40
1
40
1
40
1
40
1
41
1
10
46.3274831124521
20
-2.94096450328524
30
0
41
1
10
46.2030163976321
20
-2.86841512293668
30
0
41
1
10
46.0771795831876
20
-2.78641877652956
30
0
41
1
10
45.9169565700717
20
-2.67223657479934
30
0
41
1
10
45.8847638161645
20
-2.64881400168863
30
0
41
1
10
45.8200443772783
20
-2.60079296412636
30
0
41
1
10
45.7874849541344
20
-2.57616915712367
30
0
41
1
10
45.6894752389941
20
-2.50070422078272
30
0
41
1
10
45.6238821882437
20
-2.44841837000445
30
0
41
1
10
45.5578814328628
20
-2.39422926662633
30
0
0
SPLINE
5
199
100
AcDbEntity
8
1
62
256
6
ByLayer
370
18
48
1
60
0
100
AcDbSpline
70
4
71
3
72
14
73
10
40
0
40
0
40
0
40
0
40
0.25
40
0.25
40
0.5
40
0.5
40
0.75
40
0.75
40
1
40
1
40
1
40
1
41
1
10
45.5578814328629
20
-2.39422926662593
30
0
41
1
10
45.5497611959261
20
-2.38175707782114
30
0
41
1
10
45.5408107650414
20
-2.37021185428628
30
0
41
1
10
45.5214652478713
20
-2.34872214980373
30
0
41
1
10
45.511016399666
20
-2.33875406084473
30
0
41
1
10
45.489298557223
20
-2.3208171526451
30
0
41
1
10
45.4779740235936
20
-2.31277711981318
30
0
41
1
10
45.4544366206681
20
-2.29850600069113
30
0
41
1
10
45.4421384783944
20
-2.29224813796475
30
0
41
1
10
45.4296965563424
20
-2.28708730959266
30
0
0
SPLINE
5
19A
100
AcDbEntity
8
1
62
256
6
ByLayer
370
18
48
1
60
0
100
AcDbSpline
70
4
71
3
72
8
73
4
40
0
40
0
40
0
40
0
40
1
40
1
40
1
40
1
41
1
10
45.4296965563422
20
-2.28708730959329
30
0
41
1
10
45.419089234293
20
-2.27807050725335
30
0
41
1
10
45.4084685263832
20
-2.26900647746885
30
0
41
1
10
45.3978335981666
20
-2.25989547589253
30
0
0
SPLINE
5
19B
100
AcDbEntity
8
1
62
256
6
ByLayer
370
18
48
1
60
0
100
AcDbSpline
70
4
71
3
72
14
73
10
40
0
40
0
40
0
40
0
40
0.25
40
0.25
40
0.5
40
0.5
40
0.75
40
0.75
40
1
40
1
40
1
40
1
41
1
10
45.3978335981666
20
-2.25989547589253
30
0
41
1
10
45.3569414478243
20
-2.22486294547576
30
0
41
1
10
45.3148335742033
20
-2.19186056376094
30
0
41
1
10
45.2274960947622
20
-2.13013196355203
30
0
41
1
10
45.1823751279738
20
-2.10142705966354
30
0
41
1
10
45.0899303655347
20
-2.04845629670686
30
0
41
1
10
45.0426061245988
20
-2.02418577762836
30
0
41
1
10
44.9463342567214
20
-1.98009855558845
30
0
41
1
10
44.8973853191777
20
-1.96027734708241
30
0
41
1
10
44.8478335981666
20
-1.94272445972922
30
0
0
SPLINE
5
19C
100
AcDbEntity
8
1
62
256
6
ByLayer
370
18
48
1
60
0
100
AcDbSpline
70
4
71
3
72
82
73
78
40
0
40
0
40
0
40
0
40
0.0625000000000071
40
0.0625000000000071
40
0.0937500000000106
40
0.0937500000000106
40
0.109375000000014
40
0.109375000000014
40
0.125000000000017
40
0.125000000000017
40
0.156250000000021
40
0.156250000000021
40
0.171875000000021
40
0.171875000000021
40
0.187500000000022
40
0.187500000000022
40
0.250000000000023
40
0.250000000000023
40
0.265625000000025
40
0.265625000000025
40
0.281250000000028
40
0.281250000000028
40
0.312500000000033
40
0.312500000000033
40
0.343750000000038
40
0.343750000000038
40
0.359375000000039
40
0.359375000000039
40
0.37500000000004
40
0.37500000000004
40
0.390625000000041
40
0.390625000000041
40
0.406250000000042
40
0.406250000000042
40
0.437500000000042
40
0.437500000000042
40
0.500000000000043
40
0.500000000000043
40
0.531250000000044
40
0.531250000000044
40
0.546875000000044
40
0.546875000000044
40
0.562500000000043
40
0.562500000000043
40
0.625000000000039
40
0.625000000000039
40
0.656250000000037
40
0.656250000000037
40
0.671875000000035
40
0.671875000000035
40
0.687500000000034
40
0.687500000000034
40
0.718750000000029
40
0.718750000000029
40
0.734375000000027
40
0.734375000000027
40
0.750000000000024
40
0.750000000000024
40
0.812500000000016
40
0.812500000000016
40
0.828125000000015
40
0.828125000000015
40
0.843750000000013
40
0.843750000000013
40
0.875000000000012
40
0.875000000000012
40
0.906250000000011
40
0.906250000000011
40
0.921875000000009
40
0.921875000000009
40
0.937500000000008
40
0.937500000000008
40
0.968750000000004
40
0.968750000000004
40
0.984375000000002
40
0.984375000000002
40
1
40
1
40
1
40
1
41
1
10
44.8478335981666
20
-1.94272445972922
30
0
41
1
10
44.6403490898859
20
-1.86922646355333
30
0
41
1
10
44.4349551491405
20
-1.78410836675923
30
0
41
1
10
44.1274751982398
20
-1.64152288937868
30
0
41
1
10
44.0250581466321
20
-1.59153736088163
30
0
41
1
10
43.871194262621
20
-1.51327816306571
30
0
41
1
10
43.8198671641248
20
-1.48664466491508
30
0
41
1
10
43.7170678397039
20
-1.4323650501243
30
0
41
1
10
43.6656191496868
20
-1.4046944360706
30
0
41
1
10
43.5113288306064
20
-1.31984414110028
30
0
41
1
10
43.4084176025301
20
-1.26096375741361
30
0
41
1
10
43.2536312925166
20
-1.16949266880886
30
0
41
1
10
43.2019679893227
20
-1.13847499292166
30
0
41
1
10
43.0984508665088
20
-1.07543811948261
30
0
41
1
10
43.0466525646902
20
-1.04345166524538
30
0
41
1
10
42.7884438882432
20
-0.88206542088588
30
0
41
1
10
42.5833734868691
20
-0.747643161177422
30
0
41
1
10
42.3265497873356
20
-0.576368824561797
30
0
41
1
10
42.2751716082537
20
-0.541937484574959
30
0
41
1
10
42.1724781930589
20
-0.472595488397019
30
0
41
1
10
42.1211520078038
20
-0.437700012146195
30
0
41
1
10
41.9671917658336
20
-0.332397159391434
30
0
41
1
10
41.864565669293
20
-0.261387695458382
30
0
41
1
10
41.6589362798096
20
-0.11831047778324
30
0
41
1
10
41.5559343674486
20
-0.0462405295400004
30
0
41
1
10
41.4008169454182
20
0.0621929741699319
30
0
41
1
10
41.3489654562974
20
0.0984213154924021
30
0
41
1
10
41.2455878243794
20
0.170491057446355
30
0
41
1
10
41.1939951564542
20
0.206380517225682
30
0
41
1
10
41.0909334905267
20
0.277775192605702
30
0
41
1
10
41.0394614196734
20
0.31327587608763
30
0
41
1
10
40.9365741812856
20
0.383804594931178
30
0
41
1
10
40.8851581793856
20
0.418831919222811
30
0
41
1
10
40.7311056786904
20
0.523374438398633
30
0
41
1
10
40.6287448777794
20
0.592462547857508
30
0
41
1
10
40.321949786018
20
0.796850615193335
30
0
41
1
10
40.1179030648593
20
0.929410361961715
30
0
41
1
10
39.8101334572498
20
1.1193252603079
30
0
41
1
10
39.7072628853917
20
1.18114681686689
30
0
41
1
10
39.5521492096073
20
1.27114410340636
30
0
41
1
10
39.5002553794372
20
1.30069359905229
30
0
41
1
10
39.3963828276293
20
1.35878665026127
30
0
41
1
10
39.3445678082051
20
1.38726824365398
30
0
41
1
10
39.0861860090878
20
1.52697912850303
30
0
41
1
10
38.8815043538272
20
1.62985092840006
30
0
41
1
10
38.5749977891736
20
1.76836293992537
30
0
41
1
10
38.4729188271135
20
1.81190847067043
30
0
41
1
10
38.3195775718875
20
1.87299371526169
30
0
41
1
10
38.268426425776
20
1.89265009287723
30
0
41
1
10
38.1659738688987
20
1.93049762351657
30
0
41
1
10
38.1146486709835
20
1.9486715357674
30
0
41
1
10
37.9604694609164
20
2.00102319947786
30
0
41
1
10
37.8575671988319
20
2.03314050350386
30
0
41
1
10
37.7028232754294
20
2.07687645877564
30
0
41
1
10
37.6511726106805
20
2.09071214921855
30
0
41
1
10
37.5476821595079
20
2.11684477687561
30
0
41
1
10
37.4958142146408
20
2.12914524020962
30
0
41
1
10
37.2374598107925
20
2.18634565625001
30
0
41
1
10
37.0327197367236
20
2.21862870602399
30
0
41
1
10
36.7767955876983
20
2.24202361608826
30
0
41
1
10
36.7256031701621
20
2.24585650932181
30
0
41
1
10
36.6231642036725
20
2.25184414679004
30
0
41
1
10
36.5719283844666
20
2.25400179873762
30
0
41
1
10
36.4183237824038
20
2.25797676553589
30
0
41
1
10
36.3160061202368
20
2.25728579973108
30
0
41
1
10
36.1111657973022
20
2.24911271181037
30
0
41
1
10
36.0086406476909
20
2.24163042385308
30
0
41
1
10
35.8543944545811
20
2.22525486018986
30
0
41
1
10
35.8029031625242
20
2.21893766901036
30
0
41
1
10
35.6997095780648
20
2.20458201235769
30
0
41
1
10
35.6479706694292
20
2.19653713338025
30
0
41
1
10
35.4925739688027
20
2.16986657182448
30
0
41
1
10
35.3893607375628
20
2.14882791110043
30
0
41
1
10
35.2347987859658
20
2.11268895883904
30
0
41
1
10
35.1833124817271
20
2.09988530695603
30
0
41
1
10
35.0805173921741
20
2.07271943349176
30
0
41
1
10
35.0292085363058
20
2.05835570357425
30
0
41
1
10
34.9779673742747
20
2.04322257906983
30
0
0
SPLINE
5
19D
100
AcDbEntity
8
1
62
256
6
ByLayer
370
18
48
1
60
0
100
AcDbSpline
70
4
71
3
72
103
73
99
40
0
40
0
40
0
40
0
40
0.0330797214235601
40
0.0330797214235601
40
0.0496195821353401
40
0.0496195821353401
40
0.0661594428471202
40
0.0661594428471202
40
0.0992391642706802
40
0.0992391642706802
40
0.13231888569424
40
0.13231888569424
40
0.148858746406021
40
0.148858746406021
40
0.157128676761912
40
0.157128676761912
40
0.165398607117803
40
0.165398607117803
40
0.181938467829585
40
0.181938467829585
40
0.190208398185476
40
0.190208398185476
40
0.198478328541367
40
0.198478328541367
40
0.231558049964931
40
0.231558049964931
40
0.264637771388495
40
0.264637771388495
40
0.297717492812059
40
0.297717492812059
40
0.314257353523841
40
0.314257353523841
40
0.330797214235623
40
0.330797214235623
40
0.347337074947405
40
0.347337074947405
40
0.363876935659187
40
0.363876935659187
40
0.396956657082749
40
0.396956657082749
40
0.430036378506312
40
0.430036378506312
40
0.446576239218093
40
0.446576239218093
40
0.454846169573983
40
0.454846169573983
40
0.463116099929873
40
0.463116099929873
40
0.496195821353433
40
0.496195821353433
40
0.512735682065214
40
0.512735682065214
40
0.529275542776995
40
0.529275542776995
40
0.562355264200557
40
0.562355264200557
40
0.578895124912339
40
0.578895124912339
40
0.59543498562412
40
0.59543498562412
40
0.628514707047685
40
0.628514707047685
40
0.66159442847125
40
0.66159442847125
40
0.678134289183033
40
0.678134289183033
40
0.686404219538924
40
0.686404219538924
40
0.694674149894815
40
0.694674149894815
40
0.7112140106066
40
0.7112140106066
40
0.727753871318386
40
0.727753871318386
40
0.760833592741956
40
0.760833592741956
40
0.793913314165526
40
0.793913314165526
40
0.826993035589096
40
0.826993035589096
40
0.84353289630088
40
0.84353289630088
40
0.860072757012664
40
0.860072757012664
40
0.868342687368556
40
0.868342687368556
40
0.876612617724448
40
0.893152478436231
40
0.893152478436231
40
0.926232199859796
40
0.926232199859796
40
0.942772060571577
40
0.942772060571577
40
0.959311921283359
40
0.959311921283359
40
0.992391642706924
40
0.992391642706924
40
1
40
1
40
1
40
1
41
1
10
33.2075294949057
20
1.98346357410011
30
0
41
1
10
33.3297587277414
20
1.94321758799498
30
0
41
1
10
33.4513116290868
20
1.89891732578059
30
0
41
1
10
33.632864760106
20
1.82659275653461
30
0
41
1
10
33.6932582962036
20
1.80150903745039
30
0
41
1
10
33.813841002338
20
1.74942118167024
30
0
41
1
10
33.8740205408852
20
1.72240544280112
30
0
41
1
10
34.0547211862441
20
1.63891808771479
30
0
41
1
10
34.1754543802719
20
1.58007735319617
30
0
41
1
10
34.4173825117198
20
1.45607641968675
30
0
41
1
10
34.5386377964016
20
1.39097596717599
30
0
41
1
10
34.7211279429972
20
1.28882075250357
30
0
41
1
10
34.7820567081805
20
1.2540144091121
30
0
41
1
10
34.8735980860676
20
1.20065093793167
30
0
41
1
10
34.9041364050773
20
1.18267038238633
30
0
41
1
10
34.9652692165753
20
1.14632778175908
30
0
41
1
10
34.9958913055408
20
1.12794892793696
30
0
41
1
10
35.0876019087028
20
1.07239488651044
30
0
41
1
10
35.148547390503
20
1.03481943211997
30
0
41
1
10
35.239628967372
20
0.977588103982612
30
0
41
1
10
35.2699314659835
20
0.958363430322322
30
0
41
1
10
35.3305448769456
20
0.919788022132082
30
0
41
1
10
35.3608439788233
20
0.900421483790979
30
0
41
1
10
35.5123030667186
20
0.803201206502166
30
0
41
1
10
35.6333453188167
20
0.724175361930946
30
0
41
1
10
35.8753569744228
20
0.563936316973042
30
0
41
1
10
35.9962907721725
20
0.482673282921439
30
0
41
1
10
36.2381460561201
20
0.318043868277528
30
0
41
1
10
36.3591026118
20
0.234728090236047
30
0
41
1
10
36.5406797476759
20
0.108351729606824
30
0
41
1
10
36.6012101552483
20
0.0659633932662302
30
0
41
1
10
36.7224724471893
20
-0.0190653263408365
30
0
41
1
10
36.7832765490174
20
-0.0615976653106429
30
0
41
1
10
36.9053740543647
20
-0.146481462374368
30
0
41
1
10
36.9667090084821
20
-0.188888955171564
30
0
41
1
10
37.0889640422168
20
-0.272999273834472
30
0
41
1
10
37.1499787141425
20
-0.314782648097349
30
0
41
1
10
37.3327146816249
20
-0.43929482975534
30
0
41
1
10
37.4541412820619
20
-0.521169477766364
30
0
41
1
10
37.6962868211927
20
-0.682566096713657
30
0
41
1
10
37.8170327400348
20
-0.762049073266098
30
0
41
1
10
37.997774683664
20
-0.879252153045627
30
0
41
1
10
38.057927631151
20
-0.918024190044889
30
0
41
1
10
38.1481696088585
20
-0.975521475248513
30
0
41
1
10
38.1782669779992
20
-0.994557671509199
30
0
41
1
10
38.2385770552325
20
-1.03226449378897
30
0
41
1
10
38.2687811090488
20
-1.05094677719993
30
0
41
1
10
38.4199616614946
20
-1.14361734658121
30
0
41
1
10
38.5414754963665
20
-1.21531341388999
30
0
41
1
10
38.7245984989987
20
-1.3191955785928
30
0
41
1
10
38.7857735443835
20
-1.35322139337012
30
0
41
1
10
38.9084223398065
20
-1.42001892719921
30
0
41
1
10
38.9696355443571
20
-1.45264634740138
30
0
41
1
10
39.15266785062
20
-1.54804850306098
30
0
41
1
10
39.2740117403491
20
-1.60841664837784
30
0
41
1
10
39.455163681016
20
-1.6939455261714
30
0
41
1
10
39.5153965628907
20
-1.72161973234816
30
0
41
1
10
39.6359253115691
20
-1.77495660830837
30
0
41
1
10
39.6962269379882
20
-1.80061788962706
30
0
41
1
10
39.8772683411753
20
-1.87460701837659
30
0
41
1
10
39.9981356886919
20
-1.91995740027002
30
0
41
1
10
40.2402137526038
20
-2.00275903940383
30
0
41
1
10
40.3614600629576
20
-2.04017902787626
30
0
41
1
10
40.5438371595744
20
-2.09008953788074
30
0
41
1
10
40.604716285026
20
-2.10568735558212
30
0
41
1
10
40.6961882785575
20
-2.12748378263365
30
0
41
1
10
40.7267043548658
20
-2.13448252464337
30
0
41
1
10
40.7877902184098
20
-2.1479387461471
30
0
41
1
10
40.8183743944965
20
-2.15439887480403
30
0
41
1
10
40.9098843535334
20
-2.1728913839959
30
0
41
1
10
40.9706754680016
20
-2.18405199932758
30
0
41
1
10
41.0921506774824
20
-2.20394813187701
30
0
41
1
10
41.152856509525
20
-2.21268089505708
30
0
41
1
10
41.3348649951512
20
-2.2353336010826
30
0
41
1
10
41.4559787036529
20
-2.24573371382218
30
0
41
1
10
41.6979683097626
20
-2.25728000927319
30
0
41
1
10
41.8188542003304
20
-2.25842754532201
30
0
41
1
10
42.060516449259
20
-2.25139709936588
30
0
41
1
10
42.1812923024613
20
-2.24321396911293
30
0
41
1
10
42.3626216184393
20
-2.22373189004122
30
0
41
1
10
42.4231087897318
20
-2.2160335744305
30
0
41
1
10
42.5446006265455
20
-2.1983411388515
30
0
41
1
10
42.6055542213623
20
-2.18833829362467
30
0
41
1
10
42.6972407852265
20
-2.17157435378425
30
0
41
1
10
42.7278746835626
20
-2.16568714308352
30
0
41
1
10
42.7890855419743
20
-2.1533575385939
30
0
41
1
10
42.8807864848408
20
-2.13403801007533
30
0
41
1
10
42.9721805055258
20
-2.11228671917553
30
0
41
1
10
43.1546332919452
20
-2.06563465372861
30
0
41
1
10
43.2758339902392
20
-2.03035119768376
30
0
41
1
10
43.457023527285
20
-1.9712646200193
30
0
41
1
10
43.5173137404501
20
-1.95053727699005
30
0
41
1
10
43.6376668604826
20
-1.90699372784732
30
0
41
1
10
43.6977190502473
20
-1.88416741189371
30
0
41
1
10
43.8777394532013
20
-1.81268077353158
30
0
41
1
10
43.9980000577147
20
-1.7613767186283
30
0
41
1
10
44.1464500220117
20
-1.69408601404552
30
0
41
1
10
44.174230223524
20
-1.68132204150672
30
0
41
1
10
44.2020316539405
20
-1.66837649657859
30
0
0
SPLINE
5
19E
100
AcDbEntity
8
1
62
256
6
ByLayer
370
18
48
1
60
0
100
AcDbSpline
70
4
71
3
72
8
73
4
40
0
40
0
40
0
40
0
40
1
40
1
40
1
40
1
41
1
10
53.2492144550829
20
1.44844456539957
30
0
41
1
10
53.2833730415354
20
1.41803116093868
30
0
41
1
10
53.3175154009708
20
1.38739249376232
30
0
41
1
10
53.3516492587918
20
1.35653606197403
30
0
0
SPLINE
5
19F
100
AcDbEntity
8
1
62
256
6
ByLayer
370
18
48
1
60
0
100
AcDbSpline
70
4
71
3
72
8
73
4
40
0
40
0
40
0
40
0
40
1
40
1
40
1
40
1
41
1
10
50.5400071729769
20
3.11265173078939
30
0
41
1
10
50.5830841379391
20
3.1012234417465
30
0
41
1
10
50.6261332737003
20
3.08897792542371
30
0
41
1
10
50.6691702059126
20
3.07592162848161
30
0
0
SPLINE
5
1A0
100
AcDbEntity
8
1
62
256
6
ByLayer
370
18
48
1
60
0
100
AcDbSpline
70
4
71
3
72
46
73
42
40
0
40
0
40
0
40
0
40
0.0390774340284225
40
0.0390774340284225
40
0.0711081862274721
40
0.0711081862274721
40
0.103138938426524
40
0.103138938426524
40
0.231261947222736
40
0.231261947222736
40
0.295323451620842
40
0.295323451620842
40
0.327354203819894
40
0.327354203819894
40
0.359384956018946
40
0.359384956018946
40
0.423446460417049
40
0.423446460417049
40
0.455477212616102
40
0.455477212616102
40
0.487507964815155
40
0.487507964815155
40
0.61563097361137
40
0.61563097361137
40
0.647661725810424
40
0.647661725810424
40
0.679692478009478
40
0.679692478009478
40
0.743753982407582
40
0.743753982407582
40
0.807815486805686
40
0.807815486805686
40
0.839846239004739
40
0.839846239004739
40
0.871876991203791
40
0.871876991203791
40
0.935938495601896
40
0.935938495601896
40
0.967969247800948
40
0.967969247800948
40
1
40
1
40
1
40
1
41
1
10
39.7925493969839
20
-2.25689902108971
30
0
41
1
10
39.7298122292416
20
-2.25687769322005
30
0
41
1
10
39.6669331946522
20
-2.25558483445067
30
0
41
1
10
39.5521492096082
20
-2.25090802014975
30
0
41
1
10
39.5002553794384
20
-2.24794329729983
30
0
41
1
10
39.3963828276304
20
-2.24030382159234
30
0
41
1
10
39.344567808206
20
-2.23563877418553
30
0
41
1
10
39.0861860090884
20
-2.20809666234834
30
0
41
1
10
38.8815043538274
20
-2.1725696598958
30
0
41
1
10
38.5749977891737
20
-2.10019755325547
30
0
41
1
10
38.4729188271136
20
-2.07289570537375
30
0
41
1
10
38.3195775718876
20
-2.0274012845093
30
0
41
1
10
38.2684264257761
20
-2.01148010593482
30
0
41
1
10
38.1659738688989
20
-1.97818157138212
30
0
41
1
10
38.1146486709837
20
-1.96082196226524
30
0
41
1
10
37.9604694609168
20
-1.9065564681726
30
0
41
1
10
37.8575671988323
20
-1.8673445532234
30
0
41
1
10
37.7028232754301
20
-1.80401142800073
30
0
41
1
10
37.6511726106813
20
-1.78215118214979
30
0
41
1
10
37.5476821595089
20
-1.7369510478355
30
0
41
1
10
37.4958142146417
20
-1.71359580256319
30
0
41
1
10
37.2374598107929
20
-1.59392955530868
30
0
41
1
10
37.0327197367238
20
-1.48837795103222
30
0
41
1
10
36.7767955876984
20
-1.34716974291374
30
0
41
1
10
36.7256031701621
20
-1.31847531999136
30
0
41
1
10
36.6231642036725
20
-1.26023776135574
30
0
41
1
10
36.5719283844666
20
-1.23068266783071
30
0
41
1
10
36.4183237824039
20
-1.14052245435593
30
0
41
1
10
36.3160061202369
20
-1.07848209504337
30
0
41
1
10
36.1111657973024
20
-0.950949041051217
30
0
41
1
10
36.0086406476912
20
-0.885459398021055
30
0
41
1
10
35.8543944545816
20
-0.784988291292478
30
0
41
1
10
35.8029031625248
20
-0.75112450602856
30
0
41
1
10
35.6997095780656
20
-0.682722710119947
30
0
41
1
10
35.6479706694302
20
-0.648160122943864
30
0
41
1
10
35.4925739688034
20
-0.543748241457251
30
0
41
1
10
35.3893607375633
20
-0.473638359486188
30
0
41
1
10
35.2347987859661
20
-0.368184237802808
30
0
41
1
10
35.1833124817272
20
-0.332997243479383
30
0
41
1
10
35.0805173921742
20
-0.26239262428345
30
0
41
1
10
35.0292085363058
20
-0.226975133098506
30
0
41
1
10
34.9779673742747
20
-0.19147315236458
30
0
0
SPLINE
5
1A1
100
AcDbEntity
8
1
62
256
6
ByLayer
370
18
48
1
60
0
100
AcDbSpline
70
4
71
3
72
44
73
40
40
0
40
0
40
0
40
0
40
0.0870700920748215
40
0.0870700920748215
40
0.130605138112234
40
0.130605138112234
40
0.174140184149646
40
0.174140184149646
40
0.261210276224475
40
0.261210276224475
40
0.348280368299303
40
0.348280368299303
40
0.391815414336719
40
0.391815414336719
40
0.413582937355425
40
0.413582937355425
40
0.435350460374131
40
0.435350460374131
40
0.478885506411543
40
0.478885506411543
40
0.500653029430248
40
0.500653029430248
40
0.522420552448952
40
0.522420552448952
40
0.609490644523767
40
0.609490644523767
40
0.696560736598582
40
0.696560736598582
40
0.783630828673397
40
0.783630828673397
40
0.827165874710804
40
0.827165874710804
40
0.870700920748211
40
0.870700920748211
40
0.914235966785619
40
0.914235966785619
40
0.957771012823026
40
0.957771012823026
40
1
40
1
40
1
40
1
41
1
10
33.2075294949057
20
-1.9242565294368
30
0
41
1
10
33.3297587277414
20
-1.96833540992296
30
0
41
1
10
33.4513116290868
20
-2.00828152123475
30
0
41
1
10
33.632864760106
20
-2.06185987572738
30
0
41
1
10
33.6932582962036
20
-2.07865810271582
30
0
41
1
10
33.813841002338
20
-2.11009599994119
30
0
41
1
10
33.8740205408852
20
-2.12473717638045
30
0
41
1
10
34.054721186244
20
-2.16518739968527
30
0
41
1
10
34.1754543802719
20
-2.18752933873398
30
0
41
1
10
34.4173825117198
20
-2.22314508807776
30
0
41
1
10
34.5386377964016
20
-2.23639251990048
30
0
41
1
10
34.7211279429972
20
-2.24931810118665
30
0
41
1
10
34.7820567081805
20
-2.25246830624349
30
0
41
1
10
34.8735980860676
20
-2.25542701381326
30
0
41
1
10
34.9041364050773
20
-2.25611859487654
30
0
41
1
10
34.9652692165753
20
-2.25690531069003
30
0
41
1
10
34.9958913055408
20
-2.25700008628652
30
0
41
1
10
35.0876019087028
20
-2.2563810574209
30
0
41
1
10
35.148547390503
20
-2.25476865366173
30
0
41
1
10
35.239628967372
20
-2.2505484077569
30
0
41
1
10
35.2699314659835
20
-2.24883995641892
30
0
41
1
10
35.3305448769456
20
-2.24483886596849
30
0
41
1
10
35.3608439788234
20
-2.24254541961432
30
0
41
1
10
35.5123030667186
20
-2.22963273831644
30
0
41
1
10
35.6333453188167
20
-2.21468502561478
30
0
41
1
10
35.8753569744228
20
-2.17588506804768
30
0
41
1
10
35.9962907721725
20
-2.15202106810582
30
0
41
1
10
36.2381460561201
20
-2.09540546411083
30
0
41
1
10
36.3591026118
20
-2.06267190855454
30
0
41
1
10
36.5406797476759
20
-2.00679717802444
30
0
41
1
10
36.6012101552483
20
-1.98702636859107
30
0
41
1
10
36.7224724471894
20
-1.94527713370095
30
0
41
1
10
36.7832765490174
20
-1.92335222760909
30
0
41
1
10
36.9053740543647
20
-1.87751795622054
30
0
41
1
10
36.9667090084822
20
-1.85357488662325
30
0
41
1
10
37.0889640422169
20
-1.80402664961875
30
0
41
1
10
37.1499787141426
20
-1.77837908618991
30
0
41
1
10
37.2699753223246
20
-1.72617736852658
30
0
41
1
10
37.3289664681661
20
-1.69967790007016
30
0
41
1
10
37.3878691088481
20
-1.67239131234646
30
0
0
SPLINE
5
1A2
100
AcDbEntity
8
1
62
256
6
ByLayer
370
18
48
1
60
0
100
AcDbSpline
70
4
71
3
72
12
73
8
40
0
40
0
40
0
40
0
40
0.254359126202355
40
0.254359126202355
40
0.627179563101178
40
0.627179563101178
40
1
40
1
40
1
40
1
41
1
10
45.2177540938185
20
2.32096221994078
30
0
41
1
10
45.2332577214469
20
2.32649208286182
30
0
41
1
10
45.2487175056526
20
2.33232997432108
30
0
41
1
10
45.2867288710735
20
2.34751849615077
30
0
41
1
10
45.3092613105657
20
2.35725891175164
30
0
41
1
10
45.3538782058696
20
2.37815187739932
30
0
41
1
10
45.3759870929101
20
2.38931454712528
30
0
41
1
10
45.3978335981669
20
2.40121879739436
30
0
0
SPLINE
5
1A3
100
AcDbEntity
8
1
62
256
6
ByLayer
370
18
48
1
60
0
100
AcDbSpline
70
4
71
3
72
12
73
8
40
0
40
0
40
0
40
0
40
0.25
40
0.25
40
0.5
40
0.5
40
1
40
1
40
1
40
1
41
1
10
45.3978335981666
20
2.40121879739422
30
0
41
1
10
45.4387320486254
20
2.42350453070293
30
0
41
1
10
45.4794509130796
20
2.44524435677408
30
0
41
1
10
45.5604098984961
20
2.48748620073013
30
0
41
1
10
45.6006767752601
20
2.50800593512349
30
0
41
1
10
45.7209177481838
20
2.5677161811856
30
0
41
1
10
45.8003350637569
20
2.60506051723931
30
0
41
1
10
45.8791815402368
20
2.63979730188231
30
0
0
SPLINE
5
1A4
100
AcDbEntity
8
1
62
256
6
ByLayer
370
18
48
1
60
0
100
AcDbSpline
70
4
71
3
72
8
73
4
40
0
40
0
40
0
40
0
40
1
40
1
40
1
40
1
41
1
10
45.8791815402368
20
2.63979730188231
30
0
41
1
10
45.9150471690868
20
2.57694966692057
30
0
41
1
10
45.9510875118073
20
2.51337912380967
30
0
41
1
10
45.9873491674529
20
2.44910089785421
30
0
0
SPLINE
5
1A5
100
AcDbEntity
8
1
62
256
6
ByLayer
370
18
48
1
60
0
100
AcDbSpline
70
4
71
3
72
30
73
26
40
0
40
0
40
0
40
0
40
0.124999999999956
40
0.124999999999956
40
0.187499999999933
40
0.187499999999933
40
0.249999999999909
40
0.249999999999909
40
0.374999999999925
40
0.374999999999925
40
0.49999999999994
40
0.49999999999994
40
0.624999999999955
40
0.624999999999955
40
0.687499999999963
40
0.687499999999963
40
0.74999999999997
40
0.74999999999997
40
0.812499999999978
40
0.812499999999978
40
0.874999999999985
40
0.874999999999985
40
0.937499999999993
40
0.937499999999993
40
1
40
1
40
1
40
1
41
1
10
45.9873491674529
20
2.44910089785421
30
0
41
1
10
45.9967557473164
20
2.43242658292942
30
0
41
1
10
46.0077024031441
20
2.41763444792036
30
0
41
1
10
46.0258899460221
20
2.39758133849506
30
0
41
1
10
46.0322539225283
20
2.39126179272077
30
0
41
1
10
46.0455526440696
20
2.37931522920846
30
0
41
1
10
46.0524289058532
20
2.37374451604995
30
0
41
1
10
46.0734722100301
20
2.35830493749179
30
0
41
1
10
46.0881351663081
20
2.34961374717642
30
0
41
1
10
46.1186161730092
20
2.3352532605457
30
0
41
1
10
46.1345411203314
20
2.32958707894559
30
0
41
1
10
46.166348548762
20
2.32182063663151
30
0
41
1
10
46.1823553739493
20
2.31963648633266
30
0
41
1
10
46.206476429824
20
2.31919832605973
30
0
41
1
10
46.2145793904527
20
2.31953576045751
30
0
41
1
10
46.2305909322952
20
2.3212671252609
30
0
41
1
10
46.2384712593917
20
2.32265165722347
30
0
41
1
10
46.2539510236368
20
2.32653858823133
30
0
41
1
10
46.2615507232279
20
2.32903971713142
30
0
41
1
10
46.2764223433957
20
2.33531669614362
30
0
41
1
10
46.28371448654
20
2.33911670169383
30
0
41
1
10
46.2974737037586
20
2.34795551779712
30
0
41
1
10
46.3039950657963
20
2.35301005355083
30
0
41
1
10
46.3162139029287
20
2.36458263338025
30
0
41
1
10
46.3219286041914
20
2.37113894209307
30
0
41
1
10
46.3269993359684
20
2.37838440096093
30
0
0
SPLINE
5
1A6
100
AcDbEntity
8
1
62
256
6
ByLayer
370
18
48
1
60
0
100
AcDbSpline
70
4
71
3
72
14
73
10
40
0
40
0
40
0
40
0
40
0.25
40
0.25
40
0.5
40
0.5
40
0.75
40
0.75
40
1
40
1
40
1
40
1
41
1
10
46.3269993359683
20
2.37838440096144
30
0
41
1
10
46.3606088268869
20
2.42640827497567
30
0
41
1
10
46.3940790445753
20
2.47344763221111
30
0
41
1
10
46.4607956529615
20
2.56557142787517
30
0
41
1
10
46.4940307700679
20
2.61064285412772
30
0
41
1
10
46.5601858174195
20
2.69860617554267
30
0
41
1
10
46.5931339353291
20
2.74151620304548
30
0
41
1
10
46.6586455407233
20
2.82501388096992
30
0
41
1
10
46.6912342123588
20
2.86566041600602
30
0
41
1
10
46.7236932927196
20
2.90525327982846
30
0
0
SPLINE
5
1A7
100
AcDbEntity
8
1
62
256
6
ByLayer
370
18
48
1
60
0
100
AcDbSpline
70
4
71
3
72
8
73
4
40
0
40
0
40
0
40
0
40
1
40
1
40
1
40
1
41
1
10
46.7236932927196
20
2.90525327982846
30
0
41
1
10
46.7581337710202
20
2.91111701867638
30
0
41
1
10
46.7924978235702
20
2.91632474312317
30
0
41
1
10
46.8267949192431
20
2.92086407251225
30
0
0
SPLINE
5
1A8
100
AcDbEntity
8
1
62
256
6
ByLayer
370
18
48
1
60
0
100
AcDbSpline
70
4
71
3
72
8
73
4
40
0
40
0
40
0
40
0
40
1
40
1
40
1
40
1
41
1
10
48.24457568102
20
2.06299795634038
30
0
41
1
10
48.2010677368746
20
2.09644345671552
30
0
41
1
10
48.1576370580036
20
2.12934452114484
30
0
41
1
10
48.1142669648517
20
2.16168594904747
30
0
0
SPLINE
5
1A9
100
AcDbEntity
8
1
62
256
6
ByLayer
370
18
48
1
60
0
100
AcDbSpline
70
4
71
3
72
8
73
4
40
0
40
0
40
0
40
0
40
1
40
1
40
1
40
1
41
1
10
49.5986041173297
20
0.878754105791216
30
0
41
1
10
49.5554460609021
20
0.920347380159853
30
0
41
1
10
49.5123809986211
20
0.96174066130223
30
0
41
1
10
49.4693330023442
20
1.00286033904698
30
0
0
SPLINE
5
1AA
100
AcDbEntity
8
1
62
256
6
ByLayer
370
18
48
1
60
0
100
AcDbSpline
70
4
71
3
72
8
73
4
40
0
40
0
40
0
40
0
40
1
40
1
40
1
40
1
41
1
10
50.9526867651929
20
-0.456453911328566
30
0
41
1
10
50.9095140294634
20
-0.413567302917187
30
0
41
1
10
50.8664369465754
20
-0.370517186215949
30
0
41
1
10
50.8233264952501
20
-0.327432261497762
30
0
0
SPLINE
5
1AB
100
AcDbEntity
8
1
62
256
6
ByLayer
370
18
48
1
60
0
100
AcDbSpline
70
4
71
3
72
8
73
4
40
0
40
0
40
0
40
0
40
1
40
1
40
1
40
1
41
1
10
52.3072091046963
20
-1.71353137967938
30
0
41
1
10
52.2640426488977
20
-1.67679053227093
30
0
41
1
10
52.2209550769994
20
-1.63956516639192
30
0
41
1
10
52.1777424473475
20
-1.60203481327548
30
0
0
SPLINE
5
1AC
100
AcDbEntity
8
1
62
256
6
ByLayer
370
18
48
1
60
0
100
AcDbSpline
70
4
71
3
72
42
73
38
40
0
40
0
40
0
40
0
40
0.125000000000004
40
0.125000000000004
40
0.250000000000007
40
0.250000000000007
40
0.375000000000011
40
0.375000000000011
40
0.437500000000013
40
0.437500000000013
40
0.468750000000014
40
0.468750000000014
40
0.500000000000015
40
0.500000000000015
40
0.625000000000014
40
0.625000000000014
40
0.656250000000013
40
0.656250000000013
40
0.687500000000012
40
0.687500000000012
40
0.750000000000005
40
0.750000000000005
40
0.765625000000005
40
0.765625000000005
40
0.781250000000005
40
0.781250000000005
40
0.796875000000005
40
0.796875000000005
40
0.812500000000005
40
0.812500000000005
40
0.874999999999995
40
0.874999999999995
40
0.906249999999996
40
0.906249999999996
40
0.937499999999998
40
0.937499999999998
40
1
40
1
40
1
40
1
41
1
10
57
20
-1.06513446728872
30
0
41
1
10
57.0361134234697
20
-1.08483515792747
30
0
41
1
10
57.0707628742952
20
-1.10236482531053
30
0
41
1
10
57.1360123669053
20
-1.13343300076542
30
0
41
1
10
57.1666298753319
20
-1.14695736013425
30
0
41
1
10
57.2220614238594
20
-1.17045564567613
30
0
41
1
10
57.2468986892414
20
-1.18041500051626
30
0
41
1
10
57.2775598844419
20
-1.19339443367852
30
0
41
1
10
57.2866694477337
20
-1.19739925180556
30
0
41
1
10
57.2982430725017
20
-1.20308721723234
30
0
41
1
10
57.3017513235102
20
-1.20493066343425
30
0
41
1
10
57.3079822159311
20
-1.20854932450649
30
0
41
1
10
57.3107092140164
20
-1.21032864202854
30
0
41
1
10
57.3220473338761
20
-1.21909273118925
30
0
41
1
10
57.3238409969771
20
-1.22564645055903
30
0
41
1
10
57.3143739792191
20
-1.23572524379608
30
0
41
1
10
57.311888848802
20
-1.23784286729122
30
0
41
1
10
57.3057728053398
20
-1.24230006137171
30
0
41
1
10
57.3021386501587
20
-1.24464463768956
30
0
41
1
10
57.2895248655998
20
-1.25212220624641
30
0
41
1
10
57.2788367879617
20
-1.257693465811
30
0
41
1
10
57.262716379689
20
-1.26572513127104
30
0
41
1
10
57.2593522590045
20
-1.26738729697297
30
0
41
1
10
57.2523603005664
20
-1.27081674335477
30
0
41
1
10
57.248752661333
20
-1.27256139158584
30
0
41
1
10
57.2412030457907
20
-1.27624616755597
30
0
41
1
10
57.2372071489896
20
-1.27823779526611
30
0
41
1
10
57.2287970179084
20
-1.28260575604432
30
0
41
1
10
57.2243906629624
20
-1.28496792297213
30
0
41
1
10
57.2014357682501
20
-1.29764219523201
30
0
41
1
10
57.1801717433057
20
-1.31050342354527
30
0
41
1
10
57.1449230691334
20
-1.33371400636614
30
0
41
1
10
57.1325588751058
20
-1.34214223205745
30
0
41
1
10
57.1073603191915
20
-1.35989416571883
30
0
41
1
10
57.0944724893861
20
-1.36925069064921
30
0
41
1
10
57.0550963923872
20
-1.39865647805499
30
0
41
1
10
57.0279056496311
20
-1.42003501565094
30
0
41
1
10
57
20
-1.44302634294252
30
0
0
SPLINE
5
1AD
100
AcDbEntity
8
1
62
256
6
ByLayer
370
18
48
1
60
0
100
AcDbSpline
70
4
71
3
72
102
73
98
40
0
40
0
40
0
40
0
40
0.0156249999999958
40
0.0156249999999958
40
0.0312499999999916
40
0.0312499999999916
40
0.0624999999999831
40
0.0624999999999831
40
0.124999999999966
40
0.124999999999966
40
0.156249999999958
40
0.156249999999958
40
0.164062499999956
40
0.164062499999956
40
0.171874999999954
40
0.171874999999954
40
0.187499999999949
40
0.187499999999949
40
0.218749999999941
40
0.218749999999941
40
0.234374999999935
40
0.234374999999935
40
0.249999999999929
40
0.249999999999929
40
0.281249999999918
40
0.281249999999918
40
0.312499999999906
40
0.312499999999906
40
0.328124999999902
40
0.328124999999902
40
0.343749999999898
40
0.343749999999898
40
0.374999999999892
40
0.374999999999892
40
0.406249999999887
40
0.406249999999887
40
0.437499999999882
40
0.437499999999882
40
0.468749999999877
40
0.468749999999877
40
0.484374999999875
40
0.484374999999875
40
0.499999999999874
40
0.499999999999874
40
0.515624999999873
40
0.515624999999873
40
0.523437499999874
40
0.523437499999874
40
0.531249999999875
40
0.531249999999875
40
0.539062499999875
40
0.539062499999875
40
0.542968749999876
40
0.542968749999876
40
0.546874999999876
40
0.546874999999876
40
0.562499999999876
40
0.562499999999876
40
0.566406249999876
40
0.566406249999876
40
0.570312499999877
40
0.570312499999877
40
0.57812499999988
40
0.57812499999988
40
0.585937499999882
40
0.585937499999882
40
0.593749999999885
40
0.593749999999885
40
0.60937499999989
40
0.60937499999989
40
0.617187499999893
40
0.617187499999893
40
0.624999999999896
40
0.624999999999896
40
0.640624999999901
40
0.640624999999901
40
0.656249999999907
40
0.656249999999907
40
0.671874999999912
40
0.671874999999912
40
0.687499999999918
40
0.687499999999918
40
0.718749999999927
40
0.718749999999927
40
0.749999999999936
40
0.749999999999936
40
0.76562499999994
40
0.76562499999994
40
0.781249999999944
40
0.781249999999944
40
0.812499999999953
40
0.812499999999953
40
0.874999999999969
40
0.874999999999969
40
0.937499999999984
40
0.937499999999984
40
1
40
1
40
1
40
1
41
1
10
34.9778567922615
20
-0.191705057678433
30
0
41
1
10
34.9500524764707
20
-0.170365246882255
30
0
41
1
10
34.9220821607107
20
-0.149337656509175
30
0
41
1
10
34.8656637500095
20
-0.108169114160404
30
0
41
1
10
34.837253354062
20
-0.0879597332655351
30
0
41
1
10
34.7514363975587
20
-0.0284207356017134
30
0
41
1
10
34.6934253878414
20
0.0097858058731788
30
0
41
1
10
34.5166395874309
20
0.119332266199592
30
0
41
1
10
34.3951087156387
20
0.185592459459855
30
0
41
1
10
34.2055702250329
20
0.271803924554291
30
0
41
1
10
34.1411918783009
20
0.298359479685359
30
0
41
1
10
34.0589912910524
20
0.328424808476854
30
0
41
1
10
34.0424634264922
20
0.334278961559448
30
0
41
1
10
34.0092231211623
20
0.345653355166149
30
0
41
1
10
33.9924890771261
20
0.351180061780212
30
0
41
1
10
33.9422745020089
20
0.367148405817034
30
0
41
1
10
33.9087194832549
20
0.377001190368077
30
0
41
1
10
33.8078078887798
20
0.40409316121
30
0
41
1
10
33.740210336256
20
0.418921507829651
30
0
41
1
10
33.638253048849
20
0.435618087269546
30
0
41
1
10
33.6041724794356
20
0.440246175787422
30
0
41
1
10
33.5357854727665
20
0.447277527194899
30
0
41
1
10
33.5014881092244
20
0.449770197668698
30
0
41
1
10
33.3984683104545
20
0.4559916953514
30
0
41
1
10
33.3296641877893
20
0.458915842793317
30
0
41
1
10
33.1917346489703
20
0.461607685678274
30
0
41
1
10
33.1226166274329
20
0.461448146278343
30
0
41
1
10
33.0186870574701
20
0.458727668076733
30
0
41
1
10
32.9840016601956
20
0.457406102751946
30
0
41
1
10
32.9145408971144
20
0.453878075859336
30
0
41
1
10
32.8797958313211
20
0.451671828866125
30
0
41
1
10
32.7759828899839
20
0.443675409123102
30
0
41
1
10
32.7071693839671
20
0.436491997498678
30
0
41
1
10
32.5704175113913
20
0.418003845166851
30
0
41
1
10
32.5024785244539
20
0.406702220274752
30
0
41
1
10
32.3675980240634
20
0.379370898660596
30
0
41
1
10
32.3006555013158
20
0.36334632567204
30
0
41
1
10
32.167946387416
20
0.325675673979362
30
0
41
1
10
32.1021843442728
20
0.304008662294905
30
0
41
1
10
32.004591803529
20
0.266430921036005
30
0
41
1
10
31.9721926461908
20
0.253030557968344
30
0
41
1
10
31.9084056801584
20
0.224581508929873
30
0
41
1
10
31.8769507651975
20
0.209508328188804
30
0
41
1
10
31.8150171556925
20
0.177466349797868
30
0
41
1
10
31.7845553498119
20
0.160465235902137
30
0
41
1
10
31.7396569609819
20
0.133414425621311
30
0
41
1
10
31.7247791416418
20
0.124223836250792
30
0
41
1
10
31.6954781453887
20
0.104960422404162
30
0
41
1
10
31.6811430565292
20
0.0949446950619972
30
0
41
1
10
31.6535910489191
20
0.0736319353119086
30
0
41
1
10
31.6404068953116
20
0.0622884266698236
30
0
41
1
10
31.6215655770923
20
0.0441865277732347
30
0
41
1
10
31.6154426058933
20
0.037969543502328
30
0
41
1
10
31.6035324274234
20
0.0251451514868108
30
0
41
1
10
31.5977277058881
20
0.0185160657780159
30
0
41
1
10
31.5698225220651
20
-0.0154065290029735
30
0
41
1
10
31.5512989554458
20
-0.0446902136506822
30
0
41
1
10
31.533172900907
20
-0.0841272063271958
30
0
41
1
10
31.5298000501972
20
-0.0921567505381233
30
0
41
1
10
31.5235699541174
20
-0.108506095475974
30
0
41
1
10
31.5207025904442
20
-0.116859028961898
30
0
41
1
10
31.5130013017987
20
-0.142011568434668
30
0
41
1
10
31.5090478456717
20
-0.158955879175693
30
0
41
1
10
31.5032606675358
20
-0.193155393155877
30
0
41
1
10
31.5014278863086
20
-0.210410751652716
30
0
41
1
10
31.499711806544
20
-0.245203057490471
30
0
41
1
10
31.4998426208543
20
-0.262751342542032
30
0
41
1
10
31.5028265273885
20
-0.314575597735825
30
0
41
1
10
31.5082060520523
20
-0.348470764360769
30
0
41
1
10
31.5201602513031
20
-0.398535076536206
30
0
41
1
10
31.5247966087747
20
-0.41510693538612
30
0
41
1
10
31.5351884217009
20
-0.447961595978057
30
0
41
1
10
31.5408960894486
20
-0.464096967821007
30
0
41
1
10
31.5593112143712
20
-0.511755138940487
30
0
41
1
10
31.5732989292664
20
-0.542536212087526
30
0
41
1
10
31.6038371861246
20
-0.602570175304265
30
0
41
1
10
31.6203947705539
20
-0.631819410990488
30
0
41
1
10
31.655546963928
20
-0.68906875110838
30
0
41
1
10
31.6742077113632
20
-0.717142406036828
30
0
41
1
10
31.71279031003
20
-0.771725385682203
30
0
41
1
10
31.7327286739963
20
-0.798267377599302
30
0
41
1
10
31.7940929282256
20
-0.876029219802291
30
0
41
1
10
31.8370477846508
20
-0.925405103802831
30
0
41
1
10
31.9257345299546
20
-1.02050416385057
30
0
41
1
10
31.9714791375431
20
-1.06621479359333
30
0
41
1
10
32.0416202129003
20
-1.13257312168577
30
0
41
1
10
32.0652575511389
20
-1.15432162642756
30
0
41
1
10
32.1129812329804
20
-1.19713765005846
30
0
41
1
10
32.1370969149507
20
-1.21822991457691
30
0
41
1
10
32.2097207349468
20
-1.28029396573942
30
0
41
1
10
32.2585514521671
20
-1.3201091994469
30
0
41
1
10
32.4058656332181
20
-1.43552478229628
30
0
41
1
10
32.5051447336222
20
-1.50714090720959
30
0
41
1
10
32.7046173276286
20
-1.64142565850167
30
0
41
1
10
32.8048224602358
20
-1.7040701431969
30
0
41
1
10
33.0057399413332
20
-1.82075178384582
30
0
41
1
10
33.1064523935502
20
-1.87478037408297
30
0
41
1
10
33.207523460858
20
-1.92425756018378
30
0
0
SPLINE
5
1AE
100
AcDbEntity
8
1
62
256
6
ByLayer
370
18
48
1
60
0
100
AcDbSpline
70
4
71
3
72
34
73
30
40
0
40
0
40
0
40
0
40
0.0071935742621743
40
0.0071935742621743
40
0.0852720087319219
40
0.0852720087319219
40
0.124311225966794
40
0.124311225966794
40
0.163350443201667
40
0.163350443201667
40
0.319507312141152
40
0.319507312141152
40
0.475664181080638
40
0.475664181080638
40
0.55374261555038
40
0.55374261555038
40
0.592781832785252
40
0.592781832785252
40
0.631821050020124
40
0.631821050020124
40
0.709899484489868
40
0.709899484489868
40
0.787977918959612
40
0.787977918959612
40
0.866056353429356
40
0.866056353429356
40
0.9441347878991
40
0.9441347878991
40
1
40
1
40
1
40
1
41
1
10
34.7521448746401
20
-0.0382797186281607
30
0
41
1
10
34.7480846906401
20
-0.0375882445362947
30
0
41
1
10
34.7439873741289
20
-0.0369670467869128
30
0
41
1
10
34.6949732930419
20
-0.0304466860242769
30
0
41
1
10
34.6473642708248
20
-0.0330651622287235
30
0
41
1
10
34.5712678419195
20
-0.051726765351674
30
0
41
1
10
34.5449294646756
20
-0.0605015455781768
30
0
41
1
10
34.4922018961793
20
-0.0831718672902468
30
0
41
1
10
34.4656280804601
20
-0.0974849051663398
30
0
41
1
10
34.3326521577288
20
-0.170564956553022
30
0
41
1
10
34.2244561413222
20
-0.242468178146311
30
0
41
1
10
34.0134269099989
20
-0.40902051110649
30
0
41
1
10
33.9100572294369
20
-0.503912910408161
30
0
41
1
10
33.7583109702877
20
-0.664167920014506
30
0
41
1
10
33.7083884446809
20
-0.720389998504942
30
0
41
1
10
33.6355947919378
20
-0.807364062190373
30
0
41
1
10
33.6116217832761
20
-0.836856074557318
30
0
41
1
10
33.5642601727425
20
-0.896843685625271
30
0
41
1
10
33.5407131879442
20
-0.927067297512878
30
0
41
1
10
33.4728663344958
20
-1.02253636888312
30
0
41
1
10
33.4322070683377
20
-1.08995526308203
30
0
41
1
10
33.3607461229661
20
-1.22881734084808
30
0
41
1
10
33.3296063528651
20
-1.30124586818263
30
0
41
1
10
33.2788445378828
20
-1.44378263734618
30
0
41
1
10
33.2585670984422
20
-1.5153850708906
30
0
41
1
10
33.2283507149127
20
-1.65482455546621
30
0
41
1
10
33.2183503002369
20
-1.72214156316815
30
0
41
1
10
33.2087964684403
20
-1.83404798576351
30
0
41
1
10
33.2070859478749
20
-1.87984836697367
30
0
41
1
10
33.2075234608601
20
-1.92425756039358
30
0
0
SPLINE
5
1AF
100
AcDbEntity
8
SK1
62
256
6
ByLayer
370
18
48
1
60
0
100
AcDbSpline
70
4
71
3
72
18
73
14
40
0
40
0
40
0
40
0
40
0.250010337724687
40
0.250010337724687
40
0.500020675449375
40
0.500020675449375
40
0.625025844311718
40
0.625025844311718
40
0.68752842874289
40
0.68752842874289
40
0.750031013174062
40
0.750031013174062
40
1
40
1
40
1
40
1
41
1
10
-22
20
2.44999999999996
30
0
41
1
10
-22.0619016558605
20
2.44999999999996
30
0
41
1
10
-22.1194530014235
20
2.44999999999996
30
0
41
1
10
-22.2230629385498
20
2.44999999999996
30
0
41
1
10
-22.2691240341919
20
2.44999999999996
30
0
41
1
10
-22.3268777895502
20
2.44999999999996
30
0
41
1
10
-22.3442324614345
20
2.44999999999996
30
0
41
1
10
-22.367021354728
20
2.44999999999996
30
0
41
1
10
-22.3740767558169
20
2.44999999999996
30
0
41
1
10
-22.3870353899801
20
2.44999999999996
30
0
41
1
10
-22.3929475360501
20
2.44999999999996
30
0
41
1
10
-22.4192510342964
20
2.44999999999996
30
0
41
1
10
-22.4299843449325
20
2.44999999999996
30
0
41
1
10
-22.43
20
2.44999999999996
30
0
0
SPLINE
5
1B0
100
AcDbEntity
8
SK1
62
256
6
ByLayer
370
18
48
1
60
0
100
AcDbSpline
70
4
71
3
72
18
73
14
40
0
40
0
40
0
40
0
40
0.249968952145052
40
0.249968952145052
40
0.312471539466298
40
0.312471539466298
40
0.374974126787543
40
0.374974126787543
40
0.499979301430035
40
0.499979301430035
40
0.749989650715017
40
0.749989650715017
40
1
40
1
40
1
40
1
41
1
10
-22.4299999999913
20
-2.45000000000002
30
0
41
1
10
-22.4299843409616
20
-2.45000000000002
30
0
41
1
10
-22.4192510304041
20
-2.45000000000002
30
0
41
1
10
-22.3929475360501
20
-2.45000000000002
30
0
41
1
10
-22.3870353899801
20
-2.45000000000002
30
0
41
1
10
-22.3740767558169
20
-2.45000000000002
30
0
41
1
10
-22.367021354728
20
-2.45000000000002
30
0
41
1
10
-22.3442324614345
20
-2.45000000000002
30
0
41
1
10
-22.3268777895502
20
-2.45000000000002
30
0
41
1
10
-22.2691240341919
20
-2.45000000000002
30
0
41
1
10
-22.2230629385497
20
-2.45000000000002
30
0
41
1
10
-22.1194530014235
20
-2.45000000000002
30
0
41
1
10
-22.0619016558605
20
-2.45000000000005
30
0
41
1
10
-22
20
-2.45000000000002
30
0
0
SPLINE
5
1B1
100
AcDbEntity
8
SK1
62
256
6
ByLayer
370
18
48
1
60
0
100
AcDbSpline
70
4
71
3
72
28
73
24
40
0
40
0
40
0
40
0
40
0.125
40
0.125
40
0.25
40
0.25
40
0.3125
40
0.34375
40
0.34375
40
0.375
40
0.375
40
0.499999999999999
40
0.624999999999999
40
0.624999999999999
40
0.656249999999999
40
0.656249999999999
40
0.687499999999999
40
0.687499999999999
40
0.75
40
0.75
40
0.875
40
0.875
40
1
40
1
40
1
40
1
41
1
10
-22
20
-1.51390224255073
30
0
41
1
10
-22.0619431217069
20
-1.39606359649963
30
0
41
1
10
-22.119532991302
20
-1.27662087306044
30
0
41
1
10
-22.2231818426811
20
-1.03356928576781
30
0
41
1
10
-22.2692481386254
20
-0.909951764964148
30
0
41
1
10
-22.3269910848407
20
-0.720400065314834
30
0
41
1
10
-22.3530131297644
20
-0.624589117884
30
0
41
1
10
-22.3741650560419
20
-0.52700902667172
30
0
41
1
10
-22.3871128590611
20
-0.461536613163389
30
0
41
1
10
-22.3930196210638
20
-0.428522534965765
30
0
41
1
10
-22.4193029597357
20
-0.263614203190031
30
0
41
1
10
-22.4407212763269
20
0.0002299958251228
30
0
41
1
10
-22.4192545151676
20
0.264055216473878
30
0
41
1
10
-22.3929475360501
20
0.428940274925367
30
0
41
1
10
-22.3870353899801
20
0.461954837450179
30
0
41
1
10
-22.3740767558169
20
0.527428697331999
30
0
41
1
10
-22.367021354728
20
0.559954497623153
30
0
41
1
10
-22.3442324614345
20
0.656937197076928
30
0
41
1
10
-22.3268777895502
20
0.720799948348599
30
0
41
1
10
-22.2691240341919
20
0.91030296331661
30
0
41
1
10
-22.2230629385498
20
1.03386815006104
30
0
41
1
10
-22.1194530014235
20
1.27678836717467
30
0
41
1
10
-22.0619016558605
20
1.39614247982132
30
0
41
1
10
-22
20
1.51390224255064
30
0
0
SPLINE
5
1B2
100
AcDbEntity
8
1
62
256
6
ByLayer
370
18
48
1
60
0
100
AcDbSpline
70
4
71
1
72
4
73
2
40
0
40
0
40
1
40
1
41
1
10
48.1378952015277
20
-2.48828119887844
30
0
41
1
10
48.3225756206255
20
-2.80546134303731
30
0
0
SPLINE
5
1B3
100
AcDbEntity
8
1
62
256
6
ByLayer
370
18
48
1
60
0
100
AcDbSpline
70
4
71
2
72
6
73
3
40
0
40
0
40
0
40
1
40
1
40
1
41
1
10
53.8929229226734
20
-3.05677041998939
30
0
41
1
10
54.0568211274297
20
-2.77492758246143
30
0
41
1
10
54.2209774446736
20
-2.49387322545849
30
0
0
SPLINE
5
1B4
100
AcDbEntity
8
1
62
256
6
ByLayer
370
18
48
1
60
0
100
AcDbSpline
70
4
71
1
72
4
73
2
40
0
40
0
40
1
40
1
41
1
10
53.6290125882472
20
-3.15466601362351
30
0
41
1
10
53.8664328485137
20
-3.09369276842318
30
0
0
SPLINE
5
1B5
100
AcDbEntity
8
1
62
256
6
ByLayer
370
18
48
1
60
0
100
AcDbSpline
70
4
71
2
72
6
73
3
40
0
40
0
40
0
40
1
40
1
40
1
41
1
10
55.5759691945663
20
-2.43113017079651
30
0
41
1
10
55.5827825578535
20
-2.43029776063887
30
0
41
1
10
55.590175343301
20
-2.42986165823081
30
0
0
SPLINE
5
1B6
100
AcDbEntity
8
1
62
256
6
ByLayer
370
18
48
1
60
0
100
AcDbSpline
70
4
71
2
72
6
73
3
40
0
40
0
40
0
40
1
40
1
40
1
41
1
10
48.7278446813578
20
-3.19985193824502
30
0
41
1
10
48.9384840929766
20
-2.83840861425449
30
0
41
1
10
49.1494310051393
20
-2.4788402242838
30
0
0
SPLINE
5
1B7
100
AcDbEntity
8
1
62
256
6
ByLayer
370
18
48
1
60
0
100
AcDbSpline
70
4
71
2
72
6
73
3
40
0
40
0
40
0
40
1
40
1
40
1
41
1
10
55.3770250908356
20
-2.68952097989654
30
0
41
1
10
55.436022919881
20
-2.58848214227601
30
0
41
1
10
55.4950619229448
20
-2.48758788480856
30
0
0
SPLINE
5
1B8
100
AcDbEntity
8
1
62
256
6
ByLayer
370
18
48
1
60
0
100
AcDbSpline
70
4
71
1
72
4
73
2
40
0
40
0
40
1
40
1
41
1
10
57
20
2.11045979268457
30
0
41
1
10
56.8047805301122
20
2.3056426777575
30
0
0
SPLINE
5
1B9
100
AcDbEntity
8
1
62
256
6
ByLayer
370
18
48
1
60
0
100
AcDbSpline
70
4
71
3
72
10
73
6
40
0
40
0
40
0
40
0
40
0.388453022977737
40
0.784619587173671
40
1
40
1
40
1
40
1
41
1
10
50.0429827258503
20
2.48809589864865
30
0
41
1
10
50.0353830290425
20
2.47350214177473
30
0
41
1
10
50.0123691243232
20
2.44965096548441
30
0
41
1
10
49.9568137678746
20
2.42038250488378
30
0
41
1
10
49.9195673731396
20
2.42199297303932
30
0
41
1
10
49.9055937831185
20
2.4240549864563
30
0
0
SPLINE
5
1BA
100
AcDbEntity
8
1
62
256
6
ByLayer
370
18
48
1
60
0
100
AcDbSpline
70
4
71
3
72
11
73
7
40
0
40
0
40
0
40
0
40
0.234133472100129
40
0.481153040046381
40
0.740197991382571
40
1
40
1
40
1
40
1
41
1
10
47.8748084932728
20
-2.48748534319603
30
0
41
1
10
47.8803575412816
20
-2.4739780198702
30
0
41
1
10
47.9031252614875
20
-2.45111159207988
30
0
41
1
10
47.9796482141649
20
-2.41170859071355
30
0
41
1
10
48.0861152585857
20
-2.4295063396111
30
0
41
1
10
48.1264452985078
20
-2.46859526611928
30
0
41
1
10
48.1429047650119
20
-2.4960854033464
30
0
0
SPLINE
5
1BB
100
AcDbEntity
8
1
62
256
6
ByLayer
370
18
48
1
60
0
100
AcDbSpline
70
4
71
1
72
4
73
2
40
0
40
0
40
1
40
1
41
1
10
54.7259912888371
20
-2.87288886808321
30
0
41
1
10
55.3531824774479
20
-2.71181435610251
30
0
0
SPLINE
5
1BC
100
AcDbEntity
8
1
62
256
6
ByLayer
370
18
48
1
60
0
100
AcDbSpline
70
4
71
2
72
6
73
3
40
0
40
0
40
0
40
1
40
1
40
1
41
1
10
54.4901725851795
20
-2.49170634466719
30
0
41
1
10
54.5967169206485
20
-2.67454623750564
30
0
41
1
10
54.7031585120043
20
-2.85769421065322
30
0
0
SPLINE
5
1BD
100
AcDbEntity
8
1
62
256
6
ByLayer
370
18
48
1
60
0
100
AcDbSpline
70
4
71
2
72
6
73
3
40
0
40
0
40
0
40
1
40
1
40
1
41
1
10
50.4662492537998
20
3.21613411165768
30
0
41
1
10
50.2550302470063
20
2.85184060432556
30
0
41
1
10
50.0429786802207
20
2.48808897576106
30
0
0
SPLINE
5
1BE
100
AcDbEntity
8
1
62
256
6
ByLayer
370
18
48
1
60
0
100
AcDbSpline
70
4
71
2
72
6
73
3
40
0
40
0
40
0
40
1
40
1
40
1
41
1
10
51.0505340206941
20
2.48682897329644
30
0
41
1
10
50.8390512925075
20
2.8482143107525
30
0
41
1
10
50.6281513453445
20
3.21102269948341
30
0
0
SPLINE
5
1BF
100
AcDbEntity
8
1
62
256
6
ByLayer
370
18
48
1
60
0
100
AcDbSpline
70
4
71
3
72
10
73
6
40
0
40
0
40
0
40
0
40
0.458164423641004
40
0.721538687599357
40
1
40
1
40
1
40
1
41
1
10
54.227518539162
20
-2.4829713132824
30
0
41
1
10
54.2507016830036
20
-2.4449991081172
30
0
41
1
10
54.2991002535297
20
-2.41274987759715
30
0
41
1
10
54.4361460995487
20
-2.4283917113514
30
0
41
1
10
54.4718905248494
20
-2.46110835052369
30
0
41
1
10
54.4858752389499
20
-2.48435138073765
30
0
0
SPLINE
5
1C0
100
AcDbEntity
8
1
62
256
6
ByLayer
370
18
48
1
60
0
100
AcDbSpline
70
4
71
3
72
11
73
7
40
0
40
0
40
0
40
0
40
0.214425755118402
40
0.45416651561786
40
0.718473085184713
40
1
40
1
40
1
40
1
41
1
10
51.3121056944338
20
2.48614704968375
30
0
41
1
10
51.3056264846215
20
2.47260002743573
30
0
41
1
10
51.2823623127771
20
2.44896917594852
30
0
41
1
10
51.2055234676993
20
2.41151312760144
30
0
41
1
10
51.1012614132278
20
2.43030598594356
30
0
41
1
10
51.0641922720878
20
2.46318134513254
30
0
41
1
10
51.0500910570331
20
2.48759123658485
30
0
0
SPLINE
5
1C1
100
AcDbEntity
8
1
62
256
6
ByLayer
370
18
48
1
60
0
100
AcDbSpline
70
4
71
2
72
6
73
3
40
0
40
0
40
0
40
1
40
1
40
1
41
1
10
47.4501087026483
20
-3.21604461692928
30
0
41
1
10
47.6631680559586
20
-2.84929249527642
30
0
41
1
10
47.8775861584089
20
-2.4825068427497
30
0
0
SPLINE
5
1C2
100
AcDbEntity
8
1
62
256
6
ByLayer
370
18
48
1
60
0
100
AcDbSpline
70
4
71
2
72
6
73
3
40
0
40
0
40
0
40
1
40
1
40
1
41
1
10
46.8680913174253
20
-2.48756131566634
30
0
41
1
10
47.0803016267247
20
-2.8513858679712
30
0
41
1
10
47.2916433058566
20
-3.21572887397986
30
0
0
SPLINE
5
1C3
100
AcDbEntity
8
1
62
256
6
ByLayer
370
18
48
1
60
0
100
AcDbSpline
70
4
71
3
72
11
73
7
40
0
40
0
40
0
40
0
40
0.243476565903325
40
0.501583503269046
40
0.758790877142486
40
1
40
1
40
1
40
1
41
1
10
46.5852094638892
20
-2.50971769681416
30
0
41
1
10
46.5978117360376
20
-2.4838548366279
30
0
41
1
10
46.6327527552667
20
-2.44281936676507
30
0
41
1
10
46.7277398408411
20
-2.40675299059063
30
0
41
1
10
46.8229503508757
20
-2.43406146519502
30
0
41
1
10
46.8579952804506
20
-2.46905826038795
30
0
41
1
10
46.8707045723411
20
-2.49183609119947
30
0
0
SPLINE
5
1C4
100
AcDbEntity
8
1
62
256
6
ByLayer
370
18
48
1
60
0
100
AcDbSpline
70
4
71
2
72
6
73
3
40
0
40
0
40
0
40
1
40
1
40
1
41
1
10
53.1311550849324
20
-2.43013682408068
30
0
41
1
10
53.1956190779429
20
-2.43815502704643
30
0
41
1
10
53.2102839874423
20
-2.47302757326796
30
0
0
SPLINE
5
1C5
100
AcDbEntity
8
1
62
256
6
ByLayer
370
18
48
1
60
0
100
AcDbSpline
70
4
71
2
72
6
73
3
40
0
40
0
40
0
40
1
40
1
40
1
41
1
10
53.2204275846082
20
-2.49181852974024
30
0
41
1
10
53.4124888272588
20
-2.82109196198371
30
0
41
1
10
53.6039229367947
20
-3.1506979455641
30
0
0
SPLINE
5
1C6
100
AcDbEntity
8
1
62
256
6
ByLayer
370
18
48
1
60
0
100
AcDbSpline
70
4
71
2
72
6
73
3
40
0
40
0
40
0
40
1
40
1
40
1
41
1
10
52.3494852312749
20
2.45437637080971
30
0
41
1
10
52.3435089271287
20
2.45890540989694
30
0
41
1
10
52.3402643289647
20
2.459905084685
30
0
0
SPLINE
5
1C7
100
AcDbEntity
8
1
62
256
6
ByLayer
370
18
48
1
60
0
100
AcDbSpline
70
4
71
2
72
6
73
3
40
0
40
0
40
0
40
1
40
1
40
1
41
1
10
51.7431564486411
20
3.22545131872468
30
0
41
1
10
51.5335560469507
20
2.86374689708214
30
0
41
1
10
51.3237384445576
20
2.50256519526283
30
0
0
SPLINE
5
1C8
100
AcDbEntity
8
1
62
256
6
ByLayer
370
18
48
1
60
0
100
AcDbSpline
70
4
71
2
72
6
73
3
40
0
40
0
40
0
40
1
40
1
40
1
41
1
10
52.3187543030564
20
2.49008222472006
30
0
41
1
10
52.1076305746449
20
2.85116753482492
30
0
41
1
10
51.8969718097576
20
3.21361365374344
30
0
0
LINE
5
7F
100
AcDbEntity
8
80
62
256
6
ByLayer
370
18
48
1
60
0
100
AcDbLine
10
0
20
0
30
0
11
-5
21
0
31
0
39
0
210
0
220
0
230
1
0
LINE
5
80
100
AcDbEntity
8
4
62
256
6
ByLayer
370
18
48
0.05
60
0
100
AcDbLine
10
0
20
0
30
0
11
58.55
21
0
31
0
39
0
210
0
220
0
230
1
0
LINE
5
82
100
AcDbEntity
8
81
62
256
6
ByLayer
370
18
48
1
60
0
100
AcDbLine
10
58.55
20
0
30
0
11
63.55
21
0
31
0
39
0
210
0
220
0
230
1
0
LINE
5
83
100
AcDbEntity
8
SK4
62
256
6
ByLayer
370
18
48
0.05
60
0
100
AcDbLine
10
-23
20
0
30
0
11
58.55
21
0
31
0
39
0
210
0
220
0
230
1
0
LINE
5
85
100
AcDbEntity
8
1
62
256
6
ByLayer
370
18
48
1
60
0
100
AcDbLine
10
0
20
3
30
0
11
0
21
-3
31
0
39
0
210
0
220
0
230
1
0
LINE
5
86
100
AcDbEntity
8
1
62
256
6
ByLayer
370
18
48
1
60
0
100
AcDbLine
10
54.49038
20
-2.492032
30
0
11
54.487216
21
-2.48677
31
0
39
0
210
0
220
0
230
1
0
LINE
5
87
100
AcDbEntity
8
1
62
256
6
ByLayer
370
18
48
1
60
0
100
AcDbLine
10
47.877497
20
-2.482673
30
0
11
47.872945
21
-2.490566
31
0
39
0
210
0
220
0
230
1
0
LINE
5
88
100
AcDbEntity
8
1
62
256
6
ByLayer
370
18
48
1
60
0
100
AcDbLine
10
46.871115
20
-2.492471
30
0
11
46.868397
21
-2.488083
31
0
39
0
210
0
220
0
230
1
0
LINE
5
89
100
AcDbEntity
8
1
62
256
6
ByLayer
370
13
48
1
60
0
100
AcDbLine
10
45.397834
20
-1.305511
30
0
11
45.397834
21
-2.259895
31
0
39
0
210
0
220
0
230
1
0
LINE
5
8A
100
AcDbEntity
8
1
62
256
6
ByLayer
370
18
48
1
60
0
100
AcDbLine
10
48.702462
20
-3.229285
30
0
11
48.696318
21
-3.227794
31
0
39
0
210
0
220
0
230
1
0
LINE
5
8B
100
AcDbEntity
8
1
62
256
6
ByLayer
370
13
48
1
60
0
100
AcDbLine
10
45.397834
20
2.401219
30
0
11
45.397834
21
1.840615
31
0
39
0
210
0
220
0
230
1
0
LINE
5
8C
100
AcDbEntity
8
1
62
256
6
ByLayer
370
13
48
1
60
0
100
AcDbLine
10
44.847834
20
-1.942724
30
0
11
44.847834
21
-0.906034
31
0
39
0
210
0
220
0
230
1
0
LINE
5
8D
100
AcDbEntity
8
1
62
256
6
ByLayer
370
13
48
1
60
0
100
AcDbLine
10
44.847834
20
1.966131
30
0
11
44.847834
21
2.2569
31
0
39
0
210
0
220
0
230
1
0
LINE
5
8E
100
AcDbEntity
8
1
62
256
6
ByLayer
370
13
48
1
60
0
100
AcDbLine
10
27.096238
20
-2.2569
30
0
11
27.096238
21
2.2569
31
0
39
0
210
0
220
0
230
1
0
LINE
5
8F
100
AcDbEntity
8
1
62
256
6
ByLayer
370
13
48
1
60
0
100
AcDbLine
10
26.905225
20
2.273611
30
0
11
26.905225
21
-2.273611
31
0
39
0
210
0
220
0
230
1
0
LINE
5
90
100
AcDbEntity
8
1
62
256
6
ByLayer
370
18
48
1
60
0
100
AcDbLine
10
22.78567
20
3
30
0
11
22.78567
21
-3
31
0
39
0
210
0
220
0
230
1
0
LINE
5
91
100
AcDbEntity
8
1
62
256
6
ByLayer
370
18
48
1
60
0
100
AcDbLine
10
46.826795
20
2.920864
30
0
11
46.826795
21
2.366214
31
0
39
0
210
0
220
0
230
1
0
LINE
5
92
100
AcDbEntity
8
SK1
62
256
6
ByLayer
370
18
48
1
60
0
100
AcDbLine
10
-23
20
1.88
30
0
11
-23
21
-1.88
31
0
39
0
210
0
220
0
230
1
0
LINE
5
94
100
AcDbEntity
8
SK1
62
256
6
ByLayer
370
18
48
1
60
0
100
AcDbLine
10
-15
20
1.513902
30
0
11
-15
21
-1.513902
31
0
39
0
210
0
220
0
230
1
0
LINE
5
95
100
AcDbEntity
8
SK1
62
256
6
ByLayer
370
18
48
1
60
0
100
AcDbLine
10
-15
20
2.45
30
0
11
-14.57
21
2.88
31
0
39
0
210
0
220
0
230
1
0
LINE
5
96
100
AcDbEntity
8
SK1
62
256
6
ByLayer
370
18
48
1
60
0
100
AcDbLine
10
-22
20
2.45
30
0
11
-15
21
2.45
31
0
39
0
210
0
220
0
230
1
0
LINE
5
97
100
AcDbEntity
8
SK1
62
256
6
ByLayer
370
18
48
1
60
0
100
AcDbLine
10
-22
20
1.513902
30
0
11
-22
21
2.45
31
0
39
0
210
0
220
0
230
1
0
LINE
5
98
100
AcDbEntity
8
SK1
62
256
6
ByLayer
370
18
48
1
60
0
100
AcDbLine
10
-15
20
1.513902
30
0
11
-22
21
1.513902
31
0
39
0
210
0
220
0
230
1
0
LINE
5
99
100
AcDbEntity
8
SK1
62
256
6
ByLayer
370
18
48
1
60
0
100
AcDbLine
10
-22
20
-1.513902
30
0
11
-15
21
-1.513902
31
0
39
0
210
0
220
0
230
1
0
LINE
5
9A
100
AcDbEntity
8
SK1
62
256
6
ByLayer
370
18
48
1
60
0
100
AcDbLine
10
-22
20
-2.45
30
0
11
-22
21
-1.513902
31
0
39
0
210
0
220
0
230
1
0
LINE
5
9B
100
AcDbEntity
8
SK1
62
256
6
ByLayer
370
18
48
1
60
0
100
AcDbLine
10
-15
20
-2.45
30
0
11
-22
21
-2.45
31
0
39
0
210
0
220
0
230
1
0
LINE
5
9C
100
AcDbEntity
8
SK1
62
256
6
ByLayer
370
18
48
1
60
0
100
AcDbLine
10
-15
20
-2.45
30
0
11
-14.57
21
-2.88
31
0
39
0
210
0
220
0
230
1
0
LINE
5
9D
100
AcDbEntity
8
SK1
62
256
6
ByLayer
370
18
48
1
60
0
100
AcDbLine
10
-14.2
20
2.88
30
0
11
-14.2
21
-2.88
31
0
39
0
210
0
220
0
230
1
0
LINE
5
9E
100
AcDbEntity
8
SK1
62
256
6
ByLayer
370
18
48
1
60
0
100
AcDbLine
10
0
20
3
30
0
11
0
21
-3
31
0
39
0
210
0
220
0
230
1
0
LINE
5
9F
100
AcDbEntity
8
SK1
62
256
6
ByLayer
370
18
48
1
60
0
100
AcDbLine
10
-14.08
20
-3
30
0
11
-14.08
21
3
31
0
39
0
210
0
220
0
230
1
0
LINE
5
A0
100
AcDbEntity
8
1
62
256
6
ByLayer
370
18
48
1
60
0
100
AcDbLine
10
22.78567
20
3
30
0
11
0
21
3
31
0
39
0
210
0
220
0
230
1
0
LINE
5
A1
100
AcDbEntity
8
1
62
256
6
ByLayer
370
18
48
1
60
0
100
AcDbLine
10
0
20
-3
30
0
11
22.78567
21
-3
31
0
39
0
210
0
220
0
230
1
0
LINE
5
A2
100
AcDbEntity
8
1
62
256
6
ByLayer
370
18
48
1
60
0
100
AcDbLine
10
52.336785
20
2.459182
30
0
11
52.335843
21
2.458986
31
0
39
0
210
0
220
0
230
1
0
LINE
5
A3
100
AcDbEntity
8
1
62
256
6
ByLayer
370
18
48
1
60
0
100
AcDbLine
10
48.580149
20
-3.229283
30
0
11
48.702343
21
-3.229283
31
0
39
0
210
0
220
0
230
1
0
LINE
5
A4
100
AcDbEntity
8
1
62
256
6
ByLayer
370
18
48
1
60
0
100
AcDbLine
10
50.606637
20
3.229283
30
0
11
50.484921
21
3.229283
31
0
39
0
210
0
220
0
230
1
0
LINE
5
A5
100
AcDbEntity
8
1
62
256
6
ByLayer
370
18
48
1
60
0
100
AcDbLine
10
47.31017
20
-3.229283
30
0
11
47.431945
21
-3.229283
31
0
39
0
210
0
220
0
230
1
0
LINE
5
A6
100
AcDbEntity
8
1
62
256
6
ByLayer
370
18
48
1
60
0
100
AcDbLine
10
58.55
20
0
30
0
11
57
21
1.55
31
0
39
0
210
0
220
0
230
1
0
LINE
5
A7
100
AcDbEntity
8
1
62
256
6
ByLayer
370
18
48
1
60
0
100
AcDbLine
10
57.314348
20
-1.235652
30
0
11
58.55
21
0
31
0
39
0
210
0
220
0
230
1
0
LINE
5
A8
100
AcDbEntity
8
1
62
256
6
ByLayer
370
18
48
1
60
0
100
AcDbLine
10
51.876898
20
3.229283
30
0
11
51.755007
21
3.229283
31
0
39
0
210
0
220
0
230
1
0
LINE
5
A9
100
AcDbEntity
8
1
62
256
6
ByLayer
370
18
48
1
60
0
100
AcDbLine
10
27.096238
20
-2.2569
30
0
11
34.994966
21
-2.2569
31
0
39
0
210
0
220
0
230
1
0
LINE
5
AA
100
AcDbEntity
8
1
62
256
6
ByLayer
370
18
48
1
60
0
100
AcDbLine
10
39.792528
20
-2.2569
30
0
11
41.802182
21
-2.2569
31
0
39
0
210
0
220
0
230
1
0
LINE
5
AB
100
AcDbEntity
8
1
62
256
6
ByLayer
370
18
48
1
60
0
100
AcDbLine
10
44.847834
20
2.2569
30
0
11
43.185609
21
2.2569
31
0
39
0
210
0
220
0
230
1
0
LINE
5
AC
100
AcDbEntity
8
1
62
256
6
ByLayer
370
18
48
1
60
0
100
AcDbLine
10
38.399277
20
2.2569
30
0
11
36.400964
21
2.2569
31
0
39
0
210
0
220
0
230
1
0
LINE
5
AD
100
AcDbEntity
8
1
62
256
6
ByLayer
370
18
48
1
60
0
100
AcDbLine
10
32.041199
20
2.2569
30
0
11
27.096238
21
2.2569
31
0
39
0
210
0
220
0
230
1
0
LINE
5
AE
100
AcDbEntity
8
1
62
256
6
ByLayer
370
18
48
1
60
0
100
AcDbLine
10
26.905225
20
2.273611
30
0
11
22.78567
21
3
31
0
39
0
210
0
220
0
230
1
0
LINE
5
AF
100
AcDbEntity
8
1
62
256
6
ByLayer
370
18
48
1
60
0
100
AcDbLine
10
22.78567
20
-3
30
0
11
26.905225
21
-2.273611
31
0
39
0
210
0
220
0
230
1
0
LINE
5
B0
100
AcDbEntity
8
SK1
62
256
6
ByLayer
370
18
48
1
60
0
100
AcDbLine
10
-23
20
-1.88
30
0
11
-22.43
21
-2.45
31
0
39
0
210
0
220
0
230
1
0
LINE
5
B1
100
AcDbEntity
8
SK1
62
256
6
ByLayer
370
18
48
1
60
0
100
AcDbLine
10
-22.43
20
2.45
30
0
11
-23
21
1.88
31
0
39
0
210
0
220
0
230
1
0
LINE
5
B2
100
AcDbEntity
8
SK1
62
256
6
ByLayer
370
18
48
1
60
0
100
AcDbLine
10
-14.2
20
2.88
30
0
11
-14.57
21
2.88
31
0
39
0
210
0
220
0
230
1
0
LINE
5
B3
100
AcDbEntity
8
SK1
62
256
6
ByLayer
370
18
48
1
60
0
100
AcDbLine
10
-14.57
20
-2.88
30
0
11
-14.2
21
-2.88
31
0
39
0
210
0
220
0
230
1
0
LINE
5
B4
100
AcDbEntity
8
SK1
62
256
6
ByLayer
370
18
48
1
60
0
100
AcDbLine
10
-14.2
20
-2.88
30
0
11
-14.08
21
-3
31
0
39
0
210
0
220
0
230
1
0
LINE
5
B5
100
AcDbEntity
8
SK1
62
256
6
ByLayer
370
18
48
1
60
0
100
AcDbLine
10
-14.08
20
3
30
0
11
-14.2
21
2.88
31
0
39
0
210
0
220
0
230
1
0
LINE
5
B6
100
AcDbEntity
8
SK1
62
256
6
ByLayer
370
18
48
1
60
0
100
AcDbLine
10
0
20
3
30
0
11
-14.08
21
3
31
0
39
0
210
0
220
0
230
1
0
LINE
5
B7
100
AcDbEntity
8
SK1
62
256
6
ByLayer
370
18
48
1
60
0
100
AcDbLine
10
-14.08
20
-3
30
0
11
0
21
-3
31
0
39
0
210
0
220
0
230
1
0
LINE
5
B8
100
AcDbEntity
8
SK2
62
256
6
ByLayer
370
18
48
1
60
0
100
AcDbLine
10
12.352835
20
15.841828
30
0
11
12.352835
21
-10.5
31
0
39
0
210
0
220
0
230
1
0
LINE
5
BA
100
AcDbEntity
8
1
62
256
6
ByLayer
370
18
48
1
60
1
100
AcDbLine
10
12.352835
20
3
30
0
11
11.892051
21
6.499998
31
0
39
0
210
0
220
0
230
1
0
LINE
5
BB
100
AcDbEntity
8
1
62
256
6
ByLayer
370
18
48
1
60
1
100
AcDbLine
10
11.892051
20
6.499998
30
0
11
12.813619
21
6.500002
31
0
39
0
210
0
220
0
230
1
0
LINE
5
BC
100
AcDbEntity
8
1
62
256
6
ByLayer
370
18
48
1
60
1
100
AcDbLine
10
12.813619
20
6.500002
30
0
11
12.352835
21
3
31
0
39
0
210
0
220
0
230
1
0
LINE
5
BD
100
AcDbEntity
8
1
62
256
6
ByLayer
370
18
48
1
60
1
100
AcDbLine
10
12.352835
20
-3
30
0
11
12.813619
21
-6.499998
31
0
39
0
210
0
220
0
230
1
0
LINE
5
BE
100
AcDbEntity
8
1
62
256
6
ByLayer
370
18
48
1
60
1
100
AcDbLine
10
12.813619
20
-6.499998
30
0
11
11.892051
21
-6.500002
31
0
39
0
210
0
220
0
230
1
0
LINE
5
BF
100
AcDbEntity
8
1
62
256
6
ByLayer
370
18
48
1
60
1
100
AcDbLine
10
11.892051
20
-6.500002
30
0
11
12.352835
21
-3
31
0
39
0
210
0
220
0
230
1
0
LINE
5
C0
100
AcDbEntity
8
2
62
256
6
ByLayer
370
18
48
1
60
0
100
AcDbLine
10
57
20
-40.729283
30
0
11
-23
21
-40.729283
31
0
39
0
210
0
220
0
230
1
0
LINE
5
C2
100
AcDbEntity
8
2
62
256
6
ByLayer
370
18
48
1
60
0
100
AcDbLine
10
-23
20
-3.4675
30
0
11
-23
21
-42.729283
31
0
39
0
210
0
220
0
230
1
0
LINE
5
C3
100
AcDbEntity
8
2
62
256
6
ByLayer
370
18
48
1
60
0
100
AcDbLine
10
57
20
-4.816783
30
0
11
57
21
-42.729283
31
0
39
0
210
0
220
0
230
1
0
LINE
5
C4
100
AcDbEntity
8
1
62
256
6
ByLayer
370
18
48
1
60
1
100
AcDbLine
10
-23
20
-40.729283
30
0
11
-19.500002
21
-40.2685
31
0
39
0
210
0
220
0
230
1
0
LINE
5
C5
100
AcDbEntity
8
1
62
256
6
ByLayer
370
18
48
1
60
1
100
AcDbLine
10
-19.500002
20
-40.2685
30
0
11
-19.499998
21
-41.190067
31
0
39
0
210
0
220
0
230
1
0
LINE
5
C6
100
AcDbEntity
8
1
62
256
6
ByLayer
370
18
48
1
60
1
100
AcDbLine
10
-19.499998
20
-41.190067
30
0
11
-23
21
-40.729283
31
0
39
0
210
0
220
0
230
1
0
LINE
5
C7
100
AcDbEntity
8
1
62
256
6
ByLayer
370
18
48
1
60
1
100
AcDbLine
10
57
20
-40.729283
30
0
11
53.500002
21
-41.190067
31
0
39
0
210
0
220
0
230
1
0
LINE
5
C8
100
AcDbEntity
8
1
62
256
6
ByLayer
370
18
48
1
60
1
100
AcDbLine
10
53.500002
20
-41.190067
30
0
11
53.499998
21
-40.2685
31
0
39
0
210
0
220
0
230
1
0
LINE
5
C9
100
AcDbEntity
8
1
62
256
6
ByLayer
370
18
48
1
60
1
100
AcDbLine
10
53.499998
20
-40.2685
30
0
11
57
21
-40.729283
31
0
39
0
210
0
220
0
230
1
0
LINE
5
1CD
100
AcDbEntity
8
1
62
256
6
ByLayer
370
18
48
1
60
1
100
AcDbLine
10
12.352835
20
3
30
0
11
11.892051
21
6.499998
31
0
39
0
210
0
220
0
230
1
0
LINE
5
1CE
100
AcDbEntity
8
1
62
256
6
ByLayer
370
18
48
1
60
1
100
AcDbLine
10
11.892051
20
6.499998
30
0
11
12.813619
21
6.500002
31
0
39
0
210
0
220
0
230
1
0
LINE
5
1CF
100
AcDbEntity
8
1
62
256
6
ByLayer
370
18
48
1
60
1
100
AcDbLine
10
12.813619
20
6.500002
30
0
11
12.352835
21
3
31
0
39
0
210
0
220
0
230
1
0
LINE
5
1D1
100
AcDbEntity
8
1
62
256
6
ByLayer
370
18
48
1
60
1
100
AcDbLine
10
12.352835
20
-3
30
0
11
12.813619
21
-6.499998
31
0
39
0
210
0
220
0
230
1
0
LINE
5
1D2
100
AcDbEntity
8
1
62
256
6
ByLayer
370
18
48
1
60
1
100
AcDbLine
10
12.813619
20
-6.499998
30
0
11
11.892051
21
-6.500002
31
0
39
0
210
0
220
0
230
1
0
LINE
5
1D3
100
AcDbEntity
8
1
62
256
6
ByLayer
370
18
48
1
60
1
100
AcDbLine
10
11.892051
20
-6.500002
30
0
11
12.352835
21
-3
31
0
39
0
210
0
220
0
230
1
0
LINE
5
1D6
100
AcDbEntity
8
1
62
256
6
ByLayer
370
18
48
1
60
1
100
AcDbLine
10
-23
20
-40.729283
30
0
11
-19.500002
21
-40.2685
31
0
39
0
210
0
220
0
230
1
0
LINE
5
1D7
100
AcDbEntity
8
1
62
256
6
ByLayer
370
18
48
1
60
1
100
AcDbLine
10
-19.500002
20
-40.2685
30
0
11
-19.499998
21
-41.190067
31
0
39
0
210
0
220
0
230
1
0
LINE
5
1D8
100
AcDbEntity
8
1
62
256
6
ByLayer
370
18
48
1
60
1
100
AcDbLine
10
-19.499998
20
-41.190067
30
0
11
-23
21
-40.729283
31
0
39
0
210
0
220
0
230
1
0
LINE
5
1DA
100
AcDbEntity
8
1
62
256
6
ByLayer
370
18
48
1
60
1
100
AcDbLine
10
57
20
-40.729283
30
0
11
53.500002
21
-41.190067
31
0
39
0
210
0
220
0
230
1
0
LINE
5
1DB
100
AcDbEntity
8
1
62
256
6
ByLayer
370
18
48
1
60
1
100
AcDbLine
10
53.500002
20
-41.190067
30
0
11
53.499998
21
-40.2685
31
0
39
0
210
0
220
0
230
1
0
LINE
5
1DC
100
AcDbEntity
8
1
62
256
6
ByLayer
370
18
48
1
60
1
100
AcDbLine
10
53.499998
20
-40.2685
30
0
11
57
21
-40.729283
31
0
39
0
210
0
220
0
230
1
0
MTEXT
5
1C9
100
AcDbEntity
8
SK2
62
256
6
ByLayer
370
18
48
1
60
0
100
AcDbMText
10
11.011721
20
8.658437
30
0
210
0
220
0
230
1
1
%%c
40
3
41
0
44
1.084337
50
90
71
7
72
5
7
iso_b_vert
0
MTEXT
5
1CC
100
AcDbEntity
8
SK2
62
256
6
ByLayer
370
18
48
1
60
0
100
AcDbMText
10
11.011721
20
14.635
30
0
210
0
220
0
230
1
1
\W0.5404;6
40
3
41
0
44
1.084337
50
90
71
7
72
5
7
iso_b_vert
0
MTEXT
5
1D5
100
AcDbEntity
8
2
62
256
6
ByLayer
370
18
48
1
60
0
100
AcDbMText
10
15.367172
20
-39.844169
30
0
210
0
220
0
230
1
1
\W0.6740;80
40
3
41
0
44
1.084337
50
0
71
7
72
5
7
iso_b_vert
0
MTEXT
5
1DE
100
AcDbEntity
8
SK6
62
256
6
ByLayer
370
18
48
1
60
0
100
AcDbMText
10
-1.001159
20
-82.114886
30
0
210
0
220
0
230
1
1
\W0.7211;T300-XM100DE-1/4    C110
40
3
41
0
44
1.084337
50
0
71
7
72
5
7
iso_b_vert
0
HATCH
5
1D0
100
AcDbEntity
8
SK2
62
256
6
ByLayer
370
13
48
1
60
0
100
AcDbHatch
10
0
20
0
30
0
210
0
220
0
230
1
2
ANSI31
70
0
71
0
91
1
92
5
93
3
72
1
10
12.352835239921
20
3.00000000000003
11
11.8920514983683
21
6.49999830744684
72
1
10
11.8920514983683
20
6.49999830744684
11
12.8136189814738
21
6.50000169255321
72
1
10
12.8136189814738
20
6.50000169255321
11
12.352835239921
21
3.00000000000003
97
0
75
0
76
1
52
0
41
0.0062
77
0
78
1
53
45
43
0
44
0
45
-0.0139193969876572
46
0.0139193969876572
79
0
47
0
98
1
10
0
20
0
0
HATCH
5
1D4
100
AcDbEntity
8
SK2
62
256
6
ByLayer
370
13
48
1
60
0
100
AcDbHatch
10
0
20
0
30
0
210
0
220
0
230
1
2
ANSI31
70
0
71
0
91
1
92
5
93
3
72
1
10
12.352835239921
20
-3
11
12.8136189814738
21
-6.49999830744682
72
1
10
12.8136189814738
20
-6.49999830744682
11
11.8920514983683
21
-6.50000169255318
72
1
10
11.8920514983683
20
-6.50000169255318
11
12.352835239921
21
-3
97
0
75
0
76
1
52
0
41
0.0062
77
0
78
1
53
45
43
0
44
0
45
-0.0139193969876572
46
0.0139193969876572
79
0
47
0
98
1
10
0
20
0
0
HATCH
5
1D9
100
AcDbEntity
8
2
62
256
6
ByLayer
370
13
48
1
60
0
100
AcDbHatch
10
0
20
0
30
0
210
0
220
0
230
1
2
ANSI31
70
0
71
0
91
1
92
5
93
3
72
1
10
-23
20
-40.7292832592221
11
-19.5000016925532
21
-40.2684995176694
72
1
10
-19.5000016925532
20
-40.2684995176694
11
-19.4999983074468
21
-41.1900670007749
72
1
10
-19.4999983074468
20
-41.1900670007749
11
-23
21
-40.7292832592221
97
0
75
0
76
1
52
0
41
0.0062
77
0
78
1
53
45
43
0
44
0
45
-0.0139193969876572
46
0.0139193969876572
79
0
47
0
98
1
10
0
20
0
0
HATCH
5
1DD
100
AcDbEntity
8
2
62
256
6
ByLayer
370
13
48
1
60
0
100
AcDbHatch
10
0
20
0
30
0
210
0
220
0
230
1
2
ANSI31
70
0
71
0
91
1
92
5
93
3
72
1
10
57
20
-40.7292832592221
11
53.5000016925532
21
-41.1900670007749
72
1
10
53.5000016925532
20
-41.1900670007749
11
53.4999983074468
21
-40.2684995176694
72
1
10
53.4999983074468
20
-40.2684995176694
11
57
21
-40.7292832592221
97
0
75
0
76
1
52
0
41
0.0062
77
0
78
1
53
45
43
0
44
0
45
-0.0139193969876572
46
0.0139193969876572
79
0
47
0
98
1
10
0
20
0
0
DIMENSION
5
1E1
100
AcDbEntity
8
2
62
256
6
ByLayer
370
18
48
1
60
0
100
AcDbDimension
2
_U0
10
76.5
20
-3.229283
30
0
11
76.5
21
24.205882
31
0
70
32
71
1
72
1
41
1
210
0
220
0
230
1
3
Standard
100
AcDbAlignedDimension
13
57
23
3.229283
33
0
14
57
24
-3.229283
34
0
50
90
100
AcDbRotatedDimension
1001
ACAD
1000
DSTYLE
1002
{
1070
   371
1070
    13
1070
   372
1070
    13
1070
     3
1000

1070
   170
1070
     0
1070
   144
1040
1.0
1070
   277
1070
     2
1070
   284
1070
     8
1070
   278
1070
    46
1070
   146
1040
1.166667
1070
   345
1005
16
1070
   347
1005
16
1070
   346
1005
16
1070
   344
1005
0
1070
   343
1005
0
1070
   172
1070
     1
1070
    76
1070
     0
1070
    75
1070
     0
1070
   282
1070
     0
1070
   281
1070
     0
1070
    71
1070
     0
1070
    74
1070
     0
1070
   279
1070
     0
1070
   173
1070
     1
1070
   340
1005
1CA
1070
   271
1070
     3
1070
   272
1070
     3
1070
    77
1070
     1
1070
    73
1070
     0
1070
   171
1070
     3
1070
   274
1070
     4
1070
   177
1070
     2
1070
   176
1070
     2
1070
   178
1070
     2
1070
    78
1070
     8
1070
    48
1040
-0.1
1070
    41
1040
3.5
1070
   147
1040
1.5
1070
    42
1040
1.5875
1070
    44
1040
2.0
1070
   140
1040
3.0
1002
}
1001
ACAD_DSTYLE_DIM_LINETYPE
1070
   380
1005
16
1001
ACAD_DSTYLE_DIM_EXT1_LINETYPE
1070
   381
1005
16
1001
ACAD_DSTYLE_DIM_EXT2_LINETYPE
1070
   382
1005
16
0
DIMENSION
5
1FC
100
AcDbEntity
8
SK2
62
256
6
ByLayer
370
18
48
1
60
0
100
AcDbDimension
2
_U1
10
53.51
20
12.147372
30
0
11
55.255
21
12.147372
31
0
70
32
71
1
72
1
41
1
210
0
220
0
230
1
3
Standard
100
AcDbAlignedDimension
13
57
23
3.229283
33
0
14
53.51
24
0
34
0
50
0
100
AcDbRotatedDimension
1001
ACAD
1000
DSTYLE
1002
{
1070
   371
1070
    13
1070
   372
1070
    13
1070
   170
1070
     0
1070
   144
1040
1.0
1070
   277
1070
     2
1070
   284
1070
     8
1070
   278
1070
    46
1070
   146
1040
1.166667
1070
   345
1005
16
1070
   347
1005
16
1070
   346
1005
16
1070
   344
1005
0
1070
   343
1005
0
1070
   172
1070
     1
1070
    76
1070
     0
1070
    75
1070
     0
1070
   282
1070
     0
1070
   281
1070
     0
1070
    71
1070
     0
1070
    74
1070
     0
1070
   279
1070
     0
1070
   173
1070
     1
1070
   340
1005
1CA
1070
   271
1070
     3
1070
   272
1070
     3
1070
    77
1070
     1
1070
    73
1070
     1
1070
   171
1070
     3
1070
   274
1070
     4
1070
   177
1070
     2
1070
   176
1070
     2
1070
   178
1070
     2
1070
    78
1070
     8
1070
    48
1040
-0.1
1070
    41
1040
3.5
1070
   147
1040
1.5
1070
    42
1040
1.5875
1070
    44
1040
2.0
1070
   140
1040
3.0
1002
}
1001
ACAD_DSTYLE_DIM_LINETYPE
1070
   380
1005
16
1001
ACAD_DSTYLE_DIM_EXT1_LINETYPE
1070
   381
1005
16
1001
ACAD_DSTYLE_DIM_EXT2_LINETYPE
1070
   382
1005
16
0
DIMENSION
5
216
100
AcDbEntity
8
SK2
62
256
6
ByLayer
370
18
48
1
60
0
100
AcDbDimension
2
_U2
10
47
20
-10.229283
30
0
11
70.714286
21
-10.229283
31
0
70
32
71
1
72
1
41
1
210
0
220
0
230
1
3
Standard
100
AcDbAlignedDimension
13
57
23
-3.229283
33
0
14
47
24
-3.229283
34
0
50
0
100
AcDbRotatedDimension
1001
ACAD
1000
DSTYLE
1002
{
1070
   371
1070
    13
1070
   372
1070
    13
1070
   170
1070
     0
1070
   144
1040
1.0
1070
   277
1070
     2
1070
   284
1070
     8
1070
   278
1070
    46
1070
   146
1040
0.833333
1070
   345
1005
16
1070
   347
1005
16
1070
   346
1005
16
1070
   344
1005
0
1070
   343
1005
0
1070
   172
1070
     1
1070
    76
1070
     0
1070
    75
1070
     0
1070
   282
1070
     0
1070
   281
1070
     0
1070
    47
1040
0.5
1070
    72
1070
     0
1070
    71
1070
     1
1070
    74
1070
     0
1070
   279
1070
     0
1070
   173
1070
     1
1070
   340
1005
1CA
1070
   271
1070
     1
1070
   272
1070
     3
1070
    77
1070
     1
1070
    73
1070
     1
1070
   171
1070
     3
1070
   274
1070
     4
1070
   177
1070
     2
1070
   176
1070
     2
1070
   178
1070
     2
1070
    78
1070
     8
1070
    48
1040
0.5
1070
    41
1040
3.5
1070
   147
1040
1.5
1070
    42
1040
1.5875
1070
    44
1040
2.0
1070
   140
1040
3.0
1002
}
1001
ACAD_DSTYLE_DIM_LINETYPE
1070
   380
1005
16
1001
ACAD_DSTYLE_DIM_EXT1_LINETYPE
1070
   381
1005
16
1001
ACAD_DSTYLE_DIM_EXT2_LINETYPE
1070
   382
1005
16
0
DIMENSION
5
231
100
AcDbEntity
8
SK2
62
256
6
ByLayer
370
18
48
1
60
0
100
AcDbDimension
2
_U3
10
27
20
-32.729283
30
0
11
42
21
-32.729283
31
0
70
32
71
1
72
1
41
1
210
0
220
0
230
1
3
Standard
100
AcDbAlignedDimension
13
57
23
-3.229283
33
0
14
27
24
-2.2569
34
0
50
0
100
AcDbRotatedDimension
1001
ACAD
1000
DSTYLE
1002
{
1070
   371
1070
    13
1070
   372
1070
    13
1070
   170
1070
     0
1070
   144
1040
1.0
1070
   277
1070
     2
1070
   284
1070
     8
1070
   278
1070
    46
1070
   146
1040
1.166667
1070
   345
1005
16
1070
   347
1005
16
1070
   346
1005
16
1070
   344
1005
0
1070
   343
1005
0
1070
   172
1070
     1
1070
    76
1070
     0
1070
    75
1070
     0
1070
   282
1070
     0
1070
   281
1070
     0
1070
    71
1070
     0
1070
    74
1070
     0
1070
   279
1070
     0
1070
   173
1070
     1
1070
   340
1005
1CA
1070
   271
1070
     1
1070
   272
1070
     3
1070
    77
1070
     1
1070
    73
1070
     1
1070
   171
1070
     3
1070
   274
1070
     4
1070
   177
1070
     2
1070
   176
1070
     2
1070
   178
1070
     2
1070
    78
1070
     8
1070
    48
1040
-0.1
1070
    41
1040
3.5
1070
   147
1040
1.5
1070
    42
1040
1.5875
1070
    44
1040
2.0
1070
   140
1040
3.0
1002
}
1001
ACAD_DSTYLE_DIM_LINETYPE
1070
   380
1005
16
1001
ACAD_DSTYLE_DIM_EXT1_LINETYPE
1070
   381
1005
16
1001
ACAD_DSTYLE_DIM_EXT2_LINETYPE
1070
   382
1005
16
0
DIMENSION
5
249
100
AcDbEntity
8
2
62
256
6
ByLayer
370
18
48
1
60
0
100
AcDbDimension
2
_U4
10
31.5
20
-21.729283
30
0
11
44.25
21
-21.729283
31
0
70
32
71
1
72
1
41
1
210
0
220
0
230
1
3
Standard
100
AcDbAlignedDimension
13
57
23
-3.229283
33
0
14
31.5
24
0
34
0
50
0
100
AcDbRotatedDimension
1001
ACAD
1000
DSTYLE
1002
{
1070
   371
1070
    13
1070
   372
1070
    13
1070
   170
1070
     0
1070
   144
1040
1.0
1070
   277
1070
     2
1070
   284
1070
     8
1070
   278
1070
    46
1070
   146
1040
1.166667
1070
   345
1005
16
1070
   347
1005
16
1070
   346
1005
16
1070
   344
1005
0
1070
   343
1005
0
1070
   172
1070
     1
1070
    76
1070
     0
1070
    75
1070
     0
1070
   282
1070
     0
1070
   281
1070
     0
1070
    71
1070
     0
1070
    74
1070
     0
1070
   279
1070
     0
1070
   173
1070
     1
1070
   340
1005
1CA
1070
   271
1070
     1
1070
   272
1070
     3
1070
    77
1070
     1
1070
    73
1070
     1
1070
   171
1070
     3
1070
   274
1070
     4
1070
   177
1070
     2
1070
   176
1070
     2
1070
   178
1070
     2
1070
    78
1070
     8
1070
    48
1040
-0.1
1070
    41
1040
3.5
1070
   147
1040
1.5
1070
    42
1040
1.5875
1070
    44
1040
2.0
1070
   140
1040
3.0
1002
}
1001
ACAD_DSTYLE_DIM_LINETYPE
1070
   380
1005
16
1001
ACAD_DSTYLE_DIM_EXT1_LINETYPE
1070
   381
1005
16
1001
ACAD_DSTYLE_DIM_EXT2_LINETYPE
1070
   382
1005
16
0
ENDSEC
0
SECTION
2
OBJECTS
0
DICTIONARY
5
2d1
330
0
100
AcDbDictionary
280
0
281
1
3
ACAD_GROUP
350
2d2
3
ACAD_MLINESTYLE
350
2d3
0
DICTIONARY
5
2d2
330
0
100
AcDbDictionary
280
0
281
1
0
DICTIONARY
5
2d3
330
0
100
AcDbDictionary
280
0
281
1
3
Standard
350
18
0
MLINESTYLE
5
18
330
2d3
100
AcDbMlineStyle
2
Standard
70
0
3

62
256
51
90
52
90
71
2
49
-0.5
62
256
6
ByLayer
49
0.5
62
256
6
ByLayer
0
RASTERVARIABLES
5
2bf
330

100
AcDbRasterVariables
90
0
70
1
71
1
72
1
0
ENDSEC
0
EOF
