0
SECTION
2
HEADER
9
$ACADVER
1
AC1015
9
$DWGCODEPAGE
3
ANSI_1252
9
$HANDSEED
5
2ea
9
$ANGBASE
50
0
9
$ANGDIR
70
0
9
$ATTMODE
70
1
9
$AUNITS
70
0
9
$AUPREC
70
0
9
$CECOLOR
62
256
9
$CELTSCALE
40
1
9
$CELTYPE
6
ByLayer
9
$CELWEIGHT
370
18
9
$CLAYER
8
0
9
$CMLJUST
70
0
9
$CMLSCALE
40
1
9
$CMLSTYLE
2
Standard
9
$DIMSTYLE
2
Standard
9
$TEXTSIZE
40
0.2
9
$TEXTSTYLE
7
Standard
9
$LUNITS
70
2
9
$LUPREC
70
4
9
$EXTNAMES
290
1
9
$INSUNITS
70
4
9
$LTSCALE
40
1
9
$LWDISPLAY
290
1
9
$PDMODE
70
0
9
$PDSIZE
40
0
9
$PLINEGEN
70
0
0
ENDSEC
0
SECTION
2
CLASSES
0
CLASS
1
RASTERVARIABLES
2
AcDbRasterVariables
3
ISM
90
0
280
0
281
0
0
ENDSEC
0
SECTION
2
TABLES
0
TABLE
2
VPORT
5
2e0
100
AcDbSymbolTable
0
VPORT
5
1
100
AcDbSymbolTableRecord
100
AcDbViewportTableRecord
2
*Active
70
0
10
0
20
0
11
1
21
1
12
-1
22
1
13
0
23
0
14
0.5
24
0.5
15
10
25
10
16
0
26
0
36
1
17
0
27
0
37
0
0
ENDTAB
0
TABLE
2
LTYPE
5
2e1
100
AcDbSymbolTable
0
LTYPE
5
14
100
AcDbSymbolTableRecord
100
AcDbLinetypeTableRecord
70
0
2
ByBlock
3

72
65
73
0
40
0
0
LTYPE
5
15
100
AcDbSymbolTableRecord
100
AcDbLinetypeTableRecord
70
0
2
ByLayer
3

72
65
73
0
40
0
0
LTYPE
5
16
100
AcDbSymbolTableRecord
100
AcDbLinetypeTableRecord
70
0
2
Continuous
3
Solid line
72
65
73
0
40
0
0
LTYPE
5
6E
100
AcDbSymbolTableRecord
100
AcDbLinetypeTableRecord
70
0
2
CENTER
3
____ _ ____ _ ____ _ ____
72
65
73
4
40
47.5
49
22
74
0
49
-8.5
74
0
49
8.5
74
0
49
-8.5
74
0
0
LTYPE
5
6F
100
AcDbSymbolTableRecord
100
AcDbLinetypeTableRecord
70
0
2
DASHED
3
__ __ __ __ __ __ __ __ __
72
65
73
2
40
25.72
49
12.86
74
0
49
-12.86
74
0
0
ENDTAB
0
TABLE
2
LAYER
5
2e2
100
AcDbSymbolTable
0
LAYER
5
10
100
AcDbSymbolTableRecord
100
AcDbLayerTableRecord
2
0
70
0
62
7
6
Continuous
290
1
370
-3
390
0
0
LAYER
5
71
100
AcDbSymbolTableRecord
100
AcDbLayerTableRecord
2
80
70
0
62
-6
6
Continuous
290
1
370
-3
390
0
0
LAYER
5
73
100
AcDbSymbolTableRecord
100
AcDbLayerTableRecord
2
81
70
0
62
-3
6
Continuous
290
1
370
-3
390
0
0
LAYER
5
75
100
AcDbSymbolTableRecord
100
AcDbLayerTableRecord
2
1
70
0
62
4
6
Continuous
290
1
370
-3
390
0
0
LAYER
5
81
100
AcDbSymbolTableRecord
100
AcDbLayerTableRecord
2
4
70
0
62
-2
6
CENTER
290
1
370
-3
390
0
0
LAYER
5
BD
100
AcDbSymbolTableRecord
100
AcDbLayerTableRecord
2
2
70
0
62
7
6
Continuous
290
1
370
-3
390
0
0
LAYER
5
1F0
100
AcDbSymbolTableRecord
100
AcDbLayerTableRecord
2
Defpoints
70
0
62
7
6
Continuous
290
0
370
-3
390
0
0
LAYER
5
2cc
100
AcDbSymbolTableRecord
100
AcDbLayerTableRecord
2
SK4
70
0
62
2
6
CENTER
290
1
370
-3
390
0
0
LAYER
5
2cd
100
AcDbSymbolTableRecord
100
AcDbLayerTableRecord
2
SK1
70
0
62
4
6
Continuous
290
1
370
-3
390
0
0
LAYER
5
2ce
100
AcDbSymbolTableRecord
100
AcDbLayerTableRecord
2
SK2
70
0
62
7
6
Continuous
290
1
370
-3
390
0
0
LAYER
5
2cf
100
AcDbSymbolTableRecord
100
AcDbLayerTableRecord
2
SK6
70
0
62
5
6
Continuous
290
1
370
-3
390
0
0
ENDTAB
0
TABLE
2
STYLE
5
2e3
100
AcDbSymbolTable
0
STYLE
5
11
100
AcDbSymbolTableRecord
100
AcDbTextStyleTableRecord
2
Standard
3
txt
70
0
71
0
40
0
41
1
42
0
50
0
0
STYLE
5
1D6
100
AcDbSymbolTableRecord
100
AcDbTextStyleTableRecord
2
iso_b_vert
3
simplex.shx
70
0
71
0
40
0
41
1
42
0
50
0
0
STYLE
5
1D7
100
AcDbSymbolTableRecord
100
AcDbTextStyleTableRecord
2
DWGDirectTextStyle
3
simplex
70
0
71
0
40
0
41
1
42
0
50
0
0
ENDTAB
0
TABLE
2
DIMSTYLE
5
2e4
100
AcDbSymbolTable
100
AcDbDimStyleTable
0
DIMSTYLE
105
27
100
AcDbSymbolTableRecord
100
AcDbDimStyleTableRecord
2
Standard
70
0
3
<>
41
0.18
42
0.0625
44
0.18
140
0.18
147
0.09
73
0
74
0
77
1
271
2
275
0
278
52
280
0
340
11
0
ENDTAB
0
TABLE
2
VIEW
5
2e5
100
AcDbSymbolTable
0
ENDTAB
0
TABLE
2
UCS
5
2e6
100
AcDbSymbolTable
0
ENDTAB
0
TABLE
2
APPID
5
2e7
100
AcDbSymbolTable
0
APPID
5
12
100
AcDbSymbolTableRecord
100
AcDbRegAppTableRecord
2
ACAD
70
0
0
APPID
5
1EC
100
AcDbSymbolTableRecord
100
AcDbRegAppTableRecord
2
ACAD_DSTYLE_DIMBREAK
70
0
0
APPID
5
28B
100
AcDbSymbolTableRecord
100
AcDbRegAppTableRecord
2
ACAD_DSTYLE_DIM_LINETYPE
70
0
0
APPID
5
28C
100
AcDbSymbolTableRecord
100
AcDbRegAppTableRecord
2
ACAD_DSTYLE_DIM_EXT1_LINETYPE
70
0
0
APPID
5
28D
100
AcDbSymbolTableRecord
100
AcDbRegAppTableRecord
2
ACAD_DSTYLE_DIM_EXT2_LINETYPE
70
0
0
APPID
5
2C8
100
AcDbSymbolTableRecord
100
AcDbRegAppTableRecord
2
ACAD_MLEADERVER
70
0
0
ENDTAB
0
TABLE
2
BLOCK_RECORD
5
2e8
100
AcDbSymbolTable
0
BLOCK_RECORD
5
1F
100
AcDbSymbolTableRecord
100
AcDbBlockTableRecord
2
*Model_Space
340
0
70
0
0
BLOCK_RECORD
5
1B
100
AcDbSymbolTableRecord
100
AcDbBlockTableRecord
2
*Paper_Space
340
0
70
0
0
BLOCK_RECORD
5
23
100
AcDbSymbolTableRecord
100
AcDbBlockTableRecord
2
*Paper_Space0
340
0
70
0
0
BLOCK_RECORD
5
1F1
100
AcDbSymbolTableRecord
100
AcDbBlockTableRecord
2
*D1
340
0
70
0
0
BLOCK_RECORD
5
1FF
100
AcDbSymbolTableRecord
100
AcDbBlockTableRecord
2
_U0
340
0
70
0
0
BLOCK_RECORD
5
20B
100
AcDbSymbolTableRecord
100
AcDbBlockTableRecord
2
*D3
340
0
70
0
0
BLOCK_RECORD
5
218
100
AcDbSymbolTableRecord
100
AcDbBlockTableRecord
2
_U1
340
0
70
0
0
BLOCK_RECORD
5
225
100
AcDbSymbolTableRecord
100
AcDbBlockTableRecord
2
*D5
340
0
70
0
0
BLOCK_RECORD
5
233
100
AcDbSymbolTableRecord
100
AcDbBlockTableRecord
2
_U2
340
0
70
0
0
BLOCK_RECORD
5
240
100
AcDbSymbolTableRecord
100
AcDbBlockTableRecord
2
*D7
340
0
70
0
0
BLOCK_RECORD
5
24C
100
AcDbSymbolTableRecord
100
AcDbBlockTableRecord
2
_U3
340
0
70
0
0
BLOCK_RECORD
5
258
100
AcDbSymbolTableRecord
100
AcDbBlockTableRecord
2
*D9
340
0
70
0
0
BLOCK_RECORD
5
264
100
AcDbSymbolTableRecord
100
AcDbBlockTableRecord
2
_U4
340
0
70
0
0
ENDTAB
0
ENDSEC
0
SECTION
2
BLOCKS
0
BLOCK
5
20
100
AcDbEntity
8
0
100
AcDbBlockBegin
2
*Model_Space
70
0
10
0
20
0
30
0
3
*Model_Space
0
ENDBLK
5
21
100
AcDbEntity
8
0
100
AcDbBlockEnd
0
BLOCK
5
1C
100
AcDbEntity
8
0
100
AcDbBlockBegin
2
*Paper_Space
70
0
10
0
20
0
30
0
3
*Paper_Space
0
ENDBLK
5
1D
100
AcDbEntity
8
0
100
AcDbBlockEnd
0
BLOCK
5
24
100
AcDbEntity
8
0
100
AcDbBlockBegin
2
*Paper_Space0
70
0
10
0
20
0
30
0
3
*Paper_Space0
0
ENDBLK
5
25
100
AcDbEntity
8
0
100
AcDbBlockEnd
0
BLOCK
5
1F2
100
AcDbEntity
8
0
100
AcDbBlockBegin
2
*D1
70
1
10
0
20
0
30
0
3
*D1
0
LINE
5
1F4
100
AcDbEntity
8
0
62
256
6
ByLayer
370
-2
48
1
60
0
100
AcDbLine
10
72.5875
20
7.073041
30
0
11
92.5
21
7.073041
31
0
39
0
210
0
220
0
230
1
0
LINE
5
1F5
100
AcDbEntity
8
0
62
256
6
ByLayer
370
-2
48
1
60
0
100
AcDbLine
10
72.5875
20
-7.073041
30
0
11
92.5
21
-7.073041
31
0
39
0
210
0
220
0
230
1
0
LINE
5
1F6
100
AcDbEntity
8
0
62
256
6
ByLayer
370
-2
48
1
60
0
100
AcDbLine
10
90.5
20
7.073041
30
0
11
90.5
21
37.501613
31
0
39
0
210
0
220
0
230
1
0
LINE
5
1F7
100
AcDbEntity
8
0
62
256
6
ByLayer
370
-2
48
1
60
0
100
AcDbLine
10
90.5
20
10.573041
30
0
11
90.5
21
14.073041
31
0
39
0
210
0
220
0
230
1
0
LINE
5
1F8
100
AcDbEntity
8
0
62
256
6
ByLayer
370
-2
48
1
60
0
100
AcDbLine
10
90.5
20
-10.573041
30
0
11
90.5
21
-14.073041
31
0
39
0
210
0
220
0
230
1
0
SOLID
5
1F9
100
AcDbEntity
8
0
62
256
6
ByLayer
370
-1
48
1
60
0
100
AcDbTrace
10
89.916667
20
10.573041
30
0
11
91.083333
21
10.573041
31
0
12
90.5
22
7.073041
32
0
13
90.5
23
7.073041
33
0
39
0
210
0
220
0
230
1
0
SOLID
5
1FA
100
AcDbEntity
8
0
62
256
6
ByLayer
370
-1
48
1
60
0
100
AcDbTrace
10
91.083333
20
-10.573041
30
0
11
89.916667
21
-10.573041
31
0
12
90.5
22
-7.073041
32
0
13
90.5
23
-7.073041
33
0
39
0
210
0
220
0
230
1
0
MTEXT
5
1FB
100
AcDbEntity
8
0
62
256
6
ByLayer
370
18
48
1
60
0
100
AcDbMText
10
84.5
20
25.787327
30
0
210
0
220
0
230
1
1
\A1;14.146
40
3
41
0
44
1
50
90
71
5
72
5
7
iso_b_vert
0
POINT
5
1FC
100
AcDbEntity
8
Defpoints
62
0
6
ByLayer
370
-1
48
1
60
0
100
AcDbPoint
10
71
20
7.073041
30
0
39
0
210
0
220
0
230
1
50
360
0
POINT
5
1FD
100
AcDbEntity
8
Defpoints
62
0
6
ByLayer
370
-1
48
1
60
0
100
AcDbPoint
10
71
20
-7.073041
30
0
39
0
210
0
220
0
230
1
50
360
0
POINT
5
1FE
100
AcDbEntity
8
Defpoints
62
0
6
ByLayer
370
-1
48
1
60
0
100
AcDbPoint
10
90.5
20
-7.073041
30
0
39
0
210
0
220
0
230
1
50
360
0
ENDBLK
5
1F3
100
AcDbEntity
8
0
100
AcDbBlockEnd
0
BLOCK
5
206
100
AcDbEntity
8
0
100
AcDbBlockBegin
2
_U0
70
0
10
0
20
0
30
0
3
_U0
0
MTEXT
5
200
100
AcDbEntity
8
2
62
256
6
ByLayer
370
18
48
1
60
0
100
AcDbMText
10
89.908886
20
17.208041
30
0
210
0
220
0
230
1
1
\W0.7316;M14x1.50
40
3
41
0
44
1.084337
50
90
71
7
72
5
7
iso_b_vert
0
LINE
5
201
100
AcDbEntity
8
2
62
256
6
ByLayer
370
13
48
1
60
0
100
AcDbLine
10
72.5875
20
7.073041
30
0
11
92.5
21
7.073041
31
0
39
0
210
0
220
0
230
1
0
LINE
5
202
100
AcDbEntity
8
2
62
256
6
ByLayer
370
13
48
1
60
0
100
AcDbLine
10
72.5875
20
-7.073041
30
0
11
92.5
21
-7.073041
31
0
39
0
210
0
220
0
230
1
0
LINE
5
203
100
AcDbEntity
8
2
62
256
6
ByLayer
370
13
48
1
60
0
100
AcDbLine
10
90.5
20
-7.073041
30
0
11
90.5
21
32.568524
31
0
39
0
210
0
220
0
230
1
0
SOLID
5
204
100
AcDbEntity
8
2
62
256
6
ByLayer
370
18
48
1
60
0
100
AcDbTrace
10
90.5
20
7.073041
30
0
11
90.960784
21
3.573043
31
0
12
90.039216
22
3.573039
32
0
13
90.039216
23
3.573039
33
0
39
0
210
0
220
0
230
1
0
SOLID
5
205
100
AcDbEntity
8
2
62
256
6
ByLayer
370
18
48
1
60
0
100
AcDbTrace
10
90.5
20
-7.073041
30
0
11
90.039216
21
-3.573043
31
0
12
90.960784
22
-3.573039
32
0
13
90.960784
23
-3.573039
33
0
39
0
210
0
220
0
230
1
0
ENDBLK
5
207
100
AcDbEntity
8
0
100
AcDbBlockEnd
0
BLOCK
5
20C
100
AcDbEntity
8
0
100
AcDbBlockBegin
2
*D3
70
1
10
0
20
0
30
0
3
*D3
0
LINE
5
20E
100
AcDbEntity
8
0
62
256
6
ByLayer
370
-2
48
1
60
0
100
AcDbLine
10
71
20
8.660541
30
0
11
71
21
18.242185
31
0
39
0
210
0
220
0
230
1
0
LINE
5
20F
100
AcDbEntity
8
0
62
256
6
ByLayer
370
-2
48
1
60
0
100
AcDbLine
10
66.87
20
1.5875
30
0
11
66.87
21
18.242185
31
0
39
0
210
0
220
0
230
1
0
LINE
5
210
100
AcDbEntity
8
0
62
256
6
ByLayer
370
-2
48
1
60
0
100
AcDbLine
10
74.5
20
16.242185
30
0
11
78
21
16.242185
31
0
39
0
210
0
220
0
230
1
0
LINE
5
211
100
AcDbEntity
8
0
62
256
6
ByLayer
370
-2
48
1
60
0
100
AcDbLine
10
63.37
20
16.242185
30
0
11
59.87
21
16.242185
31
0
39
0
210
0
220
0
230
1
0
SOLID
5
212
100
AcDbEntity
8
0
62
256
6
ByLayer
370
-1
48
1
60
0
100
AcDbTrace
10
74.5
20
16.825518
30
0
11
74.5
21
15.658852
31
0
12
71
22
16.242185
32
0
13
71
23
16.242185
33
0
39
0
210
0
220
0
230
1
0
SOLID
5
213
100
AcDbEntity
8
0
62
256
6
ByLayer
370
-1
48
1
60
0
100
AcDbTrace
10
63.37
20
15.658852
30
0
11
63.37
21
16.825518
31
0
12
66.87
22
16.242185
32
0
13
66.87
23
16.242185
33
0
39
0
210
0
220
0
230
1
0
MTEXT
5
214
100
AcDbEntity
8
0
62
256
6
ByLayer
370
18
48
1
60
0
100
AcDbMText
10
68.935
20
22.242185
30
0
210
0
220
0
230
1
1
\A1;4.13
40
3
41
0
44
1
50
0
71
5
72
5
7
iso_b_vert
0
POINT
5
215
100
AcDbEntity
8
Defpoints
62
0
6
ByLayer
370
-1
48
1
60
0
100
AcDbPoint
10
71
20
7.073041
30
0
39
0
210
0
220
0
230
1
50
360
0
POINT
5
216
100
AcDbEntity
8
Defpoints
62
0
6
ByLayer
370
-1
48
1
60
0
100
AcDbPoint
10
66.87
20
0
30
0
39
0
210
0
220
0
230
1
50
360
0
POINT
5
217
100
AcDbEntity
8
Defpoints
62
0
6
ByLayer
370
-1
48
1
60
0
100
AcDbPoint
10
66.87
20
16.242185
30
0
39
0
210
0
220
0
230
1
50
360
0
ENDBLK
5
20D
100
AcDbEntity
8
0
100
AcDbBlockEnd
0
BLOCK
5
220
100
AcDbEntity
8
0
100
AcDbBlockBegin
2
_U1
70
0
10
0
20
0
30
0
3
_U1
0
MTEXT
5
219
100
AcDbEntity
8
SK2
62
256
6
ByLayer
370
18
48
1
60
0
100
AcDbMText
10
65.817044
20
17.024819
30
0
210
0
220
0
230
1
1
\W0.6474;'C'
40
3.5
41
0
44
1.084337
50
0
71
7
72
5
7
iso_b_vert
0
MTEXT
5
21A
100
AcDbEntity
8
SK2
62
256
6
ByLayer
370
18
48
1
60
0
100
AcDbMText
10
65.790544
20
24.1273
30
0
210
0
220
0
230
1
1
\W0.6856;4.13
40
3
41
0
44
1.084337
50
0
71
7
72
5
7
iso_b_vert
0
LINE
5
21B
100
AcDbEntity
8
SK2
62
256
6
ByLayer
370
13
48
1
60
0
100
AcDbLine
10
71
20
8.660541
30
0
11
71
21
18.242185
31
0
39
0
210
0
220
0
230
1
0
LINE
5
21C
100
AcDbEntity
8
SK2
62
256
6
ByLayer
370
13
48
1
60
0
100
AcDbLine
10
66.87
20
1.5875
30
0
11
66.87
21
18.242185
31
0
39
0
210
0
220
0
230
1
0
LINE
5
21D
100
AcDbEntity
8
SK2
62
256
6
ByLayer
370
13
48
1
60
0
100
AcDbLine
10
78.5
20
16.242185
30
0
11
59.37
21
16.242185
31
0
39
0
210
0
220
0
230
1
0
SOLID
5
21E
100
AcDbEntity
8
SK2
62
256
6
ByLayer
370
18
48
1
60
0
100
AcDbTrace
10
71
20
16.242185
30
0
11
74.499998
21
16.702969
31
0
12
74.500002
22
15.781401
32
0
13
74.500002
23
15.781401
33
0
39
0
210
0
220
0
230
1
0
SOLID
5
21F
100
AcDbEntity
8
SK2
62
256
6
ByLayer
370
18
48
1
60
0
100
AcDbTrace
10
66.87
20
16.242185
30
0
11
63.370002
21
15.781401
31
0
12
63.369998
22
16.702969
32
0
13
63.369998
23
16.702969
33
0
39
0
210
0
220
0
230
1
0
ENDBLK
5
221
100
AcDbEntity
8
0
100
AcDbBlockEnd
0
BLOCK
5
226
100
AcDbEntity
8
0
100
AcDbBlockBegin
2
*D5
70
1
10
0
20
0
30
0
3
*D5
0
LINE
5
228
100
AcDbEntity
8
0
62
256
6
ByLayer
370
-2
48
1
60
0
100
AcDbLine
10
71
20
-8.660541
30
0
11
71
21
-16.073041
31
0
39
0
210
0
220
0
230
1
0
LINE
5
229
100
AcDbEntity
8
0
62
256
6
ByLayer
370
-2
48
1
60
0
100
AcDbLine
10
56
20
-8.660541
30
0
11
56
21
-16.073041
31
0
39
0
210
0
220
0
230
1
0
LINE
5
22A
100
AcDbEntity
8
0
62
256
6
ByLayer
370
-2
48
1
60
0
100
AcDbLine
10
71
20
-14.073041
30
0
11
91.428571
21
-14.073041
31
0
39
0
210
0
220
0
230
1
0
LINE
5
22B
100
AcDbEntity
8
0
62
256
6
ByLayer
370
-2
48
1
60
0
100
AcDbLine
10
74.5
20
-14.073041
30
0
11
78
21
-14.073041
31
0
39
0
210
0
220
0
230
1
0
LINE
5
22C
100
AcDbEntity
8
0
62
256
6
ByLayer
370
-2
48
1
60
0
100
AcDbLine
10
52.5
20
-14.073041
30
0
11
49
21
-14.073041
31
0
39
0
210
0
220
0
230
1
0
SOLID
5
22D
100
AcDbEntity
8
0
62
256
6
ByLayer
370
-1
48
1
60
0
100
AcDbTrace
10
74.5
20
-13.489708
30
0
11
74.5
21
-14.656374
31
0
12
71
22
-14.073041
32
0
13
71
23
-14.073041
33
0
39
0
210
0
220
0
230
1
0
SOLID
5
22E
100
AcDbEntity
8
0
62
256
6
ByLayer
370
-1
48
1
60
0
100
AcDbTrace
10
52.5
20
-14.656374
30
0
11
52.5
21
-13.489708
31
0
12
56
22
-14.073041
32
0
13
56
23
-14.073041
33
0
39
0
210
0
220
0
230
1
0
MTEXT
5
22F
100
AcDbEntity
8
0
62
256
6
ByLayer
370
18
48
1
60
0
100
AcDbMText
10
84.714286
20
-8.073041
30
0
210
0
220
0
230
1
1
\A1;15
40
3
41
0
44
1
50
0
71
5
72
5
7
iso_b_vert
0
POINT
5
230
100
AcDbEntity
8
Defpoints
62
0
6
ByLayer
370
-1
48
1
60
0
100
AcDbPoint
10
71
20
-7.073041
30
0
39
0
210
0
220
0
230
1
50
360
0
POINT
5
231
100
AcDbEntity
8
Defpoints
62
0
6
ByLayer
370
-1
48
1
60
0
100
AcDbPoint
10
56
20
-7.073041
30
0
39
0
210
0
220
0
230
1
50
360
0
POINT
5
232
100
AcDbEntity
8
Defpoints
62
0
6
ByLayer
370
-1
48
1
60
0
100
AcDbPoint
10
56
20
-14.073041
30
0
39
0
210
0
220
0
230
1
50
360
0
ENDBLK
5
227
100
AcDbEntity
8
0
100
AcDbBlockEnd
0
BLOCK
5
23B
100
AcDbEntity
8
0
100
AcDbBlockBegin
2
_U2
70
0
10
0
20
0
30
0
3
_U2
0
MTEXT
5
234
100
AcDbEntity
8
SK2
62
256
6
ByLayer
370
18
48
1
60
0
100
AcDbMText
10
77.159
20
-13.187927
30
0
210
0
220
0
230
1
1
\W0.5321;15
40
3
41
0
44
1.084337
50
0
71
7
72
5
7
iso_b_vert
0
MTEXT
5
235
100
AcDbEntity
8
SK2
62
256
6
ByLayer
370
18
48
1
60
0
100
AcDbMText
10
82.466271
20
-12.835446
30
0
210
0
220
0
230
1
1
\W0.8315;\W0.4158;%%p\W0.8315;0.5
40
2.5
41
0
44
1.084337
50
0
71
7
72
5
7
iso_b_vert
0
LINE
5
236
100
AcDbEntity
8
SK2
62
256
6
ByLayer
370
13
48
1
60
0
100
AcDbLine
10
71
20
-8.660541
30
0
11
71
21
-16.073041
31
0
39
0
210
0
220
0
230
1
0
LINE
5
237
100
AcDbEntity
8
SK2
62
256
6
ByLayer
370
13
48
1
60
0
100
AcDbLine
10
56
20
-8.660541
30
0
11
56
21
-16.073041
31
0
39
0
210
0
220
0
230
1
0
LINE
5
238
100
AcDbEntity
8
SK2
62
256
6
ByLayer
370
13
48
1
60
0
100
AcDbLine
10
56
20
-14.073041
30
0
11
89.583008
21
-14.073041
31
0
39
0
210
0
220
0
230
1
0
SOLID
5
239
100
AcDbEntity
8
SK2
62
256
6
ByLayer
370
18
48
1
60
0
100
AcDbTrace
10
71
20
-14.073041
30
0
11
67.500002
21
-14.533825
31
0
12
67.499998
22
-13.612257
32
0
13
67.499998
23
-13.612257
33
0
39
0
210
0
220
0
230
1
0
SOLID
5
23A
100
AcDbEntity
8
SK2
62
256
6
ByLayer
370
18
48
1
60
0
100
AcDbTrace
10
56
20
-14.073041
30
0
11
59.499998
21
-13.612257
31
0
12
59.500002
22
-14.533825
32
0
13
59.500002
23
-14.533825
33
0
39
0
210
0
220
0
230
1
0
ENDBLK
5
23C
100
AcDbEntity
8
0
100
AcDbBlockEnd
0
BLOCK
5
241
100
AcDbEntity
8
0
100
AcDbBlockBegin
2
*D7
70
1
10
0
20
0
30
0
3
*D7
0
LINE
5
243
100
AcDbEntity
8
0
62
256
6
ByLayer
370
-2
48
1
60
0
100
AcDbLine
10
71
20
-8.660541
30
0
11
71
21
-38.573041
31
0
39
0
210
0
220
0
230
1
0
LINE
5
244
100
AcDbEntity
8
0
62
256
6
ByLayer
370
-2
48
1
60
0
100
AcDbLine
10
21
20
-6.9375
30
0
11
21
21
-38.573041
31
0
39
0
210
0
220
0
230
1
0
LINE
5
245
100
AcDbEntity
8
0
62
256
6
ByLayer
370
-2
48
1
60
0
100
AcDbLine
10
67.5
20
-36.573041
30
0
11
24.5
21
-36.573041
31
0
39
0
210
0
220
0
230
1
0
SOLID
5
246
100
AcDbEntity
8
0
62
256
6
ByLayer
370
-1
48
1
60
0
100
AcDbTrace
10
67.5
20
-37.156374
30
0
11
67.5
21
-35.989708
31
0
12
71
22
-36.573041
32
0
13
71
23
-36.573041
33
0
39
0
210
0
220
0
230
1
0
SOLID
5
247
100
AcDbEntity
8
0
62
256
6
ByLayer
370
-1
48
1
60
0
100
AcDbTrace
10
24.5
20
-35.989708
30
0
11
24.5
21
-37.156374
31
0
12
21
22
-36.573041
32
0
13
21
23
-36.573041
33
0
39
0
210
0
220
0
230
1
0
MTEXT
5
248
100
AcDbEntity
8
0
62
256
6
ByLayer
370
18
48
1
60
0
100
AcDbMText
10
46
20
-30.573041
30
0
210
0
220
0
230
1
1
\A1;50
40
3
41
0
44
1
50
0
71
5
72
5
7
iso_b_vert
0
POINT
5
249
100
AcDbEntity
8
Defpoints
62
0
6
ByLayer
370
-1
48
1
60
0
100
AcDbPoint
10
71
20
-7.073041
30
0
39
0
210
0
220
0
230
1
50
360
0
POINT
5
24A
100
AcDbEntity
8
Defpoints
62
0
6
ByLayer
370
-1
48
1
60
0
100
AcDbPoint
10
21
20
-5.35
30
0
39
0
210
0
220
0
230
1
50
360
0
POINT
5
24B
100
AcDbEntity
8
Defpoints
62
0
6
ByLayer
370
-1
48
1
60
0
100
AcDbPoint
10
21
20
-36.573041
30
0
39
0
210
0
220
0
230
1
50
360
0
ENDBLK
5
242
100
AcDbEntity
8
0
100
AcDbBlockEnd
0
BLOCK
5
253
100
AcDbEntity
8
0
100
AcDbBlockBegin
2
_U3
70
0
10
0
20
0
30
0
3
_U3
0
MTEXT
5
24D
100
AcDbEntity
8
SK2
62
256
6
ByLayer
370
18
48
1
60
0
100
AcDbMText
10
44.367172
20
-35.687927
30
0
210
0
220
0
230
1
1
\W0.6740;50
40
3
41
0
44
1.084337
50
0
71
7
72
5
7
iso_b_vert
0
LINE
5
24E
100
AcDbEntity
8
SK2
62
256
6
ByLayer
370
13
48
1
60
0
100
AcDbLine
10
71
20
-8.660541
30
0
11
71
21
-38.573041
31
0
39
0
210
0
220
0
230
1
0
LINE
5
24F
100
AcDbEntity
8
SK2
62
256
6
ByLayer
370
13
48
1
60
0
100
AcDbLine
10
21
20
-6.9375
30
0
11
21
21
-38.573041
31
0
39
0
210
0
220
0
230
1
0
LINE
5
250
100
AcDbEntity
8
SK2
62
256
6
ByLayer
370
13
48
1
60
0
100
AcDbLine
10
71
20
-36.573041
30
0
11
21
21
-36.573041
31
0
39
0
210
0
220
0
230
1
0
SOLID
5
251
100
AcDbEntity
8
SK2
62
256
6
ByLayer
370
18
48
1
60
0
100
AcDbTrace
10
71
20
-36.573041
30
0
11
67.500002
21
-37.033825
31
0
12
67.499998
22
-36.112257
32
0
13
67.499998
23
-36.112257
33
0
39
0
210
0
220
0
230
1
0
SOLID
5
252
100
AcDbEntity
8
SK2
62
256
6
ByLayer
370
18
48
1
60
0
100
AcDbTrace
10
21
20
-36.573041
30
0
11
24.499998
21
-36.112257
31
0
12
24.500002
22
-37.033825
32
0
13
24.500002
23
-37.033825
33
0
39
0
210
0
220
0
230
1
0
ENDBLK
5
254
100
AcDbEntity
8
0
100
AcDbBlockEnd
0
BLOCK
5
259
100
AcDbEntity
8
0
100
AcDbBlockBegin
2
*D9
70
1
10
0
20
0
30
0
3
*D9
0
LINE
5
25B
100
AcDbEntity
8
0
62
256
6
ByLayer
370
-2
48
1
60
0
100
AcDbLine
10
71
20
-8.660541
30
0
11
71
21
-27.573041
31
0
39
0
210
0
220
0
230
1
0
LINE
5
25C
100
AcDbEntity
8
0
62
256
6
ByLayer
370
-2
48
1
60
0
100
AcDbLine
10
28.5
20
-1.5875
30
0
11
28.5
21
-27.573041
31
0
39
0
210
0
220
0
230
1
0
LINE
5
25D
100
AcDbEntity
8
0
62
256
6
ByLayer
370
-2
48
1
60
0
100
AcDbLine
10
67.5
20
-25.573041
30
0
11
32
21
-25.573041
31
0
39
0
210
0
220
0
230
1
0
SOLID
5
25E
100
AcDbEntity
8
0
62
256
6
ByLayer
370
-1
48
1
60
0
100
AcDbTrace
10
67.5
20
-26.156374
30
0
11
67.5
21
-24.989708
31
0
12
71
22
-25.573041
32
0
13
71
23
-25.573041
33
0
39
0
210
0
220
0
230
1
0
SOLID
5
25F
100
AcDbEntity
8
0
62
256
6
ByLayer
370
-1
48
1
60
0
100
AcDbTrace
10
32
20
-24.989708
30
0
11
32
21
-26.156374
31
0
12
28.5
22
-25.573041
32
0
13
28.5
23
-25.573041
33
0
39
0
210
0
220
0
230
1
0
MTEXT
5
260
100
AcDbEntity
8
0
62
256
6
ByLayer
370
18
48
1
60
0
100
AcDbMText
10
49.75
20
-19.573041
30
0
210
0
220
0
230
1
1
\A1;42.5
40
3
41
0
44
1
50
0
71
5
72
5
7
iso_b_vert
0
POINT
5
261
100
AcDbEntity
8
Defpoints
62
0
6
ByLayer
370
-1
48
1
60
0
100
AcDbPoint
10
71
20
-7.073041
30
0
39
0
210
0
220
0
230
1
50
360
0
POINT
5
262
100
AcDbEntity
8
Defpoints
62
0
6
ByLayer
370
-1
48
1
60
0
100
AcDbPoint
10
28.5
20
0
30
0
39
0
210
0
220
0
230
1
50
360
0
POINT
5
263
100
AcDbEntity
8
Defpoints
62
0
6
ByLayer
370
-1
48
1
60
0
100
AcDbPoint
10
28.5
20
-25.573041
30
0
39
0
210
0
220
0
230
1
50
360
0
ENDBLK
5
25A
100
AcDbEntity
8
0
100
AcDbBlockEnd
0
BLOCK
5
26B
100
AcDbEntity
8
0
100
AcDbBlockBegin
2
_U4
70
0
10
0
20
0
30
0
3
_U4
0
MTEXT
5
265
100
AcDbEntity
8
2
62
256
6
ByLayer
370
18
48
1
60
0
100
AcDbMText
10
46.230601
20
-24.687927
30
0
210
0
220
0
230
1
1
\W0.7640;42.5
40
3
41
0
44
1.084337
50
0
71
7
72
5
7
iso_b_vert
0
LINE
5
266
100
AcDbEntity
8
2
62
256
6
ByLayer
370
13
48
1
60
0
100
AcDbLine
10
71
20
-8.660541
30
0
11
71
21
-27.573041
31
0
39
0
210
0
220
0
230
1
0
LINE
5
267
100
AcDbEntity
8
2
62
256
6
ByLayer
370
13
48
1
60
0
100
AcDbLine
10
28.5
20
-1.5875
30
0
11
28.5
21
-27.573041
31
0
39
0
210
0
220
0
230
1
0
LINE
5
268
100
AcDbEntity
8
2
62
256
6
ByLayer
370
13
48
1
60
0
100
AcDbLine
10
71
20
-25.573041
30
0
11
28.5
21
-25.573041
31
0
39
0
210
0
220
0
230
1
0
SOLID
5
269
100
AcDbEntity
8
2
62
256
6
ByLayer
370
18
48
1
60
0
100
AcDbTrace
10
71
20
-25.573041
30
0
11
67.500002
21
-26.033825
31
0
12
67.499998
22
-25.112257
32
0
13
67.499998
23
-25.112257
33
0
39
0
210
0
220
0
230
1
0
SOLID
5
26A
100
AcDbEntity
8
2
62
256
6
ByLayer
370
18
48
1
60
0
100
AcDbTrace
10
28.5
20
-25.573041
30
0
11
31.999998
21
-25.112257
31
0
12
32.000002
22
-26.033825
32
0
13
32.000002
23
-26.033825
33
0
39
0
210
0
220
0
230
1
0
ENDBLK
5
26C
100
AcDbEntity
8
0
100
AcDbBlockEnd
0
ENDSEC
0
SECTION
2
ENTITIES
0
ARC
5
C6
100
AcDbEntity
8
SK1
62
256
6
ByLayer
370
18
48
1
60
0
100
AcDbCircle
39
0
10
-21.5
20
0
30
0
40
5.28000000000077
210
0
220
0
230
1
100
AcDbArc
50
328.459731
51
31.540269
0
ARC
5
C7
100
AcDbEntity
8
1
62
256
6
ByLayer
370
18
48
1
60
0
100
AcDbCircle
39
0
10
21.653835
20
-6.85
30
0
40
1.5
210
0
220
0
230
1
100
AcDbArc
50
90
51
115.841933
0
ARC
5
C8
100
AcDbEntity
8
1
62
256
6
ByLayer
370
18
48
1
60
0
100
AcDbCircle
39
0
10
21.653835
20
6.85
30
0
40
1.5
210
0
220
0
230
1
100
AcDbArc
50
244.158067
51
270
0
POINT
5
70
100
AcDbEntity
8
80
62
256
6
ByLayer
370
18
48
1
60
0
100
AcDbPoint
10
0
20
0
30
0
39
0
210
0
220
0
230
1
50
360
0
POINT
5
72
100
AcDbEntity
8
81
62
256
6
ByLayer
370
18
48
1
60
0
100
AcDbPoint
10
71
20
0
30
0
39
0
210
0
220
0
230
1
50
360
0
POINT
5
74
100
AcDbEntity
8
1
62
256
6
ByLayer
370
18
48
1
60
1
100
AcDbPoint
10
71
20
7.073041
30
0
39
0
210
0
220
0
230
1
50
360
0
POINT
5
76
100
AcDbEntity
8
1
62
256
6
ByLayer
370
18
48
1
60
1
100
AcDbPoint
10
71
20
-7.073041
30
0
39
0
210
0
220
0
230
1
50
360
0
POINT
5
77
100
AcDbEntity
8
1
62
256
6
ByLayer
370
18
48
1
60
1
100
AcDbPoint
10
71
20
7.073041
30
0
39
0
210
0
220
0
230
1
50
360
0
POINT
5
78
100
AcDbEntity
8
1
62
256
6
ByLayer
370
18
48
1
60
1
100
AcDbPoint
10
66.87
20
0
30
0
39
0
210
0
220
0
230
1
50
360
0
POINT
5
79
100
AcDbEntity
8
1
62
256
6
ByLayer
370
18
48
1
60
1
100
AcDbPoint
10
71
20
-7.073041
30
0
39
0
210
0
220
0
230
1
50
360
0
POINT
5
7A
100
AcDbEntity
8
1
62
256
6
ByLayer
370
18
48
1
60
1
100
AcDbPoint
10
56
20
-7.073041
30
0
39
0
210
0
220
0
230
1
50
360
0
POINT
5
7B
100
AcDbEntity
8
1
62
256
6
ByLayer
370
18
48
1
60
1
100
AcDbPoint
10
71
20
-7.073041
30
0
39
0
210
0
220
0
230
1
50
360
0
POINT
5
7C
100
AcDbEntity
8
1
62
256
6
ByLayer
370
18
48
1
60
1
100
AcDbPoint
10
21
20
-5.35
30
0
39
0
210
0
220
0
230
1
50
360
0
POINT
5
7D
100
AcDbEntity
8
1
62
256
6
ByLayer
370
18
48
1
60
1
100
AcDbPoint
10
71
20
-7.073041
30
0
39
0
210
0
220
0
230
1
50
360
0
POINT
5
7E
100
AcDbEntity
8
1
62
256
6
ByLayer
370
18
48
1
60
1
100
AcDbPoint
10
28.5
20
0
30
0
39
0
210
0
220
0
230
1
50
360
0
SPLINE
5
C9
100
AcDbEntity
8
1
62
256
6
ByLayer
370
18
48
1
60
0
100
AcDbSpline
70
4
71
3
72
8
73
4
40
0
40
0
40
0
40
0
40
1
40
1
40
1
40
1
41
1
10
67.9376193913307
20
-6.2226028115646
30
0
41
1
10
67.9332874058096
20
-6.22526091107224
30
0
41
1
10
67.9289551851315
20
-6.2248661551599
30
0
41
1
10
67.9246219338879
20
-6.22140928519678
30
0
0
SPLINE
5
CA
100
AcDbEntity
8
1
62
256
6
ByLayer
370
18
48
1
60
0
100
AcDbSpline
70
4
71
3
72
8
73
4
40
0
40
0
40
0
40
0
40
1
40
1
40
1
40
1
41
1.04
10
67.5767281188552
20
-6.20233828879211
30
0
41
1.04
10
67.5748764554973
20
-6.20637714071955
30
0
41
1.04
10
67.5730249051485
20
-6.20986023741237
30
0
41
1.04
10
67.5711734056967
20
-6.21278682582491
30
0
0
SPLINE
5
CB
100
AcDbEntity
8
1
62
256
6
ByLayer
370
13
48
1
60
0
100
AcDbSpline
70
4
71
3
72
8
73
4
40
0
40
0
40
0
40
0
40
1
40
1
40
1
40
1
41
1.04
10
67.5711734056979
20
-6.21278682582306
30
0
41
1.04
10
67.5596075777741
20
-6.23106845045592
30
0
41
1.04
10
67.548043735936
20
-6.22763417133545
30
0
41
1.04
10
67.5364667398222
20
-6.20230042732638
30
0
0
SPLINE
5
CC
100
AcDbEntity
8
1
62
256
6
ByLayer
370
13
48
1
60
0
100
AcDbSpline
70
4
71
3
72
8
73
4
40
0
40
0
40
0
40
0
40
1
40
1
40
1
40
1
41
1.04
10
56.3450231142873
20
6.14389075933291
30
0
41
1.04
10
56.3362687289876
20
6.18040324721665
30
0
41
1.04
10
56.3274201542585
20
6.20501216183544
30
0
41
1.04
10
56.3184641623472
20
6.2166601490346
30
0
0
SPLINE
5
CD
100
AcDbEntity
8
1
62
256
6
ByLayer
370
18
48
1
60
0
100
AcDbSpline
70
4
71
3
72
12
73
8
40
0
40
0
40
0
40
0
40
0.0970059767059529
40
0.0970059767059529
40
0.398003984470636
40
0.398003984470636
40
1
40
1
40
1
40
1
41
1
10
67.1628531340328
20
-6.91056950678927
30
0
41
1
10
67.1616152045712
20
-6.91093505465017
30
0
41
1
10
67.1603803203388
20
-6.91098650169067
30
0
41
1
10
67.1553281572979
20
-6.90991417372766
30
0
41
1
10
67.1515362426579
20
-6.90609581407128
30
0
41
1
10
67.1401648191021
20
-6.88577084292186
30
0
41
1
10
67.1325751429028
20
-6.86044449973264
30
0
41
1
10
67.1247359674312
20
-6.82347267027274
30
0
0
SPLINE
5
CE
100
AcDbEntity
8
1
62
256
6
ByLayer
370
18
48
1
60
0
100
AcDbSpline
70
4
71
3
72
10
73
6
40
0
40
0
40
0
40
0
40
0.675217706096312
40
0.675217706096312
40
1
40
1
40
1
40
1
41
1
10
66.8258680234621
20
-6.85012533412748
30
0
41
1
10
66.8339116175063
20
-6.89744186129411
30
0
41
1
10
66.8418978228287
20
-6.93267121253947
30
0
41
1
10
66.8540378353059
20
-6.96746308892935
30
0
41
1
10
66.8580249765078
20
-6.97602564669097
30
0
41
1
10
66.8620397207808
20
-6.98182053028137
30
0
0
SPLINE
5
CF
100
AcDbEntity
8
1
62
256
6
ByLayer
370
13
48
1
60
0
100
AcDbSpline
70
4
71
3
72
9
73
5
40
0
40
0
40
0
40
0
40
0.0697935243008634
40
1
40
1
40
1
40
1
41
1
10
66.4149032075083
20
-6.2092556887315
30
0
41
1
10
66.4139466674496
20
-6.2074514784259
30
0
41
1
10
66.4002376260042
20
-6.17941032019539
30
0
41
1
10
66.3864740363723
20
-6.11988789357113
30
0
41
1
10
66.373632804948
20
-6.03835668159664
30
0
0
SPLINE
5
D0
100
AcDbEntity
8
1
62
256
6
ByLayer
370
13
48
1
60
0
100
AcDbSpline
70
4
71
3
72
8
73
4
40
0
40
0
40
0
40
0
40
1
40
1
40
1
40
1
41
1
10
56.7331560967899
20
6.08199152804005
30
0
41
1
10
56.7121618610798
20
6.19801209123102
30
0
41
1
10
56.6906538529435
20
6.24720158630476
30
0
41
1
10
56.6684437374186
20
6.21454042188435
30
0
0
SPLINE
5
D1
100
AcDbEntity
8
1
62
256
6
ByLayer
370
13
48
1
60
0
100
AcDbSpline
70
4
71
3
72
8
73
4
40
0
40
0
40
0
40
0
40
1
40
1
40
1
40
1
41
1.04
10
57.8961849904763
20
5.7923352342509
30
0
41
1.04
10
57.8717854470475
20
6.02535396776031
30
0
41
1.04
10
57.8472612607106
20
6.16939095049971
30
0
41
1.04
10
57.8223258179092
20
6.21201434686592
30
0
0
SPLINE
5
D2
100
AcDbEntity
8
1
62
256
6
ByLayer
370
13
48
1
60
0
100
AcDbSpline
70
4
71
3
72
9
73
5
40
0
40
0
40
0
40
0
40
0.115014533599922
40
1
40
1
40
1
40
1
41
1
10
58.284322967236
20
5.6622102572411
30
0
41
1
10
58.2799007553001
20
5.71008210307451
30
0
41
1
10
58.2414238527449
20
6.10144375290875
30
0
41
1
10
58.2026366038882
20
6.27087654630654
30
0
41
1
10
58.167286142979
20
6.21329073430866
30
0
0
SPLINE
5
D3
100
AcDbEntity
8
1
62
256
6
ByLayer
370
13
48
1
60
0
100
AcDbSpline
70
4
71
3
72
10
73
6
40
0
40
0
40
0
40
0
40
0.36616959665974
40
0.859416123262319
40
1
40
1
40
1
40
1
41
1.04
10
59.4472957768001
20
5.176329697724
30
0
41
1.04
10
59.4320141277381
20
5.39719047716104
30
0
41
1.04
10
59.3961804602721
20
5.84111405402092
30
0
41
1.04
10
59.3547167757771
20
6.13160553872196
30
0
41
1.04
10
59.3284158157347
20
6.20129304234892
30
0
41
1.04
10
59.32258145218
20
6.21116610889752
30
0
0
SPLINE
5
D4
100
AcDbEntity
8
1
62
256
6
ByLayer
370
13
48
1
60
0
100
AcDbSpline
70
4
71
3
72
10
73
6
40
0
40
0
40
0
40
0
40
0.37070339033013
40
0.757640535986451
40
1
40
1
40
1
40
1
41
1
10
59.8354593865589
20
4.98412267310493
30
0
41
1
10
59.8157298116318
20
5.29164051655036
30
0
41
1
10
59.7754327484604
20
5.8155128031681
30
0
41
1
10
59.7225770934166
20
6.18287058999061
30
0
41
1
10
59.6892831358039
20
6.23069377270861
30
0
41
1
10
59.6764579362356
20
6.22241338767549
30
0
0
SPLINE
5
D5
100
AcDbEntity
8
1
62
256
6
ByLayer
370
18
48
1
60
0
100
AcDbSpline
70
4
71
3
72
8
73
4
40
0
40
0
40
0
40
0
40
1
40
1
40
1
40
1
41
1
10
59.6764581431269
20
6.22241352124925
30
0
41
1
10
59.6731095385599
20
6.22025162321529
30
0
41
1
10
59.6697607445376
20
6.21626966848279
30
0
41
1
10
59.6664117962679
20
6.21047650717895
30
0
0
SPLINE
5
D6
100
AcDbEntity
8
1
62
256
6
ByLayer
370
13
48
1
60
0
100
AcDbSpline
70
4
71
3
72
10
73
6
40
0
40
0
40
0
40
0
40
0.179647732032798
40
0.547768222518178
40
1
40
1
40
1
40
1
41
1.04
10
60.998382470025
20
4.32412591578422
30
0
41
1.04
10
60.9883363674147
20
4.5127103305898
30
0
41
1.04
10
60.9577573161104
20
5.05189486449067
30
0
41
1.04
10
60.9021032910443
20
5.81327201114535
30
0
41
1.04
10
60.8567026225719
20
6.12231400408644
30
0
41
1.04
10
60.8315899816984
20
6.19065105153018
30
0
0
SPLINE
5
D7
100
AcDbEntity
8
1
62
256
6
ByLayer
370
18
48
1
60
0
100
AcDbSpline
70
4
71
3
72
8
73
4
40
0
40
0
40
0
40
0
40
1
40
1
40
1
40
1
41
1.04
10
60.8315901217121
20
6.19065067052087
30
0
41
1.04
10
60.8284982839482
20
6.19906429138181
30
0
41
1.04
10
60.8254051603823
20
6.20593136175622
30
0
41
1.04
10
60.8223104479505
20
6.21124043801264
30
0
0
SPLINE
5
D8
100
AcDbEntity
8
1
62
256
6
ByLayer
370
13
48
1
60
0
100
AcDbSpline
70
4
71
3
72
10
73
6
40
0
40
0
40
0
40
0
40
0.236184108645571
40
0.572012598092634
40
1
40
1
40
1
40
1
41
1
10
61.3865291693812
20
4.07815378428848
30
0
41
1
10
61.3720274474757
20
4.36393305475687
30
0
41
1
10
61.337008937553
20
4.99989036834893
30
0
41
1
10
61.2760034106301
20
5.83149694095297
30
0
41
1
10
61.2296723473721
20
6.13768360104606
30
0
41
1
10
61.2036139332855
20
6.19916892946694
30
0
0
SPLINE
5
D9
100
AcDbEntity
8
1
62
256
6
ByLayer
370
13
48
1
60
0
100
AcDbSpline
70
4
71
3
72
10
73
6
40
0
40
0
40
0
40
0
40
0.0773065529814411
40
0.410540326699261
40
1
40
1
40
1
40
1
41
1.04
10
62.5494853473201
20
3.27477263729023
30
0
41
1.04
10
62.5446626868589
20
3.38187522626459
30
0
41
1.04
10
62.5191221155744
20
3.93834995620426
30
0
41
1.04
10
62.4577492355944
20
5.12251219476042
30
0
41
1.04
10
62.4020729477337
20
5.800951445577
30
0
41
1.04
10
62.3664970952016
20
6.03141209133051
30
0
0
SPLINE
5
DA
100
AcDbEntity
8
1
62
256
6
ByLayer
370
18
48
1
60
0
100
AcDbSpline
70
4
71
3
72
11
73
7
40
0
40
0
40
0
40
0
40
0.173326920779212
40
0.538835483296345
40
0.967633908502314
40
1
40
1
40
1
40
1
41
1
10
71.0000000000001
20
0.672832281667013
30
0
41
1
10
71.0000000000001
20
0.449958743175131
30
0
41
1
10
71.0000000000001
20
-0.249514391808844
30
0
41
1
10
70.9999999999998
20
-1.51336161343508
30
0
41
1
10
71
20
-2.51521795088675
30
0
41
1
10
71
20
-3.02003314219442
30
0
41
1
10
71
20
-3.05518965309744
30
0
0
SPLINE
5
DB
100
AcDbEntity
8
1
62
256
6
ByLayer
370
13
48
1
60
0
100
AcDbSpline
70
4
71
3
72
10
73
6
40
0
40
0
40
0
40
0
40
0.148548943805787
40
0.482613161604047
40
1
40
1
40
1
40
1
41
1
10
62.9376247936619
20
2.98651289316885
30
0
41
1
10
62.9283325464574
20
3.19941171160366
30
0
41
1
10
62.8983130893353
20
3.86530240677314
30
0
41
1
10
62.8370927887226
20
5.04412234901864
30
0
41
1
10
62.7857733671517
20
5.69629335755363
30
0
41
1
10
62.7546211746263
20
5.94013752121239
30
0
0
SPLINE
5
DC
100
AcDbEntity
8
1
62
256
6
ByLayer
370
13
48
1
60
0
100
AcDbSpline
70
4
71
3
72
9
73
5
40
0
40
0
40
0
40
0
40
0.500081789866383
40
1
40
1
40
1
40
1
41
1.04
10
64.1005753310957
20
2.07569402026005
30
0
41
1.04
10
64.0702581419065
20
2.82079908106255
30
0
41
1.04
10
64.0099109874886
20
4.20404549926567
30
0
41
1.04
10
63.94845374828
20
5.20550142801667
30
0
41
1.04
10
63.9174809076866
20
5.56711459503099
30
0
0
SPLINE
5
DD
100
AcDbEntity
8
1
62
256
6
ByLayer
370
13
48
1
60
0
100
AcDbSpline
70
4
71
3
72
10
73
6
40
0
40
0
40
0
40
0
40
0.348926608624405
40
0.983243015476291
40
1
40
1
40
1
40
1
41
1
10
69.1420097048022
20
-2.16766631309153
30
0
41
1
10
69.1211569526426
20
-1.65780583535238
30
0
41
1
10
69.0618759755882
20
-0.138774119794078
30
0
41
1
10
69.0002827795737
20
1.49802218441965
30
0
41
1
10
68.9596130869995
20
2.47158368749987
30
0
41
1
10
68.9585660585687
20
2.4965757686864
30
0
0
SPLINE
5
DE
100
AcDbEntity
8
1
62
256
6
ByLayer
370
18
48
1
60
0
100
AcDbSpline
70
4
71
3
72
10
73
6
40
0
40
0
40
0
40
0
40
0.358039244365652
40
0.714836557926315
40
1
40
1
40
1
40
1
41
1
10
70.4000000540797
20
-3.04068306277404
30
0
41
1
10
70.4000000636784
20
-2.57985224576282
30
0
41
1
10
70.3999999947991
20
-1.5894594495139
30
0
41
1
10
70.3999998873309
20
-0.104854103947531
30
0
41
1
10
70.399999870265
20
0.841963082931926
30
0
41
1
10
70.3999998677693
20
1.25233449577598
30
0
0
SPLINE
5
DF
100
AcDbEntity
8
1
62
256
6
ByLayer
370
18
48
1
60
0
100
AcDbSpline
70
4
71
3
72
30
73
26
40
0
40
0
40
0
40
0
40
0.125
40
0.125
40
0.25
40
0.25
40
0.375
40
0.375
40
0.40625
40
0.40625
40
0.4375
40
0.4375
40
0.5
40
0.5
40
0.625
40
0.625
40
0.75
40
0.75
40
0.8125
40
0.8125
40
0.84375
40
0.84375
40
0.875
40
0.875
40
1
40
1
40
1
40
1
41
1
10
69.0557840904764
20
2.50683501906735
30
0
41
1
10
69.0637404628633
20
2.31453232618134
30
0
41
1
10
69.0716855959122
20
2.11962882817889
30
0
41
1
10
69.0875916589596
20
1.72485456750388
30
0
41
1
10
69.0955522238997
20
1.52498344175882
30
0
41
1
10
69.1114992887799
20
1.12031323588505
30
0
41
1
10
69.1194850186688
20
0.915514483699496
30
0
41
1
10
69.1294852600774
20
0.656342371731881
30
0
41
1
10
69.1314862290642
20
0.604348778432012
30
0
41
1
10
69.1354901982076
20
0.50003887572305
30
0
41
1
10
69.1374912097512
20
0.447773958858022
30
0
41
1
10
69.143465177273
20
0.291343335993304
30
0
41
1
10
69.1474191131181
20
0.187278856803687
30
0
41
1
10
69.1592007172031
20
-0.124253591807218
30
0
41
1
10
69.1669289086826
20
-0.33106055553904
30
0
41
1
10
69.1825509636395
20
-0.742938754311922
30
0
41
1
10
69.1904640158092
20
-0.948009306963598
30
0
41
1
10
69.2024298436864
20
-1.25430467860966
30
0
41
1
10
69.2064338174068
20
-1.35618421942155
30
0
41
1
10
69.2124521804951
20
-1.5086692274962
30
0
41
1
10
69.2144603519741
20
-1.55944180984841
30
0
41
1
10
69.2184788461003
20
-1.66087401779066
30
0
41
1
10
69.2204844140507
20
-1.71142240173651
30
0
41
1
10
69.2304849334155
20
-1.96299612179914
30
0
41
1
10
69.238413927741
20
-2.16087347237186
30
0
41
1
10
69.2463601727518
20
-2.35539887294934
30
0
0
SPLINE
5
E0
100
AcDbEntity
8
1
62
256
6
ByLayer
370
13
48
1
60
0
100
AcDbSpline
70
4
71
3
72
10
73
6
40
0
40
0
40
0
40
0
40
0.275751007449558
40
0.912223189907329
40
1
40
1
40
1
40
1
41
1.04
10
68.7538567286144
20
-1.85209116703154
30
0
41
1.04
10
68.7373720669231
20
-1.44166555520233
30
0
41
1.04
10
68.6824700813302
20
-0.0314413062971342
30
0
41
1.04
10
68.6210856406698
20
1.60046608583956
30
0
41
1.04
10
68.5759297348861
20
2.66968141242162
30
0
41
1.04
10
68.570458526138
20
2.79705703383039
30
0
0
SPLINE
5
E1
100
AcDbEntity
8
1
62
256
6
ByLayer
370
13
48
1
60
0
100
AcDbSpline
70
4
71
3
72
9
73
5
40
0
40
0
40
0
40
0
40
0.572408806340508
40
1
40
1
40
1
40
1
41
1
10
64.4887322550307
20
1.75854060215687
30
0
41
1
10
64.453923204047
20
2.62895639770326
30
0
41
1
10
64.393569805431
20
4.04047229317143
30
0
41
1
10
64.3321030451106
20
5.06801290818291
30
0
41
1
10
64.3056345691747
20
5.4098369931551
30
0
0
SPLINE
5
E2
100
AcDbEntity
8
1
62
256
6
ByLayer
370
13
48
1
60
0
100
AcDbSpline
70
4
71
3
72
9
73
5
40
0
40
0
40
0
40
0
40
0.308900622990978
40
1
40
1
40
1
40
1
41
1
10
66.0398047626681
20
0.45030437529573
30
0
41
1
10
66.0202780801671
20
0.958379232600436
30
0
41
1
10
65.9579402396411
20
2.56727916206546
30
0
41
1
10
65.8977740086145
20
3.91659210744928
30
0
41
1
10
65.8566083080075
20
4.63457713473679
30
0
0
SPLINE
5
E3
100
AcDbEntity
8
1
62
256
6
ByLayer
370
18
48
1
60
0
100
AcDbSpline
70
4
71
3
72
29
73
25
40
0
40
0
40
0
40
0
40
0.125
40
0.125
40
0.1875
40
0.1875
40
0.21875
40
0.21875
40
0.249999999999999
40
0.249999999999999
40
0.375
40
0.5
40
0.5
40
0.5625
40
0.5625
40
0.59375
40
0.59375
40
0.625
40
0.625
40
0.75
40
0.75
40
0.875
40
0.875
40
1
40
1
40
1
40
1
41
1
10
66.3588469113092
20
5.01935190753824
30
0
41
1
10
66.3671007892745
20
4.85012625897497
30
0
41
1
10
66.3753201030738
20
4.6721248441259
30
0
41
1
10
66.3876120209459
20
4.3916956312346
30
0
41
1
10
66.39170399154
20
4.29597706983051
30
0
41
1
10
66.3978432265427
20
4.14896153874582
30
0
41
1
10
66.3998831799512
20
4.09954358086932
30
0
41
1
10
66.4039457705344
20
4.00005147805138
30
0
41
1
10
66.4059694872376
20
3.94995152196526
30
0
41
1
10
66.4160565499048
20
3.69770034377351
30
0
41
1
10
66.431989899187
20
3.28291746813824
30
0
41
1
10
66.4479026408533
20
2.84624315772305
30
0
41
1
10
66.4599979354433
20
2.51044730567361
30
0
41
1
10
66.4640566583718
20
2.39713102971672
30
0
41
1
10
66.470206832973
20
2.2250451034829
30
0
41
1
10
66.4722677100815
20
2.16733104483796
30
0
41
1
10
66.4764106879114
20
2.05119053795167
30
0
41
1
10
66.4784908878268
20
1.99280552546202
30
0
41
1
10
66.4888752163788
20
1.70078250102438
30
0
41
1
10
66.4971691956105
20
1.46556116106782
30
0
41
1
10
66.513640507712
20
0.992005433639804
30
0
41
1
10
66.5218193868782
20
0.753670848823759
30
0
41
1
10
66.5381064317496
20
0.273886046955596
30
0
41
1
10
66.5462156719921
20
0.0324361383258349
30
0
41
1
10
66.5543590771174
20
-0.210620679809352
30
0
0
SPLINE
5
E4
100
AcDbEntity
8
1
62
256
6
ByLayer
370
13
48
1
60
0
100
AcDbSpline
70
4
71
3
72
9
73
5
40
0
40
0
40
0
40
0
40
0.237608694765603
40
1
40
1
40
1
40
1
41
1.04
10
65.651675585722
20
0.781731174170621
30
0
41
1.04
10
65.6366845423583
20
1.16986934181871
30
0
41
1.04
10
65.5742363256978
20
2.76805015060775
30
0
41
1.04
10
65.5139780291664
20
4.10563022417798
30
0
41
1.04
10
65.4684648361816
20
4.85062786956613
30
0
0
SPLINE
5
E5
100
AcDbEntity
8
1
62
256
6
ByLayer
370
18
48
1
60
0
100
AcDbSpline
70
4
71
3
72
30
73
26
40
0
40
0
40
0
40
0
40
0.125
40
0.125
40
0.187500000000001
40
0.187500000000001
40
0.218750000000001
40
0.218750000000001
40
0.250000000000001
40
0.250000000000001
40
0.375
40
0.375
40
0.5
40
0.5
40
0.562499999999999
40
0.562499999999999
40
0.593749999999999
40
0.593749999999999
40
0.624999999999999
40
0.624999999999999
40
0.749999999999999
40
0.749999999999999
40
0.875
40
0.875
40
1
40
1
40
1
40
1
41
1
10
65.1524864726005
20
1.15272102265297
30
0
41
1
10
65.1445132725055
20
1.38965894125616
30
0
41
1
10
65.1365784565728
20
1.62468599627096
30
0
41
1
10
65.1245281148116
20
1.97430269194311
30
0
41
1
10
65.1204848657254
20
2.09035328315466
30
0
41
1
10
65.1143436935145
20
2.26368020095418
30
0
41
1
10
65.1122843016482
20
2.32133798417138
30
0
41
1
10
65.1081666749557
20
2.435731968418
30
0
41
1
10
65.1061054519936
20
2.49255304601621
30
0
41
1
10
65.0957905383425
20
2.77479917225125
30
0
41
1
10
65.0875113987947
20
2.99466136112346
30
0
41
1
10
65.0709718512145
20
3.42278987559345
30
0
41
1
10
65.0627125830258
20
3.63105577081905
30
0
41
1
10
65.0503612519388
20
3.93468574526972
30
0
41
1
10
65.0462499557769
20
4.03443143852724
30
0
41
1
10
65.0400893205219
20
4.18181812366606
30
0
41
1
10
65.0380367852645
20
4.23057485260915
30
0
41
1
10
65.0339327792967
20
4.32733569736473
30
0
41
1
10
65.031878729159
20
4.37539902076028
30
0
41
1
10
65.0216616985091
20
4.61256286478053
30
0
41
1
10
65.0136326518872
20
4.79293636108522
30
0
41
1
10
64.9977034571388
20
5.13556427215499
30
0
41
1
10
64.9898039059308
20
5.29781704548105
30
0
41
1
10
64.9738724736125
20
5.60421410177966
30
0
41
1
10
64.965820480125
20
5.74835935522844
30
0
41
1
10
64.957560249336
20
5.88317056347799
30
0
0
SPLINE
5
E6
100
AcDbEntity
8
1
62
256
6
ByLayer
370
13
48
1
60
0
100
AcDbSpline
70
4
71
3
72
10
73
6
40
0
40
0
40
0
40
0
40
0.283223319821347
40
0.763572655533293
40
1
40
1
40
1
40
1
41
1.04
10
67.2027657625006
20
-0.547655887380216
30
0
41
1.04
10
67.185552128857
20
-0.10055348628451
30
0
41
1.04
10
67.1391880257564
20
1.11523961658852
30
0
41
1.04
10
67.0783443522513
20
2.65139050756042
30
0
41
1.04
10
67.0341421145527
20
3.61475466582121
30
0
41
1.04
10
67.0194873524755
20
3.91203298838994
30
0
0
SPLINE
5
E7
100
AcDbEntity
8
1
62
256
6
ByLayer
370
18
48
1
60
0
100
AcDbSpline
70
4
71
3
72
29
73
25
40
0
40
0
40
0
40
0
40
0.125
40
0.125
40
0.249999999999999
40
0.249999999999999
40
0.281249999999999
40
0.281249999999999
40
0.312499999999999
40
0.312499999999999
40
0.374999999999999
40
0.374999999999999
40
0.499999999999998
40
0.624999999999998
40
0.624999999999998
40
0.687499999999998
40
0.687499999999998
40
0.718749999999998
40
0.718749999999998
40
0.749999999999998
40
0.749999999999998
40
0.874999999999999
40
0.874999999999999
40
1
40
1
40
1
40
1
41
1
10
66.7033825304415
20
-0.355981018993503
30
0
41
1
10
66.6952623327308
20
-0.115242323377743
30
0
41
1
10
66.6872295959111
20
0.125167262175864
30
0
41
1
10
66.6711679891662
20
0.605327734032272
30
0
41
1
10
66.6631295114002
20
0.845078321857869
30
0
41
1
10
66.6529410066512
20
1.14434038573614
30
0
41
1
10
66.6508976225801
20
1.20417148224678
30
0
41
1
10
66.6467997245122
20
1.32379058975826
30
0
41
1
10
66.6447422474727
20
1.38366434392518
30
0
41
1
10
66.6385823522586
20
1.56236787540937
30
0
41
1
10
66.6344896172679
20
1.68037089638773
30
0
41
1
10
66.6222461997251
20
2.03105128401904
30
0
41
1
10
66.6060191662507
20
2.48976599906595
30
0
41
1
10
66.5897986560249
20
2.93106039947497
30
0
41
1
10
66.5775143578703
20
3.25540297257751
30
0
41
1
10
66.5733971828519
20
3.36241026079654
30
0
41
1
10
66.5671795640537
20
3.52122892832256
30
0
41
1
10
66.5650984023063
20
3.57394960302284
30
0
41
1
10
66.5609382413086
20
3.6785142148839
30
0
41
1
10
66.5588623199986
20
3.73028200649719
30
0
41
1
10
66.548507431697
20
3.98657854298074
30
0
41
1
10
66.5403083466434
20
4.18350077959201
30
0
41
1
10
66.5240838111874
20
4.56154272218311
30
0
41
1
10
66.5160576060798
20
4.74266144532365
30
0
41
1
10
66.5080534349504
20
4.91583862851076
30
0
0
SPLINE
5
E8
100
AcDbEntity
8
1
62
256
6
ByLayer
370
13
48
1
60
0
100
AcDbSpline
70
4
71
3
72
10
73
6
40
0
40
0
40
0
40
0
40
0.35564777775547
40
0.835265319325473
40
1
40
1
40
1
40
1
41
1
10
67.5909149925353
20
-0.878818485479002
30
0
41
1
10
67.569253567804
20
-0.319660974885721
30
0
41
1
10
67.5184688261384
20
1.01686062251238
30
0
41
1
10
67.4575324181006
20
2.55433546886661
30
0
41
1
10
67.4177888258025
20
3.43281792608457
30
0
41
1
10
67.4075931421151
20
3.64821112887336
30
0
0
SPLINE
5
E9
100
AcDbEntity
8
1
62
256
6
ByLayer
370
18
48
1
60
0
100
AcDbSpline
70
4
71
3
72
10
73
6
40
0
40
0
40
0
40
0
40
0.5
40
0.5
40
1
40
1
40
1
40
1
41
1
10
67.4075931421151
20
3.64821112887336
30
0
41
1
10
67.459658383085
20
3.67455353853501
30
0
41
1
10
67.5115530192759
20
3.69913291841351
30
0
41
1
10
67.6149987174055
20
3.74463120874662
30
0
41
1
10
67.6665440137124
20
3.76556487720649
30
0
41
1
10
67.7179027681566
20
3.78469638110087
30
0
0
SPLINE
5
EA
100
AcDbEntity
8
1
62
256
6
ByLayer
370
18
48
1
60
0
100
AcDbSpline
70
4
71
3
72
8
73
4
40
0
40
0
40
0
40
0
40
1
40
1
40
1
40
1
41
1
10
68.3579933841686
20
3.17251918587385
30
0
41
1
10
68.4285051291358
20
3.04550402896746
30
0
41
1
10
68.4992975192417
20
2.92032085815899
30
0
41
1
10
68.5704585261384
20
2.7970570338216
30
0
0
SPLINE
5
EB
100
AcDbEntity
8
1
62
256
6
ByLayer
370
18
48
1
60
0
100
AcDbSpline
70
4
71
3
72
32
73
28
40
0
40
0
40
0
40
0
40
0.124999999999999
40
0.124999999999999
40
0.187499999999978
40
0.187499999999978
40
0.249999999999958
40
0.249999999999958
40
0.374999999999916
40
0.374999999999916
40
0.437499999999923
40
0.437499999999923
40
0.49999999999993
40
0.49999999999993
40
0.624999999999947
40
0.624999999999947
40
0.687499999999956
40
0.687499999999956
40
0.749999999999964
40
0.749999999999964
40
0.812499999999973
40
0.812499999999973
40
0.874999999999982
40
0.874999999999982
40
0.937499999999991
40
0.937499999999991
40
1
40
1
40
1
40
1
41
1
10
68.5704585261384
20
2.7970570338216
30
0
41
1
10
68.5812778491807
20
2.77831599581367
30
0
41
1
10
68.593909443005
20
2.75983206164406
30
0
41
1
10
68.6148874881289
20
2.73240265392593
30
0
41
1
10
68.6222274600138
20
2.72330994026504
30
0
41
1
10
68.6375625865186
20
2.70521911206077
30
0
41
1
10
68.6454777992775
20
2.69631776407567
30
0
41
1
10
68.6696737340125
20
2.67025142450495
30
0
41
1
10
68.686494035276
20
2.65360339539748
30
0
41
1
10
68.7126693551347
20
2.62963206373539
30
0
41
1
10
68.7215922945738
20
2.62177809503621
30
0
41
1
10
68.7395680493503
20
2.60657385040892
30
0
41
1
10
68.7485868784909
20
2.59924923424754
30
0
41
1
10
68.7757261091049
20
2.57808873361441
30
0
41
1
10
68.7939281261254
20
2.56505283063097
30
0
41
1
10
68.8213759714122
20
2.54724943539753
30
0
41
1
10
68.830586854965
20
2.54159113483669
30
0
41
1
10
68.8486738578635
20
2.53114792172343
30
0
41
1
10
68.8575881406722
20
2.52633538097325
30
0
41
1
10
68.8751298955471
20
2.5175894534832
30
0
41
1
10
68.8837577469755
20
2.51365516850151
30
0
41
1
10
68.9006795940395
20
2.50678962510767
30
0
41
1
10
68.9089540473757
20
2.5038741881045
30
0
41
1
10
68.9246235713597
20
2.49936333351476
30
0
41
1
10
68.9320791621994
20
2.49774043020233
30
0
41
1
10
68.9461093998478
20
2.49596692346714
30
0
41
1
10
68.9526925928324
20
2.49582779260206
30
0
41
1
10
68.9585660585659
20
2.49657576868046
30
0
0
SPLINE
5
EC
100
AcDbEntity
8
1
62
256
6
ByLayer
370
18
48
1
60
0
100
AcDbSpline
70
4
71
3
72
8
73
4
40
0
40
0
40
0
40
0
40
1
40
1
40
1
40
1
41
1
10
68.9585660585686
20
2.4965757686864
30
0
41
1
10
68.9910369728071
20
2.50071088553352
30
0
41
1
10
69.0234426040082
20
2.50414202000121
30
0
41
1
10
69.0557840904764
20
2.50683501906735
30
0
0
SPLINE
5
ED
100
AcDbEntity
8
1
62
256
6
ByLayer
370
18
48
1
60
0
100
AcDbSpline
70
4
71
3
72
12
73
8
40
0
40
0
40
0
40
0
40
0.5
40
0.5
40
0.75
40
0.75
40
1
40
1
40
1
40
1
41
1
10
69.0557840904764
20
2.50683501906735
30
0
41
1
10
69.2774167529324
20
2.29620430907835
30
0
41
1
10
69.4998156883463
20
2.08587856303842
30
0
41
1
10
69.8351280669495
20
1.77147183029754
30
0
41
1
10
69.9472571772046
20
1.66692491305827
30
0
41
1
10
70.1725918042225
20
1.45872141229444
30
0
41
1
10
70.2858638997086
20
1.35513397412944
30
0
41
1
10
70.3999998677693
20
1.25233449577601
30
0
0
SPLINE
5
EE
100
AcDbEntity
8
1
62
256
6
ByLayer
370
18
48
1
60
0
100
AcDbSpline
70
4
71
3
72
14
73
10
40
0
40
0
40
0
40
0
40
0.25
40
0.25
40
0.5
40
0.5
40
0.75
40
0.75
40
1
40
1
40
1
40
1
41
1
10
70.3999998677693
20
1.25233449577604
30
0
41
1
10
70.4478711107483
20
1.19772503689782
30
0
41
1
10
70.4962184372336
20
1.14456334258219
30
0
41
1
10
70.5939974645209
20
1.0412610828615
30
0
41
1
10
70.6434597833014
20
0.991092058105266
30
0
41
1
10
70.7434731964534
20
0.894093449334235
30
0
41
1
10
70.7940144071117
20
0.847269129476331
30
0
41
1
10
70.89622254016
20
0.757264444192344
30
0
41
1
10
70.9478757136963
20
0.714224432571058
30
0
41
1
10
71
20
0.672832281667013
30
0
0
SPLINE
5
EF
100
AcDbEntity
8
1
62
256
6
ByLayer
370
18
48
1
60
0
100
AcDbSpline
70
4
71
3
72
56
73
52
40
0
40
0
40
0
40
0
40
0.0015567210745661
40
0.0015567210745661
40
0.017924643679901
40
0.017924643679901
40
0.0833963341012407
40
0.0833963341012407
40
0.14886802452258
40
0.14886802452258
40
0.21433971494392
40
0.21433971494392
40
0.230707637549255
40
0.230707637549255
40
0.24707556015459
40
0.24707556015459
40
0.27981140536526
40
0.3452830957866
40
0.3452830957866
40
0.41075478620794
40
0.41075478620794
40
0.427122708813275
40
0.427122708813275
40
0.44349063141861
40
0.44349063141861
40
0.47622647662928
40
0.541698167050621
40
0.541698167050621
40
0.607169857471961
40
0.607169857471961
40
0.639905702682631
40
0.639905702682631
40
0.656273625287966
40
0.656273625287966
40
0.672641547893301
40
0.672641547893301
40
0.738113238314641
40
0.738113238314641
40
0.803584928735982
40
0.803584928735982
40
0.869056619157322
40
0.869056619157322
40
0.885424541762657
40
0.885424541762657
40
0.901792464367992
40
0.901792464367992
40
0.918160386973326
40
0.918160386973326
40
0.934528309578661
40
0.934528309578661
40
1
40
1
40
1
40
1
41
1
10
71
20
0.666572442382716
30
0
41
1
10
71
20
0.666647001353027
30
0
41
1
10
71
20
0.666726344170428
30
0
41
1
10
71
20
0.667695095741692
30
0
41
1
10
71
20
0.669111558943143
30
0
41
1
10
71
20
0.67878898840226
30
0
41
1
10
71
20
0.694823071107209
30
0
41
1
10
71
20
0.742997860409531
30
0
41
1
10
71
20
0.77513091587943
30
0
41
1
10
71
20
0.855514893476681
30
0
41
1
10
71
20
0.903759423336908
30
0
41
1
10
71
20
0.974457586201368
30
0
41
1
10
71
20
0.989139093668825
30
0
41
1
10
71
20
1.01940280071571
30
0
41
1
10
71.0000000000001
20
1.0349925054359
30
0
41
1
10
71
20
1.08312247930357
30
0
41
1
10
71
20
1.18481452809959
30
0
41
1
10
71
20
1.30250986204422
30
0
41
1
10
71
20
1.47350615417977
30
0
41
1
10
71
20
1.56605107321809
30
0
41
1
10
71
20
1.69071182361455
30
0
41
1
10
71
20
1.71609432246134
30
0
41
1
10
71
20
1.76777174286286
30
0
41
1
10
71
20
1.79409438505584
30
0
41
1
10
71.0000000000001
20
1.8742513282433
30
0
41
1
10
71.0000000000001
20
2.03867469454281
30
0
41
1
10
71
20
2.21516174483313
30
0
41
1
10
71
20
2.46097005587328
30
0
41
1
10
71
20
2.58912941797917
30
0
41
1
10
71.0000000000001
20
2.78932891896713
30
0
41
1
10
71
20
2.85739431483071
30
0
41
1
10
71
20
2.96151882851703
30
0
41
1
10
71
20
2.99656503109
30
0
41
1
10
71
20
3.06734206285859
30
0
41
1
10
71
20
3.10297697586981
30
0
41
1
10
71
20
3.28195308358698
30
0
41
1
10
71.0000000000001
20
3.42810735155524
30
0
41
1
10
71
20
3.72619489620993
30
0
41
1
10
71
20
3.87812490332047
30
0
41
1
10
71
20
4.18777092997175
30
0
41
1
10
71
20
4.34548296350968
30
0
41
1
10
71
20
4.54635856218488
30
0
41
1
10
71
20
4.5867354429958
30
0
41
1
10
71
20
4.66741630870658
30
0
41
1
10
71
20
4.70777527966806
30
0
41
1
10
71
20
4.78853031591518
30
0
41
1
10
71
20
4.82892220622452
30
0
41
1
10
71
20
4.90976843715038
30
0
41
1
10
71
20
4.95022572597111
30
0
41
1
10
71
20
5.1526789389317
30
0
41
1
10
71
20
5.31516828429875
30
0
41
1
10
71
20
5.47819944238472
30
0
0
SPLINE
5
F0
100
AcDbEntity
8
1
62
256
6
ByLayer
370
18
48
1
60
0
100
AcDbSpline
70
4
71
3
72
14
73
10
40
0
40
0
40
0
40
0
40
0.500000000000029
40
0.500000000000029
40
0.750000000000029
40
0.750000000000029
40
0.875000000000015
40
0.875000000000015
40
1
40
1
40
1
40
1
41
1
10
71
20
5.47819944238472
30
0
41
1
10
70.9018277585762
20
5.5798354042476
30
0
41
1
10
70.8027160033908
20
5.68106815476892
30
0
41
1
10
70.6527018327556
20
5.83266807587424
30
0
41
1
10
70.6024757098459
20
5.88315691431526
30
0
41
1
10
70.5268013354678
20
5.95887852273447
30
0
41
1
10
70.5015218710086
20
5.98411590657372
30
0
41
1
10
70.4508482609935
20
6.03459855128014
30
0
41
1
10
70.4254364833564
20
6.05986228186072
30
0
41
1
10
70.4000000540798
20
6.08510024903643
30
0
0
SPLINE
5
F1
100
AcDbEntity
8
1
62
256
6
ByLayer
370
18
48
1
60
0
100
AcDbSpline
70
4
71
3
72
8
73
4
40
0
40
0
40
0
40
0
40
1
40
1
40
1
40
1
41
1
10
70.4000000540797
20
6.08510024903643
30
0
41
1
10
70.3056834791372
20
6.11051640819264
30
0
41
1
10
70.2116672847319
20
6.13455209732999
30
0
41
1
10
70.1179781508783
20
6.15717785047838
30
0
0
SPLINE
5
F2
100
AcDbEntity
8
1
62
256
6
ByLayer
370
18
48
1
60
0
100
AcDbSpline
70
4
71
3
72
28
73
24
40
0
40
0
40
0
40
0
40
0.125000000000061
40
0.125000000000061
40
0.250000000000121
40
0.250000000000121
40
0.375000000000182
40
0.375000000000182
40
0.500000000000243
40
0.500000000000243
40
0.562500000000238
40
0.562500000000238
40
0.625000000000234
40
0.625000000000234
40
0.750000000000156
40
0.750000000000156
40
0.812500000000117
40
0.812500000000117
40
0.875000000000078
40
0.875000000000078
40
0.937500000000039
40
0.937500000000039
40
1
40
1
40
1
40
1
41
1
10
70.1179781508783
20
6.15717785047838
30
0
41
1
10
70.1059561784939
20
6.14787377321753
30
0
41
1
10
70.093361630554
20
6.1399224135362
30
0
41
1
10
70.0672309980042
20
6.12647815550238
30
0
41
1
10
70.0536813136705
20
6.12097869043649
30
0
41
1
10
70.0256305274829
20
6.11242579051827
30
0
41
1
10
70.0110634709344
20
6.10938438545574
30
0
41
1
10
69.9818576678787
20
6.10606276856069
30
0
41
1
10
69.9671184297775
20
6.10573823897258
30
0
41
1
10
69.9448081807795
20
6.10743029266217
30
0
41
1
10
69.9373376476428
20
6.10835990419855
30
0
41
1
10
69.9223263558905
20
6.11101834365448
30
0
41
1
10
69.9147477020771
20
6.11275863824525
30
0
41
1
10
69.89221185669
20
6.1192422947536
30
0
41
1
10
69.8774980358248
20
6.1251935598045
30
0
41
1
10
69.8560094895799
20
6.13706443619597
30
0
41
1
10
69.8489020968309
20
6.14154891700119
30
0
41
1
10
69.835144136104
20
6.15151430501865
30
0
41
1
10
69.8285143460276
20
6.1569714507047
30
0
41
1
10
69.8158044302729
20
6.1689303192297
30
0
41
1
10
69.8097236715456
20
6.17543083448658
30
0
41
1
10
69.7981990970131
20
6.18964308556227
30
0
41
1
10
69.7928407335041
20
6.19725540616543
30
0
41
1
10
69.7879679438338
20
6.20537202524966
30
0
0
SPLINE
5
F3
100
AcDbEntity
8
1
62
256
6
ByLayer
370
18
48
1
60
0
100
AcDbSpline
70
4
71
3
72
8
73
4
40
0
40
0
40
0
40
0
40
1
40
1
40
1
40
1
41
1
10
69.7879679438338
20
6.20537202524966
30
0
41
1
10
69.7820408787602
20
6.21524475375727
30
0
41
1
10
69.7761156724728
20
6.22511012098187
30
0
41
1
10
69.7701922986098
20
6.23496811803486
30
0
0
SPLINE
5
F4
100
AcDbEntity
8
1
62
256
6
ByLayer
370
18
48
1
60
0
100
AcDbSpline
70
4
71
3
72
8
73
4
40
0
40
0
40
0
40
0
40
1
40
1
40
1
40
1
41
1
10
69.7701922986098
20
6.23496811803486
30
0
41
1
10
69.4444769621994
20
6.30193380149623
30
0
41
1
10
69.1222512670667
20
6.35138964994309
30
0
41
1
10
68.8019841767203
20
6.38238426550444
30
0
0
SPLINE
5
F5
100
AcDbEntity
8
1
62
256
6
ByLayer
370
18
48
1
60
0
100
AcDbSpline
70
4
71
3
72
8
73
4
40
0
40
0
40
0
40
0
40
1
40
1
40
1
40
1
41
1
10
68.8019841767202
20
6.38238426550456
30
0
41
1
10
68.7431216880697
20
6.27173667408357
30
0
41
1
10
68.6840979243702
20
6.15999427698299
30
0
41
1
10
68.6248757583688
20
6.04715850816007
30
0
0
SPLINE
5
F6
100
AcDbEntity
8
1
62
256
6
ByLayer
370
18
48
1
60
0
100
AcDbSpline
70
4
71
3
72
32
73
28
40
0
40
0
40
0
40
0
40
0.125000000000003
40
0.125000000000003
40
0.187500000000002
40
0.187500000000002
40
0.250000000000002
40
0.250000000000002
40
0.375000000000001
40
0.375000000000001
40
0.500000000000001
40
0.500000000000001
40
0.625
40
0.625
40
0.6875
40
0.6875
40
0.75
40
0.75
40
0.8125
40
0.8125
40
0.875000000000001
40
0.875000000000001
40
0.937500000000001
40
0.937500000000001
40
0.96875
40
0.96875
40
1
40
1
40
1
40
1
41
1
10
68.6248757583688
20
6.04715850816004
30
0
41
1
10
68.6144448497048
20
6.02728453734642
30
0
41
1
10
68.6023037800321
20
6.00952197556339
30
0
41
1
10
68.5821049657459
20
5.98531296083658
30
0
41
1
10
68.5750334576354
20
5.97765862311479
30
0
41
1
10
68.5602449935651
20
5.96314198725514
30
0
41
1
10
68.5526086194669
20
5.95636128367568
30
0
41
1
10
68.5291665180843
20
5.93745664569457
30
0
41
1
10
68.5127762581267
20
5.92669462847022
30
0
41
1
10
68.478559412748
20
5.90870054070282
30
0
41
1
10
68.4605915720186
20
5.90145844504022
30
0
41
1
10
68.4244965406607
20
5.89125858717247
30
0
41
1
10
68.4062425270193
20
5.88819795088651
30
0
41
1
10
68.3785495797153
20
5.88708130366007
30
0
41
1
10
68.369238694873
20
5.8872966744533
30
0
41
1
10
68.3506214991301
20
5.88906257042697
30
0
41
1
10
68.3414307761767
20
5.89059887890966
30
0
41
1
10
68.3233134157724
20
5.89509628453177
30
0
41
1
10
68.3143864187657
20
5.89805556904426
30
0
41
1
10
68.2968440681566
20
5.9056239963094
30
0
41
1
10
68.288218417274
20
5.91025767388359
30
0
41
1
10
68.2718984473964
20
5.92114668671451
30
0
41
1
10
68.2641342778649
20
5.9274233842724
30
0
41
1
10
68.2531855795109
20
5.93830460116803
30
0
41
1
10
68.2496440850162
20
5.94219097201957
30
0
41
1
10
68.2429247239239
20
5.95038099712991
30
0
41
1
10
68.2397346851755
20
5.9546945739084
30
0
41
1
10
68.2367254251671
20
5.9592414921882
30
0
0
SPLINE
5
F7
100
AcDbEntity
8
1
62
256
6
ByLayer
370
18
48
1
60
0
100
AcDbSpline
70
4
71
3
72
8
73
4
40
0
40
0
40
0
40
0
40
1
40
1
40
1
40
1
41
1
10
68.2367254251671
20
5.9592414921882
30
0
41
1
10
68.1325198165539
20
6.11669361840563
30
0
41
1
10
68.0288384189625
20
6.27042106237684
30
0
41
1
10
67.9257827556147
20
6.4200709778672
30
0
0
SPLINE
5
F8
100
AcDbEntity
8
1
62
256
6
ByLayer
370
18
48
1
60
0
100
AcDbSpline
70
4
71
3
72
8
73
4
40
0
40
0
40
0
40
0
40
1
40
1
40
1
40
1
41
1
10
67.9257827556147
20
6.42007097786717
30
0
41
1
10
67.7729897528915
20
6.41820598401
30
0
41
1
10
67.6209228614717
20
6.41183354949146
30
0
41
1
10
67.4694332827131
20
6.40090733545574
30
0
0
SPLINE
5
F9
100
AcDbEntity
8
1
62
256
6
ByLayer
370
18
48
1
60
0
100
AcDbSpline
70
4
71
3
72
10
73
6
40
0
40
0
40
0
40
0
40
0.5
40
0.5
40
1
40
1
40
1
40
1
41
1
10
67.4694332827131
20
6.40090733545574
30
0
41
1
10
67.4039755197805
20
6.26831610651467
30
0
41
1
10
67.3382570241666
20
6.13479584152532
30
0
41
1
10
67.2064087123476
20
5.86634457004146
30
0
41
1
10
67.1402815191369
20
5.73141919924728
30
0
41
1
10
67.0739021650764
20
5.59580658440728
30
0
0
SPLINE
5
FA
100
AcDbEntity
8
1
62
256
6
ByLayer
370
18
48
1
60
0
100
AcDbSpline
70
4
71
3
72
32
73
28
40
0
40
0
40
0
40
0
40
0.125000000000051
40
0.125000000000051
40
0.187500000000057
40
0.187500000000057
40
0.250000000000062
40
0.250000000000062
40
0.375000000000072
40
0.375000000000072
40
0.500000000000082
40
0.500000000000082
40
0.625000000000092
40
0.625000000000092
40
0.68750000000007
40
0.68750000000007
40
0.750000000000047
40
0.750000000000047
40
0.812500000000025
40
0.812500000000025
40
0.875000000000002
40
0.875000000000002
40
0.937499999999979
40
0.937499999999979
40
0.96874999999999
40
0.96874999999999
40
1
40
1
40
1
40
1
41
1
10
67.0739021650764
20
5.59580658440731
30
0
41
1
10
67.0634637354151
20
5.5744809363768
30
0
41
1
10
67.0513133297051
20
5.55494646956527
30
0
41
1
10
67.0310993261866
20
5.52771317409355
30
0
41
1
10
67.0240225060809
20
5.51898815189696
30
0
41
1
10
67.0092230512635
20
5.50221067921873
30
0
41
1
10
67.0015809419509
20
5.49425200195088
30
0
41
1
10
66.9781229809666
20
5.47170363390106
30
0
41
1
10
66.9617230912669
20
5.45835793556532
30
0
41
1
10
66.9274905574866
20
5.43489185249493
30
0
41
1
10
66.9095179055069
20
5.42473852268259
30
0
41
1
10
66.8734190030687
20
5.40859422756932
30
0
41
1
10
66.8551647796105
20
5.4024806016684
30
0
41
1
10
66.827474842598
20
5.39663504024006
30
0
41
1
10
66.818163323486
20
5.39524400930296
30
0
41
1
10
66.7995570003781
20
5.39375814092031
30
0
41
1
10
66.7903719940096
20
5.39366854020841
30
0
41
1
10
66.7722663929035
20
5.39491238759894
30
0
41
1
10
66.7633454558146
20
5.39624401703054
30
0
41
1
10
66.7458154992152
20
5.40055350265851
30
0
41
1
10
66.7371971932364
20
5.40355292928004
30
0
41
1
10
66.7208907777829
20
5.41127476170661
30
0
41
1
10
66.7131329105351
20
5.41600596493123
30
0
41
1
10
66.7021928437543
20
5.42463570310278
30
0
41
1
10
66.6986539939746
20
5.42778086043461
30
0
41
1
10
66.6919390629572
20
5.43453629529427
30
0
41
1
10
66.6887509478669
20
5.43815395175252
30
0
41
1
10
66.6857433212793
20
5.44202788572386
30
0
0
SPLINE
5
FB
100
AcDbEntity
8
1
62
256
6
ByLayer
370
18
48
1
60
0
100
AcDbSpline
70
4
71
3
72
10
73
6
40
0
40
0
40
0
40
0
40
0.5
40
0.5
40
1
40
1
40
1
40
1
41
1
10
66.6857433212792
20
5.44202788572386
30
0
41
1
10
66.6018205882525
20
5.55012346108001
30
0
41
1
10
66.518247449839
20
5.65490404210348
30
0
41
1
10
66.3518728006644
20
5.85764271675095
30
0
41
1
10
66.2691080831058
20
5.95555677931603
30
0
41
1
10
66.186746463277
20
6.0499773235525
30
0
0
SPLINE
5
FC
100
AcDbEntity
8
1
62
256
6
ByLayer
370
18
48
1
60
0
100
AcDbSpline
70
4
71
3
72
8
73
4
40
0
40
0
40
0
40
0
40
1
40
1
40
1
40
1
41
1
10
66.0373149537828
20
5.97312042058979
30
0
41
1
10
66.0870760738829
20
5.99913892507487
30
0
41
1
10
66.1368847082465
20
6.02475968331515
30
0
41
1
10
66.186746463277
20
6.04997732355244
30
0
0
SPLINE
5
FD
100
AcDbEntity
8
1
62
256
6
ByLayer
370
18
48
1
60
0
100
AcDbSpline
70
4
71
3
72
10
73
6
40
0
40
0
40
0
40
0
40
0.5
40
0.5
40
1
40
1
40
1
40
1
41
1
10
66.0373149537828
20
5.97312042058976
30
0
41
1
10
65.9523483115744
20
5.79298167669046
30
0
41
1
10
65.8670252862824
20
5.61250040461604
30
0
41
1
10
65.6954564073422
20
5.25098386602721
30
0
41
1
10
65.6093429362324
20
5.0702226702596
30
0
41
1
10
65.522800936792
20
4.88950387336595
30
0
0
SPLINE
5
FE
100
AcDbEntity
8
1
62
256
6
ByLayer
370
18
48
1
60
0
100
AcDbSpline
70
4
71
3
72
10
73
6
40
0
40
0
40
0
40
0
40
0.974065281627553
40
0.974065281627553
40
1
40
1
40
1
40
1
41
1
10
65.522800936792
20
4.88950387336598
30
0
41
1
10
65.5123598921537
20
4.86770066755219
30
0
41
1
10
65.5002058023863
20
4.84728228319921
30
0
41
1
10
65.486366583667
20
4.82741768152505
30
0
41
1
10
65.4860067061832
20
4.82690327377867
30
0
41
1
10
65.4856458698576
20
4.82638963920468
30
0
0
SPLINE
5
FF
100
AcDbEntity
8
1
62
256
6
ByLayer
370
18
48
1
60
0
100
AcDbSpline
70
4
71
3
72
32
73
28
40
0
40
0
40
0
40
0
40
0.015972962177257
40
0.015972962177257
40
0.0862606077359608
40
0.0862606077359608
40
0.156548253294665
40
0.156548253294665
40
0.29712354441213
40
0.29712354441213
40
0.367411189970892
40
0.367411189970892
40
0.437698835529653
40
0.437698835529653
40
0.57827412664724
40
0.57827412664724
40
0.648561772206033
40
0.648561772206033
40
0.718849417764827
40
0.718849417764827
40
0.78913706332362
40
0.78913706332362
40
0.859424708882413
40
0.859424708882413
40
0.929712354441207
40
0.929712354441207
40
1
40
1
40
1
40
1
41
1
10
60.8481214559759
20
6.17740873998221
30
0
41
1
10
60.8496697886708
20
6.17579496967531
30
0
41
1
10
60.8512362381103
20
6.17420725407658
30
0
41
1
10
60.8597899720089
20
6.16576838475407
30
0
41
1
10
60.8671065053604
20
6.15939085087231
30
0
41
1
10
60.8823942301887
20
6.14757860662687
30
0
41
1
10
60.890285494788
20
6.14220966104944
30
0
41
1
10
60.9144173416073
20
6.12771194578485
30
0
41
1
10
60.9312022389632
20
6.12009941407905
30
0
41
1
10
60.9573351089942
20
6.1115563004069
30
0
41
1
10
60.9662442859352
20
6.10918646360284
30
0
41
1
10
60.9842082983144
20
6.10548293083284
30
0
41
1
10
60.9932234305261
20
6.10415248615902
30
0
41
1
10
61.0203584444559
20
6.10170841920058
30
0
41
1
10
61.0385668663383
20
6.10211609220468
30
0
41
1
10
61.0660385327395
20
6.10613833347171
30
0
41
1
10
61.0752648682902
20
6.10806976576021
30
0
41
1
10
61.0933940979915
20
6.11311607667474
30
0
41
1
10
61.1023303176033
20
6.11623001787237
30
0
41
1
10
61.1199181692113
20
6.12373930022477
30
0
41
1
10
61.1285701207446
20
6.12813318637495
30
0
41
1
10
61.1455423354558
20
6.13839199717981
30
0
41
1
10
61.1538449447407
20
6.14426191943295
30
0
41
1
10
61.1695670610613
20
6.15733587037388
30
0
41
1
10
61.1770479743363
20
6.16457129984184
30
0
41
1
10
61.1911255834586
20
6.18066840390264
30
0
41
1
10
61.1977274338472
20
6.18956074088501
30
0
41
1
10
61.2036139332821
20
6.1991689294604
30
0
0
SPLINE
5
100
100
AcDbEntity
8
1
62
256
6
ByLayer
370
18
48
1
60
0
100
AcDbSpline
70
4
71
3
72
10
73
6
40
0
40
0
40
0
40
0
40
0.5
40
0.5
40
1
40
1
40
1
40
1
41
1
10
61.2036139332855
20
6.19916892946694
30
0
41
1
10
61.2882084804814
20
6.33724765876261
30
0
41
1
10
61.3723705506739
20
6.47349613405291
30
0
41
1
10
61.5397786088725
20
6.74184919662594
30
0
41
1
10
61.6229863041662
20
6.87389933895108
30
0
41
1
10
61.7057436814643
20
7.0037228587075
30
0
0
SPLINE
5
101
100
AcDbEntity
8
1
62
256
6
ByLayer
370
18
48
1
60
0
100
AcDbSpline
70
4
71
3
72
8
73
4
40
0
40
0
40
0
40
0
40
1
40
1
40
1
40
1
41
1
10
61.8555496630516
20
6.98179830367428
30
0
41
1
10
61.8056421040099
20
6.98960478534363
30
0
41
1
10
61.7557080809893
20
6.99691318245058
30
0
41
1
10
61.7057436814643
20
7.00372285870745
30
0
0
SPLINE
5
102
100
AcDbEntity
8
1
62
256
6
ByLayer
370
18
48
1
60
0
100
AcDbSpline
70
4
71
3
72
10
73
6
40
0
40
0
40
0
40
0
40
0.5
40
0.5
40
1
40
1
40
1
40
1
41
1
10
61.8555496630516
20
6.98179830367431
30
0
41
1
10
61.9398202684132
20
6.8274050750407
30
0
41
1
10
62.0244672792713
20
6.67095480567684
30
0
41
1
10
62.1948137939318
20
6.35390753951836
30
0
41
1
10
62.2803823597722
20
6.19356081747165
30
0
41
1
10
62.3664970952015
20
6.03141209133051
30
0
0
SPLINE
5
103
100
AcDbEntity
8
1
62
256
6
ByLayer
370
18
48
1
60
0
100
AcDbSpline
70
4
71
3
72
32
73
28
40
0
40
0
40
0
40
0
40
0.124999999999909
40
0.124999999999909
40
0.187499999999884
40
0.187499999999884
40
0.24999999999986
40
0.24999999999986
40
0.374999999999811
40
0.374999999999811
40
0.437499999999813
40
0.437499999999813
40
0.499999999999815
40
0.499999999999815
40
0.624999999999819
40
0.624999999999819
40
0.687499999999849
40
0.687499999999849
40
0.749999999999879
40
0.749999999999879
40
0.812499999999909
40
0.812499999999909
40
0.874999999999939
40
0.874999999999939
40
0.93749999999997
40
0.93749999999997
40
1
40
1
40
1
40
1
41
1
10
62.3664970952016
20
6.03141209133051
30
0
41
1
10
62.3772877998624
20
6.01109386116698
30
0
41
1
10
62.3898829010541
20
5.99308748081944
30
0
41
1
10
62.4108023282526
20
5.96866252798833
30
0
41
1
10
62.4181220243293
20
5.96096317832587
30
0
41
1
10
62.4334156062264
20
5.94640017218472
30
0
41
1
10
62.4413088452508
20
5.93961728152158
30
0
41
1
10
62.4654463489202
20
5.9208072402003
30
0
41
1
10
62.4822336819495
20
5.9102113599279
30
0
41
1
10
62.5083680594516
20
5.89703493302565
30
0
41
1
10
62.5172773737794
20
5.89308740354272
30
0
41
1
10
62.5352407831874
20
5.8862041436943
30
0
41
1
10
62.5442554080857
20
5.88327857604401
30
0
41
1
10
62.5713882775207
20
5.87603120502794
30
0
41
1
10
62.5895944489353
20
5.87321318654276
30
0
41
1
10
62.617061288271
20
5.8723470301567
30
0
41
1
10
62.6262858235342
20
5.87263295744478
30
0
41
1
10
62.6444119467174
20
5.87443493617724
30
0
41
1
10
62.6533466178341
20
5.87594416471572
30
0
41
1
10
62.6709313314122
20
5.88028024827906
30
0
41
1
10
62.6795816934328
20
5.88310560929412
30
0
41
1
10
62.696550623511
20
5.89026751563026
30
0
41
1
10
62.7048527641276
20
5.89461264948565
30
0
41
1
10
62.7205738835906
20
5.90477473343856
30
0
41
1
10
62.7280543532455
20
5.91061193043058
30
0
41
1
10
62.7421311557905
20
5.92404692198173
30
0
41
1
10
62.748733685647
20
5.93167509131814
30
0
41
1
10
62.7546211746232
20
5.94013752120537
30
0
0
SPLINE
5
104
100
AcDbEntity
8
1
62
256
6
ByLayer
370
18
48
1
60
0
100
AcDbSpline
70
4
71
3
72
10
73
6
40
0
40
0
40
0
40
0
40
0.5
40
0.5
40
1
40
1
40
1
40
1
41
1
10
62.7546211746264
20
5.94013752121239
30
0
41
1
10
62.8391463150779
20
6.06163041533839
30
0
41
1
10
62.923245996039
20
6.18038275446634
30
0
41
1
10
63.0905530114646
20
6.41200594740997
30
0
41
1
10
63.1737227293242
20
6.52483935771443
30
0
41
1
10
63.2564522491511
20
6.63462369496324
30
0
0
SPLINE
5
105
100
AcDbEntity
8
1
62
256
6
ByLayer
370
18
48
1
60
0
100
AcDbSpline
70
4
71
3
72
8
73
4
40
0
40
0
40
0
40
0
40
1
40
1
40
1
40
1
41
1
10
63.4062226449707
20
6.58266878874556
30
0
41
1
10
63.3562682402578
20
6.60047213150634
30
0
41
1
10
63.3063447984187
20
6.61778951127246
30
0
41
1
10
63.256452249151
20
6.63462369496341
30
0
0
SPLINE
5
106
100
AcDbEntity
8
1
62
256
6
ByLayer
370
18
48
1
60
0
100
AcDbSpline
70
4
71
3
72
10
73
6
40
0
40
0
40
0
40
0
40
0.5
40
0.5
40
1
40
1
40
1
40
1
41
1
10
63.4062226449709
20
6.58266878873323
30
0
41
1
10
63.4905590610776
20
6.41516210949743
30
0
41
1
10
63.5752895825568
20
6.2466830567239
30
0
41
1
10
63.7457531764714
20
5.90788380344341
30
0
41
1
10
63.8313540680342
20
5.73781488406323
30
0
41
1
10
63.9174809076867
20
5.56711459503097
30
0
0
SPLINE
5
107
100
AcDbEntity
8
1
62
256
6
ByLayer
370
18
48
1
60
0
100
AcDbSpline
70
4
71
3
72
32
73
28
40
0
40
0
40
0
40
0
40
0.125000000000029
40
0.125000000000029
40
0.187500000000067
40
0.187500000000067
40
0.250000000000106
40
0.250000000000106
40
0.375000000000133
40
0.375000000000133
40
0.43750000000012
40
0.43750000000012
40
0.500000000000108
40
0.500000000000108
40
0.625000000000083
40
0.625000000000083
40
0.687500000000069
40
0.687500000000069
40
0.750000000000055
40
0.750000000000055
40
0.812500000000041
40
0.812500000000041
40
0.875000000000028
40
0.875000000000028
40
0.937500000000014
40
0.937500000000014
40
1
40
1
40
1
40
1
41
1
10
63.9174809076867
20
5.56711459503097
30
0
41
1
10
63.9282849392951
20
5.54570139415529
30
0
41
1
10
63.9408952605877
20
5.52620144763711
30
0
41
1
10
63.9618358394658
20
5.49908975424705
30
0
41
1
10
63.9691623439714
20
5.49041840490247
30
0
41
1
10
63.984468635295
20
5.47376639451235
30
0
41
1
10
63.9923665681515
20
5.46587850594619
30
0
41
1
10
64.0165168903812
20
5.4436125661957
30
0
41
1
10
64.0333095639545
20
5.43051613584018
30
0
41
1
10
64.0594472271949
20
5.41330652661603
30
0
41
1
10
64.068356979402
20
5.40796101868992
30
0
41
1
10
64.0863184994094
20
5.3982116304945
30
0
41
1
10
64.0953316454116
20
5.39382393186628
30
0
41
1
10
64.1224585643939
20
5.38210153098953
30
0
41
1
10
64.1406587476697
20
5.37618353604796
30
0
41
1
10
64.1681143196638
20
5.37046227135315
30
0
41
1
10
64.1773344700952
20
5.36908730043578
30
0
41
1
10
64.1954522002486
20
5.36755703314395
30
0
41
1
10
64.2043828577177
20
5.36738936934785
30
0
41
1
10
64.2219599273449
20
5.36834691350015
30
0
41
1
10
64.2306066591693
20
5.36947065801266
30
0
41
1
10
64.2475687044219
20
5.37319966168093
30
0
41
1
10
64.2558689724098
20
5.3758162735478
30
0
41
1
10
64.2715871376924
20
5.38259133498045
30
0
41
1
10
64.2790665482139
20
5.3867578628323
30
0
41
1
10
64.2931419240819
20
5.39690475393121
30
0
41
1
10
64.2997454478678
20
5.40291356768873
30
0
41
1
10
64.3056345691718
20
5.40983699314805
30
0
0
SPLINE
5
108
100
AcDbEntity
8
1
62
256
6
ByLayer
370
18
48
1
60
0
100
AcDbSpline
70
4
71
3
72
10
73
6
40
0
40
0
40
0
40
0
40
0.5
40
0.5
40
1
40
1
40
1
40
1
41
1
10
64.3056345691747
20
5.4098369931551
30
0
41
1
10
64.3901973468616
20
5.50925149963081
30
0
41
1
10
64.4743379275403
20
5.60516104652109
30
0
41
1
10
64.641728189046
20
5.78960917400084
30
0
41
1
10
64.7249392257295
20
5.8781233394881
30
0
41
1
10
64.807708137783
20
5.96288169443358
30
0
0
SPLINE
5
109
100
AcDbEntity
8
1
62
256
6
ByLayer
370
18
48
1
60
0
100
AcDbSpline
70
4
71
3
72
8
73
4
40
0
40
0
40
0
40
0
40
1
40
1
40
1
40
1
41
1
10
64.957560249336
20
5.88317056347799
30
0
41
1
10
64.9076374727868
20
5.91014441452086
30
0
41
1
10
64.8576886770551
20
5.9367163336149
30
0
41
1
10
64.807708137783
20
5.96288169443358
30
0
0
SPLINE
5
10A
100
AcDbEntity
8
1
62
256
6
ByLayer
370
18
48
1
60
0
100
AcDbSpline
70
4
71
3
72
10
73
6
40
0
40
0
40
0
40
0
40
0.5
40
0.5
40
1
40
1
40
1
40
1
41
1
10
64.957560249336
20
5.88317056347799
30
0
41
1
10
65.0418365376668
20
5.71056412006129
30
0
41
1
10
65.126512814675
20
5.5381039895849
30
0
41
1
10
65.2968640153478
20
5.19361940389939
30
0
41
1
10
65.3824061811604
20
5.02184717049167
30
0
41
1
10
65.4684648361816
20
4.8506278695663
30
0
0
SPLINE
5
10B
100
AcDbEntity
8
1
62
256
6
ByLayer
370
18
48
1
60
0
100
AcDbSpline
70
4
71
3
72
32
73
28
40
0
40
0
40
0
40
0
40
0.124999999999947
40
0.124999999999947
40
0.187499999999899
40
0.187499999999899
40
0.249999999999851
40
0.249999999999851
40
0.374999999999802
40
0.374999999999802
40
0.437499999999806
40
0.437499999999806
40
0.499999999999809
40
0.499999999999809
40
0.624999999999816
40
0.624999999999816
40
0.687499999999847
40
0.687499999999847
40
0.749999999999877
40
0.749999999999877
40
0.812499999999908
40
0.812499999999908
40
0.874999999999939
40
0.874999999999939
40
0.937499999999969
40
0.937499999999969
40
1
40
1
40
1
40
1
41
1
10
65.4684648361816
20
4.85062786956632
30
0
41
1
10
65.4792748997458
20
4.8291205438249
30
0
41
1
10
65.4918945499715
20
4.80903177604208
30
0
41
1
10
65.512852513038
20
4.7804871092691
30
0
41
1
10
65.520185388541
20
4.7712439252181
30
0
41
1
10
65.535505471414
20
4.75327022654244
30
0
41
1
10
65.5434109173976
20
4.74463907505464
30
0
41
1
10
65.5675824566034
20
4.71994046845788
30
0
41
1
10
65.584388519615
20
4.70494556355592
30
0
41
1
10
65.6105445242344
20
4.6844960409837
30
0
41
1
10
65.6194607311355
20
4.67799895738287
30
0
41
1
10
65.6374290722467
20
4.665836311249
30
0
41
1
10
65.6464449234419
20
4.66019084287035
30
0
41
1
10
65.6735774103747
20
4.64454069212124
30
0
41
1
10
65.6917778551085
20
4.63580091852157
30
0
41
1
10
65.7192277954802
20
4.62549560482523
30
0
41
1
10
65.728442974721
20
4.62252623158361
30
0
41
1
10
65.7465453078819
20
4.61774002425386
30
0
41
1
10
65.7554677520675
20
4.61590512285755
30
0
41
1
10
65.7730274413242
20
4.6134412240761
30
0
41
1
10
65.7816650408795
20
4.61281090652756
30
0
41
1
10
65.7986083302328
20
4.61293097710075
30
0
41
1
10
65.8068976303186
20
4.61369413509757
30
0
41
1
10
65.8225962029999
20
4.6167574135446
30
0
41
1
10
65.8300665909565
20
4.61905317907099
30
0
41
1
10
65.8441261714071
20
4.62542527140644
30
0
41
1
10
65.8507233979944
20
4.62952560981296
30
0
41
1
10
65.8566083080044
20
4.63457713473406
30
0
0
SPLINE
5
10C
100
AcDbEntity
8
1
62
256
6
ByLayer
370
18
48
1
60
0
100
AcDbSpline
70
4
71
3
72
10
73
6
40
0
40
0
40
0
40
0
40
0.5
40
0.5
40
1
40
1
40
1
40
1
41
1
10
65.8566083080072
20
4.63457713474108
30
0
41
1
10
65.9412090371577
20
4.70719722425329
30
0
41
1
10
66.0253692965641
20
4.77557298318084
30
0
41
1
10
66.1928075470458
20
4.90384683935488
30
0
41
1
10
66.2760445028559
20
4.96372057515239
30
0
41
1
10
66.3588469113091
20
5.01935190753824
30
0
0
SPLINE
5
10D
100
AcDbEntity
8
1
62
256
6
ByLayer
370
18
48
1
60
0
100
AcDbSpline
70
4
71
3
72
8
73
4
40
0
40
0
40
0
40
0
40
1
40
1
40
1
40
1
41
1
10
66.5080534349587
20
4.91583862851289
30
0
41
1
10
66.4582828942403
20
4.95070190459853
30
0
41
1
10
66.4085479084988
20
4.98520651858524
30
0
41
1
10
66.3588469113091
20
5.01935190753824
30
0
0
SPLINE
5
10E
100
AcDbEntity
8
1
62
256
6
ByLayer
370
18
48
1
60
0
100
AcDbSpline
70
4
71
3
72
10
73
6
40
0
40
0
40
0
40
0
40
0.5
40
0.5
40
1
40
1
40
1
40
1
41
1
10
66.5080534349586
20
4.9158386285018
30
0
41
1
10
66.5923542759011
20
4.74573302317597
30
0
41
1
10
66.6770843284761
20
4.57691228387466
30
0
41
1
10
66.8476145815609
20
4.24200402641401
30
0
41
1
10
66.933278372397
20
4.07615649132561
30
0
41
1
10
67.0194873524755
20
3.91203298838991
30
0
0
SPLINE
5
10F
100
AcDbEntity
8
1
62
256
6
ByLayer
370
18
48
1
60
0
100
AcDbSpline
70
4
71
3
72
32
73
28
40
0
40
0
40
0
40
0
40
0.125000000000026
40
0.125000000000026
40
0.187500000000038
40
0.187500000000038
40
0.250000000000051
40
0.250000000000051
40
0.375000000000076
40
0.375000000000076
40
0.437500000000063
40
0.437500000000063
40
0.500000000000049
40
0.500000000000049
40
0.625000000000078
40
0.625000000000078
40
0.687500000000065
40
0.687500000000065
40
0.750000000000052
40
0.750000000000052
40
0.812500000000039
40
0.812500000000039
40
0.875000000000026
40
0.875000000000026
40
0.937500000000013
40
0.937500000000013
40
1
40
1
40
1
40
1
41
1
10
67.0194873524755
20
3.91203298838994
30
0
41
1
10
67.0302994149438
20
3.89144912851091
30
0
41
1
10
67.0429221143366
20
3.87172408910902
30
0
41
1
10
67.0638866132324
20
3.8431028691497
30
0
41
1
10
67.0712220062069
20
3.83372760330056
30
0
41
1
10
67.0865480174967
20
3.81528847236271
30
0
41
1
10
67.0944584763513
20
3.80632414138304
30
0
41
1
10
67.1186421636828
20
3.78037116388378
30
0
41
1
10
67.135455979808
20
3.76419662831097
30
0
41
1
10
67.1616243421075
20
3.74149489464381
30
0
41
1
10
67.1705452756769
20
3.73416131701617
30
0
41
1
10
67.1885193014413
20
3.72017883576422
30
0
41
1
10
67.1975376857389
20
3.71355302997787
30
0
41
1
10
67.2246767936749
20
3.69475112728864
30
0
41
1
10
67.2428803217287
20
3.68363273803311
30
0
41
1
10
67.2703330063864
20
3.66928831896897
30
0
41
1
10
67.279546718216
20
3.66488711375069
30
0
41
1
10
67.2976409345563
20
3.65712187661973
30
0
41
1
10
67.3065590086224
20
3.65373442073368
30
0
41
1
10
67.3241087721801
20
3.64802635973433
30
0
41
1
10
67.3327408405966
20
3.64570463571675
30
0
41
1
10
67.3496716272297
20
3.6422804358881
30
0
41
1
10
67.357950939066
20
3.64119242977662
30
0
41
1
10
67.3736299091466
20
3.64047587398693
30
0
41
1
10
67.3810902035176
20
3.64083117381111
30
0
41
1
10
67.3951296492189
20
3.64320314979383
30
0
41
1
10
67.4017167053065
20
3.64523794555325
30
0
41
1
10
67.4075931421122
20
3.64821112886671
30
0
0
SPLINE
5
110
100
AcDbEntity
8
1
62
256
6
ByLayer
370
18
48
1
60
0
100
AcDbSpline
70
4
71
3
72
26
73
22
40
0
40
0
40
0
40
0
40
0.125
40
0.125
40
0.250000000000001
40
0.250000000000001
40
0.375000000000001
40
0.375000000000001
40
0.500000000000001
40
0.500000000000001
40
0.625000000000001
40
0.625000000000001
40
0.750000000000002
40
0.750000000000002
40
0.781250000000001
40
0.781250000000001
40
0.812500000000001
40
0.812500000000001
40
0.875000000000001
40
0.875000000000001
40
1
40
1
40
1
40
1
41
1
10
67.7179027681566
20
3.7846963811007
30
0
41
1
10
67.7260947423202
20
3.59756817346161
30
0
41
1
10
67.7342250340949
20
3.40532002359927
30
0
41
1
10
67.7504562939837
20
3.01070092598673
30
0
41
1
10
67.7585534462442
20
2.80833038886635
30
0
41
1
10
67.7746972189637
20
2.39340314434591
30
0
41
1
10
67.782752165954
20
2.18081018377495
30
0
41
1
10
67.7990443404738
20
1.74539091279558
30
0
41
1
10
67.807146829324
20
1.52619506789716
30
0
41
1
10
67.8234315168711
20
1.08494875153281
30
0
41
1
10
67.831624834231
20
0.862897880115668
30
0
41
1
10
67.8481357273958
20
0.415940053285624
30
0
41
1
10
67.8564318506547
20
0.191033191007762
30
0
41
1
10
67.8667296252216
20
-0.0919579877450758
30
0
41
1
10
67.8687861711567
20
-0.148649228568217
30
0
41
1
10
67.8728970094025
20
-0.262218899242754
30
0
41
1
10
67.8749525607658
20
-0.319132404348181
30
0
41
1
10
67.8810934904162
20
-0.489385721481881
30
0
41
1
10
67.8851619141552
20
-0.602475893417648
30
0
41
1
10
67.8973299326449
20
-0.940526064519673
30
0
41
1
10
67.9053945569917
20
-1.16426996112725
30
0
41
1
10
67.9134878200899
20
-1.38638119999794
30
0
0
SPLINE
5
111
100
AcDbEntity
8
1
62
256
6
ByLayer
370
18
48
1
60
0
100
AcDbSpline
70
4
71
3
72
28
73
24
40
0
40
0
40
0
40
0
40
0.125
40
0.125
40
0.25
40
0.25
40
0.375000000000001
40
0.375000000000001
40
0.406250000000001
40
0.406250000000001
40
0.437500000000001
40
0.500000000000001
40
0.500000000000001
40
0.625
40
0.75
40
0.75
40
0.8125
40
0.8125
40
0.84375
40
0.84375
40
0.875
40
0.875
40
1
40
1
40
1
40
1
41
1
10
68.5408615614159
20
-1.8651264951352
30
0
41
1
10
68.5332313807247
20
-1.65601919032162
30
0
41
1
10
68.5257488367391
20
-1.44539787121292
30
0
41
1
10
68.5107651153808
20
-1.02125034372844
30
0
41
1
10
68.5032516878698
20
-0.807726891721188
30
0
41
1
10
68.4878793639981
20
-0.377792973814223
30
0
41
1
10
68.4800408147919
20
-0.161381106998164
30
0
41
1
10
68.4703249893219
20
0.111043760177125
30
0
41
1
10
68.4683825237871
20
0.165683838657117
30
0
41
1
10
68.464510707847
20
0.274876457497413
30
0
41
1
10
68.4587326215682
20
0.438251299868426
30
0
41
1
10
68.4530303136977
20
0.600404144351216
30
0
41
1
10
68.4416913189467
20
0.923118197336777
30
0
41
1
10
68.4267473972345
20
1.34916923596009
30
0
41
1
10
68.4117802432358
20
1.76689637713511
30
0
41
1
10
68.4004217019193
20
2.07700114284097
30
0
41
1
10
68.3966135244765
20
2.1798363501596
30
0
41
1
10
68.390855190376
20
2.3332684933533
30
0
41
1
10
68.3889263883636
20
2.38431976502974
30
0
41
1
10
68.3850676430694
20
2.48572398710221
30
0
41
1
10
68.3831359941011
20
2.53611788222008
30
0
41
1
10
68.3734660167103
20
2.78654969471441
30
0
41
1
10
68.3657356547274
20
2.98198002588973
30
0
41
1
10
68.3579933841686
20
3.172519185874
30
0
0
SPLINE
5
112
100
AcDbEntity
8
1
62
256
6
ByLayer
370
18
48
1
60
0
100
AcDbSpline
70
4
71
3
72
10
73
6
40
0
40
0
40
0
40
0
40
0.5
40
0.5
40
1
40
1
40
1
40
1
41
1
10
67.7179027681567
20
3.7846963811007
30
0
41
1
10
67.8239237970562
20
3.68361445400811
30
0
41
1
10
67.9301399694923
20
3.58194668259225
30
0
41
1
10
68.1434183797375
20
3.37781316559341
30
0
41
1
10
68.2504786487412
20
3.2753469255664
30
0
41
1
10
68.3579933841685
20
3.17251918587388
30
0
0
SPLINE
5
113
100
AcDbEntity
8
1
62
256
6
ByLayer
370
18
48
1
60
0
100
AcDbSpline
70
4
71
3
72
10
73
6
40
0
40
0
40
0
40
0
40
0.5
40
0.5
40
1
40
1
40
1
40
1
41
1
10
63.0664899741729
20
-6.21916225930377
30
0
41
1
10
62.9825060944994
20
-6.36348051752992
30
0
41
1
10
62.8988732395842
20
-6.50695202968242
30
0
41
1
10
62.7323825088855
20
-6.79175128319963
30
0
41
1
10
62.6495615730459
20
-6.93301542368982
30
0
41
1
10
62.5671446060039
20
-7.0730078914676
30
0
0
SPLINE
5
114
100
AcDbEntity
8
1
62
256
6
ByLayer
370
18
48
1
60
0
100
AcDbSpline
70
4
71
3
72
8
73
4
40
0
40
0
40
0
40
0
40
1
40
1
40
1
40
1
41
1
10
62.41828325114
20
-7.07196069725191
30
0
41
1
10
62.4679008064366
20
-7.07280735326097
30
0
41
1
10
62.517519554334
20
-7.07315648917037
30
0
41
1
10
62.5671446060039
20
-7.07300789146763
30
0
0
SPLINE
5
115
100
AcDbEntity
8
1
62
256
6
ByLayer
370
18
48
1
60
0
100
AcDbSpline
70
4
71
3
72
14
73
10
40
0
40
0
40
0
40
0
40
0.0210741625066364
40
0.0210741625066364
40
0.389493198394672
40
0.389493198394672
40
0.75791223428271
40
0.75791223428271
40
1
40
1
40
1
40
1
41
1
10
36.3208010106547
20
4.59528062175457
30
0
41
1
10
36.3181983908368
20
4.58852483462442
30
0
41
1
10
36.3155814037435
20
4.58177785186072
30
0
41
1
10
36.2669480856031
20
4.45724301396078
30
0
41
1
10
36.2165791777466
20
4.34212244818536
30
0
41
1
10
36.1063387738163
20
4.11770456882772
30
0
41
1
10
36.0462128029517
20
4.00861907466137
30
0
41
1
10
35.9414904209823
20
3.83802918611289
30
0
41
1
10
35.8988933368391
20
3.77201254959107
30
0
41
1
10
35.855176251894
20
3.70769889694142
30
0
0
SPLINE
5
116
100
AcDbEntity
8
1
62
256
6
ByLayer
370
18
48
1
60
0
100
AcDbSpline
70
4
71
3
72
28
73
24
40
0
40
0
40
0
40
0
40
0.124999999999998
40
0.124999999999998
40
0.249999999999995
40
0.249999999999995
40
0.374999999999993
40
0.374999999999993
40
0.437499999999992
40
0.437499999999992
40
0.499999999999991
40
0.499999999999991
40
0.624999999999988
40
0.624999999999988
40
0.749999999999985
40
0.749999999999985
40
0.781249999999985
40
0.781249999999985
40
0.812499999999985
40
0.812499999999985
40
0.874999999999986
40
0.874999999999986
40
1
40
1
40
1
40
1
41
1
10
54.0814412893746
20
-5.27619456293357
30
0
41
1
10
54.1397114307242
20
-5.26907367824094
30
0
41
1
10
54.1974237097618
20
-5.26504081886961
30
0
41
1
10
54.3116283851897
20
-5.26286558491978
30
0
41
1
10
54.3681257605911
20
-5.26472634523563
30
0
41
1
10
54.479749089019
20
-5.27431057987235
30
0
41
1
10
54.5348719204875
20
-5.28202834849267
30
0
41
1
10
54.6164360849522
20
-5.29821515655559
30
0
41
1
10
54.6434382586908
20
-5.30438235841945
30
0
41
1
10
54.6970598008391
20
-5.31834087461951
30
0
41
1
10
54.7237176720323
20
-5.32614406318848
30
0
41
1
10
54.802851182127
20
-5.35209236929336
30
0
41
1
10
54.8540325672195
20
-5.37260209301351
30
0
41
1
10
54.9531142942976
20
-5.42077195140999
30
0
41
1
10
55.0010183491418
20
-5.44842060001352
30
0
41
1
10
55.058674543596
20
-5.48837174190336
30
0
41
1
10
55.070094061374
20
-5.49663394363316
30
0
41
1
10
55.0927027972084
20
-5.51373701561303
30
0
41
1
10
55.1039100215098
20
-5.52259304358185
30
0
41
1
10
55.1370274106257
20
-5.5499673375233
30
0
41
1
10
55.1584080099596
20
-5.56926223399651
30
0
41
1
10
55.2203669899286
20
-5.63058704111916
30
0
41
1
10
55.2587864525395
20
-5.67601597632765
30
0
41
1
10
55.2938768546728
20
-5.72725331369952
30
0
0
SPLINE
5
117
100
AcDbEntity
8
1
62
256
6
ByLayer
370
18
48
1
60
0
100
AcDbSpline
70
4
71
3
72
12
73
8
40
0
40
0
40
0
40
0
40
0.249999999999999
40
0.249999999999999
40
0.499999999999999
40
0.499999999999999
40
1
40
1
40
1
40
1
41
1
10
55.2938768546728
20
-5.72725331369955
30
0
41
1
10
55.3125365906313
20
-5.75449937326144
30
0
41
1
10
55.3312561027838
20
-5.78191101777531
30
0
41
1
10
55.3685793099853
20
-5.83623092142929
30
0
41
1
10
55.3872075725643
20
-5.86322481541873
30
0
41
1
10
55.4430232102675
20
-5.94380680559738
30
0
41
1
10
55.4801273487169
20
-5.99694474942578
30
0
41
1
10
55.5171337321631
20
-6.04949712976384
30
0
0
SPLINE
5
118
100
AcDbEntity
8
1
62
256
6
ByLayer
370
18
48
1
60
0
100
AcDbSpline
70
4
71
3
72
8
73
4
40
0
40
0
40
0
40
0
40
1
40
1
40
1
40
1
41
1
10
55.5171337321724
20
-6.04949712975204
30
0
41
1
10
55.5597941501441
20
-5.96633533725279
30
0
41
1
10
55.6025618582815
20
-5.88289017125328
30
0
41
1
10
55.6454602227432
20
-5.79916120287845
30
0
0
SPLINE
5
119
100
AcDbEntity
8
1
62
256
6
ByLayer
370
18
48
1
60
0
100
AcDbSpline
70
4
71
3
72
32
73
28
40
0
40
0
40
0
40
0
40
0.125000000000009
40
0.125000000000009
40
0.187500000000035
40
0.187500000000035
40
0.250000000000061
40
0.250000000000061
40
0.375000000000113
40
0.375000000000113
40
0.43750000000014
40
0.43750000000014
40
0.500000000000166
40
0.500000000000166
40
0.625000000000165
40
0.625000000000165
40
0.687500000000138
40
0.687500000000138
40
0.75000000000011
40
0.75000000000011
40
0.812500000000083
40
0.812500000000083
40
0.875000000000055
40
0.875000000000055
40
0.937500000000028
40
0.937500000000028
40
1
40
1
40
1
40
1
41
1
10
55.6454602227432
20
-5.79916120287845
30
0
41
1
10
55.6562391735956
20
-5.7781228615253
30
0
41
1
10
55.6688197540539
20
-5.75917444914478
30
0
41
1
10
55.6897168400035
20
-5.73309440308932
30
0
41
1
10
55.6970289436626
20
-5.72480179494616
30
0
41
1
10
55.7123071781113
20
-5.70897402317954
30
0
41
1
10
55.7201920830503
20
-5.70152679679339
30
0
41
1
10
55.7443083957142
20
-5.68064962625598
30
0
41
1
10
55.7610843218198
20
-5.66857279181968
30
0
41
1
10
55.7872052034824
20
-5.65303065845075
30
0
41
1
10
55.7961099475564
20
-5.64826699021933
30
0
41
1
10
55.8140697958947
20
-5.63971566820169
30
0
41
1
10
55.8230832515431
20
-5.63594309426566
30
0
41
1
10
55.8502145450335
20
-5.62611539314659
30
0
41
1
10
55.8684223033054
20
-5.62152552936018
30
0
41
1
10
55.8958950396533
20
-5.61791058704077
30
0
41
1
10
55.9051239132903
20
-5.61726013487933
30
0
41
1
10
55.9232645362891
20
-5.61719405685179
30
0
41
1
10
55.9322068532952
20
-5.61776844149861
30
0
41
1
10
55.9498079376078
20
-5.62023284414252
30
0
41
1
10
55.9584670382644
20
-5.62212136626093
30
0
41
1
10
55.9754550116748
20
-5.62740797729219
30
0
41
1
10
55.9837687438418
20
-5.63081661426693
30
0
41
1
10
55.9995126534846
20
-5.63916188946772
30
0
41
1
10
56.0070046601648
20
-5.64411206293241
30
0
41
1
10
56.021104189247
20
-5.655825493777
30
0
41
1
10
56.0277162728864
20
-5.66261652584151
30
0
41
1
10
56.033610811699
20
-5.67029634820591
30
0
0
SPLINE
5
11A
100
AcDbEntity
8
1
62
256
6
ByLayer
370
18
48
1
60
0
100
AcDbSpline
70
4
71
3
72
10
73
6
40
0
40
0
40
0
40
0
40
0.5
40
0.5
40
1
40
1
40
1
40
1
41
1
10
56.0336108117026
20
-5.67029634821409
30
0
41
1
10
56.1180950292838
20
-5.78036836645174
30
0
41
1
10
56.2021428929921
20
-5.887199765855
30
0
41
1
10
56.3693612719389
20
-6.09420625593859
30
0
41
1
10
56.452492074578
20
-6.19433711817018
30
0
41
1
10
56.5351951138359
20
-6.29107968087183
30
0
0
SPLINE
5
11B
100
AcDbEntity
8
1
62
256
6
ByLayer
370
18
48
1
60
0
100
AcDbSpline
70
4
71
3
72
8
73
4
40
0
40
0
40
0
40
0
40
1
40
1
40
1
40
1
41
1
10
56.6851204857675
20
-6.22293548078125
30
0
41
1
10
56.6351248120423
20
-6.24609304593486
30
0
41
1
10
56.5851505151117
20
-6.2688082671493
30
0
41
1
10
56.5351951138359
20
-6.29107968087186
30
0
0
SPLINE
5
11C
100
AcDbEntity
8
1
62
256
6
ByLayer
370
18
48
1
60
0
100
AcDbSpline
70
4
71
3
72
10
73
6
40
0
40
0
40
0
40
0
40
0.5
40
0.5
40
1
40
1
40
1
40
1
41
1
10
56.6851204857668
20
-6.2229354807682
30
0
41
1
10
56.7694592234716
20
-6.05120574044841
30
0
41
1
10
56.8542188793899
20
-5.87909905823099
30
0
41
1
10
57.0247439887232
20
-5.53424091594394
30
0
41
1
10
57.1103636253617
20
-5.36175041039218
30
0
41
1
10
57.1964783779682
20
-5.18926195813964
30
0
0
SPLINE
5
11D
100
AcDbEntity
8
1
62
256
6
ByLayer
370
18
48
1
60
0
100
AcDbSpline
70
4
71
3
72
24
73
20
40
0
40
0
40
0
40
0
40
0.176553390557618
40
0.176553390557618
40
0.264830085836455
40
0.264830085836455
40
0.353106781115292
40
0.353106781115292
40
0.529660171672961
40
0.529660171672961
40
0.617936866951794
40
0.617936866951794
40
0.706213562230626
40
0.706213562230626
40
0.882766952788288
40
0.882766952788288
40
0.971043648067158
40
0.971043648067158
40
1
40
1
40
1
40
1
41
1
10
57.1964783779682
20
-5.18926195813961
30
0
41
1
10
57.2072515455323
20
-5.16768322809929
30
0
41
1
10
57.2198256332184
20
-5.1477368041507
30
0
41
1
10
57.2407124843626
20
-5.11964952689297
30
0
41
1
10
57.2480210803973
20
-5.110600470056
30
0
41
1
10
57.2632921453317
20
-5.0930943754058
30
0
41
1
10
57.2711743813826
20
-5.08473292141596
30
0
41
1
10
57.2952818944665
20
-5.06093561937411
30
0
41
1
10
57.3120522851229
20
-5.04666649381917
30
0
41
1
10
57.3381660074299
20
-5.02748735823567
30
0
41
1
10
57.3470681909862
20
-5.02144735009205
30
0
41
1
10
57.3650260651052
20
-5.01024580046709
30
0
41
1
10
57.3740387795823
20
-5.00510670088352
30
0
41
1
10
57.4011687078375
20
-4.99105477577109
30
0
41
1
10
57.4193766684536
20
-4.98348471073422
30
0
41
1
10
57.4468522114933
20
-4.97511725094495
30
0
41
1
10
57.4560831294607
20
-4.97282646496615
30
0
41
1
10
57.4681327006311
20
-4.97057764738921
30
0
41
1
10
57.471095161252
20
-4.97008489977327
30
0
41
1
10
57.4740433704974
20
-4.96965653771528
30
0
0
SPLINE
5
11E
100
AcDbEntity
8
1
62
256
6
ByLayer
370
18
48
1
60
0
100
AcDbSpline
70
4
71
3
72
8
73
4
40
0
40
0
40
0
40
0
40
1
40
1
40
1
40
1
41
1
10
58.2356608670447
20
-5.36825480085193
30
0
41
1
10
58.2476281874724
20
-5.34368634956286
30
0
41
1
10
58.2596046503627
20
-5.31913395580889
30
0
41
1
10
58.2715905418705
20
-5.29459781230457
30
0
0
SPLINE
5
11F
100
AcDbEntity
8
1
62
256
6
ByLayer
370
18
48
1
60
0
100
AcDbSpline
70
4
71
3
72
8
73
4
40
0
40
0
40
0
40
0
40
1
40
1
40
1
40
1
41
1
10
68.7538567286144
20
-1.85209116703155
30
0
41
1
10
68.6825996982282
20
-1.86004324106202
30
0
41
1
10
68.6115923089752
20
-1.86436154790448
30
0
41
1
10
68.5408615614161
20
-1.86512649513506
30
0
0
SPLINE
5
120
100
AcDbEntity
8
1
62
256
6
ByLayer
370
18
48
1
60
0
100
AcDbSpline
70
4
71
3
72
8
73
4
40
0
40
0
40
0
40
0
40
1
40
1
40
1
40
1
41
1
10
68.5408615614161
20
-1.8651264951352
30
0
41
1
10
68.3301350331251
20
-1.71093503094548
30
0
41
1
10
68.1211567398932
20
-1.55122042846847
30
0
41
1
10
67.9134878200899
20
-1.38638119999794
30
0
0
SPLINE
5
121
100
AcDbEntity
8
1
62
256
6
ByLayer
370
18
48
1
60
0
100
AcDbSpline
70
4
71
3
72
10
73
6
40
0
40
0
40
0
40
0
40
0.5
40
0.5
40
1
40
1
40
1
40
1
41
1
10
67.9134878200899
20
-1.38638119999794
30
0
41
1
10
67.86002852399
20
-1.298798773155
30
0
41
1
10
67.8063961780855
20
-1.2126322350781
30
0
41
1
10
67.6988818430657
20
-1.04341897986515
30
0
41
1
10
67.6449826919289
20
-0.960343090690486
30
0
41
1
10
67.5909149925353
20
-0.878818485478178
30
0
0
SPLINE
5
122
100
AcDbEntity
8
1
62
256
6
ByLayer
370
18
48
1
60
0
100
AcDbSpline
70
4
71
3
72
32
73
28
40
0
40
0
40
0
40
0
40
0.125000000000021
40
0.125000000000021
40
0.187500000000011
40
0.187500000000011
40
0.250000000000002
40
0.250000000000002
40
0.37500000000003
40
0.37500000000003
40
0.500000000000058
40
0.500000000000058
40
0.625000000000086
40
0.625000000000086
40
0.687500000000071
40
0.687500000000071
40
0.750000000000056
40
0.750000000000056
40
0.812500000000041
40
0.812500000000041
40
0.875000000000026
40
0.875000000000026
40
0.937500000000011
40
0.937500000000011
40
0.968750000000006
40
0.968750000000006
40
1
40
1
40
1
40
1
41
1
10
67.5909149925352
20
-0.878818485478149
30
0
41
1
10
67.580482032391
20
-0.863087411907429
30
0
41
1
10
67.5683377651872
20
-0.846930518009145
30
0
41
1
10
67.548132694944
20
-0.822220508797329
30
0
41
1
10
67.5410588393665
20
-0.813902442778755
30
0
41
1
10
67.5262652051897
20
-0.797110731514323
30
0
41
1
10
67.5186258107377
20
-0.788729328563619
30
0
41
1
10
67.4951752329636
20
-0.763770535781362
30
0
41
1
10
67.478779333622
20
-0.747310127286084
30
0
41
1
10
67.4445526653194
20
-0.714702325729803
30
0
41
1
10
67.4265813122117
20
-0.698446326422726
30
0
41
1
10
67.3904826399068
20
-0.667417645774947
30
0
41
1
10
67.3722277296193
20
-0.652510192216681
30
0
41
1
10
67.3445353429505
20
-0.631136939393059
30
0
41
1
10
67.3352234296333
20
-0.624157868387641
30
0
41
1
10
67.3166124290031
20
-0.610665135644837
30
0
41
1
10
67.3074250202659
20
-0.604231105492715
30
0
41
1
10
67.2893144810943
20
-0.592036616030271
30
0
41
1
10
67.2803910075239
20
-0.586275300366481
30
0
41
1
10
67.2628558240362
20
-0.575526158694146
30
0
41
1
10
67.2542346859946
20
-0.570538974700241
30
0
41
1
10
67.2379230245398
20
-0.561788577149997
30
0
41
1
10
67.230162677172
20
-0.557979759135094
30
0
41
1
10
67.219219124214
20
-0.553264099335934
30
0
41
1
10
67.2156792650705
20
-0.551857188942535
30
0
41
1
10
67.2089627644382
20
-0.549452046476148
30
0
41
1
10
67.2057739690998
20
-0.548447871334929
30
0
41
1
10
67.2027657625007
20
-0.547655887380131
30
0
0
SPLINE
5
123
100
AcDbEntity
8
1
62
256
6
ByLayer
370
18
48
1
60
0
100
AcDbSpline
70
4
71
3
72
10
73
6
40
0
40
0
40
0
40
0
40
0.5
40
0.5
40
1
40
1
40
1
40
1
41
1
10
67.2027657625007
20
-0.547655887380159
30
0
41
1
10
67.1187794962106
20
-0.525544448842368
30
0
41
1
10
67.035143096315
20
-0.49838310414566
30
0
41
1
10
66.8686405132143
20
-0.434354499356175
30
0
41
1
10
66.7858110837425
20
-0.39750274639087
30
0
41
1
10
66.7033825304416
20
-0.355981018993503
30
0
0
SPLINE
5
124
100
AcDbEntity
8
1
62
256
6
ByLayer
370
18
48
1
60
0
100
AcDbSpline
70
4
71
3
72
8
73
4
40
0
40
0
40
0
40
0
40
1
40
1
40
1
40
1
41
1
10
66.5543590771174
20
-0.210620679809352
30
0
41
1
10
66.6040397233246
20
-0.259098851303463
30
0
41
1
10
66.6537125341377
20
-0.3075540050217
30
0
41
1
10
66.7033825304416
20
-0.355981018993532
30
0
0
SPLINE
5
125
100
AcDbEntity
8
1
62
256
6
ByLayer
370
18
48
1
60
0
100
AcDbSpline
70
4
71
3
72
10
73
6
40
0
40
0
40
0
40
0
40
0.5
40
0.5
40
1
40
1
40
1
40
1
41
1
10
66.5543590771174
20
-0.210620679809352
30
0
41
1
10
66.4693635959614
20
-0.0915148042704459
30
0
41
1
10
66.3840278282514
20
0.0232426156213137
30
0
41
1
10
66.2124562266032
20
0.24380652391099
30
0
41
1
10
66.1263514364825
20
0.349445364806513
30
0
41
1
10
66.0398047626681
20
0.450304375294678
30
0
0
SPLINE
5
126
100
AcDbEntity
8
1
62
256
6
ByLayer
370
18
48
1
60
0
100
AcDbSpline
70
4
71
3
72
32
73
28
40
0
40
0
40
0
40
0
40
0.125000000000048
40
0.125000000000048
40
0.187500000000053
40
0.187500000000053
40
0.250000000000058
40
0.250000000000058
40
0.37500000000002
40
0.37500000000002
40
0.499999999999982
40
0.499999999999982
40
0.624999999999944
40
0.624999999999944
40
0.687499999999953
40
0.687499999999953
40
0.749999999999962
40
0.749999999999962
40
0.812499999999972
40
0.812499999999972
40
0.874999999999981
40
0.874999999999981
40
0.937499999999991
40
0.937499999999991
40
0.968749999999995
40
0.968749999999995
40
1
40
1
40
1
40
1
41
1
10
66.0398047626681
20
0.450304375293768
30
0
41
1
10
66.0293708214872
20
0.462463790978006
30
0
41
1
10
66.017225390841
20
0.475558528951524
30
0
41
1
10
65.9970179777507
20
0.496260858314713
30
0
41
1
10
65.9899432067706
20
0.503342897813667
30
0
41
1
10
65.9751473137724
20
0.517852901799358
30
0
41
1
10
65.9675061792233
20
0.525201952822641
30
0
41
1
10
65.9440508475065
20
0.547379614543672
30
0
41
1
10
65.9276514278651
20
0.562394864942263
30
0
41
1
10
65.893417201329
20
0.592898593657225
30
0
41
1
10
65.8754423541495
20
0.608499897188608
30
0
41
1
10
65.8393387809008
20
0.639104385943341
30
0
41
1
10
65.8210817990688
20
0.654227533725248
30
0
41
1
10
65.7933880148023
20
0.676657091486845
30
0
41
1
10
65.7840746824348
20
0.684114600585502
30
0
41
1
10
65.765467842679
20
0.698835632574202
30
0
41
1
10
65.756282874579
20
0.706013872218449
30
0
41
1
10
65.7381779938467
20
0.719981051174187
30
0
41
1
10
65.729257739059
20
0.726770483574796
30
0
41
1
10
65.7117298178169
20
0.739905560294233
30
0
41
1
10
65.7031133201932
20
0.746255600307933
30
0
41
1
10
65.6868110709715
20
0.758027707613593
30
0
41
1
10
65.6790555422841
20
0.763503101481405
30
0
41
1
10
65.6681191698258
20
0.770993369412082
30
0
41
1
10
65.6645815944742
20
0.773374495308985
30
0
41
1
10
65.6578690866616
20
0.777799018769656
30
0
41
1
10
65.6546821331873
20
0.779850903532719
30
0
41
1
10
65.6516755857221
20
0.781731174169323
30
0
0
SPLINE
5
127
100
AcDbEntity
8
1
62
256
6
ByLayer
370
18
48
1
60
0
100
AcDbSpline
70
4
71
3
72
10
73
6
40
0
40
0
40
0
40
0
40
0.5
40
0.5
40
1
40
1
40
1
40
1
41
1
10
65.6516755857221
20
0.781731174170062
30
0
41
1
10
65.5677137497143
20
0.834240232040315
30
0
41
1
10
65.4841064977379
20
0.891586137228131
30
0
41
1
10
65.3176693743005
20
1.01543409551942
30
0
41
1
10
65.2348764564492
20
1.0819070349915
30
0
41
1
10
65.1524864726004
20
1.15272102265303
30
0
0
SPLINE
5
128
100
AcDbEntity
8
1
62
256
6
ByLayer
370
18
48
1
60
0
100
AcDbSpline
70
4
71
3
72
8
73
4
40
0
40
0
40
0
40
0
40
1
40
1
40
1
40
1
41
1
10
65.0029202526007
20
1.29651414125513
30
0
41
1
10
65.0527817247783
20
1.24866522299698
30
0
41
1
10
65.1026354717301
20
1.20073248942157
30
0
41
1
10
65.1524864726004
20
1.15272102265305
30
0
0
SPLINE
5
129
100
AcDbEntity
8
1
62
256
6
ByLayer
370
18
48
1
60
0
100
AcDbSpline
70
4
71
3
72
10
73
6
40
0
40
0
40
0
40
0
40
0.5
40
0.5
40
1
40
1
40
1
40
1
41
1
10
65.0029202526007
20
1.29651414125513
30
0
41
1
10
64.9179627826702
20
1.38364678737204
30
0
41
1
10
64.8326729075834
20
1.46581696420657
30
0
41
1
10
64.6612195667227
20
1.62001455455538
30
0
41
1
10
64.5751869775209
20
1.69192832829083
30
0
41
1
10
64.4887322550307
20
1.75854060215687
30
0
0
SPLINE
5
12A
100
AcDbEntity
8
1
62
256
6
ByLayer
370
18
48
1
60
0
100
AcDbSpline
70
4
71
3
72
32
73
28
40
0
40
0
40
0
40
0
40
0.125000000000011
40
0.125000000000011
40
0.187500000000018
40
0.187500000000018
40
0.250000000000025
40
0.250000000000025
40
0.375000000000043
40
0.375000000000043
40
0.50000000000006
40
0.50000000000006
40
0.625000000000077
40
0.625000000000077
40
0.687500000000057
40
0.687500000000057
40
0.750000000000037
40
0.750000000000037
40
0.812500000000018
40
0.812500000000018
40
0.874999999999998
40
0.874999999999998
40
0.937499999999978
40
0.937499999999978
40
0.968749999999989
40
0.968749999999989
40
1
40
1
40
1
40
1
41
1
10
64.4887322550307
20
1.75854060215687
30
0
41
1
10
64.4782966280644
20
1.76658112118722
30
0
41
1
10
64.4661498040871
20
1.77602728819832
30
0
41
1
10
64.4459418594135
20
1.79179841297244
30
0
41
1
10
64.438867175507
20
1.79732913405905
30
0
41
1
10
64.4240720392179
20
1.80891247634116
30
0
41
1
10
64.4164320469179
20
1.81490220052041
30
0
41
1
10
64.3929799823532
20
1.83331537841167
30
0
41
1
10
64.3765835477903
20
1.8462223418143
30
0
41
1
10
64.3423567433771
20
1.8732784791051
30
0
41
1
10
64.3243858657069
20
1.88754045481826
30
0
41
1
10
64.288287958586
20
1.91638337481663
30
0
41
1
10
64.2700333895254
20
1.9310631247985
30
0
41
1
10
64.2423417479442
20
1.95357226014045
30
0
41
1
10
64.2330304234244
20
1.9611813679949
30
0
41
1
10
64.2144194216455
20
1.97649602226397
30
0
41
1
10
64.2052320332761
20
1.98410897604299
30
0
41
1
10
64.1871216493685
20
1.99924635443028
30
0
41
1
10
64.1781983136066
20
2.00677089034704
30
0
41
1
10
64.1606636141579
20
2.02172452322145
30
0
41
1
10
64.1520424304767
20
2.02916399989047
30
0
41
1
10
64.1357309752437
20
2.04345011010486
30
0
41
1
10
64.1279709370873
20
2.0503554908704
30
0
41
1
10
64.1170282015824
20
2.06029556662321
30
0
41
1
10
64.1134885255546
20
2.06354743812833
30
0
41
1
10
64.1067721573272
20
2.069798376612
30
0
41
1
10
64.1035834453996
20
2.07280814820874
30
0
41
1
10
64.1005753310955
20
2.0756940202628
30
0
0
SPLINE
5
12B
100
AcDbEntity
8
1
62
256
6
ByLayer
370
18
48
1
60
0
100
AcDbSpline
70
4
71
3
72
10
73
6
40
0
40
0
40
0
40
0
40
0.5
40
0.5
40
1
40
1
40
1
40
1
41
1
10
64.1005753310955
20
2.07569402026275
30
0
41
1
10
64.0166182992349
20
2.15623924810333
30
0
41
1
10
63.9330114917818
20
2.24113227481072
30
0
41
1
10
63.7665748028756
20
2.41911082219642
30
0
41
1
10
63.6837818724756
20
2.51215157787354
30
0
41
1
10
63.6013920932289
20
2.60902020615464
30
0
0
SPLINE
5
12C
100
AcDbEntity
8
1
62
256
6
ByLayer
370
18
48
1
60
0
100
AcDbSpline
70
4
71
3
72
10
73
6
40
0
40
0
40
0
40
0
40
0.5
40
0.5
40
1
40
1
40
1
40
1
41
1
10
63.4523723589238
20
2.74366935172392
30
0
41
1
10
63.3673445291543
20
2.79501642605524
30
0
41
1
10
63.2819689621586
20
2.84100707994784
30
0
41
1
10
63.1103249208703
20
2.92208489472122
30
0
41
1
10
63.0241867800747
20
2.95710996408943
30
0
41
1
10
62.9376247936618
20
2.98651289316982
30
0
0
SPLINE
5
12D
100
AcDbEntity
8
1
62
256
6
ByLayer
370
18
48
1
60
0
100
AcDbSpline
70
4
71
3
72
32
73
28
40
0
40
0
40
0
40
0
40
0.125000000000003
40
0.125000000000003
40
0.187500000000002
40
0.187500000000002
40
0.250000000000002
40
0.250000000000002
40
0.375000000000002
40
0.375000000000002
40
0.500000000000002
40
0.500000000000002
40
0.625000000000001
40
0.625000000000001
40
0.687500000000001
40
0.687500000000001
40
0.750000000000001
40
0.750000000000001
40
0.812500000000001
40
0.812500000000001
40
0.875000000000001
40
0.875000000000001
40
0.937500000000001
40
0.937500000000001
40
0.96875
40
0.96875
40
1
40
1
40
1
40
1
41
1
10
62.9376247936619
20
2.98651289316982
30
0
41
1
10
62.927181729488
20
2.99006013934579
30
0
41
1
10
62.9150254850459
20
2.99542077024463
30
0
41
1
10
62.8948023003825
20
3.00553340572424
30
0
41
1
10
62.8877223316237
20
3.00925811523197
30
0
41
1
10
62.8729163539727
20
3.01738220411872
30
0
41
1
10
62.8652707221449
20
3.02173807550108
30
0
41
1
10
62.8418032373799
20
3.03554186361529
30
0
41
1
10
62.8253977276566
20
3.04574842610032
30
0
41
1
10
62.7911565109664
20
3.06811638666088
30
0
41
1
10
62.7731816030876
20
3.08038409339895
30
0
41
1
10
62.7370824433441
20
3.10613867012316
30
0
41
1
10
62.7188295578099
20
3.11970005134796
30
0
41
1
10
62.6911444529726
20
3.1412545191879
30
0
41
1
10
62.6818338593764
20
3.14866869496274
30
0
41
1
10
62.663236166989
20
3.16386519865185
30
0
41
1
10
62.6540556452049
20
3.17155942041694
30
0
41
1
10
62.6359592776962
20
3.18716490388002
30
0
41
1
10
62.6270430902463
20
3.19507588421385
30
0
41
1
10
62.6095227924318
20
3.21115570738039
30
0
41
1
10
62.6009097978701
20
3.21933886066077
30
0
41
1
10
62.5846133473474
20
3.2354762444217
30
0
41
1
10
62.576860240717
20
3.24349181952752
30
0
41
1
10
62.5659268389986
20
3.25542207266534
30
0
41
1
10
62.5623900014658
20
3.25939452498613
30
0
41
1
10
62.5556783831472
20
3.26718407517237
30
0
41
1
10
62.5524917250349
20
3.27101345517764
30
0
41
1
10
62.5494853473201
20
3.27477263729017
30
0
0
SPLINE
5
12E
100
AcDbEntity
8
1
62
256
6
ByLayer
370
18
48
1
60
0
100
AcDbSpline
70
4
71
3
72
10
73
6
40
0
40
0
40
0
40
0
40
0.5
40
0.5
40
1
40
1
40
1
40
1
41
1
10
62.5494853473201
20
3.27477263729014
30
0
41
1
10
62.4655821776501
20
3.37968536767033
30
0
41
1
10
62.3820300233262
20
3.48826255529264
30
0
41
1
10
62.2156983694773
20
3.71218458570476
30
0
41
1
10
62.1329558125043
20
3.82747822129988
30
0
41
1
10
62.0506164038614
20
3.94590009235031
30
0
0
SPLINE
5
12F
100
AcDbEntity
8
1
62
256
6
ByLayer
370
18
48
1
60
0
100
AcDbSpline
70
4
71
3
72
10
73
6
40
0
40
0
40
0
40
0
40
0.5
40
0.5
40
1
40
1
40
1
40
1
41
1
10
61.9009775130665
20
4.06629677847937
30
0
41
1
10
61.8160104227281
20
4.07941276517391
30
0
41
1
10
61.7306920414979
20
4.08701140747931
30
0
41
1
10
61.5591481297078
20
4.09101736492505
30
0
41
1
10
61.4730532292006
20
4.08742173667389
30
0
41
1
10
61.3865291693812
20
4.07815378428848
30
0
0
SPLINE
5
130
100
AcDbEntity
8
1
62
256
6
ByLayer
370
18
48
1
60
0
100
AcDbSpline
70
4
71
3
72
32
73
28
40
0
40
0
40
0
40
0
40
0.124999999999998
40
0.124999999999998
40
0.187499999999997
40
0.187499999999997
40
0.249999999999996
40
0.249999999999996
40
0.374999999999996
40
0.374999999999996
40
0.499999999999997
40
0.499999999999997
40
0.624999999999997
40
0.624999999999997
40
0.687499999999997
40
0.687499999999997
40
0.749999999999998
40
0.749999999999998
40
0.812499999999998
40
0.812499999999998
40
0.874999999999999
40
0.874999999999999
40
0.937499999999999
40
0.937499999999999
40
0.96875
40
0.96875
40
1
40
1
40
1
40
1
41
1
10
61.3865291693812
20
4.07815378428848
30
0
41
1
10
61.3760868211457
20
4.07703526088076
30
0
41
1
10
61.3639312045257
20
4.07805225057461
30
0
41
1
10
61.3437086810229
20
4.08202252532442
30
0
41
1
10
61.3366288885556
20
4.08376338904768
30
0
41
1
10
61.3218231704127
20
4.08804113147997
30
0
41
1
10
61.314177698324
20
4.09055588252764
30
0
41
1
10
61.2907103505043
20
4.09909561942692
30
0
41
1
10
61.2743046516855
20
4.10611984032707
30
0
41
1
10
61.2400628093596
20
4.12274767642077
30
0
41
1
10
61.2220875658994
20
4.13244712920283
30
0
41
1
10
61.1859879435018
20
4.15391331150636
30
0
41
1
10
61.1677348356753
20
4.16572596331307
30
0
41
1
10
61.1400493278125
20
4.18532651578891
30
0
41
1
10
61.1307384527433
20
4.19220081702224
30
0
41
1
10
61.1121407751168
20
4.20658133208534
30
0
41
1
10
61.1029601904537
20
4.21400362183067
30
0
41
1
10
61.0848634819531
20
4.22936128409648
30
0
41
1
10
61.0759470128799
20
4.23729599331691
30
0
41
1
10
61.0584258523007
20
4.25376549553522
30
0
41
1
10
61.0498124125376
20
4.26231860804057
30
0
41
1
10
61.03351477077
20
4.27957048089979
30
0
41
1
10
61.025760913884
20
4.28833043781731
30
0
41
1
10
61.0148261743093
20
4.30170680862599
30
0
41
1
10
61.0112888884083
20
4.30621862258897
30
0
41
1
10
61.0045764072492
20
4.31519105426776
30
0
41
1
10
61.0013893010141
20
4.31966513528661
30
0
41
1
10
60.9983824700249
20
4.3241259157852
30
0
0
SPLINE
5
131
100
AcDbEntity
8
1
62
256
6
ByLayer
370
18
48
1
60
0
100
AcDbSpline
70
4
71
3
72
10
73
6
40
0
40
0
40
0
40
0
40
0.5
40
0.5
40
1
40
1
40
1
40
1
41
1
10
60.9983824700249
20
4.3241259157852
30
0
41
1
10
60.9144080376172
20
4.44870608401553
30
0
41
1
10
60.8307860637654
20
4.57612500498087
30
0
41
1
10
60.6643170349693
20
4.83604396443837
30
0
41
1
10
60.581506888582
20
4.96848483376203
30
0
41
1
10
60.4991000718695
20
5.1031940461117
30
0
0
SPLINE
5
132
100
AcDbEntity
8
1
62
256
6
ByLayer
370
18
48
1
60
0
100
AcDbSpline
70
4
71
3
72
10
73
6
40
0
40
0
40
0
40
0
40
0.5
40
0.5
40
1
40
1
40
1
40
1
41
1
10
60.3494020744069
20
5.20329292928648
30
0
41
1
10
60.2644884049659
20
5.17766472064648
30
0
41
1
10
60.1792518635894
20
5.14663065000241
30
0
41
1
10
60.0078885217576
20
5.07357256985247
30
0
41
1
10
59.9218898482415
20
5.03159348894914
30
0
41
1
10
59.8354593865589
20
4.98412267310493
30
0
0
SPLINE
5
133
100
AcDbEntity
8
1
62
256
6
ByLayer
370
18
48
1
60
0
100
AcDbSpline
70
4
71
3
72
32
73
28
40
0
40
0
40
0
40
0
40
0.125000000000042
40
0.125000000000042
40
0.187500000000042
40
0.187500000000042
40
0.250000000000043
40
0.250000000000043
40
0.375000000000043
40
0.375000000000043
40
0.500000000000044
40
0.500000000000044
40
0.625000000000045
40
0.625000000000045
40
0.687500000000045
40
0.687500000000045
40
0.750000000000045
40
0.750000000000045
40
0.812500000000046
40
0.812500000000046
40
0.875000000000046
40
0.875000000000046
40
0.937500000000047
40
0.937500000000047
40
0.968750000000023
40
0.968750000000023
40
1
40
1
40
1
40
1
41
1
10
59.8354593865589
20
4.98412267310493
30
0
41
1
10
59.8250201145423
20
4.97838903765049
30
0
41
1
10
59.8128679792071
20
4.97501236809217
30
0
41
1
10
59.7926505024274
20
4.97265038901824
30
0
41
1
10
59.7855723745236
20
4.97232448757507
30
0
41
1
10
59.7707699001849
20
4.97255265865451
30
0
41
1
10
59.7631259896681
20
4.97310707078779
30
0
41
1
10
59.7396626422252
20
4.97597857041097
30
0
41
1
10
59.7232588280213
20
4.97948870151396
30
0
41
1
10
59.6890192244684
20
4.98959277396804
30
0
41
1
10
59.6710439529797
20
4.99626778662255
30
0
41
1
10
59.6349425316689
20
5.01243843568076
30
0
41
1
10
59.616687940681
20
5.02194901372897
30
0
41
1
10
59.588999258012
20
5.03867938962617
30
0
41
1
10
59.5796877191667
20
5.04469225094172
30
0
41
1
10
59.5610855760222
20
5.05758737803001
30
0
41
1
10
59.5519027193409
20
5.06439254006656
30
0
41
1
10
59.5338013584768
20
5.07878885154346
30
0
41
1
10
59.5248825007916
20
5.08637898630016
30
0
41
1
10
59.5073564978051
20
5.10247462229097
30
0
41
1
10
59.498740386647
20
5.11100190075339
30
0
41
1
10
59.4824377718612
20
5.12857066930883
30
0
41
1
10
59.4746815699611
20
5.13767037711591
30
0
41
1
10
59.4637435712277
20
5.15187567775754
30
0
41
1
10
59.4602052908459
20
5.15671876514474
30
0
41
1
10
59.4534911262694
20
5.166460324919
30
0
41
1
10
59.4503032690641
20
5.17137286444043
30
0
41
1
10
59.4472957768001
20
5.17632969772404
30
0
0
SPLINE
5
134
100
AcDbEntity
8
1
62
256
6
ByLayer
370
18
48
1
60
0
100
AcDbSpline
70
4
71
3
72
10
73
6
40
0
40
0
40
0
40
0
40
0.5
40
0.5
40
1
40
1
40
1
40
1
41
1
10
59.4472957768001
20
5.17632969772402
30
0
41
1
10
59.3632798998489
20
5.31480144051224
30
0
41
1
10
59.2796168591571
20
5.45515904232894
30
0
41
1
10
59.1130665469749
20
5.73904674277995
30
0
41
1
10
59.030216319167
20
5.88251236659465
30
0
41
1
10
58.9477693135509
20
6.02729241659114
30
0
0
SPLINE
5
135
100
AcDbEntity
8
1
62
256
6
ByLayer
370
18
48
1
60
0
100
AcDbSpline
70
4
71
3
72
10
73
6
40
0
40
0
40
0
40
0
40
0.5
40
0.5
40
1
40
1
40
1
40
1
41
1
10
58.798675976624
20
6.10217556319949
30
0
41
1
10
58.7137086931628
20
6.03892141171011
30
0
41
1
10
58.6284024695361
20
5.97064894380719
30
0
41
1
10
58.4568968758161
20
5.82393248043562
30
0
41
1
10
58.3708293434357
20
5.74560426882084
30
0
41
1
10
58.284322967236
20
5.6622102572411
30
0
0
SPLINE
5
136
100
AcDbEntity
8
1
62
256
6
ByLayer
370
18
48
1
60
0
100
AcDbSpline
70
4
71
3
72
32
73
28
40
0
40
0
40
0
40
0
40
0.125000000000012
40
0.125000000000012
40
0.187500000000018
40
0.187500000000018
40
0.250000000000025
40
0.250000000000025
40
0.374999999999992
40
0.374999999999992
40
0.499999999999959
40
0.499999999999959
40
0.624999999999926
40
0.624999999999926
40
0.687499999999938
40
0.687499999999938
40
0.749999999999951
40
0.749999999999951
40
0.812499999999963
40
0.812499999999963
40
0.874999999999975
40
0.874999999999975
40
0.937499999999988
40
0.937499999999988
40
0.968749999999994
40
0.968749999999994
40
1
40
1
40
1
40
1
41
1
10
58.284322967236
20
5.6622102572411
30
0
41
1
10
58.2738833443913
20
5.65214623575915
30
0
41
1
10
58.2617310092799
20
5.64455657804501
30
0
41
1
10
58.2415130452298
20
5.63601171249459
30
0
41
1
10
58.2344347145937
20
5.63364810243476
30
0
41
1
10
58.2196315910559
20
5.6298450275556
30
0
41
1
10
58.2119868247327
20
5.62842812537627
30
0
41
1
10
58.1885212467181
20
5.62554300538173
30
0
41
1
10
58.1721154477233
20
5.62540681881887
30
0
41
1
10
58.1378704341471
20
5.62858061095974
30
0
41
1
10
58.1198919693236
20
5.63195324818884
30
0
41
1
10
58.0837855218482
20
5.64214001854583
30
0
41
1
10
58.0655286682986
20
5.64893794467693
30
0
41
1
10
58.0378381476603
20
5.66206741569511
30
0
41
1
10
58.0285253378331
20
5.66695597935879
30
0
41
1
10
58.0099259871455
20
5.67779423083627
30
0
41
1
10
58.0007449427931
20
5.68367935240951
30
0
41
1
10
57.9826481661044
20
5.69647056005962
30
0
41
1
10
57.9737320852279
20
5.7033753395676
30
0
41
1
10
57.9562126511912
20
5.71837094963854
30
0
41
1
10
57.947600598576
20
5.72648555541687
30
0
41
1
10
57.9313065078291
20
5.74357050563077
30
0
41
1
10
57.9235548127861
20
5.75259347867714
30
0
41
1
10
57.9126236666536
20
5.76697417987154
30
0
41
1
10
57.9090875333835
20
5.77192543609596
30
0
41
1
10
57.9023770545056
20
5.78198726077613
30
0
41
1
10
57.8991909168876
20
5.7871115291326
30
0
41
1
10
57.8961849904763
20
5.79233523425091
30
0
0
SPLINE
5
137
100
AcDbEntity
8
1
62
256
6
ByLayer
370
18
48
1
60
0
100
AcDbSpline
70
4
71
3
72
10
73
6
40
0
40
0
40
0
40
0
40
0.5
40
0.5
40
1
40
1
40
1
40
1
41
1
10
57.8961849904763
20
5.79233523425091
30
0
41
1
10
57.812174862348
20
5.93832820820711
30
0
41
1
10
57.7285218526834
20
6.0851648584048
30
0
41
1
10
57.5619972469595
20
6.37995569101872
30
0
41
1
10
57.4791629557984
20
6.52784299254623
30
0
41
1
10
57.3967328573158
20
6.67603485368238
30
0
0
SPLINE
5
138
100
AcDbEntity
8
1
62
256
6
ByLayer
370
18
48
1
60
0
100
AcDbSpline
70
4
71
3
72
10
73
6
40
0
40
0
40
0
40
0
40
0.5
40
0.5
40
1
40
1
40
1
40
1
41
1
10
57.2473109924875
20
6.72279142892697
30
0
41
1
10
57.1623596625908
20
6.6248355260565
30
0
41
1
10
57.0770764662235
20
6.52243731369134
30
0
41
1
10
56.9056361648206
20
6.30869801834251
30
0
41
1
10
56.8196091059193
20
6.19751920734723
30
0
41
1
10
56.7331560967899
20
6.08199152804002
30
0
0
SPLINE
5
139
100
AcDbEntity
8
1
62
256
6
ByLayer
370
18
48
1
60
0
100
AcDbSpline
70
4
71
3
72
32
73
28
40
0
40
0
40
0
40
0
40
0.125000000000021
40
0.125000000000021
40
0.187500000000031
40
0.187500000000031
40
0.250000000000041
40
0.250000000000041
40
0.375000000000063
40
0.375000000000063
40
0.500000000000085
40
0.500000000000085
40
0.625000000000106
40
0.625000000000106
40
0.687500000000089
40
0.687500000000089
40
0.750000000000071
40
0.750000000000071
40
0.812500000000053
40
0.812500000000053
40
0.875000000000036
40
0.875000000000036
40
0.937500000000018
40
0.937500000000018
40
0.968750000000009
40
0.968750000000009
40
1
40
1
40
1
40
1
41
1
10
56.7331560967899
20
6.08199152804005
30
0
41
1
10
56.7227149769483
20
6.06803899640673
30
0
41
1
10
56.7105610646026
20
6.05656595338135
30
0
41
1
10
56.6903417168574
20
6.0422048508203
30
0
41
1
10
56.6832630838531
20
6.03790392991095
30
0
41
1
10
56.6684598509559
20
6.03022889140448
30
0
41
1
10
56.6608157481943
20
6.0268987775475
30
0
41
1
10
56.6373523197508
20
6.01836978371389
30
0
41
1
10
56.6209491004405
20
6.01458240699085
30
0
41
1
10
56.5867114501801
20
6.01065965589913
30
0
41
1
10
56.5687377475586
20
6.01056549162664
30
0
41
1
10
56.5326401167585
20
6.01428246202161
30
0
41
1
10
56.514387657642
20
6.01804671966406
30
0
41
1
10
56.4867024940184
20
6.02695898662265
30
0
41
1
10
56.4773920045241
20
6.03049328705657
30
0
41
1
10
56.4587929580157
20
6.03877112030736
30
0
41
1
10
56.4496116321763
20
6.04346351724001
30
0
41
1
10
56.4315133624195
20
6.05405882994594
30
0
41
1
10
56.4225960733962
20
6.05996019964289
30
0
41
1
10
56.4050733365695
20
6.07316751098261
30
0
41
1
10
56.3964588083481
20
6.08049870838474
30
0
41
1
10
56.3801592517381
20
6.09632233020949
30
0
41
1
10
56.3724045657245
20
6.10485931753388
30
0
41
1
10
56.3614687819293
20
6.11876602190887
30
0
41
1
10
56.357931109756
20
6.12360208313638
30
0
41
1
10
56.351217794769
20
6.13353019128056
30
0
41
1
10
56.3480303027088
20
6.13863526637871
30
0
41
1
10
56.3450231142873
20
6.14389075933289
30
0
0
SPLINE
5
13A
100
AcDbEntity
8
1
62
256
6
ByLayer
370
18
48
1
60
0
100
AcDbSpline
70
4
71
3
72
10
73
6
40
0
40
0
40
0
40
0
40
0.5
40
0.5
40
1
40
1
40
1
40
1
41
1
10
56.3450231142873
20
6.14389075933292
30
0
41
1
10
56.2643400836737
20
6.28489592411518
30
0
41
1
10
56.183981881997
20
6.42567221747777
30
0
41
1
10
56.0239892229343
20
6.70631424223933
30
0
41
1
10
55.9443795004957
20
6.84613650647944
30
0
41
1
10
55.8651573959721
20
6.98528615122726
30
0
0
SPLINE
5
13B
100
AcDbEntity
8
1
62
256
6
ByLayer
370
18
48
1
60
0
100
AcDbSpline
70
4
71
3
72
21
73
17
40
0
40
0
40
0
40
0
40
0.296406094887623
40
0.296406094887623
40
0.444609142331435
40
0.444609142331435
40
0.518710666053341
40
0.518710666053341
40
0.555761427914294
40
0.555761427914294
40
0.592812189775247
40
0.741015237219073
40
0.741015237219073
40
0.889218284662899
40
0.889218284662899
40
1
40
1
40
1
40
1
41
1
10
54.0814412893746
20
5.26552036725451
30
0
41
1
10
53.7079507399957
20
5.21671391682244
30
0
41
1
10
53.3362235160003
20
5.14702372324834
30
0
41
1
10
52.778347082496
20
5.01234788478448
30
0
41
1
10
52.592335380338
20
4.96243637677094
30
0
41
1
10
52.3128628879362
20
4.88021206280789
30
0
41
1
10
52.2196216874675
20
4.85158271540081
30
0
41
1
10
52.0796326280698
20
4.80680236775379
30
0
41
1
10
52.0329335945043
20
4.7915608920228
30
0
41
1
10
51.9396598016055
20
4.76051677102052
30
0
41
1
10
51.7067089964516
20
4.68148287624095
30
0
41
1
10
51.4748254090092
20
4.59542920626765
30
0
41
1
10
51.1047808133143
20
4.44915804778139
30
0
41
1
10
50.9202457900311
20
4.37172554091188
30
0
41
1
10
50.5981358835499
20
4.22936221268944
30
0
41
1
10
50.4604586131323
20
4.16622046031517
30
0
41
1
10
50.3227870525599
20
4.10093706368718
30
0
0
SPLINE
5
13C
100
AcDbEntity
8
1
62
256
6
ByLayer
370
18
48
1
60
0
100
AcDbSpline
70
4
71
3
72
10
73
6
40
0
40
0
40
0
40
0
40
0.5
40
0.5
40
1
40
1
40
1
40
1
41
1
10
66.373632804948
20
-6.03835668159695
30
0
41
1
10
66.4497349301754
20
-6.17431341536531
30
0
41
1
10
66.5254881035704
20
-6.3100699328615
30
0
41
1
10
66.676250257724
20
-6.58080201696336
30
0
41
1
10
66.7512512958611
20
-6.71575712297638
30
0
41
1
10
66.8258680234621
20
-6.85012533412748
30
0
0
SPLINE
5
13D
100
AcDbEntity
8
1
62
256
6
ByLayer
370
18
48
1
60
0
100
AcDbSpline
70
4
71
3
72
10
73
6
40
0
40
0
40
0
40
0
40
0.5
40
0.5
40
1
40
1
40
1
40
1
41
1
10
66.8258680234621
20
-6.85012533412748
30
0
41
1
10
66.8755020734575
20
-6.84683303847012
30
0
41
1
10
66.9252309894601
20
-6.84296289488225
30
0
41
1
10
67.0248892827081
20
-6.83407242653252
30
0
41
1
10
67.0748079908589
20
-6.82905236259285
30
0
41
1
10
67.1247359674311
20
-6.82347267027279
30
0
0
SPLINE
5
13E
100
AcDbEntity
8
1
62
256
6
ByLayer
370
18
48
1
60
0
100
AcDbSpline
70
4
71
3
72
10
73
6
40
0
40
0
40
0
40
0
40
0.5
40
0.5
40
1
40
1
40
1
40
1
41
1
10
67.1247359674311
20
-6.82347267027293
30
0
41
1
10
67.1927677306629
20
-6.72436010947314
30
0
41
1
10
67.26111396696
20
-6.62294705927513
30
0
41
1
10
67.3983639097013
20
-6.41581470593371
30
0
41
1
10
67.4672459436671
20
-6.31013455499556
30
0
41
1
10
67.5364667398222
20
-6.20230042732638
30
0
0
SPLINE
5
13F
100
AcDbEntity
8
1
62
256
6
ByLayer
370
18
48
1
60
0
100
AcDbSpline
70
4
71
3
72
32
73
28
40
0
40
0
40
0
40
0
40
0.125000000000077
40
0.125000000000077
40
0.187500000000093
40
0.187500000000093
40
0.250000000000108
40
0.250000000000108
40
0.37500000000009
40
0.37500000000009
40
0.437500000000081
40
0.437500000000081
40
0.500000000000072
40
0.500000000000072
40
0.625000000000054
40
0.625000000000054
40
0.687500000000045
40
0.687500000000045
40
0.750000000000036
40
0.750000000000036
40
0.812500000000027
40
0.812500000000027
40
0.875000000000018
40
0.875000000000018
40
0.937500000000009
40
0.937500000000009
40
1
40
1
40
1
40
1
41
1
10
67.5364667398222
20
-6.20230042732638
30
0
41
1
10
67.5472864624234
20
-6.18544515531084
30
0
41
1
10
67.5599175364844
20
-6.1713448703392
30
0
41
1
10
67.580892158475
20
-6.15326357683696
30
0
41
1
10
67.5882305388468
20
-6.1477619753972
30
0
41
1
10
67.603561329187
20
-6.13775113449336
30
0
41
1
10
67.611471645669
20
-6.13329933375215
30
0
41
1
10
67.6356559373696
20
-6.12156835196689
30
0
41
1
10
67.652468147573
20
-6.1158322580736
30
0
41
1
10
67.6786306419394
20
-6.11014277033055
30
0
41
1
10
67.6875487821069
20
-6.10873475248866
30
0
41
1
10
67.7055175392786
20
-6.10694941668274
30
0
41
1
10
67.7145331325515
20
-6.10657055250277
30
0
41
1
10
67.7416635662342
20
-6.10695881083532
30
0
41
1
10
67.7598609208187
20
-6.10922516084275
30
0
41
1
10
67.7873044697411
20
-6.1159854461564
30
0
41
1
10
67.7965162288761
20
-6.11882432731835
30
0
41
1
10
67.8146102354728
20
-6.12562764573127
30
0
41
1
10
67.8235287243239
20
-6.12959576728031
30
0
41
1
10
67.8410805255511
20
-6.13876113814405
30
0
41
1
10
67.8497142142217
20
-6.14395701786805
30
0
41
1
10
67.8666495566767
20
-6.15575997556348
30
0
41
1
10
67.8749344291966
20
-6.16237071257206
30
0
41
1
10
67.8906249157691
20
-6.17681585487131
30
0
41
1
10
67.8980914797052
20
-6.18468711049658
30
0
41
1
10
67.912143939962
20
-6.20193973258088
30
0
41
1
10
67.9187385886248
20
-6.21135618192824
30
0
41
1
10
67.9246219338852
20
-6.22140928519187
30
0
0
SPLINE
5
140
100
AcDbEntity
8
1
62
256
6
ByLayer
370
18
48
1
60
0
100
AcDbSpline
70
4
71
3
72
8
73
4
40
0
40
0
40
0
40
0
40
1
40
1
40
1
40
1
41
1
10
67.9246219338879
20
-6.22140928519678
30
0
41
1
10
68.0048573522214
20
-6.35851069778627
30
0
41
1
10
68.0847034857071
20
-6.49444999435946
30
0
41
1
10
68.1641451798256
20
-6.62903068857381
30
0
0
SPLINE
5
141
100
AcDbEntity
8
1
62
256
6
ByLayer
370
18
48
1
60
0
100
AcDbSpline
70
4
71
3
72
12
73
8
40
0
40
0
40
0
40
0
40
0.499999999999987
40
0.499999999999987
40
0.749999999999994
40
0.749999999999994
40
1
40
1
40
1
40
1
41
1
10
68.1641451798256
20
-6.62903068857378
30
0
41
1
10
68.2979685172517
20
-6.59411708048458
30
0
41
1
10
68.4324755059581
20
-6.55531411135317
30
0
41
1
10
68.6353429912984
20
-6.49134926354918
30
0
41
1
10
68.7031721419732
20
-6.4690584803856
30
0
41
1
10
68.838859306349
20
-6.42269310790849
30
0
41
1
10
68.9067602222418
20
-6.39860567516396
30
0
41
1
10
68.9747292273701
20
-6.37362797424353
30
0
0
SPLINE
5
142
100
AcDbEntity
8
1
62
256
6
ByLayer
370
18
48
1
60
0
100
AcDbSpline
70
4
71
3
72
8
73
4
40
0
40
0
40
0
40
0
40
1
40
1
40
1
40
1
41
1
10
68.9747292273701
20
-6.37362797424353
30
0
41
1
10
69.0122085443604
20
-6.30732316325154
30
0
41
1
10
69.0497731337192
20
-6.24057817911915
30
0
41
1
10
69.0874424769443
20
-6.17337936032928
30
0
0
SPLINE
5
143
100
AcDbEntity
8
1
62
256
6
ByLayer
370
18
48
1
60
0
100
AcDbSpline
70
4
71
3
72
32
73
28
40
0
40
0
40
0
40
0
40
0.124999999999975
40
0.124999999999975
40
0.187499999999942
40
0.187499999999942
40
0.249999999999909
40
0.249999999999909
40
0.374999999999844
40
0.374999999999844
40
0.437499999999838
40
0.437499999999838
40
0.499999999999831
40
0.499999999999831
40
0.624999999999873
40
0.624999999999873
40
0.687499999999894
40
0.687499999999894
40
0.749999999999915
40
0.749999999999915
40
0.812499999999937
40
0.812499999999937
40
0.874999999999958
40
0.874999999999958
40
0.937499999999979
40
0.937499999999979
40
1
40
1
40
1
40
1
41
1
10
69.0874424769443
20
-6.17337936032928
30
0
41
1
10
69.0982704757062
20
-6.15406315610707
30
0
41
1
10
69.1109127703549
20
-6.13727223251371
30
0
41
1
10
69.1319073533843
20
-6.11489960836823
30
0
41
1
10
69.139252946333
20
-6.10792380161016
30
0
41
1
10
69.1545993188584
20
-6.09488173218355
30
0
41
1
10
69.1625195431321
20
-6.08888808948524
30
0
41
1
10
69.1867295623871
20
-6.07250783014402
30
0
41
1
10
69.2035576346717
20
-6.06361951870514
30
0
41
1
10
69.2297419894843
20
-6.05312197932983
30
0
41
1
10
69.2386677428198
20
-6.050090833892
30
0
41
1
10
69.2566452702523
20
-6.04506542539565
30
0
41
1
10
69.2656644399308
20
-6.04307496152842
30
0
41
1
10
69.2928029608961
20
-6.03865062200879
30
0
41
1
10
69.3110021820976
20
-6.03773789102277
30
0
41
1
10
69.3384423544888
20
-6.03976669899728
30
0
41
1
10
69.3476489243874
20
-6.0410279055572
30
0
41
1
10
69.3657255386578
20
-6.04474966979691
30
0
41
1
10
69.3746345972017
20
-6.04720815438944
30
0
41
1
10
69.3921657033633
20
-6.05341925431529
30
0
41
1
10
69.4007881302673
20
-6.05717044839113
30
0
41
1
10
69.4176990403749
20
-6.06615643960032
30
0
41
1
10
69.4259679809443
20
-6.07139612233809
30
0
41
1
10
69.4416277729627
20
-6.08326215398452
30
0
41
1
10
69.4490789816582
20
-6.0899150473976
30
0
41
1
10
69.4631016625986
20
-6.10489560833113
30
0
41
1
10
69.4696824392346
20
-6.11325761718143
30
0
41
1
10
69.4755546574638
20
-6.122386700905
30
0
0
SPLINE
5
144
100
AcDbEntity
8
1
62
256
6
ByLayer
370
18
48
1
60
0
100
AcDbSpline
70
4
71
3
72
8
73
4
40
0
40
0
40
0
40
0
40
1
40
1
40
1
40
1
41
1
10
69.4755546574663
20
-6.12238670091043
30
0
41
1
10
69.4842866755613
20
-6.13596169440669
30
0
41
1
10
69.4930139308151
20
-6.14951254529427
30
0
41
1
10
69.5017364211498
20
-6.16303883641316
30
0
0
SPLINE
5
145
100
AcDbEntity
8
1
62
256
6
ByLayer
370
18
48
1
60
0
100
AcDbSpline
70
4
71
3
72
14
73
10
40
0
40
0
40
0
40
0
40
0.25
40
0.25
40
0.5
40
0.5
40
0.75
40
0.75
40
1
40
1
40
1
40
1
41
1
10
69.5017364211501
20
-6.16303883641331
30
0
41
1
10
69.5758816600977
20
-6.13109149128601
30
0
41
1
10
69.6501407558805
20
-6.09814235117625
30
0
41
1
10
69.7989108632169
20
-6.03027033705462
30
0
41
1
10
69.8734458716932
20
-5.99534592365134
30
0
41
1
10
70.0229714724981
20
-5.92355319537597
30
0
41
1
10
70.0979243411875
20
-5.88668435436028
30
0
41
1
10
70.2484506057005
20
-5.81104377018843
30
0
41
1
10
70.3240414168168
20
-5.77227356448034
30
0
41
1
10
70.3999998677693
20
-5.7325788649303
30
0
0
SPLINE
5
146
100
AcDbEntity
8
1
62
256
6
ByLayer
370
18
48
1
60
0
100
AcDbSpline
70
4
71
3
72
14
73
10
40
0
40
0
40
0
40
0
40
0.25
40
0.25
40
0.5
40
0.5
40
0.75
40
0.75
40
1
40
1
40
1
40
1
41
1
10
70.3999998677693
20
-5.7325788649303
30
0
41
1
10
70.4478711107483
20
-5.67346419515002
30
0
41
1
10
70.4962184372336
20
-5.61392091400592
30
0
41
1
10
70.5939974645208
20
-5.49403819257543
30
0
41
1
10
70.6434597833014
20
-5.43366181486815
30
0
41
1
10
70.7434731964534
20
-5.31235632283833
30
0
41
1
10
70.7940144071117
20
-5.25143796227445
30
0
41
1
10
70.8962225401599
20
-5.12927535620213
30
0
41
1
10
70.9478757136963
20
-5.06809671291978
30
0
41
1
10
71
20
-5.00684612672521
30
0
0
SPLINE
5
147
100
AcDbEntity
8
1
62
256
6
ByLayer
370
18
48
1
60
0
100
AcDbSpline
70
4
71
3
72
25
73
21
40
0
40
0
40
0
40
0
40
0.186846030638491
40
0.186846030638491
40
0.233557538298113
40
0.233557538298113
40
0.280269045957736
40
0.280269045957736
40
0.373692061276981
40
0.373692061276981
40
0.56053809191547
40
0.56053809191547
40
0.74738412255396
40
0.74738412255396
40
0.840807137873204
40
0.840807137873204
40
0.887518645532827
40
0.887518645532827
40
0.934230153192449
40
1
40
1
40
1
40
1
41
1
10
71
20
-5.00684612672521
30
0
41
1
10
71
20
-4.8637445569826
30
0
41
1
10
71
20
-4.72350065865862
30
0
41
1
10
71
20
-4.55203602174652
30
0
41
1
10
71
20
-4.51793426498813
30
0
41
1
10
71
20
-4.45011906075422
30
0
41
1
10
71
20
-4.41634733280412
30
0
41
1
10
71
20
-4.31620340897629
30
0
41
1
10
71
20
-4.250940038583
30
0
41
1
10
71
20
-4.05955815701105
30
0
41
1
10
71
20
-3.93783026683795
30
0
41
1
10
71
20
-3.70590735294817
30
0
41
1
10
71
20
-3.59570864116574
30
0
41
1
10
71
20
-3.43917675664244
30
0
41
1
10
71
20
-3.38846102643285
30
0
41
1
10
71
20
-3.31462834536572
30
0
41
1
10
71
20
-3.29036946714726
30
0
41
1
10
71
20
-3.2427023829199
30
0
41
1
10
71
20
-3.18646937651297
30
0
41
1
10
71
20
-3.13298815892753
30
0
41
1
10
71
20
-3.1026481267285
30
0
0
SPLINE
5
148
100
AcDbEntity
8
1
62
256
6
ByLayer
370
18
48
1
60
0
100
AcDbSpline
70
4
71
3
72
14
73
10
40
0
40
0
40
0
40
0
40
0.499999999999984
40
0.499999999999984
40
0.749999999999976
40
0.749999999999976
40
0.874999999999988
40
0.874999999999988
40
1
40
1
40
1
40
1
41
1
10
71
20
-3.05518965309747
30
0
41
1
10
70.9018277585762
20
-3.05115416827533
30
0
41
1
10
70.8027160033908
20
-3.04764231657089
30
0
41
1
10
70.6527018327556
20
-3.04375162854311
30
0
41
1
10
70.6024757098459
20
-3.04268564430083
30
0
41
1
10
70.5268013354679
20
-3.0415443223803
30
0
41
1
10
70.5015218710077
20
-3.04123863999797
30
0
41
1
10
70.4508482609926
20
-3.04081271458992
30
0
41
1
10
70.4254364833563
20
-3.04075508220717
30
0
41
1
10
70.4000000540797
20
-3.04068306277401
30
0
0
SPLINE
5
149
100
AcDbEntity
8
1
62
256
6
ByLayer
370
18
48
1
60
0
100
AcDbSpline
70
4
71
3
72
12
73
8
40
0
40
0
40
0
40
0
40
0.25
40
0.25
40
0.5
40
0.5
40
1
40
1
40
1
40
1
41
1
10
70.4000000540798
20
-3.04068306277401
30
0
41
1
10
70.3026129087513
20
-2.98900831145491
30
0
41
1
10
70.2055469719591
20
-2.93598840462462
30
0
41
1
10
70.0121104593458
20
-2.82715938660311
30
0
41
1
10
69.9157233008596
20
-2.77137076916966
30
0
41
1
10
69.6274121021575
20
-2.60000890306426
30
0
41
1
10
69.4364142824502
20
-2.48034301454618
30
0
41
1
10
69.2463601727519
20
-2.35539887294934
30
0
0
SPLINE
5
14A
100
AcDbEntity
8
1
62
256
6
ByLayer
370
18
48
1
60
0
100
AcDbSpline
70
4
71
3
72
8
73
4
40
0
40
0
40
0
40
0
40
1
40
1
40
1
40
1
41
1
10
69.2463601727518
20
-2.35539887294934
30
0
41
1
10
69.2116412628681
20
-2.29233872062062
30
0
41
1
10
69.1768602382548
20
-2.22975920011387
30
0
41
1
10
69.1420097048022
20
-2.16766631309153
30
0
0
SPLINE
5
14B
100
AcDbEntity
8
1
62
256
6
ByLayer
370
18
48
1
60
0
100
AcDbSpline
70
4
71
3
72
32
73
28
40
0
40
0
40
0
40
0
40
0.124999999999995
40
0.124999999999995
40
0.187499999999973
40
0.187499999999973
40
0.24999999999995
40
0.24999999999995
40
0.374999999999952
40
0.374999999999952
40
0.499999999999954
40
0.499999999999954
40
0.624999999999956
40
0.624999999999956
40
0.687499999999956
40
0.687499999999956
40
0.749999999999956
40
0.749999999999956
40
0.812499999999956
40
0.812499999999956
40
0.874999999999956
40
0.874999999999956
40
0.937499999999956
40
0.937499999999956
40
0.968749999999978
40
0.968749999999978
40
1
40
1
40
1
40
1
41
1
10
69.1420097048022
20
-2.1676663130915
30
0
41
1
10
69.1315758916483
20
-2.14907648053543
30
0
41
1
10
69.119430924318
20
-2.13059077893362
30
0
41
1
10
69.0992254277852
20
-2.10299681410069
30
0
41
1
10
69.0921515500416
20
-2.09382137897046
30
0
41
1
10
69.0773581014612
20
-2.07551328769335
30
0
41
1
10
69.0697190694657
20
-2.06648176758526
30
0
41
1
10
69.0462695534922
20
-2.0398820837421
30
0
41
1
10
69.0298747069454
20
-2.02273057343959
30
0
41
1
10
68.9956495663493
20
-1.98951726949483
30
0
41
1
10
68.9776787737759
20
-1.97335615134395
30
0
41
1
10
68.941581143414
20
-1.94333916886148
30
0
41
1
10
68.9233268288328
20
-1.92933951084575
30
0
41
1
10
68.8956350819858
20
-1.91001795544528
30
0
41
1
10
68.886323591655
20
-1.90384203551704
30
0
41
1
10
68.8677118571902
20
-1.89221078906706
30
0
41
1
10
68.8585239218473
20
-1.88682375711153
30
0
41
1
10
68.8404122730849
20
-1.87697719572492
30
0
41
1
10
68.8314882119881
20
-1.87251648755662
30
0
41
1
10
68.8139518476484
20
-1.86466319315451
30
0
41
1
10
68.8053299353803
20
-1.86127662778213
30
0
41
1
10
68.7890168517939
20
-1.85596681378715
30
0
41
1
10
68.781255871406
20
-1.85400774123516
30
0
41
1
10
68.7703114338355
20
-1.85229510386733
30
0
41
1
10
68.7667712723982
20
-1.85193081787543
30
0
41
1
10
68.7600542042128
20
-1.85166249834609
30
0
41
1
10
68.7568651546471
20
-1.85175543557605
30
0
41
1
10
68.7538567286144
20
-1.85209116703157
30
0
0
SPLINE
5
14C
100
AcDbEntity
8
1
62
256
6
ByLayer
370
18
48
1
60
0
100
AcDbSpline
70
4
71
3
72
10
73
6
40
0
40
0
40
0
40
0
40
0.793187534904571
40
0.793187534904571
40
1
40
1
40
1
40
1
41
1
10
55.8651573959721
20
6.98528615122726
30
0
41
1
10
55.8612638960981
20
7.00713363972164
30
0
41
1
10
55.8574021124071
20
7.01778637795363
30
0
41
1
10
55.8525243504128
20
7.0168384057236
30
0
41
1
10
55.851514989937
20
7.01586549594515
30
0
41
1
10
55.8505041601271
20
7.01410707517624
30
0
0
SPLINE
5
14D
100
AcDbEntity
8
1
62
256
6
ByLayer
370
18
48
1
60
0
100
AcDbSpline
70
4
71
3
72
18
73
14
40
0
40
0
40
0
40
0
40
0.0300292234795644
40
0.0300292234795644
40
0.353352815653044
40
0.353352815653044
40
0.434183713696414
40
0.434183713696414
40
0.515014611739784
40
0.515014611739784
40
0.676676407826523
40
0.676676407826523
40
1
40
1
40
1
40
1
41
1
10
57.1722233418524
20
7.07304180244074
30
0
41
1
10
57.1729859691085
20
7.07304367394511
30
0
41
1
10
57.1737483519402
20
7.07294050597849
30
0
41
1
10
57.1827162044171
20
7.07049148434933
30
0
41
1
10
57.1908887440138
20
7.05608386601065
30
0
41
1
10
57.201074612271
20
7.02251182007316
30
0
41
1
10
57.2031105703247
20
7.01501734210069
30
0
41
1
10
57.2071816659743
20
6.99845137925769
30
0
41
1
10
57.2092197702298
20
6.98936472511912
30
0
41
1
10
57.215309640944
20
6.95984298749477
30
0
41
1
10
57.2193366275474
20
6.93715986247744
30
0
41
1
10
57.2313630383924
20
6.86029024826786
30
0
41
1
10
57.2393162495683
20
6.79730607744526
30
0
41
1
10
57.2473109924875
20
6.72279142892697
30
0
0
SPLINE
5
14E
100
AcDbEntity
8
1
62
256
6
ByLayer
370
18
48
1
60
0
100
AcDbSpline
70
4
71
3
72
18
73
14
40
0
40
0
40
0
40
0
40
0.151636277452836
40
0.151636277452836
40
0.227454416179254
40
0.227454416179254
40
0.303272554905671
40
0.303272554905671
40
0.606545109811342
40
0.606545109811342
40
0.909817664717013
40
0.909817664717013
40
1
40
1
40
1
40
1
41
1
10
57.3967328573158
20
6.67603485368238
30
0
41
1
10
57.3926986604585
20
6.71575132125582
30
0
41
1
10
57.3886640176554
20
6.75266404006894
30
0
41
1
10
57.3826001709213
20
6.80375391658495
30
0
41
1
10
57.3805768810413
20
6.82007031102617
30
0
41
1
10
57.3765240992374
20
6.85125914308202
30
0
41
1
10
57.3744975099617
20
6.86610712702884
30
0
41
1
10
57.3643999011467
20
6.93633460297687
30
0
41
1
10
57.3563952590438
20
6.98001729298852
30
0
41
1
10
57.3403775007846
20
7.0431180201536
30
0
41
1
10
57.3323636298382
20
7.0625342554651
30
0
41
1
10
57.3218681749984
20
7.07195888154186
30
0
41
1
10
57.3194557429563
20
7.07304473449261
30
0
41
1
10
57.3170351610121
20
7.07304559939547
30
0
0
SPLINE
5
14F
100
AcDbEntity
8
1
62
256
6
ByLayer
370
13
48
1
60
0
100
AcDbSpline
70
4
71
3
72
9
73
5
40
0
40
0
40
0
40
0
40
0.406868912394439
40
1
40
1
40
1
40
1
41
1.04
10
66.0723797921031
20
-6.2116480534568
30
0
41
1.04
10
66.0606862685389
20
-6.23186101122157
30
0
41
1.04
10
66.0318630446582
20
-6.22671333309732
30
0
41
1.04
10
66.0027971731414
20
-6.08150925106588
30
0
41
1.04
10
65.9854936982393
20
-5.94871094631188
30
0
0
SPLINE
5
150
100
AcDbEntity
8
1
62
256
6
ByLayer
370
18
48
1
60
0
100
AcDbSpline
70
4
71
3
72
18
73
14
40
0
40
0
40
0
40
0
40
0.207846662559645
40
0.207846662559645
40
0.471897775039762
40
0.471897775039762
40
0.537910553159792
40
0.537910553159792
40
0.603923331279822
40
0.603923331279822
40
0.735948887519881
40
0.735948887519881
40
1
40
1
40
1
40
1
41
1
10
65.5670232382527
20
-7.07304380342774
30
0
41
1
10
65.5606933558171
20
-7.07303013492575
30
0
41
1
10
65.5543338313804
20
-7.06541790142535
30
0
41
1
10
65.5396537556411
20
-7.0309301880971
30
0
41
1
10
65.5312766380603
20
-6.9994042048454
30
0
41
1
10
65.5207681874985
20
-6.9442762990885
30
0
41
1
10
65.5186641805396
20
-6.93246268841057
30
0
41
1
10
65.5144538323512
20
-6.90724020563843
30
0
41
1
10
65.5123558158367
20
-6.89388083103051
30
0
41
1
10
65.5060894458165
20
-6.8516103997699
30
0
41
1
10
65.5019472919686
20
-6.82049753019632
30
0
41
1
10
65.4896294254417
20
-6.71851977054348
30
0
41
1
10
65.4815674784986
20
-6.63903772504662
30
0
41
1
10
65.4735954132085
20
-6.54820303371787
30
0
0
SPLINE
5
151
100
AcDbEntity
8
1
62
256
6
ByLayer
370
18
48
1
60
0
100
AcDbSpline
70
4
71
3
72
18
73
14
40
0
40
0
40
0
40
0
40
0.125278018348289
40
0.125278018348289
40
0.187917027522433
40
0.187917027522433
40
0.250556036696578
40
0.250556036696578
40
0.501112073393156
40
0.501112073393156
40
0.751668110089734
40
0.751668110089734
40
1
40
1
40
1
40
1
41
1
10
65.3246210261071
20
-6.4919604209029
30
0
41
1
10
65.3286459101493
20
-6.53971323537365
30
0
41
1
10
65.3326816367378
20
-6.58473630889029
30
0
41
1
10
65.3387913658127
20
-6.64811515047992
30
0
41
1
10
65.3408361627781
20
-6.668548471186
30
0
41
1
10
65.3449397985298
20
-6.7080147664731
30
0
41
1
10
65.3470008082538
20
-6.72706686711297
30
0
41
1
10
65.3573112160072
20
-6.818561908796
30
0
41
1
10
65.3655048153913
20
-6.87919374234559
30
0
41
1
10
65.381763177326
20
-6.97619430016761
30
0
41
1
10
65.3898270879574
20
-7.01256044508355
30
0
41
1
10
65.4059270585483
20
-7.06089148144017
30
0
41
1
10
65.413965301398
20
-7.07307169165054
30
0
41
1
10
65.4220604749256
20
-7.07304111684951
30
0
0
SPLINE
5
152
100
AcDbEntity
8
1
62
256
6
ByLayer
370
13
48
1
60
0
100
AcDbSpline
70
4
71
3
72
10
73
6
40
0
40
0
40
0
40
0
40
0.109157575980283
40
0.762731420586063
40
1
40
1
40
1
40
1
41
1
10
64.9168318790787
20
-6.21194459567673
30
0
41
1
10
64.9134709214989
20
-6.20633295624387
30
0
41
1
10
64.8899350737729
20
-6.1541229969219
30
0
41
1
10
64.8585678591287
20
-5.96522941852191
30
0
41
1
10
64.8301953259773
20
-5.66892039190606
30
0
41
1
10
64.822613682585
20
-5.58132245586356
30
0
0
SPLINE
5
153
100
AcDbEntity
8
1
62
256
6
ByLayer
370
18
48
1
60
0
100
AcDbSpline
70
4
71
3
72
22
73
18
40
0
40
0
40
0
40
0
40
0.036867612387249
40
0.036867612387249
40
0.229494089909798
40
0.229494089909798
40
0.422120567432348
40
0.422120567432348
40
0.518433806193622
40
0.518433806193622
40
0.56659042557426
40
0.56659042557426
40
0.614747044954898
40
0.614747044954898
40
0.807373522477449
40
0.807373522477449
40
1
40
1
40
1
40
1
41
1
10
58.6715790048403
20
7.07304150047935
30
0
41
1
10
58.6731392116299
20
7.07304563409372
30
0
41
1
10
58.6746996377869
20
7.07259636207399
30
0
41
1
10
58.6844152869351
20
7.06699779222586
30
0
41
1
10
58.6925805027903
20
7.05003437453979
30
0
41
1
10
58.7089502312103
20
6.99191842136574
30
0
41
1
10
58.7171535021454
20
6.95076609231688
30
0
41
1
10
58.7295023088272
20
6.87057968194787
30
0
41
1
10
58.7336260335853
20
6.84076863839726
30
0
41
1
10
58.7398272100669
20
6.79133242602887
30
0
41
1
10
58.7418977700524
20
6.77405645934397
30
0
41
1
10
58.7460211370436
20
6.73812890625388
30
0
41
1
10
58.7480769014243
20
6.71945474033072
30
0
41
1
10
58.7583293584085
20
6.62257033603461
30
0
41
1
10
58.7664487236637
20
6.53384744079131
30
0
41
1
10
58.782603109074
20
6.3344897965473
30
0
41
1
10
58.7906349948342
20
6.22385410079784
30
0
41
1
10
58.798675976624
20
6.10217556319949
30
0
0
SPLINE
5
154
100
AcDbEntity
8
1
62
256
6
ByLayer
370
18
48
1
60
0
100
AcDbSpline
70
4
71
3
72
26
73
22
40
0
40
0
40
0
40
0
40
0.185718500047639
40
0.185718500047639
40
0.278577750071459
40
0.278577750071459
40
0.325007375083368
40
0.325007375083368
40
0.371437000095278
40
0.371437000095278
40
0.557155500142917
40
0.557155500142917
40
0.742874000190556
40
0.742874000190556
40
0.835733250214376
40
0.835733250214376
40
0.882162875226286
40
0.882162875226286
40
0.928592500238196
40
0.928592500238196
40
1
40
1
40
1
40
1
41
1
10
58.9477693135509
20
6.02729241659114
30
0
41
1
10
58.9396218997101
20
6.15279621634403
30
0
41
1
10
58.9315517206839
20
6.26795450366703
30
0
41
1
10
58.9194652940042
20
6.42491164276007
30
0
41
1
10
58.915438288026
20
6.47459557180287
30
0
41
1
10
58.9093758397608
20
6.5450876059638
30
0
41
1
10
58.9073494030153
20
6.56793250986155
30
0
41
1
10
58.9033105743286
20
6.61201946263773
30
0
41
1
10
58.9012957728939
20
6.63329096028653
30
0
41
1
10
58.8912404185976
20
6.73583089632459
30
0
41
1
10
58.8832599261654
20
6.80567718991432
30
0
41
1
10
58.8672478675067
20
6.92157763767833
30
0
41
1
10
58.8592164545493
20
6.96763067331977
30
0
41
1
10
58.8469170903403
20
7.01873668567308
30
0
41
1
10
58.8427745676734
20
7.03277074428752
30
0
41
1
10
58.8365196150221
20
7.04925059075421
30
0
41
1
10
58.8344277079301
20
7.05398161246822
30
0
41
1
10
58.8302331045512
20
7.06190275335368
30
0
41
1
10
58.8281273435532
20
7.06509571887588
30
0
41
1
10
58.8227948633268
20
7.07119665619146
30
0
41
1
10
58.819576437053
20
7.07303788474408
30
0
41
1
10
58.8163727407427
20
7.07304693437513
30
0
0
SPLINE
5
155
100
AcDbEntity
8
1
62
256
6
ByLayer
370
13
48
1
60
0
100
AcDbSpline
70
4
71
3
72
10
73
6
40
0
40
0
40
0
40
0
40
0.292899163493039
40
0.742050825228067
40
1
40
1
40
1
40
1
41
1.04
10
64.5711052601426
20
-6.21343610555149
30
0
41
1.04
10
64.5581289663976
20
-6.23376763649636
30
0
41
1.04
10
64.5250387084114
20
-6.21582671311472
30
0
41
1.04
10
64.47939537694
20
-5.94352448690899
30
0
41
1.04
10
64.4465482549965
20
-5.58006877276261
30
0
41
1.04
10
64.4345116437906
20
-5.4263278815315
30
0
0
SPLINE
5
156
100
AcDbEntity
8
1
62
256
6
ByLayer
370
18
48
1
60
0
100
AcDbSpline
70
4
71
3
72
24
73
20
40
0
40
0
40
0
40
0
40
0.0214672397413635
40
0.0214672397413635
40
0.0640121423613043
40
0.149101947601186
40
0.149101947601186
40
0.319281558080949
40
0.489461168560713
40
0.489461168560713
40
0.532006071180654
40
0.532006071180654
40
0.574550973800594
40
0.574550973800594
40
0.659640779040476
40
0.659640779040476
40
0.829820389520238
40
0.829820389520238
40
1
40
1
40
1
40
1
41
1
10
64.0666235104484
20
-7.07304055721121
30
0
41
1
10
64.0655852078628
20
-7.07304010071582
30
0
41
1
10
64.0645466863772
20
-7.07283988918118
30
0
41
1
10
64.0614540692928
20
-7.07164671431315
30
0
41
1
10
64.0552996212708
20
-7.06691945691128
30
0
41
1
10
64.0491733262522
20
-7.05523208852873
30
0
41
1
10
64.0369397252241
20
-7.02272886733448
30
0
41
1
10
64.0206804218509
20
-6.9550945856752
30
0
41
1
10
64.0045349176375
20
-6.83931174926687
30
0
41
1
10
63.9943647077038
20
-6.75156455739631
30
0
41
1
10
63.9923262727719
20
-6.73324405805459
30
0
41
1
10
63.9882360747328
20
-6.6950446228968
30
0
41
1
10
63.9861815510673
20
-6.67513767635185
30
0
41
1
10
63.980011295331
20
-6.61326296229234
30
0
41
1
10
63.9758914886822
20
-6.56923384310346
30
0
41
1
10
63.9635510947733
20
-6.42898361294635
30
0
41
1
10
63.955366481367
20
-6.32462041919382
30
0
41
1
10
63.9391709552861
20
-6.09456337258192
30
0
41
1
10
63.9311589759785
20
-5.96886909484505
30
0
41
1
10
63.9231478825723
20
-5.83237242582993
30
0
0
SPLINE
5
157
100
AcDbEntity
8
1
62
256
6
ByLayer
370
18
48
1
60
0
100
AcDbSpline
70
4
71
3
72
27
73
23
40
0
40
0
40
0
40
0
40
0.164599433874107
40
0.164599433874107
40
0.246899150811161
40
0.246899150811161
40
0.288049009279688
40
0.288049009279688
40
0.329198867748214
40
0.329198867748214
40
0.493798301622322
40
0.493798301622322
40
0.658397735496429
40
0.658397735496429
40
0.822997169370537
40
0.822997169370537
40
0.864147027839064
40
0.864147027839064
40
0.905296886307591
40
0.987596603244645
40
0.987596603244645
40
1
40
1
40
1
40
1
41
1
10
63.7737400891115
20
-5.74854144324502
30
0
41
1
10
63.7816507381932
20
-5.88848274225302
30
0
41
1
10
63.7894929640436
20
-6.01841456988598
30
0
41
1
10
63.801576927931
20
-6.19811582530727
30
0
41
1
10
63.8056647291706
20
-6.25547860253735
30
0
41
1
10
63.8118536565729
20
-6.33764918771323
30
0
41
1
10
63.8139262159406
20
-6.36439345094439
30
0
41
1
10
63.8180862541676
20
-6.41657471758785
30
0
41
1
10
63.820168251741
20
-6.44194179018021
30
0
41
1
10
63.8305529446587
20
-6.56487070157957
30
0
41
1
10
63.8387966107035
20
-6.65108093663997
30
0
41
1
10
63.8551018729802
20
-6.79993248097193
30
0
41
1
10
63.8631637661851
20
-6.86257198663245
30
0
41
1
10
63.8792957897383
20
-6.96422167404427
30
0
41
1
10
63.8873801076988
20
-7.00323392566528
30
0
41
1
10
63.8977242145632
20
-7.03672424910934
30
0
41
1
10
63.8998011834207
20
-7.04265175154299
30
0
41
1
10
63.9039429983336
20
-7.05290764503161
30
0
41
1
10
63.9101469406163
20
-7.06592311046299
30
0
41
1
10
63.9163046608487
20
-7.07191458040657
30
0
41
1
10
63.9209978692785
20
-7.07297333050556
30
0
41
1
10
63.9216118667248
20
-7.07304230291814
30
0
41
1
10
63.9222252297589
20
-7.07304161824607
30
0
0
SPLINE
5
158
100
AcDbEntity
8
1
62
256
6
ByLayer
370
18
48
1
60
0
100
AcDbSpline
70
4
71
3
72
8
73
4
40
0
40
0
40
0
40
0
40
1
40
1
40
1
40
1
41
1
10
63.419181698693
20
-6.21544865778333
30
0
41
1
10
63.4170636740807
20
-6.21249274737167
30
0
41
1
10
63.4149439394943
20
-6.20880203741066
30
0
41
1
10
63.4128227249992
20
-6.2043709638358
30
0
0
SPLINE
5
159
100
AcDbEntity
8
1
62
256
6
ByLayer
370
13
48
1
60
0
100
AcDbSpline
70
4
71
3
72
10
73
6
40
0
40
0
40
0
40
0
40
0.0808159269496575
40
0.732315890122009
40
1
40
1
40
1
40
1
41
1
10
63.4128227249992
20
-6.20437096383574
30
0
41
1
10
63.4090273442489
20
-6.19644267021511
30
0
41
1
10
63.3745924586795
20
-6.10312248929523
30
0
41
1
10
63.3271870929563
20
-5.70635633986478
30
0
41
1
10
63.284074393014
20
-5.07267080402397
30
0
41
1
10
63.2716007770767
20
-4.86971024644868
30
0
0
SPLINE
5
15A
100
AcDbEntity
8
1
62
256
6
ByLayer
370
18
48
1
60
0
100
AcDbSpline
70
4
71
3
72
29
73
25
40
0
40
0
40
0
40
0
40
0.0382452775593421
40
0.0382452775593421
40
0.0725936605036515
40
0.0725936605036515
40
0.106942043447961
40
0.106942043447961
40
0.17563880933658
40
0.17563880933658
40
0.313032341113817
40
0.450425872891055
40
0.450425872891055
40
0.519122638779673
40
0.519122638779673
40
0.553471021723983
40
0.553471021723983
40
0.587819404668292
40
0.587819404668292
40
0.725212936445528
40
0.725212936445528
40
0.862606468222764
40
0.862606468222764
40
1
40
1
40
1
40
1
41
1
10
60.1722722839965
20
7.07304511895461
30
0
41
1
10
60.1744847742587
20
7.0730436275515
30
0
41
1
10
60.1766969228382
20
7.07208838982567
30
0
41
1
10
60.1808998870499
20
7.06845435249662
30
0
41
1
10
60.1828906726433
20
7.0659591703897
30
0
41
1
10
60.1868816503726
20
7.05940142906331
30
0
41
1
10
60.1888831955701
20
7.05533554774212
30
0
41
1
10
60.19490198018
20
7.04077924050657
30
0
41
1
10
60.1989096443496
20
7.02799328122072
30
0
41
1
10
60.2109944532541
20
6.98059038329922
30
0
41
1
10
60.227287091739
20
6.89331381038483
30
0
41
1
10
60.2437033767551
20
6.75882744466057
30
0
41
1
10
60.2560613640377
20
6.64005337916015
30
0
41
1
10
60.2601892498694
20
6.59747143137102
30
0
41
1
10
60.266402505155
20
6.52903297660609
30
0
41
1
10
60.2684775088921
20
6.50545885100465
30
0
41
1
10
60.272634115901
20
6.4567697786961
30
0
41
1
10
60.2747105196667
20
6.43171317659863
30
0
41
1
10
60.285050953233
20
6.30325174749487
30
0
41
1
10
60.293212845815
20
6.1899997118052
30
0
41
1
10
60.3093485142596
20
5.94313319747314
30
0
41
1
10
60.3173225544565
20
5.80951720132279
30
0
41
1
10
60.3332734371096
20
5.52187915330325
30
0
41
1
10
60.3412499589515
20
5.36785894180537
30
0
41
1
10
60.3494020744069
20
5.20329292928648
30
0
0
SPLINE
5
15B
100
AcDbEntity
8
1
62
256
6
ByLayer
370
18
48
1
60
0
100
AcDbSpline
70
4
71
3
72
30
73
26
40
0
40
0
40
0
40
0
40
0.133681137404342
40
0.133681137404342
40
0.267362274808684
40
0.267362274808684
40
0.300782559159769
40
0.300782559159769
40
0.334202843510854
40
0.334202843510854
40
0.401043412213025
40
0.401043412213025
40
0.534724549617366
40
0.534724549617366
40
0.668405687021708
40
0.668405687021708
40
0.735246255723878
40
0.735246255723878
40
0.768666540074964
40
0.768666540074964
40
0.802086824426049
40
0.802086824426049
40
0.935767961830391
40
0.935767961830391
40
1
40
1
40
1
40
1
41
1
10
60.4991000718695
20
5.1031940461117
30
0
41
1
10
60.4910702172018
20
5.26993075419082
30
0
41
1
10
60.4830889490593
20
5.42713477622314
30
0
41
1
10
60.4669731083381
20
5.72264319931571
30
0
41
1
10
60.4588635715417
20
5.86094888858767
30
0
41
1
10
60.4486659570231
20
6.02175476125683
30
0
41
1
10
60.4466230341813
20
6.05331060804784
30
0
41
1
10
60.4425289649333
20
6.11519875599558
30
0
41
1
10
60.4404750240488
20
6.14557109575699
30
0
41
1
10
60.4343193638574
20
6.2345189946877
30
0
41
1
10
60.4302313250273
20
6.29083101367027
30
0
41
1
10
60.4179793667491
20
6.45099478816709
30
0
41
1
10
60.4098036938646
20
6.54609643871004
30
0
41
1
10
60.3934176355058
20
6.71337755237988
30
0
41
1
10
60.3852216372457
20
6.78555686626987
30
0
41
1
10
60.372929595913
20
6.87641190252435
30
0
41
1
10
60.3688319832359
20
6.90378901273556
30
0
41
1
10
60.3626802514667
20
6.94041215778768
30
0
41
1
10
60.3606279980844
20
6.95188296584638
30
0
41
1
10
60.3565233982357
20
6.97330858332543
30
0
41
1
10
60.3544785136673
20
6.98322499139186
30
0
41
1
10
60.3442866803663
20
7.02887263432478
30
0
41
1
10
60.3362397478457
20
7.05283250890375
30
0
41
1
10
60.3243715929365
20
7.07022340592894
30
0
41
1
10
60.3205268118061
20
7.07304757461512
30
0
41
1
10
60.3166776600366
20
7.07304708040041
30
0
0
SPLINE
5
15C
100
AcDbEntity
8
1
62
256
6
ByLayer
370
18
48
1
60
0
100
AcDbSpline
70
4
71
3
72
8
73
4
40
0
40
0
40
0
40
0
40
1
40
1
40
1
40
1
41
1.04
10
63.0664899741729
20
-6.21916225930376
30
0
41
1.04
10
63.0618091504894
20
-6.22413798211266
30
0
41
1.04
10
63.0571158722434
20
-6.22557171558733
30
0
41
1.04
10
63.0524126751367
20
-6.22340147302753
30
0
0
SPLINE
5
15D
100
AcDbEntity
8
1
62
256
6
ByLayer
370
13
48
1
60
0
100
AcDbSpline
70
4
71
3
72
10
73
6
40
0
40
0
40
0
40
0
40
0.153159791007645
40
0.697164672349588
40
1
40
1
40
1
40
1
41
1.04
10
63.052412333669
20
-6.22340131545443
30
0
41
1.04
10
63.043830269861
20
-6.21944089132963
30
0
41
1.04
10
63.0046154326494
20
-6.14679125831367
30
0
41
1.04
10
62.9478427425477
20
-5.67475534189617
30
0
41
1.04
10
62.9003272415344
20
-4.94716546416184
30
0
41
1.04
10
62.8835129339872
20
-4.65594967151177
30
0
0
SPLINE
5
15E
100
AcDbEntity
8
1
62
256
6
ByLayer
370
13
48
1
60
0
100
AcDbSpline
70
4
71
3
72
10
73
6
40
0
40
0
40
0
40
0
40
0.209276388439243
40
0.546255046392839
40
1
40
1
40
1
40
1
41
1
10
61.90357052772
20
-6.18009756352745
30
0
41
1
10
61.8908249021027
20
-6.14078775966451
30
0
41
1
10
61.8576185349488
20
-5.96961228500808
30
0
41
1
10
61.7968504895975
20
-5.33413539754488
30
0
41
1
10
61.7486440032542
20
-4.50336887020137
30
0
41
1
10
61.7206090054893
20
-3.93777993025424
30
0
0
SPLINE
5
15F
100
AcDbEntity
8
1
62
256
6
ByLayer
370
18
48
1
60
0
100
AcDbSpline
70
4
71
3
72
33
73
29
40
0
40
0
40
0
40
0
40
0.125
40
0.125
40
0.15625
40
0.15625
40
0.187499999999999
40
0.187499999999999
40
0.249999999999999
40
0.249999999999999
40
0.374999999999999
40
0.499999999999999
40
0.499999999999999
40
0.562499999999999
40
0.562499999999999
40
0.593749999999999
40
0.593749999999999
40
0.624999999999999
40
0.624999999999999
40
0.75
40
0.75
40
0.875
40
0.875
40
0.9375
40
0.9375
40
0.96875
40
0.96875
40
1
40
1
40
1
40
1
41
1
10
62.5671446060039
20
-7.07300789146763
30
0
41
1
10
62.5590842423048
20
-7.07374414279317
30
0
41
1
10
62.55109995274
20
-7.0622957176578
30
0
41
1
10
62.5409828467632
20
-7.0323553137772
30
0
41
1
10
62.538951632664
20
-7.02558378373141
30
0
41
1
10
62.5348640740952
20
-7.01045576350137
30
0
41
1
10
62.5328086063197
20
-7.0020986919707
30
0
41
1
10
62.5266487465446
20
-6.97479764883741
30
0
41
1
10
62.5225395703219
20
-6.95358396401562
30
0
41
1
10
62.5102460332959
20
-6.88107689198822
30
0
41
1
10
62.4939601835683
20
-6.76080330774562
30
0
41
1
10
62.4779517950667
20
-6.59402766320986
30
0
41
1
10
62.4658916183182
20
-6.45122155386025
30
0
41
1
10
62.4618606782509
20
-6.40065981363205
30
0
41
1
10
62.45575991984
20
-6.32028805713355
30
0
41
1
10
62.4537148033324
20
-6.29270878265854
30
0
41
1
10
62.4496206252198
20
-6.23633411692896
30
0
41
1
10
62.4475694056127
20
-6.20751173638317
30
0
41
1
10
62.4372716690616
20
-6.06026012578928
30
0
41
1
10
62.4289066088976
20
-5.93243704424737
30
0
41
1
10
62.4123344260349
20
-5.65722299791372
30
0
41
1
10
62.4041279051151
20
-5.50983097583489
30
0
41
1
10
62.3920022913458
20
-5.27396086746188
30
0
41
1
10
62.3879885529277
20
-5.19286914314682
30
0
41
1
10
62.3819928550252
20
-5.06747236727256
30
0
41
1
10
62.3799982513789
20
-5.02504659903644
30
0
41
1
10
62.3760116421614
20
-4.93892805538135
30
0
41
1
10
62.3740167879169
20
-4.89517140922931
30
0
41
1
10
62.3720275101982
20
-4.8509484938165
30
0
0
SPLINE
5
160
100
AcDbEntity
8
1
62
256
6
ByLayer
370
18
48
1
60
0
100
AcDbSpline
70
4
71
3
72
29
73
25
40
0
40
0
40
0
40
0
40
0.124999999999999
40
0.249999999999998
40
0.249999999999998
40
0.312499999999998
40
0.312499999999998
40
0.343749999999998
40
0.343749999999998
40
0.374999999999998
40
0.374999999999998
40
0.499999999999998
40
0.499999999999998
40
0.624999999999997
40
0.624999999999997
40
0.687499999999998
40
0.687499999999998
40
0.718749999999998
40
0.718749999999998
40
0.749999999999998
40
0.749999999999998
40
0.874999999999999
40
0.874999999999999
40
1
40
1
40
1
40
1
41
1
10
62.2224096447414
20
-4.74362265769142
30
0
41
1
10
62.2306570306446
20
-4.92258028111488
30
0
41
1
10
62.2470830762238
20
-5.26221835562217
30
0
41
1
10
62.2633775032219
20
-5.56580602873657
30
0
41
1
10
62.2755950103172
20
-5.77973948316202
30
0
41
1
10
62.2796674761827
20
-5.84875332114734
30
0
41
1
10
62.2857873697888
20
-5.9487558364423
30
0
41
1
10
62.2878299225198
20
-5.98151181064344
30
0
41
1
10
62.2918974590916
20
-6.04546894172719
30
0
41
1
10
62.2939254667104
20
-6.07671911635558
30
0
41
1
10
62.3040422550333
20
-6.22936719874829
30
0
41
1
10
62.3120561493837
20
-6.33998560589671
30
0
41
1
10
62.3280583554562
20
-6.53874938093952
30
0
41
1
10
62.3360464945037
20
-6.626893804833
30
0
41
1
10
62.3481763751773
20
-6.74211680045264
30
0
41
1
10
62.3522456170186
20
-6.77768676339787
30
0
41
1
10
62.3584129922889
20
-6.82671714449808
30
0
41
1
10
62.3604786037332
20
-6.84233948760729
30
0
41
1
10
62.3646273703915
20
-6.87212608924725
30
0
41
1
10
62.3667133193654
20
-6.88630700339189
30
0
41
1
10
62.3771288354687
20
-6.95318690474735
30
0
41
1
10
62.3854364522379
20
-6.99405653494117
30
0
41
1
10
62.4019380315055
20
-7.05134359533008
30
0
41
1
10
62.4101322783983
20
-7.06775876565442
30
0
41
1
10
62.4182832511516
20
-7.07196069725185
30
0
0
SPLINE
5
161
100
AcDbEntity
8
1
62
256
6
ByLayer
370
18
48
1
60
0
100
AcDbSpline
70
4
71
3
72
14
73
10
40
0
40
0
40
0
40
0
40
0.314564246757189
40
0.314564246757189
40
0.629128493514379
40
0.629128493514379
40
0.943692740271568
40
0.943692740271568
40
1
40
1
40
1
40
1
41
1
10
36.3208010106578
20
4.59528062176241
30
0
41
1
10
36.1884331146803
20
4.54771300805075
30
0
41
1
10
36.0549452440351
20
4.49932966375437
30
0
41
1
10
35.7852026531805
20
4.40210457671066
30
0
41
1
10
35.648966311819
20
4.35324240906385
30
0
41
1
10
35.3731344026853
20
4.25638606742132
30
0
41
1
10
35.233558563975
20
4.20837356718479
30
0
41
1
10
35.0668639090518
20
4.15286962271696
30
0
41
1
10
35.0414930247414
20
4.14447851206586
30
0
41
1
10
35.0160673332998
20
4.1361153519934
30
0
0
SPLINE
5
162
100
AcDbEntity
8
1
62
256
6
ByLayer
370
18
48
1
60
0
100
AcDbSpline
70
4
71
3
72
18
73
14
40
0
40
0
40
0
40
0
40
0.0733876722297903
40
0.0733876722297903
40
0.25871013778384
40
0.25871013778384
40
0.351371370560862
40
0.351371370560862
40
0.444032603337884
40
0.444032603337884
40
0.629355068891922
40
0.629355068891922
40
1
40
1
40
1
40
1
41
1
10
30.5374959470657
20
5.35000029298115
30
0
41
1
10
30.5825643664592
20
5.34997200524012
30
0
41
1
10
30.6278103701993
20
5.34938768645722
30
0
41
1
10
30.7878952781035
20
5.34540907132296
30
0
41
1
10
30.9036211982642
20
5.33908667332304
30
0
41
1
10
31.0785672541893
20
5.32455404415157
30
0
41
1
10
31.1371096569785
20
5.3188671812517
30
0
41
1
10
31.2546217658228
20
5.30582246328893
30
0
41
1
10
31.3136323738321
20
5.29845835136859
30
0
41
1
10
31.4908418305655
20
5.27393392062959
30
0
41
1
10
31.6092797481412
20
5.25434198114476
30
0
41
1
10
31.9653470026395
20
5.18607130561182
30
0
41
1
10
32.2036911823664
20
5.12791444230922
30
0
41
1
10
32.4431150017037
20
5.05737382798824
30
0
0
SPLINE
5
163
100
AcDbEntity
8
1
62
256
6
ByLayer
370
18
48
1
60
0
100
AcDbSpline
70
4
71
3
72
34
73
30
40
0
40
0
40
0
40
0
40
0.0625
40
0.0625
40
0.0937499999999999
40
0.0937499999999999
40
0.125
40
0.125
40
0.249999999999999
40
0.249999999999999
40
0.374999999999999
40
0.374999999999999
40
0.437499999999999
40
0.437499999999999
40
0.468749999999998
40
0.468749999999998
40
0.499999999999998
40
0.499999999999998
40
0.624999999999999
40
0.624999999999999
40
0.749999999999999
40
0.749999999999999
40
0.875
40
0.875
40
0.90625
40
0.90625
40
0.9375
40
0.9375
40
1
40
1
40
1
40
1
41
1
10
61.7057436814642
20
7.00372285870745
30
0
41
1
10
61.7098265637709
20
6.98689188964613
30
0
41
1
10
61.7139085022626
20
6.96696967990951
30
0
41
1
10
61.7200375640476
20
6.93235797211693
30
0
41
1
10
61.722084630958
20
6.92001230790143
30
0
41
1
10
61.72616412641
20
6.8938462246291
30
0
41
1
10
61.7281968970338
20
6.88002676869294
30
0
41
1
10
61.7383314287964
20
6.80728914449736
30
0
41
1
10
61.7463427906458
20
6.73747907507351
30
0
41
1
10
61.762354643095
20
6.57520467817957
30
0
41
1
10
61.7703668157718
20
6.48273932770417
30
0
41
1
10
61.7825164353447
20
6.3269523959562
30
0
41
1
10
61.786582161799
20
6.27216974843012
30
0
41
1
10
61.7927028757264
20
6.18565206865884
30
0
41
1
10
61.7947468769873
20
6.15608852741775
30
0
41
1
10
61.7988430598254
20
6.09549775537107
30
0
41
1
10
61.8008972358377
20
6.06443960213718
30
0
41
1
10
61.8111692018926
20
5.90579416395255
30
0
41
1
10
61.8193132086826
20
5.76930324179716
30
0
41
1
10
61.8356221778151
20
5.47783729387203
30
0
41
1
10
61.8438132327135
20
5.32286101519719
30
0
41
1
10
61.8602007676818
20
4.99448759173464
30
0
41
1
10
61.8683906648803
20
4.82109142540358
30
0
41
1
10
61.8786270637934
20
4.59251093567343
30
0
41
1
10
61.8806745825127
20
4.54620158138772
30
0
41
1
10
61.8847713599053
20
4.45238208531913
30
0
41
1
10
61.8868140787959
20
4.40502110642856
30
0
41
1
10
61.8929172018086
20
4.26184700465157
30
0
41
1
10
61.8969570433634
20
4.16483757515297
30
0
41
1
10
61.9009775130665
20
4.06629677847937
30
0
0
SPLINE
5
164
100
AcDbEntity
8
1
62
256
6
ByLayer
370
18
48
1
60
0
100
AcDbSpline
70
4
71
3
72
29
73
25
40
0
40
0
40
0
40
0
40
0.125
40
0.125
40
0.249999999999999
40
0.249999999999999
40
0.374999999999999
40
0.374999999999999
40
0.406249999999999
40
0.406249999999999
40
0.437499999999999
40
0.437499999999999
40
0.499999999999998
40
0.499999999999998
40
0.624999999999998
40
0.749999999999998
40
0.749999999999998
40
0.812499999999998
40
0.812499999999998
40
0.843749999999998
40
0.843749999999998
40
0.874999999999999
40
0.874999999999999
40
1
40
1
40
1
40
1
41
1
10
62.0506164038614
20
3.94590009235031
30
0
41
1
10
62.0425401467314
20
4.14776403917006
30
0
41
1
10
62.0344370696256
20
4.34092806022295
30
0
41
1
10
62.018156095195
20
4.71045238210411
30
0
41
1
10
62.0099855726106
20
4.88681118302171
30
0
41
1
10
61.9935765277181
20
5.22277713937766
30
0
41
1
10
61.9853351137569
20
5.3823853050323
30
0
41
1
10
61.9749617546074
20
5.57112825458466
30
0
41
1
10
61.9728839404153
20
5.60833712445674
30
0
41
1
10
61.9687224224602
20
5.68166230279019
30
0
41
1
10
61.9666471019557
20
5.71763070964087
30
0
41
1
10
61.9604409274308
20
5.82341919351273
30
0
41
1
10
61.9563285060354
20
5.89115030126206
30
0
41
1
10
61.9440621145444
20
6.08611097872449
30
0
41
1
10
61.927900485802
20
6.32414658792422
30
0
41
1
10
61.9119704062609
20
6.51890587618107
30
0
41
1
10
61.8999855808615
20
6.64844044665216
30
0
41
1
10
61.8959837078735
20
6.68885750953226
30
0
41
1
10
61.8899478674054
20
6.74525208780588
30
0
41
1
10
61.8879325858637
20
6.76332155680137
30
0
41
1
10
61.8839095669648
20
6.79784804296119
30
0
41
1
10
61.8818991941722
20
6.8143300130705
30
0
41
1
10
61.8718418379041
20
6.89287435377813
30
0
41
1
10
61.8637665383944
20
6.94337078147299
30
0
41
1
10
61.8555496630516
20
6.98179830367428
30
0
0
SPLINE
5
165
100
AcDbEntity
8
1
62
256
6
ByLayer
370
13
48
1
60
0
100
AcDbSpline
70
4
71
3
72
10
73
6
40
0
40
0
40
0
40
0
40
0.136624326321812
40
0.474025161160703
40
1
40
1
40
1
40
1
41
1.04
10
61.5154315219796
20
-6.1318812455601
30
0
41
1.04
10
61.5071301539963
20
-6.09483405667885
30
0
41
1.04
10
61.4783519781169
20
-5.92775766570198
30
0
41
1.04
10
61.4176599787625
20
-5.2962668830862
30
0
41
1.04
10
61.3650747362068
20
-4.3601934779952
30
0
41
1.04
10
61.3324723412758
20
-3.67459727352482
30
0
0
SPLINE
5
166
100
AcDbEntity
8
1
62
256
6
ByLayer
370
13
48
1
60
0
100
AcDbSpline
70
4
71
3
72
9
73
5
40
0
40
0
40
0
40
0
40
0.449211134516664
40
1
40
1
40
1
40
1
41
1
10
60.3523999956022
20
-5.8815254739639
30
0
41
1
10
60.323410613773
20
-5.63343507561584
30
0
41
1
10
60.2610074473712
20
-4.8082904960188
30
0
41
1
10
60.2017500208549
20
-3.57416736600106
30
0
41
1
10
60.1695683562234
20
-2.82660468864711
30
0
0
SPLINE
5
167
100
AcDbEntity
8
1
62
256
6
ByLayer
370
18
48
1
60
0
100
AcDbSpline
70
4
71
3
72
30
73
26
40
0
40
0
40
0
40
0
40
0.0625000000000003
40
0.0625000000000003
40
0.125000000000001
40
0.125000000000001
40
0.250000000000001
40
0.375000000000002
40
0.375000000000002
40
0.437500000000002
40
0.437500000000002
40
0.468750000000002
40
0.468750000000002
40
0.500000000000002
40
0.500000000000002
40
0.625000000000001
40
0.625000000000001
40
0.750000000000001
40
0.750000000000001
40
0.875000000000001
40
0.875000000000001
40
0.906250000000001
40
0.906250000000001
40
0.9375
40
1
40
1
40
1
40
1
41
1
10
61.0165497862845
20
-6.91625305451035
30
0
41
1
10
61.0125412772223
20
-6.89098180409835
30
0
41
1
10
61.0085088556464
20
-6.86261643364443
30
0
41
1
10
61.0003562190104
20
-6.79955984721067
30
0
41
1
10
60.9962655503402
20
-6.76512886148419
30
0
41
1
10
60.9839724531055
20
-6.65338625196768
30
0
41
1
10
60.9675342908691
20
-6.48184845902517
30
0
41
1
10
60.9511394145413
20
-6.26612948351919
30
0
41
1
10
60.9388394437223
20
-6.08759536912538
30
0
41
1
10
60.9347373772501
20
-6.02528787082653
30
0
41
1
10
60.9285773870473
20
-5.92755998867725
30
0
41
1
10
60.9265229342232
20
-5.89427255841019
30
0
41
1
10
60.922410894316
20
-5.82625813598369
30
0
41
1
10
60.9203551660147
20
-5.79155968096765
30
0
41
1
10
60.9101245096411
20
-5.61546679410947
30
0
41
1
10
60.9020508989169
20
-5.46556044524624
30
0
41
1
10
60.8860054787972
20
-5.14822285962046
30
0
41
1
10
60.8780332464906
20
-4.98079027814308
30
0
41
1
10
60.8620248965093
20
-4.62838096970367
30
0
41
1
10
60.8539882664261
20
-4.4434058007071
30
0
41
1
10
60.8437794670865
20
-4.20086404197133
30
0
41
1
10
60.8417276487657
20
-4.15174252516294
30
0
41
1
10
60.8376276253476
20
-4.05291321595686
30
0
41
1
10
60.8314753804962
20
-3.90360904667438
30
0
41
1
10
60.8253034373752
20
-3.75116195201102
30
0
41
1
10
60.8211699482494
20
-3.64815620925887
30
0
0
SPLINE
5
168
100
AcDbEntity
8
1
62
256
6
ByLayer
370
18
48
1
60
0
100
AcDbSpline
70
4
71
3
72
33
73
29
40
0
40
0
40
0
40
0
40
0.0312500000000001
40
0.0312500000000001
40
0.0625000000000001
40
0.125
40
0.125
40
0.25
40
0.25
40
0.374999999999999
40
0.374999999999999
40
0.406249999999999
40
0.406249999999999
40
0.437499999999999
40
0.437499999999999
40
0.499999999999999
40
0.499999999999999
40
0.624999999999999
40
0.624999999999999
40
0.749999999999999
40
0.749999999999999
40
0.8125
40
0.8125
40
0.84375
40
0.84375
40
0.875
40
0.875
40
1
40
1
40
1
40
1
41
1
10
60.6714950797538
20
-3.52251397869136
30
0
41
1
10
60.6735203351377
20
-3.57515482827225
30
0
41
1
10
60.6755505326066
20
-3.62754800483145
30
0
41
1
10
60.6795973106771
20
-3.73117111273916
30
0
41
1
10
60.6856553267064
20
-3.88507770205237
30
0
41
1
10
60.6916884256477
20
-4.0344531194381
30
0
41
1
10
60.7037506179342
20
-4.3272565641436
30
0
41
1
10
60.7117880102697
20
-4.51454408313708
30
0
41
1
10
60.7279880794796
20
-4.87341253473099
30
0
41
1
10
60.7361517968883
20
-5.0449940842737
30
0
41
1
10
60.7464860954233
20
-5.24942377281496
30
0
41
1
10
60.748559261504
20
-5.28980609810532
30
0
41
1
10
60.7527186702898
20
-5.36955257558094
30
0
41
1
10
60.754807945268
20
-5.40897224278763
30
0
41
1
10
60.7610662477532
20
-5.52514584421391
30
0
41
1
10
60.7652276636191
20
-5.59986799229563
30
0
41
1
10
60.7776539758131
20
-5.81602171030747
30
0
41
1
10
60.7858562786428
20
-5.94946114454143
30
0
41
1
10
60.8021006449542
20
-6.19538210315343
30
0
41
1
10
60.8101446918315
20
-6.30786332800386
30
0
41
1
10
60.8221909935676
20
-6.46064702111539
30
0
41
1
10
60.8262039346545
20
-6.508913467111
30
0
41
1
10
60.8322375303023
20
-6.57724517226569
30
0
41
1
10
60.8342532144863
20
-6.5993660882059
30
0
41
1
10
60.8382830815201
20
-6.64213285601076
30
0
41
1
10
60.8402932263263
20
-6.66273742190103
30
0
41
1
10
60.8503284180558
20
-6.76191177107751
30
0
41
1
10
60.8583086903933
20
-6.82896705979374
30
0
41
1
10
60.8663372182635
20
-6.88406535119401
30
0
0
SPLINE
5
169
100
AcDbEntity
8
1
62
256
6
ByLayer
370
18
48
1
60
0
100
AcDbSpline
70
4
71
3
72
31
73
27
40
0
40
0
40
0
40
0
40
0.0312499999999998
40
0.0312499999999998
40
0.0624999999999996
40
0.124999999999999
40
0.124999999999999
40
0.249999999999999
40
0.249999999999999
40
0.374999999999999
40
0.374999999999999
40
0.406249999999999
40
0.406249999999999
40
0.437499999999999
40
0.499999999999999
40
0.499999999999999
40
0.624999999999999
40
0.624999999999999
40
0.749999999999999
40
0.749999999999999
40
0.8125
40
0.84375
40
0.84375
40
0.875
40
0.875
40
1
40
1
40
1
40
1
41
1
10
55.361041441619
20
-3.20248424171913
30
0
41
1
10
55.3604481286581
20
-3.16137879568132
30
0
41
1
10
55.3598641930537
20
-3.11997034473114
30
0
41
1
10
55.3587184819295
20
-3.03683606964199
30
0
41
1
10
55.3570314086713
20
-2.91153926829978
30
0
41
1
10
55.355435447808
20
-2.78446880310645
30
0
41
1
10
55.3523551227529
20
-2.52798165702532
30
0
41
1
10
55.3504510404105
20
-2.35386713201879
30
0
41
1
10
55.3468766782237
20
-1.99936678936496
30
0
41
1
10
55.3451946155751
20
-1.81897384906435
30
0
41
1
10
55.3432208660734
20
-1.58946408687933
30
0
41
1
10
55.3428333795227
20
-1.54330818737648
30
0
41
1
10
55.3420790411685
20
-1.45093883737999
30
0
41
1
10
55.3409779892038
20
-1.31226649049913
30
0
41
1
10
55.3399763597685
20
-1.17324405077434
30
0
41
1
10
55.338114558876
20
-0.894740870346396
30
0
41
1
10
55.337067726017
20
-0.708462627367254
30
0
41
1
10
55.335286959686
20
-0.334694183794142
30
0
41
1
10
55.334523755808
20
-0.147200467419879
30
0
41
1
10
55.333551399023
20
0.134966945222459
30
0
41
1
10
55.333115438708
20
0.276281855797919
30
0
41
1
10
55.3327735564218
20
0.417946540467824
30
0
41
1
10
55.332568796211
20
0.512467937225551
30
0
41
1
10
55.3324779007753
20
0.559825949426767
30
0
41
1
10
55.3320882756751
20
0.796012299064188
30
0
41
1
10
55.3319842389391
20
0.982750406137825
30
0
41
1
10
55.3321422222257
20
1.16737073104127
30
0
0
SPLINE
5
16A
100
AcDbEntity
8
1
62
256
6
ByLayer
370
18
48
1
60
0
100
AcDbSpline
70
4
71
3
72
29
73
25
40
0
40
0
40
0
40
0
40
0.125
40
0.125
40
0.250000000000001
40
0.250000000000001
40
0.375000000000001
40
0.375000000000001
40
0.406250000000001
40
0.406250000000001
40
0.437500000000002
40
0.500000000000002
40
0.500000000000002
40
0.625000000000003
40
0.625000000000003
40
0.750000000000003
40
0.750000000000003
40
0.781250000000003
40
0.781250000000003
40
0.812500000000003
40
0.812500000000003
40
0.875000000000002
40
0.875000000000002
40
1
40
1
40
1
40
1
41
1
10
63.2564522491512
20
6.63462369496341
30
0
41
1
10
63.2648148962184
20
6.55042012364345
30
0
41
1
10
63.2730921544834
20
6.45517549268504
30
0
41
1
10
63.2894830757582
20
6.24328818118877
30
0
41
1
10
63.2975969688489
20
6.12664368471903
30
0
41
1
10
63.3137515975768
20
5.87195371630727
30
0
41
1
10
63.321792445529
20
5.73390998645158
30
0
41
1
10
63.3319027712348
20
5.54755591134386
30
0
41
1
10
63.3339308351633
20
5.50953823086215
30
0
41
1
10
63.3379766503461
20
5.43248516730662
30
0
41
1
10
63.3440337139049
20
5.31532474709007
30
0
41
1
10
63.3500640911227
20
5.19347904422295
30
0
41
1
10
63.3621128054506
20
4.94364376771711
30
0
41
1
10
63.3701283085209
20
4.76891070617012
30
0
41
1
10
63.386280721663
20
4.40324841650076
30
0
41
1
10
63.3944220049716
20
4.21231983419173
30
0
41
1
10
63.4047754387549
20
3.9633159100845
30
0
41
1
10
63.4068537064556
20
3.91299664128209
30
0
41
1
10
63.4110228932252
20
3.81131013479708
30
0
41
1
10
63.4131164233794
20
3.75987812512483
30
0
41
1
10
63.4193939865753
20
3.60446463358107
30
0
41
1
10
63.4235633729533
20
3.49965124182447
30
0
41
1
10
63.4360116357522
20
3.18167383119118
30
0
41
1
10
63.444227382533
20
2.96498155688707
30
0
41
1
10
63.4523723589238
20
2.7436693517239
30
0
0
SPLINE
5
16B
100
AcDbEntity
8
1
62
256
6
ByLayer
370
18
48
1
60
0
100
AcDbSpline
70
4
71
3
72
33
73
29
40
0
40
0
40
0
40
0
40
0.0625000000000002
40
0.0625000000000002
40
0.0937500000000002
40
0.0937500000000002
40
0.125
40
0.125
40
0.25
40
0.25
40
0.374999999999999
40
0.374999999999999
40
0.499999999999999
40
0.499999999999999
40
0.531249999999999
40
0.531249999999999
40
0.562499999999999
40
0.624999999999999
40
0.624999999999999
40
0.749999999999999
40
0.749999999999999
40
0.874999999999999
40
0.874999999999999
40
0.906249999999999
40
0.906249999999999
40
0.9375
40
0.9375
40
1
40
1
40
1
40
1
41
1
10
63.6013920932289
20
2.60902020615464
30
0
41
1
10
63.597323077105
20
2.72095517394331
30
0
41
1
10
63.5932496041181
20
2.83201385535872
30
0
41
1
10
63.5871244966557
20
2.9972635560149
30
0
41
1
10
63.5850802867711
20
3.05212362070407
30
0
41
1
10
63.5809851690207
20
3.1613919831411
30
0
41
1
10
63.5789407461507
20
3.21562677364267
30
0
41
1
10
63.5687479638512
20
3.48434002760698
30
0
41
1
10
63.5606697243092
20
3.69195908514354
30
0
41
1
10
63.5445267094986
20
4.09290827573346
30
0
41
1
10
63.5364617907223
20
4.28623740729901
30
0
41
1
10
63.5201828574087
20
4.65856481592419
30
0
41
1
10
63.5119439244459
20
4.83756389892017
30
0
41
1
10
63.5015688404403
20
5.052048625721
30
0
41
1
10
63.4994915222861
20
5.0944582520674
30
0
41
1
10
63.4953554585244
20
5.17785903101591
30
0
41
1
10
63.4891701559038
20
5.30101711000356
30
0
41
1
10
63.4830437280286
20
5.41841215581994
30
0
41
1
10
63.4708617027784
20
5.6456344145241
30
0
41
1
10
63.4628390937124
20
5.78704479336858
30
0
41
1
10
63.4468388410355
20
6.04985775402452
30
0
41
1
10
63.4388608594752
20
6.17126118196492
30
0
41
1
10
63.4287366628233
20
6.31020030953843
30
0
41
1
10
63.4267034369826
20
6.33734576465582
30
0
41
1
10
63.4226186755866
20
6.39033757808417
30
0
41
1
10
63.4205653181156
20
6.41620877077889
30
0
41
1
10
63.4144141312819
20
6.49144042659
30
0
41
1
10
63.4103160225235
20
6.53854778596798
30
0
41
1
10
63.4062226449636
20
6.58266878874525
30
0
0
SPLINE
5
16C
100
AcDbEntity
8
1
62
256
6
ByLayer
370
13
48
1
60
0
100
AcDbSpline
70
4
71
3
72
9
73
5
40
0
40
0
40
0
40
0
40
0.377472361382985
40
1
40
1
40
1
40
1
41
1.04
10
59.9642489746059
20
-5.76364136182933
30
0
41
1.04
10
59.9399611215632
20
-5.52390317760981
30
0
41
1.04
10
59.8773393817471
20
-4.66767029867618
30
0
41
1.04
10
59.8179077179279
20
-3.39558445075173
30
0
41
1.04
10
59.7814123616133
20
-2.52544812936375
30
0
0
SPLINE
5
16D
100
AcDbEntity
8
1
62
256
6
ByLayer
370
13
48
1
60
0
100
AcDbSpline
70
4
71
3
72
10
73
6
40
0
40
0
40
0
40
0
40
0.376672059824754
40
0.71117517275241
40
1
40
1
40
1
40
1
41
1
10
58.8013608461942
20
-5.31376566082892
30
0
41
1
10
58.77817908695
20
-4.99916025139134
30
0
41
1
10
58.7344776345506
20
-4.26570188533523
30
0
41
1
10
58.6729030791241
20
-2.92794129853687
30
0
41
1
10
58.6357152118828
20
-2.01761622490659
30
0
41
1
10
58.6186327151496
20
-1.58708705181107
30
0
0
SPLINE
5
16E
100
AcDbEntity
8
1
62
256
6
ByLayer
370
18
48
1
60
0
100
AcDbSpline
70
4
71
3
72
26
73
22
40
0
40
0
40
0
40
0
40
0.125
40
0.125
40
0.25
40
0.25
40
0.375000000000001
40
0.375000000000001
40
0.500000000000001
40
0.500000000000001
40
0.625000000000001
40
0.625000000000001
40
0.750000000000001
40
0.750000000000001
40
0.781250000000001
40
0.781250000000001
40
0.812500000000001
40
0.812500000000001
40
0.875000000000001
40
0.875000000000001
40
1
40
1
40
1
40
1
41
1
10
59.4646648811923
20
-6.4433959956726
30
0
41
1
10
59.4564136033423
20
-6.34350165340635
30
0
41
1
10
59.4482876564117
20
-6.23300966261806
30
0
41
1
10
59.4322225663882
20
-5.99138291202033
30
0
41
1
10
59.4242857118138
20
-5.86024688406886
30
0
41
1
10
59.4084019317099
20
-5.5772313646813
30
0
41
1
10
59.4004363622167
20
-5.42532000016789
30
0
41
1
10
59.3842008185328
20
-5.1001327439968
30
0
41
1
10
59.3760829420906
20
-4.92964056633696
30
0
41
1
10
59.359785484381
20
-4.5734216450027
30
0
41
1
10
59.3516074974869
20
-4.3876932346746
30
0
41
1
10
59.3351792268477
20
-4.0010677857872
30
0
41
1
10
59.3269302260431
20
-3.80017160209442
30
0
41
1
10
59.3165700110896
20
-3.53931450064036
30
0
41
1
10
59.3144954803111
20
-3.48665500632245
30
0
41
1
10
59.3103410746101
20
-3.38034833326307
30
0
41
1
10
59.3082646226323
20
-3.32678762900062
30
0
41
1
10
59.3020609701431
20
-3.16551550991542
30
0
41
1
10
59.2979499191402
20
-3.05696862744597
30
0
41
1
10
59.2856811761891
20
-2.72828958914806
30
0
41
1
10
59.2775896738805
20
-2.50512672968776
30
0
41
1
10
59.2695420344031
20
-2.27797738125966
30
0
0
SPLINE
5
16F
100
AcDbEntity
8
1
62
256
6
ByLayer
370
18
48
1
60
0
100
AcDbSpline
70
4
71
3
72
32
73
28
40
0
40
0
40
0
40
0
40
0.0624999999999991
40
0.0624999999999991
40
0.0937499999999988
40
0.0937499999999988
40
0.124999999999999
40
0.124999999999999
40
0.249999999999998
40
0.249999999999998
40
0.374999999999998
40
0.374999999999998
40
0.499999999999997
40
0.499999999999997
40
0.531249999999997
40
0.531249999999997
40
0.562499999999997
40
0.624999999999997
40
0.624999999999997
40
0.749999999999998
40
0.874999999999999
40
0.874999999999999
40
0.9375
40
0.9375
40
0.96875
40
0.96875
40
1
40
1
40
1
40
1
41
1
10
59.120316028485
20
-2.14001550704302
30
0
41
1
10
59.1243907259316
20
-2.25456333800955
30
0
41
1
10
59.128480186256
20
-2.36840222147808
30
0
41
1
10
59.1346430557639
20
-2.53808047002209
30
0
41
1
10
59.1367021043969
20
-2.594459783415
30
0
41
1
10
59.1408305173878
20
-2.70685430517034
30
0
41
1
10
59.1429029079618
20
-2.76295062486031
30
0
41
1
10
59.1532480364546
20
-3.0413283637352
30
0
41
1
10
59.1614804458913
20
-3.25721049099209
30
0
41
1
10
59.1777540483344
20
-3.67578987566031
30
0
41
1
10
59.1857597299913
20
-3.87848686347704
30
0
41
1
10
59.2016043190436
20
-4.27072136979749
30
0
41
1
10
59.209443215087
20
-4.46025966606351
30
0
41
1
10
59.2194961219246
20
-4.68870693636143
30
0
41
1
10
59.2215231855842
20
-4.7340047529612
30
0
41
1
10
59.2256064619986
20
-4.82359517117021
30
0
41
1
10
59.2317546390649
20
-4.95610244086512
30
0
41
1
10
59.2379528589786
20
-5.08304648450169
30
0
41
1
10
59.2503740359295
20
-5.32964884023295
30
0
41
1
10
59.2669943140217
20
-5.63906037481661
30
0
41
1
10
59.2834634979085
20
-5.91014912480057
30
0
41
1
10
59.2957486369936
20
-6.09881239674658
30
0
41
1
10
59.299833509155
20
-6.15925321159483
30
0
41
1
10
59.305953297251
20
-6.24616324208441
30
0
41
1
10
59.307986945685
20
-6.27443421181857
30
0
41
1
10
59.3120327802129
20
-6.32943658638752
30
0
41
1
10
59.3140467130281
20
-6.35619285953851
30
0
41
1
10
59.3160530234295
20
-6.38221182367053
30
0
0
SPLINE
5
170
100
AcDbEntity
8
1
62
256
6
ByLayer
370
13
48
1
60
0
100
AcDbSpline
70
4
71
3
72
10
73
6
40
0
40
0
40
0
40
0
40
0.223208282292808
40
0.898136410766913
40
1
40
1
40
1
40
1
41
1.04
10
56.8621734227752
20
-4.26873428000923
30
0
41
1.04
10
56.8483721982142
20
-4.0068952868771
30
0
41
1.04
10
56.7931353610964
20
-2.87370831879597
30
0
41
1.04
10
56.7329386777285
20
-1.33633340358351
30
0
41
1.04
10
56.6857375909377
20
-0.103921743029125
30
0
41
1.04
10
56.6795397532715
20
0.0578300003212189
30
0
0
SPLINE
5
171
100
AcDbEntity
8
1
62
256
6
ByLayer
370
18
48
1
60
0
100
AcDbSpline
70
4
71
3
72
29
73
25
40
0
40
0
40
0
40
0
40
0.125000000000001
40
0.125000000000001
40
0.250000000000003
40
0.250000000000003
40
0.281250000000003
40
0.281250000000003
40
0.312500000000003
40
0.312500000000003
40
0.375000000000003
40
0.375000000000003
40
0.500000000000003
40
0.625000000000002
40
0.625000000000002
40
0.687500000000002
40
0.687500000000002
40
0.718750000000002
40
0.718750000000002
40
0.750000000000002
40
0.750000000000002
40
0.875000000000001
40
0.875000000000001
40
1
40
1
40
1
40
1
41
1
10
64.8077081377829
20
5.96288169443358
30
0
41
1
10
64.8159411033022
20
5.83334320373072
30
0
41
1
10
64.8241111301175
20
5.69392193872923
30
0
41
1
10
64.8403382436603
20
5.39542753247341
30
0
41
1
10
64.8483943383937
20
5.23635531948455
30
0
41
1
10
64.8585023652166
20
5.02491756936277
30
0
41
1
10
64.8605263098715
20
4.9819985684166
30
0
41
1
10
64.8645834950063
20
4.89488323736731
30
0
41
1
10
64.8666168063862
20
4.85068344391428
30
0
41
1
10
64.872703006944
20
4.71694169833819
30
0
41
1
10
64.8767575154629
20
4.62600473621248
30
0
41
1
10
64.8889382296587
20
4.3479701230884
30
0
41
1
10
64.9052033080914
20
3.96335358208526
30
0
41
1
10
64.9215133359071
20
3.55134696124654
30
0
41
1
10
64.9337878258296
20
3.23190379464685
30
0
41
1
10
64.9378866327874
20
3.1236796945623
30
0
41
1
10
64.9440522381671
20
2.95867614777521
30
0
41
1
10
64.9461128262376
20
2.90316271519311
30
0
41
1
10
64.9502190835556
20
2.79183797762016
30
0
41
1
10
64.9522667900736
20
2.73597304080067
30
0
41
1
10
64.9624821289474
20
2.45564686261528
30
0
41
1
10
64.970579173676
20
2.2281891372767
30
0
41
1
10
64.986739751156
20
1.76703825457059
30
0
41
1
10
64.9948035412739
20
1.53334481444531
30
0
41
1
10
65.0029202526007
20
1.29651414125513
30
0
0
SPLINE
5
172
100
AcDbEntity
8
1
62
256
6
ByLayer
370
13
48
1
60
0
100
AcDbSpline
70
4
71
3
72
10
73
6
40
0
40
0
40
0
40
0
40
0.295168273688215
40
0.97076220326849
40
1
40
1
40
1
40
1
41
1
10
57.2503316253961
20
-4.50528195847215
30
0
41
1
10
57.2320364378934
20
-4.17601913626342
30
0
41
1
10
57.1722907616376
20
-2.97160313884388
30
0
41
1
10
57.1121534464324
20
-1.43458118864552
30
0
41
1
10
57.0694045596812
20
-0.320505159640959
30
0
41
1
10
57.0676306148732
20
-0.274250389649495
30
0
0
SPLINE
5
173
100
AcDbEntity
8
1
62
256
6
ByLayer
370
18
48
1
60
0
100
AcDbSpline
70
4
71
3
72
29
73
25
40
0
40
0
40
0
40
0
40
0.125000000000001
40
0.125000000000001
40
0.187500000000002
40
0.187500000000002
40
0.218750000000002
40
0.218750000000002
40
0.250000000000002
40
0.250000000000002
40
0.375000000000002
40
0.375000000000002
40
0.500000000000003
40
0.500000000000003
40
0.625000000000003
40
0.625000000000003
40
0.656250000000003
40
0.656250000000003
40
0.687500000000003
40
0.750000000000002
40
0.750000000000002
40
0.875000000000001
40
0.875000000000001
40
1
40
1
40
1
40
1
41
1
10
57.5692077285624
20
-0.659805835706862
30
0
41
1
10
57.577316306466
20
-0.898658874017087
30
0
41
1
10
57.5854593075673
20
-1.13626579387858
30
0
41
1
10
57.5977281423266
20
-1.49078284818967
30
0
41
1
10
57.6018271073866
20
-1.60863903082955
30
0
41
1
10
57.6079931108181
20
-1.78494019179033
30
0
41
1
10
57.6100520985368
20
-1.84364664823528
30
0
41
1
10
57.614173979808
20
-1.96081393308523
30
0
41
1
10
57.6162292760588
20
-2.01905887496241
30
0
41
1
10
57.6264804056399
20
-2.30861026337087
30
0
41
1
10
57.6345988058032
20
-2.5349103311228
30
0
41
1
10
57.6507664245768
20
-2.97711953752889
30
0
41
1
10
57.6588158050744
20
-3.19302799413322
30
0
41
1
10
57.6749744325389
20
-3.61441320377193
30
0
41
1
10
57.6830884406616
20
-3.81989087406043
30
0
41
1
10
57.693352434423
20
-4.06998528351258
30
0
41
1
10
57.6954067599305
20
-4.11957278580519
30
0
41
1
10
57.6995034904986
20
-4.21753248340954
30
0
41
1
10
57.7056375585904
20
-4.36281347549024
30
0
41
1
10
57.7117400729763
20
-4.50317411704367
30
0
41
1
10
57.7239159798776
20
-4.7774311031099
30
0
41
1
10
57.7319921661943
20
-4.95166652420085
30
0
41
1
10
57.7481953884276
20
-5.28303172439399
30
0
41
1
10
57.7563379116832
20
-5.44016204880884
30
0
41
1
10
57.7645334336966
20
-5.58852092574278
30
0
0
SPLINE
5
174
100
AcDbEntity
8
1
62
256
6
ByLayer
370
18
48
1
60
0
100
AcDbSpline
70
4
71
3
72
29
73
25
40
0
40
0
40
0
40
0
40
0.124999999999999
40
0.124999999999999
40
0.187499999999998
40
0.187499999999998
40
0.218749999999998
40
0.218749999999998
40
0.249999999999998
40
0.249999999999998
40
0.374999999999998
40
0.374999999999998
40
0.499999999999998
40
0.499999999999998
40
0.624999999999997
40
0.624999999999997
40
0.656249999999998
40
0.656249999999998
40
0.687499999999998
40
0.749999999999998
40
0.749999999999998
40
0.874999999999999
40
0.874999999999999
40
1
40
1
40
1
40
1
41
1
10
56.3630331652928
20
-4.65089337406485
30
0
41
1
10
56.354940828159
20
-4.47045714670787
30
0
41
1
10
56.3468507786152
20
-4.28188343723843
30
0
41
1
10
56.3346281434512
20
-3.98656075980156
30
0
41
1
10
56.3305369888218
20
-3.88603891804112
30
0
41
1
10
56.3243616916277
20
-3.73206418873306
30
0
41
1
10
56.3222959131768
20
-3.68017180199405
30
0
41
1
10
56.3181776459357
20
-3.57596224053822
30
0
41
1
10
56.3161220856732
20
-3.52356907203611
30
0
41
1
10
56.305861220123
20
-3.26017836245788
30
0
41
1
10
56.2977077905893
20
-3.04491766066445
30
0
41
1
10
56.281473057883
20
-2.60554711683631
30
0
41
1
10
56.2733922428285
20
-2.38143670510218
30
0
41
1
10
56.2572291438581
20
-1.92433426929278
30
0
41
1
10
56.2491472589843
20
-1.69134313638023
30
0
41
1
10
56.2389670871375
20
-1.39435776479823
30
0
41
1
10
56.2369240010741
20
-1.33458375625961
30
0
41
1
10
56.2328477372264
20
-1.21505254709604
30
0
41
1
10
56.2267454218911
20
-1.03570196929422
30
0
41
1
10
56.2206678541376
20
-0.856192415397601
30
0
41
1
10
56.2085136555341
20
-0.496965898764301
30
0
41
1
10
56.200393361433
20
-0.257206172860009
30
0
41
1
10
56.1841402713345
20
0.222859596531236
30
0
41
1
10
56.1760192606343
20
0.463166023028037
30
0
41
1
10
56.167866760088
20
0.703750760994495
30
0
0
SPLINE
5
175
100
AcDbEntity
8
1
62
256
6
ByLayer
370
13
48
1
60
0
100
AcDbSpline
70
4
71
3
72
10
73
6
40
0
40
0
40
0
40
0
40
0.380212567668723
40
0.715938030004319
40
1
40
1
40
1
40
1
41
1
10
55.699140990184
20
-3.48975047865312
30
0
41
1
10
55.6757041466229
20
-2.98252864036547
30
0
41
1
10
55.6319451848027
20
-1.93930779414066
30
0
41
1
10
55.570489882108
20
-0.352489867545557
30
0
41
1
10
55.5333969669311
20
0.617551217526028
30
0
41
1
10
55.5165597495875
20
1.05061614877744
30
0
0
SPLINE
5
176
100
AcDbEntity
8
1
62
256
6
ByLayer
370
18
48
1
60
0
100
AcDbSpline
70
4
71
3
72
30
73
26
40
0
40
0
40
0
40
0
40
0.125
40
0.125
40
0.25
40
0.25
40
0.3125
40
0.3125
40
0.34375
40
0.34375
40
0.375
40
0.375
40
0.5
40
0.5
40
0.625
40
0.625
40
0.6875
40
0.6875
40
0.71875
40
0.71875
40
0.75
40
0.75
40
0.875
40
0.875
40
1
40
1
40
1
40
1
41
1
10
56.0183495871951
20
0.849085776307106
30
0
41
1
10
56.0264034316146
20
0.60993882142418
30
0
41
1
10
56.0343999862539
20
0.37044471311566
30
0
41
1
10
56.0505008462095
20
-0.10922160316494
30
0
41
1
10
56.0586369146656
20
-0.34939272225688
30
0
41
1
10
56.0709942366503
20
-0.710165036507817
30
0
41
1
10
56.0751279187089
20
-0.830508953053908
30
0
41
1
10
56.0813349475455
20
-1.01115787050111
30
0
41
1
10
56.0834030392366
20
-1.07133252341077
30
0
41
1
10
56.087517974026
20
-1.19104263467784
30
0
41
1
10
56.0895675591468
20
-1.25065781284351
30
0
41
1
10
56.0997794384096
20
-1.54754677033432
30
0
41
1
10
56.1078207684107
20
-1.78126959172454
30
0
41
1
10
56.1239450523294
20
-2.24129469081373
30
0
41
1
10
56.1320623127391
20
-2.46759565474335
30
0
41
1
10
56.1443020297295
20
-2.80142978830315
30
0
41
1
10
56.1483923546206
20
-2.91176982790461
30
0
41
1
10
56.1545441275477
20
-3.07584967971087
30
0
41
1
10
56.1565974664389
20
-3.13030447342021
30
0
41
1
10
56.1607101622864
20
-3.23873168391603
30
0
41
1
10
56.1627711195138
20
-3.2927448721932
30
0
41
1
10
56.1730342515058
20
-3.56006854070162
30
0
41
1
10
56.1811531650642
20
-3.76632680987942
30
0
41
1
10
56.1972938522773
20
-4.16411474854579
30
0
41
1
10
56.205316087157
20
-4.3556431465507
30
0
41
1
10
56.2133521362522
20
-4.53980668257995
30
0
0
SPLINE
5
177
100
AcDbEntity
8
1
62
256
6
ByLayer
370
18
48
1
60
0
100
AcDbSpline
70
4
71
3
72
29
73
25
40
0
40
0
40
0
40
0
40
0.125
40
0.125
40
0.250000000000001
40
0.250000000000001
40
0.281250000000001
40
0.281250000000001
40
0.312500000000001
40
0.375000000000001
40
0.375000000000001
40
0.5
40
0.5
40
0.625
40
0.625
40
0.65625
40
0.65625
40
0.687500000000001
40
0.687500000000001
40
0.750000000000001
40
0.750000000000001
40
0.875
40
0.875
40
1
40
1
40
1
40
1
41
1
10
57.9138255028844
20
-5.67666036343761
30
0
41
1
10
57.9058950298831
20
-5.53330454856646
30
0
41
1
10
57.8980295674101
20
-5.38053418898505
30
0
41
1
10
57.8821323548527
20
-5.05618592234288
30
0
41
1
10
57.8740965390601
20
-4.8846095407267
30
0
41
1
10
57.8637050960053
20
-4.65802778168293
30
0
41
1
10
57.8616088597162
20
-4.61203670687661
30
0
41
1
10
57.8574127706042
20
-4.51920132795618
30
0
41
1
10
57.8511150736187
20
-4.37872308330438
30
0
41
1
10
57.8448441162151
20
-4.23461332993688
30
0
41
1
10
57.8323929620145
20
-3.94163174212804
30
0
41
1
10
57.8242285616301
20
-3.73997291004122
30
0
41
1
10
57.8080953214693
20
-3.32410908356673
30
0
41
1
10
57.8000903520264
20
-3.10990545269252
30
0
41
1
10
57.7899824778724
20
-2.83414981929127
30
0
41
1
10
57.787956900434
20
-2.77859761257096
30
0
41
1
10
57.7838956255834
20
-2.6666828369286
30
0
41
1
10
57.7818585124743
20
-2.61028085677285
30
0
41
1
10
57.7757382634438
20
-2.44009971120124
30
0
41
1
10
57.7716697257448
20
-2.32600417234468
30
0
41
1
10
57.7594805733736
20
-1.98183536351112
30
0
41
1
10
57.7513757020995
20
-1.7498847561547
30
0
41
1
10
57.7351405367048
20
-1.28107365578836
30
0
41
1
10
57.7270111945382
20
-1.04421302957354
30
0
41
1
10
57.7188423334754
20
-0.804869613586533
30
0
0
SPLINE
5
178
100
AcDbEntity
8
1
62
256
6
ByLayer
370
13
48
1
60
0
100
AcDbSpline
70
4
71
3
72
10
73
6
40
0
40
0
40
0
40
0
40
0.30366378551641
40
0.637157097570689
40
1
40
1
40
1
40
1
41
1.04
10
58.4132132554076
20
-5.13281395346757
30
0
41
1.04
10
58.3944772663241
20
-4.8568173942731
30
0
41
1.04
10
58.3551975382657
20
-4.1795659538328
30
0
41
1.04
10
58.2934365220404
20
-2.83980608121231
30
0
41
1.04
10
58.2519283007417
20
-1.81025454867565
30
0
41
1.04
10
58.230491446711
20
-1.26294475181955
30
0
0
SPLINE
5
179
100
AcDbEntity
8
1
62
256
6
ByLayer
370
18
48
1
60
0
100
AcDbSpline
70
4
71
3
72
51
73
47
40
0
40
0
40
0
40
0
40
0.0090873984032405
40
0.033255998442186
40
0.033255998442186
40
0.129930398597968
40
0.129930398597968
40
0.22660479875375
40
0.22660479875375
40
0.274941998831641
40
0.274941998831641
40
0.323279198909532
40
0.323279198909532
40
0.347447798948478
40
0.347447798948478
40
0.371616398987424
40
0.371616398987424
40
0.419953599065317
40
0.419953599065317
40
0.444122199104262
40
0.444122199104262
40
0.468290799143208
40
0.468290799143208
40
0.516627999221099
40
0.516627999221099
40
0.56496519929899
40
0.56496519929899
40
0.613302399376881
40
0.613302399376881
40
0.661639599454773
40
0.661639599454773
40
0.685808199493717
40
0.685808199493717
40
0.697892499513189
40
0.697892499513189
40
0.709976799532661
40
0.709976799532661
40
0.806651199688441
40
0.806651199688441
40
0.854988399766331
40
0.854988399766331
40
0.903325599844221
40
0.903325599844221
40
0.95166279992211
40
0.95166279992211
40
1
40
1
40
1
40
1
41
1
10
47.7909533637688
20
-5.34999999865821
30
0
41
1
10
47.7559316418556
20
-5.35000075502469
30
0
41
1
10
47.6278602731881
20
-5.34931561713572
30
0
41
1
10
47.5001076713601
20
-5.3461216449096
30
0
41
1
10
47.0365712501517
20
-5.32795366318524
30
0
41
1
10
46.6679046360987
20
-5.29241254406389
30
0
41
1
10
45.9309816793735
20
-5.18110382249469
30
0
41
1
10
45.563359079671
20
-5.10517245928568
30
0
41
1
10
45.0106427423815
20
-4.96160070248945
30
0
41
1
10
44.8261749925733
20
-4.90880319652464
30
0
41
1
10
44.456277057998
20
-4.79350743359049
30
0
41
1
10
44.2707746918563
20
-4.73106106813313
30
0
41
1
10
43.9917113850474
20
-4.63006227325749
30
0
41
1
10
43.8985504863104
20
-4.59517562770205
30
0
41
1
10
43.7118967994209
20
-4.52296616145441
30
0
41
1
10
43.6187644616315
20
-4.48578350495353
30
0
41
1
10
43.3398570439028
20
-4.37110001345644
30
0
41
1
10
43.1545779998192
20
-4.29045765004938
30
0
41
1
10
42.8772374522921
20
-4.16364318312807
30
0
41
1
10
42.784888143579
20
-4.12039561194658
30
0
41
1
10
42.6003017320694
20
-4.03203542662146
30
0
41
1
10
42.508036200105
20
-3.98694912966349
30
0
41
1
10
42.2314129802457
20
-3.84890948017176
30
0
41
1
10
42.0473073111123
20
-3.75309914166343
30
0
41
1
10
41.6792630587337
20
-3.55435335265145
30
0
41
1
10
41.4953284566586
20
-3.45141383852086
30
0
41
1
10
41.1271742148028
20
-3.23885669263925
30
0
41
1
10
40.9429755769313
20
-3.12921500696913
30
0
41
1
10
40.5737413587861
20
-2.90382077351634
30
0
41
1
10
40.3886656475904
20
-2.78812135884456
30
0
41
1
10
40.1103658723315
20
-2.61000040075507
30
0
41
1
10
40.0175016485833
20
-2.54984278097945
30
0
41
1
10
39.8779819717859
20
-2.4585088639198
30
0
41
1
10
39.8314375698117
20
-2.42788215415783
30
0
41
1
10
39.7382659780012
20
-2.36627096295322
30
0
41
1
10
39.691613290141
20
-2.33526943605534
30
0
41
1
10
39.2718935349384
20
-2.05504838606734
30
0
41
1
10
38.9017103614239
20
-1.79859853205605
30
0
41
1
10
38.3477631515047
20
-1.40702680682082
30
0
41
1
10
38.1634385012962
20
-1.27521785687091
30
0
41
1
10
37.795202348887
20
-1.00935161800649
30
0
41
1
10
37.6112683633412
20
-0.875323825403854
30
0
41
1
10
37.2433014861443
20
-0.60570773607563
30
0
41
1
10
37.0592663225326
20
-0.470122400499491
30
0
41
1
10
36.6905798671276
20
-0.19809197493538
30
0
41
1
10
36.5058925152769
20
-0.0616976460215426
30
0
41
1
10
36.3208005476612
20
0.0750001751501657
30
0
0
SPLINE
5
17A
100
AcDbEntity
8
1
62
256
6
ByLayer
370
18
48
1
60
0
100
AcDbSpline
70
4
71
3
72
62
73
58
40
0
40
0
40
0
40
0
40
0.0329283159475621
40
0.0329283159475621
40
0.0493924739213432
40
0.0493924739213432
40
0.0658566318951242
40
0.0658566318951242
40
0.131713263790247
40
0.131713263790247
40
0.164641579737807
40
0.164641579737807
40
0.197569895685368
40
0.197569895685368
40
0.230498211632928
40
0.230498211632928
40
0.263426527580488
40
0.263426527580488
40
0.329283159475606
40
0.329283159475606
40
0.395139791370724
40
0.395139791370724
40
0.428068107318281
40
0.428068107318281
40
0.44453226529206
40
0.44453226529206
40
0.460996423265839
40
0.460996423265839
40
0.526853055160957
40
0.526853055160957
40
0.559781371108517
40
0.559781371108517
40
0.592709687056077
40
0.592709687056077
40
0.625638003003637
40
0.625638003003637
40
0.658566318951198
40
0.658566318951198
40
0.724422950846318
40
0.724422950846318
40
0.757351266793878
40
0.757351266793878
40
0.790279582741439
40
0.790279582741439
40
0.823207898688999
40
0.823207898688999
40
0.856136214636559
40
0.856136214636559
40
0.889064530584119
40
0.889064530584119
40
0.921992846531679
40
0.921992846531679
40
0.95492116247924
40
0.95492116247924
40
0.9878494784268
40
0.9878494784268
40
1
40
1
40
1
40
1
41
1
10
32.4434058279889
20
-4.03994211119755
30
0
41
1
10
32.557019090153
20
-4.09483712607357
30
0
41
1
10
32.6705284111894
20
-4.14832270857568
30
0
41
1
10
32.8408069106097
20
-4.22627561166911
30
0
41
1
10
32.8975742141438
20
-4.25187618373616
30
0
41
1
10
33.0111878297058
20
-4.30225831217214
30
0
41
1
10
33.0680606187613
20
-4.32704372304656
30
0
41
1
10
33.3521487230125
20
-4.44867594324205
30
0
41
1
10
33.5788229006374
20
-4.53886283360401
30
0
41
1
10
33.9175229351205
20
-4.66407995750114
30
0
41
1
10
34.0302334452124
20
-4.70411411451246
30
0
41
1
10
34.2553679884989
20
-4.7807280263917
30
0
41
1
10
34.367786849047
20
-4.81731252214095
30
0
41
1
10
34.5922789088854
20
-4.88706259357241
30
0
41
1
10
34.7043300596674
20
-4.92023533853634
30
0
41
1
10
34.928557721961
20
-4.98289879674309
30
0
41
1
10
35.0407354012358
20
-5.01239406695731
30
0
41
1
10
35.3774602994619
20
-5.09541600672642
30
0
41
1
10
35.6021963743606
20
-5.14349315077624
30
0
41
1
10
36.0521016099167
20
-5.22508652101195
30
0
41
1
10
36.2772772809767
20
-5.25858774033389
30
0
41
1
10
36.6158286292065
20
-5.29752203742743
30
0
41
1
10
36.7287952379869
20
-5.30861279967189
30
0
41
1
10
36.8987310452557
20
-5.32233541301113
30
0
41
1
10
36.9554497948663
20
-5.32642607516561
30
0
41
1
10
37.0690379852153
20
-5.33363706403946
30
0
41
1
10
37.1259450887594
20
-5.33675904115364
30
0
41
1
10
37.4104009952697
20
-5.34991182943372
30
0
41
1
10
37.6370892644011
20
-5.35257097065534
30
0
41
1
10
37.9758746421356
20
-5.34502392900606
30
0
41
1
10
38.0885987027966
20
-5.34058269733617
30
0
41
1
10
38.313647214076
20
-5.32785835779805
30
0
41
1
10
38.4259736186232
20
-5.31957387580931
30
0
41
1
10
38.6503883187507
20
-5.29918260182163
30
0
41
1
10
38.7624835457655
20
-5.28707446424136
30
0
41
1
10
38.9868504700198
20
-5.25914518180983
30
0
41
1
10
39.0990701624256
20
-5.2433161054189
30
0
41
1
10
39.4358353645593
20
-5.19027182265862
30
0
41
1
10
39.660497019745
20
-5.14751028845637
30
0
41
1
10
39.9978654876577
20
-5.07228749397498
30
0
41
1
10
40.1104141676972
20
-5.04537893711228
30
0
41
1
10
40.3355213126917
20
-4.98777074204992
30
0
41
1
10
40.4480802194725
20
-4.95706543390898
30
0
41
1
10
40.6735890096734
20
-4.89199877357123
30
0
41
1
10
40.7865363216615
20
-4.85763698740865
30
0
41
1
10
41.0130995545329
20
-4.78540835155289
30
0
41
1
10
41.126670710789
20
-4.74751783898407
30
0
41
1
10
41.3543351154827
20
-4.66811319271034
30
0
41
1
10
41.4679995838344
20
-4.62676135324082
30
0
41
1
10
41.6947812114666
20
-4.54091107197607
30
0
41
1
10
41.8079381878425
20
-4.49639768187856
30
0
41
1
10
42.0338112346595
20
-4.40423679286505
30
0
41
1
10
42.1465290645115
20
-4.35659062459501
30
0
41
1
10
42.3715555276752
20
-4.2581972750209
30
0
41
1
10
42.4838205392504
20
-4.207411774988
30
0
41
1
10
42.6373908454131
20
-4.13589907534711
30
0
41
1
10
42.6787953215303
20
-4.11644669006787
30
0
41
1
10
42.7202067470571
20
-4.09681459834164
30
0
0
SPLINE
5
17B
100
AcDbEntity
8
1
62
256
6
ByLayer
370
18
48
1
60
0
100
AcDbSpline
70
4
71
3
72
10
73
6
40
0
40
0
40
0
40
0
40
0.0951254830711276
40
0.0951254830711276
40
1
40
1
40
1
40
1
41
1
10
62.1891455996493
20
-6.68196989363923
30
0
41
1
10
62.1801343137423
20
-6.66640199316919
30
0
41
1
10
62.1711181309435
20
-6.65079921548417
30
0
41
1
10
62.0762833254517
20
-6.48640927991093
30
0
41
1
10
61.9901441102852
20
-6.33472387139699
30
0
41
1
10
61.90357052772
20
-6.18009756352745
30
0
0
SPLINE
5
17C
100
AcDbEntity
8
1
62
256
6
ByLayer
370
18
48
1
60
0
100
AcDbSpline
70
4
71
3
72
32
73
28
40
0
40
0
40
0
40
0
40
0.124999999999965
40
0.124999999999965
40
0.187499999999967
40
0.187499999999967
40
0.24999999999997
40
0.24999999999997
40
0.374999999999976
40
0.374999999999976
40
0.499999999999982
40
0.499999999999982
40
0.624999999999987
40
0.624999999999987
40
0.68749999999999
40
0.68749999999999
40
0.749999999999993
40
0.749999999999993
40
0.812499999999996
40
0.812499999999996
40
0.874999999999998
40
0.874999999999998
40
0.937500000000001
40
0.937500000000001
40
0.96875
40
0.96875
40
1
40
1
40
1
40
1
41
1
10
61.90357052772
20
-6.18009756352745
30
0
41
1
10
61.8931271225386
20
-6.16144493143193
30
0
41
1
10
61.8809699521702
20
-6.14505391760537
30
0
41
1
10
61.8607443596793
20
-6.12307134485314
30
0
41
1
10
61.8536634197141
20
-6.11618807525758
30
0
41
1
10
61.8388551462343
20
-6.10326860943144
30
0
41
1
10
61.8312079347418
20
-6.09730489072894
30
0
41
1
10
61.8077359701045
20
-6.08089151771327
30
0
41
1
10
61.7913272127683
20
-6.07184806078658
30
0
41
1
10
61.7570794902658
20
-6.05740260892946
30
0
41
1
10
61.739101688226
20
-6.05200557064725
30
0
41
1
10
61.7029987448624
20
-6.04547951349343
30
0
41
1
10
61.6847445174663
20
-6.0442608279709
30
0
41
1
10
61.6570585224254
20
-6.04591838909127
30
0
41
1
10
61.6477469070431
20
-6.04706403276325
30
0
41
1
10
61.6291521149627
20
-6.05067889957061
30
0
41
1
10
61.619973195148
20
-6.05312391113912
30
0
41
1
10
61.6018803037916
20
-6.05940520909934
30
0
41
1
10
61.5929659896094
20
-6.06323971761387
30
0
41
1
10
61.5754496686357
20
-6.07252037110607
30
0
41
1
10
61.5668393858765
20
-6.07799076620216
30
0
41
1
10
61.5505482165906
20
-6.09045368420908
30
0
41
1
10
61.5427976876027
20
-6.09747455324015
30
0
41
1
10
61.5318679256384
20
-6.10939607248088
30
0
41
1
10
61.5283322724024
20
-6.11361751128644
30
0
41
1
10
61.521622772113
20
-6.122441015319
30
0
41
1
10
61.5184370659859
20
-6.12705381501908
30
0
41
1
10
61.5154315219796
20
-6.13188124556009
30
0
0
SPLINE
5
17D
100
AcDbEntity
8
1
62
256
6
ByLayer
370
18
48
1
60
0
100
AcDbSpline
70
4
71
3
72
10
73
6
40
0
40
0
40
0
40
0
40
0.5
40
0.5
40
1
40
1
40
1
40
1
41
1
10
61.5154315219796
20
-6.13188124556009
30
0
41
1
10
61.4315232585715
20
-6.26665262557236
30
0
41
1
10
61.3479688488339
20
-6.39952666818098
30
0
41
1
10
61.1816349387264
20
-6.66113049035832
30
0
41
1
10
61.0988920304831
20
-6.78980301382481
30
0
41
1
10
61.0165497862845
20
-6.91625305451038
30
0
0
SPLINE
5
17E
100
AcDbEntity
8
1
62
256
6
ByLayer
370
18
48
1
60
0
100
AcDbSpline
70
4
71
3
72
8
73
4
40
0
40
0
40
0
40
0
40
1
40
1
40
1
40
1
41
1
10
60.8663372182579
20
-6.88406535119418
30
0
41
1
10
60.9164051481373
20
-6.89528803462113
30
0
41
1
10
60.9664742668672
20
-6.90601771902365
30
0
41
1
10
61.0165497862845
20
-6.91625305451038
30
0
0
SPLINE
5
17F
100
AcDbEntity
8
1
62
256
6
ByLayer
370
18
48
1
60
0
100
AcDbSpline
70
4
71
3
72
10
73
6
40
0
40
0
40
0
40
0
40
0.5
40
0.5
40
1
40
1
40
1
40
1
41
1
10
60.8663372182588
20
-6.88406535118617
30
0
41
1
10
60.7814175627832
20
-6.72105513582079
30
0
41
1
10
60.6961707711257
20
-6.5559248909986
30
0
41
1
10
60.5248052336213
20
-6.2214767151217
30
0
41
1
10
60.4388166397596
20
-6.05241291762539
30
0
41
1
10
60.3523999956022
20
-5.8815254739639
30
0
0
SPLINE
5
180
100
AcDbEntity
8
1
62
256
6
ByLayer
370
18
48
1
60
0
100
AcDbSpline
70
4
71
3
72
32
73
28
40
0
40
0
40
0
40
0
40
0.124999999999979
40
0.124999999999979
40
0.187499999999948
40
0.187499999999948
40
0.249999999999917
40
0.249999999999917
40
0.374999999999902
40
0.374999999999902
40
0.499999999999886
40
0.499999999999886
40
0.62499999999987
40
0.62499999999987
40
0.687499999999891
40
0.687499999999891
40
0.749999999999913
40
0.749999999999913
40
0.812499999999934
40
0.812499999999934
40
0.874999999999955
40
0.874999999999955
40
0.937499999999976
40
0.937499999999976
40
0.968749999999988
40
0.968749999999988
40
1
40
1
40
1
40
1
41
1
10
60.3523999956022
20
-5.8815254739639
30
0
41
1
10
60.3419643783715
20
-5.86088921842571
30
0
41
1
10
60.3298172630856
20
-5.84223409154649
30
0
41
1
10
60.3096084030788
20
-5.81653661818186
30
0
41
1
10
60.3025333353417
20
-5.80836056944756
30
0
41
1
10
60.2877372404367
20
-5.79275169205923
30
0
41
1
10
60.2800965422485
20
-5.78540614425285
30
0
41
1
10
60.2566423280132
20
-5.76476692318246
30
0
41
1
10
60.2402441074899
20
-5.75279048705161
30
0
41
1
10
60.2060137066185
20
-5.73225231806793
30
0
41
1
10
60.1880412625259
20
-5.72367039396988
30
0
41
1
10
60.1519416962621
20
-5.71076050380012
30
0
41
1
10
60.1336867588846
20
-5.70632024491127
30
0
41
1
10
60.1059954952886
20
-5.70308602259772
30
0
41
1
10
60.096683889907
20
-5.70258534703476
30
0
41
1
10
60.078075350724
20
-5.70290805293106
30
0
41
1
10
60.0688892698967
20
-5.70372597431586
30
0
41
1
10
60.0507815310069
20
-5.70679289585468
30
0
41
1
10
60.0418595162753
20
-5.70904008542794
30
0
41
1
10
60.0243274174556
20
-5.71519079607458
30
0
41
1
10
60.0157077956836
20
-5.71911747650262
30
0
41
1
10
59.9993992953432
20
-5.72864504926176
30
0
41
1
10
59.9916406531082
20
-5.73426179138423
30
0
41
1
10
59.9806998070415
20
-5.7441888499223
30
0
41
1
10
59.9771606913411
20
-5.74776248188363
30
0
41
1
10
59.9704451855576
20
-5.75535053589769
30
0
41
1
10
59.9672568236353
20
-5.75937364311056
30
0
41
1
10
59.9642489746059
20
-5.76364136182934
30
0
0
SPLINE
5
181
100
AcDbEntity
8
1
62
256
6
ByLayer
370
18
48
1
60
0
100
AcDbSpline
70
4
71
3
72
10
73
6
40
0
40
0
40
0
40
0
40
0.5
40
0.5
40
1
40
1
40
1
40
1
41
1
10
59.9642489746059
20
-5.76364136182934
30
0
41
1
10
59.8802203441292
20
-5.88286628159528
30
0
41
1
10
59.7965455909485
20
-5.99921037502148
30
0
41
1
10
59.6299767120194
20
-6.2258934144599
30
0
41
1
10
59.5471191191125
20
-6.33618707843442
30
0
41
1
10
59.4646648811922
20
-6.44339599567263
30
0
0
SPLINE
5
182
100
AcDbEntity
8
1
62
256
6
ByLayer
370
18
48
1
60
0
100
AcDbSpline
70
4
71
3
72
8
73
4
40
0
40
0
40
0
40
0
40
1
40
1
40
1
40
1
41
1
10
59.3160530234182
20
-6.38221182367062
30
0
41
1
10
59.3655877206767
20
-6.40305445689108
30
0
41
1
10
59.415123372235
20
-6.42344994638583
30
0
41
1
10
59.4646648811922
20
-6.4433959956726
30
0
0
SPLINE
5
183
100
AcDbEntity
8
1
62
256
6
ByLayer
370
18
48
1
60
0
100
AcDbSpline
70
4
71
3
72
10
73
6
40
0
40
0
40
0
40
0
40
0.5
40
0.5
40
1
40
1
40
1
40
1
41
1
10
59.31605302342
20
-6.38221182365515
30
0
41
1
10
59.2310432149476
20
-6.2059039989345
30
0
41
1
10
59.1456845802193
20
-6.02861460505861
30
0
41
1
10
58.9740623570306
20
-5.67216770220693
30
0
41
1
10
58.8879286275361
20
-5.49327988241262
30
0
41
1
10
58.8013608461942
20
-5.31376566082892
30
0
0
SPLINE
5
184
100
AcDbEntity
8
1
62
256
6
ByLayer
370
18
48
1
60
0
100
AcDbSpline
70
4
71
3
72
32
73
28
40
0
40
0
40
0
40
0
40
0.124999999999994
40
0.124999999999994
40
0.187499999999971
40
0.187499999999971
40
0.249999999999947
40
0.249999999999947
40
0.37499999999995
40
0.37499999999995
40
0.499999999999952
40
0.499999999999952
40
0.624999999999954
40
0.624999999999954
40
0.687499999999954
40
0.687499999999954
40
0.749999999999955
40
0.749999999999955
40
0.812499999999956
40
0.812499999999956
40
0.874999999999957
40
0.874999999999957
40
0.937499999999958
40
0.937499999999958
40
0.968749999999979
40
0.968749999999979
40
1
40
1
40
1
40
1
41
1
10
58.8013608461942
20
-5.31376566082892
30
0
41
1
10
58.7909162398554
20
-5.29210684795893
30
0
41
1
10
58.7787581154053
20
-5.27207052882821
30
0
41
1
10
58.7585319182851
20
-5.2438904946822
30
0
41
1
10
58.7514509062101
20
-5.23481678614689
30
0
41
1
10
58.7366427639157
20
-5.21727871872841
30
0
41
1
10
58.7289960790597
20
-5.20891209916658
30
0
41
1
10
58.7055254897445
20
-5.18507209148672
30
0
41
1
10
58.6891178945927
20
-5.17077202896712
30
0
41
1
10
58.654872759744
20
-5.14521403458005
30
0
41
1
10
58.6368964383657
20
-5.13391391734865
30
0
41
1
10
58.6007959824238
20
-5.1153593061801
30
0
41
1
10
58.5825428516386
20
-5.10797490060011
30
0
41
1
10
58.5548580069823
20
-5.10010520484147
30
0
41
1
10
58.5455469736308
20
-5.09801705752926
30
0
41
1
10
58.5269517072167
20
-5.09510135922358
30
0
41
1
10
58.517772381359
20
-5.09428653571629
30
0
41
1
10
58.499678285888
20
-5.09405677907949
30
0
41
1
10
58.4907631716379
20
-5.09464006713893
30
0
41
1
10
58.4732449399851
20
-5.09742531125744
30
0
41
1
10
58.4646332250477
20
-5.09964724691255
30
0
41
1
10
58.4483389233646
20
-5.10583164214782
30
0
41
1
10
58.4405867126049
20
-5.10979709502737
30
0
41
1
10
58.4296543466239
20
-5.11728304058644
30
0
41
1
10
58.4261177567248
20
-5.12004677272864
30
0
41
1
10
58.4194063413921
20
-5.12605349670261
30
0
41
1
10
58.4162196968944
20
-5.12930250764714
30
0
41
1
10
58.4132132554078
20
-5.13281395347147
30
0
0
SPLINE
5
185
100
AcDbEntity
8
1
62
256
6
ByLayer
370
18
48
1
60
0
100
AcDbSpline
70
4
71
3
72
10
73
6
40
0
40
0
40
0
40
0
40
0.5
40
0.5
40
1
40
1
40
1
40
1
41
1
10
58.4132132554053
20
-5.13281395346709
30
0
41
1
10
58.329214148503
20
-5.23092273572908
30
0
41
1
10
58.2455685786225
20
-5.32536197214077
30
0
41
1
10
58.0790607132166
20
-5.50673095691789
30
0
41
1
10
57.9962383636412
20
-5.59360398866343
30
0
41
1
10
57.9138255028844
20
-5.67666036343755
30
0
0
SPLINE
5
186
100
AcDbEntity
8
1
62
256
6
ByLayer
370
18
48
1
60
0
100
AcDbSpline
70
4
71
3
72
8
73
4
40
0
40
0
40
0
40
0
40
1
40
1
40
1
40
1
41
1
10
57.7645334336905
20
-5.58852092574421
30
0
41
1
10
57.8142953837492
20
-5.61829652302956
30
0
41
1
10
57.8640578395145
20
-5.64767736949841
30
0
41
1
10
57.9138255028844
20
-5.67666036343758
30
0
0
SPLINE
5
187
100
AcDbEntity
8
1
62
256
6
ByLayer
370
18
48
1
60
0
100
AcDbSpline
70
4
71
3
72
10
73
6
40
0
40
0
40
0
40
0
40
0.5
40
0.5
40
1
40
1
40
1
40
1
41
1
10
57.7645334336916
20
-5.58852092573664
30
0
41
1
10
57.6795827584007
20
-5.40739023959435
30
0
41
1
10
57.5942894101555
20
-5.22644316199208
30
0
41
1
10
57.4228256759885
20
-4.86504873141976
30
0
41
1
10
57.3367865779972
20
-4.68487504368318
30
0
41
1
10
57.2503316253961
20
-4.5052819584721
30
0
0
SPLINE
5
188
100
AcDbEntity
8
1
62
256
6
ByLayer
370
18
48
1
60
0
100
AcDbSpline
70
4
71
3
72
32
73
28
40
0
40
0
40
0
40
0
40
0.124999999999963
40
0.124999999999963
40
0.187499999999965
40
0.187499999999965
40
0.249999999999967
40
0.249999999999967
40
0.374999999999973
40
0.374999999999973
40
0.499999999999978
40
0.499999999999978
40
0.624999999999983
40
0.624999999999983
40
0.687499999999985
40
0.687499999999985
40
0.749999999999988
40
0.749999999999988
40
0.81249999999999
40
0.81249999999999
40
0.874999999999992
40
0.874999999999992
40
0.937499999999994
40
0.937499999999994
40
0.968749999999997
40
0.968749999999997
40
1
40
1
40
1
40
1
41
1
10
57.2503316253961
20
-4.50528195847212
30
0
41
1
10
57.2398854663442
20
-4.48358212663717
30
0
41
1
10
57.2277252983686
20
-4.4630645612684
30
0
41
1
10
57.2074961358371
20
-4.43365865823043
30
0
41
1
10
57.2004141472802
20
-4.42409026563956
30
0
41
1
10
57.1856041887599
20
-4.40539866506109
30
0
41
1
10
57.1779568396593
20
-4.39637944559618
30
0
41
1
10
57.1544843727632
20
-4.37038239992341
30
0
41
1
10
57.1380759730075
20
-4.35437710243028
30
0
41
1
10
57.1038304334836
20
-4.32488974275287
30
0
41
1
10
57.0858544755285
20
-4.31134412352557
30
0
41
1
10
57.0497551829233
20
-4.28790231034566
30
0
41
1
10
57.0315030668675
20
-4.27786472745422
30
0
41
1
10
57.003820349923
20
-4.26564887791414
30
0
41
1
10
56.994510562135
20
-4.26204511946796
30
0
41
1
10
56.9759158060319
20
-4.25597733455876
30
0
41
1
10
56.9667366965535
20
-4.25354454755114
30
0
41
1
10
56.9486429613378
20
-4.24998599123316
30
0
41
1
10
56.9397279907405
20
-4.24885856205213
30
0
41
1
10
56.9222099416768
20
-4.24811365784095
30
0
41
1
10
56.913597810809
20
-4.24851249335717
30
0
41
1
10
56.8973024904713
20
-4.25104240537763
30
0
41
1
10
56.8895497168203
20
-4.25316323200158
30
0
41
1
10
56.878616454854
20
-4.25785170228772
30
0
41
1
10
56.8750794939745
20
-4.25967507316849
30
0
41
1
10
56.8683672700449
20
-4.26381864766344
30
0
41
1
10
56.8651802353158
20
-4.26614202911716
30
0
41
1
10
56.8621734227749
20
-4.26873428000411
30
0
0
SPLINE
5
189
100
AcDbEntity
8
1
62
256
6
ByLayer
370
18
48
1
60
0
100
AcDbSpline
70
4
71
3
72
10
73
6
40
0
40
0
40
0
40
0
40
0.5
40
0.5
40
1
40
1
40
1
40
1
41
1
10
56.8621734227749
20
-4.26873428000417
30
0
41
1
10
56.778224066485
20
-4.34110919208737
30
0
41
1
10
56.6946261224988
20
-4.40915134209513
30
0
41
1
10
56.5282038032772
20
-4.53655818551499
30
0
41
1
10
56.445416476581
20
-4.59589566997963
30
0
41
1
10
56.3630331652928
20
-4.65089337406485
30
0
0
SPLINE
5
18A
100
AcDbEntity
8
1
62
256
6
ByLayer
370
18
48
1
60
0
100
AcDbSpline
70
4
71
3
72
8
73
4
40
0
40
0
40
0
40
0
40
1
40
1
40
1
40
1
41
1
10
56.213352136252
20
-4.53980668257995
30
0
41
1
10
56.2632499544913
20
-4.57716445640787
30
0
41
1
10
56.313141782001
20
-4.61419474764963
30
0
41
1
10
56.3630331652928
20
-4.65089337406485
30
0
0
SPLINE
5
18B
100
AcDbEntity
8
1
62
256
6
ByLayer
370
18
48
1
60
0
100
AcDbSpline
70
4
71
3
72
10
73
6
40
0
40
0
40
0
40
0
40
0.5
40
0.5
40
1
40
1
40
1
40
1
41
1
10
56.2133521362521
20
-4.53980668257998
30
0
41
1
10
56.1284180213706
20
-4.36184361146903
30
0
41
1
10
56.0431387126665
20
-4.18523290406588
30
0
41
1
10
55.8716728658346
20
-3.8348975853352
30
0
41
1
10
55.7856197543939
20
-3.6614372807779
30
0
41
1
10
55.699140990184
20
-3.48975047865312
30
0
0
SPLINE
5
18C
100
AcDbEntity
8
1
62
256
6
ByLayer
370
18
48
1
60
0
100
AcDbSpline
70
4
71
3
72
27
73
23
40
0
40
0
40
0
40
0
40
0.124999999999959
40
0.124999999999959
40
0.187499999999939
40
0.187499999999939
40
0.24999999999992
40
0.24999999999992
40
0.374999999999933
40
0.374999999999933
40
0.499999999999946
40
0.499999999999946
40
0.624999999999959
40
0.624999999999959
40
0.749999999999972
40
0.749999999999972
40
0.812499999999979
40
0.812499999999979
40
0.874999999999986
40
0.937499999999993
40
0.937499999999993
40
1
40
1
40
1
40
1
41
1
10
55.699140990184
20
-3.48975047865312
30
0
41
1
10
55.6901795594605
20
-3.47195929722898
30
0
41
1
10
55.6799491466222
20
-3.45467726276931
30
0
41
1
10
55.6630971335099
20
-3.4293628581828
30
0
41
1
10
55.6572243836953
20
-3.42102783761416
30
0
41
1
10
55.6449956685978
20
-3.40455300320949
30
0
41
1
10
55.6386122510915
20
-3.39638157939436
30
0
41
1
10
55.6190494957258
20
-3.37250579132535
30
0
41
1
10
55.6054192551909
20
-3.3573613605773
30
0
41
1
10
55.5770971370834
20
-3.32847311640515
30
0
41
1
10
55.5624044834135
20
-3.31473027834207
30
0
41
1
10
55.53193956928
20
-3.28868035390414
30
0
41
1
10
55.5164575261219
20
-3.27662811674921
30
0
41
1
10
55.4852850474791
20
-3.25469647360063
30
0
41
1
10
55.4695521265535
20
-3.24477693562346
30
0
41
1
10
55.4457247758295
20
-3.23168818735411
30
0
41
1
10
55.437701225455
20
-3.22760733305486
30
0
41
1
10
55.4218151310574
20
-3.22023775076261
30
0
41
1
10
55.4061061050348
20
-3.21365929844575
30
0
41
1
10
55.3907872873508
20
-3.20878152383398
30
0
41
1
10
55.3756928190786
20
-3.20486309502118
30
0
41
1
10
55.3682124629127
20
-3.20338068421464
30
0
41
1
10
55.361041441619
20
-3.20248424171899
30
0
0
SPLINE
5
18D
100
AcDbEntity
8
1
62
256
6
ByLayer
370
18
48
1
60
0
100
AcDbSpline
70
4
71
3
72
8
73
4
40
0
40
0
40
0
40
0
40
1
40
1
40
1
40
1
41
1
10
55.361041441619
20
-3.20248424171913
30
0
41
1
10
55.3386787826472
20
-3.15749293635892
30
0
41
1
10
55.3162900777693
20
-3.112641367462
30
0
41
1
10
55.2938768546728
20
-3.06792659162989
30
0
0
SPLINE
5
18E
100
AcDbEntity
8
1
62
256
6
ByLayer
370
18
48
1
60
0
100
AcDbSpline
70
4
71
3
72
24
73
20
40
0
40
0
40
0
40
0
40
0.0625000000000009
40
0.0625000000000009
40
0.125000000000002
40
0.125000000000002
40
0.250000000000004
40
0.250000000000004
40
0.375000000000007
40
0.375000000000007
40
0.437500000000008
40
0.437500000000008
40
0.500000000000009
40
0.500000000000009
40
0.749999999999995
40
0.749999999999995
40
0.874999999999997
40
0.874999999999997
40
1
40
1
40
1
40
1
41
1
10
55.2938768546728
20
-3.06792659162963
30
0
41
1
10
55.2780436134973
20
-3.03633899591398
30
0
41
1
10
55.2615064227308
20
-3.00496911262482
30
0
41
1
10
55.226846777127
20
-2.94306395573764
30
0
41
1
10
55.2087246828685
20
-2.91252163105244
30
0
41
1
10
55.1520992022387
20
-2.82199914000094
30
0
41
1
10
55.1113365249836
20
-2.76312872378386
30
0
41
1
10
55.0241859533643
20
-2.64791464215674
30
0
41
1
10
54.9777964526689
20
-2.59157220988084
30
0
41
1
10
54.9042193957426
20
-2.50865203627376
30
0
41
1
10
54.8790171121907
20
-2.48127241453076
30
0
41
1
10
54.8278493768181
20
-2.42753402662038
30
0
41
1
10
54.8018220909317
20
-2.40110371181444
30
0
41
1
10
54.6696467405508
20
-2.27094374719996
30
0
41
1
10
54.5574327097388
20
-2.17313599496779
30
0
41
1
10
54.3821655914213
20
-2.03269855366418
30
0
41
1
10
54.3224261765612
20
-1.98683967095977
30
0
41
1
10
54.2024463920199
20
-1.89792427627893
30
0
41
1
10
54.1420590564641
20
-1.85474476770179
30
0
41
1
10
54.0814412893746
20
-1.81264040791044
30
0
0
SPLINE
5
18F
100
AcDbEntity
8
1
62
256
6
ByLayer
370
18
48
1
60
0
100
AcDbSpline
70
4
71
3
72
74
73
70
40
0
40
0
40
0
40
0
40
0.0625000000000017
40
0.0625000000000017
40
0.0937500000000025
40
0.0937500000000025
40
0.109375000000003
40
0.109375000000003
40
0.117187500000003
40
0.117187500000003
40
0.125000000000003
40
0.156250000000003
40
0.156250000000003
40
0.187500000000002
40
0.187500000000002
40
0.218750000000001
40
0.218750000000001
40
0.250000000000001
40
0.250000000000001
40
0.312499999999999
40
0.312499999999999
40
0.343749999999999
40
0.343749999999999
40
0.351562499999999
40
0.351562499999999
40
0.359375
40
0.375
40
0.375
40
0.437499999999998
40
0.437499999999998
40
0.499999999999997
40
0.499999999999997
40
0.531249999999997
40
0.531249999999997
40
0.562499999999998
40
0.562499999999998
40
0.578124999999998
40
0.578124999999998
40
0.593749999999998
40
0.593749999999998
40
0.624999999999998
40
0.624999999999998
40
0.640624999999999
40
0.640624999999999
40
0.65625
40
0.65625
40
0.687500000000003
40
0.687500000000003
40
0.718750000000006
40
0.718750000000006
40
0.750000000000009
40
0.750000000000009
40
0.781250000000012
40
0.781250000000012
40
0.796875000000014
40
0.796875000000014
40
0.804687500000015
40
0.804687500000015
40
0.812500000000015
40
0.812500000000015
40
0.875000000000011
40
0.875000000000011
40
0.906250000000008
40
0.906250000000008
40
0.937500000000006
40
0.937500000000006
40
0.968750000000003
40
0.968750000000003
40
1
40
1
40
1
40
1
41
1
10
54.0814412893746
20
-1.81264040791044
30
0
41
1
10
53.7079507399957
20
-1.55321843932353
30
0
41
1
10
53.3362235160003
20
-1.28712889209206
30
0
41
1
10
52.778347082496
20
-0.881873931944995
30
0
41
1
10
52.5923353803381
20
-0.745776215753551
30
0
41
1
10
52.3128628879362
20
-0.540612309278686
30
0
41
1
10
52.2196216874675
20
-0.47206559471914
30
0
41
1
10
52.0796326280698
20
-0.369008554473055
30
0
41
1
10
52.0329335945044
20
-0.334598000843556
30
0
41
1
10
51.9396598016056
20
-0.265814022713244
30
0
41
1
10
51.7067089964516
20
-0.0938972588731133
30
0
41
1
10
51.4748254090093
20
0.0776694931549287
30
0
41
1
10
51.1047808133144
20
0.351206544952561
30
0
41
1
10
50.9202457900311
20
0.487493287420762
30
0
41
1
10
50.5515934474008
20
0.75836055536135
30
0
41
1
10
50.3674578151066
20
0.892916276041291
30
0
41
1
10
49.9990851663176
20
1.15964064313897
30
0
41
1
10
49.8150641187317
20
1.29209996022499
30
0
41
1
10
49.2627627898093
20
1.68577140789839
30
0
41
1
10
48.894347623937
20
1.94340882621054
30
0
41
1
10
48.3381849149118
20
2.31833040568134
30
0
41
1
10
48.1521418477986
20
2.44130213799954
30
0
41
1
10
47.9188697557854
20
2.59261374789097
30
0
41
1
10
47.8722047951163
20
2.62273126604902
30
0
41
1
10
47.7790168207274
20
2.68255751814289
30
0
41
1
10
47.6393728422533
20
2.77173274022476
30
0
41
1
10
47.5001076713601
20
2.85918224813847
30
0
41
1
10
47.0365712501517
20
3.14669412965597
30
0
41
1
10
46.6679046360988
20
3.3639209349497
30
0
41
1
10
45.9309816793735
20
3.76930533125898
30
0
41
1
10
45.5633590796711
20
3.95812242174293
30
0
41
1
10
45.0106427423815
20
4.2179533218951
30
0
41
1
10
44.8261749925733
20
4.30064982251582
30
0
41
1
10
44.456277057998
20
4.45772654177421
30
0
41
1
10
44.2707746918564
20
4.53205608291481
30
0
41
1
10
43.9917113850474
20
4.63716550579693
30
0
41
1
10
43.8985504863104
20
4.67113288251844
30
0
41
1
10
43.7118967994209
20
4.7368675572923
30
0
41
1
10
43.6187644616315
20
4.76850708581304
30
0
41
1
10
43.3398570439028
20
4.85971916969143
30
0
41
1
10
43.1545779998192
20
4.91558787121937
30
0
41
1
10
42.8772374522921
20
4.99188004075182
30
0
41
1
10
42.784888143579
20
5.01605972867785
30
0
41
1
10
42.6003017320694
20
5.06189729795591
30
0
41
1
10
42.508036200105
20
5.08354320339097
30
0
41
1
10
42.2314129802457
20
5.14473170203888
30
0
41
1
10
42.0473073111123
20
5.18055320722547
30
0
41
1
10
41.6792630587338
20
5.24209862177281
30
0
41
1
10
41.4953284566586
20
5.26782365650658
30
0
41
1
10
41.1271742148028
20
5.30902718457276
30
0
41
1
10
40.9429755769313
20
5.3245077970667
30
0
41
1
10
40.5737413587861
20
5.34507218971871
30
0
41
1
10
40.3886656475904
20
5.35016238011761
30
0
41
1
10
40.1103658723315
20
5.3499128979569
30
0
41
1
10
40.0175016485833
20
5.34851317531462
30
0
41
1
10
39.8779819717859
20
5.34441697988137
30
0
41
1
10
39.8314375698117
20
5.34271894619766
30
0
41
1
10
39.7382659780012
20
5.33865431861315
30
0
41
1
10
39.691613290141
20
5.33628619543504
30
0
41
1
10
39.2718935349384
20
5.3119828910163
30
0
41
1
10
38.9017103614238
20
5.26923843922233
30
0
41
1
10
38.3477631515047
20
5.17520317299744
30
0
41
1
10
38.1634385012962
20
5.13884498265284
30
0
41
1
10
37.7952023488871
20
5.05623251369991
30
0
41
1
10
37.6112683633413
20
5.00998378304729
30
0
41
1
10
37.2433014861443
20
4.907808779801
30
0
41
1
10
37.0592663225326
20
4.85188295603552
30
0
41
1
10
36.6905798671276
20
4.73060880204605
30
0
41
1
10
36.5058925152769
20
4.66528919115353
30
0
41
1
10
36.3208005476612
20
4.59528052781093
30
0
0
SPLINE
5
190
100
AcDbEntity
8
1
62
256
6
ByLayer
370
18
48
1
60
0
100
AcDbSpline
70
4
71
3
72
114
73
110
40
0
40
0
40
0
40
0
40
0.0156249999999982
40
0.0156249999999982
40
0.0234374999999973
40
0.0234374999999973
40
0.0312499999999964
40
0.0312499999999964
40
0.0624999999999928
40
0.0624999999999928
40
0.078124999999991
40
0.078124999999991
40
0.0937499999999892
40
0.0937499999999892
40
0.109374999999987
40
0.109374999999987
40
0.124999999999986
40
0.124999999999986
40
0.156249999999981
40
0.156249999999981
40
0.187499999999976
40
0.187499999999976
40
0.203124999999974
40
0.203124999999974
40
0.210937499999973
40
0.210937499999973
40
0.218749999999972
40
0.218749999999972
40
0.249999999999971
40
0.249999999999971
40
0.26562499999997
40
0.26562499999997
40
0.281249999999969
40
0.281249999999969
40
0.296874999999968
40
0.296874999999968
40
0.312499999999967
40
0.312499999999967
40
0.343749999999964
40
0.343749999999964
40
0.359374999999964
40
0.359374999999964
40
0.374999999999963
40
0.374999999999963
40
0.390624999999963
40
0.390624999999963
40
0.406249999999962
40
0.406249999999962
40
0.421874999999962
40
0.421874999999962
40
0.437499999999961
40
0.437499999999961
40
0.45312499999996
40
0.45312499999996
40
0.46874999999996
40
0.46874999999996
40
0.484374999999959
40
0.484374999999959
40
0.499999999999959
40
0.499999999999959
40
0.531249999999958
40
0.531249999999958
40
0.546874999999957
40
0.546874999999957
40
0.562499999999957
40
0.562499999999957
40
0.593749999999956
40
0.593749999999956
40
0.601562499999956
40
0.601562499999956
40
0.609374999999956
40
0.624999999999957
40
0.640624999999959
40
0.640624999999959
40
0.65624999999996
40
0.65624999999996
40
0.687499999999964
40
0.687499999999964
40
0.718749999999968
40
0.718749999999968
40
0.734374999999969
40
0.734374999999969
40
0.74999999999997
40
0.74999999999997
40
0.781249999999972
40
0.781249999999972
40
0.789062499999972
40
0.789062499999972
40
0.796874999999973
40
0.796874999999973
40
0.812499999999975
40
0.812499999999975
40
0.820312499999976
40
0.820312499999976
40
0.828124999999977
40
0.828124999999977
40
0.843749999999979
40
0.843749999999979
40
0.874999999999983
40
0.874999999999983
40
0.906249999999987
40
0.906249999999987
40
0.92187499999999
40
0.92187499999999
40
0.937499999999992
40
0.937499999999992
40
0.968749999999996
40
0.968749999999996
40
1
40
1
40
1
40
1
41
1
10
32.4434058279889
20
5.05740843003622
30
0
41
1
10
32.5570190901531
20
5.0300961214796
30
0
41
1
10
32.6705284111895
20
5.0008863467688
30
0
41
1
10
32.8408069106099
20
4.95428913562623
30
0
41
1
10
32.8975742141441
20
4.93829573954866
30
0
41
1
10
33.0111878297062
20
4.90542106351774
30
0
41
1
10
33.0680606187616
20
4.88853667306304
30
0
41
1
10
33.3521487230125
20
4.80209220887528
30
0
41
1
10
33.5788229006374
20
4.72636718867022
30
0
41
1
10
33.9175229351208
20
4.60289828035681
30
0
41
1
10
34.0302334452127
20
4.56010936487223
30
0
41
1
10
34.2553679884996
20
4.47134739808604
30
0
41
1
10
34.367786849048
20
4.4253716468753
30
0
41
1
10
34.5922789088868
20
4.33018979906001
30
0
41
1
10
34.7043300596691
20
4.28096154888422
30
0
41
1
10
34.9285577219633
20
4.17965820060337
30
0
41
1
10
35.0407354012385
20
4.1275883062319
30
0
41
1
10
35.3774602994659
20
3.96716151569007
30
0
41
1
10
35.6021963743655
20
3.8545954075874
30
0
41
1
10
36.0521016099241
20
3.61812548304644
30
0
41
1
10
36.2772772809855
20
3.49421768442196
30
0
41
1
10
36.6158286292176
20
3.30011686624223
30
0
41
1
10
36.728795237999
20
3.23402328294779
30
0
41
1
10
36.898731045269
20
3.13312144136583
30
0
41
1
10
36.95544979488
20
3.09918605776994
30
0
41
1
10
37.06903798523
20
3.0307145017876
30
0
41
1
10
37.125945088775
20
2.99615524638955
30
0
41
1
10
37.410400995283
20
2.82213996956611
30
0
41
1
10
37.6370892644132
20
2.67940976039233
30
0
41
1
10
37.9758746421464
20
2.46020066411518
30
0
41
1
10
38.0885987028071
20
2.38628195636019
30
0
41
1
10
38.3136472140861
20
2.23676061185921
30
0
41
1
10
38.425973618633
20
2.16115993292951
30
0
41
1
10
38.6503883187605
20
2.00847791807547
30
0
41
1
10
38.7624835457755
20
1.9314046260144
30
0
41
1
10
38.9868504700302
20
1.77631758272054
30
0
41
1
10
39.0990701624363
20
1.69823786826379
30
0
41
1
10
39.4358353645713
20
1.46239829944881
30
0
41
1
10
39.6604970197581
20
1.30305359307261
30
0
41
1
10
39.9978654876734
20
1.06104605573901
30
0
41
1
10
40.1104141677138
20
0.979918798348024
30
0
41
1
10
40.3355213127104
20
0.81649600843852
30
0
41
1
10
40.4480802194924
20
0.734199250215852
30
0
41
1
10
40.6735890096958
20
0.568944904419652
30
0
41
1
10
40.7865363216853
20
0.485984042219854
30
0
41
1
10
41.0130995545597
20
0.319787459254798
30
0
41
1
10
41.1266707108174
20
0.236489717609658
30
0
41
1
10
41.3543351155145
20
0.0694035809975162
30
0
41
1
10
41.4679995838618
20
-0.0140388271539678
30
0
41
1
10
41.6947812114911
20
-0.180496725630007
30
0
41
1
10
41.8079381878659
20
-0.263543721792956
30
0
41
1
10
42.0338112346806
20
-0.42924408162304
30
0
41
1
10
42.1465290645317
20
-0.511894963751729
30
0
41
1
10
42.3715555276937
20
-0.676761676071095
30
0
41
1
10
42.4838205392682
20
-0.759037100235645
30
0
41
1
10
42.7081746637124
20
-0.922831512382828
30
0
41
1
10
42.8204342181831
20
-1.00411866931205
30
0
41
1
10
43.0449478297158
20
-1.16571954126766
30
0
41
1
10
43.1572109109636
20
-1.24602057020655
30
0
41
1
10
43.4940233225647
20
-1.48542725942309
30
0
41
1
10
43.7185762119514
20
-1.64306530765998
30
0
41
1
10
44.0555016760478
20
-1.8764437887526
30
0
41
1
10
44.167828863468
20
-1.9537192806458
30
0
41
1
10
44.3925612493094
20
-2.10717117397436
30
0
41
1
10
44.5049710646017
20
-2.18334034179495
30
0
41
1
10
44.8430837516931
20
-2.40920963619846
30
0
41
1
10
45.0694219074536
20
-2.55659435068631
30
0
41
1
10
45.3536170993102
20
-2.73665833927373
30
0
41
1
10
45.4105624404997
20
-2.77248899269779
30
0
41
1
10
45.524354275604
20
-2.84358781615299
30
0
41
1
10
45.6948352153162
20
-2.94935895029556
30
0
41
1
10
45.9779457209685
20
-3.1212773579345
30
0
41
1
10
46.2034520964971
20
-3.25406549841472
30
0
41
1
10
46.4285130695843
20
-3.38443744079223
30
0
41
1
10
46.5408582186106
20
-3.4483713062894
30
0
41
1
10
46.8779761163803
20
-3.63578357992819
30
0
41
1
10
47.102586122429
20
-3.75515071269814
30
0
41
1
10
47.551635291891
20
-3.98279725552885
30
0
41
1
10
47.7761265605024
20
-4.09102853832962
30
0
41
1
10
48.1128080981287
20
-4.24492643118134
30
0
41
1
10
48.2249954509307
20
-4.29483995072002
30
0
41
1
10
48.4494894759772
20
-4.39169599110051
30
0
41
1
10
48.5618989355742
20
-4.43855535611311
30
0
41
1
10
48.8998851469321
20
-4.57422171032249
30
0
41
1
10
49.1260743787558
20
-4.65824293667759
30
0
41
1
10
49.4099135736193
20
-4.75512054136095
30
0
41
1
10
49.4667374165518
20
-4.77408728830684
30
0
41
1
10
49.5804974112055
20
-4.81119738641956
30
0
41
1
10
49.6374491781166
20
-4.82934484136902
30
0
41
1
10
49.807924146774
20
-4.88237669891194
30
0
41
1
10
49.9212467267276
20
-4.91590845978604
30
0
41
1
10
50.0907966516892
20
-4.96346068868607
30
0
41
1
10
50.1472361192944
20
-4.97885659484533
30
0
41
1
10
50.2599418772838
20
-5.00874873111007
30
0
41
1
10
50.3162180917675
20
-5.02323901841089
30
0
41
1
10
50.4850316024516
20
-5.06524698650182
30
0
41
1
10
50.597504223172
20
-5.09132962903664
30
0
41
1
10
50.9346749884582
20
-5.16392709040306
30
0
41
1
10
51.1591505529791
20
-5.20479490719487
30
0
41
1
10
51.6073788060387
20
-5.27171113605903
30
0
41
1
10
51.8311511754637
20
-5.29774107225993
30
0
41
1
10
52.1666579242184
20
-5.32548947455842
30
0
41
1
10
52.2784121023471
20
-5.33285918170233
30
0
41
1
10
52.5022532980472
20
-5.34376615532565
30
0
41
1
10
52.6143124189105
20
-5.34731080157803
30
0
41
1
10
52.9509636797681
20
-5.35222099842079
30
0
41
1
10
53.1760285676113
20
-5.34787280212026
30
0
41
1
10
53.627629739885
20
-5.3237452029374
30
0
41
1
10
53.8541547971274
20
-5.30397003877749
30
0
41
1
10
54.0814412893746
20
-5.27619456293357
30
0
0
SPLINE
5
191
100
AcDbEntity
8
1
62
256
6
ByLayer
370
18
48
1
60
0
100
AcDbSpline
70
4
71
3
72
8
73
4
40
0
40
0
40
0
40
0
40
1
40
1
40
1
40
1
41
1
10
63.4523723589238
20
2.74366935172392
30
0
41
1
10
63.5020522972604
20
2.69897112593907
30
0
41
1
10
63.5517239028036
20
2.65408648474303
30
0
41
1
10
63.6013920932289
20
2.60902020615464
30
0
0
SPLINE
5
192
100
AcDbEntity
8
1
62
256
6
ByLayer
370
18
48
1
60
0
100
AcDbSpline
70
4
71
3
72
8
73
4
40
0
40
0
40
0
40
0
40
1
40
1
40
1
40
1
41
1
10
61.9009775130665
20
4.06629677847937
30
0
41
1
10
61.9508641935093
20
4.02644621188136
30
0
41
1
10
62.0007418338135
20
3.98631224593825
30
0
41
1
10
62.0506164038614
20
3.94590009235031
30
0
0
SPLINE
5
193
100
AcDbEntity
8
1
62
256
6
ByLayer
370
18
48
1
60
0
100
AcDbSpline
70
4
71
3
72
8
73
4
40
0
40
0
40
0
40
0
40
1
40
1
40
1
40
1
41
1
10
60.3494020744069
20
5.20329292928648
30
0
41
1
10
60.3993076632889
20
5.17029009863012
30
0
41
1
10
60.4492052307956
20
5.13692248069259
30
0
41
1
10
60.4991000718695
20
5.1031940461117
30
0
0
SPLINE
5
194
100
AcDbEntity
8
1
62
256
6
ByLayer
370
18
48
1
60
0
100
AcDbSpline
70
4
71
3
72
8
73
4
40
0
40
0
40
0
40
0
40
1
40
1
40
1
40
1
41
1
10
58.798675976624
20
6.10217556319949
30
0
41
1
10
58.8483798568747
20
6.07764010640466
30
0
41
1
10
58.8980759226941
20
6.05267805419007
30
0
41
1
10
58.9477693135509
20
6.02729241659111
30
0
0
SPLINE
5
195
100
AcDbEntity
8
1
62
256
6
ByLayer
370
18
48
1
60
0
100
AcDbSpline
70
4
71
3
72
8
73
4
40
0
40
0
40
0
40
0
40
1
40
1
40
1
40
1
41
1
10
57.2473109924875
20
6.72279142892697
30
0
41
1
10
57.2971246313856
20
6.70767932335337
30
0
41
1
10
57.3469302465736
20
6.69209314166989
30
0
41
1
10
57.3967328573158
20
6.67603485368238
30
0
0
SPLINE
5
196
100
AcDbEntity
8
1
62
256
6
ByLayer
370
18
48
1
60
0
100
AcDbSpline
70
4
71
3
72
8
73
4
40
0
40
0
40
0
40
0
40
1
40
1
40
1
40
1
41
1
10
55.8651573959721
20
6.98528615122723
30
0
41
1
10
55.676071323502
20
6.69221190011015
30
0
41
1
10
55.4859639787899
20
6.38044553828607
30
0
41
1
10
55.2938768546728
20
6.04979597886259
30
0
0
SPLINE
5
197
100
AcDbEntity
8
1
62
256
6
ByLayer
370
18
48
1
60
0
100
AcDbSpline
70
4
71
3
72
24
73
20
40
0
40
0
40
0
40
0
40
0.062500000000006
40
0.062500000000006
40
0.125000000000012
40
0.125000000000012
40
0.250000000000023
40
0.250000000000023
40
0.375000000000034
40
0.375000000000034
40
0.437500000000032
40
0.437500000000032
40
0.50000000000003
40
0.50000000000003
40
0.750000000000006
40
0.750000000000006
40
0.875000000000003
40
0.875000000000003
40
1
40
1
40
1
40
1
41
1
10
55.2938768546728
20
6.04979597886228
30
0
41
1
10
55.2780436134973
20
6.02254139715629
30
0
41
1
10
55.2615064227308
20
5.99609833988808
30
0
41
1
10
55.226846777127
20
5.94432733948557
30
0
41
1
10
55.2087246828685
20
5.91901333830981
30
0
41
1
10
55.1520992022387
20
5.84483624602669
30
0
41
1
10
55.1113365249836
20
5.7977273354615
30
0
41
1
10
55.0241859533643
20
5.70836603922177
30
0
41
1
10
54.9777964526689
20
5.66611398189974
30
0
41
1
10
54.9042193957426
20
5.6065969224891
30
0
41
1
10
54.8790171121906
20
5.58740194021115
30
0
41
1
10
54.8278493768181
20
5.55070387150408
30
0
41
1
10
54.8018220909316
20
5.53314856659412
30
0
41
1
10
54.6696467405508
20
5.4493003986463
30
0
41
1
10
54.5574327097388
20
5.39472964904098
30
0
41
1
10
54.3821655914213
20
5.33163848130462
30
0
41
1
10
54.3224261765612
20
5.31372775005022
30
0
41
1
10
54.2024463920198
20
5.28466451340049
30
0
41
1
10
54.1420590564641
20
5.27344168694967
30
0
41
1
10
54.0814412893746
20
5.26552036725451
30
0
0
SPLINE
5
198
100
AcDbEntity
8
1
62
256
6
ByLayer
370
18
48
1
60
0
100
AcDbSpline
70
4
71
3
72
50
73
46
40
0
40
0
40
0
40
0
40
0.0044798858065876
40
0.0044798858065876
40
0.0236245033872275
40
0.0236245033872275
40
0.0427691209678677
40
0.0810583561291505
40
0.119347591290433
40
0.119347591290433
40
0.157636826451716
40
0.157636826451716
40
0.234215296774279
40
0.234215296774279
40
0.310793767096841
40
0.310793767096841
40
0.349083002258121
40
0.349083002258121
40
0.387372237419401
40
0.387372237419401
40
0.463950707741963
40
0.463950707741963
40
0.483095325322604
40
0.483095325322604
40
0.502239942903245
40
0.502239942903245
40
0.540529178064529
40
0.540529178064529
40
0.559673795645171
40
0.559673795645171
40
0.578818413225813
40
0.578818413225813
40
0.617107648387101
40
0.617107648387101
40
0.693686118709679
40
0.693686118709679
40
0.770264589032257
40
0.770264589032257
40
0.808553824193547
40
0.808553824193547
40
0.846843059354838
40
0.846843059354838
40
0.923421529677419
40
0.923421529677419
40
1
40
1
40
1
40
1
41
1
10
45.2568870868243
20
5.3500001127544
30
0
41
1
10
45.2701806061272
20
5.34999933871876
30
0
41
1
10
45.283477591665
20
5.34997190213971
30
0
41
1
10
45.3536170994922
20
5.34968649533349
30
0
41
1
10
45.4105624406888
20
5.34896601109483
30
0
41
1
10
45.5243542757835
20
5.34654733514145
30
0
41
1
10
45.6948352154819
20
5.34145650685258
30
0
41
1
10
45.9779457211144
20
5.32569738304198
30
0
41
1
10
46.2034520966305
20
5.30539510307267
30
0
41
1
10
46.4285130697068
20
5.28126367892278
30
0
41
1
10
46.5408582187284
20
5.26728701671232
30
0
41
1
10
46.877976116487
20
5.21983923347892
30
0
41
1
10
47.1025861225315
20
5.18081272180973
30
0
41
1
10
47.5516352919912
20
5.08820977229371
30
0
41
1
10
47.7761265606046
20
5.03465543286245
30
0
41
1
10
48.1128080982386
20
4.94335733597208
30
0
41
1
10
48.2249954510438
20
4.91107633931989
30
0
41
1
10
48.4494894760988
20
4.84288197551283
30
0
41
1
10
48.561898935701
20
4.80702737273674
30
0
41
1
10
48.8998851470766
20
4.69436275023281
30
0
41
1
10
49.1260743789153
20
4.6123796139903
30
0
41
1
10
49.4099135738017
20
4.50118860509119
30
0
41
1
10
49.4667374167391
20
4.47851449521013
30
0
41
1
10
49.5804974114028
20
4.43228741616835
30
0
41
1
10
49.6374491783106
20
4.40872713701461
30
0
41
1
10
49.8079241469522
20
4.33694808261939
30
0
41
1
10
49.9212467268959
20
4.28756197288317
30
0
41
1
10
50.0907966518433
20
4.21124476007182
30
0
41
1
10
50.1472361194441
20
4.18542852700469
30
0
41
1
10
50.2599418774245
20
4.13302522876637
30
0
41
1
10
50.3162180919037
20
4.10644644383194
30
0
41
1
10
50.4850316025753
20
4.02577862211174
30
0
41
1
10
50.5975042232877
20
3.97071565108607
30
0
41
1
10
50.9346749885512
20
3.80170100712311
30
0
41
1
10
51.1591505530585
20
3.68395538606703
30
0
41
1
10
51.6073788060943
20
3.43834005651752
30
0
41
1
10
51.831151175509
20
3.31048259250935
30
0
41
1
10
52.1666579242507
20
3.11146136103656
30
0
41
1
10
52.2784121023754
20
3.04384919518137
30
0
41
1
10
52.5022532980685
20
2.90663465814057
30
0
41
1
10
52.6143124189286
20
2.83700318989273
30
0
41
1
10
52.9509636797777
20
2.62510839234827
30
0
41
1
10
53.1760285676168
20
2.47984951956502
30
0
41
1
10
53.6276297398854
20
2.1814768178055
30
0
41
1
10
53.8541547971269
20
2.02835207050856
30
0
41
1
10
54.0814412893746
20
1.87115321534986
30
0
0
SPLINE
5
199
100
AcDbEntity
8
1
62
256
6
ByLayer
370
18
48
1
60
0
100
AcDbSpline
70
4
71
3
72
28
73
24
40
0
40
0
40
0
40
0
40
0.125000000000004
40
0.125000000000004
40
0.250000000000009
40
0.250000000000009
40
0.375000000000013
40
0.375000000000013
40
0.437500000000016
40
0.437500000000016
40
0.500000000000018
40
0.500000000000018
40
0.625000000000039
40
0.625000000000039
40
0.75000000000006
40
0.75000000000006
40
0.781250000000058
40
0.781250000000058
40
0.812500000000056
40
0.812500000000056
40
0.875000000000038
40
0.875000000000038
40
1
40
1
40
1
40
1
41
1
10
54.0814412893746
20
1.87115321534978
30
0
41
1
10
54.1397114307242
20
1.83085165840498
30
0
41
1
10
54.1974237097618
20
1.79176994814904
30
0
41
1
10
54.3116283851896
20
1.71576372298747
30
0
41
1
10
54.368125760591
20
1.67884648832825
30
0
41
1
10
54.4797490890188
20
1.60698766909519
30
0
41
1
10
54.5348719204872
20
1.57203930650661
30
0
41
1
10
54.6164360849517
20
1.52112492544461
30
0
41
1
10
54.6434382586903
20
1.50440761411321
30
0
41
1
10
54.6970598008385
20
1.47151714687885
30
0
41
1
10
54.7237176720315
20
1.45531869660371
30
0
41
1
10
54.8028511821265
20
1.40780378405054
30
0
41
1
10
54.8540325672192
20
1.37784177559715
30
0
41
1
10
54.9531142942974
20
1.32194311967839
30
0
41
1
10
55.0010183491416
20
1.29599857165883
30
0
41
1
10
55.0586745435957
20
1.26683219580229
30
0
41
1
10
55.0700940613736
20
1.26116407160893
30
0
41
1
10
55.092702797208
20
1.25018602898527
30
0
41
1
10
55.1039100215093
20
1.2448678827117
30
0
41
1
10
55.1370274106253
20
1.22956694258429
30
0
41
1
10
55.1584080099594
20
1.22024555699665
30
0
41
1
10
55.2203669899286
20
1.19526845360696
30
0
41
1
10
55.2587864525395
20
1.18256230735486
30
0
41
1
10
55.2938768546728
20
1.1751948073109
30
0
0
SPLINE
5
19A
100
AcDbEntity
8
1
62
256
6
ByLayer
370
18
48
1
60
0
100
AcDbSpline
70
4
71
3
72
8
73
4
40
0
40
0
40
0
40
0
40
1
40
1
40
1
40
1
41
1
10
55.2938768546728
20
1.1751948073109
30
0
41
1
10
55.3066156800078
20
1.17252019287193
30
0
41
1
10
55.3193860956923
20
1.17000492243304
30
0
41
1
10
55.3321422222339
20
1.16737073104167
30
0
0
SPLINE
5
19B
100
AcDbEntity
8
1
62
256
6
ByLayer
370
18
48
1
60
0
100
AcDbSpline
70
4
71
3
72
18
73
14
40
0
40
0
40
0
40
0
40
0.125000000000034
40
0.125000000000034
40
0.250000000000068
40
0.250000000000068
40
0.500000000000011
40
0.500000000000011
40
0.749999999999954
40
0.749999999999954
40
0.874999999999977
40
0.874999999999977
40
1
40
1
40
1
40
1
41
1
10
55.3321422222338
20
1.16737073104176
30
0
41
1
10
55.3405628861132
20
1.16053541722701
30
0
41
1
10
55.349086187543
20
1.15377910933901
30
0
41
1
10
55.3660273701701
20
1.14067877943052
30
0
41
1
10
55.3744471393481
20
1.1343312949941
30
0
41
1
10
55.3995399313646
20
1.11591312508463
30
0
41
1
10
55.4160503775513
20
1.10445281297379
30
0
41
1
10
55.4484895890986
20
1.08351190591938
30
0
41
1
10
55.4639151073732
20
1.07435561585845
30
0
41
1
10
55.4853987445449
20
1.06314783892142
30
0
41
1
10
55.4923259287607
20
1.0598208192263
30
0
41
1
10
55.5051752995027
20
1.05433387687054
30
0
41
1
10
55.5111350050864
20
1.05215011948084
30
0
41
1
10
55.5165597495875
20
1.05061614877744
30
0
0
SPLINE
5
19C
100
AcDbEntity
8
1
62
256
6
ByLayer
370
18
48
1
60
0
100
AcDbSpline
70
4
71
3
72
10
73
6
40
0
40
0
40
0
40
0
40
0.5
40
0.5
40
1
40
1
40
1
40
1
41
1
10
55.5165597495875
20
1.05061614877747
30
0
41
1
10
55.6010931596889
20
1.02671239173858
30
0
41
1
10
55.6851961317306
20
0.997931865070882
30
0
41
1
10
55.8524957718551
20
0.930688911548231
30
0
41
1
10
55.9356498035173
20
0.892251081914566
30
0
41
1
10
56.0183495871952
20
0.849085776307163
30
0
0
SPLINE
5
19D
100
AcDbEntity
8
1
62
256
6
ByLayer
370
18
48
1
60
0
100
AcDbSpline
70
4
71
3
72
8
73
4
40
0
40
0
40
0
40
0
40
1
40
1
40
1
40
1
41
1
10
56.167866760098
20
0.703750760997906
30
0
41
1
10
56.11802987146
20
0.752251054788729
30
0
41
1
10
56.0681993000995
20
0.800704681646891
30
0
41
1
10
56.0183495871952
20
0.849085776307106
30
0
0
SPLINE
5
19E
100
AcDbEntity
8
1
62
256
6
ByLayer
370
18
48
1
60
0
100
AcDbSpline
70
4
71
3
72
10
73
6
40
0
40
0
40
0
40
0
40
0.5
40
0.5
40
1
40
1
40
1
40
1
41
1
10
56.167866760097
20
0.703750760995149
30
0
41
1
10
56.2521882059503
20
0.587378915309245
30
0
41
1
10
56.3369378789128
20
0.475235155891255
30
0
41
1
10
56.5075503056591
20
0.259691124988251
30
0
41
1
10
56.5932697776861
20
0.156433210356795
30
0
41
1
10
56.6795397532715
20
0.0578300003212178
30
0
0
SPLINE
5
19F
100
AcDbEntity
8
1
62
256
6
ByLayer
370
18
48
1
60
0
100
AcDbSpline
70
4
71
3
72
32
73
28
40
0
40
0
40
0
40
0
40
0.124999999999949
40
0.124999999999949
40
0.187499999999925
40
0.187499999999925
40
0.249999999999901
40
0.249999999999901
40
0.374999999999852
40
0.374999999999852
40
0.437499999999828
40
0.437499999999828
40
0.499999999999804
40
0.499999999999804
40
0.624999999999811
40
0.624999999999811
40
0.687499999999843
40
0.687499999999843
40
0.749999999999874
40
0.749999999999874
40
0.812499999999906
40
0.812499999999906
40
0.874999999999937
40
0.874999999999937
40
0.937499999999969
40
0.937499999999969
40
1
40
1
40
1
40
1
41
1
10
56.6795397532715
20
0.0578300003212178
30
0
41
1
10
56.6903103728648
20
0.04551960312034
30
0
41
1
10
56.7028810851026
20
0.032216181472819
30
0
41
1
10
56.7237634938055
20
0.0111602626768672
30
0
41
1
10
56.731070707959
20
0.0039529517663368
30
0
41
1
10
56.7463394935086
20
-0.0108192845507347
30
0
41
1
10
56.7542211631339
20
-0.0183061944366614
30
0
41
1
10
56.7783271455075
20
-0.0408452356884084
30
0
41
1
10
56.7950974200587
20
-0.0560617987024727
30
0
41
1
10
56.8212128657602
20
-0.0791776153533021
30
0
41
1
10
56.8301162572253
20
-0.0869634459303938
30
0
41
1
10
56.8480751725108
20
-0.102489966138592
30
0
41
1
10
56.8570885366736
20
-0.110195026496171
30
0
41
1
10
56.8842208288645
20
-0.133147541498914
30
0
41
1
10
56.9024309468999
20
-0.148234416640378
30
0
41
1
10
56.929910185597
20
-0.170552935163613
30
0
41
1
10
56.9391417686996
20
-0.177974702206399
30
0
41
1
10
56.9572871762295
20
-0.192412468575014
30
0
41
1
10
56.9662318676
20
-0.199454318634054
30
0
41
1
10
56.9838374149345
20
-0.213161537778092
30
0
41
1
10
56.9924985911753
20
-0.219827341312964
30
0
41
1
10
57.0094899982971
20
-0.232732774801605
30
0
41
1
10
57.0178035135405
20
-0.238958182802492
30
0
41
1
10
57.0335457230027
20
-0.250546893308126
30
0
41
1
10
57.0410361808028
20
-0.255957764878048
30
0
41
1
10
57.0551313133777
20
-0.265885221911617
30
0
41
1
10
57.0617397865403
20
-0.270402080715456
30
0
41
1
10
57.0676306148696
20
-0.274250389653787
30
0
0
SPLINE
5
1A0
100
AcDbEntity
8
1
62
256
6
ByLayer
370
18
48
1
60
0
100
AcDbSpline
70
4
71
3
72
10
73
6
40
0
40
0
40
0
40
0
40
0.5
40
0.5
40
1
40
1
40
1
40
1
41
1
10
57.0676306148736
20
-0.274250389649467
30
0
41
1
10
57.152111846558
20
-0.329439551653024
30
0
41
1
10
57.2361676374933
20
-0.389245496072164
30
0
41
1
10
57.4033896186795
20
-0.517905769997526
30
0
41
1
10
57.4865179234853
20
-0.586695713073993
30
0
41
1
10
57.5692077285624
20
-0.659805835706806
30
0
0
SPLINE
5
1A1
100
AcDbEntity
8
1
62
256
6
ByLayer
370
18
48
1
60
0
100
AcDbSpline
70
4
71
3
72
8
73
4
40
0
40
0
40
0
40
0
40
1
40
1
40
1
40
1
41
1
10
57.7188423334858
20
-0.804869613583293
30
0
41
1
10
57.6689697178273
20
-0.756550215552238
30
0
41
1
10
57.6190920484599
20
-0.708195050319432
30
0
41
1
10
57.5692077285624
20
-0.659805835706806
30
0
0
SPLINE
5
1A2
100
AcDbEntity
8
1
62
256
6
ByLayer
370
18
48
1
60
0
100
AcDbSpline
70
4
71
3
72
10
73
6
40
0
40
0
40
0
40
0
40
0.5
40
0.5
40
1
40
1
40
1
40
1
41
1
10
57.7188423334848
20
-0.804869613582895
30
0
41
1
10
57.8032416115966
20
-0.890831829598454
30
0
41
1
10
57.8880372310236
20
-0.972086049055633
30
0
41
1
10
58.0586301472025
20
-1.12499127683356
30
0
41
1
10
58.144279476695
20
-1.19660840473429
30
0
41
1
10
58.230491446711
20
-1.26294475181913
30
0
0
SPLINE
5
1A3
100
AcDbEntity
8
1
62
256
6
ByLayer
370
18
48
1
60
0
100
AcDbSpline
70
4
71
3
72
32
73
28
40
0
40
0
40
0
40
0
40
0.124999999999939
40
0.124999999999939
40
0.187499999999908
40
0.187499999999908
40
0.249999999999878
40
0.249999999999878
40
0.374999999999816
40
0.374999999999816
40
0.437499999999812
40
0.437499999999812
40
0.499999999999808
40
0.499999999999808
40
0.624999999999855
40
0.624999999999855
40
0.687499999999879
40
0.687499999999879
40
0.749999999999904
40
0.749999999999904
40
0.812499999999928
40
0.812499999999928
40
0.874999999999952
40
0.874999999999952
40
0.937499999999976
40
0.937499999999976
40
1
40
1
40
1
40
1
41
1
10
58.230491446711
20
-1.26294475181913
30
0
41
1
10
58.2412690605438
20
-1.27123765513437
30
0
41
1
10
58.2538460155699
20
-1.28106987894304
30
0
41
1
10
58.2747355170409
20
-1.29752500648837
30
0
41
1
10
58.2820447408542
20
-1.30330252108408
30
0
41
1
10
58.2973167887695
20
-1.3154109034374
30
0
41
1
10
58.3051985002817
20
-1.3216775861369
30
0
41
1
10
58.3293057312628
20
-1.34089685272599
30
0
41
1
10
58.3460761725846
20
-1.35433255819842
30
0
41
1
10
58.3721911177605
20
-1.37538252937742
30
0
41
1
10
58.3810940075174
20
-1.38257987331386
30
0
41
1
10
58.3990528392004
20
-1.39715017755864
30
0
41
1
10
58.408066206088
20
-1.40448839561458
30
0
41
1
10
58.4351984332675
20
-1.42667083744328
30
0
41
1
10
58.4534084330982
20
-1.44167938527647
30
0
41
1
10
58.4808863690418
20
-1.46460972995001
30
0
41
1
10
58.4901179388764
20
-1.47236193494052
30
0
41
1
10
58.5082654492208
20
-1.48772006167729
30
0
41
1
10
58.51721107228
20
-1.49535021580405
30
0
41
1
10
58.5348180876435
20
-1.51051215600006
30
0
41
1
10
58.5434798096176
20
-1.51804404529764
30
0
41
1
10
58.5604718628216
20
-1.53300105678784
30
0
41
1
10
58.5687881786926
20
-1.54041573075841
30
0
41
1
10
58.5845350467427
20
-1.55467786317016
30
0
41
1
10
58.5920276254418
20
-1.56157930447606
30
0
41
1
10
58.60612654339
20
-1.57484653373518
30
0
41
1
10
58.6127384847571
20
-1.58122055298281
30
0
41
1
10
58.6186327151464
20
-1.58708705181468
30
0
0
SPLINE
5
1A4
100
AcDbEntity
8
1
62
256
6
ByLayer
370
18
48
1
60
0
100
AcDbSpline
70
4
71
3
72
10
73
6
40
0
40
0
40
0
40
0
40
0.5
40
0.5
40
1
40
1
40
1
40
1
41
1
10
58.6186327151496
20
-1.58708705181107
30
0
41
1
10
58.7031264770755
20
-1.67118328200618
30
0
41
1
10
58.7871959995142
20
-1.75943059364769
30
0
41
1
10
58.9544518471278
20
-1.94391889089411
30
0
41
1
10
59.0376005717473
20
-2.04008769928464
30
0
41
1
10
59.120316028485
20
-2.14001550704302
30
0
0
SPLINE
5
1A5
100
AcDbEntity
8
1
62
256
6
ByLayer
370
18
48
1
60
0
100
AcDbSpline
70
4
71
3
72
8
73
4
40
0
40
0
40
0
40
0
40
1
40
1
40
1
40
1
41
1
10
59.2695420344131
20
-2.2779773812579
30
0
41
1
10
59.2197955802241
20
-2.23213924480297
30
0
41
1
10
59.1700541140458
20
-2.18615139015023
30
0
41
1
10
59.120316028485
20
-2.14001550704302
30
0
0
SPLINE
5
1A6
100
AcDbEntity
8
1
62
256
6
ByLayer
370
18
48
1
60
0
100
AcDbSpline
70
4
71
3
72
10
73
6
40
0
40
0
40
0
40
0
40
0.5
40
0.5
40
1
40
1
40
1
40
1
41
1
10
59.2695420344122
20
-2.27797738125415
30
0
41
1
10
59.353949406382
20
-2.32958842968506
30
0
41
1
10
59.4387699452432
20
-2.37608142099867
30
0
41
1
10
59.6094468205804
20
-2.45868533714554
30
0
41
1
10
59.6951681677379
20
-2.49476500250586
30
0
41
1
10
59.7814123616132
20
-2.52544812935921
30
0
0
SPLINE
5
1A7
100
AcDbEntity
8
1
62
256
6
ByLayer
370
18
48
1
60
0
100
AcDbSpline
70
4
71
3
72
32
73
28
40
0
40
0
40
0
40
0
40
0.124999999999933
40
0.124999999999933
40
0.1874999999999
40
0.1874999999999
40
0.249999999999866
40
0.249999999999866
40
0.374999999999849
40
0.374999999999849
40
0.437499999999842
40
0.437499999999842
40
0.499999999999835
40
0.499999999999835
40
0.624999999999876
40
0.624999999999876
40
0.687499999999897
40
0.687499999999897
40
0.749999999999917
40
0.749999999999917
40
0.812499999999938
40
0.812499999999938
40
0.874999999999959
40
0.874999999999959
40
0.937499999999979
40
0.937499999999979
40
1
40
1
40
1
40
1
41
1
10
59.7814123616132
20
-2.52544812935921
30
0
41
1
10
59.7922070353372
20
-2.52928855418469
30
0
41
1
10
59.8048063292509
20
-2.53515013469405
30
0
41
1
10
59.8257306629614
20
-2.54619182686028
30
0
41
1
10
59.8330517627155
20
-2.55025767109518
30
0
41
1
10
59.8483473461349
20
-2.55911844362049
30
0
41
1
10
59.8562397656742
20
-2.56386677811005
30
0
41
1
10
59.8803757033143
20
-2.57885806747606
30
0
41
1
10
59.8971604527704
20
-2.58988807402449
30
0
41
1
10
59.9232880085508
20
-2.60790483178334
30
0
41
1
10
59.9321943948045
20
-2.6141854030293
30
0
41
1
10
59.9501520331158
20
-2.62713285216071
30
0
41
1
10
59.9591636577557
20
-2.63376994393744
30
0
41
1
10
59.9862875559756
20
-2.6541752366999
30
0
41
1
10
60.0044878063287
20
-2.66842865715421
30
0
41
1
10
60.0319474194291
20
-2.6909386648633
30
0
41
1
10
60.041170391335
20
-2.69867060793061
30
0
41
1
10
60.0592968829127
20
-2.71424909163679
30
0
41
1
10
60.0682324655855
20
-2.72212011189785
30
0
41
1
10
60.0858206566619
20
-2.73804645765389
30
0
41
1
10
60.0944735991109
20
-2.74610155822032
30
0
41
1
10
60.1114494406411
20
-2.76242924296824
30
0
41
1
10
60.1197568806954
20
-2.77069215961279
30
0
41
1
10
60.1354894921653
20
-2.78697349360232
30
0
41
1
10
60.1429762896151
20
-2.79504932590947
30
0
41
1
10
60.1570662611227
20
-2.81104922935927
30
0
41
1
10
60.1636753363945
20
-2.81898816855781
30
0
41
1
10
60.1695683562199
20
-2.82660468864287
30
0
0
SPLINE
5
1A8
100
AcDbEntity
8
1
62
256
6
ByLayer
370
18
48
1
60
0
100
AcDbSpline
70
4
71
3
72
10
73
6
40
0
40
0
40
0
40
0
40
0.5
40
0.5
40
1
40
1
40
1
40
1
41
1
10
60.1695683562231
20
-2.82660468864088
30
0
41
1
10
60.2541096860516
20
-2.93587137291382
30
0
41
1
10
60.3382228000879
20
-3.04864379096111
30
0
41
1
10
60.5055577036394
20
-3.28082381124807
30
0
41
1
10
60.588742831552
20
-3.40014658774354
30
0
41
1
10
60.6714950797538
20
-3.52251397869136
30
0
0
SPLINE
5
1A9
100
AcDbEntity
8
1
62
256
6
ByLayer
370
18
48
1
60
0
100
AcDbSpline
70
4
71
3
72
8
73
4
40
0
40
0
40
0
40
0
40
1
40
1
40
1
40
1
41
1
10
60.8211699482569
20
-3.64815620925856
30
0
41
1
10
60.7712645071011
20
-3.60653189633354
30
0
41
1
10
60.7213735761436
20
-3.56465056791202
30
0
41
1
10
60.6714950797537
20
-3.52251397869136
30
0
0
SPLINE
5
1AA
100
AcDbEntity
8
1
62
256
6
ByLayer
370
18
48
1
60
0
100
AcDbSpline
70
4
71
3
72
10
73
6
40
0
40
0
40
0
40
0
40
0.5
40
0.5
40
1
40
1
40
1
40
1
41
1
10
60.8211699482564
20
-3.64815620925333
30
0
41
1
10
60.905496360704
20
-3.66326777751308
30
0
41
1
10
60.9902278136367
20
-3.67306130934267
30
0
41
1
10
61.1607160986779
20
-3.68191343357296
30
0
41
1
10
61.2463360501315
20
-3.68099530527169
30
0
41
1
10
61.3324723412758
20
-3.67459727352485
30
0
0
SPLINE
5
1AB
100
AcDbEntity
8
1
62
256
6
ByLayer
370
18
48
1
60
0
100
AcDbSpline
70
4
71
3
72
32
73
28
40
0
40
0
40
0
40
0
40
0.124999999999979
40
0.124999999999979
40
0.187499999999968
40
0.187499999999968
40
0.249999999999958
40
0.249999999999958
40
0.37499999999994
40
0.37499999999994
40
0.437499999999929
40
0.437499999999929
40
0.499999999999919
40
0.499999999999919
40
0.624999999999897
40
0.624999999999897
40
0.687499999999914
40
0.687499999999914
40
0.749999999999931
40
0.749999999999931
40
0.812499999999948
40
0.812499999999948
40
0.874999999999965
40
0.874999999999965
40
0.937499999999983
40
0.937499999999983
40
1
40
1
40
1
40
1
41
1
10
61.3324723412758
20
-3.67459727352482
30
0
41
1
10
61.3432663911602
20
-3.67379551304825
30
0
41
1
10
61.3558662768487
20
-3.67539553802709
30
0
41
1
10
61.3767937733758
20
-3.6804711383636
30
0
41
1
10
61.3841163043303
20
-3.6826212103804
30
0
41
1
10
61.3994156318816
20
-3.68778815893719
30
0
41
1
10
61.4073115473929
20
-3.69077949687755
30
0
41
1
10
61.4314565444813
20
-3.7007876254531
30
0
41
1
10
61.448247991965
20
-3.70885476721031
30
0
41
1
10
61.4743865323127
20
-3.72292800277353
30
0
41
1
10
61.4832970460793
20
-3.72797411999295
30
0
41
1
10
61.5012610912934
20
-3.73864791235388
30
0
41
1
10
61.5102757207115
20
-3.74425024100879
30
0
41
1
10
61.5374076683687
20
-3.76185343979844
30
0
41
1
10
61.5556119672275
20
-3.77463676385642
30
0
41
1
10
61.5830745096364
20
-3.7956037191411
30
0
41
1
10
61.5922969741409
20
-3.802931578776
30
0
41
1
10
61.610418299848
20
-3.81795975759539
30
0
41
1
10
61.6193506248673
20
-3.82568274408649
30
0
41
1
10
61.6369308963409
20
-3.84158802513935
30
0
41
1
10
61.6455791616386
20
-3.84976980225196
30
0
41
1
10
61.6625443386785
20
-3.86666569633309
30
0
41
1
10
61.6708446377958
20
-3.87537147546701
30
0
41
1
10
61.6865631609288
20
-3.89287298871048
30
0
41
1
10
61.6940427883157
20
-3.90172691123504
30
0
41
1
10
61.7081188367213
20
-3.91967393579151
30
0
41
1
10
61.7147213178423
20
-3.92878774098702
30
0
41
1
10
61.7206090054864
20
-3.9377799302614
30
0
0
SPLINE
5
1AC
100
AcDbEntity
8
1
62
256
6
ByLayer
370
18
48
1
60
0
100
AcDbSpline
70
4
71
3
72
10
73
6
40
0
40
0
40
0
40
0
40
0.5
40
0.5
40
1
40
1
40
1
40
1
41
1
10
61.7206090054896
20
-3.93777993026114
30
0
41
1
10
61.8051494397744
20
-4.06689744334997
30
0
41
1
10
61.8892537556677
20
-4.19877758414665
30
0
41
1
10
62.0565409179539
20
-4.46765058499625
30
0
41
1
10
62.1396885582979
20
-4.60454181898211
30
0
41
1
10
62.2224096447414
20
-4.74362265769142
30
0
0
SPLINE
5
1AD
100
AcDbEntity
8
1
62
256
6
ByLayer
370
18
48
1
60
0
100
AcDbSpline
70
4
71
3
72
8
73
4
40
0
40
0
40
0
40
0
40
1
40
1
40
1
40
1
41
1
10
62.3720275102026
20
-4.85094849381679
30
0
41
1
10
62.3221345043693
20
-4.81552127770635
30
0
41
1
10
62.2722627572954
20
-4.77974546681145
30
0
41
1
10
62.2224096447414
20
-4.74362265769142
30
0
0
SPLINE
5
1AE
100
AcDbEntity
8
1
62
256
6
ByLayer
370
18
48
1
60
0
100
AcDbSpline
70
4
71
3
72
10
73
6
40
0
40
0
40
0
40
0
40
0.5
40
0.5
40
1
40
1
40
1
40
1
41
1
10
62.3720275102023
20
-4.8509484938125
30
0
41
1
10
62.4563144620971
20
-4.82893665669042
30
0
41
1
10
62.5410381294871
20
-4.80168675029682
30
0
41
1
10
62.7115851097105
20
-4.73666179089673
30
0
41
1
10
62.797270318199
20
-4.6989652158293
30
0
41
1
10
62.8835129339872
20
-4.65594967151171
30
0
0
SPLINE
5
1AF
100
AcDbEntity
8
1
62
256
6
ByLayer
370
18
48
1
60
0
100
AcDbSpline
70
4
71
3
72
32
73
28
40
0
40
0
40
0
40
0
40
0.125000000000037
40
0.125000000000037
40
0.187500000000034
40
0.187500000000034
40
0.25000000000003
40
0.25000000000003
40
0.375000000000073
40
0.375000000000073
40
0.437500000000067
40
0.437500000000067
40
0.50000000000006
40
0.50000000000006
40
0.625000000000047
40
0.625000000000047
40
0.687500000000039
40
0.687500000000039
40
0.750000000000031
40
0.750000000000031
40
0.812500000000023
40
0.812500000000023
40
0.875000000000016
40
0.875000000000016
40
0.937500000000008
40
0.937500000000008
40
1
40
1
40
1
40
1
41
1
10
62.8835129339872
20
-4.65594967151176
30
0
41
1
10
62.8943069906419
20
-4.65056588046886
30
0
41
1
10
62.9069072629465
20
-4.64785771955158
30
0
41
1
10
62.9278366984601
20
-4.64677750464858
30
0
41
1
10
62.9351601084536
20
-4.64692808493425
30
0
41
1
10
62.9504619261255
20
-4.64819503479316
30
0
41
1
10
62.9583603228785
20
-4.64930734339256
30
0
41
1
10
62.9825114294229
20
-4.65392067971831
30
0
41
1
10
62.9993071729168
20
-4.65868816030115
30
0
41
1
10
63.0254534555545
20
-4.66822390891431
30
0
41
1
10
63.0343673126048
20
-4.6718217152106
30
0
41
1
10
63.0523347153687
20
-4.67976730016807
30
0
41
1
10
63.0613509108384
20
-4.68409536656185
30
0
41
1
10
63.0884870963897
20
-4.69814098287907
30
0
41
1
10
63.1066935842439
20
-4.70890183415551
30
0
41
1
10
63.134158312362
20
-4.72741283287178
30
0
41
1
10
63.1433797249595
20
-4.73401624388461
30
0
41
1
10
63.1614942786174
20
-4.74783340349921
30
0
41
1
10
63.1704228637938
20
-4.7550674121803
30
0
41
1
10
63.1879948706652
20
-4.7702463417406
30
0
41
1
10
63.1966386117547
20
-4.77819046142292
30
0
41
1
10
63.2135938467122
20
-4.79489883309583
30
0
41
1
10
63.2218863367764
20
-4.80365510563257
30
0
41
1
10
63.2375899364846
20
-4.82158443577822
30
0
41
1
10
63.2450620619652
20
-4.83081377102715
30
0
41
1
10
63.2591235039394
20
-4.84988766435211
30
0
41
1
10
63.2657188254662
20
-4.85975747213271
30
0
41
1
10
63.2716007770735
20
-4.86971024644723
30
0
0
SPLINE
5
1B0
100
AcDbEntity
8
1
62
256
6
ByLayer
370
18
48
1
60
0
100
AcDbSpline
70
4
71
3
72
10
73
6
40
0
40
0
40
0
40
0
40
0.5
40
0.5
40
1
40
1
40
1
40
1
41
1
10
63.2716007770767
20
-4.86971024644868
30
0
41
1
10
63.3562140327524
20
-5.01288324310445
30
0
41
1
10
63.4403875564587
20
-5.15787182284961
30
0
41
1
10
63.6077991375298
20
-5.45104099661137
30
0
41
1
10
63.690997225128
20
-5.59913133848607
30
0
41
1
10
63.7737400891115
20
-5.74854144324502
30
0
0
SPLINE
5
1B1
100
AcDbEntity
8
1
62
256
6
ByLayer
370
18
48
1
60
0
100
AcDbSpline
70
4
71
3
72
8
73
4
40
0
40
0
40
0
40
0
40
1
40
1
40
1
40
1
41
1
10
63.9231478825766
20
-5.83237242582916
30
0
41
1
10
63.8733478506092
20
-5.80483219275203
30
0
41
1
10
63.8235481379126
20
-5.77688657953584
30
0
41
1
10
63.7737400891115
20
-5.74854144324502
30
0
0
SPLINE
5
1B2
100
AcDbEntity
8
1
62
256
6
ByLayer
370
18
48
1
60
0
100
AcDbSpline
70
4
71
3
72
10
73
6
40
0
40
0
40
0
40
0
40
0.5
40
0.5
40
1
40
1
40
1
40
1
41
1
10
63.9231478825762
20
-5.83237242582379
30
0
41
1
10
64.0074269631008
20
-5.77445177857985
30
0
41
1
10
64.0921147557013
20
-5.71172828907427
30
0
41
1
10
64.2626045874921
20
-5.57635868117828
30
0
41
1
10
64.348273054495
20
-5.50382177720158
30
0
41
1
10
64.4345116437906
20
-5.42632788153151
30
0
0
SPLINE
5
1B3
100
AcDbEntity
8
1
62
256
6
ByLayer
370
18
48
1
60
0
100
AcDbSpline
70
4
71
3
72
32
73
28
40
0
40
0
40
0
40
0
40
0.124999999999965
40
0.124999999999965
40
0.187499999999968
40
0.187499999999968
40
0.249999999999972
40
0.249999999999972
40
0.374999999999978
40
0.374999999999978
40
0.437499999999981
40
0.437499999999981
40
0.499999999999983
40
0.499999999999983
40
0.624999999999987
40
0.624999999999987
40
0.687499999999989
40
0.687499999999989
40
0.749999999999991
40
0.749999999999991
40
0.812499999999993
40
0.812499999999993
40
0.874999999999996
40
0.874999999999996
40
0.937499999999998
40
0.937499999999998
40
1
40
1
40
1
40
1
41
1
10
64.4345116437906
20
-5.42632788153151
30
0
41
1
10
64.4453110481257
20
-5.41662354940269
30
0
41
1
10
64.457917541857
20
-5.40974916210288
30
0
41
1
10
64.4788564375458
20
-5.40259079662653
30
0
41
1
10
64.486183042577
20
-5.40074462376973
30
0
41
1
10
64.501491277853
20
-5.3980730133961
30
0
41
1
10
64.5093928595818
20
-5.39726473930028
30
0
41
1
10
64.5335527001198
20
-5.3963005254451
30
0
41
1
10
64.5503534746012
20
-5.39756885401485
30
0
41
1
10
64.5765060115274
20
-5.40215788962019
30
0
41
1
10
64.5854218516434
20
-5.40415141055146
30
0
41
1
10
64.6033917295465
20
-5.40902371391925
30
0
41
1
10
64.6124089168079
20
-5.41188851921632
30
0
41
1
10
64.6395472356764
20
-5.42176022741285
30
0
41
1
10
64.6577540335515
20
-5.43002278467517
30
0
41
1
10
64.685216933972
20
-5.44525374374177
30
0
41
1
10
64.6944369082806
20
-5.45083889392507
30
0
41
1
10
64.7125473082533
20
-5.46283200526281
30
0
41
1
10
64.7214735570838
20
-5.46925544988616
30
0
41
1
10
64.7390402890581
20
-5.48303186662022
30
0
41
1
10
64.7476810983561
20
-5.49038378965852
30
0
41
1
10
64.7646298541254
20
-5.50615738044354
30
0
41
1
10
64.772919167345
20
-5.51457459769617
30
0
41
1
10
64.7886163735463
20
-5.53213207235274
30
0
41
1
10
64.7960852489983
20
-5.54132444551513
30
0
41
1
10
64.8101402855359
20
-5.56067110890157
30
0
41
1
10
64.8167333062486
20
-5.57085533202041
30
0
41
1
10
64.822613682582
20
-5.58132245586071
30
0
0
SPLINE
5
1B4
100
AcDbEntity
8
1
62
256
6
ByLayer
370
18
48
1
60
0
100
AcDbSpline
70
4
71
3
72
10
73
6
40
0
40
0
40
0
40
0
40
0.5
40
0.5
40
1
40
1
40
1
40
1
41
1
10
64.822613682585
20
-5.58132245586356
30
0
41
1
10
64.9071861654409
20
-5.73186225151537
30
0
41
1
10
64.991322661437
20
-5.88319845875085
30
0
41
1
10
65.1586869039961
20
-6.18696514971225
30
0
41
1
10
65.2418765428243
20
-6.33931176518027
30
0
41
1
10
65.3246210261071
20
-6.49196042090293
30
0
0
SPLINE
5
1B5
100
AcDbEntity
8
1
62
256
6
ByLayer
370
18
48
1
60
0
100
AcDbSpline
70
4
71
3
72
8
73
4
40
0
40
0
40
0
40
0
40
1
40
1
40
1
40
1
41
1
10
65.4735954132178
20
-6.54820303371721
30
0
41
1
10
65.4239420971386
20
-6.52990712404093
30
0
41
1
10
65.3742840297355
20
-6.51115926326452
30
0
41
1
10
65.3246210261071
20
-6.49196042090293
30
0
0
SPLINE
5
1B6
100
AcDbEntity
8
1
62
256
6
ByLayer
370
18
48
1
60
0
100
AcDbSpline
70
4
71
3
72
10
73
6
40
0
40
0
40
0
40
0
40
0.5
40
0.5
40
1
40
1
40
1
40
1
41
1
10
65.4735954132171
20
-6.54820303370403
30
0
41
1
10
65.5580065828613
20
-6.4566740923014
30
0
41
1
10
65.6428271454903
20
-6.36093621245001
30
0
41
1
10
65.8134979400988
20
-6.16101225693359
30
0
41
1
10
65.8992103424538
20
-6.05700694687215
30
0
41
1
10
65.9854936982393
20
-5.94871094631188
30
0
0
SPLINE
5
1B7
100
AcDbEntity
8
1
62
256
6
ByLayer
370
18
48
1
60
0
100
AcDbSpline
70
4
71
3
72
32
73
28
40
0
40
0
40
0
40
0
40
0.12499999999999
40
0.12499999999999
40
0.187499999999984
40
0.187499999999984
40
0.249999999999978
40
0.249999999999978
40
0.374999999999917
40
0.374999999999917
40
0.437499999999887
40
0.437499999999887
40
0.499999999999856
40
0.499999999999856
40
0.624999999999851
40
0.624999999999851
40
0.687499999999876
40
0.687499999999876
40
0.749999999999901
40
0.749999999999901
40
0.812499999999926
40
0.812499999999926
40
0.87499999999995
40
0.87499999999995
40
0.937499999999975
40
0.937499999999975
40
1
40
1
40
1
40
1
41
1
10
65.9854936982393
20
-5.94871094631188
30
0
41
1
10
65.9963054781857
20
-5.93514086067523
30
0
41
1
10
66.008924922439
20
-5.92443360953624
30
0
41
1
10
66.0298808073225
20
-5.91155799130132
30
0
41
1
10
66.0372127238732
20
-5.9078115962071
30
0
41
1
10
66.0525306553106
20
-5.90134912361228
30
0
41
1
10
66.060435278689
20
-5.89867095247706
30
0
41
1
10
66.0846039314809
20
-5.89221415206393
30
0
41
1
10
66.101408182876
20
-5.88995321753333
30
0
41
1
10
66.1275630291633
20
-5.8894267527545
30
0
41
1
10
66.136479143714
20
-5.88973842973806
30
0
41
1
10
66.1544478934592
20
-5.89134155285274
30
0
41
1
10
66.1634641871367
20
-5.89262517012617
30
0
41
1
10
66.1905988255191
20
-5.89790950638613
30
0
41
1
10
66.2088018419793
20
-5.90331955405313
30
0
41
1
10
66.2362571510461
20
-5.91460588500516
30
0
41
1
10
66.2454743264964
20
-5.91892774945609
30
0
41
1
10
66.2635799425116
20
-5.92856864237015
30
0
41
1
10
66.2725038929025
20
-5.93389728349828
30
0
41
1
10
66.2900660008094
20
-5.94565886841863
30
0
41
1
10
66.2987044975367
20
-5.95209057132965
30
0
41
1
10
66.3156484600269
20
-5.9662228858875
30
0
41
1
10
66.3239372603027
20
-5.97392412084096
30
0
41
1
10
66.3396333591728
20
-5.99032121954849
30
0
41
1
10
66.3471017772402
20
-5.99906276718224
30
0
41
1
10
66.3611560495468
20
-6.01780890082011
30
0
41
1
10
66.3677504737103
20
-6.02784787465458
30
0
41
1
10
66.3736328049452
20
-6.03835668159283
30
0
0
SPLINE
5
1B8
100
AcDbEntity
8
1
62
256
6
ByLayer
370
18
48
1
60
0
100
AcDbSpline
70
4
71
3
72
119
73
115
40
0
40
0
40
0
40
0
40
0.0312500000000014
40
0.0312500000000014
40
0.0625000000000027
40
0.0625000000000027
40
0.0937500000000041
40
0.0937500000000041
40
0.109375000000004
40
0.109375000000004
40
0.125000000000003
40
0.125000000000003
40
0.187499999999994
40
0.187499999999994
40
0.203124999999993
40
0.203124999999993
40
0.218749999999992
40
0.218749999999992
40
0.249999999999991
40
0.249999999999991
40
0.28124999999999
40
0.28124999999999
40
0.312499999999989
40
0.312499999999989
40
0.328124999999988
40
0.328124999999988
40
0.335937499999987
40
0.335937499999987
40
0.343749999999987
40
0.343749999999987
40
0.359374999999984
40
0.359374999999984
40
0.374999999999982
40
0.374999999999982
40
0.406249999999975
40
0.406249999999975
40
0.421874999999972
40
0.421874999999972
40
0.429687499999971
40
0.429687499999971
40
0.437499999999969
40
0.437499999999969
40
0.453124999999966
40
0.453124999999966
40
0.468749999999963
40
0.468749999999963
40
0.476562499999961
40
0.476562499999961
40
0.484374999999959
40
0.484374999999959
40
0.499999999999957
40
0.499999999999957
40
0.515624999999955
40
0.515624999999955
40
0.519531249999955
40
0.519531249999955
40
0.523437499999954
40
0.531249999999953
40
0.539062499999952
40
0.539062499999952
40
0.542968749999952
40
0.542968749999952
40
0.546874999999952
40
0.546874999999952
40
0.562499999999953
40
0.562499999999953
40
0.570312499999954
40
0.570312499999954
40
0.574218749999954
40
0.574218749999954
40
0.578124999999955
40
0.578124999999955
40
0.593749999999956
40
0.593749999999956
40
0.597656249999957
40
0.597656249999957
40
0.601562499999957
40
0.601562499999957
40
0.609374999999958
40
0.609374999999958
40
0.624999999999959
40
0.624999999999959
40
0.64062499999996
40
0.64062499999996
40
0.64843749999996
40
0.64843749999996
40
0.656249999999961
40
0.656249999999961
40
0.671874999999962
40
0.671874999999962
40
0.687499999999963
40
0.687499999999963
40
0.718749999999966
40
0.718749999999966
40
0.726562499999966
40
0.726562499999966
40
0.734374999999967
40
0.749999999999969
40
0.749999999999969
40
0.781249999999972
40
0.781249999999972
40
0.812499999999976
40
0.812499999999976
40
0.84374999999998
40
0.84374999999998
40
0.874999999999984
40
0.874999999999984
40
0.890624999999986
40
0.890624999999986
40
0.906249999999989
40
0.906249999999989
40
0.937499999999992
40
0.937499999999992
40
1
40
1
40
1
40
1
41
1
10
36.3208010106578
20
0.074999991702299
30
0
41
1
10
36.1884331146803
20
0.167879775708968
30
0
41
1
10
36.054945244035
20
0.258253689014197
30
0
41
1
10
35.7852026531804
20
0.433096026862046
30
0
41
1
10
35.648966311819
20
0.517599379853039
30
0
41
1
10
35.3731344026853
20
0.679697169836089
30
0
41
1
10
35.233558563975
20
0.757329760565511
30
0
41
1
10
35.0214789987587
20
0.868321514192616
30
0
41
1
10
34.9502973298067
20
0.904342052027687
30
0
41
1
10
34.8072969827661
20
0.975082859816183
30
0
41
1
10
34.7354465266286
20
1.00974305989774
30
0
41
1
10
34.3743241120313
20
1.17929920020228
30
0
41
1
10
34.0794196388105
20
1.30291648402101
30
0
41
1
10
33.7015653731003
20
1.43968308686604
30
0
41
1
10
33.6254698673099
20
1.46616092013974
30
0
41
1
10
33.4729776970015
20
1.51702763169004
30
0
41
1
10
33.3965133597009
20
1.54144901198188
30
0
41
1
10
33.1664379043481
20
1.61159791124481
30
0
41
1
10
33.0121390338918
20
1.65418775060147
30
0
41
1
10
32.7015522027943
20
1.73053460273738
30
0
41
1
10
32.5452634691975
20
1.76428851505338
30
0
41
1
10
32.2305052520146
20
1.82232011734595
30
0
41
1
10
32.0720319789967
20
1.84658192807856
30
0
41
1
10
31.8324813178216
20
1.87510051208966
30
0
41
1
10
31.7523173988235
20
1.88326475313812
30
0
41
1
10
31.6315828029463
20
1.89343102305358
30
0
41
1
10
31.5912562705322
20
1.89647215900087
30
0
41
1
10
31.5104339648617
20
1.90183543086843
30
0
41
1
10
31.4699562199974
20
1.90415562284221
30
0
41
1
10
31.3486949380611
20
1.90997295699836
30
0
41
1
10
31.2679483498475
20
1.91232135324094
30
0
41
1
10
31.1066455478092
20
1.91393347904437
30
0
41
1
10
31.0260904196921
20
1.91317964667402
30
0
41
1
10
30.7847364577554
20
1.90586953606396
30
0
41
1
10
30.6242470943571
20
1.8943018644438
30
0
41
1
10
30.3842506044388
20
1.86491103742924
30
0
41
1
10
30.3043751174558
20
1.85309955759578
30
0
41
1
10
30.1847670489854
20
1.83200750657585
30
0
41
1
10
30.1448893171734
20
1.82440175962938
30
0
41
1
10
30.0656184346717
20
1.80804844537184
30
0
41
1
10
30.0261866662411
20
1.79929610723747
30
0
41
1
10
29.9085388228474
20
1.77120084929527
30
0
41
1
10
29.8309677865275
20
1.75002736932558
30
0
41
1
10
29.6777907319075
20
1.70204545347531
30
0
41
1
10
29.6021832483481
20
1.67524165474373
30
0
41
1
10
29.4904976426559
20
1.6300285653447
30
0
41
1
10
29.4535575743538
20
1.61412023383923
30
0
41
1
10
29.3803101802542
20
1.58045493737418
30
0
41
1
10
29.3439448698184
20
1.56266309801327
30
0
41
1
10
29.2369193391812
20
1.50675680311892
30
0
41
1
10
29.1680662825176
20
1.46595061088519
30
0
41
1
10
29.0361627448263
20
1.37600896464031
30
0
41
1
10
28.9730952659774
20
1.32689898018737
30
0
41
1
10
28.8988460623263
20
1.25884559346261
30
0
41
1
10
28.8842260843483
20
1.24489962498666
30
0
41
1
10
28.8557178630363
20
1.21654987168389
30
0
41
1
10
28.8139580318133
20
1.1732529211055
30
0
41
1
10
28.7495102403382
20
1.09710859717779
30
0
41
1
10
28.7037929211157
20
1.03164483663414
30
0
41
1
10
28.6718473831437
20
0.980709370072702
30
0
41
1
10
28.6615930942005
20
0.963421744794033
30
0
41
1
10
28.641902723649
20
0.928202474621258
30
0
41
1
10
28.6324466899976
20
0.910227212153899
30
0
41
1
10
28.5877756084765
20
0.81972618386655
30
0
41
1
10
28.5599668518508
20
0.744731272972842
30
0
41
1
10
28.5297583549859
20
0.628404825868785
30
0
41
1
10
28.5216153616623
20
0.588987549193661
30
0
41
1
10
28.5122331251134
20
0.528908529241193
30
0
41
1
10
28.5095740171268
20
0.508670358020225
30
0
41
1
10
28.5052262339636
20
0.468155759410308
30
0
41
1
10
28.5035369078571
20
0.447903399929601
30
0
41
1
10
28.4973917626355
20
0.346663551693666
30
0
41
1
10
28.499789693994
20
0.26574077545439
30
0
41
1
10
28.510430918819
20
0.16463946360804
30
0
41
1
10
28.512945206259
20
0.14442189659735
30
0
41
1
10
28.51871296918
20
0.103991389128197
30
0
41
1
10
28.5219680271075
20
0.0837795371291179
30
0
41
1
10
28.5327071869647
20
0.0235961753492404
30
0
41
1
10
28.5411830750267
20
-0.016080055865757
30
0
41
1
10
28.5700542092364
20
-0.133938365667916
30
0
41
1
10
28.5938695523785
20
-0.210957797959281
30
0
41
1
10
28.6487372807913
20
-0.362520927584569
30
0
41
1
10
28.6798018368571
20
-0.437060607089421
30
0
41
1
10
28.7308957574563
20
-0.547322296611867
30
0
41
1
10
28.7486690138187
20
-0.583784355693609
30
0
41
1
10
28.7852876860065
20
-0.655656548855887
30
0
41
1
10
28.804168576391
20
-0.691144340689732
30
0
41
1
10
28.8623436175056
20
-0.796396043301797
30
0
41
1
10
28.903162786567
20
-0.864953710567733
30
0
41
1
10
28.9880682524913
20
-0.999431749386275
30
0
41
1
10
29.0321666851813
20
-1.06534395791726
30
0
41
1
10
29.1685974879562
20
-1.25968583511903
30
0
41
1
10
29.2650249941275
20
-1.38475059784491
30
0
41
1
10
29.3906192541973
20
-1.53675727421972
30
0
41
1
10
29.416016626168
20
-1.56696557727364
30
0
41
1
10
29.4671775329258
20
-1.62683525984144
30
0
41
1
10
29.5444262639145
20
-1.71577193987082
30
0
41
1
10
29.6230666432295
20
-1.80227532659128
30
0
41
1
10
29.7819261417208
20
-1.97239798473035
30
0
41
1
10
29.8899240374751
20
-2.08198541166215
30
0
41
1
10
30.1090688444237
20
-2.29484205287557
30
0
41
1
10
30.2201914910755
20
-2.398129973549
30
0
41
1
10
30.4449247296963
20
-2.59922336115878
30
0
41
1
10
30.558547251119
20
-2.69701717477852
30
0
41
1
10
30.7878952781034
20
-2.88761949038675
30
0
41
1
10
30.9036211982642
20
-2.98042693407552
30
0
41
1
10
31.0785672541893
20
-3.11615783870366
30
0
41
1
10
31.1371096569785
20
-3.16082017696831
30
0
41
1
10
31.2546217658228
20
-3.24901153264696
30
0
41
1
10
31.3136323738321
20
-3.292569738509
30
0
41
1
10
31.4908418305655
20
-3.42126395335345
30
0
41
1
10
31.6092797481412
20
-3.50447657420577
30
0
41
1
10
31.9653470026395
20
-3.74666584597185
30
0
41
1
10
32.2036911823663
20
-3.89824344414254
30
0
41
1
10
32.4431150017037
20
-4.04001165506887
30
0
0
SPLINE
5
1B9
100
AcDbEntity
8
1
62
256
6
ByLayer
370
18
48
1
60
0
100
AcDbSpline
70
4
71
3
72
40
73
36
40
0
40
0
40
0
40
0
40
0.002739640300314
40
0.002739640300314
40
0.0506341005335418
40
0.0506341005335418
40
0.09852856076677
40
0.09852856076677
40
0.194317481233227
40
0.194317481233227
40
0.242211941466456
40
0.242211941466456
40
0.290106401699684
40
0.290106401699684
40
0.338000861932913
40
0.338000861932913
40
0.385895322166141
40
0.385895322166141
40
0.481684242632597
40
0.481684242632597
40
0.577473163099053
40
0.577473163099053
40
0.625367623332279
40
0.625367623332279
40
0.673262083565506
40
0.673262083565506
40
0.721156543798733
40
0.721156543798733
40
0.76905100403196
40
0.76905100403196
40
0.864839924498414
40
0.864839924498414
40
0.960628844964867
40
0.960628844964867
40
1
40
1
40
1
40
1
41
1
10
36.3208010106547
20
0.0749999917049422
30
0
41
1
10
36.3181983908368
20
0.0772322914035044
30
0
41
1
10
36.3155814037434
20
0.0794443316947024
30
0
41
1
10
36.2669480856031
20
0.119952089867894
30
0
41
1
10
36.2165791777466
20
0.152110205235886
30
0
41
1
10
36.1063387738162
20
0.2030267621966
30
0
41
1
10
36.0462128029517
20
0.221386874062773
30
0
41
1
10
35.8566241584045
20
0.254448024128664
30
0
41
1
10
35.7203107560585
20
0.256134127746719
30
0
41
1
10
35.4988831957339
20
0.223872004895639
30
0
41
1
10
35.4221362144189
20
0.207159845060403
30
0
41
1
10
35.2662300213948
20
0.162024378653996
30
0
41
1
10
35.1866476201814
20
0.133575800517633
30
0
41
1
10
35.0240522680331
20
0.0642963495572246
30
0
41
1
10
34.9410414286741
20
0.0234730982972451
30
0
41
1
10
34.7712540680785
20
-0.0717653316079918
30
0
41
1
10
34.6837655221506
20
-0.126752222829396
30
0
41
1
10
34.4222585396219
20
-0.309477703618626
30
0
41
1
10
34.2482632516717
20
-0.454491234625493
30
0
41
1
10
33.9010340885267
20
-0.796056445482066
30
0
41
1
10
33.7361537861046
20
-0.984624201662939
30
0
41
1
10
33.50273262951
20
-1.29277715241389
30
0
41
1
10
33.4268701594522
20
-1.40044430146227
30
0
41
1
10
33.2845613067509
20
-1.6176101679805
30
0
41
1
10
33.2175145259388
20
-1.72783516614985
30
0
41
1
10
33.0912183091369
20
-1.95140221487424
30
0
41
1
10
33.0316472769399
20
-2.06545513659751
30
0
41
1
10
32.9218524706275
20
-2.29298883090126
30
0
41
1
10
32.8717904330796
20
-2.40599680202092
30
0
41
1
10
32.7345044503733
20
-2.74299613229468
30
0
41
1
10
32.6597042373947
20
-2.96694279704755
30
0
41
1
10
32.543629931336
20
-3.39480262175331
30
0
41
1
10
32.501522894461
20
-3.60024323436639
30
0
41
1
10
32.4605755393386
20
-3.88028306443314
30
0
41
1
10
32.4505767581087
20
-3.96102473299891
30
0
41
1
10
32.4431156204014
20
-4.04000510574551
30
0
0
SPLINE
5
1BA
100
AcDbEntity
8
SK1
62
256
6
ByLayer
370
18
48
1
60
0
100
AcDbSpline
70
4
71
3
72
22
73
18
40
0
40
0
40
0
40
0
40
0.249918488366589
40
0.249918488366589
40
0.499836976733178
40
0.499836976733178
40
0.624796220916472
40
0.624796220916472
40
0.687275843008119
40
0.687275843008119
40
0.718515654053943
40
0.718515654053943
40
0.749755465099767
40
0.749755465099767
40
0.999673953466356
40
0.999673953466356
40
1
40
1
40
1
40
1
41
1
10
-27.4
20
4.49999999999997
30
0
41
1
10
-27.512325981066
20
4.49999999999997
30
0
41
1
10
-27.6167520616775
20
4.49999999999997
30
0
41
1
10
-27.8047449658397
20
4.49999999999997
30
0
41
1
10
-27.8883167916657
20
4.49999999999997
30
0
41
1
10
-27.9930976683549
20
4.49999999999997
30
0
41
1
10
-28.024582476032
20
4.49999999999997
30
0
41
1
10
-28.0659220084382
20
4.49999999999997
30
0
41
1
10
-28.0787198705372
20
4.49999999999997
30
0
41
1
10
-28.0963474972523
20
4.49999999999997
30
0
41
1
10
-28.1019673798152
20
4.49999999999997
30
0
41
1
10
-28.112632668104
20
4.49999999999997
30
0
41
1
10
-28.1176793266433
20
4.49999999999997
30
0
41
1
10
-28.1604983931921
20
4.49999999999997
30
0
41
1
10
-28.1799529476627
20
4.49999999999997
30
0
41
1
10
-28.1799989919225
20
4.49999999999997
30
0
41
1
10
-28.1800010038435
20
4.50000000000289
30
0
41
1
10
-28.1799990153644
20
4.49999999999409
30
0
0
SPLINE
5
1BB
100
AcDbEntity
8
SK1
62
256
6
ByLayer
370
18
48
1
60
0
100
AcDbSpline
70
4
71
3
72
22
73
18
40
0
40
0
40
0
40
0
40
0.0003263183478023
40
0.0003263183478023
40
0.250244738760851
40
0.250244738760851
40
0.281484541312483
40
0.281484541312483
40
0.312724343864114
40
0.312724343864114
40
0.375203948967376
40
0.375203948967376
40
0.500163159173901
40
0.500163159173901
40
0.750081579586951
40
0.750081579586951
40
1
40
1
40
1
40
1
41
1
10
-28.1799990153798
20
-4.50000000000006
30
0
41
1
10
-28.1800010038905
20
-4.50000000000006
30
0
41
1
10
-28.1799989920012
20
-4.50000000000006
30
0
41
1
10
-28.1799529476627
20
-4.50000000000003
30
0
41
1
10
-28.1604983931921
20
-4.50000000000003
30
0
41
1
10
-28.1176793266432
20
-4.50000000000003
30
0
41
1
10
-28.112632668104
20
-4.50000000000003
30
0
41
1
10
-28.1019673798152
20
-4.50000000000003
30
0
41
1
10
-28.0963474972523
20
-4.50000000000003
30
0
41
1
10
-28.0787198705372
20
-4.50000000000003
30
0
41
1
10
-28.0659220084382
20
-4.50000000000003
30
0
41
1
10
-28.024582476032
20
-4.50000000000003
30
0
41
1
10
-27.9930976683551
20
-4.50000000000003
30
0
41
1
10
-27.8883167916658
20
-4.50000000000003
30
0
41
1
10
-27.8047449658397
20
-4.50000000000003
30
0
41
1
10
-27.6167520616775
20
-4.50000000000003
30
0
41
1
10
-27.512325981066
20
-4.50000000000003
30
0
41
1
10
-27.4
20
-4.50000000000003
30
0
0
SPLINE
5
1BC
100
AcDbEntity
8
SK1
62
256
6
ByLayer
370
18
48
1
60
0
100
AcDbSpline
70
4
71
3
72
36
73
32
40
0
40
0
40
0
40
0
40
0.0312500000000001
40
0.0312500000000001
40
0.0625000000000001
40
0.0625000000000001
40
0.125
40
0.125
40
0.250000000000001
40
0.250000000000001
40
0.312500000000001
40
0.343750000000001
40
0.359375000000001
40
0.359375000000001
40
0.375000000000001
40
0.375000000000001
40
0.500000000000001
40
0.500000000000001
40
0.625000000000001
40
0.625000000000001
40
0.640625000000001
40
0.640625000000001
40
0.656250000000001
40
0.656250000000001
40
0.687500000000001
40
0.687500000000001
40
0.750000000000001
40
0.750000000000001
40
0.875
40
0.875
40
1
40
1
40
1
40
1
41
1
10
-27.4
20
-2.76195582875619
30
0
41
1
10
-27.4281147880039
20
-2.70820910365836
30
0
41
1
10
-27.4557875203738
20
-2.65416608258974
30
0
41
1
10
-27.5100066281644
20
-2.54578730975561
30
0
41
1
10
-27.5365768302662
20
-2.4914064108529
30
0
41
1
10
-27.6145551037552
20
-2.32764859917191
30
0
41
1
10
-27.6642336728874
20
-2.21765757649379
30
0
41
1
10
-27.8053356945989
20
-1.88486742342394
30
0
41
1
10
-27.8888720394485
20
-1.65926774684956
30
0
41
1
10
-27.9934996284566
20
-1.3135262893509
30
0
41
1
10
-28.0406263124866
20
-1.13881372669559
30
0
41
1
10
-28.0852909106634
20
-0.931319219495549
30
0
41
1
10
-28.1020805141943
20
-0.84155772600343
30
0
41
1
10
-28.1127350077599
20
-0.781525493517819
30
0
41
1
10
-28.1177964837547
20
-0.751388594584427
30
0
41
1
10
-28.1606842872497
20
-0.480399711794973
30
0
41
1
10
-28.1800468808023
20
-0.239678786480511
30
0
41
1
10
-28.1799529476627
20
0.241435952089375
30
0
41
1
10
-28.1604983931921
20
0.481829781963853
30
0
41
1
10
-28.1176793266433
20
0.752096449758284
30
0
41
1
10
-28.112632668104
20
0.7821236443651
30
0
41
1
10
-28.1019673798152
20
0.842173213822917
30
0
41
1
10
-28.0963474972523
20
0.872198036145704
30
0
41
1
10
-28.0787198705372
20
0.961881189666684
30
0
41
1
10
-28.0659220084382
20
1.02127881792629
30
0
41
1
10
-28.024582476032
20
1.19837021382617
30
0
41
1
10
-27.993097668355
20
1.31496354277493
30
0
41
1
10
-27.8883167916657
20
1.66088246990017
30
0
41
1
10
-27.8047449658397
20
1.88636596389935
30
0
41
1
10
-27.6167520616775
20
2.3295374190125
30
0
41
1
10
-27.512325981066
20
2.54722350977633
30
0
41
1
10
-27.4
20
2.7619558287561
30
0
0
SPLINE
5
1BD
100
AcDbEntity
8
1
62
256
6
ByLayer
370
18
48
1
60
0
100
AcDbSpline
70
4
71
1
72
4
73
2
40
0
40
0
40
1
40
1
41
1
10
68.1581934067038
20
-6.63200642733685
30
0
41
1
10
68.3055885520502
20
-6.59075540593273
30
0
0
SPLINE
5
1BE
100
AcDbEntity
8
1
62
256
6
ByLayer
370
18
48
1
60
0
100
AcDbSpline
70
4
71
2
72
6
73
3
40
0
40
0
40
0
40
1
40
1
40
1
41
1
10
56.3123375384654
20
6.22258333117202
30
0
41
1
10
56.0881907517748
20
6.61009620916138
30
0
41
1
10
55.8640808827654
20
6.99763658802945
30
0
0
SPLINE
5
1BF
100
AcDbEntity
8
1
62
256
6
ByLayer
370
18
48
1
60
0
100
AcDbSpline
70
4
71
1
72
4
73
2
40
0
40
0
40
1
40
1
41
1
10
62.1887804616748
20
-6.68134544940497
30
0
41
1
10
62.4113337498354
20
-7.06598254345479
30
0
0
SPLINE
5
1C0
100
AcDbEntity
8
1
62
256
6
ByLayer
370
18
48
1
60
0
100
AcDbSpline
70
4
71
1
72
4
73
2
40
0
40
0
40
1
40
1
41
1
10
71
20
5.4857067738179
30
0
41
1
10
70.5401740145457
20
5.94549422234368
30
0
0
SPLINE
5
1C1
100
AcDbEntity
8
1
62
256
6
ByLayer
370
18
48
1
60
0
100
AcDbSpline
70
4
71
2
72
6
73
3
40
0
40
0
40
0
40
1
40
1
40
1
41
1
10
67.1663529624649
20
-6.91212209972704
30
0
41
1
10
67.3687472053054
20
-6.56237245887502
30
0
41
1
10
67.5712002711386
20
-6.21274432168437
30
0
0
SPLINE
5
1C2
100
AcDbEntity
8
1
62
256
6
ByLayer
370
18
48
1
60
0
100
AcDbSpline
70
4
71
3
72
11
73
7
40
0
40
0
40
0
40
0
40
0.246634399795076
40
0.501776512608207
40
0.756085210629357
40
1
40
1
40
1
40
1
41
1
10
56.6677753352731
20
6.21353310291255
30
0
41
1
10
56.6524299223405
20
6.18498616716985
30
0
41
1
10
56.609878369389
20
6.14127167931514
30
0
41
1
10
56.4936472532935
20
6.10308319359348
30
0
41
1
10
56.3772628365774
20
6.14211579717764
30
0
41
1
10
56.3344702676052
20
6.18701615227562
30
0
41
1
10
56.318913522522
20
6.21606472721746
30
0
0
SPLINE
5
1C3
100
AcDbEntity
8
1
62
256
6
ByLayer
370
18
48
1
60
0
100
AcDbSpline
70
4
71
1
72
4
73
2
40
0
40
0
40
1
40
1
41
1
10
66.8819441242355
20
-6.98918746521377
30
0
41
1
10
67.1637373674822
20
-6.91032241429107
30
0
0
SPLINE
5
1C4
100
AcDbEntity
8
1
62
256
6
ByLayer
370
18
48
1
60
0
100
AcDbSpline
70
4
71
2
72
6
73
3
40
0
40
0
40
0
40
1
40
1
40
1
41
1
10
66.4195689928812
20
-6.21684857613656
30
0
41
1
10
66.6439867141686
20
-6.60474192468809
30
0
41
1
10
66.8683620735643
20
-6.9927476680495
30
0
0
SPLINE
5
1C5
100
AcDbEntity
8
1
62
256
6
ByLayer
370
18
48
1
60
0
100
AcDbSpline
70
4
71
3
72
11
73
7
40
0
40
0
40
0
40
0
40
0.205135669617574
40
0.443161694074905
40
0.711006006012557
40
1
40
1
40
1
40
1
41
1
10
66.0724058101933
20
-6.21160304271726
30
0
41
1
10
66.0833722821965
20
-6.19061617791394
30
0
41
1
10
66.1170694335489
20
-6.15364887180152
30
0
41
1
10
66.2163746758192
20
-6.10612725129144
30
0
41
1
10
66.3465573797737
20
-6.13095802836352
30
0
41
1
10
66.395490889438
20
-6.17529984907009
30
0
41
1
10
66.4144929853107
20
-6.20847259131517
30
0
0
SPLINE
5
1C6
100
AcDbEntity
8
1
62
256
6
ByLayer
370
18
48
1
60
0
100
AcDbSpline
70
4
71
2
72
6
73
3
40
0
40
0
40
0
40
1
40
1
40
1
41
1
10
57.1615510109884
20
7.06698480825469
30
0
41
1
10
56.9139255599647
20
6.63889326630317
30
0
41
1
10
56.6661542303466
20
6.21088733883451
30
0
0
SPLINE
5
1C7
100
AcDbEntity
8
1
62
256
6
ByLayer
370
18
48
1
60
0
100
AcDbSpline
70
4
71
2
72
6
73
3
40
0
40
0
40
0
40
1
40
1
40
1
41
1
10
57.823172136911
20
6.21052848460081
30
0
41
1
10
57.5749792652662
20
6.63919555218001
30
0
41
1
10
57.3268669034369
20
7.06807020941588
30
0
0
SPLINE
5
1C8
100
AcDbEntity
8
1
62
256
6
ByLayer
370
18
48
1
60
0
100
AcDbSpline
70
4
71
3
72
11
73
7
40
0
40
0
40
0
40
0
40
0.247518917761184
40
0.501228658989862
40
0.754373409673228
40
1
40
1
40
1
40
1
41
1
10
58.1664920164312
20
6.21196247612272
30
0
41
1
10
58.1517465736588
20
6.18450535460013
30
0
41
1
10
58.1102726179021
20
6.14261078271548
30
0
41
1
10
57.9947351957249
20
6.10422168279715
30
0
41
1
10
57.8790942544127
20
6.14216021358115
30
0
41
1
10
57.8374511063658
20
6.18416411855722
30
0
41
1
10
57.8225542026523
20
6.2116211020587
30
0
0
SPLINE
5
1C9
100
AcDbEntity
8
1
62
256
6
ByLayer
370
18
48
1
60
0
100
AcDbSpline
70
4
71
2
72
6
73
3
40
0
40
0
40
0
40
1
40
1
40
1
41
1
10
65.5765843454008
20
-7.06829921280871
30
0
41
1
10
65.8244064728025
20
-6.63991448420606
30
0
41
1
10
66.0723955403579
20
-6.21162081813065
30
0
0
SPLINE
5
1CA
100
AcDbEntity
8
1
62
256
6
ByLayer
370
18
48
1
60
0
100
AcDbSpline
70
4
71
2
72
6
73
3
40
0
40
0
40
0
40
1
40
1
40
1
41
1
10
64.9162667552049
20
-6.21098361820285
30
0
41
1
10
65.1638027654688
20
-6.63859866540952
30
0
41
1
10
65.4111907668695
20
-7.06630248069621
30
0
0
SPLINE
5
1CB
100
AcDbEntity
8
1
62
256
6
ByLayer
370
18
48
1
60
0
100
AcDbSpline
70
4
71
3
72
11
73
7
40
0
40
0
40
0
40
0
40
0.232530503977653
40
0.479264351587591
40
0.737832570849307
40
1
40
1
40
1
40
1
41
1
10
64.5752598546655
20
-6.20598569062605
30
0
41
1
10
64.5852698468872
20
-6.18559394605486
30
0
41
1
10
64.6185329261998
20
-6.15192916744297
30
0
41
1
10
64.7189980604665
20
-6.1051949146084
30
0
41
1
10
64.8479092142271
20
-6.13137719373168
30
0
41
1
10
64.8968240894484
20
-6.17822718174111
30
0
41
1
10
64.9163564240046
20
-6.21113842231628
30
0
0
SPLINE
5
1CC
100
AcDbEntity
8
1
62
256
6
ByLayer
370
18
48
1
60
0
100
AcDbSpline
70
4
71
2
72
6
73
3
40
0
40
0
40
0
40
1
40
1
40
1
41
1
10
58.6586616131846
20
7.06203359607485
30
0
41
1
10
58.4111794201729
20
6.63415228576639
30
0
41
1
10
58.16357941268
20
6.20649815558622
30
0
0
SPLINE
5
1CD
100
AcDbEntity
8
1
62
256
6
ByLayer
370
18
48
1
60
0
100
AcDbSpline
70
4
71
2
72
6
73
3
40
0
40
0
40
0
40
1
40
1
40
1
41
1
10
59.3226402988266
20
6.21106633763063
30
0
41
1
10
59.0746181138427
20
6.6393274619511
30
0
41
1
10
58.8267488104312
20
7.06769311710266
30
0
0
SPLINE
5
1CE
100
AcDbEntity
8
1
62
256
6
ByLayer
370
18
48
1
60
0
100
AcDbSpline
70
4
71
3
72
11
73
7
40
0
40
0
40
0
40
0
40
0.242512390482988
40
0.499573005941595
40
0.75688947635969
40
1
40
1
40
1
40
1
41
1
10
59.6755045936282
20
6.22174871482454
30
0
41
1
10
59.6591061685637
20
6.19095765560314
30
0
41
1
10
59.6148052524788
20
6.14265041759782
30
0
41
1
10
59.497868204918
20
6.10238682787755
30
0
41
1
10
59.381015727734
20
6.13930346487373
30
0
41
1
10
59.3367391797787
20
6.18508742033609
30
0
41
1
10
59.3203696492321
20
6.214641531837
30
0
0
SPLINE
5
1CF
100
AcDbEntity
8
1
62
256
6
ByLayer
370
18
48
1
60
0
100
AcDbSpline
70
4
71
2
72
6
73
3
40
0
40
0
40
0
40
1
40
1
40
1
41
1
10
64.0767936803853
20
-7.06751750819504
30
0
41
1
10
64.3239117115848
20
-6.64038956028946
30
0
41
1
10
64.571095684091
20
-6.21345110451085
30
0
0
SPLINE
5
1D0
100
AcDbEntity
8
1
62
256
6
ByLayer
370
18
48
1
60
0
100
AcDbSpline
70
4
71
2
72
6
73
3
40
0
40
0
40
0
40
1
40
1
40
1
41
1
10
63.4191180825628
20
-6.21535965500621
30
0
41
1
10
63.6664888914961
20
-6.64274381711726
30
0
41
1
10
63.9137532908716
20
-7.07019122628401
30
0
0
SPLINE
5
1D1
100
AcDbEntity
8
1
62
256
6
ByLayer
370
18
48
1
60
0
100
AcDbSpline
70
4
71
3
72
13
73
9
40
0
40
0
40
0
40
0
40
0.23967003237386
40
0.368340009066869
40
0.50000798970574
40
0.631667456748108
40
0.760318831134958
40
1
40
1
40
1
40
1
41
1
10
63.052921408026
20
-6.22362218557814
30
0
41
1
10
63.0693867267541
20
-6.19169124577402
30
0
41
1
10
63.1038639654747
20
-6.15260619243855
30
0
41
1
10
63.1729239326204
20
-6.11703887908311
30
0
41
1
10
63.2327154028105
20
-6.1060136500094
30
0
41
1
10
63.2925074855864
20
-6.11213961153086
30
0
41
1
10
63.3615742308241
20
-6.1413224221977
30
0
41
1
10
63.3960422753798
20
-6.17525891444595
30
0
41
1
10
63.4124980544943
20
-6.20368699136554
30
0
0
SPLINE
5
1D2
100
AcDbEntity
8
1
62
256
6
ByLayer
370
18
48
1
60
0
100
AcDbSpline
70
4
71
2
72
6
73
3
40
0
40
0
40
0
40
1
40
1
40
1
41
1
10
60.8478519793072
20
6.17869377106652
30
0
41
1
10
60.83035898203
20
6.1947307554085
30
0
41
1
10
60.8224145512336
20
6.21106125687783
30
0
0
SPLINE
5
1D3
100
AcDbEntity
8
1
62
256
6
ByLayer
370
18
48
1
60
0
100
AcDbSpline
70
4
71
2
72
6
73
3
40
0
40
0
40
0
40
1
40
1
40
1
41
1
10
60.1617733981786
20
7.06649415031299
30
0
41
1
10
59.9141861888463
20
6.63847110243654
30
0
41
1
10
59.6664352124266
20
6.2105169839914
30
0
0
SPLINE
5
1D4
100
AcDbEntity
8
1
62
256
6
ByLayer
370
18
48
1
60
0
100
AcDbSpline
70
4
71
2
72
6
73
3
40
0
40
0
40
0
40
1
40
1
40
1
41
1
10
60.8316541707979
20
6.19047615610648
30
0
41
1
10
60.5846388453301
20
6.61589037642656
30
0
41
1
10
60.3376649984088
20
7.04170183255044
30
0
0
LINE
5
7F
100
AcDbEntity
8
80
62
256
6
ByLayer
370
18
48
1
60
0
100
AcDbLine
10
0
20
0
30
0
11
-5
21
0
31
0
39
0
210
0
220
0
230
1
0
LINE
5
80
100
AcDbEntity
8
4
62
256
6
ByLayer
370
18
48
0.05
60
0
100
AcDbLine
10
0
20
0
30
0
11
71
21
0
31
0
39
0
210
0
220
0
230
1
0
LINE
5
82
100
AcDbEntity
8
81
62
256
6
ByLayer
370
18
48
1
60
0
100
AcDbLine
10
71
20
0
30
0
11
76
21
0
31
0
39
0
210
0
220
0
230
1
0
LINE
5
83
100
AcDbEntity
8
SK4
62
256
6
ByLayer
370
18
48
0.05
60
0
100
AcDbLine
10
-29
20
0
30
0
11
71
21
0
31
0
39
0
210
0
220
0
230
1
0
LINE
5
85
100
AcDbEntity
8
1
62
256
6
ByLayer
370
18
48
1
60
0
100
AcDbLine
10
0
20
5.5
30
0
11
0
21
-5.5
31
0
39
0
210
0
220
0
230
1
0
LINE
5
86
100
AcDbEntity
8
1
62
256
6
ByLayer
370
18
48
1
60
0
100
AcDbLine
10
68.164145
20
-6.629031
30
0
11
68.169045
21
-6.628971
31
0
39
0
210
0
220
0
230
1
0
LINE
5
87
100
AcDbEntity
8
1
62
256
6
ByLayer
370
18
48
1
60
0
100
AcDbLine
10
56.318464
20
6.21666
30
0
11
56.312278
21
6.222621
31
0
39
0
210
0
220
0
230
1
0
LINE
5
88
100
AcDbEntity
8
1
62
256
6
ByLayer
370
18
48
1
60
0
100
AcDbLine
10
66.419543
20
-6.216813
30
0
11
66.414903
21
-6.209255
31
0
39
0
210
0
220
0
230
1
0
LINE
5
89
100
AcDbEntity
8
1
62
256
6
ByLayer
370
18
48
1
60
0
100
AcDbLine
10
56.668444
20
6.21454
30
0
11
56.66615
21
6.21088
31
0
39
0
210
0
220
0
230
1
0
LINE
5
8A
100
AcDbEntity
8
1
62
256
6
ByLayer
370
18
48
1
60
0
100
AcDbLine
10
58.167286
20
6.21329
30
0
11
58.163624
21
6.206589
31
0
39
0
210
0
220
0
230
1
0
LINE
5
8B
100
AcDbEntity
8
1
62
256
6
ByLayer
370
18
48
1
60
0
100
AcDbLine
10
59.322581
20
6.211166
30
0
11
59.319686
21
6.215608
31
0
39
0
210
0
220
0
230
1
0
LINE
5
8C
100
AcDbEntity
8
1
62
256
6
ByLayer
370
18
48
1
60
0
100
AcDbLine
10
55.293877
20
6.049796
30
0
11
55.293877
21
6.05
31
0
39
0
210
0
220
0
230
1
0
LINE
5
8D
100
AcDbEntity
8
1
62
256
6
ByLayer
370
18
48
1
60
0
100
AcDbLine
10
64.574526
20
-6.207439
30
0
11
64.571105
21
-6.213436
31
0
39
0
210
0
220
0
230
1
0
LINE
5
8E
100
AcDbEntity
8
1
62
256
6
ByLayer
370
13
48
1
60
0
100
AcDbLine
10
21.653835
20
-5.35
30
0
11
21.653835
21
5.35
31
0
39
0
210
0
220
0
230
1
0
LINE
5
8F
100
AcDbEntity
8
1
62
256
6
ByLayer
370
18
48
1
60
0
100
AcDbLine
10
21
20
5.5
30
0
11
21
21
-5.5
31
0
39
0
210
0
220
0
230
1
0
LINE
5
90
100
AcDbEntity
8
1
62
256
6
ByLayer
370
13
48
1
60
0
100
AcDbLine
10
54.081441
20
-1.81264
30
0
11
54.081441
21
1.871153
31
0
39
0
210
0
220
0
230
1
0
LINE
5
91
100
AcDbEntity
8
1
62
256
6
ByLayer
370
13
48
1
60
0
100
AcDbLine
10
55.293877
20
1.175195
30
0
11
55.293877
21
-3.067927
31
0
39
0
210
0
220
0
230
1
0
LINE
5
92
100
AcDbEntity
8
SK1
62
256
6
ByLayer
370
18
48
1
60
0
100
AcDbLine
10
-29
20
3.68
30
0
11
-29
21
-3.68
31
0
39
0
210
0
220
0
230
1
0
LINE
5
94
100
AcDbEntity
8
SK1
62
256
6
ByLayer
370
18
48
1
60
0
100
AcDbLine
10
-17
20
2.761956
30
0
11
-17
21
-2.761956
31
0
39
0
210
0
220
0
230
1
0
LINE
5
95
100
AcDbEntity
8
SK1
62
256
6
ByLayer
370
18
48
1
60
0
100
AcDbLine
10
-17
20
4.5
30
0
11
-16.22
21
5.28
31
0
39
0
210
0
220
0
230
1
0
LINE
5
96
100
AcDbEntity
8
SK1
62
256
6
ByLayer
370
18
48
1
60
0
100
AcDbLine
10
-27.4
20
4.5
30
0
11
-17
21
4.5
31
0
39
0
210
0
220
0
230
1
0
LINE
5
97
100
AcDbEntity
8
SK1
62
256
6
ByLayer
370
18
48
1
60
0
100
AcDbLine
10
-27.4
20
2.761956
30
0
11
-27.4
21
4.5
31
0
39
0
210
0
220
0
230
1
0
LINE
5
98
100
AcDbEntity
8
SK1
62
256
6
ByLayer
370
18
48
1
60
0
100
AcDbLine
10
-17
20
2.761956
30
0
11
-27.4
21
2.761956
31
0
39
0
210
0
220
0
230
1
0
LINE
5
99
100
AcDbEntity
8
SK1
62
256
6
ByLayer
370
18
48
1
60
0
100
AcDbLine
10
-27.4
20
-2.761956
30
0
11
-17
21
-2.761956
31
0
39
0
210
0
220
0
230
1
0
LINE
5
9A
100
AcDbEntity
8
SK1
62
256
6
ByLayer
370
18
48
1
60
0
100
AcDbLine
10
-27.4
20
-4.5
30
0
11
-27.4
21
-2.761956
31
0
39
0
210
0
220
0
230
1
0
LINE
5
9B
100
AcDbEntity
8
SK1
62
256
6
ByLayer
370
18
48
1
60
0
100
AcDbLine
10
-17
20
-4.5
30
0
11
-27.4
21
-4.5
31
0
39
0
210
0
220
0
230
1
0
LINE
5
9C
100
AcDbEntity
8
SK1
62
256
6
ByLayer
370
18
48
1
60
0
100
AcDbLine
10
-17
20
-4.5
30
0
11
-16.22
21
-5.28
31
0
39
0
210
0
220
0
230
1
0
LINE
5
9D
100
AcDbEntity
8
SK1
62
256
6
ByLayer
370
18
48
1
60
0
100
AcDbLine
10
0
20
5.5
30
0
11
0
21
-5.5
31
0
39
0
210
0
220
0
230
1
0
LINE
5
9E
100
AcDbEntity
8
SK1
62
256
6
ByLayer
370
18
48
1
60
0
100
AcDbLine
10
-14.6
20
5.28
30
0
11
-14.6
21
-5.28
31
0
39
0
210
0
220
0
230
1
0
LINE
5
9F
100
AcDbEntity
8
SK1
62
256
6
ByLayer
370
18
48
1
60
0
100
AcDbLine
10
-14.38
20
-5.5
30
0
11
-14.38
21
5.5
31
0
39
0
210
0
220
0
230
1
0
LINE
5
A0
100
AcDbEntity
8
1
62
256
6
ByLayer
370
18
48
1
60
0
100
AcDbLine
10
55.841125
20
6.997861
30
0
11
55.293877
21
6.05
31
0
39
0
210
0
220
0
230
1
0
LINE
5
A1
100
AcDbEntity
8
1
62
256
6
ByLayer
370
18
48
1
60
0
100
AcDbLine
10
21
20
5.5
30
0
11
0
21
5.5
31
0
39
0
210
0
220
0
230
1
0
LINE
5
A2
100
AcDbEntity
8
1
62
256
6
ByLayer
370
18
48
1
60
0
100
AcDbLine
10
0
20
-5.5
30
0
11
21
21
-5.5
31
0
39
0
210
0
220
0
230
1
0
LINE
5
A3
100
AcDbEntity
8
1
62
256
6
ByLayer
370
18
48
1
60
0
100
AcDbLine
10
57.316921
20
7.073041
30
0
11
57.172201
21
7.073041
31
0
39
0
210
0
220
0
230
1
0
LINE
5
A4
100
AcDbEntity
8
1
62
256
6
ByLayer
370
18
48
1
60
0
100
AcDbLine
10
65.422042
20
-7.073041
30
0
11
65.566984
21
-7.073041
31
0
39
0
210
0
220
0
230
1
0
LINE
5
A5
100
AcDbEntity
8
1
62
256
6
ByLayer
370
18
48
1
60
0
100
AcDbLine
10
58.816449
20
7.073041
30
0
11
58.671677
21
7.073041
31
0
39
0
210
0
220
0
230
1
0
LINE
5
A6
100
AcDbEntity
8
1
62
256
6
ByLayer
370
18
48
1
60
0
100
AcDbLine
10
63.922143
20
-7.073041
30
0
11
64.066626
21
-7.073041
31
0
39
0
210
0
220
0
230
1
0
LINE
5
A7
100
AcDbEntity
8
1
62
256
6
ByLayer
370
18
48
1
60
0
100
AcDbLine
10
60.316666
20
7.073041
30
0
11
60.17221
21
7.073041
31
0
39
0
210
0
220
0
230
1
0
LINE
5
A8
100
AcDbEntity
8
1
62
256
6
ByLayer
370
18
48
1
60
0
100
AcDbLine
10
21.653835
20
-5.35
30
0
11
37.641659
21
-5.35
31
0
39
0
210
0
220
0
230
1
0
LINE
5
A9
100
AcDbEntity
8
1
62
256
6
ByLayer
370
18
48
1
60
0
100
AcDbLine
10
47.790992
20
-5.35
30
0
11
52.871201
21
-5.35
31
0
39
0
210
0
220
0
230
1
0
LINE
5
AA
100
AcDbEntity
8
1
62
256
6
ByLayer
370
18
48
1
60
0
100
AcDbLine
10
45.256912
20
5.35
30
0
11
40.212275
21
5.35
31
0
39
0
210
0
220
0
230
1
0
LINE
5
AB
100
AcDbEntity
8
1
62
256
6
ByLayer
370
18
48
1
60
0
100
AcDbLine
10
30.541526
20
5.35
30
0
11
21.653835
21
5.35
31
0
39
0
210
0
220
0
230
1
0
LINE
5
AC
100
AcDbEntity
8
SK1
62
256
6
ByLayer
370
18
48
1
60
0
100
AcDbLine
10
-29
20
-3.68
30
0
11
-28.18
21
-4.5
31
0
39
0
210
0
220
0
230
1
0
LINE
5
AD
100
AcDbEntity
8
SK1
62
256
6
ByLayer
370
18
48
1
60
0
100
AcDbLine
10
-28.18
20
4.5
30
0
11
-29
21
3.68
31
0
39
0
210
0
220
0
230
1
0
LINE
5
AE
100
AcDbEntity
8
SK1
62
256
6
ByLayer
370
18
48
1
60
0
100
AcDbLine
10
-14.6
20
5.28
30
0
11
-16.22
21
5.28
31
0
39
0
210
0
220
0
230
1
0
LINE
5
AF
100
AcDbEntity
8
SK1
62
256
6
ByLayer
370
18
48
1
60
0
100
AcDbLine
10
-16.22
20
-5.28
30
0
11
-14.6
21
-5.28
31
0
39
0
210
0
220
0
230
1
0
LINE
5
B0
100
AcDbEntity
8
SK1
62
256
6
ByLayer
370
18
48
1
60
0
100
AcDbLine
10
0
20
5.5
30
0
11
-14.38
21
5.5
31
0
39
0
210
0
220
0
230
1
0
LINE
5
B1
100
AcDbEntity
8
SK1
62
256
6
ByLayer
370
18
48
1
60
0
100
AcDbLine
10
-14.38
20
-5.5
30
0
11
0
21
-5.5
31
0
39
0
210
0
220
0
230
1
0
LINE
5
B2
100
AcDbEntity
8
SK1
62
256
6
ByLayer
370
18
48
1
60
0
100
AcDbLine
10
-14.6
20
-5.28
30
0
11
-14.38
21
-5.5
31
0
39
0
210
0
220
0
230
1
0
LINE
5
B3
100
AcDbEntity
8
SK1
62
256
6
ByLayer
370
18
48
1
60
0
100
AcDbLine
10
-14.38
20
5.5
30
0
11
-14.6
21
5.28
31
0
39
0
210
0
220
0
230
1
0
LINE
5
B4
100
AcDbEntity
8
SK2
62
256
6
ByLayer
370
18
48
1
60
0
100
AcDbLine
10
11.31
20
-5.5
30
0
11
11.31
21
19.083885
31
0
39
0
210
0
220
0
230
1
0
LINE
5
B6
100
AcDbEntity
8
1
62
256
6
ByLayer
370
18
48
1
60
1
100
AcDbLine
10
11.31
20
5.5
30
0
11
11.770784
21
2.000002
31
0
39
0
210
0
220
0
230
1
0
LINE
5
B7
100
AcDbEntity
8
1
62
256
6
ByLayer
370
18
48
1
60
1
100
AcDbLine
10
11.770784
20
2.000002
30
0
11
10.849216
21
1.999998
31
0
39
0
210
0
220
0
230
1
0
LINE
5
B8
100
AcDbEntity
8
1
62
256
6
ByLayer
370
18
48
1
60
1
100
AcDbLine
10
10.849216
20
1.999998
30
0
11
11.31
21
5.5
31
0
39
0
210
0
220
0
230
1
0
LINE
5
B9
100
AcDbEntity
8
1
62
256
6
ByLayer
370
18
48
1
60
1
100
AcDbLine
10
11.31
20
-5.5
30
0
11
10.849216
21
-2.000002
31
0
39
0
210
0
220
0
230
1
0
LINE
5
BA
100
AcDbEntity
8
1
62
256
6
ByLayer
370
18
48
1
60
1
100
AcDbLine
10
10.849216
20
-2.000002
30
0
11
11.770784
21
-1.999998
31
0
39
0
210
0
220
0
230
1
0
LINE
5
BB
100
AcDbEntity
8
1
62
256
6
ByLayer
370
18
48
1
60
1
100
AcDbLine
10
11.770784
20
-1.999998
30
0
11
11.31
21
-5.5
31
0
39
0
210
0
220
0
230
1
0
LINE
5
BC
100
AcDbEntity
8
2
62
256
6
ByLayer
370
18
48
1
60
0
100
AcDbLine
10
71
20
-44.573041
30
0
11
-29
21
-44.573041
31
0
39
0
210
0
220
0
230
1
0
LINE
5
BE
100
AcDbEntity
8
2
62
256
6
ByLayer
370
18
48
1
60
0
100
AcDbLine
10
-29
20
-5.2675
30
0
11
-29
21
-46.573041
31
0
39
0
210
0
220
0
230
1
0
LINE
5
BF
100
AcDbEntity
8
2
62
256
6
ByLayer
370
18
48
1
60
0
100
AcDbLine
10
71
20
-8.660541
30
0
11
71
21
-46.573041
31
0
39
0
210
0
220
0
230
1
0
LINE
5
C0
100
AcDbEntity
8
1
62
256
6
ByLayer
370
18
48
1
60
1
100
AcDbLine
10
-29
20
-44.573041
30
0
11
-25.500002
21
-44.112257
31
0
39
0
210
0
220
0
230
1
0
LINE
5
C1
100
AcDbEntity
8
1
62
256
6
ByLayer
370
18
48
1
60
1
100
AcDbLine
10
-25.500002
20
-44.112257
30
0
11
-25.499998
21
-45.033825
31
0
39
0
210
0
220
0
230
1
0
LINE
5
C2
100
AcDbEntity
8
1
62
256
6
ByLayer
370
18
48
1
60
1
100
AcDbLine
10
-25.499998
20
-45.033825
30
0
11
-29
21
-44.573041
31
0
39
0
210
0
220
0
230
1
0
LINE
5
C3
100
AcDbEntity
8
1
62
256
6
ByLayer
370
18
48
1
60
1
100
AcDbLine
10
71
20
-44.573041
30
0
11
67.500002
21
-45.033825
31
0
39
0
210
0
220
0
230
1
0
LINE
5
C4
100
AcDbEntity
8
1
62
256
6
ByLayer
370
18
48
1
60
1
100
AcDbLine
10
67.500002
20
-45.033825
30
0
11
67.499998
21
-44.112257
31
0
39
0
210
0
220
0
230
1
0
LINE
5
C5
100
AcDbEntity
8
1
62
256
6
ByLayer
370
18
48
1
60
1
100
AcDbLine
10
67.499998
20
-44.112257
30
0
11
71
21
-44.573041
31
0
39
0
210
0
220
0
230
1
0
LINE
5
1D9
100
AcDbEntity
8
1
62
256
6
ByLayer
370
18
48
1
60
1
100
AcDbLine
10
11.31
20
5.5
30
0
11
11.770784
21
2.000002
31
0
39
0
210
0
220
0
230
1
0
LINE
5
1DA
100
AcDbEntity
8
1
62
256
6
ByLayer
370
18
48
1
60
1
100
AcDbLine
10
11.770784
20
2.000002
30
0
11
10.849216
21
1.999998
31
0
39
0
210
0
220
0
230
1
0
LINE
5
1DB
100
AcDbEntity
8
1
62
256
6
ByLayer
370
18
48
1
60
1
100
AcDbLine
10
10.849216
20
1.999998
30
0
11
11.31
21
5.5
31
0
39
0
210
0
220
0
230
1
0
LINE
5
1DD
100
AcDbEntity
8
1
62
256
6
ByLayer
370
18
48
1
60
1
100
AcDbLine
10
11.31
20
-5.5
30
0
11
10.849216
21
-2.000002
31
0
39
0
210
0
220
0
230
1
0
LINE
5
1DE
100
AcDbEntity
8
1
62
256
6
ByLayer
370
18
48
1
60
1
100
AcDbLine
10
10.849216
20
-2.000002
30
0
11
11.770784
21
-1.999998
31
0
39
0
210
0
220
0
230
1
0
LINE
5
1DF
100
AcDbEntity
8
1
62
256
6
ByLayer
370
18
48
1
60
1
100
AcDbLine
10
11.770784
20
-1.999998
30
0
11
11.31
21
-5.5
31
0
39
0
210
0
220
0
230
1
0
LINE
5
1E2
100
AcDbEntity
8
1
62
256
6
ByLayer
370
18
48
1
60
1
100
AcDbLine
10
-29
20
-44.573041
30
0
11
-25.500002
21
-44.112257
31
0
39
0
210
0
220
0
230
1
0
LINE
5
1E3
100
AcDbEntity
8
1
62
256
6
ByLayer
370
18
48
1
60
1
100
AcDbLine
10
-25.500002
20
-44.112257
30
0
11
-25.499998
21
-45.033825
31
0
39
0
210
0
220
0
230
1
0
LINE
5
1E4
100
AcDbEntity
8
1
62
256
6
ByLayer
370
18
48
1
60
1
100
AcDbLine
10
-25.499998
20
-45.033825
30
0
11
-29
21
-44.573041
31
0
39
0
210
0
220
0
230
1
0
LINE
5
1E6
100
AcDbEntity
8
1
62
256
6
ByLayer
370
18
48
1
60
1
100
AcDbLine
10
71
20
-44.573041
30
0
11
67.500002
21
-45.033825
31
0
39
0
210
0
220
0
230
1
0
LINE
5
1E7
100
AcDbEntity
8
1
62
256
6
ByLayer
370
18
48
1
60
1
100
AcDbLine
10
67.500002
20
-45.033825
30
0
11
67.499998
21
-44.112257
31
0
39
0
210
0
220
0
230
1
0
LINE
5
1E8
100
AcDbEntity
8
1
62
256
6
ByLayer
370
18
48
1
60
1
100
AcDbLine
10
67.499998
20
-44.112257
30
0
11
71
21
-44.573041
31
0
39
0
210
0
220
0
230
1
0
MTEXT
5
1D5
100
AcDbEntity
8
SK2
62
256
6
ByLayer
370
18
48
1
60
0
100
AcDbMText
10
9.968886
20
11.158437
30
0
210
0
220
0
230
1
1
%%c
40
3
41
0
44
1.084337
50
90
71
7
72
5
7
iso_b_vert
0
MTEXT
5
1D8
100
AcDbEntity
8
SK2
62
256
6
ByLayer
370
18
48
1
60
0
100
AcDbMText
10
9.968886
20
17.135
30
0
210
0
220
0
230
1
1
\W0.4657;11
40
3
41
0
44
1.084337
50
90
71
7
72
5
7
iso_b_vert
0
MTEXT
5
1E1
100
AcDbEntity
8
2
62
256
6
ByLayer
370
18
48
1
60
0
100
AcDbMText
10
18.621201
20
-43.687927
30
0
210
0
220
0
230
1
1
\W0.6217;100
40
3
41
0
44
1.084337
50
0
71
7
72
5
7
iso_b_vert
0
MTEXT
5
1EA
100
AcDbEntity
8
SK6
62
256
6
ByLayer
370
18
48
1
60
0
100
AcDbMText
10
4.292771
20
-82.114886
30
0
210
0
220
0
230
1
1
\W0.7489;T300-XM100DB-M14X150C110
40
3
41
0
44
1.084337
50
0
71
7
72
5
7
iso_b_vert
0
HATCH
5
1DC
100
AcDbEntity
8
SK2
62
256
6
ByLayer
370
13
48
1
60
0
100
AcDbHatch
10
0
20
0
30
0
210
0
220
0
230
1
2
ANSI31
70
0
71
0
91
1
92
5
93
3
72
1
10
11.31
20
5.50000000000003
11
11.7707837415528
21
2.00000169255321
72
1
10
11.7707837415528
20
2.00000169255321
11
10.8492162584472
21
1.99999830744685
72
1
10
10.8492162584472
20
1.99999830744685
11
11.31
21
5.50000000000003
97
0
75
0
76
1
52
0
41
0.0062
77
0
78
1
53
45
43
0
44
0
45
-0.0139193969876572
46
0.0139193969876572
79
0
47
0
98
1
10
0
20
0
0
HATCH
5
1E0
100
AcDbEntity
8
SK2
62
256
6
ByLayer
370
13
48
1
60
0
100
AcDbHatch
10
0
20
0
30
0
210
0
220
0
230
1
2
ANSI31
70
0
71
0
91
1
92
5
93
3
72
1
10
11.31
20
-5.5
11
10.8492162584472
21
-2.00000169255318
72
1
10
10.8492162584472
20
-2.00000169255318
11
11.7707837415528
21
-1.99999830744682
72
1
10
11.7707837415528
20
-1.99999830744682
11
11.31
21
-5.5
97
0
75
0
76
1
52
0
41
0.0062
77
0
78
1
53
45
43
0
44
0
45
-0.0139193969876572
46
0.0139193969876572
79
0
47
0
98
1
10
0
20
0
0
HATCH
5
1E5
100
AcDbEntity
8
2
62
256
6
ByLayer
370
13
48
1
60
0
100
AcDbHatch
10
0
20
0
30
0
210
0
220
0
230
1
2
ANSI31
70
0
71
0
91
1
92
5
93
3
72
1
10
-29
20
-44.573041164107
11
-25.5000016925532
21
-44.1122574225543
72
1
10
-25.5000016925532
20
-44.1122574225543
11
-25.4999983074468
21
-45.0338249056598
72
1
10
-25.4999983074468
20
-45.0338249056598
11
-29
21
-44.573041164107
97
0
75
0
76
1
52
0
41
0.0062
77
0
78
1
53
45
43
0
44
0
45
-0.0139193969876572
46
0.0139193969876572
79
0
47
0
98
1
10
0
20
0
0
HATCH
5
1E9
100
AcDbEntity
8
2
62
256
6
ByLayer
370
13
48
1
60
0
100
AcDbHatch
10
0
20
0
30
0
210
0
220
0
230
1
2
ANSI31
70
0
71
0
91
1
92
5
93
3
72
1
10
71
20
-44.573041164107
11
67.5000016925532
21
-45.0338249056598
72
1
10
67.5000016925532
20
-45.0338249056598
11
67.4999983074468
21
-44.1122574225543
72
1
10
67.4999983074468
20
-44.1122574225543
11
71
21
-44.573041164107
97
0
75
0
76
1
52
0
41
0.0062
77
0
78
1
53
45
43
0
44
0
45
-0.0139193969876572
46
0.0139193969876572
79
0
47
0
98
1
10
0
20
0
0
DIMENSION
5
1ED
100
AcDbEntity
8
2
62
256
6
ByLayer
370
18
48
1
60
0
100
AcDbDimension
2
_U0
10
90.5
20
-7.073041
30
0
11
90.5
21
25.787327
31
0
70
32
71
1
72
1
41
1
210
0
220
0
230
1
3
Standard
100
AcDbAlignedDimension
13
71
23
7.073041
33
0
14
71
24
-7.073041
34
0
50
90
100
AcDbRotatedDimension
1001
ACAD
1000
DSTYLE
1002
{
1070
   371
1070
    13
1070
   372
1070
    13
1070
     3
1000

1070
   170
1070
     0
1070
   144
1040
1.0
1070
   277
1070
     2
1070
   284
1070
     8
1070
   278
1070
    46
1070
   146
1040
1.166667
1070
   345
1005
16
1070
   347
1005
16
1070
   346
1005
16
1070
   344
1005
0
1070
   343
1005
0
1070
   172
1070
     1
1070
    76
1070
     0
1070
    75
1070
     0
1070
   282
1070
     0
1070
   281
1070
     0
1070
    71
1070
     0
1070
    74
1070
     0
1070
   279
1070
     0
1070
   173
1070
     1
1070
   340
1005
1D6
1070
   271
1070
     3
1070
   272
1070
     3
1070
    77
1070
     1
1070
    73
1070
     0
1070
   171
1070
     3
1070
   274
1070
     4
1070
   177
1070
     2
1070
   176
1070
     2
1070
   178
1070
     2
1070
    78
1070
     8
1070
    48
1040
-0.1
1070
    41
1040
3.5
1070
   147
1040
1.5
1070
    42
1040
1.5875
1070
    44
1040
2.0
1070
   140
1040
3.0
1002
}
1001
ACAD_DSTYLE_DIM_LINETYPE
1070
   380
1005
16
1001
ACAD_DSTYLE_DIM_EXT1_LINETYPE
1070
   381
1005
16
1001
ACAD_DSTYLE_DIM_EXT2_LINETYPE
1070
   382
1005
16
0
DIMENSION
5
208
100
AcDbEntity
8
SK2
62
256
6
ByLayer
370
18
48
1
60
0
100
AcDbDimension
2
_U1
10
66.87
20
16.242185
30
0
11
68.935
21
16.242185
31
0
70
32
71
1
72
1
41
1
210
0
220
0
230
1
3
Standard
100
AcDbAlignedDimension
13
71
23
7.073041
33
0
14
66.87
24
0
34
0
50
0
100
AcDbRotatedDimension
1001
ACAD
1000
DSTYLE
1002
{
1070
   371
1070
    13
1070
   372
1070
    13
1070
   170
1070
     0
1070
   144
1040
1.0
1070
   277
1070
     2
1070
   284
1070
     8
1070
   278
1070
    46
1070
   146
1040
1.166667
1070
   345
1005
16
1070
   347
1005
16
1070
   346
1005
16
1070
   344
1005
0
1070
   343
1005
0
1070
   172
1070
     1
1070
    76
1070
     0
1070
    75
1070
     0
1070
   282
1070
     0
1070
   281
1070
     0
1070
    71
1070
     0
1070
    74
1070
     0
1070
   279
1070
     0
1070
   173
1070
     1
1070
   340
1005
1D6
1070
   271
1070
     3
1070
   272
1070
     3
1070
    77
1070
     1
1070
    73
1070
     1
1070
   171
1070
     3
1070
   274
1070
     4
1070
   177
1070
     2
1070
   176
1070
     2
1070
   178
1070
     2
1070
    78
1070
     8
1070
    48
1040
-0.1
1070
    41
1040
3.5
1070
   147
1040
1.5
1070
    42
1040
1.5875
1070
    44
1040
2.0
1070
   140
1040
3.0
1002
}
1001
ACAD_DSTYLE_DIM_LINETYPE
1070
   380
1005
16
1001
ACAD_DSTYLE_DIM_EXT1_LINETYPE
1070
   381
1005
16
1001
ACAD_DSTYLE_DIM_EXT2_LINETYPE
1070
   382
1005
16
0
DIMENSION
5
222
100
AcDbEntity
8
SK2
62
256
6
ByLayer
370
18
48
1
60
0
100
AcDbDimension
2
_U2
10
56
20
-14.073041
30
0
11
84.714286
21
-14.073041
31
0
70
32
71
1
72
1
41
1
210
0
220
0
230
1
3
Standard
100
AcDbAlignedDimension
13
71
23
-7.073041
33
0
14
56
24
-7.073041
34
0
50
0
100
AcDbRotatedDimension
1001
ACAD
1000
DSTYLE
1002
{
1070
   371
1070
    13
1070
   372
1070
    13
1070
   170
1070
     0
1070
   144
1040
1.0
1070
   277
1070
     2
1070
   284
1070
     8
1070
   278
1070
    46
1070
   146
1040
0.833333
1070
   345
1005
16
1070
   347
1005
16
1070
   346
1005
16
1070
   344
1005
0
1070
   343
1005
0
1070
   172
1070
     1
1070
    76
1070
     0
1070
    75
1070
     0
1070
   282
1070
     0
1070
   281
1070
     0
1070
    47
1040
0.5
1070
    72
1070
     0
1070
    71
1070
     1
1070
    74
1070
     0
1070
   279
1070
     0
1070
   173
1070
     1
1070
   340
1005
1D6
1070
   271
1070
     1
1070
   272
1070
     3
1070
    77
1070
     1
1070
    73
1070
     1
1070
   171
1070
     3
1070
   274
1070
     4
1070
   177
1070
     2
1070
   176
1070
     2
1070
   178
1070
     2
1070
    78
1070
     8
1070
    48
1040
0.5
1070
    41
1040
3.5
1070
   147
1040
1.5
1070
    42
1040
1.5875
1070
    44
1040
2.0
1070
   140
1040
3.0
1002
}
1001
ACAD_DSTYLE_DIM_LINETYPE
1070
   380
1005
16
1001
ACAD_DSTYLE_DIM_EXT1_LINETYPE
1070
   381
1005
16
1001
ACAD_DSTYLE_DIM_EXT2_LINETYPE
1070
   382
1005
16
0
DIMENSION
5
23D
100
AcDbEntity
8
SK2
62
256
6
ByLayer
370
18
48
1
60
0
100
AcDbDimension
2
_U3
10
21
20
-36.573041
30
0
11
46
21
-36.573041
31
0
70
32
71
1
72
1
41
1
210
0
220
0
230
1
3
Standard
100
AcDbAlignedDimension
13
71
23
-7.073041
33
0
14
21
24
-5.35
34
0
50
0
100
AcDbRotatedDimension
1001
ACAD
1000
DSTYLE
1002
{
1070
   371
1070
    13
1070
   372
1070
    13
1070
   170
1070
     0
1070
   144
1040
1.0
1070
   277
1070
     2
1070
   284
1070
     8
1070
   278
1070
    46
1070
   146
1040
1.166667
1070
   345
1005
16
1070
   347
1005
16
1070
   346
1005
16
1070
   344
1005
0
1070
   343
1005
0
1070
   172
1070
     1
1070
    76
1070
     0
1070
    75
1070
     0
1070
   282
1070
     0
1070
   281
1070
     0
1070
    71
1070
     0
1070
    74
1070
     0
1070
   279
1070
     0
1070
   173
1070
     1
1070
   340
1005
1D6
1070
   271
1070
     1
1070
   272
1070
     3
1070
    77
1070
     1
1070
    73
1070
     1
1070
   171
1070
     3
1070
   274
1070
     4
1070
   177
1070
     2
1070
   176
1070
     2
1070
   178
1070
     2
1070
    78
1070
     8
1070
    48
1040
-0.1
1070
    41
1040
3.5
1070
   147
1040
1.5
1070
    42
1040
1.5875
1070
    44
1040
2.0
1070
   140
1040
3.0
1002
}
1001
ACAD_DSTYLE_DIM_LINETYPE
1070
   380
1005
16
1001
ACAD_DSTYLE_DIM_EXT1_LINETYPE
1070
   381
1005
16
1001
ACAD_DSTYLE_DIM_EXT2_LINETYPE
1070
   382
1005
16
0
DIMENSION
5
255
100
AcDbEntity
8
2
62
256
6
ByLayer
370
18
48
1
60
0
100
AcDbDimension
2
_U4
10
28.5
20
-25.573041
30
0
11
49.75
21
-25.573041
31
0
70
32
71
1
72
1
41
1
210
0
220
0
230
1
3
Standard
100
AcDbAlignedDimension
13
71
23
-7.073041
33
0
14
28.5
24
0
34
0
50
0
100
AcDbRotatedDimension
1001
ACAD
1000
DSTYLE
1002
{
1070
   371
1070
    13
1070
   372
1070
    13
1070
   170
1070
     0
1070
   144
1040
1.0
1070
   277
1070
     2
1070
   284
1070
     8
1070
   278
1070
    46
1070
   146
1040
1.166667
1070
   345
1005
16
1070
   347
1005
16
1070
   346
1005
16
1070
   344
1005
0
1070
   343
1005
0
1070
   172
1070
     1
1070
    76
1070
     0
1070
    75
1070
     0
1070
   282
1070
     0
1070
   281
1070
     0
1070
    71
1070
     0
1070
    74
1070
     0
1070
   279
1070
     0
1070
   173
1070
     1
1070
   340
1005
1D6
1070
   271
1070
     1
1070
   272
1070
     3
1070
    77
1070
     1
1070
    73
1070
     1
1070
   171
1070
     3
1070
   274
1070
     4
1070
   177
1070
     2
1070
   176
1070
     2
1070
   178
1070
     2
1070
    78
1070
     8
1070
    48
1040
-0.1
1070
    41
1040
3.5
1070
   147
1040
1.5
1070
    42
1040
1.5875
1070
    44
1040
2.0
1070
   140
1040
3.0
1002
}
1001
ACAD_DSTYLE_DIM_LINETYPE
1070
   380
1005
16
1001
ACAD_DSTYLE_DIM_EXT1_LINETYPE
1070
   381
1005
16
1001
ACAD_DSTYLE_DIM_EXT2_LINETYPE
1070
   382
1005
16
0
ENDSEC
0
SECTION
2
OBJECTS
0
DICTIONARY
5
2dd
330
0
100
AcDbDictionary
280
0
281
1
3
ACAD_GROUP
350
2de
3
ACAD_MLINESTYLE
350
2df
0
DICTIONARY
5
2de
330
0
100
AcDbDictionary
280
0
281
1
0
DICTIONARY
5
2df
330
0
100
AcDbDictionary
280
0
281
1
3
Standard
350
18
0
MLINESTYLE
5
18
330
2df
100
AcDbMlineStyle
2
Standard
70
0
3

62
256
51
90
52
90
71
2
49
-0.5
62
256
6
ByLayer
49
0.5
62
256
6
ByLayer
0
RASTERVARIABLES
5
2cb
330

100
AcDbRasterVariables
90
0
70
1
71
1
72
1
0
ENDSEC
0
EOF
