0
SECTION
2
HEADER
9
$ACADVER
1
AC1015
9
$DWGCODEPAGE
3
ANSI_1252
9
$HANDSEED
5
2bf
9
$ANGBASE
50
0
9
$ANGDIR
70
0
9
$ATTMODE
70
1
9
$AUNITS
70
0
9
$AUPREC
70
0
9
$CECOLOR
62
256
9
$CELTSCALE
40
1
9
$CELTYPE
6
ByLayer
9
$CELWEIGHT
370
18
9
$CLAYER
8
0
9
$CMLJUST
70
0
9
$CMLSCALE
40
1
9
$CMLSTYLE
2
Standard
9
$DIMSTYLE
2
Standard
9
$TEXTSIZE
40
0.2
9
$TEXTSTYLE
7
Standard
9
$LUNITS
70
2
9
$LUPREC
70
4
9
$EXTNAMES
290
1
9
$INSUNITS
70
4
9
$LTSCALE
40
1
9
$LWDISPLAY
290
1
9
$PDMODE
70
0
9
$PDSIZE
40
0
9
$PLINEGEN
70
0
0
ENDSEC
0
SECTION
2
CLASSES
0
CLASS
1
RASTERVARIABLES
2
AcDbRasterVariables
3
ISM
90
0
280
0
281
0
0
ENDSEC
0
SECTION
2
TABLES
0
TABLE
2
VPORT
5
2b5
100
AcDbSymbolTable
0
VPORT
5
1
100
AcDbSymbolTableRecord
100
AcDbViewportTableRecord
2
*Active
70
0
10
0
20
0
11
1
21
1
12
-1
22
1
13
0
23
0
14
0.5
24
0.5
15
10
25
10
16
0
26
0
36
1
17
0
27
0
37
0
0
ENDTAB
0
TABLE
2
LTYPE
5
2b6
100
AcDbSymbolTable
0
LTYPE
5
14
100
AcDbSymbolTableRecord
100
AcDbLinetypeTableRecord
70
0
2
ByBlock
3

72
65
73
0
40
0
0
LTYPE
5
15
100
AcDbSymbolTableRecord
100
AcDbLinetypeTableRecord
70
0
2
ByLayer
3

72
65
73
0
40
0
0
LTYPE
5
16
100
AcDbSymbolTableRecord
100
AcDbLinetypeTableRecord
70
0
2
Continuous
3
Solid line
72
65
73
0
40
0
0
LTYPE
5
6E
100
AcDbSymbolTableRecord
100
AcDbLinetypeTableRecord
70
0
2
CENTER
3
____ _ ____ _ ____ _ ____
72
65
73
4
40
47.5
49
22
74
0
49
-8.5
74
0
49
8.5
74
0
49
-8.5
74
0
0
LTYPE
5
6F
100
AcDbSymbolTableRecord
100
AcDbLinetypeTableRecord
70
0
2
DASHED
3
__ __ __ __ __ __ __ __ __
72
65
73
2
40
25.72
49
12.86
74
0
49
-12.86
74
0
0
ENDTAB
0
TABLE
2
LAYER
5
2b7
100
AcDbSymbolTable
0
LAYER
5
10
100
AcDbSymbolTableRecord
100
AcDbLayerTableRecord
2
0
70
0
62
7
6
Continuous
290
1
370
-3
390
0
0
LAYER
5
71
100
AcDbSymbolTableRecord
100
AcDbLayerTableRecord
2
81
70
0
62
-3
6
Continuous
290
1
370
-3
390
0
0
LAYER
5
73
100
AcDbSymbolTableRecord
100
AcDbLayerTableRecord
2
80
70
0
62
-6
6
Continuous
290
1
370
-3
390
0
0
LAYER
5
75
100
AcDbSymbolTableRecord
100
AcDbLayerTableRecord
2
1
70
0
62
4
6
Continuous
290
1
370
-3
390
0
0
LAYER
5
81
100
AcDbSymbolTableRecord
100
AcDbLayerTableRecord
2
4
70
0
62
-2
6
CENTER
290
1
370
-3
390
0
0
LAYER
5
C5
100
AcDbSymbolTableRecord
100
AcDbLayerTableRecord
2
2
70
0
62
7
6
Continuous
290
1
370
-3
390
0
0
LAYER
5
1C5
100
AcDbSymbolTableRecord
100
AcDbLayerTableRecord
2
Defpoints
70
0
62
7
6
Continuous
290
0
370
-3
390
0
0
LAYER
5
2a1
100
AcDbSymbolTableRecord
100
AcDbLayerTableRecord
2
SK4
70
0
62
2
6
CENTER
290
1
370
-3
390
0
0
LAYER
5
2a2
100
AcDbSymbolTableRecord
100
AcDbLayerTableRecord
2
SK1
70
0
62
4
6
Continuous
290
1
370
-3
390
0
0
LAYER
5
2a3
100
AcDbSymbolTableRecord
100
AcDbLayerTableRecord
2
SK2
70
0
62
7
6
Continuous
290
1
370
-3
390
0
0
LAYER
5
2a4
100
AcDbSymbolTableRecord
100
AcDbLayerTableRecord
2
SK6
70
0
62
5
6
Continuous
290
1
370
-3
390
0
0
ENDTAB
0
TABLE
2
STYLE
5
2b8
100
AcDbSymbolTable
0
STYLE
5
11
100
AcDbSymbolTableRecord
100
AcDbTextStyleTableRecord
2
Standard
3
txt
70
0
71
0
40
0
41
1
42
0
50
0
0
STYLE
5
1AB
100
AcDbSymbolTableRecord
100
AcDbTextStyleTableRecord
2
iso_b_vert
3
simplex.shx
70
0
71
0
40
0
41
1
42
0
50
0
0
STYLE
5
1AC
100
AcDbSymbolTableRecord
100
AcDbTextStyleTableRecord
2
DWGDirectTextStyle
3
simplex
70
0
71
0
40
0
41
1
42
0
50
0
0
ENDTAB
0
TABLE
2
DIMSTYLE
5
2b9
100
AcDbSymbolTable
100
AcDbDimStyleTable
0
DIMSTYLE
105
27
100
AcDbSymbolTableRecord
100
AcDbDimStyleTableRecord
2
Standard
70
0
3
<>
41
0.18
42
0.0625
44
0.18
140
0.18
147
0.09
73
0
74
0
77
1
271
2
275
0
278
52
280
0
340
11
0
ENDTAB
0
TABLE
2
VIEW
5
2ba
100
AcDbSymbolTable
0
ENDTAB
0
TABLE
2
UCS
5
2bb
100
AcDbSymbolTable
0
ENDTAB
0
TABLE
2
APPID
5
2bc
100
AcDbSymbolTable
0
APPID
5
12
100
AcDbSymbolTableRecord
100
AcDbRegAppTableRecord
2
ACAD
70
0
0
APPID
5
1C1
100
AcDbSymbolTableRecord
100
AcDbRegAppTableRecord
2
ACAD_DSTYLE_DIMBREAK
70
0
0
APPID
5
260
100
AcDbSymbolTableRecord
100
AcDbRegAppTableRecord
2
ACAD_DSTYLE_DIM_LINETYPE
70
0
0
APPID
5
261
100
AcDbSymbolTableRecord
100
AcDbRegAppTableRecord
2
ACAD_DSTYLE_DIM_EXT1_LINETYPE
70
0
0
APPID
5
262
100
AcDbSymbolTableRecord
100
AcDbRegAppTableRecord
2
ACAD_DSTYLE_DIM_EXT2_LINETYPE
70
0
0
APPID
5
29D
100
AcDbSymbolTableRecord
100
AcDbRegAppTableRecord
2
ACAD_MLEADERVER
70
0
0
ENDTAB
0
TABLE
2
BLOCK_RECORD
5
2bd
100
AcDbSymbolTable
0
BLOCK_RECORD
5
1F
100
AcDbSymbolTableRecord
100
AcDbBlockTableRecord
2
*Model_Space
340
0
70
0
0
BLOCK_RECORD
5
1B
100
AcDbSymbolTableRecord
100
AcDbBlockTableRecord
2
*Paper_Space
340
0
70
0
0
BLOCK_RECORD
5
23
100
AcDbSymbolTableRecord
100
AcDbBlockTableRecord
2
*Paper_Space0
340
0
70
0
0
BLOCK_RECORD
5
1C6
100
AcDbSymbolTableRecord
100
AcDbBlockTableRecord
2
*D1
340
0
70
0
0
BLOCK_RECORD
5
1D4
100
AcDbSymbolTableRecord
100
AcDbBlockTableRecord
2
_U0
340
0
70
0
0
BLOCK_RECORD
5
1E0
100
AcDbSymbolTableRecord
100
AcDbBlockTableRecord
2
*D3
340
0
70
0
0
BLOCK_RECORD
5
1ED
100
AcDbSymbolTableRecord
100
AcDbBlockTableRecord
2
_U1
340
0
70
0
0
BLOCK_RECORD
5
1FA
100
AcDbSymbolTableRecord
100
AcDbBlockTableRecord
2
*D5
340
0
70
0
0
BLOCK_RECORD
5
208
100
AcDbSymbolTableRecord
100
AcDbBlockTableRecord
2
_U2
340
0
70
0
0
BLOCK_RECORD
5
215
100
AcDbSymbolTableRecord
100
AcDbBlockTableRecord
2
*D7
340
0
70
0
0
BLOCK_RECORD
5
221
100
AcDbSymbolTableRecord
100
AcDbBlockTableRecord
2
_U3
340
0
70
0
0
BLOCK_RECORD
5
22D
100
AcDbSymbolTableRecord
100
AcDbBlockTableRecord
2
*D9
340
0
70
0
0
BLOCK_RECORD
5
239
100
AcDbSymbolTableRecord
100
AcDbBlockTableRecord
2
_U4
340
0
70
0
0
ENDTAB
0
ENDSEC
0
SECTION
2
BLOCKS
0
BLOCK
5
20
100
AcDbEntity
8
0
100
AcDbBlockBegin
2
*Model_Space
70
0
10
0
20
0
30
0
3
*Model_Space
0
ENDBLK
5
21
100
AcDbEntity
8
0
100
AcDbBlockEnd
0
BLOCK
5
1C
100
AcDbEntity
8
0
100
AcDbBlockBegin
2
*Paper_Space
70
0
10
0
20
0
30
0
3
*Paper_Space
0
ENDBLK
5
1D
100
AcDbEntity
8
0
100
AcDbBlockEnd
0
BLOCK
5
24
100
AcDbEntity
8
0
100
AcDbBlockBegin
2
*Paper_Space0
70
0
10
0
20
0
30
0
3
*Paper_Space0
0
ENDBLK
5
25
100
AcDbEntity
8
0
100
AcDbBlockEnd
0
BLOCK
5
1C7
100
AcDbEntity
8
0
100
AcDbBlockBegin
2
*D1
70
1
10
0
20
0
30
0
3
*D1
0
LINE
5
1C9
100
AcDbEntity
8
0
62
256
6
ByLayer
370
-2
48
1
60
0
100
AcDbLine
10
67.5875
20
4.064208
30
0
11
87.5
21
4.064208
31
0
39
0
210
0
220
0
230
1
0
LINE
5
1CA
100
AcDbEntity
8
0
62
256
6
ByLayer
370
-2
48
1
60
0
100
AcDbLine
10
67.5875
20
-4.064208
30
0
11
87.5
21
-4.064208
31
0
39
0
210
0
220
0
230
1
0
LINE
5
1CB
100
AcDbEntity
8
0
62
256
6
ByLayer
370
-2
48
1
60
0
100
AcDbLine
10
85.5
20
4.064208
30
0
11
85.5
21
32.064208
31
0
39
0
210
0
220
0
230
1
0
LINE
5
1CC
100
AcDbEntity
8
0
62
256
6
ByLayer
370
-2
48
1
60
0
100
AcDbLine
10
85.5
20
7.564208
30
0
11
85.5
21
11.064208
31
0
39
0
210
0
220
0
230
1
0
LINE
5
1CD
100
AcDbEntity
8
0
62
256
6
ByLayer
370
-2
48
1
60
0
100
AcDbLine
10
85.5
20
-7.564208
30
0
11
85.5
21
-11.064208
31
0
39
0
210
0
220
0
230
1
0
SOLID
5
1CE
100
AcDbEntity
8
0
62
256
6
ByLayer
370
-1
48
1
60
0
100
AcDbTrace
10
84.916667
20
7.564208
30
0
11
86.083333
21
7.564208
31
0
12
85.5
22
4.064208
32
0
13
85.5
23
4.064208
33
0
39
0
210
0
220
0
230
1
0
SOLID
5
1CF
100
AcDbEntity
8
0
62
256
6
ByLayer
370
-1
48
1
60
0
100
AcDbTrace
10
86.083333
20
-7.564208
30
0
11
84.916667
21
-7.564208
31
0
12
85.5
22
-4.064208
32
0
13
85.5
23
-4.064208
33
0
39
0
210
0
220
0
230
1
0
MTEXT
5
1D0
100
AcDbEntity
8
0
62
256
6
ByLayer
370
18
48
1
60
0
100
AcDbMText
10
79.5
20
21.564208
30
0
210
0
220
0
230
1
1
\A1;8.128
40
3
41
0
44
1
50
90
71
5
72
5
7
iso_b_vert
0
POINT
5
1D1
100
AcDbEntity
8
Defpoints
62
0
6
ByLayer
370
-1
48
1
60
0
100
AcDbPoint
10
66
20
4.064208
30
0
39
0
210
0
220
0
230
1
50
360
0
POINT
5
1D2
100
AcDbEntity
8
Defpoints
62
0
6
ByLayer
370
-1
48
1
60
0
100
AcDbPoint
10
66
20
-4.064208
30
0
39
0
210
0
220
0
230
1
50
360
0
POINT
5
1D3
100
AcDbEntity
8
Defpoints
62
0
6
ByLayer
370
-1
48
1
60
0
100
AcDbPoint
10
85.5
20
-4.064208
30
0
39
0
210
0
220
0
230
1
50
360
0
ENDBLK
5
1C8
100
AcDbEntity
8
0
100
AcDbBlockEnd
0
BLOCK
5
1DB
100
AcDbEntity
8
0
100
AcDbBlockBegin
2
_U0
70
0
10
0
20
0
30
0
3
_U0
0
MTEXT
5
1D5
100
AcDbEntity
8
2
62
256
6
ByLayer
370
18
48
1
60
0
100
AcDbMText
10
84.908886
20
14.199208
30
0
210
0
220
0
230
1
1
\W0.7203;M8
40
3
41
0
44
1.084337
50
90
71
7
72
5
7
iso_b_vert
0
LINE
5
1D6
100
AcDbEntity
8
2
62
256
6
ByLayer
370
13
48
1
60
0
100
AcDbLine
10
67.5875
20
4.064208
30
0
11
87.5
21
4.064208
31
0
39
0
210
0
220
0
230
1
0
LINE
5
1D7
100
AcDbEntity
8
2
62
256
6
ByLayer
370
13
48
1
60
0
100
AcDbLine
10
67.5875
20
-4.064208
30
0
11
87.5
21
-4.064208
31
0
39
0
210
0
220
0
230
1
0
LINE
5
1D8
100
AcDbEntity
8
2
62
256
6
ByLayer
370
13
48
1
60
0
100
AcDbLine
10
85.5
20
-4.064208
30
0
11
85.5
21
18.319008
31
0
39
0
210
0
220
0
230
1
0
SOLID
5
1D9
100
AcDbEntity
8
2
62
256
6
ByLayer
370
18
48
1
60
0
100
AcDbTrace
10
85.5
20
4.064208
30
0
11
85.960784
21
0.56421
31
0
12
85.039216
22
0.564207
32
0
13
85.039216
23
0.564207
33
0
39
0
210
0
220
0
230
1
0
SOLID
5
1DA
100
AcDbEntity
8
2
62
256
6
ByLayer
370
18
48
1
60
0
100
AcDbTrace
10
85.5
20
-4.064208
30
0
11
85.039216
21
-0.56421
31
0
12
85.960784
22
-0.564207
32
0
13
85.960784
23
-0.564207
33
0
39
0
210
0
220
0
230
1
0
ENDBLK
5
1DC
100
AcDbEntity
8
0
100
AcDbBlockEnd
0
BLOCK
5
1E1
100
AcDbEntity
8
0
100
AcDbBlockBegin
2
*D3
70
1
10
0
20
0
30
0
3
*D3
0
LINE
5
1E3
100
AcDbEntity
8
0
62
256
6
ByLayer
370
-2
48
1
60
0
100
AcDbLine
10
66
20
5.651708
30
0
11
66
21
15.890393
31
0
39
0
210
0
220
0
230
1
0
LINE
5
1E4
100
AcDbEntity
8
0
62
256
6
ByLayer
370
-2
48
1
60
0
100
AcDbLine
10
62.56
20
1.5875
30
0
11
62.56
21
15.890393
31
0
39
0
210
0
220
0
230
1
0
LINE
5
1E5
100
AcDbEntity
8
0
62
256
6
ByLayer
370
-2
48
1
60
0
100
AcDbLine
10
69.5
20
13.890393
30
0
11
73
21
13.890393
31
0
39
0
210
0
220
0
230
1
0
LINE
5
1E6
100
AcDbEntity
8
0
62
256
6
ByLayer
370
-2
48
1
60
0
100
AcDbLine
10
59.06
20
13.890393
30
0
11
55.56
21
13.890393
31
0
39
0
210
0
220
0
230
1
0
SOLID
5
1E7
100
AcDbEntity
8
0
62
256
6
ByLayer
370
-1
48
1
60
0
100
AcDbTrace
10
69.5
20
14.473726
30
0
11
69.5
21
13.307059
31
0
12
66
22
13.890393
32
0
13
66
23
13.890393
33
0
39
0
210
0
220
0
230
1
0
SOLID
5
1E8
100
AcDbEntity
8
0
62
256
6
ByLayer
370
-1
48
1
60
0
100
AcDbTrace
10
59.06
20
13.307059
30
0
11
59.06
21
14.473726
31
0
12
62.56
22
13.890393
32
0
13
62.56
23
13.890393
33
0
39
0
210
0
220
0
230
1
0
MTEXT
5
1E9
100
AcDbEntity
8
0
62
256
6
ByLayer
370
18
48
1
60
0
100
AcDbMText
10
64.28
20
19.890393
30
0
210
0
220
0
230
1
1
\A1;3.44
40
3
41
0
44
1
50
0
71
5
72
5
7
iso_b_vert
0
POINT
5
1EA
100
AcDbEntity
8
Defpoints
62
0
6
ByLayer
370
-1
48
1
60
0
100
AcDbPoint
10
66
20
4.064208
30
0
39
0
210
0
220
0
230
1
50
360
0
POINT
5
1EB
100
AcDbEntity
8
Defpoints
62
0
6
ByLayer
370
-1
48
1
60
0
100
AcDbPoint
10
62.56
20
0
30
0
39
0
210
0
220
0
230
1
50
360
0
POINT
5
1EC
100
AcDbEntity
8
Defpoints
62
0
6
ByLayer
370
-1
48
1
60
0
100
AcDbPoint
10
62.56
20
13.890393
30
0
39
0
210
0
220
0
230
1
50
360
0
ENDBLK
5
1E2
100
AcDbEntity
8
0
100
AcDbBlockEnd
0
BLOCK
5
1F5
100
AcDbEntity
8
0
100
AcDbBlockBegin
2
_U1
70
0
10
0
20
0
30
0
3
_U1
0
MTEXT
5
1EE
100
AcDbEntity
8
SK2
62
256
6
ByLayer
370
18
48
1
60
0
100
AcDbMText
10
60.629158
20
14.673026
30
0
210
0
220
0
230
1
1
\W0.6474;'C'
40
3.5
41
0
44
1.084337
50
0
71
7
72
5
7
iso_b_vert
0
MTEXT
5
1EF
100
AcDbEntity
8
SK2
62
256
6
ByLayer
370
18
48
1
60
0
100
AcDbMText
10
60.602658
20
21.775507
30
0
210
0
220
0
230
1
1
\W0.7865;3.44
40
3
41
0
44
1.084337
50
0
71
7
72
5
7
iso_b_vert
0
LINE
5
1F0
100
AcDbEntity
8
SK2
62
256
6
ByLayer
370
13
48
1
60
0
100
AcDbLine
10
66
20
5.651708
30
0
11
66
21
15.890393
31
0
39
0
210
0
220
0
230
1
0
LINE
5
1F1
100
AcDbEntity
8
SK2
62
256
6
ByLayer
370
13
48
1
60
0
100
AcDbLine
10
62.56
20
1.5875
30
0
11
62.56
21
15.890393
31
0
39
0
210
0
220
0
230
1
0
LINE
5
1F2
100
AcDbEntity
8
SK2
62
256
6
ByLayer
370
13
48
1
60
0
100
AcDbLine
10
73.5
20
13.890393
30
0
11
55.06
21
13.890393
31
0
39
0
210
0
220
0
230
1
0
SOLID
5
1F3
100
AcDbEntity
8
SK2
62
256
6
ByLayer
370
18
48
1
60
0
100
AcDbTrace
10
66
20
13.890393
30
0
11
69.499998
21
14.351177
31
0
12
69.500002
22
13.429609
32
0
13
69.500002
23
13.429609
33
0
39
0
210
0
220
0
230
1
0
SOLID
5
1F4
100
AcDbEntity
8
SK2
62
256
6
ByLayer
370
18
48
1
60
0
100
AcDbTrace
10
62.56
20
13.890393
30
0
11
59.060002
21
13.429609
31
0
12
59.059998
22
14.351177
32
0
13
59.059998
23
14.351177
33
0
39
0
210
0
220
0
230
1
0
ENDBLK
5
1F6
100
AcDbEntity
8
0
100
AcDbBlockEnd
0
BLOCK
5
1FB
100
AcDbEntity
8
0
100
AcDbBlockBegin
2
*D5
70
1
10
0
20
0
30
0
3
*D5
0
LINE
5
1FD
100
AcDbEntity
8
0
62
256
6
ByLayer
370
-2
48
1
60
0
100
AcDbLine
10
66
20
-5.651708
30
0
11
66
21
-13.064208
31
0
39
0
210
0
220
0
230
1
0
LINE
5
1FE
100
AcDbEntity
8
0
62
256
6
ByLayer
370
-2
48
1
60
0
100
AcDbLine
10
54
20
-5.651708
30
0
11
54
21
-13.064208
31
0
39
0
210
0
220
0
230
1
0
LINE
5
1FF
100
AcDbEntity
8
0
62
256
6
ByLayer
370
-2
48
1
60
0
100
AcDbLine
10
66
20
-11.064208
30
0
11
86.428571
21
-11.064208
31
0
39
0
210
0
220
0
230
1
0
LINE
5
200
100
AcDbEntity
8
0
62
256
6
ByLayer
370
-2
48
1
60
0
100
AcDbLine
10
69.5
20
-11.064208
30
0
11
73
21
-11.064208
31
0
39
0
210
0
220
0
230
1
0
LINE
5
201
100
AcDbEntity
8
0
62
256
6
ByLayer
370
-2
48
1
60
0
100
AcDbLine
10
50.5
20
-11.064208
30
0
11
47
21
-11.064208
31
0
39
0
210
0
220
0
230
1
0
SOLID
5
202
100
AcDbEntity
8
0
62
256
6
ByLayer
370
-1
48
1
60
0
100
AcDbTrace
10
69.5
20
-10.480875
30
0
11
69.5
21
-11.647542
31
0
12
66
22
-11.064208
32
0
13
66
23
-11.064208
33
0
39
0
210
0
220
0
230
1
0
SOLID
5
203
100
AcDbEntity
8
0
62
256
6
ByLayer
370
-1
48
1
60
0
100
AcDbTrace
10
50.5
20
-11.647542
30
0
11
50.5
21
-10.480875
31
0
12
54
22
-11.064208
32
0
13
54
23
-11.064208
33
0
39
0
210
0
220
0
230
1
0
MTEXT
5
204
100
AcDbEntity
8
0
62
256
6
ByLayer
370
18
48
1
60
0
100
AcDbMText
10
79.714286
20
-5.064208
30
0
210
0
220
0
230
1
1
\A1;12
40
3
41
0
44
1
50
0
71
5
72
5
7
iso_b_vert
0
POINT
5
205
100
AcDbEntity
8
Defpoints
62
0
6
ByLayer
370
-1
48
1
60
0
100
AcDbPoint
10
66
20
-4.064208
30
0
39
0
210
0
220
0
230
1
50
360
0
POINT
5
206
100
AcDbEntity
8
Defpoints
62
0
6
ByLayer
370
-1
48
1
60
0
100
AcDbPoint
10
54
20
-4.064208
30
0
39
0
210
0
220
0
230
1
50
360
0
POINT
5
207
100
AcDbEntity
8
Defpoints
62
0
6
ByLayer
370
-1
48
1
60
0
100
AcDbPoint
10
54
20
-11.064208
30
0
39
0
210
0
220
0
230
1
50
360
0
ENDBLK
5
1FC
100
AcDbEntity
8
0
100
AcDbBlockEnd
0
BLOCK
5
210
100
AcDbEntity
8
0
100
AcDbBlockBegin
2
_U2
70
0
10
0
20
0
30
0
3
_U2
0
MTEXT
5
209
100
AcDbEntity
8
SK2
62
256
6
ByLayer
370
18
48
1
60
0
100
AcDbMText
10
72.159
20
-10.179094
30
0
210
0
220
0
230
1
1
\W0.5321;12
40
3
41
0
44
1.084337
50
0
71
7
72
5
7
iso_b_vert
0
MTEXT
5
20A
100
AcDbEntity
8
SK2
62
256
6
ByLayer
370
18
48
1
60
0
100
AcDbMText
10
77.466271
20
-9.826613
30
0
210
0
220
0
230
1
1
\W0.8315;\W0.4158;%%p\W0.8315;0.5
40
2.5
41
0
44
1.084337
50
0
71
7
72
5
7
iso_b_vert
0
LINE
5
20B
100
AcDbEntity
8
SK2
62
256
6
ByLayer
370
13
48
1
60
0
100
AcDbLine
10
66
20
-5.651708
30
0
11
66
21
-13.064208
31
0
39
0
210
0
220
0
230
1
0
LINE
5
20C
100
AcDbEntity
8
SK2
62
256
6
ByLayer
370
13
48
1
60
0
100
AcDbLine
10
54
20
-5.651708
30
0
11
54
21
-13.064208
31
0
39
0
210
0
220
0
230
1
0
LINE
5
20D
100
AcDbEntity
8
SK2
62
256
6
ByLayer
370
13
48
1
60
0
100
AcDbLine
10
54
20
-11.064208
30
0
11
84.583008
21
-11.064208
31
0
39
0
210
0
220
0
230
1
0
SOLID
5
20E
100
AcDbEntity
8
SK2
62
256
6
ByLayer
370
18
48
1
60
0
100
AcDbTrace
10
66
20
-11.064208
30
0
11
62.500002
21
-11.524992
31
0
12
62.499998
22
-10.603425
32
0
13
62.499998
23
-10.603425
33
0
39
0
210
0
220
0
230
1
0
SOLID
5
20F
100
AcDbEntity
8
SK2
62
256
6
ByLayer
370
18
48
1
60
0
100
AcDbTrace
10
54
20
-11.064208
30
0
11
57.499998
21
-10.603425
31
0
12
57.500002
22
-11.524992
32
0
13
57.500002
23
-11.524992
33
0
39
0
210
0
220
0
230
1
0
ENDBLK
5
211
100
AcDbEntity
8
0
100
AcDbBlockEnd
0
BLOCK
5
216
100
AcDbEntity
8
0
100
AcDbBlockBegin
2
*D7
70
1
10
0
20
0
30
0
3
*D7
0
LINE
5
218
100
AcDbEntity
8
0
62
256
6
ByLayer
370
-2
48
1
60
0
100
AcDbLine
10
66
20
-5.651708
30
0
11
66
21
-35.564208
31
0
39
0
210
0
220
0
230
1
0
LINE
5
219
100
AcDbEntity
8
0
62
256
6
ByLayer
370
-2
48
1
60
0
100
AcDbLine
10
31
20
-4.70135
30
0
11
31
21
-35.564208
31
0
39
0
210
0
220
0
230
1
0
LINE
5
21A
100
AcDbEntity
8
0
62
256
6
ByLayer
370
-2
48
1
60
0
100
AcDbLine
10
62.5
20
-33.564208
30
0
11
34.5
21
-33.564208
31
0
39
0
210
0
220
0
230
1
0
SOLID
5
21B
100
AcDbEntity
8
0
62
256
6
ByLayer
370
-1
48
1
60
0
100
AcDbTrace
10
62.5
20
-34.147542
30
0
11
62.5
21
-32.980875
31
0
12
66
22
-33.564208
32
0
13
66
23
-33.564208
33
0
39
0
210
0
220
0
230
1
0
SOLID
5
21C
100
AcDbEntity
8
0
62
256
6
ByLayer
370
-1
48
1
60
0
100
AcDbTrace
10
34.5
20
-32.980875
30
0
11
34.5
21
-34.147542
31
0
12
31
22
-33.564208
32
0
13
31
23
-33.564208
33
0
39
0
210
0
220
0
230
1
0
MTEXT
5
21D
100
AcDbEntity
8
0
62
256
6
ByLayer
370
18
48
1
60
0
100
AcDbMText
10
48.5
20
-27.564208
30
0
210
0
220
0
230
1
1
\A1;35
40
3
41
0
44
1
50
0
71
5
72
5
7
iso_b_vert
0
POINT
5
21E
100
AcDbEntity
8
Defpoints
62
0
6
ByLayer
370
-1
48
1
60
0
100
AcDbPoint
10
66
20
-4.064208
30
0
39
0
210
0
220
0
230
1
50
360
0
POINT
5
21F
100
AcDbEntity
8
Defpoints
62
0
6
ByLayer
370
-1
48
1
60
0
100
AcDbPoint
10
31
20
-3.11385
30
0
39
0
210
0
220
0
230
1
50
360
0
POINT
5
220
100
AcDbEntity
8
Defpoints
62
0
6
ByLayer
370
-1
48
1
60
0
100
AcDbPoint
10
31
20
-33.564208
30
0
39
0
210
0
220
0
230
1
50
360
0
ENDBLK
5
217
100
AcDbEntity
8
0
100
AcDbBlockEnd
0
BLOCK
5
228
100
AcDbEntity
8
0
100
AcDbBlockBegin
2
_U3
70
0
10
0
20
0
30
0
3
_U3
0
MTEXT
5
222
100
AcDbEntity
8
SK2
62
256
6
ByLayer
370
18
48
1
60
0
100
AcDbMText
10
46.867172
20
-32.679094
30
0
210
0
220
0
230
1
1
\W0.6740;35
40
3
41
0
44
1.084337
50
0
71
7
72
5
7
iso_b_vert
0
LINE
5
223
100
AcDbEntity
8
SK2
62
256
6
ByLayer
370
13
48
1
60
0
100
AcDbLine
10
66
20
-5.651708
30
0
11
66
21
-35.564208
31
0
39
0
210
0
220
0
230
1
0
LINE
5
224
100
AcDbEntity
8
SK2
62
256
6
ByLayer
370
13
48
1
60
0
100
AcDbLine
10
31
20
-4.70135
30
0
11
31
21
-35.564208
31
0
39
0
210
0
220
0
230
1
0
LINE
5
225
100
AcDbEntity
8
SK2
62
256
6
ByLayer
370
13
48
1
60
0
100
AcDbLine
10
66
20
-33.564208
30
0
11
31
21
-33.564208
31
0
39
0
210
0
220
0
230
1
0
SOLID
5
226
100
AcDbEntity
8
SK2
62
256
6
ByLayer
370
18
48
1
60
0
100
AcDbTrace
10
66
20
-33.564208
30
0
11
62.500002
21
-34.024992
31
0
12
62.499998
22
-33.103425
32
0
13
62.499998
23
-33.103425
33
0
39
0
210
0
220
0
230
1
0
SOLID
5
227
100
AcDbEntity
8
SK2
62
256
6
ByLayer
370
18
48
1
60
0
100
AcDbTrace
10
31
20
-33.564208
30
0
11
34.499998
21
-33.103425
31
0
12
34.500002
22
-34.024992
32
0
13
34.500002
23
-34.024992
33
0
39
0
210
0
220
0
230
1
0
ENDBLK
5
229
100
AcDbEntity
8
0
100
AcDbBlockEnd
0
BLOCK
5
22E
100
AcDbEntity
8
0
100
AcDbBlockBegin
2
*D9
70
1
10
0
20
0
30
0
3
*D9
0
LINE
5
230
100
AcDbEntity
8
0
62
256
6
ByLayer
370
-2
48
1
60
0
100
AcDbLine
10
66
20
-5.651708
30
0
11
66
21
-24.564208
31
0
39
0
210
0
220
0
230
1
0
LINE
5
231
100
AcDbEntity
8
0
62
256
6
ByLayer
370
-2
48
1
60
0
100
AcDbLine
10
36.25
20
-1.5875
30
0
11
36.25
21
-24.564208
31
0
39
0
210
0
220
0
230
1
0
LINE
5
232
100
AcDbEntity
8
0
62
256
6
ByLayer
370
-2
48
1
60
0
100
AcDbLine
10
62.5
20
-22.564208
30
0
11
39.75
21
-22.564208
31
0
39
0
210
0
220
0
230
1
0
SOLID
5
233
100
AcDbEntity
8
0
62
256
6
ByLayer
370
-1
48
1
60
0
100
AcDbTrace
10
62.5
20
-23.147542
30
0
11
62.5
21
-21.980875
31
0
12
66
22
-22.564208
32
0
13
66
23
-22.564208
33
0
39
0
210
0
220
0
230
1
0
SOLID
5
234
100
AcDbEntity
8
0
62
256
6
ByLayer
370
-1
48
1
60
0
100
AcDbTrace
10
39.75
20
-21.980875
30
0
11
39.75
21
-23.147542
31
0
12
36.25
22
-22.564208
32
0
13
36.25
23
-22.564208
33
0
39
0
210
0
220
0
230
1
0
MTEXT
5
235
100
AcDbEntity
8
0
62
256
6
ByLayer
370
18
48
1
60
0
100
AcDbMText
10
51.125
20
-16.564208
30
0
210
0
220
0
230
1
1
\A1;29.8
40
3
41
0
44
1
50
0
71
5
72
5
7
iso_b_vert
0
POINT
5
236
100
AcDbEntity
8
Defpoints
62
0
6
ByLayer
370
-1
48
1
60
0
100
AcDbPoint
10
66
20
-4.064208
30
0
39
0
210
0
220
0
230
1
50
360
0
POINT
5
237
100
AcDbEntity
8
Defpoints
62
0
6
ByLayer
370
-1
48
1
60
0
100
AcDbPoint
10
36.25
20
0
30
0
39
0
210
0
220
0
230
1
50
360
0
POINT
5
238
100
AcDbEntity
8
Defpoints
62
0
6
ByLayer
370
-1
48
1
60
0
100
AcDbPoint
10
36.25
20
-22.564208
30
0
39
0
210
0
220
0
230
1
50
360
0
ENDBLK
5
22F
100
AcDbEntity
8
0
100
AcDbBlockEnd
0
BLOCK
5
240
100
AcDbEntity
8
0
100
AcDbBlockBegin
2
_U4
70
0
10
0
20
0
30
0
3
_U4
0
MTEXT
5
23A
100
AcDbEntity
8
2
62
256
6
ByLayer
370
18
48
1
60
0
100
AcDbMText
10
47.763544
20
-21.679094
30
0
210
0
220
0
230
1
1
\W0.7346;29.8
40
3
41
0
44
1.084337
50
0
71
7
72
5
7
iso_b_vert
0
LINE
5
23B
100
AcDbEntity
8
2
62
256
6
ByLayer
370
13
48
1
60
0
100
AcDbLine
10
66
20
-5.651708
30
0
11
66
21
-24.564208
31
0
39
0
210
0
220
0
230
1
0
LINE
5
23C
100
AcDbEntity
8
2
62
256
6
ByLayer
370
13
48
1
60
0
100
AcDbLine
10
36.25
20
-1.5875
30
0
11
36.25
21
-24.564208
31
0
39
0
210
0
220
0
230
1
0
LINE
5
23D
100
AcDbEntity
8
2
62
256
6
ByLayer
370
13
48
1
60
0
100
AcDbLine
10
66
20
-22.564208
30
0
11
36.25
21
-22.564208
31
0
39
0
210
0
220
0
230
1
0
SOLID
5
23E
100
AcDbEntity
8
2
62
256
6
ByLayer
370
18
48
1
60
0
100
AcDbTrace
10
66
20
-22.564208
30
0
11
62.500002
21
-23.024992
31
0
12
62.499998
22
-22.103425
32
0
13
62.499998
23
-22.103425
33
0
39
0
210
0
220
0
230
1
0
SOLID
5
23F
100
AcDbEntity
8
2
62
256
6
ByLayer
370
18
48
1
60
0
100
AcDbTrace
10
36.25
20
-22.564208
30
0
11
39.749998
21
-22.103425
31
0
12
39.750002
22
-23.024992
32
0
13
39.750002
23
-23.024992
33
0
39
0
210
0
220
0
230
1
0
ENDBLK
5
241
100
AcDbEntity
8
0
100
AcDbBlockEnd
0
ENDSEC
0
SECTION
2
ENTITIES
0
ARC
5
CE
100
AcDbEntity
8
SK1
62
256
6
ByLayer
370
18
48
1
60
0
100
AcDbCircle
39
0
10
-18.1
20
0
30
0
40
3.83999999999988
210
0
220
0
230
1
100
AcDbArc
50
323.832158
51
36.167842
0
ARC
5
CF
100
AcDbEntity
8
1
62
256
6
ByLayer
370
18
48
1
60
0
100
AcDbCircle
39
0
10
31.096238
20
-4.21385
30
0
40
1.1
210
0
220
0
230
1
100
AcDbArc
50
90
51
100
0
ARC
5
D0
100
AcDbEntity
8
1
62
256
6
ByLayer
370
18
48
1
60
0
100
AcDbCircle
39
0
10
31.096238
20
4.21385
30
0
40
1.1
210
0
220
0
230
1
100
AcDbArc
50
260
51
270
0
POINT
5
70
100
AcDbEntity
8
81
62
256
6
ByLayer
370
18
48
1
60
0
100
AcDbPoint
10
67.55
20
0
30
0
39
0
210
0
220
0
230
1
50
360
0
POINT
5
72
100
AcDbEntity
8
80
62
256
6
ByLayer
370
18
48
1
60
0
100
AcDbPoint
10
0
20
0
30
0
39
0
210
0
220
0
230
1
50
360
0
POINT
5
74
100
AcDbEntity
8
1
62
256
6
ByLayer
370
18
48
1
60
1
100
AcDbPoint
10
66
20
4.064208
30
0
39
0
210
0
220
0
230
1
50
360
0
POINT
5
76
100
AcDbEntity
8
1
62
256
6
ByLayer
370
18
48
1
60
1
100
AcDbPoint
10
66
20
-4.064208
30
0
39
0
210
0
220
0
230
1
50
360
0
POINT
5
77
100
AcDbEntity
8
1
62
256
6
ByLayer
370
18
48
1
60
1
100
AcDbPoint
10
66
20
4.064208
30
0
39
0
210
0
220
0
230
1
50
360
0
POINT
5
78
100
AcDbEntity
8
1
62
256
6
ByLayer
370
18
48
1
60
1
100
AcDbPoint
10
62.56
20
0
30
0
39
0
210
0
220
0
230
1
50
360
0
POINT
5
79
100
AcDbEntity
8
1
62
256
6
ByLayer
370
18
48
1
60
1
100
AcDbPoint
10
66
20
-4.064208
30
0
39
0
210
0
220
0
230
1
50
360
0
POINT
5
7A
100
AcDbEntity
8
1
62
256
6
ByLayer
370
18
48
1
60
1
100
AcDbPoint
10
54
20
-4.064208
30
0
39
0
210
0
220
0
230
1
50
360
0
POINT
5
7B
100
AcDbEntity
8
1
62
256
6
ByLayer
370
18
48
1
60
1
100
AcDbPoint
10
66
20
-4.064208
30
0
39
0
210
0
220
0
230
1
50
360
0
POINT
5
7C
100
AcDbEntity
8
1
62
256
6
ByLayer
370
18
48
1
60
1
100
AcDbPoint
10
31
20
-3.11385
30
0
39
0
210
0
220
0
230
1
50
360
0
POINT
5
7D
100
AcDbEntity
8
1
62
256
6
ByLayer
370
18
48
1
60
1
100
AcDbPoint
10
66
20
-4.064208
30
0
39
0
210
0
220
0
230
1
50
360
0
POINT
5
7E
100
AcDbEntity
8
1
62
256
6
ByLayer
370
18
48
1
60
1
100
AcDbPoint
10
36.25
20
0
30
0
39
0
210
0
220
0
230
1
50
360
0
SPLINE
5
D1
100
AcDbEntity
8
1
62
256
6
ByLayer
370
13
48
1
60
0
100
AcDbSpline
70
4
71
3
72
8
73
4
40
0
40
0
40
0
40
0
40
1
40
1
40
1
40
1
41
1
10
56.8255820714844
20
3.70665247155833
30
0
41
1
10
56.8207135465368
20
3.7010670642313
30
0
41
1
10
56.8158294131619
20
3.69215391151249
30
0
41
1
10
56.8109276004396
20
3.67985804773355
30
0
0
SPLINE
5
D2
100
AcDbEntity
8
1
62
256
6
ByLayer
370
13
48
1
60
0
100
AcDbSpline
70
4
71
3
72
8
73
4
40
0
40
0
40
0
40
0
40
1
40
1
40
1
40
1
41
1
10
58.1400881974393
20
3.58623341108992
30
0
41
1
10
58.1180139058669
20
3.69230200516927
30
0
41
1
10
58.0953594538483
20
3.73520862321237
30
0
41
1
10
58.0723088705982
20
3.70270921522422
30
0
0
SPLINE
5
D3
100
AcDbEntity
8
1
62
256
6
ByLayer
370
18
48
1
60
0
100
AcDbSpline
70
4
71
3
72
8
73
4
40
0
40
0
40
0
40
0
40
1
40
1
40
1
40
1
41
1
10
63.6771290424727
20
-3.65777386516265
30
0
41
1
10
63.6813522360742
20
-3.67085964325463
30
0
41
1
10
63.6855743883914
20
-3.68152138616199
30
0
41
1
10
63.6897923853331
20
-3.68973701805209
30
0
0
SPLINE
5
D4
100
AcDbEntity
8
1
62
256
6
ByLayer
370
18
48
1
60
0
100
AcDbSpline
70
4
71
3
72
20
73
16
40
0
40
0
40
0
40
0
40
0.008425995714146
40
0.008425995714146
40
0.132372746249877
40
0.132372746249877
40
0.194346121517743
40
0.194346121517743
40
0.256319496785608
40
0.256319496785608
40
0.504212997857072
40
0.504212997857072
40
0.752106498928536
40
0.752106498928536
40
1
40
1
40
1
40
1
41
1
10
62.8602065773119
20
-3.93391234006302
30
0
41
1
10
62.8599763428559
20
-3.93397409843124
30
0
41
1
10
62.859746224636
20
-3.93402790874373
30
0
41
1
10
62.8561328833994
20
-3.93474832227531
30
0
41
1
10
62.8527708637496
20
-3.93370072798635
30
0
41
1
10
62.8477295454578
20
-3.92950892658797
30
0
41
1
10
62.8460496908415
20
-3.92767471030683
30
0
41
1
10
62.8426889603552
20
-3.92312374057198
30
0
41
1
10
62.8410055958048
20
-3.92040173081375
30
0
41
1
10
62.8326211179378
20
-3.90464458259137
30
0
41
1
10
62.8260093838612
20
-3.88518885325988
30
0
41
1
10
62.8127527462969
20
-3.83330085556838
30
0
41
1
10
62.8060873164742
20
-3.80090187102255
30
0
41
1
10
62.7925171671297
20
-3.72344428141181
30
0
41
1
10
62.7856569612497
20
-3.67831339941913
30
0
41
1
10
62.7787517976129
20
-3.62651419856036
30
0
0
SPLINE
5
D5
100
AcDbEntity
8
1
62
256
6
ByLayer
370
18
48
1
60
0
100
AcDbSpline
70
4
71
3
72
18
73
14
40
0
40
0
40
0
40
0
40
0.273868961056534
40
0.273868961056534
40
0.342336201320667
40
0.342336201320667
40
0.410803441584801
40
0.410803441584801
40
0.547737922113067
40
0.547737922113067
40
0.8216068831696
40
0.8216068831696
40
1
40
1
40
1
40
1
41
1
10
62.5338167928147
20
-3.57904818987674
30
0
41
1
10
62.5405741476615
20
-3.63995646953234
30
0
41
1
10
62.5472716347185
20
-3.69439496047423
30
0
41
1
10
62.5556157711025
20
-3.75434522673112
30
0
41
1
10
62.5572837960957
20
-3.76593002411497
30
0
41
1
10
62.5606217766352
20
-3.78828734778438
30
0
41
1
10
62.5622914089039
20
-3.79905658193616
30
0
41
1
10
62.567289054818
20
-3.83002056019009
30
0
41
1
10
62.5706128478494
20
-3.84892040968353
30
0
41
1
10
62.5806248590506
20
-3.90053344199848
30
0
41
1
10
62.5873391924784
20
-3.92814948526717
30
0
41
1
10
62.5985380283548
20
-3.96242480650261
30
0
41
1
10
62.6029789946787
20
-3.97303555248806
30
0
41
1
10
62.6074316124668
20
-3.980690084467
30
0
0
SPLINE
5
D6
100
AcDbEntity
8
1
62
256
6
ByLayer
370
18
48
1
60
0
100
AcDbSpline
70
4
71
3
72
9
73
5
40
0
40
0
40
0
40
0
40
0.333393577141149
40
1
40
1
40
1
40
1
41
1
10
54.9503690419928
20
-3.70743667113456
30
0
41
1
10
54.9497425659194
20
-3.70668777680314
30
0
41
1
10
54.9478630750379
20
-3.70427104735214
30
0
41
1
10
54.9459823430275
20
-3.70134184891145
30
0
41
1
10
54.944728129602
20
-3.69916313879548
30
0
0
SPLINE
5
D7
100
AcDbEntity
8
1
62
256
6
ByLayer
370
13
48
1
60
0
100
AcDbSpline
70
4
71
3
72
8
73
4
40
0
40
0
40
0
40
0
40
1
40
1
40
1
40
1
41
1
10
54.9447281296014
20
-3.6991631387944
30
0
41
1
10
54.9351076143011
20
-3.6824512191306
30
0
41
1
10
54.9254573632907
20
-3.65243688228264
30
0
41
1
10
54.9157981937858
20
-3.60985812531061
30
0
0
SPLINE
5
D8
100
AcDbEntity
8
1
62
256
6
ByLayer
370
13
48
1
60
0
100
AcDbSpline
70
4
71
3
72
10
73
6
40
0
40
0
40
0
40
0
40
0.200631107722476
40
0.577118647788908
40
1
40
1
40
1
40
1
41
1
10
59.4547543680511
20
3.09068807133266
30
0
41
1
10
59.4456494242565
20
3.18474580420792
30
0
41
1
10
59.4195032174561
20
3.42755734413476
30
0
41
1
10
59.3758726435706
20
3.68624292270252
30
0
41
1
10
59.3434076314312
20
3.72573699294077
30
0
41
1
10
59.3268105802333
20
3.70844391394613
30
0
0
SPLINE
5
D9
100
AcDbEntity
8
1
62
256
6
ByLayer
370
18
48
1
60
0
100
AcDbSpline
70
4
71
3
72
8
73
4
40
0
40
0
40
0
40
0
40
1
40
1
40
1
40
1
41
1
10
59.3268106638315
20
3.70844400104977
30
0
41
1
10
59.3243013258519
20
3.70582944907
30
0
41
1
10
59.321805190245
20
3.70234200032328
30
0
41
1
10
59.3193219202415
20
3.69801148806153
30
0
0
SPLINE
5
DA
100
AcDbEntity
8
1
62
256
6
ByLayer
370
13
48
1
60
0
100
AcDbSpline
70
4
71
3
72
9
73
5
40
0
40
0
40
0
40
0
40
0.184790712249779
40
1
40
1
40
1
40
1
41
1
10
62.4445469258175
20
-3.69887747638558
30
0
41
1
10
62.4397222757131
20
-3.69066989041781
30
0
41
1
10
62.4135537448524
20
-3.62829668317357
30
0
41
1
10
62.3870369475576
20
-3.46687760993834
30
0
41
1
10
62.3650206537166
20
-3.27270588077616
30
0
0
SPLINE
5
DB
100
AcDbEntity
8
1
62
256
6
ByLayer
370
18
48
1
60
0
100
AcDbSpline
70
4
71
3
72
11
73
7
40
0
40
0
40
0
40
0
40
0.136998161182413
40
0.52522439302899
40
0.980711865489179
40
1
40
1
40
1
40
1
41
1
10
66
20
0.268248142887757
30
0
41
1
10
66
20
0.179134291121244
30
0
41
1
10
66
20
-0.164524117473803
30
0
41
1
10
66.0000000000001
20
-0.810582963226693
30
0
41
1
10
66
20
-1.33868718755457
30
0
41
1
10
66
20
-1.60228304889867
30
0
41
1
10
66
20
-1.61294672778598
30
0
0
SPLINE
5
DC
100
AcDbEntity
8
1
62
256
6
ByLayer
370
13
48
1
60
0
100
AcDbSpline
70
4
71
3
72
10
73
6
40
0
40
0
40
0
40
0
40
0.0794410236525147
40
0.387009193560155
40
1
40
1
40
1
40
1
41
1
10
60.7694243979935
20
2.27190464023138
30
0
41
1
10
60.7651376673407
20
2.33532646495718
30
0
41
1
10
60.7442913185514
20
2.63592346684447
30
0
41
1
10
60.6908173137228
20
3.29955100179268
30
0
41
1
10
60.6434628319948
20
3.61526483083415
30
0
41
1
10
60.6121516089393
20
3.68647822308634
30
0
0
SPLINE
5
DD
100
AcDbEntity
8
1
62
256
6
ByLayer
370
18
48
1
60
0
100
AcDbSpline
70
4
71
3
72
8
73
4
40
0
40
0
40
0
40
0
40
1
40
1
40
1
40
1
41
1
10
61.1871533552974
20
-3.6826457205577
30
0
41
1
10
61.1826435998412
20
-3.67171726207354
30
0
41
1
10
61.1781615174836
20
-3.65803203264684
30
0
41
1
10
61.1737132250879
20
-3.64178677530657
30
0
0
SPLINE
5
DE
100
AcDbEntity
8
1
62
256
6
ByLayer
370
13
48
1
60
0
100
AcDbSpline
70
4
71
3
72
10
73
6
40
0
40
0
40
0
40
0
40
0.175962484827287
40
0.986955292977672
40
1
40
1
40
1
40
1
41
1
10
61.1737132250879
20
-3.64178677530651
30
0
41
1
10
61.1658028819191
20
-3.61289803576509
30
0
41
1
10
61.1220339232974
20
-3.40545675443048
30
0
41
1
10
61.0821889574183
20
-2.97248894824858
30
0
41
1
10
61.0510118464133
20
-2.54978793368036
30
0
41
1
10
61.0505187183922
20
-2.54308014799949
30
0
0
SPLINE
5
DF
100
AcDbEntity
8
1
62
256
6
ByLayer
370
18
48
1
60
0
100
AcDbSpline
70
4
71
3
72
10
73
6
40
0
40
0
40
0
40
0
40
0.378001603564386
40
0.754851460239379
40
1
40
1
40
1
40
1
41
1
10
65.7000000304871
20
-1.61866567582265
30
0
41
1
10
65.7000000361071
20
-1.37306853186206
30
0
41
1
10
65.6999999976567
20
-0.845600019824843
30
0
41
1
10
65.6999999315976
20
-0.0975373667336328
30
0
41
1
10
65.6999999204332
20
0.364341233569945
30
0
41
1
10
65.6999999185564
20
0.54330929196604
30
0
0
SPLINE
5
E0
100
AcDbEntity
8
1
62
256
6
ByLayer
370
18
48
1
60
0
100
AcDbSpline
70
4
71
3
72
23
73
19
40
0
40
0
40
0
40
0
40
0.125
40
0.125
40
0.249999999999999
40
0.374999999999999
40
0.374999999999999
40
0.437499999999999
40
0.437499999999999
40
0.499999999999998
40
0.499999999999998
40
0.624999999999999
40
0.624999999999999
40
0.749999999999999
40
0.749999999999999
40
0.875
40
0.875
40
1
40
1
40
1
40
1
41
1
10
64.4397088812608
20
1.67536312418238
30
0
41
1
10
64.4460966253953
20
1.57539957585649
30
0
41
1
10
64.4524363419701
20
1.47360293994572
30
0
41
1
10
64.4650962287748
20
1.26651137232324
30
0
41
1
10
64.477745814292
20
1.05592655251397
30
0
41
1
10
64.4904932245153
20
0.838470932515065
30
0
41
1
10
64.500109007597
20
0.672750503332566
30
0
41
1
10
64.5033265460168
20
0.617013819231687
30
0
41
1
10
64.5097666758489
20
0.504883957173547
30
0
41
1
10
64.5129699740997
20
0.448826994441447
30
0
41
1
10
64.5225297747514
20
0.280679617829492
30
0
41
1
10
64.5288362505524
20
0.168612643440355
30
0
41
1
10
64.5413096225033
20
-0.0554593388723106
30
0
41
1
10
64.5474626195792
20
-0.167464968435127
30
0
41
1
10
64.5598192274373
20
-0.391403626469071
30
0
41
1
10
64.566029379544
20
-0.503336323699358
30
0
41
1
10
64.5787082175043
20
-0.72711535408834
30
0
41
1
10
64.5850863589323
20
-0.837581504038127
30
0
41
1
10
64.5914866629105
20
-0.946605605132675
30
0
0
SPLINE
5
E1
100
AcDbEntity
8
1
62
256
6
ByLayer
370
13
48
1
60
0
100
AcDbSpline
70
4
71
3
72
10
73
6
40
0
40
0
40
0
40
0
40
0.310381605751771
40
0.931074963651465
40
1
40
1
40
1
40
1
41
1
10
62.0840763707394
20
1.21494455871144
30
0
41
1
10
62.0682786332215
20
1.49369689475876
30
0
41
1
10
62.0205767140011
20
2.29947273748019
30
0
41
1
10
61.967804218018
20
3.00221517257191
30
0
41
1
10
61.9303891891663
20
3.32013060935219
30
0
41
1
10
61.9266406111756
20
3.35018696467188
30
0
0
SPLINE
5
E2
100
AcDbEntity
8
1
62
256
6
ByLayer
370
18
48
1
60
0
100
AcDbSpline
70
4
71
3
72
26
73
22
40
0
40
0
40
0
40
0
40
0.0625000000000003
40
0.0625000000000003
40
0.125000000000001
40
0.125000000000001
40
0.250000000000001
40
0.375000000000002
40
0.500000000000003
40
0.500000000000003
40
0.531250000000003
40
0.531250000000003
40
0.562500000000004
40
0.625000000000004
40
0.625000000000004
40
0.750000000000002
40
0.875000000000001
40
0.875000000000001
40
0.9375
40
0.9375
40
1
40
1
40
1
40
1
41
1
10
63.2954098460859
20
2.70318214404992
30
0
41
1
10
63.2987211084934
20
2.65818758642533
30
0
41
1
10
63.302051291899
20
2.6120935805001
30
0
41
1
10
63.3087486844225
20
2.51767696495784
30
0
41
1
10
63.3121220706672
20
2.46926011098563
30
0
41
1
10
63.3222422811179
20
2.32157048142301
30
0
41
1
10
63.3357533218925
20
2.11793946714468
30
0
41
1
10
63.3556634382108
20
1.79279274823432
30
0
41
1
10
63.368725412559
20
1.56292484859873
30
0
41
1
10
63.3769119590484
20
1.41508930731746
30
0
41
1
10
63.3785529067774
20
1.38527306746232
30
0
41
1
10
63.381824766469
20
1.32550539621244
30
0
41
1
10
63.3867201491465
20
1.23560385854211
30
0
41
1
10
63.3915903993823
20
1.14496326369309
30
0
41
1
10
63.4013247236381
20
0.962716083906344
30
0
41
1
10
63.4142906680005
20
0.717150029898534
30
0
41
1
10
63.427438105023
20
0.466492990984619
30
0
41
1
10
63.4373975789547
20
0.276532004768484
30
0
41
1
10
63.4407333852234
20
0.212882632415813
30
0
41
1
10
63.4474351706352
20
0.0849066349144607
30
0
41
1
10
63.4507805938677
20
0.0209580022252567
30
0
41
1
10
63.4541190024474
20
-0.0429512747089973
30
0
0
SPLINE
5
E3
100
AcDbEntity
8
1
62
256
6
ByLayer
370
18
48
1
60
0
100
AcDbSpline
70
4
71
3
72
27
73
23
40
0
40
0
40
0
40
0
40
0.125000000000001
40
0.125000000000001
40
0.250000000000003
40
0.250000000000003
40
0.281250000000003
40
0.281250000000003
40
0.312500000000003
40
0.375000000000003
40
0.375000000000003
40
0.500000000000004
40
0.625000000000004
40
0.625000000000004
40
0.687500000000004
40
0.687500000000004
40
0.718750000000004
40
0.718750000000004
40
0.750000000000004
40
0.875000000000002
40
0.875000000000002
40
1
40
1
40
1
40
1
41
1
10
63.9727549373568
20
-0.478656616980714
30
0
41
1
10
63.9660530434846
20
-0.35958324903828
30
0
41
1
10
63.9593050565544
20
-0.240022417929964
30
0
41
1
10
63.9458916420226
20
0.0001024817587165
30
0
41
1
10
63.9392554673085
20
0.120672443583061
30
0
41
1
10
63.9309951735559
20
0.272028614882089
30
0
41
1
10
63.9293421608187
20
0.302365330410765
30
0
41
1
10
63.9260435620576
20
0.362945729321012
30
0
41
1
10
63.9211149610809
20
0.453527271725079
30
0
41
1
10
63.916230538697
20
0.543255365570388
30
0
41
1
10
63.9064885142132
20
0.721598867952963
30
0
41
1
10
63.8935675839934
20
0.956429982431388
30
0
41
1
10
63.8805192763743
20
1.18543118982302
30
0
41
1
10
63.8706317124161
20
1.35494354391795
30
0
41
1
10
63.8673193585402
20
1.41107371514988
30
0
41
1
10
63.8623250952831
20
1.49469250764372
30
0
41
1
10
63.8606541092661
20
1.52250265363946
30
0
41
1
10
63.8573200428229
20
1.57765797310896
30
0
41
1
10
63.8489976775125
20
1.71449203996184
30
0
41
1
10
63.8407425924978
20
1.84610264097742
30
0
41
1
10
63.827568151592
20
2.05010038125084
30
0
41
1
10
63.8209921375528
20
2.14880991467513
30
0
41
1
10
63.8144581074987
20
2.24422049228175
30
0
0
SPLINE
5
E4
100
AcDbEntity
8
1
62
256
6
ByLayer
370
18
48
1
60
0
100
AcDbSpline
70
4
71
3
72
9
73
5
40
0
40
0
40
0
40
0
40
0.84908056665505
40
1
40
1
40
1
40
1
41
1
10
63.3986484773266
20
0.0309176288402568
30
0
41
1
10
63.3517878944733
20
0.901645070401514
30
0
41
1
10
63.2999862741816
20
1.866156144939
30
0
41
1
10
63.2488953687098
20
2.56526041434685
30
0
41
1
10
63.2412279856838
20
2.66432272316399
30
0
0
SPLINE
5
E5
100
AcDbEntity
8
1
62
256
6
ByLayer
370
18
48
1
60
0
100
AcDbSpline
70
4
71
3
72
51
73
47
40
0
40
0
40
0
40
0
40
0.124999999999993
40
0.124999999999993
40
0.249999999999985
40
0.249999999999985
40
0.374999999999978
40
0.374999999999978
40
0.499999999999971
40
0.499999999999971
40
0.515624999999969
40
0.515624999999969
40
0.531249999999966
40
0.531249999999966
40
0.562499999999962
40
0.562499999999962
40
0.57812499999996
40
0.57812499999996
40
0.593749999999958
40
0.593749999999958
40
0.624999999999971
40
0.624999999999971
40
0.640624999999985
40
0.640624999999985
40
0.65625
40
0.65625
40
0.687500000000029
40
0.687500000000029
40
0.703125000000043
40
0.703125000000043
40
0.718750000000058
40
0.718750000000058
40
0.734375000000072
40
0.734375000000072
40
0.750000000000087
40
0.750000000000087
40
0.757812500000087
40
0.757812500000087
40
0.765625000000088
40
0.765625000000088
40
0.781250000000078
40
0.781250000000078
40
0.812500000000068
40
0.875000000000049
40
0.875000000000049
40
1
40
1
40
1
40
1
41
1
10
62.2602467063092
20
3.53403611797347
30
0
41
1
10
62.2949764243734
20
3.4636150129264
30
0
41
1
10
62.3300631968227
20
3.39316591165803
30
0
41
1
10
62.4004433521256
20
3.2523141942583
30
0
41
1
10
62.4357571317758
20
3.18188633563966
30
0
41
1
10
62.5066513895623
20
3.04103441192143
30
0
41
1
10
62.5422339405786
20
2.97061132453084
30
0
41
1
10
62.6136268026957
20
2.82974412318612
30
0
41
1
10
62.6494550434832
20
2.75926823253039
30
0
41
1
10
62.689749894956
20
2.68010650835709
30
0
41
1
10
62.6942188173397
20
2.67130817133091
30
0
41
1
10
62.7036274962912
20
2.65393333735133
30
0
41
1
10
62.7086055779116
20
2.64531099991513
30
0
41
1
10
62.7245509698876
20
2.620451932549
30
0
41
1
10
62.7363906190324
20
2.60521843913151
30
0
41
1
10
62.7555698536619
20
2.58393798123609
30
0
41
1
10
62.7621992404294
20
2.5771058516807
30
0
41
1
10
62.7758720786304
20
2.56389986635764
30
0
41
1
10
62.7828911957895
20
2.55755442880218
30
0
41
1
10
62.8041767407363
20
2.53947440396382
30
0
41
1
10
62.8187735373306
20
2.52856984193079
30
0
41
1
10
62.8412810665498
20
2.51403325694233
30
0
41
1
10
62.8489284278303
20
2.50947544870652
30
0
41
1
10
62.8642109609796
20
2.50119142498156
30
0
41
1
10
62.8718424678093
20
2.4974590948415
30
0
41
1
10
62.8946987909517
20
2.48739851824692
30
0
41
1
10
62.9098866550137
20
2.48217579976094
30
0
41
1
10
62.9325447627366
20
2.47671173906849
30
0
41
1
10
62.9401180044982
20
2.47528706290137
30
0
41
1
10
62.955001865893
20
2.47342032528397
30
0
41
1
10
62.9622754737261
20
2.47298067754261
30
0
41
1
10
62.976419422409
20
2.47326925095686
30
0
41
1
10
62.9832959943481
20
2.47397817854034
30
0
41
1
10
62.9966092594693
20
2.47665076438614
30
0
41
1
10
63.0029669032493
20
2.47859055145003
30
0
41
1
10
63.0117285222876
20
2.48261505636921
30
0
41
1
10
63.0145219158763
20
2.48415535885309
30
0
41
1
10
63.0198686794525
20
2.48760990277267
30
0
41
1
10
63.0224233318952
20
2.48952209512342
30
0
41
1
10
63.0299386135511
20
2.49547618253774
30
0
41
1
10
63.0348151394055
20
2.49963115781213
30
0
41
1
10
63.0495128238742
20
2.5118809141504
30
0
41
1
10
63.0786774553668
20
2.53634713957678
30
0
41
1
10
63.1074155015359
20
2.56036591795035
30
0
41
1
10
63.164847810552
20
2.60711617255171
30
0
41
1
10
63.2031855431209
20
2.63642701805654
30
0
41
1
10
63.2412279856381
20
2.66432272375439
30
0
0
SPLINE
5
E6
100
AcDbEntity
8
1
62
256
6
ByLayer
370
18
48
1
60
0
100
AcDbSpline
70
4
71
3
72
8
73
4
40
0
40
0
40
0
40
0
40
1
40
1
40
1
40
1
41
1
10
63.2412279856381
20
2.66432272375439
30
0
41
1
10
63.2593543764611
20
2.6776144166717
30
0
41
1
10
63.2774037558406
20
2.69058239839128
30
0
41
1
10
63.2954098460859
20
2.70318214404992
30
0
0
SPLINE
5
E7
100
AcDbEntity
8
1
62
256
6
ByLayer
370
18
48
1
60
0
100
AcDbSpline
70
4
71
3
72
10
73
6
40
0
40
0
40
0
40
0
40
0.5
40
0.5
40
1
40
1
40
1
40
1
41
1
10
63.2954098460859
20
2.70318214404992
30
0
41
1
10
63.3817904564064
20
2.62877217192536
30
0
41
1
10
63.4681965461064
20
2.55328312758914
30
0
41
1
10
63.6411460212121
20
2.40023861466847
30
0
41
1
10
63.7276776777979
20
2.32267302872484
30
0
41
1
10
63.8144581074988
20
2.2442204922815
30
0
0
SPLINE
5
E8
100
AcDbEntity
8
1
62
256
6
ByLayer
370
18
48
1
60
0
100
AcDbSpline
70
4
71
3
72
44
73
40
40
0
40
0
40
0
40
0
40
0.250000000000034
40
0.250000000000034
40
0.37500000000006
40
0.37500000000006
40
0.406250000000063
40
0.406250000000063
40
0.437500000000065
40
0.437500000000065
40
0.468750000000067
40
0.468750000000067
40
0.500000000000069
40
0.500000000000069
40
0.531250000000071
40
0.531250000000071
40
0.562500000000074
40
0.562500000000074
40
0.62500000000005
40
0.62500000000005
40
0.656250000000039
40
0.656250000000039
40
0.687500000000027
40
0.687500000000027
40
0.718750000000015
40
0.718750000000015
40
0.750000000000003
40
0.750000000000003
40
0.781249999999991
40
0.781249999999991
40
0.796874999999985
40
0.796874999999985
40
0.812499999999979
40
0.812499999999979
40
0.828124999999973
40
0.828124999999973
40
0.843749999999967
40
0.874999999999974
40
1
40
1
40
1
40
1
41
1
10
63.8144581074988
20
2.2442204922815
30
0
41
1
10
63.8559877216315
20
2.1654075054781
30
0
41
1
10
63.8977307100527
20
2.08728921321895
30
0
41
1
10
63.960434936252
20
1.97151969703648
30
0
41
1
10
63.9813318072416
20
1.93314707635699
30
0
41
1
10
64.00752192817
20
1.8854553245055
30
0
41
1
10
64.0128144277706
20
1.87593710849259
30
0
41
1
10
64.0242286439047
20
1.85703408764832
30
0
41
1
10
64.0303831287686
20
1.84765353690779
30
0
41
1
10
64.0437977466669
20
1.82906329841245
30
0
41
1
10
64.0510489073821
20
1.81983223904086
30
0
41
1
10
64.0660041590575
20
1.80211119468632
30
0
41
1
10
64.0737657905037
20
1.79353687896392
30
0
41
1
10
64.0897470598887
20
1.77684982839364
30
0
41
1
10
64.0979673984847
20
1.76873779984973
30
0
41
1
10
64.1148329989815
20
1.75294245090512
30
0
41
1
10
64.1235235969649
20
1.74522379752554
30
0
41
1
10
64.1497832416345
20
1.72312656395584
30
0
41
1
10
64.1676055336238
20
1.70973417897301
30
0
41
1
10
64.1948033461442
20
1.69188578122146
30
0
41
1
10
64.2039904926143
20
1.68626856530074
30
0
41
1
10
64.2222721171899
20
1.67589343707141
30
0
41
1
10
64.2313235523563
20
1.67115454694684
30
0
41
1
10
64.2492283050912
20
1.66260163333962
30
0
41
1
10
64.2580823015872
20
1.65878473982556
30
0
41
1
10
64.2755437085279
20
1.65224728349668
30
0
41
1
10
64.2841821315112
20
1.64954715258318
30
0
41
1
10
64.3005886598582
20
1.64564827277025
30
0
41
1
10
64.3084366301291
20
1.64438605022784
30
0
41
1
10
64.319555708292
20
1.64374900938398
30
0
41
1
10
64.3231713472465
20
1.64375653774331
30
0
41
1
10
64.3299755741363
20
1.64431787073147
30
0
41
1
10
64.3331587492479
20
1.64487906617532
30
0
41
1
10
64.3392529901273
20
1.64634178516508
30
0
41
1
10
64.3421801626726
20
1.64722184892577
30
0
41
1
10
64.3480208097555
20
1.64897758525217
30
0
41
1
10
64.3567586475924
20
1.65160794170413
30
0
41
1
10
64.3885726214606
20
1.66117867664425
30
0
41
1
10
64.4169939945573
20
1.66943071781881
30
0
41
1
10
64.4397088812608
20
1.67536312418238
30
0
0
SPLINE
5
E9
100
AcDbEntity
8
1
62
256
6
ByLayer
370
18
48
1
60
0
100
AcDbSpline
70
4
71
3
72
18
73
14
40
0
40
0
40
0
40
0
40
0.249999999999995
40
0.249999999999995
40
0.374999999999993
40
0.374999999999993
40
0.499999999999991
40
0.499999999999991
40
0.624999999999989
40
0.624999999999989
40
0.749999999999986
40
0.749999999999986
40
1
40
1
40
1
40
1
41
1
10
64.4397088812608
20
1.67536312418238
30
0
41
1
10
64.5423997385141
20
1.58161415166646
30
0
41
1
10
64.6458766778435
20
1.48713737292621
30
0
41
1
10
64.8024117135277
20
1.34449027356933
30
0
41
1
10
64.8547951089151
20
1.29680589199307
30
0
41
1
10
64.9595260702385
20
1.20164484877839
30
0
41
1
10
65.0119375503831
20
1.15410985407979
30
0
41
1
10
65.1168826919573
20
1.05916487174707
30
0
41
1
10
65.1694173657417
20
1.01175601478079
30
0
41
1
10
65.2746239768702
20
0.917080345040802
30
0
41
1
10
65.3272723603729
20
0.869787222968029
30
0
41
1
10
65.4857524656386
20
0.728488611999325
30
0
41
1
10
65.5922401372431
20
0.635199014669439
30
0
41
1
10
65.6999999185564
20
0.543309291966011
30
0
0
SPLINE
5
EA
100
AcDbEntity
8
1
62
256
6
ByLayer
370
18
48
1
60
0
100
AcDbSpline
70
4
71
3
72
10
73
6
40
0
40
0
40
0
40
0
40
0.5
40
0.5
40
1
40
1
40
1
40
1
41
1
10
65.6999999185564
20
0.543309291966011
30
0
41
1
10
65.7481505014165
20
0.491596284856627
30
0
41
1
10
65.797159776937
20
0.442567054065051
30
0
41
1
10
65.8971635788975
20
0.350525543563379
30
0
41
1
10
65.9480967485343
20
0.307605087886628
30
0
41
1
10
66.0000000000003
20
0.268248142887586
30
0
0
SPLINE
5
EB
100
AcDbEntity
8
1
62
256
6
ByLayer
370
18
48
1
60
0
100
AcDbSpline
70
4
71
3
72
22
73
18
40
0
40
0
40
0
40
0
40
0.146356550526909
40
0.146356550526909
40
0.189038723000564
40
0.189038723000564
40
0.231720895474218
40
0.231720895474218
40
0.317085240421528
40
0.317085240421528
40
0.402449585368837
40
0.402449585368837
40
0.487813930316146
40
0.487813930316146
40
0.658542620210764
40
0.658542620210764
40
1
40
1
40
1
40
1
41
1
10
66
20
0.328421542768268
30
0
41
1
10
66
20
0.347886134617738
30
0
41
1
10
66
20
0.371685086749665
30
0
41
1
10
66
20
0.407803190494064
30
0
41
1
10
66
20
0.416338066426476
30
0
41
1
10
66
20
0.434011880205816
30
0
41
1
10
66
20
0.443018728914126
30
0
41
1
10
66
20
0.47039089623226
30
0
41
1
10
66
20
0.489226935649469
30
0
41
1
10
66
20
0.528030048358687
30
0
41
1
10
66
20
0.548004410728964
30
0
41
1
10
66
20
0.589118971247416
30
0
41
1
10
66
20
0.610246707353497
30
0
41
1
10
66
20
0.674998490945171
30
0
41
1
10
66
20
0.720102628961399
30
0
41
1
10
66
20
0.8610964590967
30
0
41
1
10
66
20
0.962681170460286
30
0
41
1
10
66
20
1.07176054276456
30
0
0
SPLINE
5
EC
100
AcDbEntity
8
1
62
256
6
ByLayer
370
18
48
1
60
0
100
AcDbSpline
70
4
71
3
72
8
73
4
40
0
40
0
40
0
40
0
40
1
40
1
40
1
40
1
41
1
10
66
20
1.20335375489626
30
0
41
1
10
66.0053318228751
20
1.15854815460224
30
0
41
1
10
66.0056878835535
20
1.11442140549255
30
0
41
1
10
66
20
1.07176054276456
30
0
0
SPLINE
5
ED
100
AcDbEntity
8
1
62
256
6
ByLayer
370
18
48
1
60
0
100
AcDbSpline
70
4
71
3
72
36
73
32
40
0
40
0
40
0
40
0
40
0.125
40
0.125
40
0.187499999999999
40
0.187499999999999
40
0.249999999999999
40
0.249999999999999
40
0.374999999999999
40
0.374999999999999
40
0.437499999999999
40
0.437499999999999
40
0.468749999999999
40
0.468749999999999
40
0.499999999999999
40
0.499999999999999
40
0.531249999999999
40
0.531249999999999
40
0.562499999999999
40
0.562499999999999
40
0.624999999999999
40
0.624999999999999
40
0.749999999999999
40
0.749999999999999
40
0.781249999999999
40
0.781249999999999
40
0.812499999999999
40
0.812499999999999
40
0.874999999999999
40
0.874999999999999
40
1
40
1
40
1
40
1
41
1
10
66
20
1.20335375489643
30
0
41
1
10
66
20
1.26068618535734
30
0
41
1
10
66
20
1.31990525264297
30
0
41
1
10
66
20
1.41162243918001
30
0
41
1
10
66
20
1.44267500681752
30
0
41
1
10
66
20
1.50574968900023
30
0
41
1
10
66
20
1.53768874021034
30
0
41
1
10
66
20
1.63454389646313
30
0
41
1
10
66
20
1.70056341466073
30
0
41
1
10
66
20
1.80176971718225
30
0
41
1
10
66
20
1.83588722323276
30
0
41
1
10
66.0000000000001
20
1.8875650858333
30
0
41
1
10
66
20
1.90489557386331
30
0
41
1
10
66
20
1.94015795115686
30
0
41
1
10
66
20
1.95804726093104
30
0
41
1
10
66
20
1.99434487438307
30
0
41
1
10
66
20
2.01279312264614
30
0
41
1
10
66
20
2.04995924781355
30
0
41
1
10
66
20
2.06868394138775
30
0
41
1
10
66
20
2.12527210523479
30
0
41
1
10
66
20
2.16354838510668
30
0
41
1
10
66
20
2.28000828357858
30
0
41
1
10
66
20
2.35982648050614
30
0
41
1
10
66
20
2.46238293978857
30
0
41
1
10
66
20
2.48307802860677
30
0
41
1
10
66
20
2.5245275198628
30
0
41
1
10
66
20
2.54524693217962
30
0
41
1
10
66
20
2.60738935592389
30
0
41
1
10
66
20
2.64879646545089
30
0
41
1
10
66
20
2.77295556668233
30
0
41
1
10
66
20
2.85564669078164
30
0
41
1
10
66
20
2.9382533639448
30
0
0
SPLINE
5
EE
100
AcDbEntity
8
1
62
256
6
ByLayer
370
18
48
1
60
0
100
AcDbSpline
70
4
71
3
72
10
73
6
40
0
40
0
40
0
40
0
40
0.5
40
0.5
40
1
40
1
40
1
40
1
41
1
10
66
20
2.9382533639448
30
0
41
1
10
65.9507255111969
20
2.98870633799899
30
0
41
1
10
65.901077254231
20
3.03902305386978
30
0
41
1
10
65.8010690802331
20
3.1395610238672
30
0
41
1
10
65.7507252067545
20
3.18976504843289
30
0
41
1
10
65.7000000304872
20
3.24005267706562
30
0
0
SPLINE
5
EF
100
AcDbEntity
8
1
62
256
6
ByLayer
370
18
48
1
60
0
100
AcDbSpline
70
4
71
3
72
10
73
6
40
0
40
0
40
0
40
0
40
0.5
40
0.5
40
1
40
1
40
1
40
1
41
1
10
65.7000000304871
20
3.24005267706562
30
0
41
1
10
65.6404671742938
20
3.25496271512895
30
0
41
1
10
65.5810932653842
20
3.26895592865893
30
0
41
1
10
65.4629216692203
20
3.29502567326603
30
0
41
1
10
65.4040839418928
20
3.30711303690845
30
0
41
1
10
65.3454744474442
20
3.31824918764329
30
0
0
SPLINE
5
F0
100
AcDbEntity
8
1
62
256
6
ByLayer
370
18
48
1
60
0
100
AcDbSpline
70
4
71
3
72
37
73
33
40
0
40
0
40
0
40
0
40
0.0625000000000154
40
0.0625000000000154
40
0.125000000000031
40
0.125000000000031
40
0.187500000000046
40
0.187500000000046
40
0.250000000000062
40
0.250000000000062
40
0.375000000000093
40
0.375000000000093
40
0.437500000000077
40
0.437500000000077
40
0.500000000000061
40
0.500000000000061
40
0.625000000000028
40
0.625000000000028
40
0.687499999999981
40
0.687499999999981
40
0.749999999999933
40
0.749999999999933
40
0.781249999999938
40
0.781249999999938
40
0.812499999999942
40
0.812499999999942
40
0.874999999999949
40
0.874999999999949
40
0.906249999999952
40
0.906249999999952
40
0.937499999999955
40
1
40
1
40
1
40
1
41
1
10
65.3454744474442
20
3.31824918764329
30
0
41
1
10
65.3397862980173
20
3.31152680601613
30
0
41
1
10
65.3337214272165
20
3.30527511683499
30
0
41
1
10
65.3211708781207
20
3.29369413493265
30
0
41
1
10
65.3146512282208
20
3.28833917446656
30
0
41
1
10
65.3011393650812
20
3.27847700980632
30
0
41
1
10
65.2941394280451
20
3.27398460978955
30
0
41
1
10
65.2796957476222
20
3.26580213294881
30
0
41
1
10
65.2722256741563
20
3.26209620949501
30
0
41
1
10
65.2493818424002
20
3.25223137590996
30
0
41
1
10
65.2337269779844
20
3.24733412927031
30
0
41
1
10
65.2096041195252
20
3.24271559024913
30
0
41
1
10
65.2014545822797
20
3.24163916263393
30
0
41
1
10
65.184910003524
20
3.24058311283173
30
0
41
1
10
65.1764915463863
20
3.24061567465498
30
0
41
1
10
65.1514517817633
20
3.24237115782745
30
0
41
1
10
65.1348595850213
20
3.24566076549968
30
0
41
1
10
65.1102105305885
20
3.25430318428556
30
0
41
1
10
65.1020480614688
20
3.25782150032168
30
0
41
1
10
65.0863008157398
20
3.26622904579031
30
0
41
1
10
65.0786677597855
20
3.27114668563422
30
0
41
1
10
65.0676853553651
20
3.27990192495707
30
0
41
1
10
65.0640992982205
20
3.2830584437875
30
0
41
1
10
65.0572668165939
20
3.28972088035076
30
0
41
1
10
65.053999046864
20
3.29324285413901
30
0
41
1
10
65.0446512737784
20
3.30439408867397
30
0
41
1
10
65.0390330207453
20
3.31261681810179
30
0
41
1
10
65.0309614786652
20
3.3253903531228
30
0
41
1
10
65.028329190074
20
3.3297133098184
30
0
41
1
10
65.0230634059972
20
3.33834172850501
30
0
41
1
10
65.0151632558558
20
3.35127154181225
30
0
41
1
10
65.0072590983444
20
3.36416340624413
30
0
41
1
10
65.0019882073823
20
3.37274152346504
30
0
0
SPLINE
5
F1
100
AcDbEntity
8
1
62
256
6
ByLayer
370
18
48
1
60
0
100
AcDbSpline
70
4
71
3
72
8
73
4
40
0
40
0
40
0
40
0
40
1
40
1
40
1
40
1
41
1
10
65.0019882073823
20
3.37274152346501
30
0
41
1
10
64.73521761834
20
3.40645981619483
30
0
41
1
10
64.4730585576925
20
3.4190146988766
30
0
41
1
10
64.2127614392651
20
3.40927819820058
30
0
0
SPLINE
5
F2
100
AcDbEntity
8
1
62
256
6
ByLayer
370
18
48
1
60
0
100
AcDbSpline
70
4
71
3
72
48
73
44
40
0
40
0
40
0
40
0
40
0.124999999999962
40
0.124999999999962
40
0.249999999999923
40
0.249999999999923
40
0.265624999999918
40
0.265624999999918
40
0.281249999999914
40
0.281249999999914
40
0.296874999999909
40
0.296874999999909
40
0.312499999999905
40
0.312499999999905
40
0.343749999999895
40
0.343749999999895
40
0.374999999999886
40
0.374999999999886
40
0.406249999999877
40
0.406249999999877
40
0.437499999999868
40
0.437499999999868
40
0.468749999999858
40
0.468749999999858
40
0.499999999999849
40
0.499999999999849
40
0.53124999999984
40
0.53124999999984
40
0.562499999999831
40
0.562499999999831
40
0.593749999999821
40
0.593749999999821
40
0.609374999999826
40
0.609374999999826
40
0.62499999999983
40
0.62499999999983
40
0.640624999999834
40
0.640624999999834
40
0.656249999999839
40
0.687499999999848
40
0.749999999999882
40
0.749999999999882
40
1
40
1
40
1
40
1
41
1
10
64.2127614392651
20
3.40927819820061
30
0
41
1
10
64.1885775035206
20
3.36203348323716
30
0
41
1
10
64.1643820159835
20
3.31451451016682
30
0
41
1
10
64.1159054630969
20
3.21897137344683
30
0
41
1
10
64.0915846280973
20
3.1709828391609
30
0
41
1
10
64.0637696835597
20
3.11705883996942
30
0
41
1
10
64.0606726070069
20
3.1110683471027
30
0
41
1
10
64.0544636396286
20
3.09909097458686
30
0
41
1
10
64.0513647983059
20
3.09309266243832
30
0
41
1
10
64.0449843789551
20
3.08124679644661
30
0
41
1
10
64.041691201542
20
3.07540940580409
30
0
41
1
10
64.0346997447446
20
3.06407987387664
30
0
41
1
10
64.0310087436801
20
3.05858133533101
30
0
41
1
10
64.0194157846754
20
3.04252626728069
30
0
41
1
10
64.0110345501918
20
3.03237457163098
30
0
41
1
10
63.9930614691992
20
3.0130920001105
30
0
41
1
10
63.9833541455578
20
3.00393371695159
30
0
41
1
10
63.963410973026
20
2.9873656437066
30
0
41
1
10
63.9531237311772
20
2.97984110505465
30
0
41
1
10
63.9319724894288
20
2.96620366184899
30
0
41
1
10
63.9210830853098
20
2.96007943760387
30
0
41
1
10
63.8987874433636
20
2.94945069099435
30
0
41
1
10
63.8875434408226
20
2.94501993507166
30
0
41
1
10
63.864859764546
20
2.93820980772992
30
0
41
1
10
63.8534211798562
20
2.93581907393048
30
0
41
1
10
63.8303740633891
20
2.93310271286478
30
0
41
1
10
63.8187332453003
20
2.93279154278647
30
0
41
1
10
63.7960618484857
20
2.93451914446425
30
0
41
1
10
63.7849356322266
20
2.9365133050895
30
0
41
1
10
63.7632906082312
20
2.94366105412439
30
0
41
1
10
63.753101281163
20
2.94878246319811
30
0
41
1
10
63.7392268001232
20
2.95925751781638
30
0
41
1
10
63.7348126630439
20
2.96327588800926
30
0
41
1
10
63.7265688399641
20
2.97205408072227
30
0
41
1
10
63.72272681619
20
2.97677825562479
30
0
41
1
10
63.7152814602823
20
2.98649868700576
30
0
41
1
10
63.7116651675668
20
2.99147882459309
30
0
41
1
10
63.7043801722057
20
3.00134906718284
30
0
41
1
10
63.6934499479816
20
3.01611376742315
30
0
41
1
10
63.6679294178474
20
3.05028399742838
30
0
41
1
10
63.6460336893751
20
3.07910392748249
30
0
41
1
10
63.5730271651924
20
3.17417368507543
30
0
41
1
10
63.5147555672567
20
3.24683245047385
30
0
41
1
10
63.4568241415045
20
3.31643281613106
30
0
0
SPLINE
5
F3
100
AcDbEntity
8
1
62
256
6
ByLayer
370
18
48
1
60
0
100
AcDbSpline
70
4
71
3
72
8
73
4
40
0
40
0
40
0
40
0
40
1
40
1
40
1
40
1
41
1
10
63.4568241415045
20
3.31643281613108
30
0
41
1
10
63.3282183619651
20
3.28925775732335
30
0
41
1
10
63.2010342311955
20
3.25634779698061
30
0
41
1
10
63.074903172808
20
3.21793754993556
30
0
0
SPLINE
5
F4
100
AcDbEntity
8
1
62
256
6
ByLayer
370
18
48
1
60
0
100
AcDbSpline
70
4
71
3
72
8
73
4
40
0
40
0
40
0
40
0
40
1
40
1
40
1
40
1
41
1
10
63.074903172808
20
3.21793754993553
30
0
41
1
10
63.036846196712
20
3.13815650759375
30
0
41
1
10
62.9987778560298
20
3.05820809439433
30
0
41
1
10
62.9604226980921
20
2.97824623383445
30
0
0
SPLINE
5
F5
100
AcDbEntity
8
1
62
256
6
ByLayer
370
18
48
1
60
0
100
AcDbSpline
70
4
71
3
72
10
73
6
40
0
40
0
40
0
40
0
40
0.50991120438717
40
0.50991120438717
40
1
40
1
40
1
40
1
41
1
10
62.9604226980921
20
2.97824623383445
30
0
41
1
10
62.9275847471633
20
2.90978650652718
30
0
41
1
10
62.8945771421777
20
2.8413993484784
30
0
41
1
10
62.8298486289414
20
2.70726016306418
30
0
41
1
10
62.7982047725941
20
2.64146480819511
30
0
41
1
10
62.7660038085016
20
2.57594556170406
30
0
0
SPLINE
5
F6
100
AcDbEntity
8
1
62
256
6
ByLayer
370
18
48
1
60
0
100
AcDbSpline
70
4
71
3
72
8
73
4
40
0
40
0
40
0
40
0
40
1
40
1
40
1
40
1
41
1
10
53.0618211042265
20
-3.59512271637584
30
0
41
1
10
53.0472999833109
20
-3.61990301653239
30
0
41
1
10
53.0327907314823
20
-3.64461463952645
30
0
41
1
10
53.0183027653926
20
-3.66925283421693
30
0
0
SPLINE
5
F7
100
AcDbEntity
8
1
62
256
6
ByLayer
370
18
48
1
60
0
100
AcDbSpline
70
4
71
3
72
26
73
22
40
0
40
0
40
0
40
0
40
0.0060202817728481
40
0.0060202817728481
40
0.101131999579602
40
0.101131999579602
40
0.196243717386355
40
0.196243717386355
40
0.291355435193109
40
0.291355435193109
40
0.481578870806619
40
0.481578870806619
40
0.576690588613372
40
0.576690588613372
40
0.671802306420126
40
0.671802306420126
40
0.76691402422688
40
0.76691402422688
40
0.862025742033635
40
0.862025742033635
40
1
40
1
40
1
40
1
41
1
10
40.8320498760486
20
3.08858961311563
30
0
41
1
10
40.8305082565584
20
3.08416398159849
30
0
41
1
10
40.828953801096
20
3.07973316394992
30
0
41
1
10
40.8026093536285
20
3.00520818070717
30
0
41
1
10
40.7742121690221
20
2.93365659728707
30
0
41
1
10
40.7097271503016
20
2.78744616922648
30
0
41
1
10
40.6736282640477
20
2.71278285917825
30
0
41
1
10
40.5926389272821
20
2.55990417411545
30
0
41
1
10
40.5486786686096
20
2.48356325504534
30
0
41
1
10
40.4075576640542
20
2.25784638557664
30
0
41
1
10
40.298417851726
20
2.10809335989492
30
0
41
1
10
40.1247691276103
20
1.90787929648496
30
0
41
1
10
40.0643475372255
20
1.84504671895635
30
0
41
1
10
39.9409597328827
20
1.72571290804885
30
0
41
1
10
39.8793492668035
20
1.66984165739882
30
0
41
1
10
39.7562967650507
20
1.56576135192861
30
0
41
1
10
39.6948548644127
20
1.51755844012169
30
0
41
1
10
39.5721509683714
20
1.42933682252124
30
0
41
1
10
39.5106491355968
20
1.38925152258287
30
0
41
1
10
39.3653318265997
20
1.30488762503202
30
0
41
1
10
39.2825044941191
20
1.26581714385304
30
0
41
1
10
39.2037154032369
20
1.23813478826017
30
0
0
SPLINE
5
F8
100
AcDbEntity
8
1
62
256
6
ByLayer
370
18
48
1
60
0
100
AcDbSpline
70
4
71
3
72
27
73
23
40
0
40
0
40
0
40
0
40
0.0151743292067144
40
0.0151743292067144
40
0.1047039356425
40
0.1047039356425
40
0.194233542078286
40
0.194233542078286
40
0.238998345296202
40
0.238998345296202
40
0.283763148514118
40
0.283763148514118
40
0.306145550123057
40
0.306145550123057
40
0.328527951731995
40
0.328527951731995
40
0.373292754949838
40
0.373292754949838
40
0.462822361385558
40
0.641881574257029
40
0.641881574257029
40
1
40
1
40
1
40
1
41
1
10
60.2429280659676
20
3.26109977515637
30
0
41
1
10
60.2455142466422
20
3.26112395343083
30
0
41
1
10
60.2480984902672
20
3.26119907067806
30
0
41
1
10
60.2659158880143
20
3.26205989802031
30
0
41
1
10
60.2810816861784
20
3.26448892200688
30
0
41
1
10
60.3112076548094
20
3.27297824734055
30
0
41
1
10
60.3263124553332
20
3.27911691923293
30
0
41
1
10
60.3475155679139
20
3.29173048959368
30
0
41
1
10
60.3543809220307
20
3.29649886026371
30
0
41
1
10
60.3676588731269
20
3.30728583041846
30
0
41
1
10
60.3740424543514
20
3.31327671895204
30
0
41
1
10
60.3828063457832
20
3.32314468279296
30
0
41
1
10
60.3855984419735
20
3.32660005671701
30
0
41
1
10
60.3909405412492
20
3.33382126970335
30
0
41
1
10
60.3934923749473
20
3.33758471603329
30
0
41
1
10
60.401000688499
20
3.34905605651125
30
0
41
1
10
60.405874872926
20
3.35686002657908
30
0
41
1
10
60.4205638277387
20
3.38012348928476
30
0
41
1
10
60.4497108205512
20
3.42671961592944
30
0
41
1
10
60.478430476713
20
3.4732540278828
30
0
41
1
10
60.5358245486866
20
3.56570542566666
30
0
41
1
10
60.5741361876531
20
3.62641959031924
30
0
41
1
10
60.6121516089392
20
3.68647822308634
30
0
0
SPLINE
5
F9
100
AcDbEntity
8
1
62
256
6
ByLayer
370
18
48
1
60
0
100
AcDbSpline
70
4
71
3
72
8
73
4
40
0
40
0
40
0
40
0
40
1
40
1
40
1
40
1
41
1
10
60.6121516089392
20
3.68647822308634
30
0
41
1
10
60.6826519438706
20
3.79785812056858
30
0
41
1
10
60.7519883586165
20
3.90680101469695
30
0
41
1
10
60.8221344678626
20
4.01135609566376
30
0
0
SPLINE
5
FA
100
AcDbEntity
8
1
62
256
6
ByLayer
370
18
48
1
60
0
100
AcDbSpline
70
4
71
3
72
49
73
45
40
0
40
0
40
0
40
0
40
0.125000000000003
40
0.125000000000003
40
0.250000000000007
40
0.250000000000007
40
0.37500000000001
40
0.37500000000001
40
0.500000000000014
40
0.500000000000014
40
0.515625000000018
40
0.515625000000018
40
0.531250000000022
40
0.531250000000022
40
0.562500000000032
40
0.562500000000032
40
0.578125000000029
40
0.578125000000029
40
0.593750000000026
40
0.593750000000026
40
0.625000000000037
40
0.625000000000037
40
0.640625000000043
40
0.640625000000043
40
0.656250000000048
40
0.656250000000048
40
0.687500000000042
40
0.687500000000042
40
0.718750000000036
40
0.718750000000036
40
0.734375000000042
40
0.734375000000042
40
0.750000000000047
40
0.750000000000047
40
0.757812500000043
40
0.757812500000043
40
0.765625000000039
40
0.765625000000039
40
0.781250000000031
40
0.781250000000031
40
0.812500000000026
40
0.875000000000017
40
0.875000000000017
40
1
40
1
40
1
40
1
41
1
10
60.945353315898
20
3.98955454075426
30
0
41
1
10
60.9801031829898
20
3.92564207326805
30
0
41
1
10
61.0152042177738
20
3.86128479162292
30
0
41
1
10
61.0856911984293
20
3.73141679181299
30
0
41
1
10
61.1210661732782
20
3.66594256875078
30
0
41
1
10
61.1920985556844
20
3.53390220231631
30
0
41
1
10
61.2277730119978
20
3.46730836626378
30
0
41
1
10
61.2992334454812
20
3.33320786513036
30
0
41
1
10
61.3350325248631
20
3.26568145622949
30
0
41
1
10
61.3753247563823
20
3.18912228914266
30
0
41
1
10
61.3797936413617
20
3.18060062721335
30
0
41
1
10
61.3891991477695
20
3.16393082974034
30
0
41
1
10
61.3941706430128
20
3.15574636551076
30
0
41
1
10
61.4101376513818
20
3.13253257328026
30
0
41
1
10
61.4219802323861
20
3.11890051837042
30
0
41
1
10
61.4411400943992
20
3.10059582757637
30
0
41
1
10
61.4477591692011
20
3.09485137355284
30
0
41
1
10
61.461403431038
20
3.08398733332621
30
0
41
1
10
61.4684343525323
20
3.07887029985091
30
0
41
1
10
61.4897324616789
20
3.06466820951033
30
0
41
1
10
61.5043225401476
20
3.05660333159287
30
0
41
1
10
61.5267915654856
20
3.04673483427973
30
0
41
1
10
61.5344054631397
20
3.04381536964587
30
0
41
1
10
61.5497387245023
20
3.0388772445929
30
0
41
1
10
61.5573888741965
20
3.03687504755351
30
0
41
1
10
61.5802825446394
20
3.03216180584909
30
0
41
1
10
61.5954709675334
20
3.03070936739417
30
0
41
1
10
61.6256325946155
20
3.03139436744229
30
0
41
1
10
61.6407563983033
20
3.03357209639023
30
0
41
1
10
61.6619807893904
20
3.04049693278304
30
0
41
1
10
61.6688511645879
20
3.04340110063276
30
0
41
1
10
61.6821354341157
20
3.05052573876256
30
0
41
1
10
61.6885271824004
20
3.05473078100624
30
0
41
1
10
61.6972985313837
20
3.06208807010287
30
0
41
1
10
61.7000926276254
20
3.06473272889008
30
0
41
1
10
61.7054376494315
20
3.07038138345223
30
0
41
1
10
61.7079902644889
20
3.07338282230131
30
0
41
1
10
61.715499714948
20
3.08259500381948
30
0
41
1
10
61.7203732889083
20
3.08891454559154
30
0
41
1
10
61.7350618134457
20
3.1076839954795
30
0
41
1
10
61.7642079705584
20
3.14524227176088
30
0
41
1
10
61.7929267364333
20
3.18253323198627
30
0
41
1
10
61.8503184878768
20
3.25611037985314
30
0
41
1
10
61.8886283521262
20
3.30369920147021
30
0
41
1
10
61.9266406111756
20
3.35018696467188
30
0
0
SPLINE
5
FB
100
AcDbEntity
8
1
62
256
6
ByLayer
370
18
48
1
60
0
100
AcDbSpline
70
4
71
3
72
8
73
4
40
0
40
0
40
0
40
0
40
1
40
1
40
1
40
1
41
1
10
61.9266406111756
20
3.35018696467188
30
0
41
1
10
61.9970760484491
20
3.43632722602078
30
0
41
1
10
62.0663477834738
20
3.51858149567667
30
0
41
1
10
62.1363526347422
20
3.59430669986344
30
0
0
SPLINE
5
FC
100
AcDbEntity
8
1
62
256
6
ByLayer
370
18
48
1
60
0
100
AcDbSpline
70
4
71
3
72
48
73
44
40
0
40
0
40
0
40
0
40
0.020827755841358
40
0.020827755841358
40
0.0616265993479118
40
0.0616265993479118
40
0.0820260211011816
40
0.0820260211011816
40
0.102425442854451
40
0.102425442854451
40
0.143224286360991
40
0.143224286360991
40
0.16362370811427
40
0.16362370811427
40
0.184023129867549
40
0.184023129867549
40
0.224821973374128
40
0.224821973374128
40
0.245221395127429
40
0.245221395127429
40
0.265620816880729
40
0.265620816880729
40
0.30641966038733
40
0.30641966038733
40
0.326819082140642
40
0.326819082140642
40
0.347218503893954
40
0.347218503893954
40
0.367617925647266
40
0.367617925647266
40
0.388017347400578
40
0.388017347400578
40
0.40841676915389
40
0.40841676915389
40
0.428816190907202
40
0.428816190907202
40
0.510413877920465
40
0.510413877920465
40
0.673609251946977
40
0.673609251946977
40
0.836804625973488
40
0.836804625973488
40
1
40
1
40
1
40
1
41
1
10
61.0270465563037
20
-3.40854122660304
30
0
41
1
10
61.0229004400888
20
-3.40146616871044
30
0
41
1
10
61.0187466034381
20
-3.39438480760677
30
0
41
1
10
61.006429200948
20
-3.37341749010378
30
0
41
1
10
60.9982380560168
20
-3.3595196230493
30
0
41
1
10
60.9858736162564
20
-3.33867168478216
30
0
41
1
10
60.9817662588457
20
-3.33169229350932
30
0
41
1
10
60.9730882792343
20
-3.3182163975363
30
0
41
1
10
60.9684650699756
20
-3.31177793892684
30
0
41
1
10
60.9535504936926
20
-3.29357123715391
30
0
41
1
10
60.9424202526684
20
-3.28268334003584
30
0
41
1
10
60.9241472323234
20
-3.26800286013196
30
0
41
1
10
60.917726291125
20
-3.26337771671061
30
0
41
1
10
60.9045637708469
20
-3.25491302344835
30
0
41
1
10
60.8978401940587
20
-3.25106303957412
30
0
41
1
10
60.8772854730247
20
-3.2405545795809
30
0
41
1
10
60.8630784207432
20
-3.23491261701747
30
0
41
1
10
60.8409999170052
20
-3.22861995095295
30
0
41
1
10
60.8334974753657
20
-3.2268926624306
30
0
41
1
10
60.8184852617193
20
-3.22431955389035
30
0
41
1
10
60.8109439524147
20
-3.22346872759798
30
0
41
1
10
60.7882176711396
20
-3.22233946516863
30
0
41
1
10
60.7729359285808
20
-3.22340085198425
30
0
41
1
10
60.7498501279183
20
-3.22795380365989
30
0
41
1
10
60.742202271853
20
-3.22996162588763
30
0
41
1
10
60.7271734119384
20
-3.23500600181143
30
0
41
1
10
60.7197683090089
20
-3.23804315357569
30
0
41
1
10
60.7052325642953
20
-3.24538386982172
30
0
41
1
10
60.6980541000848
20
-3.24974447448486
30
0
41
1
10
60.6845358124475
20
-3.25979847766874
30
0
41
1
10
60.6781510341246
20
-3.26550015694232
30
0
41
1
10
60.6662362269048
20
-3.27844171418911
30
0
41
1
10
60.6607308032145
20
-3.2857759649232
30
0
41
1
10
60.6504943209085
20
-3.30101755259807
30
0
41
1
10
60.645683467337
20
-3.30894122927708
30
0
41
1
10
60.6213568997467
20
-3.34820979356366
30
0
41
1
10
60.6018700721946
20
-3.37937623692753
30
0
41
1
10
60.5433775384248
20
-3.47218759294614
30
0
41
1
10
60.5043528038567
20
-3.53312880791387
30
0
41
1
10
60.426523231968
20
-3.65313106032619
30
0
41
1
10
60.3876787086221
20
-3.71226071577539
30
0
41
1
10
60.3102945245967
20
-3.82863887066222
30
0
41
1
10
60.2717362394633
20
-3.88582432418215
30
0
41
1
10
60.2335791832252
20
-3.94240599518562
30
0
0
SPLINE
5
FD
100
AcDbEntity
8
1
62
256
6
ByLayer
370
18
48
1
60
0
100
AcDbSpline
70
4
71
3
72
8
73
4
40
0
40
0
40
0
40
0
40
1
40
1
40
1
40
1
41
1
10
60.1102973727309
20
-3.91049969755733
30
0
41
1
10
60.0377586120238
20
-3.77260647880235
30
0
41
1
10
59.9659000626905
20
-3.63096578847984
30
0
41
1
10
59.8930946255588
20
-3.48759759676693
30
0
0
SPLINE
5
FE
100
AcDbEntity
8
1
62
256
6
ByLayer
370
18
48
1
60
0
100
AcDbSpline
70
4
71
3
72
8
73
4
40
0
40
0
40
0
40
0
40
1
40
1
40
1
40
1
41
1
10
54.9157981937858
20
-3.60985812531061
30
0
41
1
10
54.9863251593973
20
-3.7356545401384
30
0
41
1
10
55.0557261899143
20
-3.86107903282957
30
0
41
1
10
55.1259221502328
20
-3.98464716341635
30
0
0
SPLINE
5
FF
100
AcDbEntity
8
1
62
256
6
ByLayer
370
18
48
1
60
0
100
AcDbSpline
70
4
71
3
72
50
73
46
40
0
40
0
40
0
40
0
40
0.124999999999942
40
0.124999999999942
40
0.249999999999884
40
0.249999999999884
40
0.374999999999827
40
0.374999999999827
40
0.499999999999769
40
0.499999999999769
40
0.515624999999769
40
0.515624999999769
40
0.531249999999769
40
0.531249999999769
40
0.562499999999782
40
0.562499999999782
40
0.578124999999788
40
0.578124999999788
40
0.593749999999794
40
0.593749999999794
40
0.624999999999806
40
0.624999999999806
40
0.656249999999818
40
0.656249999999818
40
0.687499999999831
40
0.687499999999831
40
0.703124999999837
40
0.703124999999837
40
0.718749999999843
40
0.718749999999843
40
0.734374999999849
40
0.734374999999849
40
0.749999999999855
40
0.749999999999855
40
0.757812499999858
40
0.757812499999858
40
0.765624999999861
40
0.765624999999861
40
0.773437499999864
40
0.773437499999864
40
0.781249999999867
40
0.81249999999988
40
0.874999999999916
40
0.874999999999916
40
1
40
1
40
1
40
1
41
1
10
55.249136570631
20
-4.00706911589086
30
0
41
1
10
55.2839056138492
20
-3.95826472354386
30
0
41
1
10
55.3190103304983
20
-3.90860674817512
30
0
41
1
10
55.3894740546926
20
-3.80714494449219
30
0
41
1
10
55.4248240676987
20
-3.7553722706219
30
0
41
1
10
55.495779915469
20
-3.64970351055544
30
0
41
1
10
55.5314020843263
20
-3.5957847125577
30
0
41
1
10
55.6027339721029
20
-3.48591153750706
30
0
41
1
10
55.6384564315856
20
-3.42994384759697
30
0
41
1
10
55.6786503556652
20
-3.36573836224514
30
0
41
1
10
55.6831029295524
20
-3.35857208875927
30
0
41
1
10
55.6924563212724
20
-3.34470795012297
30
0
41
1
10
55.6973881138303
20
-3.33798766005339
30
0
41
1
10
55.7132508879704
20
-3.31937487842501
30
0
41
1
10
55.7250200596988
20
-3.30910278478646
30
0
41
1
10
55.7440634249038
20
-3.29617513328111
30
0
41
1
10
55.7506432245177
20
-3.29228044304168
30
0
41
1
10
55.7642061393845
20
-3.28521343812781
30
0
41
1
10
55.7712064614371
20
-3.28203948456618
30
0
41
1
10
55.7924214248436
20
-3.27370213185011
30
0
41
1
10
55.8069550912106
20
-3.26963034040483
30
0
41
1
10
55.8367926845793
20
-3.26463538350552
30
0
41
1
10
55.8522365624986
20
-3.26382590767094
30
0
41
1
10
55.8827432709444
20
-3.26586318324632
30
0
41
1
10
55.8979220160602
20
-3.26857328064139
30
0
41
1
10
55.9205299526446
20
-3.27532756487338
30
0
41
1
10
55.9280390098519
20
-3.27803397665267
30
0
41
1
10
55.9429876557059
20
-3.28452770127714
30
0
41
1
10
55.9503333283047
20
-3.28827990560006
30
0
41
1
10
55.9645566017591
20
-3.29691324943107
30
0
41
1
10
55.9714621653035
20
-3.30178831634129
30
0
41
1
10
55.9848179556435
20
-3.31276052597747
30
0
41
1
10
55.9912848576316
20
-3.3188722756127
30
0
41
1
10
56.0001699182239
20
-3.32887818082162
30
0
41
1
10
56.0030021233491
20
-3.3323739777675
30
0
41
1
10
56.0084148956308
20
-3.33967718924941
30
0
41
1
10
56.0109939049554
20
-3.34348659304311
30
0
41
1
10
56.0160364096089
20
-3.35124415795727
30
0
41
1
10
56.0185013148016
20
-3.35519053168147
30
0
41
1
10
56.0234327857379
20
-3.36307319456961
30
0
41
1
10
56.0357347593759
20
-3.38279266831901
30
0
41
1
10
56.0674029490606
20
-3.4341727094243
30
0
41
1
10
56.0962036112007
20
-3.48157973598981
30
0
41
1
10
56.153762663124
20
-3.57584743371595
30
0
41
1
10
56.1921951867447
20
-3.63787018926448
30
0
41
1
10
56.2303436783301
20
-3.69933193831585
30
0
0
SPLINE
5
100
100
AcDbEntity
8
1
62
256
6
ByLayer
370
18
48
1
60
0
100
AcDbSpline
70
4
71
3
72
8
73
4
40
0
40
0
40
0
40
0
40
1
40
1
40
1
40
1
41
1
10
56.2303436783301
20
-3.69933193831585
30
0
41
1
10
56.3008175167562
20
-3.81287365889304
30
0
41
1
10
56.3701870151065
20
-3.92435630698077
30
0
41
1
10
56.44035915302
20
-4.03167644905244
30
0
0
SPLINE
5
101
100
AcDbEntity
8
1
62
256
6
ByLayer
370
18
48
1
60
0
100
AcDbSpline
70
4
71
3
72
8
73
4
40
0
40
0
40
0
40
0
40
1
40
1
40
1
40
1
41
1
10
56.5636481569278
20
-4.01423676723172
30
0
41
1
10
56.5225116234002
20
-4.0206706666587
30
0
41
1
10
56.4814154531855
20
-4.02648345856224
30
0
41
1
10
56.4403591530199
20
-4.03167644905244
30
0
0
SPLINE
5
102
100
AcDbEntity
8
1
62
256
6
ByLayer
370
18
48
1
60
0
100
AcDbSpline
70
4
71
3
72
50
73
46
40
0
40
0
40
0
40
0
40
0.125000000000106
40
0.125000000000106
40
0.250000000000213
40
0.250000000000213
40
0.375000000000319
40
0.375000000000319
40
0.500000000000426
40
0.500000000000426
40
0.51562500000044
40
0.51562500000044
40
0.531250000000455
40
0.531250000000455
40
0.562500000000472
40
0.562500000000472
40
0.578125000000473
40
0.578125000000473
40
0.593750000000475
40
0.593750000000475
40
0.625000000000461
40
0.625000000000461
40
0.640625000000446
40
0.640625000000446
40
0.65625000000043
40
0.65625000000043
40
0.6875000000004
40
0.6875000000004
40
0.703125000000393
40
0.703125000000393
40
0.718750000000387
40
0.718750000000387
40
0.73437500000038
40
0.73437500000038
40
0.750000000000374
40
0.750000000000374
40
0.757812500000364
40
0.765625000000354
40
0.765625000000354
40
0.781250000000334
40
0.781250000000334
40
0.812500000000283
40
0.875000000000193
40
0.875000000000193
40
1
40
1
40
1
40
1
41
1
10
56.5636481569277
20
-4.01423676723169
30
0
41
1
10
56.5984098402544
20
-3.95149689855381
30
0
41
1
10
56.633513270879
20
-3.88827059808213
30
0
41
1
10
56.7039872746509
20
-3.7605534376427
30
0
41
1
10
56.7393481485378
20
-3.69609814638341
30
0
41
1
10
56.8103368960661
20
-3.56597549547513
30
0
41
1
10
56.8459812497751
20
-3.50028133718544
30
0
41
1
10
56.9173650788627
20
-3.36784929352089
30
0
41
1
10
56.9531174614884
20
-3.30109242881161
30
0
41
1
10
56.9933474765498
20
-3.22532348813419
30
0
41
1
10
56.9978069394427
20
-3.21688622644072
30
0
41
1
10
57.0071839556723
20
-3.20039121233702
30
0
41
1
10
57.0121349095446
20
-3.19229941310479
30
0
41
1
10
57.0280411153742
20
-3.16937309057511
30
0
41
1
10
57.0398414227809
20
-3.15596561006402
30
0
41
1
10
57.0589364141651
20
-3.13803778893524
30
0
41
1
10
57.0655339333269
20
-3.13242614586105
30
0
41
1
10
57.0791342245703
20
-3.12183897337519
30
0
41
1
10
57.0861479841582
20
-3.11686219606472
30
0
41
1
10
57.1073981500438
20
-3.10308704966465
30
0
41
1
10
57.1219570142547
20
-3.09531891024349
30
0
41
1
10
57.1443783288868
20
-3.08590896645416
30
0
41
1
10
57.151966769207
20
-3.08314773668985
30
0
41
1
10
57.1672938982431
20
-3.07851546131744
30
0
41
1
10
57.1749414101864
20
-3.07666979137878
30
0
41
1
10
57.1978282756833
20
-3.07243444640847
30
0
41
1
10
57.2130135553805
20
-3.07131183424303
30
0
41
1
10
57.235632700726
20
-3.07232842041247
30
0
41
1
10
57.2431457004927
20
-3.07312421474657
30
0
41
1
10
57.2581022391245
20
-3.07580298502776
30
0
41
1
10
57.2654144824968
20
-3.07766654786528
30
0
41
1
10
57.2796058027707
20
-3.08262505084429
30
0
41
1
10
57.2864963600598
20
-3.08570219183605
30
0
41
1
10
57.2998219469294
20
-3.09317053534795
30
0
41
1
10
57.306254243368
20
-3.09755878587902
30
0
41
1
10
57.3150849131243
20
-3.10517218926776
30
0
41
1
10
57.3207129022498
20
-3.11062847763651
30
0
41
1
10
57.3258451872908
20
-3.11681183215077
30
0
41
1
10
57.3333828591922
20
-3.12631190343885
30
0
41
1
10
57.3382603755374
20
-3.13284470269028
30
0
41
1
10
57.3529734108582
20
-3.15223717313779
30
0
41
1
10
57.3821665050092
20
-3.19104682395798
30
0
41
1
10
57.4109288229239
20
-3.22960684781012
30
0
41
1
10
57.4684075403386
20
-3.30575147599882
30
0
41
1
10
57.5067777119371
20
-3.35508976885924
30
0
41
1
10
57.5448529731051
20
-3.40336917594104
30
0
0
SPLINE
5
103
100
AcDbEntity
8
1
62
256
6
ByLayer
370
18
48
1
60
0
100
AcDbSpline
70
4
71
3
72
8
73
4
40
0
40
0
40
0
40
0
40
1
40
1
40
1
40
1
41
1
10
57.5448529731051
20
-3.40336917594081
30
0
41
1
10
57.6152137855653
20
-3.49258664164324
30
0
41
1
10
57.6844304225508
20
-3.57808276869588
30
0
41
1
10
57.7544718828941
20
-3.65766795109445
30
0
0
SPLINE
5
104
100
AcDbEntity
8
1
62
256
6
ByLayer
370
18
48
1
60
0
100
AcDbSpline
70
4
71
3
72
8
73
4
40
0
40
0
40
0
40
0
40
1
40
1
40
1
40
1
41
1
10
57.8783648019687
20
-3.60167300462067
30
0
41
1
10
57.8370066888434
20
-3.62090390403961
30
0
41
1
10
57.7957079986291
20
-3.63956855557473
30
0
41
1
10
57.7544718828941
20
-3.6576679510944
30
0
0
SPLINE
5
105
100
AcDbEntity
8
1
62
256
6
ByLayer
370
18
48
1
60
0
100
AcDbSpline
70
4
71
3
72
26
73
22
40
0
40
0
40
0
40
0
40
0.203764533143148
40
0.203764533143148
40
0.407529066286297
40
0.407529066286297
40
0.611293599429446
40
0.611293599429446
40
0.815058132572594
40
0.815058132572594
40
0.840528699215491
40
0.840528699215491
40
0.865999265858389
40
0.865999265858389
40
0.916940399144185
40
0.916940399144185
40
0.942410965787095
40
0.942410965787095
40
0.967881532430005
40
0.967881532430005
40
1
40
1
40
1
40
1
41
1
10
57.8783648019687
20
-3.60167300462064
30
0
41
1
10
57.9131135290691
20
-3.53162516005787
30
0
41
1
10
57.948206880692
20
-3.46150915837023
30
0
41
1
10
58.0186600018925
20
-3.32102943083478
30
0
41
1
10
58.0540096283956
20
-3.25070231811659
30
0
41
1
10
58.1249750272497
20
-3.10987741277657
30
0
41
1
10
58.1606075970778
20
-3.03935106203855
30
0
41
1
10
58.2319663322355
20
-2.89835855357765
30
0
41
1
10
58.2677055037557
20
-2.82786977094838
30
0
41
1
10
58.3079208681247
20
-2.74854721819992
30
0
41
1
10
58.312378777859
20
-2.73972771431059
30
0
41
1
10
58.3217526266945
20
-2.72232911407642
30
0
41
1
10
58.3267007062049
20
-2.71371230278646
30
0
41
1
10
58.3426111324206
20
-2.68881449456947
30
0
41
1
10
58.3544123464413
20
-2.67364286290447
30
0
41
1
10
58.3735050974231
20
-2.65254462129462
30
0
41
1
10
58.3801012920079
20
-2.64578866463305
30
0
41
1
10
58.393697908694
20
-2.63275956105014
30
0
41
1
10
58.4007120431197
20
-2.62648002841297
30
0
41
1
10
58.4167293728954
20
-2.61303689277673
30
0
41
1
10
58.425817959695
20
-2.60601482987144
30
0
41
1
10
58.4350611514165
20
-2.59948216199504
30
0
0
SPLINE
5
106
100
AcDbEntity
8
1
62
256
6
ByLayer
370
18
48
1
60
0
100
AcDbSpline
70
4
71
3
72
44
73
40
40
0
40
0
40
0
40
0
40
0.125000000000071
40
0.125000000000071
40
0.187500000000114
40
0.187500000000114
40
0.218750000000127
40
0.218750000000127
40
0.25000000000014
40
0.25000000000014
40
0.281250000000153
40
0.281250000000153
40
0.312500000000166
40
0.312500000000166
40
0.375000000000192
40
0.375000000000192
40
0.437500000000218
40
0.437500000000218
40
0.500000000000245
40
0.500000000000245
40
0.531250000000258
40
0.531250000000258
40
0.562500000000272
40
0.562500000000272
40
0.578125000000278
40
0.578125000000278
40
0.593750000000284
40
0.593750000000284
40
0.625000000000296
40
0.625000000000296
40
0.64062500000029
40
0.64062500000029
40
0.656250000000284
40
0.671875000000278
40
0.671875000000278
40
0.687500000000271
40
0.687500000000271
40
0.750000000000228
40
1
40
1
40
1
40
1
41
1
10
64.5914866629104
20
-0.946605605132618
30
0
41
1
10
64.5719678838404
20
-0.913698765566352
30
0
41
1
10
64.5524277464009
20
-0.881099221204892
30
0
41
1
10
64.5228560520109
20
-0.832611615489611
30
0
41
1
10
64.5129548359775
20
-0.816517529275444
30
0
41
1
10
64.4980030567239
20
-0.792477066086832
30
0
41
1
10
64.4930438606657
20
-0.784488150175179
30
0
41
1
10
64.4828611129147
20
-0.768499784349814
30
0
41
1
10
64.4775249397956
20
-0.760478808883732
30
0
41
1
10
64.4657641480845
20
-0.744271085588366
30
0
41
1
10
64.459420612109
20
-0.736099875335213
30
0
41
1
10
64.4459940358284
20
-0.719658366827929
30
0
41
1
10
64.4388726311099
20
-0.711357578835333
30
0
41
1
10
64.4169305138853
20
-0.686931826621105
30
0
41
1
10
64.4013612768024
20
-0.671084813810722
30
0
41
1
10
64.3687001498838
20
-0.640079031869504
30
0
41
1
10
64.3514507091621
20
-0.624810079219685
30
0
41
1
10
64.3166902994009
20
-0.596261822242724
30
0
41
1
10
64.2990314567768
20
-0.582899206540162
30
0
41
1
10
64.2721607143428
20
-0.56426881954124
30
0
41
1
10
64.2630921708852
20
-0.558262593201306
30
0
41
1
10
64.245282374187
20
-0.547046509780671
30
0
41
1
10
64.2364980857678
20
-0.541802134198548
30
0
41
1
10
64.2235433777406
20
-0.534571308068081
30
0
41
1
10
64.2192624142415
20
-0.532267989562513
30
0
41
1
10
64.21078896909
20
-0.527912119363549
30
0
41
1
10
64.2066010192303
20
-0.525864500543406
30
0
41
1
10
64.194443702664
20
-0.520277419190904
30
0
41
1
10
64.186798219473
20
-0.517246917018412
30
0
41
1
10
64.1761534005406
20
-0.513939872129413
30
0
41
1
10
64.1727325414761
20
-0.513051856763695
30
0
41
1
10
64.1662674807679
20
-0.511688507911487
30
0
41
1
10
64.1601504723688
20
-0.510714395476185
30
0
41
1
10
64.1544322852277
20
-0.510168039009983
30
0
41
1
10
64.1487525868979
20
-0.509644955309795
30
0
41
1
10
64.1459205783655
20
-0.509381460533604
30
0
41
1
10
64.1317396157287
20
-0.507982852491494
30
0
41
1
10
64.0749713313599
20
-0.501435965136949
30
0
41
1
10
64.0180686186481
20
-0.490262308358041
30
0
41
1
10
63.9727549373569
20
-0.478656616980885
30
0
0
SPLINE
5
107
100
AcDbEntity
8
1
62
256
6
ByLayer
370
18
48
1
60
0
100
AcDbSpline
70
4
71
3
72
12
73
8
40
0
40
0
40
0
40
0
40
0.499999999999978
40
0.499999999999978
40
0.749999999999989
40
0.749999999999989
40
1
40
1
40
1
40
1
41
1
10
63.9727549373568
20
-0.478656616980686
30
0
41
1
10
63.8859996420979
20
-0.408904328172383
30
0
41
1
10
63.7993434561167
20
-0.337649586854155
30
0
41
1
10
63.6694432375956
20
-0.228487902818244
30
0
41
1
10
63.6261131382432
20
-0.191679415170569
30
0
41
1
10
63.5398672501572
20
-0.11765854743436
30
0
41
1
10
63.4969140426946
20
-0.080415415385346
30
0
41
1
10
63.4541190024473
20
-0.0429512747089689
30
0
0
SPLINE
5
108
100
AcDbEntity
8
1
62
256
6
ByLayer
370
18
48
1
60
0
100
AcDbSpline
70
4
71
3
72
8
73
4
40
0
40
0
40
0
40
0
40
1
40
1
40
1
40
1
41
1
10
63.4541190024474
20
-0.0429512747089973
30
0
41
1
10
63.4356739791894
20
-0.0179761563287855
30
0
41
1
10
63.4171943016183
20
0.0066419916469158
30
0
41
1
10
63.3986484768199
20
0.0309176382546354
30
0
0
SPLINE
5
109
100
AcDbEntity
8
1
62
256
6
ByLayer
370
18
48
1
60
0
100
AcDbSpline
70
4
71
3
72
54
73
50
40
0
40
0
40
0
40
0
40
0.12500000000007
40
0.12500000000007
40
0.25000000000014
40
0.25000000000014
40
0.265625000000148
40
0.265625000000148
40
0.281250000000155
40
0.281250000000155
40
0.296875000000162
40
0.296875000000162
40
0.31250000000017
40
0.31250000000017
40
0.328125000000177
40
0.328125000000177
40
0.343750000000185
40
0.343750000000185
40
0.375000000000199
40
0.375000000000199
40
0.390625000000206
40
0.390625000000206
40
0.406250000000213
40
0.406250000000213
40
0.437500000000209
40
0.437500000000209
40
0.453125000000208
40
0.453125000000208
40
0.468750000000206
40
0.468750000000206
40
0.484375000000205
40
0.484375000000205
40
0.500000000000203
40
0.500000000000203
40
0.515625000000201
40
0.515625000000201
40
0.5312500000002
40
0.5312500000002
40
0.546875000000198
40
0.546875000000198
40
0.562500000000196
40
0.562500000000196
40
0.625000000000168
40
0.625000000000168
40
0.750000000000112
40
0.750000000000112
40
0.875000000000056
40
0.875000000000056
40
1
40
1
40
1
40
1
41
1
10
63.3986484768199
20
0.0309176382538396
30
0
41
1
10
63.3658592922651
20
0.0738371991505744
30
0
41
1
10
63.3329017376821
20
0.115635565607619
30
0
41
1
10
63.2669885835842
20
0.196721296390564
30
0
41
1
10
63.2341175077066
20
0.235960770935918
30
0
41
1
10
63.1964374600994
20
0.279091588632923
30
0
41
1
10
63.1922406607693
20
0.283869922002367
30
0
41
1
10
63.183822879588
20
0.293400759158203
30
0
41
1
10
63.1796189885156
20
0.298143056510582
30
0
41
1
10
63.1710984223616
20
0.307654466819969
30
0
41
1
10
63.1667400345208
20
0.312448558048885
30
0
41
1
10
63.1572881781484
20
0.322433269189872
30
0
41
1
10
63.1522085819783
20
0.327615472189564
30
0
41
1
10
63.1414682787649
20
0.3382835658565
30
0
41
1
10
63.1358136606072
20
0.343765851147367
30
0
41
1
10
63.1239668131871
20
0.355009080679622
30
0
41
1
10
63.1178395910257
20
0.360707259596012
30
0
41
1
10
63.0990031193171
20
0.377899218453507
30
0
41
1
10
63.0857917153585
20
0.389542879603681
30
0
41
1
10
63.06515471946
20
0.407257531243573
30
0
41
1
10
63.0581357383616
20
0.413205228082575
30
0
41
1
10
63.0438109732858
20
0.425196279289281
30
0
41
1
10
63.0365257582459
20
0.431221711842454
30
0
41
1
10
63.0146134531528
20
0.449138357085133
30
0
41
1
10
62.9998107388652
20
0.460965322517126
30
0
41
1
10
62.9773138547002
20
0.478560509412034
30
0
41
1
10
62.9697679476967
20
0.484402388009187
30
0
41
1
10
62.9545855917091
20
0.496047449224847
30
0
41
1
10
62.9469324040843
20
0.50186272791214
30
0
41
1
10
62.9318796450703
20
0.513199598288082
30
0
41
1
10
62.9244391514518
20
0.518753022641164
30
0
41
1
10
62.9097600375821
20
0.529606028591729
30
0
41
1
10
62.9025015667918
20
0.53492061494083
30
0
41
1
10
62.8883316436877
20
0.545165195957111
30
0
41
1
10
62.8815572264808
20
0.549995434181625
30
0
41
1
10
62.8687275255832
20
0.558985385863679
30
0
41
1
10
62.8626511179773
20
0.563157256150163
30
0
41
1
10
62.8514297130708
20
0.570665992985738
30
0
41
1
10
62.8463649619292
20
0.573956624626589
30
0
41
1
10
62.8366091338797
20
0.580257977206259
30
0
41
1
10
62.8318607071191
20
0.583320825688503
30
0
41
1
10
62.8078831984045
20
0.598997032264435
30
0
41
1
10
62.7886773882148
20
0.612033993182422
30
0
41
1
10
62.731029888345
20
0.652572885375662
30
0
41
1
10
62.6925900434187
20
0.681481888010637
30
0
41
1
10
62.6159990584873
20
0.742669516321655
30
0
41
1
10
62.577822631551
20
0.774964841585785
30
0
41
1
10
62.5017166697753
20
0.842819368646587
30
0
41
1
10
62.463754803893
20
0.878410995380165
30
0
41
1
10
62.4261502695839
20
0.915352343511671
30
0
0
SPLINE
5
10A
100
AcDbEntity
8
1
62
256
6
ByLayer
370
18
48
1
60
0
100
AcDbSpline
70
4
71
3
72
10
73
6
40
0
40
0
40
0
40
0
40
0.5
40
0.5
40
1
40
1
40
1
40
1
41
1
10
62.3013973920943
20
1.03702160160216
30
0
41
1
10
62.2651208303007
20
1.07028236373839
30
0
41
1
10
62.2289990160002
20
1.10164472112652
30
0
41
1
10
62.1566896660674
20
1.16084897529092
30
0
41
1
10
62.1205115484446
20
1.18868363162005
30
0
41
1
10
62.0840763707394
20
1.21494455871149
30
0
0
SPLINE
5
10B
100
AcDbEntity
8
1
62
256
6
ByLayer
370
18
48
1
60
0
100
AcDbSpline
70
4
71
3
72
54
73
50
40
0
40
0
40
0
40
0
40
0.124999999999912
40
0.124999999999912
40
0.249999999999823
40
0.249999999999823
40
0.265624999999816
40
0.265624999999816
40
0.281249999999809
40
0.281249999999809
40
0.296874999999802
40
0.296874999999802
40
0.312499999999795
40
0.312499999999795
40
0.343749999999782
40
0.343749999999782
40
0.359374999999782
40
0.359374999999782
40
0.374999999999783
40
0.374999999999783
40
0.406249999999801
40
0.406249999999801
40
0.421874999999801
40
0.421874999999801
40
0.437499999999802
40
0.437499999999802
40
0.468749999999802
40
0.468749999999802
40
0.484374999999811
40
0.484374999999811
40
0.49999999999982
40
0.49999999999982
40
0.507812499999825
40
0.507812499999825
40
0.515624999999829
40
0.515624999999829
40
0.531249999999838
40
0.531249999999838
40
0.546874999999847
40
0.546874999999847
40
0.562499999999856
40
0.562499999999856
40
0.624999999999881
40
0.624999999999881
40
0.749999999999921
40
0.749999999999921
40
0.87499999999996
40
0.87499999999996
40
1
40
1
40
1
40
1
41
1
10
62.0840763707394
20
1.21494455871144
30
0
41
1
10
62.0509993178599
20
1.23878509219523
30
0
41
1
10
62.0177437397731
20
1.26130696881953
30
0
41
1
10
61.9512229820766
20
1.30332077916742
30
0
41
1
10
61.9180380790502
20
1.32273801878907
30
0
41
1
10
61.8799848281368
20
1.34350936278119
30
0
41
1
10
61.8757459994535
20
1.34580293062393
30
0
41
1
10
61.8672426700792
20
1.35036504348409
30
0
41
1
10
61.8630111649111
20
1.35260321064425
30
0
41
1
10
61.8543245462518
20
1.35723648044819
30
0
41
1
10
61.8498096233423
20
1.359686684151
30
0
41
1
10
61.8399560049469
20
1.36529343563239
30
0
41
1
10
61.8346293175739
20
1.36843178274347
30
0
41
1
10
61.818081904958
20
1.37839408160426
30
0
41
1
10
61.8062195804803
20
1.38579826615148
30
0
41
1
10
61.7872704197002
20
1.39798863279771
30
0
41
1
10
61.780761275679
20
1.40223312480631
30
0
41
1
10
61.7673886108971
20
1.41105879812585
30
0
41
1
10
61.7605019676741
20
1.41565595645113
30
0
41
1
10
61.7396379338317
20
1.42974168469655
30
0
41
1
10
61.725382462179
20
1.43956648174648
30
0
41
1
10
61.7034671045852
20
1.45506434360348
30
0
41
1
10
61.6960720178675
20
1.46035915279785
30
0
41
1
10
61.6810804908654
20
1.47125893480941
30
0
41
1
10
61.6734534803726
20
1.47688878499255
30
0
41
1
10
61.6507284665621
20
1.49393274658911
30
0
41
1
10
61.6356589171168
20
1.50558307587389
30
0
41
1
10
61.6132329074511
20
1.52358957540036
30
0
41
1
10
61.6057421158471
20
1.529720020653
30
0
41
1
10
61.5911172755822
20
1.54197422194892
30
0
41
1
10
61.5839810156624
20
1.54809736485308
30
0
41
1
10
61.5736134304653
20
1.55727745014315
30
0
41
1
10
61.5702138220697
20
1.5603367109178
30
0
41
1
10
61.5635407158183
20
1.56645392329497
30
0
41
1
10
61.5602539292831
20
1.56952504131505
30
0
41
1
10
61.550794957706
20
1.57855425704898
30
0
41
1
10
61.54499494529
20
1.58436315835587
30
0
41
1
10
61.534297950298
20
1.59561156132466
30
0
41
1
10
61.5293687114907
20
1.60106750859208
30
0
41
1
10
61.5197406872527
20
1.6119116296484
30
0
41
1
10
61.5149835014261
20
1.61732733170089
30
0
41
1
10
61.4910698540715
20
1.64459368901899
30
0
41
1
10
61.4719168559986
20
1.66680120992174
30
0
41
1
10
61.4144317037324
20
1.73456626724294
30
0
41
1
10
61.3760599285392
20
1.78128633271785
30
0
41
1
10
61.2996227143045
20
1.87729197656751
30
0
41
1
10
61.2615289713162
20
1.9266109054187
30
0
41
1
10
61.1855963091784
20
2.0277710875317
30
0
41
1
10
61.1477276198213
20
2.07962901670462
30
0
41
1
10
61.1102219727327
20
2.13257655243976
30
0
0
SPLINE
5
10C
100
AcDbEntity
8
1
62
256
6
ByLayer
370
18
48
1
60
0
100
AcDbSpline
70
4
71
3
72
10
73
6
40
0
40
0
40
0
40
0
40
0.5
40
0.5
40
1
40
1
40
1
40
1
41
1
10
60.9865742018451
20
2.23730625996501
30
0
41
1
10
60.950312593218
20
2.24698052710659
30
0
41
1
10
60.914206982682
20
2.25455363233527
30
0
41
1
10
60.8419666128471
20
2.26593649960168
30
0
41
1
10
60.8058261867999
20
2.26975019221854
30
0
41
1
10
60.7694243979936
20
2.27190464023067
30
0
0
SPLINE
5
10D
100
AcDbEntity
8
1
62
256
6
ByLayer
370
18
48
1
60
0
100
AcDbSpline
70
4
71
3
72
54
73
50
40
0
40
0
40
0
40
0
40
0.125000000000028
40
0.125000000000028
40
0.250000000000055
40
0.250000000000055
40
0.265625000000061
40
0.265625000000061
40
0.281250000000067
40
0.281250000000067
40
0.296875000000073
40
0.296875000000073
40
0.312500000000079
40
0.312500000000079
40
0.343750000000077
40
0.343750000000077
40
0.375000000000076
40
0.375000000000076
40
0.390625000000068
40
0.390625000000068
40
0.406250000000059
40
0.406250000000059
40
0.43750000000006
40
0.43750000000006
40
0.45312500000006
40
0.45312500000006
40
0.46875000000006
40
0.46875000000006
40
0.48437500000006
40
0.48437500000006
40
0.50000000000006
40
0.50000000000006
40
0.51562500000006
40
0.51562500000006
40
0.52343750000006
40
0.52343750000006
40
0.53125000000006
40
0.53125000000006
40
0.546875000000059
40
0.546875000000059
40
0.562500000000059
40
0.562500000000059
40
0.625000000000046
40
0.625000000000046
40
0.750000000000031
40
0.750000000000031
40
0.875000000000015
40
0.875000000000015
40
1
40
1
40
1
40
1
41
1
10
60.7694243979931
20
2.2719046402313
30
0
41
1
10
60.7365647016494
20
2.27384944870877
30
0
41
1
10
60.703530693132
20
2.27443404461064
30
0
41
1
10
60.6374573742241
20
2.27241263102954
30
0
41
1
10
60.6045032368615
20
2.26971399425074
30
0
41
1
10
60.5667168195664
20
2.26566285850595
30
0
41
1
10
60.5625080178285
20
2.26519925455292
30
0
41
1
10
60.5540657920685
20
2.2642495519834
30
0
41
1
10
60.5498540441091
20
2.26373789238249
30
0
41
1
10
60.5412895795306
20
2.2628289979001
30
0
41
1
10
60.5368895146572
20
2.26248765802461
30
0
41
1
10
60.5273353784671
20
2.26263982994936
30
0
41
1
10
60.5222024177573
20
2.2631083012258
30
0
41
1
10
60.5059421671553
20
2.26544667401987
30
0
41
1
10
60.4938767709465
20
2.26824483877684
30
0
41
1
10
60.4686210287212
20
2.275928768764
30
0
41
1
10
60.4553405333176
20
2.28081327090084
30
0
41
1
10
60.43459219556
20
2.2895028864026
30
0
41
1
10
60.4275348778797
20
2.29263243311678
30
0
41
1
10
60.4131294361834
20
2.29938638531644
30
0
41
1
10
60.405829723581
20
2.30298935593717
30
0
41
1
10
60.3838500810916
20
2.31441649180408
30
0
41
1
10
60.3690011924907
20
2.32291503944137
30
0
41
1
10
60.3464372844814
20
2.33723883564574
30
0
41
1
10
60.3388693542445
20
2.34226720554355
30
0
41
1
10
60.3236431887032
20
2.35286684267337
30
0
41
1
10
60.3159908854022
20
2.35843715427265
30
0
41
1
10
60.3009468465018
20
2.36991722476918
30
0
41
1
10
60.2935123677731
20
2.37585484854182
30
0
41
1
10
60.2788508477704
20
2.38819130062004
30
0
41
1
10
60.2715825092264
20
2.39462609467151
30
0
41
1
10
60.2575082860333
20
2.40793668528909
30
0
41
1
10
60.25078688664
20
2.41473135491788
30
0
41
1
10
60.2412531338643
20
2.42516651417131
30
0
41
1
10
60.2381667641005
20
2.42868548745673
30
0
41
1
10
60.2321918966991
20
2.43581118405959
30
0
41
1
10
60.2292945831715
20
2.43943635958419
30
0
41
1
10
60.2210110868707
20
2.4502758757433
30
0
41
1
10
60.2160066752595
20
2.45746711018657
30
0
41
1
10
60.2063010796413
20
2.47185100038615
30
0
41
1
10
60.2015377310424
20
2.47905001769041
30
0
41
1
10
60.1775390693793
20
2.51514383858321
30
0
41
1
10
60.1583172369611
20
2.54427819209903
30
0
41
1
10
60.1006237030193
20
2.63244089813605
30
0
41
1
10
60.0621586930268
20
2.69217966838497
30
0
41
1
10
59.9855208330126
20
2.81321618142687
30
0
41
1
10
59.9473229400085
20
2.87455537320383
30
0
41
1
10
59.8711746714785
20
2.99880768740692
30
0
41
1
10
59.8331937618258
20
3.06172265998524
30
0
41
1
10
59.7955744481758
20
3.12538500844354
30
0
0
SPLINE
5
10E
100
AcDbEntity
8
1
62
256
6
ByLayer
370
18
48
1
60
0
100
AcDbSpline
70
4
71
3
72
8
73
4
40
0
40
0
40
0
40
0
40
1
40
1
40
1
40
1
41
1
10
59.6716775579727
20
3.20347046258672
30
0
41
1
10
59.5992302629923
20
3.17347436261832
30
0
41
1
10
59.5274827715538
20
3.13512270217794
30
0
41
1
10
59.4547543680511
20
3.09068807133264
30
0
0
SPLINE
5
10F
100
AcDbEntity
8
1
62
256
6
ByLayer
370
18
48
1
60
0
100
AcDbSpline
70
4
71
3
72
54
73
50
40
0
40
0
40
0
40
0
40
0.12499999999999
40
0.12499999999999
40
0.249999999999979
40
0.249999999999979
40
0.265624999999976
40
0.265624999999976
40
0.281249999999972
40
0.281249999999972
40
0.296874999999968
40
0.296874999999968
40
0.312499999999964
40
0.312499999999964
40
0.343749999999957
40
0.343749999999957
40
0.359374999999953
40
0.359374999999953
40
0.374999999999949
40
0.374999999999949
40
0.406249999999942
40
0.406249999999942
40
0.421874999999947
40
0.421874999999947
40
0.437499999999952
40
0.437499999999952
40
0.468749999999962
40
0.468749999999962
40
0.484374999999967
40
0.484374999999967
40
0.499999999999972
40
0.499999999999972
40
0.507812499999974
40
0.507812499999974
40
0.515624999999977
40
0.515624999999977
40
0.531249999999981
40
0.531249999999981
40
0.546874999999985
40
0.546874999999985
40
0.562499999999989
40
0.562499999999989
40
0.624999999999996
40
0.624999999999996
40
0.749999999999997
40
0.749999999999997
40
0.874999999999999
40
0.874999999999999
40
1
40
1
40
1
40
1
41
1
10
59.4547543680511
20
3.09068807133266
30
0
41
1
10
59.4217093459691
20
3.07049866407542
30
0
41
1
10
59.3884797820527
20
3.04905997245672
30
0
41
1
10
59.3219903289602
20
3.00316288207245
30
0
41
1
10
59.2888117926566
20
2.97859935734138
30
0
41
1
10
59.2507538590004
20
2.95014296301352
30
0
41
1
10
59.2465143366231
20
2.94697031063882
30
0
41
1
10
59.2380092549243
20
2.94060823757161
30
0
41
1
10
59.2337761422038
20
2.93737936553981
30
0
41
1
10
59.2250909346918
20
2.93113910096238
30
0
41
1
10
59.2205794259259
20
2.9281999987432
30
0
41
1
10
59.2107311974545
20
2.92327277829986
30
0
41
1
10
59.2054057391379
20
2.92123797851391
30
0
41
1
10
59.1888571352584
20
2.91624339445585
30
0
41
1
10
59.1769892897844
20
2.91430900392964
30
0
41
1
10
59.1580230346355
20
2.9133759761724
30
0
41
1
10
59.1515065935092
20
2.91339383727703
30
0
41
1
10
59.138116077988
20
2.91403898576786
30
0
41
1
10
59.1312197703313
20
2.91467135151149
30
0
41
1
10
59.1103267013981
20
2.91744064038306
30
0
41
1
10
59.0960472735151
20
2.92042522664363
30
0
41
1
10
59.0740894819307
20
2.92681004230803
30
0
41
1
10
59.0666791616454
20
2.92926130720278
30
0
41
1
10
59.0516548845568
20
2.93492383039018
30
0
41
1
10
59.0440137915363
20
2.93815539123315
30
0
41
1
10
59.0212551047394
20
2.94882042640171
30
0
41
1
10
59.0061629484803
20
2.95723627743237
30
0
41
1
10
58.9837051274109
20
2.97205109117067
30
0
41
1
10
58.9762043557132
20
2.97739694806435
30
0
41
1
10
58.9615745316037
20
2.98876910934607
30
0
41
1
10
58.9544369731779
20
2.99479366989775
30
0
41
1
10
58.9440696916603
20
3.00447539626308
30
0
41
1
10
58.9406705355154
20
3.00781029491756
30
0
41
1
10
58.9339991110514
20
3.01472111562782
30
0
41
1
10
58.9307160646374
20
3.01831140577258
30
0
41
1
10
58.9212756130221
20
3.02925387765293
30
0
41
1
10
58.9154900249103
20
3.03684819049124
30
0
41
1
10
58.9048147534732
20
3.05256556700849
30
0
41
1
10
58.8998923956746
20
3.060676044579
30
0
41
1
10
58.8902686885353
20
3.07700261949819
30
0
41
1
10
58.8855082599357
20
3.08518919874882
30
0
41
1
10
58.8615884041847
20
3.12611302934602
30
0
41
1
10
58.8424310504889
20
3.15894183514294
30
0
41
1
10
58.7849343300764
20
3.25770483564275
30
0
41
1
10
58.7465571261109
20
3.32394317607051
30
0
41
1
10
58.6701163493327
20
3.4567353877319
30
0
41
1
10
58.6320236861168
20
3.52334365938432
30
0
41
1
10
58.556097256439
20
3.65697289271154
30
0
41
1
10
58.5182341084996
20
3.72398041921377
30
0
41
1
10
58.4807360895965
20
3.79129706809741
30
0
0
SPLINE
5
110
100
AcDbEntity
8
1
62
256
6
ByLayer
370
18
48
1
60
0
100
AcDbSpline
70
4
71
3
72
8
73
4
40
0
40
0
40
0
40
0
40
1
40
1
40
1
40
1
41
1
10
58.3568894439668
20
3.8343221636442
30
0
41
1
10
58.2844605553966
20
3.75827694622174
30
0
41
1
10
58.2127444999544
20
3.67476901083444
30
0
41
1
10
58.1400881974393
20
3.58623341108992
30
0
0
SPLINE
5
111
100
AcDbEntity
8
1
62
256
6
ByLayer
370
18
48
1
60
0
100
AcDbSpline
70
4
71
3
72
54
73
50
40
0
40
0
40
0
40
0
40
0.124999999999923
40
0.124999999999923
40
0.249999999999846
40
0.249999999999846
40
0.265624999999836
40
0.265624999999836
40
0.281249999999827
40
0.281249999999827
40
0.296874999999817
40
0.296874999999817
40
0.312499999999807
40
0.312499999999807
40
0.3437499999998
40
0.3437499999998
40
0.35937499999979
40
0.35937499999979
40
0.374999999999779
40
0.374999999999779
40
0.406249999999774
40
0.406249999999774
40
0.421874999999762
40
0.421874999999762
40
0.437499999999751
40
0.437499999999751
40
0.46874999999971
40
0.46874999999971
40
0.48437499999969
40
0.48437499999969
40
0.499999999999669
40
0.499999999999669
40
0.507812499999668
40
0.507812499999668
40
0.515624999999666
40
0.515624999999666
40
0.531249999999677
40
0.531249999999677
40
0.546874999999688
40
0.546874999999688
40
0.562499999999698
40
0.562499999999698
40
0.624999999999742
40
0.624999999999742
40
0.749999999999828
40
0.749999999999828
40
0.874999999999914
40
0.874999999999914
40
1
40
1
40
1
40
1
41
1
10
58.1400881974393
20
3.58623341108992
30
0
41
1
10
58.1070365327776
20
3.54595818578838
30
0
41
1
10
58.0738066789163
20
3.50466339628608
30
0
41
1
10
58.007327136048
20
3.4195579348436
30
0
41
1
10
57.9741587065419
20
3.37564263427282
30
0
41
1
10
57.9361157186538
20
3.32570864937787
30
0
41
1
10
57.9318779096494
20
3.32015360816817
30
0
41
1
10
57.9233763573971
20
3.30903471260442
30
0
41
1
10
57.9191449755179
20
3.30343269944782
30
0
41
1
10
57.910463895661
20
3.29244644455201
30
0
41
1
10
57.9059549413443
20
3.28713210970619
30
0
41
1
10
57.8961134942657
20
3.27743204236228
30
0
41
1
10
57.8907906622681
20
3.27299043332482
30
0
41
1
10
57.8742459366154
20
3.26089295473631
30
0
41
1
10
57.8623830577615
20
3.25433733572803
30
0
41
1
10
57.8434293487848
20
3.24662691486086
30
0
41
1
10
57.8369178696291
20
3.24441148574653
30
0
41
1
10
57.8235387746737
20
3.24063683064878
30
0
41
1
10
57.8166473364377
20
3.23907597925367
30
0
41
1
10
57.7957642527106
20
3.23543218985972
30
0
41
1
10
57.781492813596
20
3.23433210003879
30
0
41
1
10
57.7595474980896
20
3.23488805671295
30
0
41
1
10
57.7521414160732
20
3.23544679840339
30
0
41
1
10
57.7371255308968
20
3.23743838603883
30
0
41
1
10
57.7294853229582
20
3.23888796368456
30
0
41
1
10
57.7067212206986
20
3.24448843864124
30
0
41
1
10
57.6916240693023
20
3.24985722304567
30
0
41
1
10
57.6691552377774
20
3.26062585870926
30
0
41
1
10
57.6616498063072
20
3.26470519724526
30
0
41
1
10
57.6470050527563
20
3.27380662922295
30
0
41
1
10
57.6398598616034
20
3.27882231210813
30
0
41
1
10
57.629481407916
20
3.28723001947304
30
0
41
1
10
57.6260785816028
20
3.29018020337071
30
0
41
1
10
57.6194000169239
20
3.29641079773827
30
0
41
1
10
57.6161127593046
20
3.29970582157785
30
0
41
1
10
57.6066591757487
20
3.30992748773366
30
0
41
1
10
57.6008660819031
20
3.31726232555042
30
0
41
1
10
57.5901785500861
20
3.3328476943438
30
0
41
1
10
57.5852513252394
20
3.34107210467314
30
0
41
1
10
57.5756181022268
20
3.3576986820301
30
0
41
1
10
57.5708528677961
20
3.36604532904258
30
0
41
1
10
57.5469091121439
20
3.4076693352678
30
0
41
1
10
57.527732922234
20
3.44088069942856
30
0
41
1
10
57.4701814196329
20
3.54028429920854
30
0
41
1
10
57.431769853438
20
3.60627331724908
30
0
41
1
10
57.3552694810407
20
3.73731701493617
30
0
41
1
10
57.3171512075124
20
3.8024285969849
30
0
41
1
10
57.241181847338
20
3.93187910240238
30
0
41
1
10
57.2033017504001
20
3.99619126976376
30
0
41
1
10
57.1657908030464
20
4.06035298888938
30
0
0
SPLINE
5
112
100
AcDbEntity
8
1
62
256
6
ByLayer
370
18
48
1
60
0
100
AcDbSpline
70
4
71
3
72
8
73
4
40
0
40
0
40
0
40
0
40
1
40
1
40
1
40
1
41
1
10
57.0428778433848
20
4.06385481689699
30
0
41
1
10
56.970312854757
20
3.94977123236504
30
0
41
1
10
56.8984236804836
20
3.82992940999827
30
0
41
1
10
56.8255820714844
20
3.70665247155836
30
0
0
SPLINE
5
113
100
AcDbEntity
8
1
62
256
6
ByLayer
370
18
48
1
60
0
100
AcDbSpline
70
4
71
3
72
53
73
49
40
0
40
0
40
0
40
0
40
0.125000000000005
40
0.125000000000005
40
0.250000000000009
40
0.250000000000009
40
0.265625000000012
40
0.265625000000012
40
0.281250000000015
40
0.281250000000015
40
0.296875000000018
40
0.296875000000018
40
0.31250000000002
40
0.31250000000002
40
0.343750000000026
40
0.359375000000029
40
0.359375000000029
40
0.375000000000032
40
0.375000000000032
40
0.406250000000038
40
0.406250000000038
40
0.421875000000041
40
0.421875000000041
40
0.437500000000044
40
0.437500000000044
40
0.46875000000005
40
0.46875000000005
40
0.484375000000044
40
0.484375000000044
40
0.500000000000038
40
0.500000000000038
40
0.507812500000035
40
0.507812500000035
40
0.515625000000032
40
0.515625000000032
40
0.531250000000026
40
0.531250000000026
40
0.54687500000002
40
0.54687500000002
40
0.562500000000014
40
0.562500000000014
40
0.625000000000012
40
0.625000000000012
40
0.750000000000008
40
0.750000000000008
40
0.875000000000004
40
0.875000000000004
40
1
40
1
40
1
40
1
41
1
10
56.8255820714844
20
3.70665247155833
30
0
41
1
10
56.7924846078185
20
3.65063841521163
30
0
41
1
10
56.7592080038064
20
3.59394428947087
30
0
41
1
10
56.6926441052632
20
3.47878635632034
30
0
41
1
10
56.6594373362654
20
3.42022928758956
30
0
41
1
10
56.6213567488869
20
3.35414895065361
30
0
41
1
10
56.6171148431008
20
3.34680427913906
30
0
41
1
10
56.6086052644748
20
3.33211433928454
30
0
41
1
10
56.6043714114165
20
3.32473462659561
30
0
41
1
10
56.5956726030967
20
3.31018357376092
30
0
41
1
10
56.5911470065021
20
3.30307401389024
30
0
41
1
10
56.5812708575255
20
3.28966622986354
30
0
41
1
10
56.5759363983252
20
3.2833136148783
30
0
41
1
10
56.5593759653546
20
3.26547742745376
30
0
41
1
10
56.5415706969872
20
3.24982446908507
30
0
41
1
10
56.5220294771458
20
3.23724503290998
30
0
41
1
10
56.5086473054734
20
3.22949031668406
30
0
41
1
10
56.5017580802583
20
3.22592244342337
30
0
41
1
10
56.4808926850619
20
3.21631287428636
30
0
41
1
10
56.4666354556906
20
3.21127959468103
30
0
41
1
10
56.4447147417535
20
3.20599620822057
30
0
41
1
10
56.4373174141832
20
3.20461867217458
30
0
41
1
10
56.4223201364356
20
3.20275848801293
30
0
41
1
10
56.414693206284
20
3.20228549192166
30
0
41
1
10
56.3919746272602
20
3.20225549769168
30
0
41
1
10
56.3769072612131
20
3.20401719862858
30
0
41
1
10
56.3544814976751
20
3.20960151690085
30
0
41
1
10
56.346990595728
20
3.21198102643476
30
0
41
1
10
56.332374834124
20
3.21783673282621
30
0
41
1
10
56.3252427539165
20
3.22130506463398
30
0
41
1
10
56.3148812542799
20
3.22753485670873
30
0
41
1
10
56.3114836270395
20
3.22978296663035
30
0
41
1
10
56.3048144550617
20
3.23466285378302
30
0
41
1
10
56.3015314239816
20
3.23730712755031
30
0
41
1
10
56.2920883265701
20
3.2457037694173
30
0
41
1
10
56.2862989864272
20
3.25198669920883
30
0
41
1
10
56.2756175408409
20
3.26576183522022
30
0
41
1
10
56.2706929586209
20
3.27321729082587
30
0
41
1
10
56.2610686150576
20
3.28836689924407
30
0
41
1
10
56.2563100004772
20
3.29598432914111
30
0
41
1
10
56.2323951518824
20
3.33386976557688
30
0
41
1
10
56.2132413551173
20
3.36392452029864
30
0
41
1
10
56.1557544471351
20
3.45338061891661
30
0
41
1
10
56.1173823634932
20
3.51209844758256
30
0
41
1
10
56.0409510390705
20
3.62745311603337
30
0
41
1
10
56.0028634734633
20
3.68413997251713
30
0
41
1
10
55.9269504645153
20
3.79561602298219
30
0
41
1
10
55.8890953857357
20
3.85036720722974
30
0
41
1
10
55.8516049795261
20
3.90450958696695
30
0
0
SPLINE
5
114
100
AcDbEntity
8
1
62
256
6
ByLayer
370
18
48
1
60
0
100
AcDbSpline
70
4
71
3
72
8
73
4
40
0
40
0
40
0
40
0
40
1
40
1
40
1
40
1
41
1
10
55.7279790247041
20
3.86823213027657
30
0
41
1
10
55.7692011184276
20
3.88093162290946
30
0
41
1
10
55.810406752367
20
3.89302470704635
30
0
41
1
10
55.8516049795261
20
3.90450958696695
30
0
0
SPLINE
5
115
100
AcDbEntity
8
1
62
256
6
ByLayer
370
18
48
1
60
0
100
AcDbSpline
70
4
71
3
72
8
73
4
40
0
40
0
40
0
40
0
40
1
40
1
40
1
40
1
41
1
10
55.7279790247055
20
3.86823213026031
30
0
41
1
10
55.6555235200072
20
3.72839478851088
30
0
41
1
10
55.5837445569268
20
3.58508176292634
30
0
41
1
10
55.5110308895882
20
3.44026680514509
30
0
0
SPLINE
5
116
100
AcDbEntity
8
1
62
256
6
ByLayer
370
18
48
1
60
0
100
AcDbSpline
70
4
71
3
72
53
73
49
40
0
40
0
40
0
40
0
40
0.124999999999986
40
0.124999999999986
40
0.249999999999972
40
0.249999999999972
40
0.265624999999966
40
0.265624999999966
40
0.281249999999961
40
0.281249999999961
40
0.296874999999955
40
0.296874999999955
40
0.312499999999949
40
0.312499999999949
40
0.343749999999938
40
0.359374999999925
40
0.359374999999925
40
0.374999999999912
40
0.374999999999912
40
0.406249999999902
40
0.406249999999902
40
0.421874999999897
40
0.421874999999897
40
0.437499999999892
40
0.437499999999892
40
0.468749999999882
40
0.468749999999882
40
0.484374999999868
40
0.484374999999868
40
0.499999999999855
40
0.499999999999855
40
0.507812499999856
40
0.507812499999856
40
0.515624999999857
40
0.515624999999857
40
0.531249999999859
40
0.531249999999859
40
0.546874999999861
40
0.546874999999861
40
0.562499999999863
40
0.562499999999863
40
0.624999999999883
40
0.624999999999883
40
0.749999999999922
40
0.749999999999922
40
0.874999999999961
40
0.874999999999961
40
1
40
1
40
1
40
1
41
1
10
55.5110308895882
20
3.44026680514509
30
0
41
1
10
55.4779284171695
20
3.37434064131312
30
0
41
1
10
55.4446498923991
20
3.30813934578668
30
0
41
1
10
55.3780886723186
20
3.17489842551535
30
0
41
1
10
55.3448864707845
20
3.1077866728746
30
0
41
1
10
55.3068153356272
20
3.03242667333174
30
0
41
1
10
55.3025745411802
20
3.02405554431786
30
0
41
1
10
55.2940673159945
20
3.00732085377982
30
0
41
1
10
55.2898344278641
20
2.99893213072025
30
0
41
1
10
55.2811400905383
20
2.98231440812327
30
0
41
1
10
55.2766183228656
20
2.97413066401768
30
0
41
1
10
55.2667512304351
20
2.95836844072068
30
0
41
1
10
55.261418049621
20
2.950735316947
30
0
41
1
10
55.2448525485103
20
2.92891436384153
30
0
41
1
10
55.2270451430194
20
2.90898386592866
30
0
41
1
10
55.2075100430789
20
2.89170269216393
30
0
41
1
10
55.1941337980898
20
2.88072540463014
30
0
41
1
10
55.1872454836394
20
2.87549459962935
30
0
41
1
10
55.1663755558946
20
2.86083483005277
30
0
41
1
10
55.1521181130721
20
2.85234249768919
30
0
41
1
10
55.130202853708
20
2.84169928734062
30
0
41
1
10
55.1228083197057
20
2.83850612737206
30
0
41
1
10
55.1078191199783
20
2.83294278549357
30
0
41
1
10
55.1001926842713
20
2.83057369979818
30
0
41
1
10
55.0774669500768
20
2.82485481182698
30
0
41
1
10
55.0623988001092
20
2.82279438019222
30
0
41
1
10
55.0399780246551
20
2.82257090312876
30
0
41
1
10
55.0324894565232
20
2.8229894467965
30
0
41
1
10
55.0178661070157
20
2.82496817703324
30
0
41
1
10
55.0107313871181
20
2.82651837107323
30
0
41
1
10
55.0003675735924
20
2.82990728401131
30
0
41
1
10
54.9969694557184
20
2.83121451841049
30
0
41
1
10
54.9902998207964
20
2.83422584005839
30
0
41
1
10
54.9870143843323
20
2.83594008428327
30
0
41
1
10
54.9775577088319
20
2.84163083098582
30
0
41
1
10
54.9717606706079
20
2.84620410037064
30
0
41
1
10
54.9610684072354
20
2.85672823495364
30
0
41
1
10
54.9561409811107
20
2.86263500886238
30
0
41
1
10
54.946512519412
20
2.87472476371357
30
0
41
1
10
54.9417534085929
20
2.88081740829318
30
0
41
1
10
54.9178332848977
20
2.91100626872677
30
0
41
1
10
54.8986753141328
20
2.93476300149953
30
0
41
1
10
54.8411759002525
20
3.00491880894609
30
0
41
1
10
54.8027946648163
20
3.05022282294192
30
0
41
1
10
54.7263412362085
20
3.13783123161116
30
0
41
1
10
54.6882409502245
20
3.18017746461695
30
0
41
1
10
54.6122992143376
20
3.2620801027131
30
0
41
1
10
54.5744281310575
20
3.30159149772086
30
0
41
1
10
54.536922489303
20
3.34010753066312
30
0
0
SPLINE
5
117
100
AcDbEntity
8
1
62
256
6
ByLayer
370
18
48
1
60
0
100
AcDbSpline
70
4
71
3
72
8
73
4
40
0
40
0
40
0
40
0
40
1
40
1
40
1
40
1
41
1
10
54.4137003817016
20
3.26803991487191
30
0
41
1
10
54.454788624764
20
3.29257766560539
30
0
41
1
10
54.4958591415475
20
3.31660202324022
30
0
41
1
10
54.5369224893031
20
3.34010753066315
30
0
0
SPLINE
5
118
100
AcDbEntity
8
1
62
256
6
ByLayer
370
18
48
1
60
0
100
AcDbSpline
70
4
71
3
72
8
73
4
40
0
40
0
40
0
40
0
40
1
40
1
40
1
40
1
41
1
10
54.4137003817016
20
3.26803991487191
30
0
41
1
10
54.3411158095612
20
3.11661054531399
30
0
41
1
10
54.2692024250179
20
2.96436188285887
30
0
41
1
10
54.1963399401109
20
2.81272465823582
30
0
0
SPLINE
5
119
100
AcDbEntity
8
1
62
256
6
ByLayer
370
18
48
1
60
0
100
AcDbSpline
70
4
71
3
72
10
73
6
40
0
40
0
40
0
40
0
40
0.977994580930024
40
0.977994580930024
40
1
40
1
40
1
40
1
41
1
10
54.1963399401109
20
2.81272465823582
30
0
41
1
10
54.1684777326817
20
2.75473943014723
30
0
41
1
10
54.1404894226367
20
2.69687177852177
30
0
41
1
10
54.1118480380578
20
2.63777526499567
30
0
41
1
10
54.1112178000338
20
2.6364748397969
30
0
41
1
10
54.1105875861313
20
2.63517443456561
30
0
0
SPLINE
5
11A
100
AcDbEntity
8
1
62
256
6
ByLayer
370
18
48
1
60
0
100
AcDbSpline
70
4
71
3
72
8
73
4
40
0
40
0
40
0
40
0
40
1
40
1
40
1
40
1
41
1
10
59.7358500968275
20
-1.54699520474892
30
0
41
1
10
59.8062311001109
20
-1.63858443276919
30
0
41
1
10
59.8754960183643
20
-1.73414894788863
30
0
41
1
10
59.9455557817705
20
-1.83444600625472
30
0
0
SPLINE
5
11B
100
AcDbEntity
8
1
62
256
6
ByLayer
370
18
48
1
60
0
100
AcDbSpline
70
4
71
3
72
46
73
42
40
0
40
0
40
0
40
0
40
0.125000000000055
40
0.125000000000055
40
0.25000000000011
40
0.25000000000011
40
0.375000000000165
40
0.375000000000165
40
0.50000000000022
40
0.50000000000022
40
0.531250000000231
40
0.531250000000231
40
0.546875000000236
40
0.546875000000236
40
0.562500000000242
40
0.562500000000242
40
0.593750000000254
40
0.593750000000254
40
0.625000000000265
40
0.625000000000265
40
0.656250000000276
40
0.656250000000276
40
0.687500000000287
40
0.687500000000287
40
0.718750000000298
40
0.718750000000298
40
0.734375000000304
40
0.734375000000304
40
0.750000000000309
40
0.750000000000309
40
0.757812500000305
40
0.757812500000305
40
0.765625000000302
40
0.765625000000302
40
0.773437500000298
40
0.773437500000298
40
0.781250000000294
40
0.812500000000256
40
0.875000000000171
40
0.875000000000171
40
1
40
1
40
1
40
1
41
1
10
60.0693602638265
20
-1.94400583208105
30
0
41
1
10
60.1039185370901
20
-1.95414397203697
30
0
41
1
10
60.1387965405447
20
-1.96298801162851
30
0
41
1
10
60.2087542766828
20
-1.97752344677036
30
0
41
1
10
60.2438507449224
20
-1.98322661926545
30
0
41
1
10
60.3142967623247
20
-1.99143531291563
30
0
41
1
10
60.3496668438863
20
-1.99394021316925
30
0
41
1
10
60.4205072806556
20
-1.99561422578645
30
0
41
1
10
60.4559775630579
20
-1.99478943138956
30
0
41
1
10
60.5003317893481
20
-1.99155873103905
30
0
41
1
10
60.5090580898161
20
-1.9906254483387
30
0
41
1
10
60.5243350264538
20
-1.99172812356724
30
0
41
1
10
60.5297984104668
20
-1.99252031611397
30
0
41
1
10
60.5414557142201
20
-1.99493800968665
30
0
41
1
10
60.5476486717963
20
-1.99656530248299
30
0
41
1
10
60.566697872136
20
-2.00242208529153
30
0
41
1
10
60.5801757693335
20
-2.00762228301048
30
0
41
1
10
60.608297017584
20
-2.01999832597502
30
0
41
1
10
60.6230801191471
20
-2.02726858554465
30
0
41
1
10
60.6529482170731
20
-2.04355497718021
30
0
41
1
10
60.6680979737684
20
-2.05262022681427
30
0
41
1
10
60.6988102876568
20
-2.07285408547568
30
0
41
1
10
60.7144656921853
20
-2.084059683861
30
0
41
1
10
60.7449565204592
20
-2.10781048534921
30
0
41
1
10
60.759930499848
20
-2.12040834937051
30
0
41
1
10
60.7817686048647
20
-2.14090591025499
30
0
41
1
10
60.7887958239779
20
-2.14787938533917
30
0
41
1
10
60.8022926260074
20
-2.16208860092749
30
0
41
1
10
60.8087736389264
20
-2.16932691128727
30
0
41
1
10
60.8179730867772
20
-2.18044520882259
30
0
41
1
10
60.8209550103204
20
-2.18421154823733
30
0
41
1
10
60.8265924718949
20
-2.19169051735537
30
0
41
1
10
60.8292573854847
20
-2.19541837069804
30
0
41
1
10
60.8344155900234
20
-2.20286452377195
30
0
41
1
10
60.8369146861208
20
-2.20658341022036
30
0
41
1
10
60.8418922902898
20
-2.2140269729172
30
0
41
1
10
60.8543049426834
20
-2.23265246747843
30
0
41
1
10
60.8862532290792
20
-2.28130166268482
30
0
41
1
10
60.9153001828428
20
-2.32672048538242
30
0
41
1
10
60.9733451922709
20
-2.41827808671596
30
0
41
1
10
61.0120735810757
20
-2.48025883271825
30
0
41
1
10
61.0505187184051
20
-2.54308014817406
30
0
0
SPLINE
5
11C
100
AcDbEntity
8
1
62
256
6
ByLayer
370
18
48
1
60
0
100
AcDbSpline
70
4
71
3
72
8
73
4
40
0
40
0
40
0
40
0
40
1
40
1
40
1
40
1
41
1
10
61.0505187184051
20
-2.54308014817406
30
0
41
1
10
61.1210553966764
20
-2.65834067849627
30
0
41
1
10
61.1904639328995
20
-2.77619255730846
30
0
41
1
10
61.2606636604903
20
-2.89654567944044
30
0
0
SPLINE
5
11D
100
AcDbEntity
8
1
62
256
6
ByLayer
370
18
48
1
60
0
100
AcDbSpline
70
4
71
3
72
51
73
47
40
0
40
0
40
0
40
0
40
0.12500000000004
40
0.12500000000004
40
0.250000000000081
40
0.250000000000081
40
0.375000000000121
40
0.375000000000121
40
0.500000000000161
40
0.500000000000161
40
0.51562500000016
40
0.51562500000016
40
0.531250000000159
40
0.531250000000159
40
0.562500000000157
40
0.562500000000157
40
0.578125000000156
40
0.578125000000156
40
0.593750000000155
40
0.593750000000155
40
0.625000000000153
40
0.625000000000153
40
0.640625000000152
40
0.640625000000152
40
0.656250000000151
40
0.656250000000151
40
0.687500000000131
40
0.687500000000131
40
0.703125000000121
40
0.703125000000121
40
0.718750000000111
40
0.718750000000111
40
0.734375000000101
40
0.734375000000101
40
0.750000000000091
40
0.750000000000091
40
0.757812500000086
40
0.757812500000086
40
0.765625000000081
40
0.765625000000081
40
0.781250000000071
40
0.781250000000071
40
0.812500000000062
40
0.875000000000045
40
0.875000000000045
40
1
40
1
40
1
40
1
41
1
10
61.384313750773
20
-2.98194910266071
30
0
41
1
10
61.4191276005858
20
-2.96908785592629
30
0
41
1
10
61.4542753989818
20
-2.95495292455189
30
0
41
1
10
61.5248209795253
20
-2.9235562702699
30
0
41
1
10
61.5602111444395
20
-2.9063134532162
30
0
41
1
10
61.6312480938667
20
-2.86867696480897
30
0
41
1
10
61.6669105740674
20
-2.84827280668472
30
0
41
1
10
61.7383216731017
20
-2.80425791463512
30
0
41
1
10
61.7740829145936
20
-2.78064439547316
30
0
41
1
10
61.8143227774372
20
-2.75218193365583
30
0
41
1
10
61.8188011642373
20
-2.74900239841341
30
0
41
1
10
61.8282531396633
20
-2.74321983741655
30
0
41
1
10
61.8332664214525
20
-2.74061528434305
30
0
41
1
10
61.849283613565
20
-2.73444171252456
30
0
41
1
10
61.8611506565339
20
-2.73233968454909
30
0
41
1
10
61.8803435354379
20
-2.73154030575424
30
0
41
1
10
61.8869720438332
20
-2.73166439447169
30
0
41
1
10
61.9006353066727
20
-2.73260291943026
30
0
41
1
10
61.9076505917656
20
-2.73342006862671
30
0
41
1
10
61.9289108577745
20
-2.73681095436004
30
0
41
1
10
61.9434774149758
20
-2.74030747540891
30
0
41
1
10
61.965918489797
20
-2.7475773886847
30
0
41
1
10
61.9735366931356
20
-2.75036051039893
30
0
41
1
10
61.9888034876842
20
-2.75664317267899
30
0
41
1
10
61.9964228950606
20
-2.76012299072056
30
0
41
1
10
62.0192306905644
20
-2.77151589806866
30
0
41
1
10
62.034370123259
20
-2.78035642026799
30
0
41
1
10
62.0569295136786
20
-2.79566176461574
30
0
41
1
10
62.0644524409442
20
-2.80113179026
30
0
41
1
10
62.0793059265696
20
-2.81280659885397
30
0
41
1
10
62.0865589677379
20
-2.81895132792684
30
0
41
1
10
62.1006526890304
20
-2.8319671763231
30
0
41
1
10
62.1075000795948
20
-2.83882614770417
30
0
41
1
10
62.1207470524772
20
-2.85332899679349
30
0
41
1
10
62.1271004049619
20
-2.86091795560554
30
0
41
1
10
62.1358298387073
20
-2.8726378570191
30
0
41
1
10
62.1386113530201
20
-2.87661671843677
30
0
41
1
10
62.1439357454995
20
-2.88470892159282
30
0
41
1
10
62.1464813927107
20
-2.88882071802254
30
0
41
1
10
62.1539769288989
20
-2.90123724579132
30
0
41
1
10
62.1588494719559
20
-2.90958797147957
30
0
41
1
10
62.1735272692162
20
-2.93460946002594
30
0
41
1
10
62.2026531465385
20
-2.98479833080771
30
0
41
1
10
62.2313550113185
20
-3.03532713687375
30
0
41
1
10
62.2887188195091
20
-3.13664347656663
30
0
41
1
10
62.3270147695048
20
-3.20451208033421
30
0
41
1
10
62.36502065903
20
-3.27270592763767
30
0
0
SPLINE
5
11E
100
AcDbEntity
8
1
62
256
6
ByLayer
370
18
48
1
60
0
100
AcDbSpline
70
4
71
3
72
8
73
4
40
0
40
0
40
0
40
0
40
1
40
1
40
1
40
1
41
1
10
62.36502065903
20
-3.27270592763767
30
0
41
1
10
62.4216841954257
20
-3.37437713167776
30
0
41
1
10
62.4776147401767
20
-3.47665139087562
30
0
41
1
10
62.5338167928147
20
-3.57904818987674
30
0
0
SPLINE
5
11F
100
AcDbEntity
8
1
62
256
6
ByLayer
370
18
48
1
60
0
100
AcDbSpline
70
4
71
3
72
8
73
4
40
0
40
0
40
0
40
0
40
1
40
1
40
1
40
1
41
1
10
62.5338167928147
20
-3.57904818987674
30
0
41
1
10
62.6149033493649
20
-3.59767641586768
30
0
41
1
10
62.6965254715153
20
-3.61350597880394
30
0
41
1
10
62.778751797613
20
-3.62651419856033
30
0
0
SPLINE
5
120
100
AcDbEntity
8
1
62
256
6
ByLayer
370
18
48
1
60
0
100
AcDbSpline
70
4
71
3
72
48
73
44
40
0
40
0
40
0
40
0
40
0.24999999999992
40
0.24999999999992
40
0.374999999999885
40
0.374999999999885
40
0.437499999999868
40
0.437499999999868
40
0.453124999999866
40
0.453124999999866
40
0.468749999999865
40
0.468749999999865
40
0.484374999999864
40
0.484374999999864
40
0.499999999999862
40
0.499999999999862
40
0.53124999999986
40
0.53124999999986
40
0.546874999999859
40
0.546874999999859
40
0.562499999999857
40
0.562499999999857
40
0.593749999999855
40
0.593749999999855
40
0.609374999999864
40
0.609374999999864
40
0.624999999999872
40
0.624999999999872
40
0.656249999999889
40
0.656249999999889
40
0.687499999999906
40
0.687499999999906
40
0.703124999999914
40
0.703124999999914
40
0.718749999999922
40
0.718749999999922
40
0.734374999999931
40
0.734374999999931
40
0.749999999999939
40
0.749999999999939
40
0.874999999999969
40
0.874999999999969
40
1
40
1
40
1
40
1
41
1
10
62.7787517976128
20
-3.62651419856036
30
0
41
1
10
62.8422270533303
20
-3.5611225883074
30
0
41
1
10
62.906098161072
20
-3.49153063003365
30
0
41
1
10
63.0024654985689
20
-3.38050191673978
30
0
41
1
10
63.0346794664275
20
-3.3423833168475
30
0
41
1
10
63.0830989154037
20
-3.28346785781179
30
0
41
1
10
63.099247239405
20
-3.26354876622554
30
0
41
1
10
63.1194286704995
20
-3.2382985610831
30
0
41
1
10
63.1234539878926
20
-3.23321748067792
30
0
41
1
10
63.1315565952142
20
-3.22308363804743
30
0
41
1
10
63.1356624972742
20
-3.2180659547092
30
0
41
1
10
63.1443317415285
20
-3.20855353751557
30
0
41
1
10
63.1489272028409
20
-3.20404855248683
30
0
41
1
10
63.1586268510014
20
-3.19600262996079
30
0
41
1
10
63.163720111575
20
-3.1924190344256
30
0
41
1
10
63.1796511067771
20
-3.18284026693774
30
0
41
1
10
63.1911425978647
20
-3.17802161052265
30
0
41
1
10
63.2094062353695
20
-3.17264449377171
30
0
41
1
10
63.2156818389795
20
-3.17115957506542
30
0
41
1
10
63.2283613971605
20
-3.16881153683477
30
0
41
1
10
63.2347865202917
20
-3.1679410802424
30
0
41
1
10
63.2543043995146
20
-3.16621540963726
30
0
41
1
10
63.2676353253439
20
-3.16622695902791
30
0
41
1
10
63.2881427217618
20
-3.16824629977356
30
0
41
1
10
63.2950620869081
20
-3.16926757929176
30
0
41
1
10
63.3088188418521
20
-3.17199570652031
30
0
41
1
10
63.3156878117154
20
-3.17369633269655
30
0
41
1
10
63.3362598383243
20
-3.17976284614974
30
0
41
1
10
63.3499289092957
20
-3.18507081086113
30
0
41
1
10
63.3771266460958
20
-3.19845125734028
30
0
41
1
10
63.3907503843887
20
-3.2065926988478
30
0
41
1
10
63.410054118549
20
-3.22108538319071
30
0
41
1
10
63.4163300673702
20
-3.22631476187306
30
0
41
1
10
63.4285406720334
20
-3.23762297047742
30
0
41
1
10
63.4345065222685
20
-3.24373890150099
30
0
41
1
10
63.4456698869726
20
-3.25660598891034
30
0
41
1
10
63.4508788952229
20
-3.2634165643143
30
0
41
1
10
63.4604809209913
20
-3.27786374413753
30
0
41
1
10
63.4649144252078
20
-3.28545872581384
30
0
41
1
10
63.504850363688
20
-3.35371655023045
30
0
41
1
10
63.5392892084083
20
-3.41492283867817
30
0
41
1
10
63.6083005466554
20
-3.53670749854314
30
0
41
1
10
63.6428378558375
20
-3.5973226190963
30
0
41
1
10
63.6771290424727
20
-3.65777386516265
30
0
0
SPLINE
5
121
100
AcDbEntity
8
1
62
256
6
ByLayer
370
18
48
1
60
0
100
AcDbSpline
70
4
71
3
72
12
73
8
40
0
40
0
40
0
40
0
40
0.250000000000008
40
0.250000000000008
40
0.500000000000017
40
0.500000000000017
40
1
40
1
40
1
40
1
41
1
10
63.6771290424727
20
-3.65777386516265
30
0
41
1
10
63.7311104957613
20
-3.65322303879219
30
0
41
1
10
63.78512502356
20
-3.64753497711288
30
0
41
1
10
63.8934414048544
20
-3.63380978302845
30
0
41
1
10
63.9478060332774
20
-3.62574818975114
30
0
41
1
10
64.1114860721206
20
-3.59805411429639
30
0
41
1
10
64.2213219731617
20
-3.57493462651894
30
0
41
1
10
64.3320637891709
20
-3.54724058436042
30
0
0
SPLINE
5
122
100
AcDbEntity
8
1
62
256
6
ByLayer
370
18
48
1
60
0
100
AcDbSpline
70
4
71
3
72
45
73
41
40
0
40
0
40
0
40
0
40
0.250000000000074
40
0.250000000000074
40
0.281250000000063
40
0.281250000000063
40
0.312500000000052
40
0.312500000000052
40
0.343750000000041
40
0.343750000000041
40
0.375000000000029
40
0.375000000000029
40
0.406250000000018
40
0.406250000000018
40
0.437500000000007
40
0.437500000000007
40
0.499999999999985
40
0.499999999999985
40
0.562499999999962
40
0.562499999999962
40
0.62499999999994
40
0.62499999999994
40
0.656249999999928
40
0.656249999999928
40
0.687499999999917
40
0.687499999999917
40
0.749999999999934
40
0.749999999999934
40
0.781249999999942
40
0.781249999999942
40
0.812499999999951
40
0.812499999999951
40
0.843749999999959
40
0.843749999999959
40
0.874999999999968
40
0.874999999999968
40
0.906249999999976
40
0.906249999999976
40
0.937499999999984
40
1
40
1
40
1
40
1
41
1
10
64.3320637891709
20
-3.54724058436042
30
0
41
1
10
64.3628796392208
20
-3.49717666832748
30
0
41
1
10
64.3937425354359
20
-3.44641702759498
30
0
41
1
10
64.4284828217378
20
-3.38848011914078
30
0
41
1
10
64.4323431472887
20
-3.38203100253531
30
0
41
1
10
64.4400642054053
20
-3.3691091718045
30
0
41
1
10
64.4439053738515
20
-3.36261387929304
30
0
41
1
10
64.4518241753484
20
-3.34987233356068
30
0
41
1
10
64.4559091747486
20
-3.34363456639622
30
0
41
1
10
64.4645910523173
20
-3.33172514435532
30
0
41
1
10
64.4692008886168
20
-3.32606840225844
30
0
41
1
10
64.4790055194569
20
-3.31540402917989
30
0
41
1
10
64.4842251763223
20
-3.31035877551722
30
0
41
1
10
64.4949791348426
20
-3.30106001091565
30
0
41
1
10
64.5005214783764
20
-3.29679008622347
30
0
41
1
10
64.5175757643632
20
-3.28496156228229
30
0
41
1
10
64.5294961448762
20
-3.27833789822259
30
0
41
1
10
64.554249229073
20
-3.26721346508563
30
0
41
1
10
64.5671575049568
20
-3.26272090948868
30
0
41
1
10
64.5931522424441
20
-3.25627194114924
30
0
41
1
10
64.6063205632662
20
-3.25429336158561
30
0
41
1
10
64.626329145674
20
-3.25343817130661
30
0
41
1
10
64.6330398881093
20
-3.25349352070299
30
0
41
1
10
64.6465390388636
20
-3.25428841972541
30
0
41
1
10
64.6533062861481
20
-3.25502960169859
30
0
41
1
10
64.6733803606433
20
-3.25825600911031
30
0
41
1
10
64.6865686642264
20
-3.26171760696599
30
0
41
1
10
64.7059784660491
20
-3.26925228993321
30
0
41
1
10
64.7124129016596
20
-3.27217535277501
30
0
41
1
10
64.7249953256656
20
-3.27894592341966
30
0
41
1
10
64.7310916957132
20
-3.28275578044429
30
0
41
1
10
64.7428831507476
20
-3.29124264676347
30
0
41
1
10
64.74858029365
20
-3.2959150669397
30
0
41
1
10
64.7594978728722
20
-3.30628976114826
30
0
41
1
10
64.7647140493667
20
-3.31206210225037
30
0
41
1
10
64.7741705796083
20
-3.32447293741336
30
0
41
1
10
64.7784894816982
20
-3.33111432443289
30
0
41
1
10
64.7870899307033
20
-3.34441490067664
30
0
41
1
10
64.799937871537
20
-3.36438858102
30
0
41
1
10
64.812661872927
20
-3.38439409291792
30
0
41
1
10
64.8211081097793
20
-3.39772547877436
30
0
0
SPLINE
5
123
100
AcDbEntity
8
1
62
256
6
ByLayer
370
18
48
1
60
0
100
AcDbSpline
70
4
71
3
72
12
73
8
40
0
40
0
40
0
40
0
40
0.499999999999987
40
0.499999999999987
40
0.749999999999993
40
0.749999999999993
40
1
40
1
40
1
40
1
41
1
10
64.8211081097793
20
-3.39772547877433
30
0
41
1
10
64.9662353465173
20
-3.34558278841993
30
0
41
1
10
65.1116724239108
20
-3.2867107650363
30
0
41
1
10
65.3306843739072
20
-3.18887326482764
30
0
41
1
10
65.4038258068609
20
-3.15466094628383
30
0
41
1
10
65.5511393429673
20
-3.08317978735971
30
0
41
1
10
65.6252631394927
20
-3.04591177939713
30
0
41
1
10
65.6999999185564
20
-3.00719790875428
30
0
0
SPLINE
5
124
100
AcDbEntity
8
1
62
256
6
ByLayer
370
18
48
1
60
0
100
AcDbSpline
70
4
71
3
72
10
73
6
40
0
40
0
40
0
40
0
40
0.5
40
0.5
40
1
40
1
40
1
40
1
41
1
10
65.6999999185564
20
-3.00719790875425
30
0
41
1
10
65.7481505014164
20
-2.94738325328345
30
0
41
1
10
65.797159776937
20
-2.88693687078222
30
0
41
1
10
65.8971635788974
20
-2.76522664528525
30
0
41
1
10
65.9480967485344
20
-2.70404975083764
30
0
41
1
10
66.0000000000003
20
-2.6429465528862
30
0
0
SPLINE
5
125
100
AcDbEntity
8
1
62
256
6
ByLayer
370
18
48
1
60
0
100
AcDbSpline
70
4
71
3
72
29
73
25
40
0
40
0
40
0
40
0
40
0.125
40
0.125
40
0.15625
40
0.15625
40
0.1875
40
0.25
40
0.25
40
0.375
40
0.375
40
0.40625
40
0.40625
40
0.4375
40
0.4375
40
0.5
40
0.5
40
0.5625
40
0.5625
40
0.625
40
0.75
40
0.875
40
0.875
40
1
40
1
40
1
40
1
41
1
10
66
20
-2.6429465528858
30
0
41
1
10
66
20
-2.56999354658368
30
0
41
1
10
66
20
-2.49924347892369
30
0
41
1
10
66
20
-2.41382161801795
30
0
41
1
10
66
20
-2.39685744067884
30
0
41
1
10
66
20
-2.36364089453971
30
0
41
1
10
66
20
-2.3147415642207
30
0
41
1
10
66
20
-2.26855417150955
30
0
41
1
10
66
20
-2.17974804360787
30
0
41
1
10
66
20
-2.12527385923701
30
0
41
1
10
66
20
-2.06298320508142
30
0
41
1
10
66
20
-2.0508284177179
30
0
41
1
10
66
20
-2.0270572708844
30
0
41
1
10
66
20
-2.0153395429592
30
0
41
1
10
66
20
-1.98043497979199
30
0
41
1
10
66
20
-1.95765330055707
30
0
41
1
10
66
20
-1.91302972962524
30
0
41
1
10
66
20
-1.89117499884844
30
0
41
1
10
66
20
-1.84863120084324
30
0
41
1
10
66
20
-1.78649921567793
30
0
41
1
10
65.9999999999999
20
-1.69126868230006
30
0
41
1
10
66
20
-1.62393651192352
30
0
41
1
10
66
20
-1.5611053634193
30
0
41
1
10
66
20
-1.53214392418005
30
0
41
1
10
66
20
-1.50560807042169
30
0
0
SPLINE
5
126
100
AcDbEntity
8
1
62
256
6
ByLayer
370
18
48
1
60
0
100
AcDbSpline
70
4
71
3
72
10
73
6
40
0
40
0
40
0
40
0
40
0.5
40
0.5
40
1
40
1
40
1
40
1
41
1
10
66
20
-1.61294672778598
30
0
41
1
10
65.9507255111969
20
-1.61310360863348
30
0
41
1
10
65.901077254231
20
-1.61354776913811
30
0
41
1
10
65.8010690802331
20
-1.61531599077983
30
0
41
1
10
65.7507252067546
20
-1.61659236903225
30
0
41
1
10
65.7000000304872
20
-1.61866567582268
30
0
0
SPLINE
5
127
100
AcDbEntity
8
1
62
256
6
ByLayer
370
18
48
1
60
0
100
AcDbSpline
70
4
71
3
72
14
73
10
40
0
40
0
40
0
40
0
40
0.125
40
0.125
40
0.25
40
0.25
40
0.5
40
0.5
40
1
40
1
40
1
40
1
41
1
10
65.7000000304871
20
-1.61866567582268
30
0
41
1
10
65.6526500201271
20
-1.59459399740362
30
0
41
1
10
65.605393497578
20
-1.57010185032402
30
0
41
1
10
65.5112347483593
20
-1.52007282770512
30
0
41
1
10
65.4643236038557
20
-1.49454612614525
30
0
41
1
10
65.3240217520591
20
-1.4165117995949
30
0
41
1
10
65.2310861589053
20
-1.36252360236628
30
0
41
1
10
64.9542494699488
20
-1.19431873029995
30
0
41
1
10
64.772121430116
20
-1.07411184573269
30
0
41
1
10
64.5914866629105
20
-0.946605605132675
30
0
0
SPLINE
5
128
100
AcDbEntity
8
1
62
256
6
ByLayer
370
18
48
1
60
0
100
AcDbSpline
70
4
71
3
72
8
73
4
40
0
40
0
40
0
40
0
40
1
40
1
40
1
40
1
41
1
10
62.4261502695839
20
0.915352343511671
30
0
41
1
10
62.4222685518015
20
0.919151774315196
30
0
41
1
10
62.4183873798815
20
0.92295227052017
30
0
41
1
10
62.4145067462872
20
0.926753824536007
30
0
0
SPLINE
5
129
100
AcDbEntity
8
1
62
256
6
ByLayer
370
18
48
1
60
0
100
AcDbSpline
70
4
71
3
72
22
73
18
40
0
40
0
40
0
40
0
40
0.0284638758704135
40
0.0284638758704135
40
0.24549264487739
40
0.24549264487739
40
0.462521413884367
40
0.462521413884367
40
0.571035798387855
40
0.571035798387855
40
0.679550182891344
40
0.679550182891344
40
0.788064567394832
40
0.788064567394832
40
0.89657895189832
40
0.89657895189832
40
1
40
1
40
1
40
1
41
1
10
39.4984263203609
20
-1.14505971880084
30
0
41
1
10
39.4826114609272
20
-1.15305872552366
30
0
41
1
10
39.4669057882819
20
-1.16147276818833
30
0
41
1
10
39.3327571087608
20
-1.23748042408269
30
0
41
1
10
39.220230920272
20
-1.3287927180271
30
0
41
1
10
39.0117475033946
20
-1.55738407406886
30
0
41
1
10
38.9197658546777
20
-1.69005343504327
30
0
41
1
10
38.7973612793387
20
-1.9123884898726
30
0
41
1
10
38.7596017265528
20
-1.98956549663802
30
0
41
1
10
38.6903997572359
20
-2.14741012796725
30
0
41
1
10
38.6597423246351
20
-2.22905166672984
30
0
41
1
10
38.6096958518199
20
-2.4001047121435
30
0
41
1
10
38.5895633068553
20
-2.48999776263312
30
0
41
1
10
38.5597051081557
20
-2.66948801868398
30
0
41
1
10
38.5497672517684
20
-2.75954735957816
30
0
41
1
10
38.5388603319264
20
-2.93597417515889
30
0
41
1
10
38.5375171921446
20
-3.02271037471968
30
0
41
1
10
38.5398870602868
20
-3.10866403975382
30
0
0
SPLINE
5
12A
100
AcDbEntity
8
1
62
256
6
ByLayer
370
18
48
1
60
0
100
AcDbSpline
70
4
71
3
72
12
73
8
40
0
40
0
40
0
40
0
40
0.0788420059221806
40
0.0788420059221806
40
0.385894670614788
40
0.385894670614788
40
1
40
1
40
1
40
1
41
1
10
55.282444681445
20
-4.0642082042248
30
0
41
1
10
55.2815597952767
20
-4.06420949646847
30
0
41
1
10
55.2806756143278
20
-4.06408999198408
30
0
41
1
10
55.276353951325
20
-4.06291684103857
30
0
41
1
10
55.2729288318607
20
-4.06016296094697
30
0
41
1
10
55.2626871525685
20
-4.04654069990249
30
0
41
1
10
55.2559053599652
20
-4.03032558862233
30
0
41
1
10
55.249136570631
20
-4.00706911589086
30
0
0
SPLINE
5
12B
100
AcDbEntity
8
1
62
256
6
ByLayer
370
18
48
1
60
0
100
AcDbSpline
70
4
71
3
72
10
73
6
40
0
40
0
40
0
40
0
40
0.519373888552338
40
0.519373888552338
40
1
40
1
40
1
40
1
41
1
10
55.1259221502328
20
-3.98464716341635
30
0
41
1
10
55.132565155622
20
-4.01225047430722
30
0
41
1
10
55.139123406551
20
-4.0325885719999
30
0
41
1
10
55.1519235961064
20
-4.05805541466273
30
0
41
1
10
55.1581853772664
20
-4.06420539905508
30
0
41
1
10
55.1645443428979
20
-4.06420860134443
30
0
0
SPLINE
5
12C
100
AcDbEntity
8
1
62
256
6
ByLayer
370
18
48
1
60
0
100
AcDbSpline
70
4
71
3
72
16
73
12
40
0
40
0
40
0
40
0
40
0.0843904281395097
40
0.0843904281395097
40
0.389593618759673
40
0.389593618759673
40
0.694796809379836
40
0.694796809379836
40
0.847398404689918
40
0.847398404689918
40
1
40
1
40
1
40
1
41
1
10
58.2905304592988
20
4.06421080233321
30
0
41
1
10
58.2924708889636
20
4.06421088423267
30
0
41
1
10
58.2944034531048
20
4.06366045740509
30
0
41
1
10
58.3032831551373
20
4.05860285682579
30
0
41
1
10
58.3101193469234
20
4.04750944161748
30
0
41
1
10
58.3235902602852
20
4.01110279412973
30
0
41
1
10
58.3302229821576
20
3.98579035745277
30
0
41
1
10
58.3401952504834
20
3.93684799611842
30
0
41
1
10
58.3435317337002
20
3.91865260824227
30
0
41
1
10
58.3501948189181
20
3.87898099463899
30
0
41
1
10
58.35353389675
20
3.85747272888062
30
0
41
1
10
58.3568894439764
20
3.8343221636591
30
0
0
SPLINE
5
12D
100
AcDbEntity
8
1
62
256
6
ByLayer
370
18
48
1
60
0
100
AcDbSpline
70
4
71
3
72
23
73
19
40
0
40
0
40
0
40
0
40
0.162367759023982
40
0.162367759023982
40
0.214719774084983
40
0.214719774084983
40
0.267071789145984
40
0.267071789145984
40
0.371775819267986
40
0.371775819267986
40
0.58118387951199
40
0.790591939755994
40
0.790591939755994
40
0.895295969877996
40
0.895295969877996
40
0.947647984938998
40
0.947647984938998
40
1
40
1
40
1
40
1
41
1
10
54.0332243437963
20
-4.06421006801472
30
0
41
1
10
54.0279387087215
20
-4.06422412518066
30
0
41
1
10
54.0225853598832
20
-4.05993945419328
30
0
41
1
10
54.0153648964877
20
-4.04848966778744
30
0
41
1
10
54.0135954108656
20
-4.04524221087618
30
0
41
1
10
54.0100424594149
20
-4.03782585070567
30
0
41
1
10
54.008256410197
20
-4.03364992840656
30
0
41
1
10
54.0029038645052
20
-4.01977937703558
30
0
41
1
10
53.9993465574146
20
-4.00875781716886
30
0
41
1
10
53.9887387034257
20
-3.97048060702173
30
0
41
1
10
53.9747752233447
20
-3.90557159615042
30
0
41
1
10
53.9612589140919
20
-3.81340385646683
30
0
41
1
10
53.9512077092507
20
-3.73391368742571
30
0
41
1
10
53.9478704687371
20
-3.70568623184633
30
0
41
1
10
53.942862838518
20
-3.66069952555506
30
0
41
1
10
53.9411912756854
20
-3.64524391900116
30
0
41
1
10
53.9378521805081
20
-3.61352922677509
30
0
41
1
10
53.9361873252123
20
-3.59729678098375
30
0
41
1
10
53.9345245378009
20
-3.58069370508244
30
0
0
SPLINE
5
12E
100
AcDbEntity
8
1
62
256
6
ByLayer
370
18
48
1
60
0
100
AcDbSpline
70
4
71
3
72
26
73
22
40
0
40
0
40
0
40
0
40
0.197398645244438
40
0.197398645244438
40
0.246748306555548
40
0.246748306555548
40
0.296097967866657
40
0.296097967866657
40
0.394797290488878
40
0.394797290488878
40
0.592195935733319
40
0.592195935733319
40
0.78959458097776
40
0.78959458097776
40
0.888293903599981
40
0.888293903599981
40
0.937643564911091
40
0.937643564911091
40
0.986993226222201
40
0.986993226222201
40
1
40
1
40
1
40
1
41
1
10
53.8111882663266
20
-3.52071426089722
30
0
41
1
10
53.8180716707658
20
-3.59022312999858
30
0
41
1
10
53.8249395724918
20
-3.6536529230186
30
0
41
1
10
53.833532632877
20
-3.72515540547937
30
0
41
1
10
53.8352517478431
20
-3.73906567035851
30
0
41
1
10
53.8386920985218
20
-3.766096981825
30
0
41
1
10
53.840415433464
20
-3.77923272979962
30
0
41
1
10
53.8455627966111
20
-3.8172397645279
30
0
41
1
10
53.8489708191889
20
-3.84076855174223
30
0
41
1
10
53.8591443116556
20
-3.90603622865751
30
0
41
1
10
53.865857980805
20
-3.94247021808246
30
0
41
1
10
53.8792855081486
20
-4.00141176712276
30
0
41
1
10
53.8859961851424
20
-4.02391932094
30
0
41
1
10
53.8961543174421
20
-4.04707491136477
30
0
41
1
10
53.8995561924015
20
-4.05302237655582
30
0
41
1
10
53.9046996808385
20
-4.05923405854381
30
0
41
1
10
53.9064235109286
20
-4.06085391434962
30
0
41
1
10
53.9098716105727
20
-4.06316938051103
30
0
41
1
10
53.9115964469564
20
-4.06386727976175
30
0
41
1
10
53.9137789205362
20
-4.06417471717947
30
0
41
1
10
53.9142344538515
20
-4.06420734750458
30
0
41
1
10
53.9146902674521
20
-4.06420853260238
30
0
0
SPLINE
5
12F
100
AcDbEntity
8
1
62
256
6
ByLayer
370
18
48
1
60
0
100
AcDbSpline
70
4
71
3
72
18
73
14
40
0
40
0
40
0
40
0
40
0.280230341884878
40
0.280230341884878
40
0.420345512827317
40
0.420345512827317
40
0.490403098298536
40
0.490403098298536
40
0.560460683769755
40
0.560460683769755
40
0.840691025654629
40
0.840691025654629
40
1
40
1
40
1
40
1
41
1
10
58.4807360895965
20
3.79129706809741
30
0
41
1
10
58.4739159095563
20
3.84148824019942
30
0
41
1
10
58.4671437438875
20
3.88495854377621
30
0
41
1
10
58.4570019708984
20
3.93998936876341
30
0
41
1
10
58.4536223751977
20
3.95663386817896
30
0
41
1
10
58.4485280681435
20
3.97900904381172
30
0
41
1
10
58.4468257403601
20
3.98603528456519
30
0
41
1
10
58.4434102778365
20
3.9992135500772
30
0
41
1
10
58.4416962280543
20
4.00536714291414
30
0
41
1
10
58.433144193673
20
4.03376758718977
30
0
41
1
10
58.4263188675809
20
4.04909146155501
30
0
41
1
10
58.4155887561519
20
4.06188654044263
30
0
41
1
10
58.4116951955585
20
4.06420764480148
30
0
41
1
10
58.4077957777181
20
4.06421174620721
30
0
0
SPLINE
5
130
100
AcDbEntity
8
1
62
256
6
ByLayer
370
13
48
1
60
0
100
AcDbSpline
70
4
71
3
72
9
73
5
40
0
40
0
40
0
40
0
40
0.280500169988554
40
1
40
1
40
1
40
1
41
1
10
53.6947369182625
20
-3.69908590147128
30
0
41
1
10
53.6860737862761
20
-3.68426533735635
30
0
41
1
10
53.6551481755301
20
-3.59357527783635
30
0
41
1
10
53.6240338937607
20
-3.36998622494593
30
0
41
1
10
53.601277758437
20
-3.14447061840963
30
0
0
SPLINE
5
131
100
AcDbEntity
8
1
62
256
6
ByLayer
370
18
48
1
60
0
100
AcDbSpline
70
4
71
3
72
24
73
20
40
0
40
0
40
0
40
0
40
0.0746240993045731
40
0.206820656546778
40
0.206820656546778
40
0.27291893516788
40
0.27291893516788
40
0.339017213788982
40
0.339017213788982
40
0.471213771031186
40
0.60341032827339
40
0.60341032827339
40
0.735606885515594
40
0.735606885515594
40
0.801705164136696
40
0.801705164136696
40
0.867803442757797
40
0.867803442757797
40
1
40
1
40
1
40
1
41
1
10
53.0121679869972
20
-3.66888546254069
30
0
41
1
10
53.0095057179295
20
-3.66735772844106
30
0
41
1
10
53.0020874056225
20
-3.65821111333366
30
0
41
1
10
52.994581685925
20
-3.63550834970201
30
0
41
1
10
52.9873339960769
20
-3.60525350943556
30
0
41
1
10
52.9849088721805
20
-3.59374915196059
30
0
41
1
10
52.9800398244064
20
-3.56785179943313
30
0
41
1
10
52.9776150855594
20
-3.55356243066066
30
0
41
1
10
52.9703668009866
20
-3.50675463828318
30
0
41
1
10
52.9607737855129
20
-3.43385789477782
30
0
41
1
10
52.9512611286874
20
-3.3403892067432
30
0
41
1
10
52.9417364638554
20
-3.2365375891246
30
0
41
1
10
52.93696805156
20
-3.17942139663768
30
0
41
1
10
52.9297531131942
20
-3.08565721953193
30
0
41
1
10
52.9273551054806
20
-3.05327820655805
30
0
41
1
10
52.9225711109076
20
-2.98641545377748
30
0
41
1
10
52.9201838460175
20
-2.95191515723465
30
0
41
1
10
52.9130223487363
20
-2.84524798156122
30
0
41
1
10
52.90824798099
20
-2.76992193817253
30
0
41
1
10
52.9034405605908
20
-2.69040038116287
30
0
0
SPLINE
5
132
100
AcDbEntity
8
1
62
256
6
ByLayer
370
18
48
1
60
0
100
AcDbSpline
70
4
71
3
72
27
73
23
40
0
40
0
40
0
40
0
40
0.0645465663571095
40
0.0645465663571095
40
0.103523792758897
40
0.103523792758897
40
0.142501019160684
40
0.220455471964258
40
0.220455471964258
40
0.376364377571407
40
0.376364377571407
40
0.532273283178556
40
0.532273283178556
40
0.571250509580343
40
0.571250509580343
40
0.61022773598213
40
0.61022773598213
40
0.688182188785704
40
0.688182188785704
40
0.844091094392852
40
0.844091094392852
40
1
40
1
40
1
40
1
41
1
10
59.5399446361335
20
4.06421180108055
30
0
41
1
10
59.5427780995118
20
4.06419634806261
30
0
41
1
10
59.5456238145193
20
4.06293591212619
30
0
41
1
10
59.5502145423626
20
4.05889082185095
30
0
41
1
10
59.5519507425315
20
4.05690292602281
30
0
41
1
10
59.5554169594292
20
4.0520239591801
30
0
41
1
10
59.5606129673076
20
4.043347813678
30
0
41
1
10
59.5658038646231
20
4.03064708126735
30
0
41
1
10
59.5761827867217
20
3.99996570806093
30
0
41
1
10
59.5831022921996
20
3.97248540809488
30
0
41
1
10
59.5968731980642
20
3.90358564328932
30
0
41
1
10
59.603715536165
20
3.86216651301712
30
0
41
1
10
59.6122770406062
20
3.80147186485223
30
0
41
1
10
59.6139902930847
20
3.78888577090825
30
0
41
1
10
59.6174222402259
20
3.76280937185297
30
0
41
1
10
59.6191432382783
20
3.74929973419108
30
0
41
1
10
59.6242938744392
20
3.70761850920783
30
0
41
1
10
59.6277172834216
20
3.67825982597955
30
0
41
1
10
59.6380052437991
20
3.58556722768068
30
0
41
1
10
59.6448430684061
20
3.51762802390212
30
0
41
1
10
59.6583181273522
20
3.36966033145126
30
0
41
1
10
59.6649563739053
20
3.28963144927013
30
0
41
1
10
59.6716775579822
20
3.20347046260093
30
0
0
SPLINE
5
133
100
AcDbEntity
8
1
62
256
6
ByLayer
370
18
48
1
60
0
100
AcDbSpline
70
4
71
3
72
28
73
24
40
0
40
0
40
0
40
0
40
0.032331999983303
40
0.032331999983303
40
0.170570285699974
40
0.170570285699974
40
0.308808571416645
40
0.308808571416645
40
0.37792771427498
40
0.37792771427498
40
0.412487285704148
40
0.412487285704148
40
0.447046857133316
40
0.447046857133316
40
0.585285142849987
40
0.585285142849987
40
0.723523428566658
40
0.723523428566658
40
0.861761714283329
40
0.861761714283329
40
0.930880857141665
40
0.930880857141665
40
1
40
1
40
1
40
1
41
1
10
61.5327574558282
20
-4.06420833004299
30
0
41
1
10
61.531162695999
20
-4.06420941056007
30
0
41
1
10
61.5295702571199
20
-4.0638089205257
30
0
41
1
10
61.5211760061024
20
-4.05960085007254
30
0
41
1
10
61.5143962117168
20
-4.04894862172449
30
0
41
1
10
61.5007242939801
20
-4.01354285884852
30
0
41
1
10
61.4938155690856
20
-3.98878881433089
30
0
41
1
10
61.4833991498396
20
-3.94102571569604
30
0
41
1
10
61.479918877277
20
-3.92332919388431
30
0
41
1
10
61.4746902100689
20
-3.89408190235886
30
0
41
1
10
61.47294589886
20
-3.88388215622172
30
0
41
1
10
61.4694545518072
20
-3.86257194423638
30
0
41
1
10
61.4677059752437
20
-3.85145122768844
30
0
41
1
10
61.4589728326435
20
-3.79365614338656
30
0
41
1
10
61.4520889091584
20
-3.74089498056631
30
0
41
1
10
61.4384601433131
20
-3.62277732189733
30
0
41
1
10
61.4317146312166
20
-3.55741948845687
30
0
41
1
10
61.4182457897331
20
-3.41414954689492
30
0
41
1
10
61.4115219159756
20
-3.3362382784953
30
0
41
1
10
61.4013415021741
20
-3.20968685719848
30
0
41
1
10
61.3979249766374
20
-3.16578576817594
30
0
41
1
10
61.3911169732316
20
-3.07570583711038
30
0
41
1
10
61.3877174297989
20
-3.02943280216428
30
0
41
1
10
61.384313750773
20
-2.98194910266065
30
0
0
SPLINE
5
134
100
AcDbEntity
8
1
62
256
6
ByLayer
370
18
48
1
60
0
100
AcDbSpline
70
4
71
3
72
28
73
24
40
0
40
0
40
0
40
0
40
0.132852839345953
40
0.132852839345953
40
0.19927925901893
40
0.232492468855418
40
0.232492468855418
40
0.265705678691906
40
0.265705678691906
40
0.398558518037859
40
0.398558518037859
40
0.531411357383812
40
0.531411357383812
40
0.664264196729765
40
0.664264196729765
40
0.697477406566254
40
0.697477406566254
40
0.730690616402742
40
0.79711703607572
40
0.79711703607572
40
0.929969875421674
40
0.929969875421674
40
1
40
1
40
1
40
1
41
1
10
61.2606636604903
20
-2.89654567944044
30
0
41
1
10
61.267478886049
20
-2.99431676331835
30
0
41
1
10
61.2742273809845
20
-3.08688443207262
30
0
41
1
10
61.2843656752015
20
-3.21785452477937
30
0
41
1
10
61.2894392606322
20
-3.28136537189874
30
0
41
1
10
61.2945438949789
20
-3.34186431883842
30
0
41
1
10
61.2979566031973
20
-3.38151933236759
30
0
41
1
10
61.2996684738661
20
-3.40101466780942
30
0
41
1
10
61.3082080112354
20
-3.4962258086897
30
0
41
1
10
61.315018911524
20
-3.56563014701351
30
0
41
1
10
61.3287153790897
20
-3.69132670629691
30
0
41
1
10
61.3356018278269
20
-3.74761789136406
30
0
41
1
10
61.3494713807299
20
-3.84707848769187
30
0
41
1
10
61.3564563758315
20
-3.89024915491316
30
0
41
1
10
61.3651768109103
20
-3.93574085115
30
0
41
1
10
61.3669219759738
20
-3.94442063423728
30
0
41
1
10
61.3703916716718
20
-3.96082997444063
30
0
41
1
10
61.3755722240028
20
-3.98405559029243
30
0
41
1
10
61.3806860606494
20
-4.00316503859469
30
0
41
1
10
61.3908605794779
20
-4.03598240597114
30
0
41
1
10
61.3975735715478
20
-4.05067245813177
30
0
41
1
10
61.4079497777219
20
-4.0622141248725
30
0
41
1
10
61.4115416852558
20
-4.06421652792667
30
0
41
1
10
61.4151379380309
20
-4.06421203250707
30
0
0
SPLINE
5
135
100
AcDbEntity
8
1
62
256
6
ByLayer
370
18
48
1
60
0
100
AcDbSpline
70
4
71
3
72
60
73
56
40
0
40
0
40
0
40
0
40
0.056802046437717
40
0.056802046437717
40
0.113604092875434
40
0.113604092875434
40
0.227208185750868
40
0.227208185750868
40
0.340812278626302
40
0.340812278626302
40
0.355012790235735
40
0.355012790235735
40
0.369213301845168
40
0.369213301845168
40
0.397614325064027
40
0.397614325064027
40
0.454416371501751
40
0.454416371501751
40
0.48281739472061
40
0.48281739472061
40
0.511218417939468
40
0.539619441158334
40
0.539619441158334
40
0.568020464377201
40
0.568020464377201
40
0.596421487596068
40
0.596421487596068
40
0.624822510814934
40
0.624822510814934
40
0.681624557252667
40
0.681624557252667
40
0.7384266036904
40
0.7384266036904
40
0.795228650128134
40
0.795228650128134
40
0.823629673347002
40
0.823629673347002
40
0.85203069656587
40
0.85203069656587
40
0.880431719784739
40
0.880431719784739
40
0.894632231394173
40
0.894632231394173
40
0.908832743003608
40
0.908832743003608
40
0.937233766222476
40
0.937233766222476
40
0.965634789441345
40
0.965634789441345
40
0.97273504524606
40
0.97273504524606
40
0.979835301050775
40
0.994035812660205
40
0.994035812660205
40
1
40
1
40
1
40
1
41
1
10
40.8320498780276
20
3.08858961879687
30
0
41
1
10
40.7587365508333
20
3.09626407078065
30
0
41
1
10
40.6848351585817
20
3.1020349774833
30
0
41
1
10
40.5353722246548
20
3.11016266985158
30
0
41
1
10
40.4598247500454
20
3.11252336595507
30
0
41
1
10
40.2302220584533
20
3.1152261335111
30
0
41
1
10
40.0731727698101
20
3.1111614771429
30
0
41
1
10
39.7483198245296
20
3.0958980624728
30
0
41
1
10
39.5805255885224
20
3.08469827550664
30
0
41
1
10
39.3837753044416
20
3.07118715311569
30
0
41
1
10
39.3618040454363
20
3.06967348390955
30
0
41
1
10
39.3176350375761
20
3.06663241577331
30
0
41
1
10
39.2954129391578
20
3.06510335228151
30
0
41
1
10
39.2286240859757
20
3.0605282615181
30
0
41
1
10
39.1839255346128
20
3.05749369596035
30
0
41
1
10
39.0492905909619
20
3.04857544350438
30
0
41
1
10
38.9588179320342
20
3.04287632523759
30
0
41
1
10
38.8219041248642
20
3.03525701080079
30
0
41
1
10
38.7760722502187
20
3.03286367321081
30
0
41
1
10
38.6839319000642
20
3.02853114531513
30
0
41
1
10
38.5913156023527
20
3.02465420312072
30
0
41
1
10
38.4978297417029
20
3.02169821683759
30
0
41
1
10
38.4039520560003
20
3.01918726072648
30
0
41
1
10
38.3568104636749
20
3.01816252725902
30
0
41
1
10
38.2622218867728
20
3.01647478744468
30
0
41
1
10
38.21477094179
20
3.01581619111874
30
0
41
1
10
38.1195341168134
20
3.01490781482121
30
0
41
1
10
38.071842754898
20
3.01465974604352
30
0
41
1
10
37.9292592824983
20
3.01457233736406
30
0
41
1
10
37.834578945351
20
3.01538517273002
30
0
41
1
10
37.6460668267854
20
3.01890757431389
30
0
41
1
10
37.5522329671159
20
3.02161589035976
30
0
41
1
10
37.3655688139985
20
3.0290124104576
30
0
41
1
10
37.2727265738268
20
3.03368389561623
30
0
41
1
10
37.1344303720667
20
3.04218313010028
30
0
41
1
10
37.0888411432066
20
3.04524043167592
30
0
41
1
10
36.9989692917152
20
3.05174513252842
30
0
41
1
10
36.9546611578744
20
3.05519439927301
30
0
41
1
10
36.8674921084171
20
3.06241319087931
30
0
41
1
10
36.8246297726349
20
3.06618339087166
30
0
41
1
10
36.761628564278
20
3.0719951563396
30
0
41
1
10
36.7409116967238
20
3.07395205372984
30
0
41
1
10
36.7003487189121
20
3.07785799889137
30
0
41
1
10
36.68046365052
20
3.07981064592658
30
0
41
1
10
36.6220784646885
20
3.08562674868847
30
0
41
1
10
36.5848391007875
20
3.08945112889251
30
0
41
1
10
36.5142838181457
20
3.09671116356128
30
0
41
1
10
36.4809680993978
20
3.10015002900431
30
0
41
1
10
36.4423007981862
20
3.10394987043739
30
0
41
1
10
36.4346992451056
20
3.10468612267061
30
0
41
1
10
36.4199046550646
20
3.10609058593317
30
0
41
1
10
36.3983564746564
20
3.10809240083117
30
0
41
1
10
36.3787583288563
20
3.10975100451316
30
0
41
1
10
36.3614644998122
20
3.1110655499692
30
0
41
1
10
36.3565056489331
20
3.11142274079413
30
0
41
1
10
36.3517049258499
20
3.11174598594479
30
0
0
SPLINE
5
136
100
AcDbEntity
8
1
62
256
6
ByLayer
370
18
48
1
60
0
100
AcDbSpline
70
4
71
3
72
15
73
11
40
0
40
0
40
0
40
0
40
0.0858020631176164
40
0.0858020631176164
40
0.213484639952073
40
0.468849793621
40
0.468849793621
40
0.979580100958876
40
0.979580100958876
40
1
40
1
40
1
40
1
41
1
10
36.3002182358229
20
3.11384991343527
30
0
41
1
10
36.297455787888
20
3.11385066405978
30
0
41
1
10
36.2948037678216
20
3.11382340169314
30
0
41
1
10
36.288513332089
20
3.11368392779585
30
0
41
1
10
36.2780182484623
20
3.11324326793832
30
0
41
1
10
36.2698368089369
20
3.11221811509478
30
0
41
1
10
36.2564232838869
20
3.1093535893277
30
0
41
1
10
36.2514067270063
20
3.10635848276831
30
0
41
1
10
36.2499972956527
20
3.10201759992796
30
0
41
1
10
36.2499490344956
20
3.10184894745245
30
0
41
1
10
36.2499067703967
20
3.10167853878357
30
0
0
SPLINE
5
137
100
AcDbEntity
8
1
62
256
6
ByLayer
370
18
48
1
60
0
100
AcDbSpline
70
4
71
3
72
32
73
28
40
0
40
0
40
0
40
0
40
0.024270743896007
40
0.024270743896007
40
0.0649261295670065
40
0.0649261295670065
40
0.105581515238006
40
0.105581515238006
40
0.146236900909006
40
0.146236900909006
40
0.166564593744506
40
0.166564593744506
40
0.186892286580006
40
0.186892286580006
40
0.268203057922005
40
0.268203057922005
40
0.349513829264004
40
0.349513829264004
40
0.430824600606004
40
0.430824600606004
40
0.512135371948004
40
0.512135371948004
40
0.674756914632002
40
0.674756914632002
40
0.837378457316001
40
0.837378457316001
40
1
40
1
40
1
40
1
41
1
10
36.2677127999167
20
3.07848409243897
30
0
41
1
10
36.2734545774523
20
3.07428679642001
30
0
41
1
10
36.2804979321224
20
3.06974416947941
30
0
41
1
10
36.3025501419173
20
3.05669948229121
30
0
41
1
10
36.3194381476554
20
3.04779609221629
30
0
41
1
10
36.357330002179
20
3.02865898372707
30
0
41
1
10
36.3783575762761
20
3.01842173409469
30
0
41
1
10
36.4235608571301
20
2.99670439268701
30
0
41
1
10
36.4477456397855
20
2.98522393168895
30
0
41
1
10
36.4859286744315
20
2.96712151894329
30
0
41
1
10
36.4989554483164
20
2.96095005685123
30
0
41
1
10
36.5254340268956
20
2.94839425209886
30
0
41
1
10
36.5389034918695
20
2.94200237383356
30
0
41
1
10
36.6072565296168
20
2.90948524068753
30
0
41
1
10
36.6651064515731
20
2.88169627750074
30
0
41
1
10
36.7849988448894
20
2.82283729840751
30
0
41
1
10
36.847064016688
20
2.79176386864305
30
0
41
1
10
36.9742070357168
20
2.72643764616916
30
0
41
1
10
37.0393164052218
20
2.69217089122896
30
0
41
1
10
37.1717324694576
20
2.62053002256601
30
0
41
1
10
37.238580478032
20
2.58340430405846
30
0
41
1
10
37.4403809208409
20
2.46814276284727
30
0
41
1
10
37.5765506877194
20
2.38613348655593
30
0
41
1
10
37.8502137359398
20
2.21156719616397
30
0
41
1
10
37.9877262023865
20
2.11900087185819
30
0
41
1
10
38.2633350429337
20
1.92284115655411
30
0
41
1
10
38.4014321588977
20
1.8192363924486
30
0
41
1
10
38.5398870604067
20
1.70990278583864
30
0
0
SPLINE
5
138
100
AcDbEntity
8
1
62
256
6
ByLayer
370
18
48
1
60
0
100
AcDbSpline
70
4
71
3
72
29
73
25
40
0
40
0
40
0
40
0
40
0.0372010690252358
40
0.0372010690252358
40
0.0744021380504716
40
0.0744021380504716
40
0.148804276100943
40
0.148804276100943
40
0.297608552201885
40
0.446412828302827
40
0.446412828302827
40
0.520814966353298
40
0.520814966353298
40
0.558016035378534
40
0.558016035378534
40
0.595217104403769
40
0.595217104403769
40
0.744021380504713
40
0.744021380504713
40
0.892825656605656
40
0.892825656605656
40
0.967227794656128
40
0.967227794656128
40
1
40
1
40
1
40
1
41
1
10
59.7955744481757
20
3.12538500844357
30
0
41
1
10
59.7938455430307
20
3.14779759228713
30
0
41
1
10
59.7921152960198
20
3.16989780150587
30
0
41
1
10
59.7886506229379
20
3.21346664038813
30
0
41
1
10
59.7869136428203
20
3.23496606539365
30
0
41
1
10
59.7817152931667
20
3.29823504119972
30
0
41
1
10
59.7782664582583
20
3.33876949055164
30
0
41
1
10
59.7679450886019
20
3.45554022034418
30
0
41
1
10
59.7542597797853
20
3.59837315447945
30
0
41
1
10
59.7406394712828
20
3.71593132656625
30
0
41
1
10
59.7304030122635
20
3.79448646141316
30
0
41
1
10
59.726987130875
20
3.81906612894912
30
0
41
1
10
59.7218495142891
20
3.8534808613212
30
0
41
1
10
59.7201323844486
20
3.86455697230178
30
0
41
1
10
59.7167032372549
20
3.88581007878165
30
0
41
1
10
59.7149931135727
20
3.89597666036599
30
0
41
1
10
59.706460156481
20
3.94453650007466
30
0
41
1
10
59.6996916719758
20
3.97612912990797
30
0
41
1
10
59.6861327947494
20
4.02518167631658
30
0
41
1
10
59.6793264779916
20
4.04264072586915
30
0
41
1
10
59.6690349550292
20
4.05817176676175
30
0
41
1
10
59.6655956399671
20
4.0615690888848
30
0
41
1
10
59.6606322223135
20
4.06386137215961
30
0
41
1
10
59.6591131963437
20
4.06421174384687
30
0
41
1
10
59.6575927736542
20
4.06420830916758
30
0
0
SPLINE
5
139
100
AcDbEntity
8
1
62
256
6
ByLayer
370
18
48
1
60
0
100
AcDbSpline
70
4
71
3
72
23
73
19
40
0
40
0
40
0
40
0
40
0.124999999999999
40
0.124999999999999
40
0.249999999999999
40
0.374999999999998
40
0.374999999999998
40
0.499999999999997
40
0.499999999999997
40
0.562499999999998
40
0.562499999999998
40
0.593749999999998
40
0.593749999999998
40
0.624999999999998
40
0.749999999999998
40
0.749999999999998
40
0.874999999999999
40
1
40
1
40
1
40
1
41
1
10
52.6917157948255
20
1.89824476196503
30
0
41
1
10
52.6870858118879
20
1.98672433452026
30
0
41
1
10
52.6824188149879
20
2.07274873053203
30
0
41
1
10
52.6729995235885
20
2.23956105379761
30
0
41
1
10
52.6636404388545
20
2.39855749408449
30
0
41
1
10
52.6543629589683
20
2.54242803224778
30
0
41
1
10
52.6451138386013
20
2.67879004131061
30
0
41
1
10
52.6405063213967
20
2.74321828690779
30
0
41
1
10
52.6336159166484
20
2.83412797349797
30
0
41
1
10
52.6313215837893
20
2.86347375433871
30
0
41
1
10
52.6278729685948
20
2.9060238505447
30
0
41
1
10
52.626720832635
20
2.91997770738573
30
0
41
1
10
52.6244225582802
20
2.94725686724439
30
0
41
1
10
52.6186879183003
20
3.01394320288085
30
0
41
1
10
52.6129594801864
20
3.0731510268385
30
0
41
1
10
52.6035731315708
20
3.15842592525081
30
0
41
1
10
52.5940245439486
20
3.2342758178749
30
0
41
1
10
52.5844060534771
20
3.29139610628675
30
0
41
1
10
52.5796095081463
20
3.31515873366982
30
0
0
SPLINE
5
13A
100
AcDbEntity
8
1
62
256
6
ByLayer
370
18
48
1
60
0
100
AcDbSpline
70
4
71
3
72
33
73
29
40
0
40
0
40
0
40
0
40
0.0312499999999999
40
0.0312499999999999
40
0.0624999999999998
40
0.0624999999999998
40
0.125
40
0.125
40
0.25
40
0.375
40
0.375
40
0.4375
40
0.4375
40
0.46875
40
0.46875
40
0.5
40
0.5
40
0.625
40
0.625
40
0.75
40
0.75
40
0.8125
40
0.8125
40
0.84375
40
0.84375
40
0.875
40
0.875
40
1
40
1
40
1
40
1
41
1
10
60.8221344678626
20
4.01135609566373
30
0
41
1
10
60.8238624594702
20
4.00570659273575
30
0
41
1
10
60.825595078483
20
3.9995969363238
30
0
41
1
10
60.8290695775648
20
3.98644622050352
30
0
41
1
10
60.8308069240097
20
3.97942152924568
30
0
41
1
10
60.8360056877981
20
3.95706757287064
30
0
41
1
10
60.8394595032861
20
3.94043776013558
30
0
41
1
10
60.8497899135874
20
3.88546267005737
30
0
41
1
10
60.8634786961515
20
3.79862699356889
30
0
41
1
10
60.8771080161755
20
3.68507523828953
30
0
41
1
10
60.8873701280679
20
3.58970537850172
30
0
41
1
10
60.8907977129316
20
3.55621109070316
30
0
41
1
10
60.8959586038638
20
3.50335769656959
30
0
41
1
10
60.8976796836743
20
3.4853286035067
30
0
41
1
10
60.9011104468914
20
3.44860513715491
30
0
41
1
10
60.9028222571659
20
3.42988912418079
30
0
41
1
10
60.9113672426372
20
3.33455633411808
30
0
41
1
10
60.9181623572343
20
3.25269570501683
30
0
41
1
10
60.9316857995014
20
3.07802730183386
30
0
41
1
10
60.9384117685059
20
2.98521901595518
30
0
41
1
10
60.9485688473267
20
2.8377169598499
30
0
41
1
10
60.9519671178727
20
2.78716536092156
30
0
41
1
10
60.9571094100622
20
2.70922692440953
30
0
41
1
10
60.9588314744896
20
2.68289544270826
30
0
41
1
10
60.9622935591176
20
2.62952033653022
30
0
41
1
10
60.9640323374607
20
2.60248806446211
30
0
41
1
10
60.9727140817195
20
2.46633816158578
30
0
41
1
10
60.9796575737271
20
2.35364996348377
30
0
41
1
10
60.9865742018539
20
2.23730625997303
30
0
0
SPLINE
5
13B
100
AcDbEntity
8
1
62
256
6
ByLayer
370
18
48
1
60
0
100
AcDbSpline
70
4
71
3
72
29
73
25
40
0
40
0
40
0
40
0
40
0.124999999999999
40
0.124999999999999
40
0.249999999999998
40
0.249999999999998
40
0.281249999999997
40
0.281249999999997
40
0.312499999999996
40
0.374999999999996
40
0.374999999999996
40
0.499999999999995
40
0.499999999999995
40
0.624999999999995
40
0.624999999999995
40
0.656249999999995
40
0.656249999999995
40
0.687499999999994
40
0.687499999999994
40
0.749999999999995
40
0.749999999999995
40
0.874999999999998
40
0.874999999999998
40
1
40
1
40
1
40
1
41
1
10
60.2335791832252
20
-3.9424059951856
30
0
41
1
10
60.2268130089897
20
-3.90848833924136
30
0
41
1
10
60.2201196043857
20
-3.86770077950618
30
0
41
1
10
60.2066228919868
20
-3.77238633477518
30
0
41
1
10
60.1998264350722
20
-3.71786066157264
30
0
41
1
10
60.1912077795527
20
-3.64083766962628
30
0
41
1
10
60.189476104658
20
-3.62496915070909
30
0
41
1
10
60.1860190864128
20
-3.59251428872773
30
0
41
1
10
60.1808375288681
20
-3.54270782333001
30
0
41
1
10
60.1756654379527
20
-3.48956920435529
30
0
41
1
10
60.1653311944684
20
-3.37892087672003
30
0
41
1
10
60.1584554496259
20
-3.29933857951392
30
0
41
1
10
60.144725727504
20
-3.12863645890599
30
0
41
1
10
60.1378740522079
20
-3.03751701278847
30
0
41
1
10
60.1292953431235
20
-2.9162352823285
30
0
41
1
10
60.1275786889396
20
-2.89160887855513
30
0
41
1
10
60.1241417778249
20
-2.84160779597727
30
0
41
1
10
60.1224192401095
20
-2.81619745202644
30
0
41
1
10
60.1172682377715
20
-2.73922893312135
30
0
41
1
10
60.1138511161984
20
-2.68686709113768
30
0
41
1
10
60.1036168517791
20
-2.52669850330224
30
0
41
1
10
60.0968143836558
20
-2.41581682509479
30
0
41
1
10
60.0831446906243
20
-2.18598946559334
30
0
41
1
10
60.0762787801344
20
-2.06704372163748
30
0
41
1
10
60.0693602638309
20
-1.94400583207647
30
0
0
SPLINE
5
13C
100
AcDbEntity
8
1
62
256
6
ByLayer
370
13
48
1
60
0
100
AcDbSpline
70
4
71
3
72
10
73
6
40
0
40
0
40
0
40
0
40
0.607969422695048
40
0.916011357333146
40
1
40
1
40
1
40
1
41
1
10
53.319909931085
20
1.46224939630767
30
0
41
1
10
53.2890556523871
20
1.99317489025788
30
0
41
1
10
53.241970330928
20
2.71754500310453
30
0
41
1
10
53.1884519965443
20
3.26575492157826
30
0
41
1
10
53.1675629683398
20
3.42133491235401
30
0
41
1
10
53.1630947386866
20
3.45195742948007
30
0
0
SPLINE
5
13D
100
AcDbEntity
8
1
62
256
6
ByLayer
370
18
48
1
60
0
100
AcDbSpline
70
4
71
3
72
33
73
29
40
0
40
0
40
0
40
0
40
0.0312500000000003
40
0.0312500000000003
40
0.0625000000000007
40
0.0625000000000007
40
0.125000000000001
40
0.125000000000001
40
0.250000000000002
40
0.250000000000002
40
0.375000000000003
40
0.375000000000003
40
0.437500000000004
40
0.437500000000004
40
0.468750000000004
40
0.468750000000004
40
0.500000000000003
40
0.500000000000003
40
0.625000000000002
40
0.625000000000002
40
0.750000000000001
40
0.750000000000001
40
0.812500000000001
40
0.843750000000001
40
0.843750000000001
40
0.875000000000001
40
0.875000000000001
40
1
40
1
40
1
40
1
41
1
10
59.9455557817705
20
-1.83444600625472
30
0
41
1
10
59.9472973543745
20
-1.86575004609708
30
0
41
1
10
59.9490435029979
20
-1.89690002087281
30
0
41
1
10
59.9525445133259
20
-1.95888851628541
30
0
41
1
10
59.9543019686942
20
-1.98977208419075
30
0
41
1
10
59.9595636818998
20
-2.08154743923205
30
0
41
1
10
59.9630569103018
20
-2.14156274513215
30
0
41
1
10
59.9734896575565
20
-2.31817679967705
30
0
41
1
10
59.9803801987414
20
-2.4313527281239
30
0
41
1
10
59.9940504345908
20
-2.64872895343939
30
0
41
1
10
60.0008285701329
20
-2.75292918702877
30
0
41
1
10
60.0109868951231
20
-2.90239800760386
30
0
41
1
10
60.0143723103006
20
-2.9510801098954
30
0
41
1
10
60.0194681242876
20
-3.0223581207004
30
0
41
1
10
60.0211720920209
20
-3.0458580203308
30
0
41
1
10
60.0245781526919
20
-3.0921052047276
30
0
41
1
10
60.0262788295736
20
-3.11483285809928
30
0
41
1
10
60.0347753874085
20
-3.2265143615796
30
0
41
1
10
60.0415529043331
20
-3.30961388108938
30
0
41
1
10
60.0551521078795
20
-3.46364445607463
30
0
41
1
10
60.0619727285976
20
-3.53457488923064
30
0
41
1
10
60.0722696927768
20
-3.63179198496704
30
0
41
1
10
60.0774343918737
20
-3.67810142750099
30
0
41
1
10
60.0826285838278
20
-3.72091064469191
30
0
41
1
10
60.0860985230146
20
-3.74866348079286
30
0
41
1
10
60.0878389393083
20
-3.76216069405436
30
0
41
1
10
60.0965387944657
20
-3.82749397272667
30
0
41
1
10
60.1034370303233
20
-3.87250128536775
30
0
41
1
10
60.1102973727309
20
-3.91049969755736
30
0
0
SPLINE
5
13E
100
AcDbEntity
8
1
62
256
6
ByLayer
370
18
48
1
60
0
100
AcDbSpline
70
4
71
3
72
27
73
23
40
0
40
0
40
0
40
0
40
0.0625000000000016
40
0.0625000000000016
40
0.0937500000000018
40
0.0937500000000018
40
0.125000000000002
40
0.125000000000002
40
0.250000000000002
40
0.250000000000002
40
0.375000000000001
40
0.375000000000001
40
0.500000000000001
40
0.500000000000001
40
0.625000000000001
40
0.625000000000001
40
0.750000000000001
40
0.875
40
0.875
40
0.9375
40
0.9375
40
1
40
1
40
1
40
1
41
1
10
53.2008557970563
20
3.50153888286991
30
0
41
1
10
53.2059517047007
20
3.47944972095087
30
0
41
1
10
53.2110826770714
20
3.45569105125179
30
0
41
1
10
53.2188930375963
20
3.41754336306786
30
0
41
1
10
53.221517203128
20
3.40441003511933
30
0
41
1
10
53.2268005921049
20
3.37729502127118
30
0
41
1
10
53.2294565595829
20
3.36332481594107
30
0
41
1
10
53.2427210269123
20
3.291737510216
30
0
41
1
10
53.2533188728546
20
3.22863153163004
30
0
41
1
10
53.2742050503662
20
3.09094008403943
30
0
41
1
10
53.2844943610733
20
3.01635378542002
30
0
41
1
10
53.3049822358615
20
2.85577446935739
30
0
41
1
10
53.3151957649436
20
2.76979037745701
30
0
41
1
10
53.3357250142957
20
2.58610776907466
30
0
41
1
10
53.3458676201776
20
2.48995638966972
30
0
41
1
10
53.3660508630389
20
2.28954075711775
30
0
41
1
10
53.3861355892068
20
2.08096035441719
30
0
41
1
10
53.4063343521537
20
1.85624151101842
30
0
41
1
10
53.4216596212197
20
1.68154068440381
30
0
41
1
10
53.426808704293
20
1.62214863637232
30
0
41
1
10
53.437082399259
20
1.50256031960225
30
0
41
1
10
53.4422241155391
20
1.44224231271508
30
0
41
1
10
53.4473598169057
20
1.38140703380535
30
0
0
SPLINE
5
13F
100
AcDbEntity
8
1
62
256
6
ByLayer
370
18
48
1
60
0
100
AcDbSpline
70
4
71
3
72
26
73
22
40
0
40
0
40
0
40
0
40
0.125
40
0.25
40
0.25
40
0.312499999999999
40
0.312499999999999
40
0.374999999999999
40
0.374999999999999
40
0.499999999999998
40
0.499999999999998
40
0.624999999999996
40
0.624999999999996
40
0.687499999999996
40
0.687499999999996
40
0.718749999999996
40
0.718749999999996
40
0.749999999999996
40
0.749999999999996
40
0.874999999999998
40
1
40
1
40
1
40
1
41
1
10
61.1102219727327
20
2.13257655243979
30
0
41
1
10
61.1033294606035
20
2.25148156884694
30
0
41
1
10
61.089563426342
20
2.48095687402631
30
0
41
1
10
61.0759041130945
20
2.69383785618535
30
0
41
1
10
61.0656481288239
20
2.84709823089634
30
0
41
1
10
61.0622182792706
20
2.89723246652386
30
0
41
1
10
61.0554092363533
20
2.99427619444546
30
0
41
1
10
61.0520234620478
20
3.0412892356247
30
0
41
1
10
61.0418900856443
20
3.17788376439543
30
0
41
1
10
61.0351672340562
20
3.26303217075869
30
0
41
1
10
61.0215886206125
20
3.42164442961953
30
0
41
1
10
61.0147277822361
20
3.4951083390591
30
0
41
1
10
61.0041877643137
20
3.59636998782568
30
0
41
1
10
61.0006403945277
20
3.62863212426373
30
0
41
1
10
60.9952936816093
20
3.67473910534454
30
0
41
1
10
60.9935110882784
20
3.68969138455691
30
0
41
1
10
60.9899595001573
20
3.71867632288692
30
0
41
1
10
60.9881887767134
20
3.73272393613581
30
0
41
1
10
60.9793660465472
20
3.800760860293
30
0
41
1
10
60.9654619858013
20
3.89556921456713
30
0
41
1
10
60.9520262206754
20
3.96286222702429
30
0
41
1
10
60.945353315898
20
3.98955454075423
30
0
0
SPLINE
5
140
100
AcDbEntity
8
1
62
256
6
ByLayer
370
18
48
1
60
0
100
AcDbSpline
70
4
71
3
72
27
73
23
40
0
40
0
40
0
40
0
40
0.125000000000001
40
0.125000000000001
40
0.187500000000001
40
0.187500000000001
40
0.218750000000001
40
0.218750000000001
40
0.250000000000001
40
0.250000000000001
40
0.375000000000001
40
0.500000000000001
40
0.500000000000001
40
0.562500000000001
40
0.562500000000001
40
0.625000000000001
40
0.625000000000001
40
0.750000000000001
40
0.750000000000001
40
0.875
40
0.875
40
1
40
1
40
1
40
1
41
1
10
62.1363526347422
20
3.5943066998635
30
0
41
1
10
62.1430199877571
20
3.52921156395786
30
0
41
1
10
62.1498255147406
20
3.45781551039187
30
0
41
1
10
62.1601942680055
20
3.34114331190008
30
0
41
1
10
62.1636759562673
20
3.30065304910414
30
0
41
1
10
62.1689293775793
20
3.23747259166035
30
0
41
1
10
62.1706875218758
20
3.21598181889252
30
0
41
1
10
62.1742047762028
20
3.17227956807918
30
0
41
1
10
62.1759602863843
20
3.15011359287479
30
0
41
1
10
62.1847203982778
20
3.03772806748896
30
0
41
1
10
62.1986198496947
20
2.84798121749722
30
0
41
1
10
62.2122766914851
20
2.63889988123177
30
0
41
1
10
62.2224925727091
20
2.47480404236734
30
0
41
1
10
62.2258941683967
20
2.41888894530453
30
0
41
1
10
62.2327113488641
20
2.30459106179521
30
0
41
1
10
62.2361296024385
20
2.24616416367525
30
0
41
1
10
62.2464335158676
20
2.0673732730173
30
0
41
1
10
62.253264623349
20
1.94526160082555
30
0
41
1
10
62.2669290232591
20
1.69541143475172
30
0
41
1
10
62.2737616548228
20
1.56767231018631
30
0
41
1
10
62.2875106654691
20
1.30658978710869
30
0
41
1
10
62.2944434838598
20
1.17324757605056
30
0
41
1
10
62.3013973921008
20
1.03702160160691
30
0
0
SPLINE
5
141
100
AcDbEntity
8
1
62
256
6
ByLayer
370
13
48
1
60
0
100
AcDbSpline
70
4
71
3
72
9
73
5
40
0
40
0
40
0
40
0
40
0.470938295292043
40
1
40
1
40
1
40
1
41
1
10
59.8930946255588
20
-3.48759759676693
30
0
41
1
10
59.8696373247317
20
-3.33737019229832
30
0
41
1
10
59.8190174189624
20
-2.85985883750226
30
0
41
1
10
59.7654178307534
20
-2.04804740182735
30
0
41
1
10
59.7358500968275
20
-1.54699520474892
30
0
0
SPLINE
5
142
100
AcDbEntity
8
1
62
256
6
ByLayer
370
18
48
1
60
0
100
AcDbSpline
70
4
71
3
72
27
73
23
40
0
40
0
40
0
40
0
40
0.124999999999999
40
0.124999999999999
40
0.249999999999997
40
0.249999999999997
40
0.312499999999997
40
0.312499999999997
40
0.343749999999997
40
0.343749999999997
40
0.374999999999997
40
0.374999999999997
40
0.499999999999998
40
0.624999999999998
40
0.624999999999998
40
0.687499999999998
40
0.687499999999998
40
0.749999999999998
40
0.749999999999998
40
0.874999999999999
40
0.874999999999999
40
1
40
1
40
1
40
1
41
1
10
53.6699206684444
20
1.18750160868581
30
0
41
1
10
53.6650382397545
20
1.31628102239023
30
0
41
1
10
53.6601748613642
20
1.44231516712762
30
0
41
1
10
53.6503306659933
20
1.6889261915012
30
0
41
1
10
53.6453391793795
20
1.8095004009246
30
0
41
1
10
53.6376793646008
20
1.98617793330825
30
0
41
1
10
53.6351031882807
20
2.04437339360206
30
0
41
1
10
53.6312148817912
20
2.13060266588582
30
0
41
1
10
53.6299133126049
20
2.15919857890515
30
0
41
1
10
53.6273174851816
20
2.21572364157839
30
0
41
1
10
53.6260218011497
20
2.24368496454346
30
0
41
1
10
53.6195566803762
20
2.38200306830367
30
0
41
1
10
53.6093039057667
20
2.59381216099834
30
0
41
1
10
53.5992427479768
20
2.78708451336033
30
0
41
1
10
53.5917271441134
20
2.92502718383432
30
0
41
1
10
53.5892265684051
20
2.96983711009884
30
0
41
1
10
53.5842232786778
20
3.05707576464741
30
0
41
1
10
53.5817188905156
20
3.09953181565518
30
0
41
1
10
53.5741918943353
20
3.22306910320458
30
0
41
1
10
53.5692297203869
20
3.29911369629889
30
0
41
1
10
53.5592953795341
20
3.4389608450042
30
0
41
1
10
53.5543226713891
20
3.50276201177735
30
0
41
1
10
53.5492895696722
20
3.56044081824351
30
0
0
SPLINE
5
143
100
AcDbEntity
8
1
62
256
6
ByLayer
370
18
48
1
60
0
100
AcDbSpline
70
4
71
3
72
33
73
29
40
0
40
0
40
0
40
0
40
0.0312499999999998
40
0.0312499999999998
40
0.0624999999999997
40
0.0624999999999997
40
0.125
40
0.125
40
0.25
40
0.375000000000001
40
0.375000000000001
40
0.437500000000001
40
0.437500000000001
40
0.468750000000001
40
0.468750000000001
40
0.500000000000001
40
0.500000000000001
40
0.625000000000001
40
0.625000000000001
40
0.750000000000001
40
0.750000000000001
40
0.812500000000001
40
0.812500000000001
40
0.843750000000001
40
0.843750000000001
40
0.875
40
0.875
40
1
40
1
40
1
40
1
41
1
10
58.9193479249929
20
-3.42106241467485
30
0
41
1
10
58.917610861984
20
-3.40208557694316
30
0
41
1
10
58.915868859152
20
-3.38269050587604
30
0
41
1
10
58.9123740068999
20
-3.34305386818951
30
0
41
1
10
58.9106252931327
20
-3.32285851101145
30
0
41
1
10
58.905389919419
20
-3.26133102516752
30
0
41
1
10
58.9019074495205
20
-3.2189853029756
30
0
41
1
10
58.8914797725684
20
-3.08804002306985
30
0
41
1
10
58.8776278133233
20
-2.90304502028363
30
0
41
1
10
58.863949598552
20
-2.69751869292671
30
0
41
1
10
58.8537075406164
20
-2.53553175183663
30
0
41
1
10
58.8502955540388
20
-2.48022653606381
30
0
41
1
10
58.8451687918373
20
-2.3952620862531
30
0
41
1
10
58.8434605546235
20
-2.36664131973495
30
0
41
1
10
58.840058212007
20
-2.30905766356679
30
0
41
1
10
58.8383619130389
20
-2.28005856094467
30
0
41
1
10
58.8298985333313
20
-2.13403781097674
30
0
41
1
10
58.8231856520759
20
-2.01394872112229
30
0
41
1
10
58.8097139993279
20
-1.76737434690372
30
0
41
1
10
58.8029542672726
20
-1.64088890514716
30
0
41
1
10
58.7926727028656
20
-1.44632085349505
30
0
41
1
10
58.7892218472171
20
-1.38065662568081
30
0
41
1
10
58.7840189233178
20
-1.28092680528977
30
0
41
1
10
58.7822801140019
20
-1.24747784721174
30
0
41
1
10
58.7787941817422
20
-1.18016372381868
30
0
41
1
10
58.7770476878113
20
-1.14631024346585
30
0
41
1
10
58.7683463398021
20
-0.976994775540192
30
0
41
1
10
58.7614474704096
20
-0.840606273692032
30
0
41
1
10
58.7545868943032
20
-0.703310983121639
30
0
0
SPLINE
5
144
100
AcDbEntity
8
1
62
256
6
ByLayer
370
18
48
1
60
0
100
AcDbSpline
70
4
71
3
72
27
73
23
40
0
40
0
40
0
40
0
40
0.125
40
0.125
40
0.249999999999999
40
0.249999999999999
40
0.312499999999999
40
0.312499999999999
40
0.374999999999999
40
0.374999999999999
40
0.499999999999998
40
0.624999999999997
40
0.624999999999997
40
0.687499999999997
40
0.687499999999997
40
0.718749999999997
40
0.718749999999997
40
0.749999999999997
40
0.749999999999997
40
0.874999999999999
40
0.874999999999999
40
1
40
1
40
1
40
1
41
1
10
58.6311860003095
20
-0.581234151178847
30
0
41
1
10
58.6378685820074
20
-0.719465585774287
30
0
41
1
10
58.6445316321544
20
-0.856209765993782
30
0
41
1
10
58.6580641860948
20
-1.12672440831309
30
0
41
1
10
58.6649139416594
20
-1.26049603139046
30
0
41
1
10
58.6753219082412
20
-1.45886198434681
30
0
41
1
10
58.6788218653606
20
-1.52475749152998
30
0
41
1
10
58.6857906851249
20
-1.6543630001394
30
0
41
1
10
58.6892663197686
20
-1.71820656354211
30
0
41
1
10
58.699667305788
20
-1.90691228027137
30
0
41
1
10
58.7134649947605
20
-2.15100130024749
30
0
41
1
10
58.7271530308571
20
-2.38024078457968
30
0
41
1
10
58.7374197927193
20
-2.54649169667158
30
0
41
1
10
58.7408425377837
20
-2.60096034066501
30
0
41
1
10
58.7459867698689
20
-2.68120896486533
30
0
41
1
10
58.7476990697485
20
-2.70765045349708
30
0
41
1
10
58.75111083748
20
-2.75977012679377
30
0
41
1
10
58.7528118516133
20
-2.78547247294929
30
0
41
1
10
58.7612981432399
20
-2.91221503357699
30
0
41
1
10
58.7680250105202
20
-3.00796207448741
30
0
41
1
10
58.7815287305014
20
-3.18839366714485
30
0
41
1
10
58.7883086361968
20
-3.27307778224625
30
0
41
1
10
58.7952227487782
20
-3.35216866632041
30
0
0
SPLINE
5
145
100
AcDbEntity
8
1
62
256
6
ByLayer
370
13
48
1
60
0
100
AcDbSpline
70
4
71
3
72
9
73
5
40
0
40
0
40
0
40
0
40
0.521276305102537
40
1
40
1
40
1
40
1
41
1
10
54.6343953311719
20
0.296324625730534
30
0
41
1
10
54.6085237511197
20
0.778263466514318
30
0
41
1
10
54.5575647714466
20
1.71502141314986
30
0
41
1
10
54.5040248440693
20
2.51656556099579
30
0
41
1
10
54.4776864898941
20
2.83421053522474
30
0
0
SPLINE
5
146
100
AcDbEntity
8
1
62
256
6
ByLayer
370
18
48
1
60
0
100
AcDbSpline
70
4
71
3
72
30
73
26
40
0
40
0
40
0
40
0
40
0.124999999999999
40
0.124999999999999
40
0.187499999999999
40
0.187499999999999
40
0.249999999999999
40
0.249999999999999
40
0.374999999999999
40
0.374999999999999
40
0.499999999999998
40
0.499999999999998
40
0.562499999999998
40
0.562499999999998
40
0.624999999999999
40
0.624999999999999
40
0.749999999999999
40
0.749999999999999
40
0.875
40
0.875
40
0.9375
40
0.9375
40
0.96875
40
0.96875
40
1
40
1
40
1
40
1
41
1
10
54.6881609918802
20
2.99838287818201
30
0
41
1
10
54.6950224853256
20
2.90448530058023
30
0
41
1
10
54.7018247984199
20
2.80513571245439
30
0
41
1
10
54.7119883064987
20
2.64769634557695
30
0
41
1
10
54.7153768927023
20
2.59369409348548
30
0
41
1
10
54.7220845174654
20
2.48406401609859
30
0
41
1
10
54.7254117208773
20
2.42831536213364
30
0
41
1
10
54.7353518342502
20
2.25831991115174
30
0
41
1
10
54.7419191687702
20
2.14133048724764
30
0
41
1
10
54.7552251365085
20
1.90013264664452
30
0
41
1
10
54.7620052752451
20
1.77592622703227
30
0
41
1
10
54.7723964847129
20
1.58410008679999
30
0
41
1
10
54.7758915871737
20
1.51923657817892
30
0
41
1
10
54.7829313506356
20
1.38762500609241
30
0
41
1
10
54.7864488934993
20
1.32138155368313
30
0
41
1
10
54.7969593782346
20
1.12170383420758
30
0
41
1
10
54.8039154366727
20
0.987175403817361
30
0
41
1
10
54.8176916540454
20
0.715354711084728
30
0
41
1
10
54.8245105511257
20
0.578062299310972
30
0
41
1
10
54.834686452197
20
0.370030145976642
30
0
41
1
10
54.8380705845266
20
0.300336539468816
30
0
41
1
10
54.8431514154526
20
0.195263351011249
30
0
41
1
10
54.8448458768839
20
0.16015011636398
30
0
41
1
10
54.8482402873883
20
0.0897440391927944
30
0
41
1
10
54.8499372835768
20
0.0545124976076465
30
0
41
1
10
54.8516298471943
20
0.0193864423399361
30
0
0
SPLINE
5
147
100
AcDbEntity
8
1
62
256
6
ByLayer
370
18
48
1
60
0
100
AcDbSpline
70
4
71
3
72
8
73
4
40
0
40
0
40
0
40
0
40
1
40
1
40
1
40
1
41
1
10
62.2598263581878
20
3.5343445349435
30
0
41
1
10
62.2187205327752
20
3.55484781668346
30
0
41
1
10
62.1775919028003
20
3.57485148625949
30
0
41
1
10
62.1363526347422
20
3.59430669986347
30
0
0
SPLINE
5
148
100
AcDbEntity
8
1
62
256
6
ByLayer
370
18
48
1
60
0
100
AcDbSpline
70
4
71
3
72
10
73
6
40
0
40
0
40
0
40
0
40
0.358575540052257
40
0.358575540052257
40
1
40
1
40
1
40
1
41
1
10
52.8642444541377
20
-3.58346869307189
30
0
41
1
10
52.7988416712662
20
-3.54552653667022
30
0
41
1
10
52.7330394929068
20
-3.50544566507955
30
0
41
1
10
52.5482325943616
20
-3.38776751466381
30
0
41
1
10
52.4281951249989
20
-3.30550577422883
30
0
41
1
10
52.3060780818729
20
-3.2163844243733
30
0
0
SPLINE
5
149
100
AcDbEntity
8
1
62
256
6
ByLayer
370
18
48
1
60
0
100
AcDbSpline
70
4
71
3
72
12
73
8
40
0
40
0
40
0
40
0
40
0.25
40
0.25
40
0.5
40
0.5
40
1
40
1
40
1
40
1
41
1
10
52.3060780818729
20
-3.2163844243733
30
0
41
1
10
52.2646525465409
20
-3.18615195613819
30
0
41
1
10
52.2220657681512
20
-3.15814531670719
30
0
41
1
10
52.1345229926763
20
-3.10644423979838
30
0
41
1
10
52.0894986940643
20
-3.08275799950525
30
0
41
1
10
51.9513227034412
20
-3.01850483437622
30
0
41
1
10
51.8551189725007
20
-2.98467107525531
30
0
41
1
10
51.7560780818729
20
-2.96105243567052
30
0
0
SPLINE
5
14A
100
AcDbEntity
8
1
62
256
6
ByLayer
370
18
48
1
60
0
100
AcDbSpline
70
4
71
3
72
74
73
70
40
0
40
0
40
0
40
0
40
0.0312500000000103
40
0.0312500000000103
40
0.0468750000000155
40
0.0468750000000155
40
0.0625000000000207
40
0.125000000000039
40
0.125000000000039
40
0.156250000000048
40
0.156250000000048
40
0.187500000000057
40
0.187500000000057
40
0.203125000000061
40
0.203125000000061
40
0.218750000000064
40
0.218750000000064
40
0.250000000000071
40
0.250000000000071
40
0.281250000000077
40
0.281250000000077
40
0.312500000000084
40
0.312500000000084
40
0.34375000000009
40
0.34375000000009
40
0.375000000000097
40
0.375000000000097
40
0.406250000000104
40
0.406250000000104
40
0.414062500000104
40
0.414062500000104
40
0.421875000000105
40
0.437500000000103
40
0.437500000000103
40
0.468750000000098
40
0.468750000000098
40
0.500000000000093
40
0.500000000000093
40
0.562500000000085
40
0.562500000000085
40
0.59375000000008
40
0.59375000000008
40
0.609375000000077
40
0.609375000000077
40
0.625000000000075
40
0.625000000000075
40
0.687500000000069
40
0.687500000000069
40
0.750000000000063
40
0.750000000000063
40
0.781250000000059
40
0.781250000000059
40
0.812500000000055
40
0.812500000000055
40
0.820312500000054
40
0.820312500000054
40
0.828125000000052
40
0.828125000000052
40
0.843750000000049
40
0.843750000000049
40
0.87500000000004
40
0.87500000000004
40
0.890625000000036
40
0.890625000000036
40
0.906250000000031
40
0.906250000000031
40
0.93750000000002
40
0.93750000000002
40
1
40
1
40
1
40
1
41
1
10
51.7560780818729
20
-2.96105243567052
30
0
41
1
10
51.6412454940076
20
-2.93366789290053
30
0
41
1
10
51.5268989572809
20
-2.90281855499981
30
0
41
1
10
51.3556991868174
20
-2.85167764086955
30
0
41
1
10
51.2986661797706
20
-2.83383171552839
30
0
41
1
10
51.1847804287425
20
-2.79649656875335
30
0
41
1
10
50.900522328712
20
-2.69904183123853
30
0
41
1
10
50.6178892854541
20
-2.58141912795199
30
0
41
1
10
50.2780404292414
20
-2.42248225932514
30
0
41
1
10
50.1646443584323
20
-2.36653748429117
30
0
41
1
10
49.9372117866268
20
-2.24902835784508
30
0
41
1
10
49.8231518510534
20
-2.1874873029459
30
0
41
1
10
49.6513452099911
20
-2.09113757047078
30
0
41
1
10
49.5939986758474
20
-2.05830625833903
30
0
41
1
10
49.4791014841353
20
-1.99123825879502
30
0
41
1
10
49.4216780821072
20
-1.95708247793968
30
0
41
1
10
49.2499267525868
20
-1.85313455741826
30
0
41
1
10
49.1359076851005
20
-1.78173799596038
30
0
41
1
10
48.9084712293895
20
-1.63519142835565
30
0
41
1
10
48.7950552767803
20
-1.56003954017129
30
0
41
1
10
48.5684382415052
20
-1.40645365863224
30
0
41
1
10
48.4552542148174
20
-1.32799874586556
30
0
41
1
10
48.2286016087573
20
-1.16842169754028
30
0
41
1
10
48.1151073758522
20
-1.08733635186869
30
0
41
1
10
47.8880239234199
20
-0.922264842192817
30
0
41
1
10
47.7743879929835
20
-0.83833262384772
30
0
41
1
10
47.5465628087091
20
-0.668084865867087
30
0
41
1
10
47.4323744011579
20
-0.581768168640423
30
0
41
1
10
47.2890522716346
20
-0.472655135067896
30
0
41
1
10
47.2603374809674
20
-0.450756082793788
30
0
41
1
10
47.2029753664087
20
-0.406947004102022
30
0
41
1
10
47.1170219588113
20
-0.341208480614085
30
0
41
1
10
47.0313060919207
20
-0.275436294101951
30
0
41
1
10
46.8601035879674
20
-0.143959915048754
30
0
41
1
10
46.7462354686753
20
-0.0564512661830747
30
0
41
1
10
46.5187860017835
20
0.117974883211332
30
0
41
1
10
46.4053190687694
20
0.205044148179837
30
0
41
1
10
46.0653586216325
20
0.465383886654593
30
0
41
1
10
45.8391978564053
20
0.63764374457395
30
0
41
1
10
45.4985367404962
20
0.891271944415706
30
0
41
1
10
45.384760589063
20
0.975038875117633
30
0
41
1
10
45.2133543719526
20
1.09899656531158
30
0
41
1
10
45.1560774520588
20
1.14001129071102
30
0
41
1
10
45.0412878028717
20
1.22148973917635
30
0
41
1
10
44.9837147957104
20
1.26199795471436
30
0
41
1
10
44.6968300197541
20
1.4620629154378
30
0
41
1
10
44.4694688268134
20
1.61494838243144
30
0
41
1
10
44.0160793298457
20
1.90340194887375
30
0
41
1
10
43.7900516404873
20
2.03895678870549
30
0
41
1
10
43.4494030885214
20
2.22677577848904
30
0
41
1
10
43.3357392025608
20
2.2869483541246
30
0
41
1
10
43.1079983055333
20
2.40218046079244
30
0
41
1
10
42.9938902428
20
2.45721085428588
30
0
41
1
10
42.8507353589875
20
2.52250909473264
30
0
41
1
10
42.8220783204021
20
2.53539417792595
30
0
41
1
10
42.7647062711236
20
2.56080847631318
30
0
41
1
10
42.7359871019699
20
2.57333913487136
30
0
41
1
10
42.6499836338297
20
2.61028022928761
30
0
41
1
10
42.5927702660467
20
2.63407693626775
30
0
41
1
10
42.4214184562092
20
2.70294920144514
30
0
41
1
10
42.3075738127801
20
2.74550962550455
30
0
41
1
10
42.1370558139113
20
2.80421182000649
30
0
41
1
10
42.080255890104
20
2.82292174196215
30
0
41
1
10
41.9666703969886
20
2.85860848937042
30
0
41
1
10
41.9098924508964
20
2.87559083902048
30
0
41
1
10
41.739747268278
20
2.92403526961084
30
0
41
1
10
41.6265017539342
20
2.95295621070079
30
0
41
1
10
41.2867178595831
20
3.02928188977879
30
0
41
1
10
41.0601579442845
20
3.0662563512148
30
0
41
1
10
40.8320363835767
20
3.08858998552302
30
0
0
SPLINE
5
14B
100
AcDbEntity
8
1
62
256
6
ByLayer
370
18
48
1
60
0
100
AcDbSpline
70
4
71
3
72
96
73
92
40
0
40
0
40
0
40
0
40
0.0177708275322624
40
0.0177708275322624
40
0.0355416550645248
40
0.0355416550645248
40
0.0710833101290496
40
0.0710833101290496
40
0.0888541376613131
40
0.0888541376613131
40
0.106624965193577
40
0.106624965193577
40
0.142166620258104
40
0.142166620258104
40
0.159937447790367
40
0.159937447790367
40
0.177708275322631
40
0.177708275322631
40
0.213249930387155
40
0.213249930387155
40
0.24879158545168
40
0.24879158545168
40
0.266562412983943
40
0.266562412983943
40
0.275447826750075
40
0.275447826750075
40
0.284333240516207
40
0.284333240516207
40
0.302104068048468
40
0.302104068048468
40
0.319874895580729
40
0.319874895580729
40
0.355416550645252
40
0.355416550645252
40
0.390958205709774
40
0.390958205709774
40
0.426499860774296
40
0.426499860774296
40
0.444270688306558
40
0.444270688306558
40
0.462041515838819
40
0.462041515838819
40
0.47092692960495
40
0.47092692960495
40
0.479812343371082
40
0.497583170903346
40
0.497583170903346
40
0.533124825967872
40
0.533124825967872
40
0.550895653500136
40
0.550895653500136
40
0.568666481032399
40
0.568666481032399
40
0.586437308564663
40
0.586437308564663
40
0.604208136096926
40
0.604208136096926
40
0.639749791161453
40
0.639749791161453
40
0.657520618693716
40
0.657520618693716
40
0.666406032459847
40
0.666406032459847
40
0.675291446225977
40
0.675291446225977
40
0.693062273758238
40
0.693062273758238
40
0.7108331012905
40
0.7108331012905
40
0.74637475635502
40
0.74637475635502
40
0.78191641141954
40
0.78191641141954
40
0.81745806648406
40
0.81745806648406
40
0.85299972154858
40
0.85299972154858
40
0.861885135314711
40
0.861885135314711
40
0.870770549080843
40
0.888541376613107
40
0.888541376613107
40
0.924083031677633
40
0.924083031677633
40
0.95962468674216
40
0.95962468674216
40
0.977395514274425
40
0.977395514274425
40
0.995166341806689
40
0.995166341806689
40
1
40
1
40
1
40
1
41
1
10
38.5398870917168
20
1.70990220459854
30
0
41
1
10
38.6091741520178
20
1.66544389520007
30
0
41
1
10
38.6783600485872
20
1.62023118974182
30
0
41
1
10
38.8165557461523
20
1.52832126272017
30
0
41
1
10
38.8855192793166
20
1.48156995251102
30
0
41
1
10
39.0926061187629
20
1.33960613225187
30
0
41
1
10
39.2310121747618
20
1.24279562295376
30
0
41
1
10
39.4392664874557
20
1.09451095072129
30
0
41
1
10
39.5088459847885
20
1.04452657435638
30
0
41
1
10
39.6475104381884
20
0.94401794317298
30
0
41
1
10
39.7166760156376
20
0.893442927726142
30
0
41
1
10
39.9237513908191
20
0.740860984357113
30
0
41
1
10
40.0612516960179
20
0.638013134802407
30
0
41
1
10
40.26684390381
20
0.482273237465819
30
0
41
1
10
40.3352619284179
20
0.430111224976201
30
0
41
1
10
40.4718682968229
20
0.325282934103853
30
0
41
1
10
40.5401008777603
20
0.272674361376573
30
0
41
1
10
40.745155805092
20
0.115015257674145
30
0
41
1
10
40.8821192192402
20
0.0098484691856413
30
0
41
1
10
41.1567618428262
20
-0.200342897529424
30
0
41
1
10
41.2944198052598
20
-0.305395838431195
30
0
41
1
10
41.5016507943631
20
-0.46260280856211
30
0
41
1
10
41.5708505808894
20
-0.514944766490515
30
0
41
1
10
41.6748490529256
20
-0.593350227102519
30
0
41
1
10
41.7095781660897
20
-0.619490102737757
30
0
41
1
10
41.7789376247992
20
-0.671608635771946
30
0
41
1
10
41.8135596746561
20
-0.697581161420231
30
0
41
1
10
41.9172526999824
20
-0.775239923217981
30
0
41
1
10
41.9861035563003
20
-0.826727916884749
30
0
41
1
10
42.1235919274487
20
-0.928694624425759
30
0
41
1
10
42.19229319501
20
-0.979092815396399
30
0
41
1
10
42.3983308216516
20
-1.12849252981903
30
0
41
1
10
42.5355452078247
20
-1.22577443795339
30
0
41
1
10
42.8097394234963
20
-1.41572827656091
30
0
41
1
10
42.9467526343721
20
-1.50835818040858
30
0
41
1
10
43.2208550276141
20
-1.68861961830638
30
0
41
1
10
43.3579279654652
20
-1.77627023629725
30
0
41
1
10
43.5637293990514
20
-1.90374620703636
30
0
41
1
10
43.632368361632
20
-1.94556159767532
30
0
41
1
10
43.7701493946539
20
-2.02738105968669
30
0
41
1
10
43.839255462683
20
-2.06742472079784
30
0
41
1
10
43.9432503712447
20
-2.12617499290803
30
0
41
1
10
43.978001416324
20
-2.14555579684787
30
0
41
1
10
44.0474240413912
20
-2.18377292718804
30
0
41
1
10
44.1514505761071
20
-2.24029211218624
30
0
41
1
10
44.2551591914045
20
-2.29441348789462
30
0
41
1
10
44.4621999536296
20
-2.39946321464302
30
0
41
1
10
44.5997111384279
20
-2.46525707578886
30
0
41
1
10
44.8053821801508
20
-2.55750142753726
30
0
41
1
10
44.8738403475374
20
-2.58717355743116
30
0
41
1
10
45.0105708749577
20
-2.64434670960617
30
0
41
1
10
45.0788351084803
20
-2.67185147995394
30
0
41
1
10
45.2153899801967
20
-2.72453018979348
30
0
41
1
10
45.2837000131652
20
-2.74969095304556
30
0
41
1
10
45.4206536090566
20
-2.79750812425755
30
0
41
1
10
45.4892335333726
20
-2.82020584865501
30
0
41
1
10
45.6952122672068
20
-2.88470893715657
30
0
41
1
10
45.8329110772782
20
-2.92289348448486
30
0
41
1
10
46.0402249878383
20
-2.97273608619452
30
0
41
1
10
46.109456971267
20
-2.98810999672676
30
0
41
1
10
46.2135230191593
20
-3.00927033514734
30
0
41
1
10
46.2482735850723
20
-3.01601132399046
30
0
41
1
10
46.3176290132757
20
-3.02881264039814
30
0
41
1
10
46.3522533876746
20
-3.03487740007148
30
0
41
1
10
46.4559694548992
20
-3.05206701168234
30
0
41
1
10
46.5248972965026
20
-3.06218946976281
30
0
41
1
10
46.6623585124644
20
-3.07975612604008
30
0
41
1
10
46.730914378735
20
-3.08719160592455
30
0
41
1
10
46.9366025918425
20
-3.10540514363919
30
0
41
1
10
47.0737034225895
20
-3.11212581568452
30
0
41
1
10
47.3478474564186
20
-3.11499263106219
30
0
41
1
10
47.484929263504
20
-3.11113596603013
30
0
41
1
10
47.7591726842082
20
-3.09282483303912
30
0
41
1
10
47.8963634336065
20
-3.07837026546025
30
0
41
1
10
48.1711294212979
20
-3.03863966867101
30
0
41
1
10
48.3085655610267
20
-3.01328122757221
30
0
41
1
10
48.4818667740722
20
-2.97504364995024
30
0
41
1
10
48.5166089363552
20
-2.96706120367253
30
0
41
1
10
48.5859672171413
20
-2.9504848133526
30
0
41
1
10
48.6898956123354
20
-2.92468873773808
30
0
41
1
10
48.7935303578459
20
-2.89613830108155
30
0
41
1
10
49.0004677020773
20
-2.8354446990349
30
0
41
1
10
49.1379734435353
20
-2.79019265386356
30
0
41
1
10
49.4123242608591
20
-2.69036051826953
30
0
41
1
10
49.549182690302
20
-2.63579151167986
30
0
41
1
10
49.7540590483395
20
-2.54692700662744
30
0
41
1
10
49.8222801746716
20
-2.51612917337459
30
0
41
1
10
49.9590376823658
20
-2.45253362736472
30
0
41
1
10
50.0275236139731
20
-2.41969981686961
30
0
41
1
10
50.1147830231162
20
-2.37662885673032
30
0
41
1
10
50.1334511111035
20
-2.36734319246125
30
0
41
1
10
50.152128340402
20
-2.35798212556122
30
0
0
SPLINE
5
14C
100
AcDbEntity
8
1
62
256
6
ByLayer
370
18
48
1
60
0
100
AcDbSpline
70
4
71
3
72
8
73
4
40
0
40
0
40
0
40
0
40
1
40
1
40
1
40
1
41
1
10
60.945353315898
20
3.98955454075423
30
0
41
1
10
60.9042685946345
20
3.99743215170949
30
0
41
1
10
60.8631959988771
20
4.00470104342926
30
0
41
1
10
60.8221344678626
20
4.01135609566376
30
0
0
SPLINE
5
14D
100
AcDbEntity
8
1
62
256
6
ByLayer
370
18
48
1
60
0
100
AcDbSpline
70
4
71
3
72
27
73
23
40
0
40
0
40
0
40
0
40
0.124999999999999
40
0.124999999999999
40
0.1875
40
0.1875
40
0.218749999999999
40
0.218749999999999
40
0.25
40
0.25
40
0.374999999999999
40
0.499999999999999
40
0.499999999999999
40
0.562499999999999
40
0.562499999999999
40
0.624999999999999
40
0.624999999999999
40
0.749999999999999
40
0.749999999999999
40
0.875
40
0.875
40
1
40
1
40
1
40
1
41
1
10
57.6043127734249
20
-2.54136064762318
30
0
41
1
10
57.5974936709655
20
-2.43267205000649
30
0
41
1
10
57.5907107684896
20
-2.31956044026674
30
0
41
1
10
57.5805196876527
20
-2.14317085045059
30
0
41
1
10
57.5771195406062
20
-2.08325178658564
30
0
41
1
10
57.5720029903801
20
-1.99165778517528
30
0
41
1
10
57.5702928993911
20
-1.9608070191849
30
0
41
1
10
57.5668735731058
20
-1.89868058119336
30
0
41
1
10
57.565167676889
20
-1.86746618772253
30
0
41
1
10
57.5566515609968
20
-1.71064752286912
30
0
41
1
10
57.5431107586672
20
-1.45497131355955
30
0
41
1
10
57.5294711307025
20
-1.19002754977163
30
0
41
1
10
57.5191214420788
20
-0.987831426714706
30
0
41
1
10
57.5156506156389
20
-0.91985024856038
30
0
41
1
10
57.5086650953383
20
-0.782706140194477
30
0
41
1
10
57.5051507538447
20
-0.713497456395686
30
0
41
1
10
57.4945857604331
20
-0.504339180625351
30
0
41
1
10
57.4876228413288
20
-0.364954238541316
30
0
41
1
10
57.4738681151871
20
-0.086287600639821
30
0
41
1
10
57.467075106476
20
0.0529940236232562
30
0
41
1
10
57.4535661498551
20
0.331449779889766
30
0
41
1
10
57.4468495058492
20
0.47062388462902
30
0
41
1
10
57.4400877330442
20
0.609738548140996
30
0
0
SPLINE
5
14E
100
AcDbEntity
8
1
62
256
6
ByLayer
370
13
48
1
60
0
100
AcDbSpline
70
4
71
3
72
9
73
5
40
0
40
0
40
0
40
0
40
0.865010882895163
40
1
40
1
40
1
40
1
41
1
10
58.5783749557482
20
-2.89768859329811
30
0
41
1
10
58.534222051897
20
-2.38126772011947
30
0
41
1
10
58.4826878893486
20
-1.52644194103797
30
0
41
1
10
58.4285671857743
20
-0.525673663817855
30
0
41
1
10
58.4212115221563
20
-0.388826286184582
30
0
0
SPLINE
5
14F
100
AcDbEntity
8
1
62
256
6
ByLayer
370
18
48
1
60
0
100
AcDbSpline
70
4
71
3
72
8
73
4
40
0
40
0
40
0
40
0
40
1
40
1
40
1
40
1
41
1
10
60.1102973727307
20
-3.91049969755736
30
0
41
1
10
60.1513855995617
20
-3.92174052095237
30
0
41
1
10
60.1924764186304
20
-3.93237691932225
30
0
41
1
10
60.2335791832252
20
-3.9424059951856
30
0
0
SPLINE
5
150
100
AcDbEntity
8
1
62
256
6
ByLayer
370
18
48
1
60
0
100
AcDbSpline
70
4
71
3
72
54
73
50
40
0
40
0
40
0
40
0
40
0.125000000000057
40
0.125000000000057
40
0.250000000000114
40
0.250000000000114
40
0.265625000000123
40
0.265625000000123
40
0.281250000000132
40
0.281250000000132
40
0.296875000000141
40
0.296875000000141
40
0.312500000000151
40
0.312500000000151
40
0.343750000000156
40
0.343750000000156
40
0.359375000000159
40
0.359375000000159
40
0.375000000000161
40
0.375000000000161
40
0.406250000000167
40
0.406250000000167
40
0.421875000000161
40
0.421875000000161
40
0.437500000000155
40
0.437500000000155
40
0.468750000000143
40
0.468750000000143
40
0.484375000000137
40
0.484375000000137
40
0.50000000000013
40
0.50000000000013
40
0.507812500000136
40
0.507812500000136
40
0.515625000000141
40
0.515625000000141
40
0.531250000000136
40
0.531250000000136
40
0.546875000000132
40
0.546875000000132
40
0.562500000000128
40
0.562500000000128
40
0.625000000000109
40
0.625000000000109
40
0.750000000000073
40
0.750000000000073
40
0.875000000000037
40
0.875000000000037
40
1
40
1
40
1
40
1
41
1
10
59.8930946255588
20
-3.48759759676693
30
0
41
1
10
59.8600247150575
20
-3.42247645395881
30
0
41
1
10
59.8267769373657
20
-3.35703409044308
30
0
41
1
10
59.7602719073425
20
-3.22520256676313
30
0
41
1
10
59.7270954259601
20
-3.15873816175605
30
0
41
1
10
59.6890532281134
20
-3.08406573477541
30
0
41
1
10
59.6848156499483
20
-3.07577045822256
30
0
41
1
10
59.6763148735495
20
-3.05918650718502
30
0
41
1
10
59.6720841073881
20
-3.05087237017665
30
0
41
1
10
59.6634038127881
20
-3.03440225260957
30
0
41
1
10
59.6588950710195
20
-3.02629277202831
30
0
41
1
10
59.6490558141856
20
-3.01070446721408
30
0
41
1
10
59.6437351993929
20
-3.00317000966805
30
0
41
1
10
59.627200821957
20
-2.98166443864903
30
0
41
1
10
59.6153484077754
20
-2.96861771471234
30
0
41
1
10
59.5964174158065
20
-2.9508532453498
30
0
41
1
10
59.5899146289584
20
-2.94523345102581
30
0
41
1
10
59.5765554368854
20
-2.93455034099841
30
0
41
1
10
59.5696744299735
20
-2.92947296223636
30
0
41
1
10
59.548821621537
20
-2.91528325214335
30
0
41
1
10
59.5345740812374
20
-2.90712188500169
30
0
41
1
10
59.512671801668
20
-2.89700217302885
30
0
41
1
10
59.5052812769276
20
-2.8939881055075
30
0
41
1
10
59.4902995290188
20
-2.888793307605
30
0
41
1
10
59.4826746965684
20
-2.88661496541633
30
0
41
1
10
59.4599472364847
20
-2.88147727292565
30
0
41
1
10
59.4448761069009
20
-2.87981979758413
30
0
41
1
10
59.422447848044
20
-2.88022206529379
30
0
41
1
10
59.4149563425021
20
-2.88085396322666
30
0
41
1
10
59.4003200092027
20
-2.88325969465237
30
0
41
1
10
59.3931779679002
20
-2.88502283343294
30
0
41
1
10
59.3828015389356
20
-2.88872941308711
30
0
41
1
10
59.3793989748279
20
-2.89014234876936
30
0
41
1
10
59.37271991966
20
-2.89336460966501
30
0
41
1
10
59.3694286820443
20
-2.89518491797603
30
0
41
1
10
59.3599505565473
20
-2.90118992555872
30
0
41
1
10
59.3541374503996
20
-2.90596340564616
30
0
41
1
10
59.3434209036773
20
-2.91688869072246
30
0
41
1
10
59.3384855170562
20
-2.92299717296513
30
0
41
1
10
59.3288518670263
20
-2.93550625635857
30
0
41
1
10
59.3240958024187
20
-2.9418154790479
30
0
41
1
10
59.3001807410002
20
-2.97308148513977
30
0
41
1
10
59.2810264536032
20
-2.99771445345428
30
0
41
1
10
59.2235372758528
20
-3.07053955325478
30
0
41
1
10
59.1851618002726
20
-3.11767863807526
30
0
41
1
10
59.1087217449661
20
-3.20903223989976
30
0
41
1
10
59.0706292724395
20
-3.25328670592955
30
0
41
1
10
58.9947060371153
20
-3.3390637365581
30
0
41
1
10
58.9568452926447
20
-3.38054134890092
30
0
41
1
10
58.919347925002
20
-3.42106241465996
30
0
0
SPLINE
5
151
100
AcDbEntity
8
1
62
256
6
ByLayer
370
18
48
1
60
0
100
AcDbSpline
70
4
71
3
72
8
73
4
40
0
40
0
40
0
40
0
40
1
40
1
40
1
40
1
41
1
10
58.7952227487781
20
-3.35216866632041
30
0
41
1
10
58.8365940794589
20
-3.37565911517871
30
0
41
1
10
58.8779658615665
20
-3.39862569782653
30
0
41
1
10
58.9193479249999
20
-3.4210624146742
30
0
0
SPLINE
5
152
100
AcDbEntity
8
1
62
256
6
ByLayer
370
18
48
1
60
0
100
AcDbSpline
70
4
71
3
72
8
73
4
40
0
40
0
40
0
40
0
40
1
40
1
40
1
40
1
41
1
10
58.7952227487782
20
-3.35216866632041
30
0
41
1
10
58.7227804039247
20
-3.20130956617987
30
0
41
1
10
58.651043259311
20
-3.04931692036811
30
0
41
1
10
58.5783749557482
20
-2.89768859329811
30
0
0
SPLINE
5
153
100
AcDbEntity
8
1
62
256
6
ByLayer
370
18
48
1
60
0
100
AcDbSpline
70
4
71
3
72
54
73
50
40
0
40
0
40
0
40
0
40
0.124999999999755
40
0.124999999999755
40
0.24999999999951
40
0.24999999999951
40
0.265624999999482
40
0.265624999999482
40
0.281249999999453
40
0.281249999999453
40
0.296874999999425
40
0.296874999999425
40
0.312499999999396
40
0.312499999999396
40
0.343749999999352
40
0.343749999999352
40
0.35937499999933
40
0.35937499999933
40
0.374999999999308
40
0.374999999999308
40
0.406249999999263
40
0.406249999999263
40
0.42187499999924
40
0.42187499999924
40
0.437499999999218
40
0.437499999999218
40
0.46874999999919
40
0.46874999999919
40
0.484374999999185
40
0.484374999999185
40
0.49999999999918
40
0.49999999999918
40
0.507812499999186
40
0.507812499999186
40
0.515624999999191
40
0.515624999999191
40
0.531249999999217
40
0.531249999999217
40
0.546874999999243
40
0.546874999999243
40
0.562499999999269
40
0.562499999999269
40
0.624999999999374
40
0.624999999999374
40
0.749999999999583
40
0.749999999999583
40
0.874999999999791
40
0.874999999999791
40
1
40
1
40
1
40
1
41
1
10
58.5783749557482
20
-2.89768859329811
30
0
41
1
10
58.5452960640301
20
-2.8286667947059
30
0
41
1
10
58.5120417947121
20
-2.75975949149935
30
0
41
1
10
58.4455256463129
20
-2.62201895511225
30
0
41
1
10
58.4123444515747
20
-2.5531383270793
30
0
41
1
10
58.3742945604837
20
-2.47608553081505
30
0
41
1
10
58.3700560932983
20
-2.46753027386615
30
0
41
1
10
58.3615534537144
20
-2.45043401152424
30
0
41
1
10
58.3573223265157
20
-2.44187837038737
30
0
41
1
10
58.3486359541234
20
-2.42486923309011
30
0
41
1
10
58.3441208552425
20
-2.41644224422254
30
0
41
1
10
58.3342670498889
20
-2.39995612122402
30
0
41
1
10
58.3289407576137
20
-2.39185246236678
30
0
41
1
10
58.3123955546076
20
-2.36840468754477
30
0
41
1
10
58.3005346956275
20
-2.35374126234694
30
0
41
1
10
58.2815869002548
20
-2.33309996856281
30
0
41
1
10
58.2750780812758
20
-2.32644538908778
30
0
41
1
10
58.2617056332645
20
-2.31355260520286
30
0
41
1
10
58.2548191042581
20
-2.30729739371739
30
0
41
1
10
58.2339553815267
20
-2.28942422966938
30
0
41
1
10
58.2196991046988
20
-2.27859304236063
30
0
41
1
10
58.1977804387997
20
-2.26410630041724
30
0
41
1
10
58.1903838970551
20
-2.25957519395479
30
0
41
1
10
58.1753885943067
20
-2.25120125765523
30
0
41
1
10
58.1677594825552
20
-2.24735323016921
30
0
41
1
10
58.1450280094641
20
-2.23707821570599
30
0
41
1
10
58.1299529574293
20
-2.23180144114619
30
0
41
1
10
58.107516987012
20
-2.22644470541618
30
0
41
1
10
58.1000225578155
20
-2.22508867997399
30
0
41
1
10
58.0853929048563
20
-2.22345710401297
30
0
41
1
10
58.0782542250421
20
-2.22317218689733
30
0
41
1
10
58.0678832120214
20
-2.22375143273456
30
0
41
1
10
58.0644824894716
20
-2.22411260922911
30
0
41
1
10
58.0578072563804
20
-2.22521064739766
30
0
41
1
10
58.0545200431379
20
-2.22595300414508
30
0
41
1
10
58.0450620616266
20
-2.22874826933901
30
0
41
1
10
58.0392634274687
20
-2.23140801569568
30
0
41
1
10
58.0285676394164
20
-2.23813496104236
30
0
41
1
10
58.0236380422159
20
-2.24215613114765
30
0
41
1
10
58.0140065780142
20
-2.25047689072542
30
0
41
1
10
58.0092459442809
20
-2.2546837874624
30
0
41
1
10
57.9853181921085
20
-2.27540666295815
30
0
41
1
10
57.966154083386
20
-2.29150080060279
30
0
41
1
10
57.9086364132859
20
-2.33840636834117
30
0
41
1
10
57.8702442787796
20
-2.36785282316273
30
0
41
1
10
57.7937710112954
20
-2.42318588623462
30
0
41
1
10
57.7556613068777
20
-2.4491028752723
30
0
41
1
10
57.6797024274436
20
-2.49758311822654
30
0
41
1
10
57.6418238628065
20
-2.52009895567952
30
0
41
1
10
57.604312773433
20
-2.54136064761411
30
0
0
SPLINE
5
154
100
AcDbEntity
8
1
62
256
6
ByLayer
370
18
48
1
60
0
100
AcDbSpline
70
4
71
3
72
8
73
4
40
0
40
0
40
0
40
0
40
1
40
1
40
1
40
1
41
1
10
57.4812460972264
20
-2.44372409151714
30
0
41
1
10
57.5222673913943
20
-2.4766446335627
30
0
41
1
10
57.5632861437175
20
-2.5091930760176
30
0
41
1
10
57.6043127734312
20
-2.54136064762403
30
0
0
SPLINE
5
155
100
AcDbEntity
8
1
62
256
6
ByLayer
370
18
48
1
60
0
100
AcDbSpline
70
4
71
3
72
8
73
4
40
0
40
0
40
0
40
0
40
1
40
1
40
1
40
1
41
1
10
56.1659173334124
20
-1.27856494183783
30
0
41
1
10
56.2073138442161
20
-1.31804708039317
30
0
41
1
10
56.2487107315072
20
-1.35733097866006
30
0
41
1
10
56.2901192245009
20
-1.39640584246445
30
0
0
SPLINE
5
156
100
AcDbEntity
8
1
62
256
6
ByLayer
370
18
48
1
60
0
100
AcDbSpline
70
4
71
3
72
8
73
4
40
0
40
0
40
0
40
0
40
1
40
1
40
1
40
1
41
1
10
54.8516298471943
20
0.0193864423399077
30
0
41
1
10
54.8927029278893
20
-0.021879594310775
30
0
41
1
10
54.9337788827645
20
-0.0631489376421257
30
0
41
1
10
54.9748676675567
20
-0.104411644607353
30
0
0
SPLINE
5
157
100
AcDbEntity
8
1
62
256
6
ByLayer
370
18
48
1
60
0
100
AcDbSpline
70
4
71
3
72
10
73
6
40
0
40
0
40
0
40
0
40
0.499999999999999
40
0.499999999999999
40
1
40
1
40
1
40
1
41
1
10
54.8516298471943
20
0.0193864423399077
30
0
41
1
10
54.8153556553931
20
0.0686018513741828
30
0
41
1
10
54.7792394096619
20
0.11624504405043
30
0
41
1
10
54.7069732707091
20
0.208492026745859
30
0
41
1
10
54.6708176902068
20
0.25310465065624
30
0
41
1
10
54.6343953311719
20
0.296324625730676
30
0
0
SPLINE
5
158
100
AcDbEntity
8
1
62
256
6
ByLayer
370
18
48
1
60
0
100
AcDbSpline
70
4
71
3
72
50
73
46
40
0
40
0
40
0
40
0
40
0.124999999999869
40
0.124999999999869
40
0.249999999999739
40
0.249999999999739
40
0.281249999999709
40
0.281249999999709
40
0.296874999999694
40
0.296874999999694
40
0.312499999999679
40
0.312499999999679
40
0.328124999999664
40
0.328124999999664
40
0.343749999999649
40
0.343749999999649
40
0.37499999999962
40
0.37499999999962
40
0.390624999999613
40
0.390624999999613
40
0.406249999999607
40
0.406249999999607
40
0.437499999999594
40
0.437499999999594
40
0.453124999999596
40
0.453124999999596
40
0.468749999999599
40
0.468749999999599
40
0.499999999999604
40
0.499999999999604
40
0.515624999999615
40
0.515624999999615
40
0.531249999999626
40
0.531249999999626
40
0.546874999999638
40
0.546874999999638
40
0.562499999999649
40
0.562499999999649
40
0.624999999999694
40
0.624999999999694
40
0.749999999999796
40
0.749999999999796
40
0.874999999999898
40
0.874999999999898
40
1
40
1
40
1
40
1
41
1
10
54.6343953311719
20
0.296324625730506
30
0
41
1
10
54.6018708992743
20
0.334919191628387
30
0
41
1
10
54.5691715513136
20
0.372356342151392
30
0
41
1
10
54.5037456146831
20
0.444598306678785
30
0
41
1
10
54.471106108344
20
0.4793458859439
30
0
41
1
10
54.4295332844492
20
0.521618851185423
30
0
41
1
10
54.4211965007134
20
0.530003756558898
30
0
41
1
10
54.4085510741277
20
0.542547951136271
30
0
41
1
10
54.4042768392208
20
0.546748202872067
30
0
41
1
10
54.3950444894962
20
0.555568717183263
30
0
41
1
10
54.3900821878918
20
0.560191630324908
30
0
41
1
10
54.3795523795561
20
0.569802657479812
30
0
41
1
10
54.3739996998428
20
0.574780748565956
30
0
41
1
10
54.3623624100372
20
0.58505329465541
30
0
41
1
10
54.3563163641331
20
0.590312726387879
30
0
41
1
10
54.3377552250248
20
0.606247227583509
30
0
41
1
10
54.3247194851587
20
0.617164446247898
30
0
41
1
10
54.3043490281929
20
0.633924839664616
30
0
41
1
10
54.2974195866768
20
0.639577494220049
30
0
41
1
10
54.2832784734822
20
0.651024723485619
30
0
41
1
10
54.276062310629
20
0.656822410642064
30
0
41
1
10
54.2543663348319
20
0.674137813446833
30
0
41
1
10
54.2397129823118
20
0.685678938234929
30
0
41
1
10
54.2174430881124
20
0.703046947261441
30
0
41
1
10
54.2099732485673
20
0.708845535601768
30
0
41
1
10
54.1949450135968
20
0.720471567274586
30
0
41
1
10
54.1873489097348
20
0.726327920797587
30
0
41
1
10
54.164882582767
20
0.74360815979918
30
0
41
1
10
54.150223688647
20
0.754832429080807
30
0
41
1
10
54.1289479093822
20
0.771088665367358
30
0
41
1
10
54.1220629388427
20
0.77634196525554
30
0
41
1
10
54.1090525781741
20
0.786256535456403
30
0
41
1
10
54.1028879514768
20
0.790947920862749
30
0
41
1
10
54.0913523755916
20
0.799711941132699
30
0
41
1
10
54.0860953966497
20
0.803696435505685
30
0
41
1
10
54.0762156792892
20
0.811203873020816
30
0
41
1
10
54.0715248606924
20
0.814780290390445
30
0
41
1
10
54.0477908661402
20
0.833036174534527
30
0
41
1
10
54.0287809140726
20
0.848116070167947
30
0
41
1
10
53.9717234726322
20
0.894722261076907
30
0
41
1
10
53.9336684891301
20
0.927601038604735
30
0
41
1
10
53.8578544939699
20
0.996536145339434
30
0
41
1
10
53.8200677509421
20
1.03261434002289
30
0
41
1
10
53.744743952157
20
1.10784066045849
30
0
41
1
10
53.7071691006293
20
1.14702280411308
30
0
41
1
10
53.6699206684533
20
1.18750160867995
30
0
0
SPLINE
5
159
100
AcDbEntity
8
1
62
256
6
ByLayer
370
18
48
1
60
0
100
AcDbSpline
70
4
71
3
72
8
73
4
40
0
40
0
40
0
40
0
40
1
40
1
40
1
40
1
41
1
10
53.6699206684455
20
1.18750160868851
30
0
41
1
10
53.5958978611989
20
1.25500586070297
30
0
41
1
10
53.5217508365788
20
1.31965386313527
30
0
41
1
10
53.4473598169057
20
1.38140703380535
30
0
0
SPLINE
5
15A
100
AcDbEntity
8
1
62
256
6
ByLayer
370
18
48
1
60
0
100
AcDbSpline
70
4
71
3
72
8
73
4
40
0
40
0
40
0
40
0
40
1
40
1
40
1
40
1
41
1
10
53.4473598169057
20
1.38140703380535
30
0
41
1
10
53.404967894855
20
1.4107460610353
30
0
41
1
10
53.3626115777493
20
1.43759161294975
30
0
41
1
10
53.319909931085
20
1.46224939630784
30
0
0
SPLINE
5
15B
100
AcDbEntity
8
1
62
256
6
ByLayer
370
18
48
1
60
0
100
AcDbSpline
70
4
71
3
72
46
73
42
40
0
40
0
40
0
40
0
40
0.249999999999882
40
0.249999999999882
40
0.374999999999823
40
0.374999999999823
40
0.437499999999793
40
0.437499999999793
40
0.468749999999786
40
0.468749999999786
40
0.499999999999779
40
0.499999999999779
40
0.531249999999772
40
0.531249999999772
40
0.562499999999765
40
0.562499999999765
40
0.624999999999775
40
0.624999999999775
40
0.65624999999978
40
0.65624999999978
40
0.687499999999786
40
0.687499999999786
40
0.718749999999791
40
0.718749999999791
40
0.749999999999796
40
0.749999999999796
40
0.781249999999802
40
0.781249999999802
40
0.812499999999807
40
0.812499999999807
40
0.843749999999812
40
0.843749999999812
40
0.859374999999826
40
0.859374999999826
40
0.874999999999839
40
0.874999999999839
40
0.890624999999853
40
0.890624999999853
40
0.906249999999866
40
0.937499999999911
40
1
40
1
40
1
40
1
41
1
10
53.319909931085
20
1.46224939630761
30
0
41
1
10
53.2789689170947
20
1.48589051397619
30
0
41
1
10
53.2377874814827
20
1.50746289090452
30
0
41
1
10
53.1760509972115
20
1.5361960767506
30
0
41
1
10
53.1554436884762
20
1.54520506888198
30
0
41
1
10
53.1242153702381
20
1.55811485666692
30
0
41
1
10
53.113753250297
20
1.56231748001184
30
0
41
1
10
53.0979374053007
20
1.56851115716631
30
0
41
1
10
53.0927110708759
20
1.5704912955232
30
0
41
1
10
53.0813268404928
20
1.5753058961692
30
0
41
1
10
53.0750970302941
20
1.57821186607595
30
0
41
1
10
53.0616932981134
20
1.58488620758558
30
0
41
1
10
53.0545110879579
20
1.58864551377332
30
0
41
1
10
53.0394814131521
20
1.59682921187931
30
0
41
1
10
53.0316982379671
20
1.60122264923967
30
0
41
1
10
53.0075975470883
20
1.61526312150119
30
0
41
1
10
52.9905897288265
20
1.62568963956525
30
0
41
1
10
52.9637711065334
20
1.64290919950329
30
0
41
1
10
52.9546636274391
20
1.64888635041376
30
0
41
1
10
52.9363759543344
20
1.66118661646325
30
0
41
1
10
52.9271568691989
20
1.66753530867564
30
0
41
1
10
52.9085627151256
20
1.68070813588466
30
0
41
1
10
52.8991896420465
20
1.68752634452747
30
0
41
1
10
52.8803033658299
20
1.70165726992656
30
0
41
1
10
52.8707345212568
20
1.70901521294181
30
0
41
1
10
52.8519565675706
20
1.72390980548624
30
0
41
1
10
52.8427014365736
20
1.73147685827979
30
0
41
1
10
52.8245236136987
20
1.74691275336826
30
0
41
1
10
52.8155164078883
20
1.75486327011035
30
0
41
1
10
52.7986240679543
20
1.77060283024005
30
0
41
1
10
52.7906949040593
20
1.77842110821865
30
0
41
1
10
52.7797377550886
20
1.79005713003781
30
0
41
1
10
52.7762564900354
20
1.79391275512145
30
0
41
1
10
52.7696773186749
20
1.80144639739262
30
0
41
1
10
52.7665537518084
20
1.80515006642582
30
0
41
1
10
52.7604594597288
20
1.81250853471417
30
0
41
1
10
52.7574853485352
20
1.81616480541061
30
0
41
1
10
52.7515125435502
20
1.82350584405776
30
0
41
1
10
52.7425515206421
20
1.83454488243865
30
0
41
1
10
52.7216311118613
20
1.86049384740119
30
0
41
1
10
52.7036841497341
20
1.88305980313999
30
0
41
1
10
52.6917157948255
20
1.89824476196503
30
0
0
SPLINE
5
15C
100
AcDbEntity
8
1
62
256
6
ByLayer
370
18
48
1
60
0
100
AcDbSpline
70
4
71
3
72
8
73
4
40
0
40
0
40
0
40
0
40
1
40
1
40
1
40
1
41
1
10
52.6917157948255
20
1.89824476196503
30
0
41
1
10
52.5645095310332
20
1.96625690720117
30
0
41
1
10
52.4361750965967
20
2.0252884620688
30
0
41
1
10
52.3060780818729
20
2.07491525543088
30
0
0
SPLINE
5
15D
100
AcDbEntity
8
1
62
256
6
ByLayer
370
18
48
1
60
0
100
AcDbSpline
70
4
71
3
72
12
73
8
40
0
40
0
40
0
40
0
40
0.25
40
0.25
40
0.5
40
0.5
40
1
40
1
40
1
40
1
41
1
10
52.3060780818729
20
2.07491525543088
30
0
41
1
10
52.264652546541
20
2.09071743572073
30
0
41
1
10
52.2220657681512
20
2.10748899912937
30
0
41
1
10
52.1345229926763
20
2.14277609097107
30
0
41
1
10
52.0894986940643
20
2.16122335332244
30
0
41
1
10
51.9513227034412
20
2.22003110518864
30
0
41
1
10
51.8551189725007
20
2.26384094287113
30
0
41
1
10
51.7560780818729
20
2.31489587319317
30
0
0
SPLINE
5
15E
100
AcDbEntity
8
1
62
256
6
ByLayer
370
18
48
1
60
0
100
AcDbSpline
70
4
71
3
72
44
73
40
40
0
40
0
40
0
40
0
40
0.0583839348580954
40
0.0583839348580954
40
0.0875759022871409
40
0.0875759022871409
40
0.116767869716186
40
0.233535739432364
40
0.233535739432364
40
0.291919674290453
40
0.291919674290453
40
0.350303609148542
40
0.350303609148542
40
0.379495576577588
40
0.379495576577588
40
0.408687544006635
40
0.408687544006635
40
0.467071478864732
40
0.467071478864732
40
0.52545541372283
40
0.52545541372283
40
0.583839348580928
40
0.583839348580928
40
0.642223283439026
40
0.642223283439026
40
0.700607218297123
40
0.700607218297123
40
0.758991153155221
40
0.758991153155221
40
0.773587136869743
40
0.773587136869743
40
0.788183120584266
40
0.817375088013306
40
0.817375088013306
40
0.875759022871381
40
0.875759022871381
40
0.934142957729457
40
0.934142957729457
40
1
40
1
40
1
40
1
41
1
10
51.7560780818729
20
2.31489587319314
30
0
41
1
10
51.6412454939041
20
2.37409132004632
30
0
41
1
10
51.5268989570747
20
2.4302064151718
30
0
41
1
10
51.3556991864574
20
2.50955390161337
30
0
41
1
10
51.2986661793592
20
2.53518492592988
30
0
41
1
10
51.1847804282294
20
2.58491696542964
30
0
41
1
10
50.9005223279449
20
2.70542042566189
30
0
41
1
10
50.6178892844341
20
2.8063394956051
30
0
41
1
10
50.2780404279123
20
2.90725158361124
30
0
41
1
10
50.1646443569993
20
2.93752526237128
30
0
41
1
10
49.9372117849829
20
2.99111383375123
30
0
41
1
10
49.8231518493012
20
3.01442173452531
30
0
41
1
10
49.6513452080779
20
3.04403068833125
30
0
41
1
10
49.5939986738809
20
3.05302049611913
30
0
41
1
10
49.4791014820601
20
3.06919942837075
30
0
41
1
10
49.4216780799869
20
3.07636690584164
30
0
41
1
10
49.2499267503208
20
3.09504271568744
30
0
41
1
10
49.1359076827372
20
3.10375504141706
30
0
41
1
10
48.9084712268297
20
3.11377059862701
30
0
41
1
10
48.7950552741214
20
3.11507325555937
30
0
41
1
10
48.5684382386454
20
3.11033783302841
30
0
41
1
10
48.4552542118562
20
3.10429641017575
30
0
41
1
10
48.2286016055855
20
3.08497636826982
30
0
41
1
10
48.115107372577
20
3.07171565438586
30
0
41
1
10
47.888023919936
20
3.03791723546809
30
0
41
1
10
47.7743879893936
20
3.01738059666371
30
0
41
1
10
47.5465628049015
20
2.96901218958521
30
0
41
1
10
47.4323743972393
20
2.94117996621799
30
0
41
1
10
47.2890522675728
20
2.90182200811339
30
0
41
1
10
47.2603374768773
20
2.89371598670041
30
0
41
1
10
47.2029753622725
20
2.87708693270272
30
0
41
1
10
47.1170219546057
20
2.8515159188687
30
0
41
1
10
47.0313060876447
20
2.82409042439107
30
0
41
1
10
46.8601035835485
20
2.76684490481043
30
0
41
1
10
46.7462354641563
20
2.72551342749372
30
0
41
1
10
46.5187859970707
20
2.63680797882194
30
0
41
1
10
46.4053190639622
20
2.58935684976959
30
0
41
1
10
46.1641738569409
20
2.4819687551761
30
0
41
1
10
46.0365013363794
20
2.42123445020701
30
0
41
1
10
45.9087254884152
20
2.35688084554482
30
0
0
SPLINE
5
15F
100
AcDbEntity
8
1
62
256
6
ByLayer
370
18
48
1
60
0
100
AcDbSpline
70
4
71
3
72
77
73
73
40
0
40
0
40
0
40
0
40
0.0072799913795074
40
0.0072799913795074
40
0.0545523727423998
40
0.0545523727423998
40
0.0781885634238445
40
0.0781885634238445
40
0.101824754105289
40
0.101824754105289
40
0.11364284944601
40
0.11364284944601
40
0.125460944786731
40
0.149097135468173
40
0.149097135468173
40
0.196369516831059
40
0.196369516831059
40
0.220005707512503
40
0.220005707512503
40
0.243641898193946
40
0.243641898193946
40
0.267278088875389
40
0.267278088875389
40
0.290914279556832
40
0.290914279556832
40
0.338186660919719
40
0.338186660919719
40
0.361822851601162
40
0.361822851601162
40
0.373640946941882
40
0.373640946941882
40
0.385459042282602
40
0.385459042282602
40
0.409095232964039
40
0.409095232964039
40
0.432731423645477
40
0.432731423645477
40
0.480003805008351
40
0.480003805008351
40
0.527276186371226
40
0.527276186371226
40
0.5745485677341
40
0.5745485677341
40
0.621820949096975
40
0.621820949096975
40
0.633639044437693
40
0.633639044437693
40
0.645457139778412
40
0.669093330459849
40
0.669093330459849
40
0.716365711822724
40
0.716365711822724
40
0.763638093185598
40
0.763638093185598
40
0.787274283867037
40
0.787274283867037
40
0.810910474548476
40
0.810910474548476
40
0.858182855911356
40
0.858182855911356
40
0.881819046592795
40
0.881819046592795
40
0.893637141933514
40
0.893637141933514
40
0.905455237274234
40
0.929091427955675
40
0.929091427955675
40
0.952727618637117
40
0.952727618637117
40
0.976363809318558
40
0.976363809318558
40
1
40
1
40
1
40
1
41
1
10
43.0204880472991
20
3.11385040094353
30
0
41
1
10
43.0415927044201
20
3.11385169848654
30
0
41
1
10
43.0626978172661
20
3.11372719333127
30
0
41
1
10
43.2208550276141
20
3.11185075713684
30
0
41
1
10
43.3579279654652
20
3.1049170806188
30
0
41
1
10
43.5637293990514
20
3.08634402576152
30
0
41
1
10
43.632368361632
20
3.07878543733074
30
0
41
1
10
43.7701493946539
20
3.06099546908268
30
0
41
1
10
43.839255462683
20
3.050760735609
30
0
41
1
10
43.9432503712447
20
3.03339500286546
30
0
41
1
10
43.978001416324
20
3.02726480735384
30
0
41
1
10
44.0474240413912
20
3.01436616103675
30
0
41
1
10
44.1514505761071
20
2.99406013117007
30
0
41
1
10
44.2551591914046
20
2.97090757890365
30
0
41
1
10
44.4621999536297
20
2.92087419657321
30
0
41
1
10
44.5997111384279
20
2.88254721023785
30
0
41
1
10
44.8053821801508
20
2.81774790412405
30
0
41
1
10
44.8738403475374
20
2.79492898750851
30
0
41
1
10
45.0105708749577
20
2.74684930029133
30
0
41
1
10
45.0788351084803
20
2.72158152593261
30
0
41
1
10
45.2153899801967
20
2.66872448539814
30
0
41
1
10
45.2837000131652
20
2.64114765662774
30
0
41
1
10
45.4206536090566
20
2.58390497459467
30
0
41
1
10
45.4892335333726
20
2.55419637248431
30
0
41
1
10
45.6952122672069
20
2.46175822525032
30
0
41
1
10
45.8329110772782
20
2.39576633749328
30
0
41
1
10
46.0402249878382
20
2.29027917522535
30
0
41
1
10
46.109456971267
20
2.25403194098863
30
0
41
1
10
46.2135230191593
20
2.19802921469929
30
0
41
1
10
46.2482735850724
20
2.17907504249382
30
0
41
1
10
46.3176290132757
20
2.14074315872526
30
0
41
1
10
46.3522533876746
20
2.12135541236947
30
0
41
1
10
46.4559694548992
20
2.06253159406157
30
0
41
1
10
46.5248972965026
20
2.02242827222059
30
0
41
1
10
46.6623585124644
20
1.94048829697306
30
0
41
1
10
46.730914378735
20
1.89867315161908
30
0
41
1
10
46.9366025918425
20
1.77129076674277
30
0
41
1
10
47.0737034225896
20
1.6837440615021
30
0
41
1
10
47.3478474564186
20
1.50351967420772
30
0
41
1
10
47.484929263504
20
1.41088472987187
30
0
41
1
10
47.7591726842082
20
1.22062965579207
30
0
41
1
10
47.8963634336065
20
1.12304274923605
30
0
41
1
10
48.171129421298
20
0.923124543531657
30
0
41
1
10
48.3085655610267
20
0.820594929041903
30
0
41
1
10
48.4818667740722
20
0.691020280222517
30
0
41
1
10
48.5166089363552
20
0.66500284578666
30
0
41
1
10
48.5859672171413
20
0.61294527006433
30
0
41
1
10
48.6898956123354
20
0.53477436459184
30
0
41
1
10
48.7935303578459
20
0.456392795393782
30
0
41
1
10
49.0004677020773
20
0.299424505104923
30
0
41
1
10
49.1379734435354
20
0.194492223942859
30
0
41
1
10
49.4123242608591
20
-0.0156289514718537
30
0
41
1
10
49.549182690302
20
-0.12080034092466
30
0
41
1
10
49.7540590483395
20
-0.278633602055919
30
0
41
1
10
49.8222801746716
20
-0.331260187973669
30
0
41
1
10
49.9590376823659
20
-0.43594311805461
30
0
41
1
10
50.0275236139731
20
-0.488065996271359
30
0
41
1
10
50.2333241700142
20
-0.643751698672844
30
0
41
1
10
50.371003791171
20
-0.746602852233423
30
0
41
1
10
50.5784073495751
20
-0.899249829306342
30
0
41
1
10
50.6476851846548
20
-0.949865675930283
30
0
41
1
10
50.7518483598592
20
-1.0253471285333
30
0
41
1
10
50.7866140964411
20
-1.05043639936071
30
0
41
1
10
50.856055823772
20
-1.10033605620146
30
0
41
1
10
50.9601489612513
20
-1.17481497495274
30
0
41
1
10
51.0640466246716
20
-1.24816832709766
30
0
41
1
10
51.2024096641922
20
-1.34495969183877
30
0
41
1
10
51.2714866900253
20
-1.39287297344939
30
0
41
1
10
51.4095694491772
20
-1.4875618352134
30
0
41
1
10
51.4786915389246
20
-1.53420296547529
30
0
41
1
10
51.6172121283614
20
-1.62595817568277
30
0
41
1
10
51.6865930458053
20
-1.67109279998166
30
0
41
1
10
51.7560780818729
20
-1.71550369326283
30
0
0
SPLINE
5
160
100
AcDbEntity
8
1
62
256
6
ByLayer
370
18
48
1
60
0
100
AcDbSpline
70
4
71
3
72
16
73
12
40
0
40
0
40
0
40
0
40
0.25
40
0.25
40
0.499999999999999
40
0.499999999999999
40
0.749999999999999
40
0.749999999999999
40
0.875
40
0.875
40
1
40
1
40
1
40
1
41
1
10
51.7560780818729
20
-1.71550369326283
30
0
41
1
10
51.8029120795627
20
-1.74543732776948
30
0
41
1
10
51.8496530830951
20
-1.77633792408645
30
0
41
1
10
51.9426990703928
20
-1.840381573147
30
0
41
1
10
51.9890046617799
20
-1.87352259696465
30
0
41
1
10
52.081009331434
20
-1.9423457037233
30
0
41
1
10
52.1267060406722
20
-1.97802737404868
30
0
41
1
10
52.1947290076444
20
-2.03371525127298
30
0
41
1
10
52.2173201384515
20
-2.0526375301354
30
0
41
1
10
52.2620350986598
20
-2.09099554855408
30
0
41
1
10
52.2841900599375
20
-2.11046549894451
30
0
41
1
10
52.306078081873
20
-2.13029819026716
30
0
0
SPLINE
5
161
100
AcDbEntity
8
1
62
256
6
ByLayer
370
18
48
1
60
0
100
AcDbSpline
70
4
71
3
72
10
73
6
40
0
40
0
40
0
40
0
40
0.5
40
0.5
40
1
40
1
40
1
40
1
41
1
10
52.306078081873
20
-2.13029819026718
30
0
41
1
10
52.4079124914595
20
-2.22257013778724
30
0
41
1
10
52.5085243546775
20
-2.31549151826471
30
0
41
1
10
52.7074967078073
20
-2.50235644369931
30
0
41
1
10
52.8058877243557
20
-2.59627369033524
30
0
41
1
10
52.9034405605908
20
-2.69040038116287
30
0
0
SPLINE
5
162
100
AcDbEntity
8
1
62
256
6
ByLayer
370
18
48
1
60
0
100
AcDbSpline
70
4
71
3
72
50
73
46
40
0
40
0
40
0
40
0
40
0.249999999999901
40
0.249999999999901
40
0.281249999999893
40
0.281249999999893
40
0.296874999999889
40
0.296874999999889
40
0.312499999999885
40
0.312499999999885
40
0.37499999999987
40
0.37499999999987
40
0.406249999999874
40
0.406249999999874
40
0.437499999999878
40
0.437499999999878
40
0.468749999999882
40
0.468749999999882
40
0.484374999999872
40
0.484374999999872
40
0.499999999999861
40
0.499999999999861
40
0.531249999999865
40
0.531249999999865
40
0.562499999999869
40
0.562499999999869
40
0.578124999999871
40
0.578124999999871
40
0.593749999999873
40
0.593749999999873
40
0.609374999999875
40
0.609374999999875
40
0.624999999999877
40
0.624999999999877
40
0.640624999999879
40
0.640624999999879
40
0.656249999999881
40
0.656249999999881
40
0.687499999999902
40
0.687499999999902
40
0.749999999999928
40
0.749999999999928
40
0.874999999999964
40
0.874999999999964
40
1
40
1
40
1
40
1
41
1
10
52.9034405605908
20
-2.6904003811629
30
0
41
1
10
52.9505470391473
20
-2.66991814307806
30
0
41
1
10
52.9978286145383
20
-2.64648875929984
30
0
41
1
10
53.0510528074219
20
-2.61651573537307
30
0
41
1
10
53.0569435045437
20
-2.61310651896446
30
0
41
1
10
53.0665546535571
20
-2.60889178306832
30
0
41
1
10
53.0698868298645
20
-2.60763567426844
30
0
41
1
10
53.0769090041219
20
-2.60554692115113
30
0
41
1
10
53.0806031236905
20
-2.60471151603517
30
0
41
1
10
53.0995846382532
20
-2.60158643896671
30
0
41
1
10
53.1166301505547
20
-2.60232707189417
30
0
41
1
10
53.1441105832978
20
-2.60676623743592
30
0
41
1
10
53.1536332108992
20
-2.60882853303374
30
0
41
1
10
53.1728917765619
20
-2.61397833532755
30
0
41
1
10
53.1826724708223
20
-2.6170706788109
30
0
41
1
10
53.2025371786381
20
-2.62436571212652
30
0
41
1
10
53.2126224842172
20
-2.62857311120572
30
0
41
1
10
53.228000350893
20
-2.63587183970694
30
0
41
1
10
53.2331733433179
20
-2.63846998776114
30
0
41
1
10
53.243450642977
20
-2.64390970198062
30
0
41
1
10
53.2485731319872
20
-2.64675942351181
30
0
41
1
10
53.263890017315
20
-2.6556915090255
30
0
41
1
10
53.2740344989905
20
-2.6621517962412
30
0
41
1
10
53.2941655114301
20
-2.67615552677225
30
0
41
1
10
53.3041529582707
20
-2.68369332048735
30
0
41
1
10
53.3189745983936
20
-2.69602838331227
30
0
41
1
10
53.3238964811948
20
-2.70032550388135
30
0
41
1
10
53.3334694536931
20
-2.70914536670114
30
0
41
1
10
53.3381467344142
20
-2.713684253917
30
0
41
1
10
53.3472762152325
20
-2.72302729011486
30
0
41
1
10
53.3517288574259
20
-2.72783091446448
30
0
41
1
10
53.3603833582718
20
-2.73773349339635
30
0
41
1
10
53.3646154709551
20
-2.74286679092117
30
0
41
1
10
53.3726127015306
20
-2.7533307274677
30
0
41
1
10
53.3763385451415
20
-2.75863439453104
30
0
41
1
10
53.3833441136829
20
-2.7693601593036
30
0
41
1
10
53.3866532278385
20
-2.77477491854643
30
0
41
1
10
53.3965116102537
20
-2.79104712672458
30
0
41
1
10
53.4030366234047
20
-2.80192145064154
30
0
41
1
10
53.4225351091778
20
-2.83460622353204
30
0
41
1
10
53.4354177542511
20
-2.85648200017596
30
0
41
1
10
53.4738992280965
20
-2.92231818659872
30
0
41
1
10
53.4993771028275
20
-2.96648508934342
30
0
41
1
10
53.5504175468742
20
-3.05517284885846
30
0
41
1
10
53.5759098163994
20
-3.09971316894556
30
0
41
1
10
53.6012777584377
20
-3.14447061841571
30
0
0
SPLINE
5
163
100
AcDbEntity
8
1
62
256
6
ByLayer
370
18
48
1
60
0
100
AcDbSpline
70
4
71
3
72
8
73
4
40
0
40
0
40
0
40
0
40
1
40
1
40
1
40
1
41
1
10
53.6012777584377
20
-3.14447061841571
30
0
41
1
10
53.6717239914878
20
-3.26876109934452
30
0
41
1
10
53.741054902303
20
-3.39441269320125
30
0
41
1
10
53.8111882663266
20
-3.52071426089722
30
0
0
SPLINE
5
164
100
AcDbEntity
8
1
62
256
6
ByLayer
370
18
48
1
60
0
100
AcDbSpline
70
4
71
3
72
8
73
4
40
0
40
0
40
0
40
0
40
1
40
1
40
1
40
1
41
1
10
53.934524537801
20
-3.58069370508244
30
0
41
1
10
53.8934231580396
20
-3.56124237289794
30
0
41
1
10
53.8523114918499
20
-3.54124883477181
30
0
41
1
10
53.8111882663266
20
-3.52071426089722
30
0
0
SPLINE
5
165
100
AcDbEntity
8
1
62
256
6
ByLayer
370
18
48
1
60
0
100
AcDbSpline
70
4
71
3
72
47
73
43
40
0
40
0
40
0
40
0
40
0.124999999999982
40
0.124999999999982
40
0.249999999999964
40
0.249999999999964
40
0.374999999999946
40
0.374999999999946
40
0.499999999999928
40
0.499999999999928
40
0.515624999999927
40
0.515624999999927
40
0.531249999999926
40
0.531249999999926
40
0.546874999999924
40
0.546874999999924
40
0.562499999999923
40
0.562499999999923
40
0.593749999999921
40
0.593749999999921
40
0.624999999999918
40
0.624999999999918
40
0.656249999999915
40
0.656249999999915
40
0.671874999999923
40
0.671874999999923
40
0.68749999999993
40
0.68749999999993
40
0.718749999999945
40
0.718749999999945
40
0.734374999999944
40
0.734374999999944
40
0.749999999999943
40
0.749999999999943
40
0.765624999999943
40
0.765624999999943
40
0.781249999999942
40
0.781249999999942
40
0.812499999999952
40
0.874999999999971
40
0.874999999999971
40
1
40
1
40
1
40
1
41
1
10
53.9345245378009
20
-3.58069370508235
30
0
41
1
10
53.9689381506163
20
-3.55125714068765
30
0
41
1
10
54.0036687395604
20
-3.5207226943474
30
0
41
1
10
54.0733380270342
20
-3.45697288478692
30
0
41
1
10
54.1082923410672
20
-3.42375578551699
30
0
41
1
10
54.1784618705525
20
-3.35458857885041
30
0
41
1
10
54.2136968350181
20
-3.3186216386452
30
0
41
1
10
54.2842863219286
20
-3.24393117663436
30
0
41
1
10
54.3196408924297
20
-3.20521336019613
30
0
41
1
10
54.3594433941623
20
-3.15999286472814
30
0
41
1
10
54.3638340236908
20
-3.15490155675175
30
0
41
1
10
54.3728358013197
20
-3.14496787671956
30
0
41
1
10
54.3774746761246
20
-3.14016283001811
30
0
41
1
10
54.3874186236002
20
-3.13139964940666
30
0
41
1
10
54.3927420487606
20
-3.12746618438894
30
0
41
1
10
54.4041343741296
20
-3.12055094522509
30
0
41
1
10
54.4102307832878
20
-3.11754509474366
30
0
41
1
10
54.4290087555004
20
-3.11002867257696
30
0
41
1
10
54.4422913286877
20
-3.10687838485552
30
0
41
1
10
54.4699607383053
20
-3.10329019827049
30
0
41
1
10
54.4843566457974
20
-3.10287439581668
30
0
41
1
10
54.5143063512751
20
-3.10502967365343
30
0
41
1
10
54.5294712614966
20
-3.10762263190537
30
0
41
1
10
54.5523685432481
20
-3.11402196831642
30
0
41
1
10
54.5600306750485
20
-3.11655796055271
30
0
41
1
10
54.5754071889558
20
-3.12243985318099
30
0
41
1
10
54.5831447071701
20
-3.12579651904528
30
0
41
1
10
54.6062765241006
20
-3.13710720647001
30
0
41
1
10
54.6213344469911
20
-3.14610352003041
30
0
41
1
10
54.6431637607334
20
-3.16249306291439
30
0
41
1
10
54.6503602541419
20
-3.16852096104137
30
0
41
1
10
54.664142693791
20
-3.18143562568102
30
0
41
1
10
54.6707261357061
20
-3.18829521009374
30
0
41
1
10
54.683168523001
20
-3.20296024875708
30
0
41
1
10
54.6889899441744
20
-3.21083700470612
30
0
41
1
10
54.6997287356655
20
-3.22768500481044
30
0
41
1
10
54.7046819336279
20
-3.23637909534446
30
0
41
1
10
54.7197427519647
20
-3.26232267866814
30
0
41
1
10
54.7496065674009
20
-3.31435068234384
30
0
41
1
10
54.7789962783722
20
-3.36660681875225
30
0
41
1
10
54.83771573701
20
-3.47105146098556
30
0
41
1
10
54.8769031279767
20
-3.54048239376104
30
0
41
1
10
54.9157981937858
20
-3.60985812531061
30
0
0
SPLINE
5
166
100
AcDbEntity
8
1
62
256
6
ByLayer
370
18
48
1
60
0
100
AcDbSpline
70
4
71
3
72
8
73
4
40
0
40
0
40
0
40
0
40
1
40
1
40
1
40
1
41
1
10
55.2491365706311
20
-4.00706911589086
30
0
41
1
10
55.2080348427922
20
-4.00020296207964
30
0
41
1
10
55.1669649682515
20
-3.99272793758311
30
0
41
1
10
55.1259221502328
20
-3.98464716341635
30
0
0
SPLINE
5
167
100
AcDbEntity
8
1
62
256
6
ByLayer
370
18
48
1
60
0
100
AcDbSpline
70
4
71
3
72
8
73
4
40
0
40
0
40
0
40
0
40
1
40
1
40
1
40
1
41
1
10
57.4812460972264
20
-2.44372409151714
30
0
41
1
10
57.4086493169085
20
-2.29505679392369
30
0
41
1
10
57.3366947083266
20
-2.14806025693261
30
0
41
1
10
57.2637490773863
20
-2.0035223147209
30
0
0
SPLINE
5
168
100
AcDbEntity
8
1
62
256
6
ByLayer
370
18
48
1
60
0
100
AcDbSpline
70
4
71
3
72
32
73
28
40
0
40
0
40
0
40
0
40
0.062499999999999
40
0.062499999999999
40
0.0937499999999985
40
0.0937499999999985
40
0.124999999999998
40
0.124999999999998
40
0.249999999999996
40
0.249999999999996
40
0.374999999999994
40
0.374999999999994
40
0.499999999999993
40
0.499999999999993
40
0.531249999999993
40
0.531249999999993
40
0.562499999999993
40
0.624999999999994
40
0.624999999999994
40
0.749999999999996
40
0.874999999999998
40
0.874999999999998
40
0.906249999999999
40
0.906249999999999
40
0.937499999999999
40
0.937499999999999
40
1
40
1
40
1
40
1
41
1
10
57.3169459839573
20
0.732042315365135
30
0
41
1
10
57.3203560474367
20
0.663371456729578
30
0
41
1
10
57.3237643097633
20
0.594229965778396
30
0
41
1
10
57.3288825800641
20
0.489800167586395
30
0
41
1
10
57.3305896664625
20
0.454870580080325
30
0
41
1
10
57.3340074679823
20
0.384769393729243
30
0
41
1
10
57.3357180354108
20
0.349600566856822
30
0
41
1
10
57.3442339685002
20
0.174184564620759
30
0
41
1
10
57.3509690020007
20
0.0343921492138577
30
0
41
1
10
57.3644033770873
20
-0.244139188034751
30
0
41
1
10
57.3711027534954
20
-0.382878023764192
30
0
41
1
10
57.3845832215156
20
-0.659295275936387
30
0
41
1
10
57.3913636917274
20
-0.796973816437628
30
0
41
1
10
57.399987516016
20
-0.968382538994462
30
0
41
1
10
57.4017209242047
20
-1.0026513504657
30
0
41
1
10
57.4051853151702
20
-1.07072311719179
30
0
41
1
10
57.4103839118378
20
-1.17227514185225
30
0
41
1
10
57.4156105589522
20
-1.27217883950712
30
0
41
1
10
57.4260962763343
20
-1.46982346321542
30
0
41
1
10
57.4401230544771
20
-1.7275952664977
30
0
41
1
10
57.4539563422611
20
-1.97395973498544
30
0
41
1
10
57.4625465077829
20
-2.12428465986218
30
0
41
1
10
57.464262107115
20
-2.15416651930451
30
0
41
1
10
57.4676899413699
20
-2.21355979539405
30
0
41
1
10
57.4694041153164
20
-2.24310406052808
30
0
41
1
10
57.4745165371422
20
-2.33069365783226
30
0
41
1
10
57.4778919238683
20
-2.38782655498511
30
0
41
1
10
57.4812460972264
20
-2.44372409151714
30
0
0
SPLINE
5
169
100
AcDbEntity
8
1
62
256
6
ByLayer
370
18
48
1
60
0
100
AcDbSpline
70
4
71
3
72
32
73
28
40
0
40
0
40
0
40
0
40
0.125000000000001
40
0.125000000000001
40
0.156250000000001
40
0.156250000000001
40
0.187500000000001
40
0.187500000000001
40
0.250000000000001
40
0.250000000000001
40
0.375
40
0.375
40
0.5
40
0.5
40
0.5625
40
0.5625
40
0.59375
40
0.59375
40
0.625
40
0.625
40
0.75
40
0.875
40
0.875
40
0.9375
40
0.96875
40
0.96875
40
1
40
1
40
1
40
1
41
1
10
54.9748676675456
20
-0.104411644606444
30
0
41
1
10
54.9680849142461
20
0.0346066562809995
30
0
41
1
10
54.9613591160354
20
0.174062190785122
30
0
41
1
10
54.9529430250285
20
0.348939054525346
30
0
41
1
10
54.9512590939418
20
0.38394235746091
30
0
41
1
10
54.9478867193494
20
0.454005337869546
30
0
41
1
10
54.9462011752444
20
0.489004580709604
30
0
41
1
10
54.9411606927047
20
0.593504905800842
30
0
41
1
10
54.937814260126
20
0.662669700521775
30
0
41
1
10
54.9277705894895
20
0.868683834199686
30
0
41
1
10
54.9210701415762
20
1.00405676984104
30
0
41
1
10
54.907381114915
20
1.27090381976231
30
0
41
1
10
54.9003388033438
20
1.40237553706808
30
0
41
1
10
54.8896524317487
20
1.59661143407163
30
0
41
1
10
54.8860755546606
20
1.66086074122904
30
0
41
1
10
54.8807132853849
20
1.7564759713475
30
0
41
1
10
54.8789271182662
20
1.78820550388363
30
0
41
1
10
54.8753791883804
20
1.85104176114265
30
0
41
1
10
54.8736148391702
20
1.8821946567563
30
0
41
1
10
54.8648450582003
20
2.03664721204112
30
0
41
1
10
54.8511635879928
20
2.27539738445236
30
0
41
1
10
54.8380864494763
20
2.49776278099827
30
0
41
1
10
54.8282893050834
20
2.65832610655374
30
0
41
1
10
54.8233905587067
20
2.73705198876627
30
0
41
1
10
54.8184218331313
20
2.81340254389417
30
0
41
1
10
54.8150836956697
20
2.86376827746238
30
0
41
1
10
54.8134010503322
20
2.88869453272898
30
0
41
1
10
54.8117101617224
20
2.91320794670364
30
0
0
SPLINE
5
16A
100
AcDbEntity
8
1
62
256
6
ByLayer
370
18
48
1
60
0
100
AcDbSpline
70
4
71
3
72
53
73
49
40
0
40
0
40
0
40
0
40
0.124999999999971
40
0.124999999999971
40
0.249999999999943
40
0.249999999999943
40
0.265624999999939
40
0.265624999999939
40
0.281249999999936
40
0.281249999999936
40
0.296874999999932
40
0.296874999999932
40
0.312499999999929
40
0.312499999999929
40
0.343749999999909
40
0.343749999999909
40
0.359374999999891
40
0.359374999999891
40
0.374999999999873
40
0.374999999999873
40
0.406249999999854
40
0.406249999999854
40
0.421874999999845
40
0.421874999999845
40
0.437499999999836
40
0.437499999999836
40
0.468749999999817
40
0.468749999999817
40
0.484374999999807
40
0.484374999999807
40
0.499999999999798
40
0.507812499999793
40
0.507812499999793
40
0.515624999999789
40
0.515624999999789
40
0.531249999999794
40
0.531249999999794
40
0.5468749999998
40
0.5468749999998
40
0.562499999999805
40
0.562499999999805
40
0.624999999999838
40
0.624999999999838
40
0.749999999999892
40
0.749999999999892
40
0.874999999999946
40
0.874999999999946
40
1
40
1
40
1
40
1
41
1
10
55.9490683041472
20
-0.901122328161392
30
0
41
1
10
55.9159768133007
20
-0.845813331944896
30
0
41
1
10
55.8827010665803
20
-0.791427875066034
30
0
41
1
10
55.816132649859
20
-0.684659497123988
30
0
41
1
10
55.7829207411682
20
-0.632295939998926
30
0
41
1
10
55.7448319302571
20
-0.574333321495004
30
0
41
1
10
55.740589072778
20
-0.567905872226817
30
0
41
1
10
55.7320775110121
20
-0.555075381576444
30
0
41
1
10
55.7278431589667
20
-0.548683876889271
30
0
41
1
10
55.7191385516172
20
-0.535854897650893
30
0
41
1
10
55.7146070454148
20
-0.529396834394078
30
0
41
1
10
55.7047169465232
20
-0.516238376450758
30
0
41
1
10
55.6993752937682
20
-0.509528378459748
30
0
41
1
10
55.6827935925237
20
-0.489555455500863
30
0
41
1
10
55.6709078425757
20
-0.476309456570107
30
0
41
1
10
55.6519187565836
20
-0.456525356777433
30
0
41
1
10
55.6453960752121
20
-0.449944705787431
30
0
41
1
10
55.6319951538259
20
-0.436807319716735
30
0
41
1
10
55.6250972906559
20
-0.430233804448562
30
0
41
1
10
55.6042085001762
20
-0.410848387526244
30
0
41
1
10
55.5899354129841
20
-0.398272049312055
30
0
41
1
10
55.5679901375457
20
-0.379936327187807
30
0
41
1
10
55.5605844905224
20
-0.37391379674338
30
0
41
1
10
55.5455701033773
20
-0.362067569640743
30
0
41
1
10
55.5379378440103
20
-0.356229741639993
30
0
41
1
10
55.5152102649791
20
-0.339358469314192
30
0
41
1
10
55.50013837678
20
-0.328833206588769
30
0
41
1
10
55.477708463539
20
-0.314183719665834
30
0
41
1
10
55.4702171144434
20
-0.309467269343202
30
0
41
1
10
55.4556113438999
20
-0.300676069872139
30
0
41
1
10
55.4449222302355
20
-0.294548068031844
30
0
41
1
10
55.4347409916111
20
-0.289301145437037
30
0
41
1
10
55.4280803113223
20
-0.286022192457665
30
0
41
1
10
55.4248042091442
20
-0.284488986678696
30
0
41
1
10
55.4153866146425
20
-0.28034037821422
30
0
41
1
10
55.4096163510975
20
-0.278172594114807
30
0
41
1
10
55.3989630511674
20
-0.274870664009001
30
0
41
1
10
55.3940473190157
20
-0.27369911116682
30
0
41
1
10
55.3844278838749
20
-0.271539034883659
30
0
41
1
10
55.3796651501088
20
-0.270480102391844
30
0
41
1
10
55.3557420744459
20
-0.264901855495225
30
0
41
1
10
55.3365823432946
20
-0.259904079753625
30
0
41
1
10
55.2790793413696
20
-0.243376960448671
30
0
41
1
10
55.2406992638723
20
-0.230307644411852
30
0
41
1
10
55.1642524356372
20
-0.200460612304681
30
0
41
1
10
55.1261570710083
20
-0.183678720992646
30
0
41
1
10
55.0502274158328
20
-0.146564144451389
30
0
41
1
10
55.0123640196851
20
-0.126193945292016
30
0
41
1
10
54.9748676675599
20
-0.104411644604369
30
0
0
SPLINE
5
16B
100
AcDbEntity
8
1
62
256
6
ByLayer
370
13
48
1
60
0
100
AcDbSpline
70
4
71
3
72
10
73
6
40
0
40
0
40
0
40
0
40
0.105734719311033
40
0.734687525524902
40
1
40
1
40
1
40
1
41
1
10
55.9490683041472
20
-0.901122328161392
30
0
41
1
10
55.9436792496436
20
-0.8035846523087
30
0
41
1
10
55.9061057422785
20
-0.116316244080309
30
0
41
1
10
55.8540592835041
20
0.886591149203809
30
0
41
1
10
55.8061915952634
20
1.69651503773534
30
0
41
1
10
55.7920347752242
20
1.92223728847981
30
0
0
SPLINE
5
16C
100
AcDbEntity
8
1
62
256
6
ByLayer
370
18
48
1
60
0
100
AcDbSpline
70
4
71
3
72
8
73
4
40
0
40
0
40
0
40
0
40
1
40
1
40
1
40
1
41
1
10
56.1659173334124
20
-1.27856494183786
30
0
41
1
10
56.0935171239941
20
-1.14849474433859
30
0
41
1
10
56.0217831950775
20
-1.02265772969429
30
0
41
1
10
55.9490683041472
20
-0.901122328161392
30
0
0
SPLINE
5
16D
100
AcDbEntity
8
1
62
256
6
ByLayer
370
18
48
1
60
0
100
AcDbSpline
70
4
71
3
72
30
73
26
40
0
40
0
40
0
40
0
40
0.125
40
0.125
40
0.249999999999999
40
0.249999999999999
40
0.312499999999999
40
0.312499999999999
40
0.343749999999999
40
0.343749999999999
40
0.374999999999998
40
0.374999999999998
40
0.499999999999998
40
0.499999999999998
40
0.624999999999997
40
0.624999999999997
40
0.687499999999997
40
0.687499999999997
40
0.718749999999997
40
0.718749999999997
40
0.749999999999997
40
0.749999999999997
40
0.874999999999998
40
0.874999999999998
40
1
40
1
40
1
40
1
41
1
10
56.0025873480251
20
1.96777304681544
30
0
41
1
10
56.0092865993368
20
1.84526980335758
30
0
41
1
10
56.015827353838
20
1.71994447926312
30
0
41
1
10
56.0289449795523
20
1.46376016782369
30
0
41
1
10
56.0355508856328
20
1.33290242700073
30
0
41
1
10
56.0458105242846
20
1.13242008612411
30
0
41
1
10
56.0492753912668
20
1.06489138505532
30
0
41
1
10
56.0545248721129
20
0.962525152414344
30
0
41
1
10
56.0562860010648
20
0.928173701264939
30
0
41
1
10
56.0598089716645
20
0.859391627051338
30
0
41
1
10
56.0615702295867
20
0.824972419940053
30
0
41
1
10
56.0703701320749
20
0.652736902513936
30
0
41
1
10
56.0773858927631
20
0.514503108264336
30
0
41
1
10
56.0912929709411
20
0.237163665682999
30
0
41
1
10
56.0981837245559
20
0.0980579382180622
30
0
41
1
10
56.1084463318079
20
-0.111257623798451
30
0
41
1
10
56.1118558017425
20
-0.181139143028872
30
0
41
1
10
56.1169641356109
20
-0.286127841187692
30
0
41
1
10
56.1186660003342
20
-0.321151821365561
30
0
41
1
10
56.1220706159768
20
-0.391255731392533
30
0
41
1
10
56.1237755535151
20
-0.42638072051318
30
0
41
1
10
56.1322837613852
20
-0.601590441937333
30
0
41
1
10
56.139019262567
20
-0.739730561798694
30
0
41
1
10
56.1524756160798
20
-1.0120880088956
30
0
41
1
10
56.1591780406998
20
-1.14630582001507
30
0
41
1
10
56.1659173334124
20
-1.2785649418378
30
0
0
SPLINE
5
16E
100
AcDbEntity
8
1
62
256
6
ByLayer
370
18
48
1
60
0
100
AcDbSpline
70
4
71
3
72
8
73
4
40
0
40
0
40
0
40
0
40
1
40
1
40
1
40
1
41
1
10
62.3013973920933
20
1.03702160160353
30
0
41
1
10
62.3391120722463
20
1.00038681404311
30
0
41
1
10
62.3768126018844
20
0.963628334915569
30
0
41
1
10
62.4145067462872
20
0.926753824536036
30
0
0
SPLINE
5
16F
100
AcDbEntity
8
1
62
256
6
ByLayer
370
18
48
1
60
0
100
AcDbSpline
70
4
71
3
72
8
73
4
40
0
40
0
40
0
40
0
40
1
40
1
40
1
40
1
41
1
10
60.9865742018438
20
2.23730625997155
30
0
41
1
10
61.0278020634759
20
2.20272864147168
30
0
41
1
10
61.0690147755099
20
2.1678158652941
30
0
41
1
10
61.1102219727327
20
2.13257655243976
30
0
0
SPLINE
5
170
100
AcDbEntity
8
1
62
256
6
ByLayer
370
18
48
1
60
0
100
AcDbSpline
70
4
71
3
72
8
73
4
40
0
40
0
40
0
40
0
40
1
40
1
40
1
40
1
41
1
10
59.6716775579713
20
3.20347046259823
30
0
41
1
10
59.7129878095755
20
3.17793037426065
30
0
41
1
10
59.7542835330409
20
3.15189958663243
30
0
41
1
10
59.7955744481758
20
3.12538500844357
30
0
0
SPLINE
5
171
100
AcDbEntity
8
1
62
256
6
ByLayer
370
18
48
1
60
0
100
AcDbSpline
70
4
71
3
72
8
73
4
40
0
40
0
40
0
40
0
40
1
40
1
40
1
40
1
41
1
10
58.3568894439654
20
3.83432216365873
30
0
41
1
10
58.3981829301674
20
3.82057224300507
30
0
41
1
10
58.4394620759871
20
3.80622914934529
30
0
41
1
10
58.4807360895965
20
3.79129706809743
30
0
0
SPLINE
5
172
100
AcDbEntity
8
1
62
256
6
ByLayer
370
18
48
1
60
0
100
AcDbSpline
70
4
71
3
72
8
73
4
40
0
40
0
40
0
40
0
40
1
40
1
40
1
40
1
41
1
10
57.0428778433836
20
4.06385481691171
30
0
41
1
10
57.0838601803448
20
4.06331197947185
30
0
41
1
10
57.1248279713477
20
4.0621442663051
30
0
41
1
10
57.1657908030464
20
4.06035298888924
30
0
0
SPLINE
5
173
100
AcDbEntity
8
1
62
256
6
ByLayer
370
18
48
1
60
0
100
AcDbSpline
70
4
71
3
72
30
73
26
40
0
40
0
40
0
40
0
40
0.083703772014145
40
0.083703772014145
40
0.266963017611305
40
0.266963017611305
40
0.358592640409885
40
0.358592640409885
40
0.450222263208465
40
0.450222263208465
40
0.473129668908114
40
0.473129668908114
40
0.496037074607762
40
0.496037074607762
40
0.541851886007059
40
0.541851886007059
40
0.633481508805653
40
0.633481508805653
40
0.679296320204946
40
0.679296320204946
40
0.72511113160424
40
0.72511113160424
40
0.816740754402827
40
0.816740754402827
40
1
40
1
40
1
40
1
41
1
10
44.5539610936401
20
-3.11384954296355
30
0
41
1
10
44.4499990166975
20
-3.11386895108015
30
0
41
1
10
44.3463170175845
20
-3.11080068647087
30
0
41
1
10
44.0160793036401
20
-3.09127028903006
30
0
41
1
10
43.7900516134848
20
-3.06319651047443
30
0
41
1
10
43.4494030602512
20
-2.99987538279754
30
0
41
1
10
43.3357391738994
20
-2.97519351299468
30
0
41
1
10
43.1079982760147
20
-2.9186297724215
30
0
41
1
10
42.9938902128368
20
-2.88675839055713
30
0
41
1
10
42.8507353284443
20
-2.84243200788376
30
0
41
1
10
42.8220782897417
20
-2.83334238193586
30
0
41
1
10
42.7647062402263
20
-2.81471446482863
30
0
41
1
10
42.7359870709933
20
-2.80517438384885
30
0
41
1
10
42.6499836026263
20
-2.77596955945921
30
0
41
1
10
42.5927702346882
20
-2.75569381413985
30
0
41
1
10
42.4214184243732
20
-2.69252305010315
30
0
41
1
10
42.307573780611
20
-2.64728003706807
30
0
41
1
10
42.1370557812071
20
-2.57504123239659
30
0
41
1
10
42.0802558572125
20
-2.55023424461027
30
0
41
1
10
41.9666703637211
20
-2.49922867951813
30
0
41
1
10
41.9098924174548
20
-2.4730253095901
30
0
41
1
10
41.7397472343197
20
-2.39220365143456
30
0
41
1
10
41.6265017196012
20
-2.33542381069918
30
0
41
1
10
41.2867178240855
20
-2.1568647876453
30
0
41
1
10
41.060157907938
20
-2.02684048534326
30
0
41
1
10
40.8320363462793
20
-1.88708542028982
30
0
0
SPLINE
5
174
100
AcDbEntity
8
1
62
256
6
ByLayer
370
18
48
1
60
0
100
AcDbSpline
70
4
71
3
72
30
73
26
40
0
40
0
40
0
40
0
40
0.0659761142029109
40
0.0659761142029109
40
0.131952228405822
40
0.131952228405822
40
0.263904456811643
40
0.263904456811643
40
0.329880571014554
40
0.329880571014554
40
0.395856685217465
40
0.395856685217465
40
0.527808913623287
40
0.527808913623287
40
0.593785027826198
40
0.593785027826198
40
0.659761142029109
40
0.659761142029109
40
0.79171337043493
40
0.79171337043493
40
0.923665598840751
40
0.923665598840751
40
0.989641713043662
40
0.989641713043662
40
1
40
1
40
1
40
1
41
1
10
38.5398870917168
20
-3.10866408422632
30
0
41
1
10
38.6091741520179
20
-3.11173296942707
30
0
41
1
10
38.6783600485872
20
-3.1134419484427
30
0
41
1
10
38.8165557461524
20
-3.11412865468626
30
0
41
1
10
38.8855192793166
20
-3.11310261089807
30
0
41
1
10
39.0926061187629
20
-3.10591982611422
30
0
41
1
10
39.2310121747618
20
-3.09568834040263
30
0
41
1
10
39.4392664874557
20
-3.07227011782976
30
0
41
1
10
39.5088459847885
20
-3.06310541311845
30
0
41
1
10
39.6475104381884
20
-3.04217980726662
30
0
41
1
10
39.7166760156376
20
-3.03041253467379
30
0
41
1
10
39.9237513908191
20
-2.99126311629425
30
0
41
1
10
40.061251696018
20
-2.96004441726345
30
0
41
1
10
40.26684390381
20
-2.90566064604229
30
0
41
1
10
40.3352619284179
20
-2.88627084466575
30
0
41
1
10
40.471868296823
20
-2.8449503280132
30
0
41
1
10
40.5401008777603
20
-2.82303862586414
30
0
41
1
10
40.7451558050921
20
-2.75388521021358
30
0
41
1
10
40.8821192192403
20
-2.70312089302166
30
0
41
1
10
41.1567618428263
20
-2.59245459180846
30
0
41
1
10
41.2944198052598
20
-2.53253575778248
30
0
41
1
10
41.5016507943631
20
-2.4358396160269
30
0
41
1
10
41.5708505808895
20
-2.40246929825287
30
0
41
1
10
41.6510681078966
20
-2.36252811443174
30
0
41
1
10
41.6619595274494
20
-2.35707832716878
30
0
41
1
10
41.6728536762625
20
-2.35160033290711
30
0
0
SPLINE
5
175
100
AcDbEntity
8
1
62
256
6
ByLayer
370
18
48
1
60
0
100
AcDbSpline
70
4
71
3
72
10
73
6
40
0
40
0
40
0
40
0
40
0.140154525938709
40
0.140154525938709
40
1
40
1
40
1
40
1
41
1
10
51.5140943855825
20
3.11384988472213
30
0
41
1
10
51.5253766956457
20
3.11384776835712
30
0
41
1
10
51.5366624286679
20
3.11380933456206
30
0
41
1
10
51.6172121283614
20
3.11327632208307
30
0
41
1
10
51.6865930458053
20
3.11145432798168
30
0
41
1
10
51.756078081873
20
3.10826993713334
30
0
0
SPLINE
5
176
100
AcDbEntity
8
1
62
256
6
ByLayer
370
18
48
1
60
0
100
AcDbSpline
70
4
71
3
72
16
73
12
40
0
40
0
40
0
40
0
40
0.250000000000011
40
0.250000000000011
40
0.500000000000023
40
0.500000000000023
40
0.750000000000034
40
0.750000000000034
40
0.875000000000017
40
0.875000000000017
40
1
40
1
40
1
40
1
41
1
10
51.7560780818729
20
3.10826993713334
30
0
41
1
10
51.8029120795627
20
3.10612360805195
30
0
41
1
10
51.8496530830951
20
3.10636181532823
30
0
41
1
10
51.9426990703928
20
3.11167992634603
30
0
41
1
10
51.9890046617799
20
3.11675611503864
30
0
41
1
10
52.081009331434
20
3.13204375366883
30
0
41
1
10
52.1267060406722
20
3.14224666326862
30
0
41
1
10
52.1947290076444
20
3.16191064554937
30
0
41
1
10
52.2173201384515
20
3.16920150476915
30
0
41
1
10
52.2620350986598
20
3.18527494459733
30
0
41
1
10
52.2841900599375
20
3.1940654392925
30
0
41
1
10
52.306078081873
20
3.20361798396914
30
0
0
SPLINE
5
177
100
AcDbEntity
8
1
62
256
6
ByLayer
370
18
48
1
60
0
100
AcDbSpline
70
4
71
3
72
8
73
4
40
0
40
0
40
0
40
0
40
1
40
1
40
1
40
1
41
1
10
52.306078081873
20
3.20361798396908
30
0
41
1
10
52.398115857614
20
3.24378584232076
30
0
41
1
10
52.4892749952024
20
3.28104831854577
30
0
41
1
10
52.5796095081463
20
3.31515873366979
30
0
0
SPLINE
5
178
100
AcDbEntity
8
1
62
256
6
ByLayer
370
18
48
1
60
0
100
AcDbSpline
70
4
71
3
72
48
73
44
40
0
40
0
40
0
40
0
40
0.0625000000000417
40
0.0625000000000417
40
0.0937500000000527
40
0.0937500000000527
40
0.125000000000064
40
0.125000000000064
40
0.156250000000075
40
0.156250000000075
40
0.187500000000086
40
0.187500000000086
40
0.25000000000008
40
0.25000000000008
40
0.281250000000078
40
0.281250000000078
40
0.312500000000075
40
0.312500000000075
40
0.375000000000069
40
0.375000000000069
40
0.406250000000082
40
0.406250000000082
40
0.437500000000095
40
0.437500000000095
40
0.468750000000109
40
0.468750000000109
40
0.500000000000122
40
0.500000000000122
40
0.531250000000136
40
0.531250000000136
40
0.546875000000142
40
0.546875000000142
40
0.562500000000149
40
0.562500000000149
40
0.578125000000156
40
0.578125000000156
40
0.593750000000162
40
0.625000000000154
40
0.750000000000103
40
0.750000000000103
40
0.875000000000051
40
0.875000000000051
40
1
40
1
40
1
40
1
41
1
10
52.5796095081463
20
3.31515873366982
30
0
41
1
10
52.5889645796419
20
3.29780968786088
30
0
41
1
10
52.5983205179889
20
3.28041810592143
30
0
41
1
10
52.612353849441
20
3.25426499409272
30
0
41
1
10
52.6170312622042
20
3.2455331321836
30
0
41
1
10
52.6268791940304
20
3.22861650552025
30
0
41
1
10
52.63205849898
20
3.22044213729632
30
0
41
1
10
52.6432314500857
20
3.20501581681302
30
0
41
1
10
52.6491979833357
20
3.19773212244218
30
0
41
1
10
52.6618371189835
20
3.18396125340701
30
0
41
1
10
52.6685570495165
20
3.17743718722664
30
0
41
1
10
52.6892752554236
20
3.15932511445669
30
0
41
1
10
52.7037951031261
20
3.14905632438618
30
0
41
1
10
52.7264136498877
20
3.1358445435524
30
0
41
1
10
52.734097835925
20
3.13181918811242
30
0
41
1
10
52.7497628365633
20
3.1245637966951
30
0
41
1
10
52.7577305297586
20
3.12134574431451
30
0
41
1
10
52.7816190037555
20
3.11317988249027
30
0
41
1
10
52.7976778375471
20
3.10972074510713
30
0
41
1
10
52.8219072082281
20
3.10741336113324
30
0
41
1
10
52.830007197755
20
3.10712324952394
30
0
41
1
10
52.8462492377904
20
3.10757405622493
30
0
41
1
10
52.8542927378254
20
3.10831377036018
30
0
41
1
10
52.8700933288337
20
3.11090319763511
30
0
41
1
10
52.8778681756494
20
3.11274950702946
30
0
41
1
10
52.8931036584652
20
3.11780386780228
30
0
41
1
10
52.9006226352169
20
3.12105881965434
30
0
41
1
10
52.9149432235476
20
3.12891943912857
30
0
41
1
10
52.9217504015849
20
3.13349221893444
30
0
41
1
10
52.9312970671005
20
3.1415628304043
30
0
41
1
10
52.9343596803054
20
3.1444718470681
30
0
41
1
10
52.9402275579098
20
3.15076106477892
30
0
41
1
10
52.9430338453448
20
3.15415734174266
30
0
41
1
10
52.9484808497017
20
3.16114923898345
30
0
41
1
10
52.9511264767128
20
3.16473563354526
30
0
41
1
10
52.9564211139637
20
3.17189234422091
30
0
41
1
10
52.9643442126479
20
3.18263290672834
30
0
41
1
10
52.9932100886501
20
3.22204949343757
30
0
41
1
10
53.019027526156
20
3.25783316255124
30
0
41
1
10
53.060255598624
20
3.31447275915312
30
0
41
1
10
53.0808654432776
20
3.34244821738545
30
0
41
1
10
53.12205128708
20
3.39767571355552
30
0
41
1
10
53.1426136527551
20
3.42495018554928
30
0
41
1
10
53.1630947386866
20
3.45195742948007
30
0
0
SPLINE
5
179
100
AcDbEntity
8
1
62
256
6
ByLayer
370
18
48
1
60
0
100
AcDbSpline
70
4
71
3
72
8
73
4
40
0
40
0
40
0
40
0
40
1
40
1
40
1
40
1
41
1
10
53.1630947386866
20
3.45195742948007
30
0
41
1
10
53.1757122471397
20
3.46859542073364
30
0
41
1
10
53.1882954264883
20
3.48512739762077
30
0
41
1
10
53.2008557970563
20
3.50153888286999
30
0
0
SPLINE
5
17A
100
AcDbEntity
8
1
62
256
6
ByLayer
370
18
48
1
60
0
100
AcDbSpline
70
4
71
3
72
10
73
6
40
0
40
0
40
0
40
0
40
0.5
40
0.5
40
1
40
1
40
1
40
1
41
1
10
53.2008557970563
20
3.50153888286997
30
0
41
1
10
53.2594306378677
20
3.51435378009054
30
0
41
1
10
53.3177790686714
20
3.52569621846152
30
0
41
1
10
53.4340284389454
20
3.54536523123053
30
0
41
1
10
53.4918096624778
20
3.55367294260159
30
0
41
1
10
53.5492895696722
20
3.56044081824354
30
0
0
SPLINE
5
17B
100
AcDbEntity
8
1
62
256
6
ByLayer
370
18
48
1
60
0
100
AcDbSpline
70
4
71
3
72
54
73
50
40
0
40
0
40
0
40
0
40
0.124999999999944
40
0.124999999999944
40
0.249999999999888
40
0.249999999999888
40
0.374999999999832
40
0.374999999999832
40
0.437499999999804
40
0.437499999999804
40
0.46874999999979
40
0.46874999999979
40
0.499999999999776
40
0.499999999999776
40
0.515624999999774
40
0.515624999999774
40
0.531249999999773
40
0.531249999999773
40
0.562499999999756
40
0.562499999999756
40
0.578124999999756
40
0.578124999999756
40
0.593749999999755
40
0.593749999999755
40
0.624999999999755
40
0.624999999999755
40
0.640624999999763
40
0.640624999999763
40
0.656249999999772
40
0.656249999999772
40
0.687499999999808
40
0.687499999999808
40
0.703124999999826
40
0.703124999999826
40
0.718749999999844
40
0.718749999999844
40
0.734374999999862
40
0.734374999999862
40
0.742187499999871
40
0.742187499999871
40
0.749999999999881
40
0.749999999999881
40
0.765624999999887
40
0.765624999999887
40
0.781249999999893
40
0.812499999999905
40
0.87499999999994
40
0.87499999999994
40
1
40
1
40
1
40
1
41
1
10
53.5492895696722
20
3.56044081824356
30
0
41
1
10
53.5817970566339
20
3.49560990629584
30
0
41
1
10
53.6144585600644
20
3.43067973885434
30
0
41
1
10
53.6799596423656
20
3.30052496941923
30
0
41
1
10
53.7128193852693
20
3.23531387398026
30
0
41
1
10
53.7787626934019
20
3.10461730773076
30
0
41
1
10
53.8118521466872
20
3.03911595738234
30
0
41
1
10
53.8615229557555
20
2.94081996194458
30
0
41
1
10
53.8780894943556
20
2.90803981982583
30
0
41
1
10
53.9029461715147
20
2.85884299074027
30
0
41
1
10
53.9112329960579
20
2.84243930257114
30
0
41
1
10
53.927808734514
20
2.8096190030281
30
0
41
1
10
53.9359903050485
20
2.79313315424389
30
0
41
1
10
53.9501139193431
20
2.76959700853286
30
0
41
1
10
53.9551399643426
20
2.7619566406205
30
0
41
1
10
53.965845859466
20
2.74709716672152
30
0
41
1
10
53.9715548712372
20
2.73983635109639
30
0
41
1
10
53.9891673920449
20
2.71913452609269
30
0
41
1
10
54.0016301837912
20
2.70661412794109
30
0
41
1
10
54.0211196591135
20
2.68925292850884
30
0
41
1
10
54.027752652699
20
2.68370975820284
30
0
41
1
10
54.0412834285099
20
2.67310150161092
30
0
41
1
10
54.0482108117989
20
2.6680174649367
30
0
41
1
10
54.0691200257448
20
2.65371159209755
30
0
41
1
10
54.0832474551707
20
2.64539336579804
30
0
41
1
10
54.1047212877487
20
2.63500016966438
30
0
41
1
10
54.111925454527
20
2.63187714367766
30
0
41
1
10
54.1264187176441
20
2.62630204048537
30
0
41
1
10
54.1337417975943
20
2.62384073315985
30
0
41
1
10
54.1555507839175
20
2.6175858311104
30
0
41
1
10
54.1698493426859
20
2.61487531550867
30
0
41
1
10
54.1908351502842
20
2.61338957222037
30
0
41
1
10
54.1977686569718
20
2.61333475195616
30
0
41
1
10
54.2113636450262
20
2.61433012673925
30
0
41
1
10
54.2179243217641
20
2.61535827256773
30
0
41
1
10
54.2305513765892
20
2.6185107814191
30
0
41
1
10
54.2366226047425
20
2.62062387499532
30
0
41
1
10
54.2452597977957
20
2.62483857428927
30
0
41
1
10
54.2480662098664
20
2.62643931688081
30
0
41
1
10
54.2533937353183
20
2.62999045219192
30
0
41
1
10
54.2559203508497
20
2.63194881340132
30
0
41
1
10
54.2632459306149
20
2.63815576859369
30
0
41
1
10
54.2678599081737
20
2.64264061498719
30
0
41
1
10
54.2771869725738
20
2.65142210016984
30
0
41
1
10
54.2911222134112
20
2.66459387465363
30
0
41
1
10
54.3233259955612
20
2.69522523149399
30
0
41
1
10
54.3506028942871
20
2.72103202819869
30
0
41
1
10
54.4051619187793
20
2.77146411001647
30
0
41
1
10
54.4415539046056
20
2.80343156129757
30
0
41
1
10
54.4776864898942
20
2.83421053522395
30
0
0
SPLINE
5
17C
100
AcDbEntity
8
1
62
256
6
ByLayer
370
18
48
1
60
0
100
AcDbSpline
70
4
71
3
72
8
73
4
40
0
40
0
40
0
40
0
40
1
40
1
40
1
40
1
41
1
10
54.4776864898942
20
2.83421053522395
30
0
41
1
10
54.5483291492291
20
2.89438637241887
30
0
41
1
10
54.6178370922607
20
2.9499327353472
30
0
41
1
10
54.6881609918802
20
2.99838287818201
30
0
0
SPLINE
5
17D
100
AcDbEntity
8
1
62
256
6
ByLayer
370
18
48
1
60
0
100
AcDbSpline
70
4
71
3
72
8
73
4
40
0
40
0
40
0
40
0
40
1
40
1
40
1
40
1
41
1
10
54.8117101617317
20
2.91320794670332
30
0
41
1
10
54.770488179374
20
2.9420472519607
30
0
41
1
10
54.7293062512462
20
2.97044004428591
30
0
41
1
10
54.6881609918802
20
2.99838287818201
30
0
0
SPLINE
5
17E
100
AcDbEntity
8
1
62
256
6
ByLayer
370
18
48
1
60
0
100
AcDbSpline
70
4
71
3
72
52
73
48
40
0
40
0
40
0
40
0
40
0.12500000000005
40
0.12500000000005
40
0.250000000000099
40
0.250000000000099
40
0.375000000000149
40
0.375000000000149
40
0.500000000000199
40
0.500000000000199
40
0.515625000000199
40
0.515625000000199
40
0.531250000000199
40
0.531250000000199
40
0.562500000000211
40
0.562500000000211
40
0.57812500000021
40
0.57812500000021
40
0.593750000000208
40
0.593750000000208
40
0.625000000000205
40
0.625000000000205
40
0.640625000000195
40
0.640625000000195
40
0.656250000000185
40
0.656250000000185
40
0.687500000000165
40
0.687500000000165
40
0.703125000000155
40
0.703125000000155
40
0.718750000000145
40
0.718750000000145
40
0.734375000000135
40
0.734375000000135
40
0.750000000000125
40
0.750000000000125
40
0.757812500000127
40
0.757812500000127
40
0.765625000000129
40
0.765625000000129
40
0.773437500000131
40
0.773437500000131
40
0.781250000000133
40
0.812500000000118
40
0.875000000000079
40
0.875000000000079
40
1
40
1
40
1
40
1
41
1
10
54.811710161731
20
2.91320794669159
30
0
41
1
10
54.8463848353327
20
2.84266782168987
30
0
41
1
10
54.8813878285324
20
2.7724410546268
30
0
41
1
10
54.951644882792
20
2.63268309985327
30
0
41
1
10
54.9868907099247
20
2.5631833301764
30
0
41
1
10
55.0576464892254
20
2.42496406109177
30
0
41
1
10
55.093172751012
20
2.35621714972976
30
0
41
1
10
55.1643266172319
20
2.21976484128209
30
0
41
1
10
55.1999672570183
20
2.15203592788794
30
0
41
1
10
55.240081310565
20
2.07639692460472
30
0
41
1
10
55.2445205268145
20
2.06799711199764
30
0
41
1
10
55.2538310121119
20
2.0512883104845
30
0
41
1
10
55.2587239584281
20
2.04295677758799
30
0
41
1
10
55.2745358649542
20
2.01835518065695
30
0
41
1
10
55.286272585774
20
2.00286262489564
30
0
41
1
10
55.3052677730043
20
1.98068066177436
30
0
41
1
10
55.3118320551099
20
1.97346345976595
30
0
41
1
10
55.3253640855015
20
1.9593357202553
30
0
41
1
10
55.3323582244919
20
1.95240330689964
30
0
41
1
10
55.353576751909
20
1.9323661555209
30
0
41
1
10
55.3681136506229
20
1.91991047557664
30
0
41
1
10
55.3904961747074
20
1.90261456189106
30
0
41
1
10
55.3980547917915
20
1.89708448167133
30
0
41
1
10
55.4133866331449
20
1.88655386824922
30
0
41
1
10
55.4210734521376
20
1.88161714050651
30
0
41
1
10
55.4440185805828
20
1.86781621552984
30
0
41
1
10
55.459235977598
20
1.85988533922668
30
0
41
1
10
55.4818937959247
20
1.84995214287136
30
0
41
1
10
55.4894180751539
20
1.846973391962
30
0
41
1
10
55.5043936237751
20
1.8417963754747
30
0
41
1
10
55.5117796434033
20
1.83962560003349
30
0
41
1
10
55.5260503872887
20
1.83635841768492
30
0
41
1
10
55.5329749781708
20
1.83523587700415
30
0
41
1
10
55.5463608214617
20
1.83409802230955
30
0
41
1
10
55.5528516407005
20
1.83408103378454
30
0
41
1
10
55.5617681806322
20
1.83513619982222
30
0
41
1
10
55.5646095514464
20
1.83567827847671
30
0
41
1
10
55.5700371713011
20
1.83713301605013
30
0
41
1
10
55.5726215146394
20
1.8380486128832
30
0
41
1
10
55.577671335221
20
1.84004340031527
30
0
41
1
10
55.5801383104138
20
1.8411203211387
30
0
41
1
10
55.5850731262476
20
1.84325569180155
30
0
41
1
10
55.597383371289
20
1.84859138178942
30
0
41
1
10
55.6290706591406
20
1.86237021610884
30
0
41
1
10
55.6578843591046
20
1.87453319602574
30
0
41
1
10
55.7154626138073
20
1.89742617369293
30
0
41
1
10
55.7538987229244
20
1.91063153557926
30
0
41
1
10
55.7920347752242
20
1.92223728847981
30
0
0
SPLINE
5
17F
100
AcDbEntity
8
1
62
256
6
ByLayer
370
18
48
1
60
0
100
AcDbSpline
70
4
71
3
72
8
73
4
40
0
40
0
40
0
40
0
40
1
40
1
40
1
40
1
41
1
10
55.7920347752242
20
1.92223728847981
30
0
41
1
10
55.8627544246269
20
1.94375904353015
30
0
41
1
10
55.9322898934686
20
1.95974529857497
30
0
41
1
10
56.0025873480251
20
1.96777304681547
30
0
0
SPLINE
5
180
100
AcDbEntity
8
1
62
256
6
ByLayer
370
18
48
1
60
0
100
AcDbSpline
70
4
71
3
72
8
73
4
40
0
40
0
40
0
40
0
40
1
40
1
40
1
40
1
41
1
10
56.1259536631169
20
1.85779021202666
30
0
41
1
10
56.0847997771964
20
1.89474228148939
30
0
41
1
10
56.043694940269
20
1.9314184075821
30
0
41
1
10
56.0025873480251
20
1.96777304681547
30
0
0
SPLINE
5
181
100
AcDbEntity
8
1
62
256
6
ByLayer
370
18
48
1
60
0
100
AcDbSpline
70
4
71
3
72
8
73
4
40
0
40
0
40
0
40
0
40
1
40
1
40
1
40
1
41
1
10
57.1066505422294
20
0.809556473195414
30
0
41
1
10
57.1772575746345
20
0.789970633206025
30
0
41
1
10
57.2467169602173
20
0.764869653237582
30
0
41
1
10
57.3169459839573
20
0.732042315365049
30
0
0
SPLINE
5
182
100
AcDbEntity
8
1
62
256
6
ByLayer
370
18
48
1
60
0
100
AcDbSpline
70
4
71
3
72
8
73
4
40
0
40
0
40
0
40
0
40
1
40
1
40
1
40
1
41
1
10
57.4400877330442
20
0.609738548140996
30
0
41
1
10
57.3990554028969
20
0.65064630915964
30
0
41
1
10
57.3580131530647
20
0.691418916889035
30
0
41
1
10
57.3169459839572
20
0.732042315365135
30
0
0
SPLINE
5
183
100
AcDbEntity
8
1
62
256
6
ByLayer
370
18
48
1
60
0
100
AcDbSpline
70
4
71
3
72
52
73
48
40
0
40
0
40
0
40
0
40
0.12499999999995
40
0.12499999999995
40
0.249999999999901
40
0.249999999999901
40
0.374999999999853
40
0.374999999999853
40
0.499999999999803
40
0.499999999999803
40
0.515624999999802
40
0.515624999999802
40
0.531249999999801
40
0.531249999999801
40
0.5624999999998
40
0.5624999999998
40
0.578124999999799
40
0.578124999999799
40
0.593749999999798
40
0.593749999999798
40
0.62499999999978
40
0.62499999999978
40
0.64062499999978
40
0.64062499999978
40
0.65624999999978
40
0.65624999999978
40
0.687499999999796
40
0.687499999999796
40
0.703124999999813
40
0.703124999999813
40
0.71874999999983
40
0.71874999999983
40
0.734374999999847
40
0.734374999999847
40
0.749999999999864
40
0.749999999999864
40
0.757812499999872
40
0.757812499999872
40
0.765624999999881
40
0.765624999999881
40
0.773437499999889
40
0.773437499999889
40
0.781249999999898
40
0.812499999999909
40
0.874999999999943
40
0.874999999999943
40
1
40
1
40
1
40
1
41
1
10
57.4400877330442
20
0.609738548140996
30
0
41
1
10
57.4748087153085
20
0.558736700627122
30
0
41
1
10
57.5098582400159
20
0.508742745763186
30
0
41
1
10
57.5802122452365
20
0.411198585857363
30
0
41
1
10
57.6155056001557
20
0.363657839702995
30
0
41
1
10
57.686385067303
20
0.271222299176685
30
0
41
1
10
57.7219922590645
20
0.226321431324266
30
0
41
1
10
57.7933314339056
20
0.139447820314587
30
0
41
1
10
57.8290768570431
20
0.09745237832567
30
0
41
1
10
57.8693168096861
20
0.0518702346813598
30
0
41
1
10
57.8737705004491
20
0.0468396688890778
30
0
41
1
10
57.8831162288102
20
0.0365507057455261
30
0
41
1
10
57.8880413734267
20
0.031261022992652
30
0
41
1
10
57.9038668722913
20
0.0148869464277936
30
0
41
1
10
57.9156241782096
20
0.0034669717178417
30
0
41
1
10
57.9346726967942
20
-0.0142435907159779
30
0
41
1
10
57.9412582551829
20
-0.0202444882104658
30
0
41
1
10
57.9548403148701
20
-0.0324165561483483
30
0
41
1
10
57.9618471316387
20
-0.0385955602999957
30
0
41
1
10
57.9830816832877
20
-0.0570613225635839
30
0
41
1
10
57.9976379453051
20
-0.0693848689214747
30
0
41
1
10
58.0200669540234
20
-0.087940209541955
30
0
41
1
10
58.0276623685816
20
-0.09415215526775
30
0
41
1
10
58.0429965785445
20
-0.106550954511135
30
0
41
1
10
58.050649654717
20
-0.112668702241308
30
0
41
1
10
58.0735590089091
20
-0.130809394113584
30
0
41
1
10
58.0887669223248
20
-0.142625210572959
30
0
41
1
10
58.1114320119388
20
-0.159961173236184
30
0
41
1
10
58.1189623434585
20
-0.165674054491745
30
0
41
1
10
58.1339580826986
20
-0.176951135775482
30
0
41
1
10
58.1412847484479
20
-0.182410780236154
30
0
41
1
10
58.1555161510781
20
-0.192902396684047
30
0
41
1
10
58.1624281032432
20
-0.197941922164262
30
0
41
1
10
58.1758002631321
20
-0.207574838464097
30
0
41
1
10
58.1822536197671
20
-0.212163989624571
30
0
41
1
10
58.1911237172777
20
-0.218347112688093
30
0
41
1
10
58.1939516827422
20
-0.220294193354334
30
0
41
1
10
58.1993577766743
20
-0.223967926708923
30
0
41
1
10
58.2019345209561
20
-0.225693245559683
30
0
41
1
10
58.2069741527175
20
-0.229051646004365
30
0
41
1
10
58.2094384282162
20
-0.230686029361664
30
0
41
1
10
58.2143690189109
20
-0.233971890415688
30
0
41
1
10
58.2266686016213
20
-0.242199292140811
30
0
41
1
10
58.2583306954891
20
-0.263785910624819
30
0
41
1
10
58.2871254141076
20
-0.284372834683694
30
0
41
1
10
58.3446701956949
20
-0.326881425262883
30
0
41
1
10
58.3830871664276
20
-0.357106489122401
30
0
41
1
10
58.4212115221563
20
-0.388826286184582
30
0
0
SPLINE
5
184
100
AcDbEntity
8
1
62
256
6
ByLayer
370
18
48
1
60
0
100
AcDbSpline
70
4
71
3
72
8
73
4
40
0
40
0
40
0
40
0
40
1
40
1
40
1
40
1
41
1
10
58.4212115221563
20
-0.388826286184582
30
0
41
1
10
58.4916995144684
20
-0.447472911648163
30
0
41
1
10
58.5610525387334
20
-0.511090975767331
30
0
41
1
10
58.6311860003095
20
-0.581234151178904
30
0
0
SPLINE
5
185
100
AcDbEntity
8
1
62
256
6
ByLayer
370
18
48
1
60
0
100
AcDbSpline
70
4
71
3
72
8
73
4
40
0
40
0
40
0
40
0
40
1
40
1
40
1
40
1
41
1
10
58.7545868943032
20
-0.703310983121639
30
0
41
1
10
58.7134602511161
20
-0.662690175240982
30
0
41
1
10
58.6723270437867
20
-0.621997371773205
30
0
41
1
10
58.6311860003096
20
-0.581234151178904
30
0
0
SPLINE
5
186
100
AcDbEntity
8
1
62
256
6
ByLayer
370
18
48
1
60
0
100
AcDbSpline
70
4
71
3
72
52
73
48
40
0
40
0
40
0
40
0
40
0.125000000000041
40
0.125000000000041
40
0.250000000000082
40
0.250000000000082
40
0.375000000000123
40
0.375000000000123
40
0.500000000000164
40
0.500000000000164
40
0.515625000000165
40
0.515625000000165
40
0.531250000000165
40
0.531250000000165
40
0.562500000000165
40
0.562500000000165
40
0.578125000000158
40
0.578125000000158
40
0.593750000000151
40
0.593750000000151
40
0.625000000000121
40
0.625000000000121
40
0.640625000000106
40
0.640625000000106
40
0.656250000000091
40
0.656250000000091
40
0.687500000000044
40
0.687500000000044
40
0.703125000000029
40
0.703125000000029
40
0.718750000000014
40
0.718750000000014
40
0.734374999999999
40
0.734374999999999
40
0.749999999999984
40
0.749999999999984
40
0.757812499999984
40
0.757812499999984
40
0.765624999999983
40
0.765624999999983
40
0.773437499999982
40
0.773437499999982
40
0.781249999999981
40
0.812499999999989
40
0.874999999999992
40
0.874999999999992
40
1
40
1
40
1
40
1
41
1
10
58.7545868943032
20
-0.703310983121639
30
0
41
1
10
58.7893857461248
20
-0.735611682318051
30
0
41
1
10
58.8245139750968
20
-0.766696278720673
30
0
41
1
10
58.8950132018317
20
-0.82592000796933
30
0
41
1
10
58.9303755320053
20
-0.854054885700833
30
0
41
1
10
59.0013435667002
20
-0.907300932548679
30
0
41
1
10
59.0369639641829
20
-0.932426058891849
30
0
41
1
10
59.1082983992177
20
-0.97935943669745
30
0
41
1
10
59.1440254385805
20
-1.00117912567367
30
0
41
1
10
59.1842427790487
20
-1.02373241575341
30
0
41
1
10
59.1887003519933
20
-1.02619995666689
30
0
41
1
10
59.1980702563025
20
-1.03151287721167
30
0
41
1
10
59.203015096183
20
-1.03437983239925
30
0
41
1
10
59.2189058024059
20
-1.04396623307895
30
0
41
1
10
59.2306912144668
20
-1.05150701413228
30
0
41
1
10
59.2497586014511
20
-1.06414414068755
30
0
41
1
10
59.2563461903949
20
-1.06857814999105
30
0
41
1
10
59.2699254573995
20
-1.07783300933872
30
0
41
1
10
59.27693101614
20
-1.082664272588
30
0
41
1
10
59.2981595496906
20
-1.09746718684525
30
0
41
1
10
59.3127044634482
20
-1.1078162223136
30
0
41
1
10
59.3351056489257
20
-1.12415203171065
30
0
41
1
10
59.3426814926265
20
-1.1297426027644
30
0
41
1
10
59.3580098473336
20
-1.14122011664824
30
0
41
1
10
59.365658126033
20
-1.14702917759246
30
0
41
1
10
59.3885478962211
20
-1.16466470754816
30
0
41
1
10
59.4037360040307
20
-1.1766937372121
30
0
41
1
10
59.4263598144376
20
-1.19522441836165
30
0
41
1
10
59.433874421334
20
-1.2014835734976
30
0
41
1
10
59.4488337786233
20
-1.21420544313062
30
0
41
1
10
59.456166424704
20
-1.22057403967122
30
0
41
1
10
59.4703770094045
20
-1.23324784601624
30
0
41
1
10
59.4772756311295
20
-1.2395665495504
30
0
41
1
10
59.490614726898
20
-1.25217040491074
30
0
41
1
10
59.4970633667145
20
-1.25846383099079
30
0
41
1
10
59.5059164093984
20
-1.26750411754804
30
0
41
1
10
59.5087374266684
20
-1.2704605224454
30
0
41
1
10
59.5141297613425
20
-1.27626446623759
30
0
41
1
10
59.5167003938852
20
-1.27911165834263
30
0
41
1
10
59.5217313559474
20
-1.28476447481921
30
0
41
1
10
59.5241930200029
20
-1.28757073801896
30
0
41
1
10
59.5291197248914
20
-1.29319661569562
30
0
41
1
10
59.5414099033084
20
-1.30727743850346
30
0
41
1
10
59.5730497593075
20
-1.34410640688745
30
0
41
1
10
59.6018272059851
20
-1.37871787421221
30
0
41
1
10
59.6593397091341
20
-1.44902128528477
30
0
41
1
10
59.6977387458712
20
-1.49739958874375
30
0
41
1
10
59.7358500968275
20
-1.54699520474892
30
0
0
SPLINE
5
187
100
AcDbEntity
8
1
62
256
6
ByLayer
370
18
48
1
60
0
100
AcDbSpline
70
4
71
3
72
8
73
4
40
0
40
0
40
0
40
0
40
1
40
1
40
1
40
1
41
1
10
60.0693602638262
20
-1.94400583207798
30
0
41
1
10
60.0280856677973
20
-1.90776493270073
30
0
41
1
10
59.9868182359213
20
-1.87124414470333
30
0
41
1
10
59.9455557817705
20
-1.83444600625472
30
0
0
SPLINE
5
188
100
AcDbEntity
8
1
62
256
6
ByLayer
370
18
48
1
60
0
100
AcDbSpline
70
4
71
3
72
8
73
4
40
0
40
0
40
0
40
0
40
1
40
1
40
1
40
1
41
1
10
61.384313750773
20
-2.98194910266068
30
0
41
1
10
61.3430773676809
20
-2.95393391002335
30
0
41
1
10
61.3018623543083
20
-2.92546488726106
30
0
41
1
10
61.2606636604902
20
-2.89654567944044
30
0
0
SPLINE
5
189
100
AcDbEntity
8
1
62
256
6
ByLayer
370
18
48
1
60
0
100
AcDbSpline
70
4
71
3
72
50
73
46
40
0
40
0
40
0
40
0
40
0.124999999999933
40
0.124999999999933
40
0.249999999999866
40
0.249999999999866
40
0.374999999999798
40
0.374999999999798
40
0.499999999999731
40
0.499999999999731
40
0.51562499999972
40
0.51562499999972
40
0.531249999999709
40
0.531249999999709
40
0.562499999999698
40
0.562499999999698
40
0.5781249999997
40
0.5781249999997
40
0.593749999999702
40
0.593749999999702
40
0.624999999999722
40
0.624999999999722
40
0.656249999999742
40
0.656249999999742
40
0.687499999999762
40
0.687499999999762
40
0.703124999999772
40
0.703124999999772
40
0.718749999999782
40
0.718749999999782
40
0.734374999999791
40
0.734374999999791
40
0.749999999999801
40
0.749999999999801
40
0.757812499999806
40
0.757812499999806
40
0.765624999999811
40
0.765624999999811
40
0.773437499999816
40
0.773437499999816
40
0.781249999999821
40
0.812499999999851
40
0.874999999999901
40
0.874999999999901
40
1
40
1
40
1
40
1
41
1
10
56.1259536631165
20
1.85779021202231
30
0
41
1
10
56.1606142138135
20
1.79364555160552
30
0
41
1
10
56.1956216244562
20
1.73023682421328
30
0
41
1
10
56.2659198980277
20
1.60514129233712
30
0
41
1
10
56.3011999742766
20
1.54348010848753
30
0
41
1
10
56.3720432686485
20
1.42196413581775
30
0
41
1
10
56.4076237224208
20
1.36208595411011
30
0
41
1
10
56.4788912207422
20
1.24440113611354
30
0
41
1
10
56.5145912650933
20
1.18657007478825
30
0
41
1
10
56.5547697297402
20
1.12266700759699
30
0
41
1
10
56.5592163790215
20
1.11558691429124
30
0
41
1
10
56.5685453921219
20
1.10135583933166
30
0
41
1
10
56.573456325591
20
1.0941734298859
30
0
41
1
10
56.5892760582498
20
1.07258991660927
30
0
41
1
10
56.6010235367058
20
1.05841289978136
30
0
41
1
10
56.6200454791882
20
1.03739939276309
30
0
41
1
10
56.6266203183993
20
1.03043683158433
30
0
41
1
10
56.6401769923291
20
1.01658418725805
30
0
41
1
10
56.6471782661807
20
1.00967799340046
30
0
41
1
10
56.66840280515
20
0.989402181753661
30
0
41
1
10
56.6829479831049
20
0.976353700827815
30
0
41
1
10
56.7128197147449
20
0.95118615410064
30
0
41
1
10
56.7282890874773
20
0.939010008645994
30
0
41
1
10
56.7588535103102
20
0.916590437200085
30
0
41
1
10
56.7740639765369
20
0.906195856546532
30
0
41
1
10
56.7967227269343
20
0.891846125908955
30
0
41
1
10
56.804249227382
20
0.887273209745871
30
0
41
1
10
56.8192334455548
20
0.87861935097601
30
0
41
1
10
56.8265905897847
20
0.874598556023614
30
0
41
1
10
56.840839629697
20
0.86735904675129
30
0
41
1
10
56.8477570117045
20
0.864117892962298
30
0
41
1
10
56.8611343625485
20
0.858457041615111
30
0
41
1
10
56.8676061567942
20
0.856032032784583
30
0
41
1
10
56.8764967066742
20
0.853335105150762
30
0
41
1
10
56.8793304794179
20
0.852596816912978
30
0
41
1
10
56.8847456837657
20
0.851432011158607
30
0
41
1
10
56.8873254856214
20
0.851007653046906
30
0
41
1
10
56.8923689218302
20
0.850293336367599
30
0
41
1
10
56.8948339836721
20
0.850001525225281
30
0
41
1
10
56.8997656386302
20
0.849398868828018
30
0
41
1
10
56.9120679766307
20
0.847883962623541
30
0
41
1
10
56.9437367029841
20
0.843792540520695
30
0
41
1
10
56.9725369749835
20
0.839374227050115
30
0
41
1
10
57.0300928204872
20
0.829078025200971
30
0
41
1
10
57.0685185926596
20
0.820133978541833
30
0
41
1
10
57.1066505422294
20
0.809556473195471
30
0
0
SPLINE
5
18A
100
AcDbEntity
8
1
62
256
6
ByLayer
370
18
48
1
60
0
100
AcDbSpline
70
4
71
3
72
28
73
24
40
0
40
0
40
0
40
0
40
0.125
40
0.125
40
0.250000000000001
40
0.250000000000001
40
0.375000000000001
40
0.375000000000001
40
0.406250000000001
40
0.406250000000001
40
0.437500000000001
40
0.500000000000001
40
0.500000000000001
40
0.625000000000002
40
0.750000000000003
40
0.750000000000003
40
0.781250000000003
40
0.781250000000003
40
0.812500000000003
40
0.812500000000003
40
0.875000000000002
40
0.875000000000002
40
1
40
1
40
1
40
1
41
1
10
56.2901192245009
20
-1.39640584246445
30
0
41
1
10
56.2833838292253
20
-1.26414242455266
30
0
41
1
10
56.2766145680704
20
-1.13044501619544
30
0
41
1
10
56.2629798494668
20
-0.860274895810306
30
0
41
1
10
56.2561242130286
20
-0.72380147599398
30
0
41
1
10
56.2423383534163
20
-0.448078491139938
30
0
41
1
10
56.2354069526338
20
-0.308829213065678
30
0
41
1
10
56.2266710035748
20
-0.132977915324773
30
0
41
1
10
56.2249179574041
20
-0.0976705177222357
30
0
41
1
10
56.2214225782511
20
-0.027239883816975
30
0
41
1
10
56.2161915949781
20
0.0782095101801588
30
0
41
1
10
56.2109948125064
20
0.183076247810703
30
0
41
1
10
56.2006401807915
20
0.392045237175807
30
0
41
1
10
56.186939456511
20
0.668635976798441
30
0
41
1
10
56.1733479682301
20
0.941188179201134
30
0
41
1
10
56.1648372469371
20
1.11023949243631
30
0
41
1
10
56.1631342009855
20
1.14398489321664
30
0
41
1
10
56.1597246611922
20
1.21134447759064
30
0
41
1
10
56.1580156497957
20
1.24500796370097
30
0
41
1
10
56.1529037537023
20
1.345347533911
30
0
41
1
10
56.1495155238497
20
1.41138479078748
30
0
41
1
10
56.1393860642825
20
1.60698127796454
30
0
41
1
10
56.1326804699348
20
1.73403177027362
30
0
41
1
10
56.1259536631119
20
1.85779021202578
30
0
0
SPLINE
5
18B
100
AcDbEntity
8
1
62
256
6
ByLayer
370
18
48
1
60
0
100
AcDbSpline
70
4
71
3
72
53
73
49
40
0
40
0
40
0
40
0
40
0.12499999999999
40
0.12499999999999
40
0.24999999999998
40
0.24999999999998
40
0.265624999999979
40
0.265624999999979
40
0.281249999999978
40
0.281249999999978
40
0.296874999999977
40
0.296874999999977
40
0.312499999999976
40
0.312499999999976
40
0.343749999999973
40
0.343749999999973
40
0.359374999999972
40
0.359374999999972
40
0.374999999999971
40
0.374999999999971
40
0.406249999999969
40
0.406249999999969
40
0.421874999999959
40
0.421874999999959
40
0.437499999999949
40
0.437499999999949
40
0.46874999999993
40
0.46874999999993
40
0.48437499999992
40
0.48437499999992
40
0.49999999999991
40
0.507812499999913
40
0.507812499999913
40
0.515624999999917
40
0.515624999999917
40
0.531249999999923
40
0.531249999999923
40
0.546874999999929
40
0.546874999999929
40
0.562499999999935
40
0.562499999999935
40
0.624999999999948
40
0.624999999999948
40
0.749999999999966
40
0.749999999999966
40
0.874999999999983
40
0.874999999999983
40
1
40
1
40
1
40
1
41
1
10
57.2637490773863
20
-2.00352231472093
30
0
41
1
10
57.2306571266651
20
-1.93795234981218
30
0
41
1
10
57.1973789085316
20
-1.8729256364503
30
0
41
1
10
57.1307986213802
20
-1.74396186891318
30
0
41
1
10
57.097577436992
20
-1.6800101119471
30
0
41
1
10
57.0594723859416
20
-1.60879228409704
30
0
41
1
10
57.0552276429347
20
-1.60088918825662
30
0
41
1
10
57.0467121381933
20
-1.58510333766839
30
0
41
1
10
57.0424758870819
20
-1.57721862628617
30
0
41
1
10
57.0337658608749
20
-1.56148163632574
30
0
41
1
10
57.029230642298
20
-1.55363283224239
30
0
41
1
10
57.0193325378164
20
-1.53800237138566
30
0
41
1
10
57.0139886960936
20
-1.53019706926037
30
0
41
1
10
56.9974051477863
20
-1.50732847401224
30
0
41
1
10
56.9855187119419
20
-1.49262914968764
30
0
41
1
10
56.9665288643363
20
-1.47134024963975
30
0
41
1
10
56.9600060241374
20
-1.46437030270502
30
0
41
1
10
56.9466048708408
20
-1.45066276052697
30
0
41
1
10
56.9397087889269
20
-1.44391092030469
30
0
41
1
10
56.9188293311004
20
-1.42430959747424
30
0
41
1
10
56.90456306939
20
-1.41199654018584
30
0
41
1
10
56.8826288194675
20
-1.39473617552414
30
0
41
1
10
56.8752269824013
20
-1.38918726796436
30
0
41
1
10
56.8602205223569
20
-1.37855870924022
30
0
41
1
10
56.8525955859247
20
-1.37347237573391
30
0
41
1
10
56.8298932025818
20
-1.35922249132915
30
0
41
1
10
56.8148374327833
20
-1.3509285667287
30
0
41
1
10
56.7924302077847
20
-1.34043479975597
30
0
41
1
10
56.7849466110841
20
-1.33725151696197
30
0
41
1
10
56.770356616861
20
-1.33179309246273
30
0
41
1
10
56.7596777567096
20
-1.32836315102796
30
0
41
1
10
56.7495037180339
20
-1.32619226637326
30
0
41
1
10
56.7428471130927
20
-1.32505827944388
30
0
41
1
10
56.7395723862336
20
-1.32464867863226
30
0
41
1
10
56.7301565589657
20
-1.32395388077577
30
0
41
1
10
56.7243843535035
20
-1.32422356051526
30
0
41
1
10
56.7137290303496
20
-1.32604283603408
30
0
41
1
10
56.7088135104977
20
-1.32754872122783
30
0
41
1
10
56.6992010251175
20
-1.33080013038256
30
0
41
1
10
56.6944453391035
20
-1.33246054421895
30
0
41
1
10
56.6705510018257
20
-1.34045156077872
30
0
41
1
10
56.6514144054676
20
-1.34630937905831
30
0
41
1
10
56.5939810797867
20
-1.36235478705817
30
0
41
1
10
56.5556474184039
20
-1.37101718185113
30
0
41
1
10
56.4792913698569
20
-1.38452049192691
30
0
41
1
10
56.4412408508501
20
-1.38937489334882
30
0
41
1
10
56.3653988702057
20
-1.3954528323701
30
0
41
1
10
56.3275776794848
20
-1.39663151908761
30
0
41
1
10
56.2901192245008
20
-1.39640584246445
30
0
0
SPLINE
5
18C
100
AcDbEntity
8
1
62
256
6
ByLayer
370
13
48
1
60
0
100
AcDbSpline
70
4
71
3
72
10
73
6
40
0
40
0
40
0
40
0
40
0.318500772650414
40
0.632260988656113
40
1
40
1
40
1
40
1
41
1
10
57.2637490773863
20
-2.00352231472093
30
0
41
1
10
57.2465554918067
20
-1.73331968951413
30
0
41
1
10
57.2126910694335
20
-1.15722894659865
30
0
41
1
10
57.1604572553591
20
-0.191607967633814
30
0
41
1
10
57.1254852760241
20
0.466125310981482
30
0
41
1
10
57.1066505422294
20
0.809556473195443
30
0
0
SPLINE
5
18D
100
AcDbEntity
8
1
62
256
6
ByLayer
370
18
48
1
60
0
100
AcDbSpline
70
4
71
3
72
27
73
23
40
0
40
0
40
0
40
0
40
0.124999999999999
40
0.124999999999999
40
0.187499999999999
40
0.187499999999999
40
0.218749999999999
40
0.218749999999999
40
0.249999999999999
40
0.374999999999999
40
0.374999999999999
40
0.5
40
0.5
40
0.5625
40
0.5625
40
0.625
40
0.625
40
0.75
40
0.75
40
0.875
40
0.875
40
1
40
1
40
1
40
1
41
1
10
62.4261502695839
20
0.915352343511699
30
0
41
1
10
62.4191959278926
20
1.05121889130146
30
0
41
1
10
62.4122198124191
20
1.18546467336429
30
0
41
1
10
62.4017272866292
20
1.38435635055436
30
0
41
1
10
62.3982255380332
20
1.45023965049347
30
0
41
1
10
62.392970472367
20
1.54842741322753
30
0
41
1
10
62.3912159814039
20
1.58109467565731
30
0
41
1
10
62.3877193992327
20
1.6459876681825
30
0
41
1
10
62.3790158923799
20
1.80695167047872
30
0
41
1
10
62.3705303494502
20
1.96163535108263
30
0
41
1
10
62.3571246739682
20
2.20123806423976
30
0
41
1
10
62.3505085346781
20
2.31709304132914
30
0
41
1
10
62.3404583088249
20
2.48497047959452
30
0
41
1
10
62.3370812795094
20
2.53994495966862
30
0
41
1
10
62.3302353077316
20
2.64791360809207
30
0
41
1
10
62.3267698107644
20
2.70093889461259
30
0
41
1
10
62.3162598782904
20
2.85681189758188
30
0
41
1
10
62.3091746837418
20
2.95493814204201
30
0
41
1
10
62.2950364657942
20
3.13990956880085
30
0
41
1
10
62.2880104420846
20
3.22671407812408
30
0
41
1
10
62.2740892136222
20
3.38893242911047
30
0
41
1
10
62.2672006722986
20
3.46434669337435
30
0
41
1
10
62.2602467063092
20
3.53403611797344
30
0
0
SPLINE
5
18E
100
AcDbEntity
8
1
62
256
6
ByLayer
370
18
48
1
60
0
100
AcDbSpline
70
4
71
3
72
8
73
4
40
0
40
0
40
0
40
0
40
1
40
1
40
1
40
1
41
1
10
62.2598263581878
20
3.5343445349435
30
0
41
1
10
62.2599664727933
20
3.5342417348663
30
0
41
1
10
62.2601065888336
20
3.53413892920938
30
0
41
1
10
62.2602467063092
20
3.53403611797353
30
0
0
SPLINE
5
18F
100
AcDbEntity
8
1
62
256
6
ByLayer
370
18
48
1
60
0
100
AcDbSpline
70
4
71
3
72
28
73
24
40
0
40
0
40
0
40
0
40
0.125
40
0.125
40
0.250000000000001
40
0.250000000000001
40
0.375000000000001
40
0.375000000000001
40
0.437500000000001
40
0.437500000000001
40
0.500000000000001
40
0.500000000000001
40
0.625000000000001
40
0.625000000000001
40
0.687500000000001
40
0.687500000000001
40
0.750000000000001
40
0.750000000000001
40
0.875000000000001
40
0.875000000000001
40
0.9375
40
0.9375
40
1
40
1
40
1
40
1
41
1
10
62.4145067462872
20
0.926753824536036
30
0
41
1
10
62.4078158065881
20
1.06388196333339
30
0
41
1
10
62.4015746713328
20
1.19800241562626
30
0
41
1
10
62.3896920596335
20
1.46046545413372
30
0
41
1
10
62.3840502222804
20
1.58880701838416
30
0
41
1
10
62.3724833306983
20
1.83973515533836
30
0
41
1
10
62.3665208667332
20
1.96232045153528
30
0
41
1
10
62.3568924530729
20
2.14177652251033
30
0
41
1
10
62.3535738008996
20
2.20085704222205
30
0
41
1
10
62.3467133334558
20
2.31750885527973
30
0
41
1
10
62.343161541372
20
2.37522388419927
30
0
41
1
10
62.332367155453
20
2.54406706404311
30
0
41
1
10
62.3249355611832
20
2.65143092451692
30
0
41
1
10
62.314173600289
20
2.8049275224067
30
0
41
1
10
62.3106628717273
20
2.85483252932895
30
0
41
1
10
62.3039409791726
20
2.95213138120809
30
0
41
1
10
62.3007020605996
20
2.99952418861721
30
0
41
1
10
62.2911034384868
20
3.13790210556749
30
0
41
1
10
62.2848198694781
20
3.22509636683051
30
0
41
1
10
62.2752722161099
20
3.34801872107877
30
0
41
1
10
62.2720940442392
20
3.387491438127
30
0
41
1
10
62.2658431670784
20
3.46325542159929
30
0
41
1
10
62.2627733656755
20
3.49957929738795
30
0
41
1
10
62.2598263581878
20
3.53434453494353
30
0
0
SPLINE
5
190
100
AcDbEntity
8
1
62
256
6
ByLayer
370
18
48
1
60
0
100
AcDbSpline
70
4
71
3
72
96
73
92
40
0
40
0
40
0
40
0
40
0.0312500000000017
40
0.0312500000000017
40
0.0625000000000035
40
0.0625000000000035
40
0.125000000000011
40
0.125000000000011
40
0.187500000000018
40
0.187500000000018
40
0.195312500000021
40
0.195312500000021
40
0.203125000000025
40
0.203125000000025
40
0.218750000000028
40
0.218750000000028
40
0.250000000000029
40
0.250000000000029
40
0.26562500000003
40
0.26562500000003
40
0.28125000000003
40
0.296875000000031
40
0.296875000000031
40
0.312500000000032
40
0.312500000000032
40
0.328125000000032
40
0.328125000000032
40
0.343750000000033
40
0.343750000000033
40
0.375000000000032
40
0.375000000000032
40
0.406250000000031
40
0.406250000000031
40
0.43750000000003
40
0.43750000000003
40
0.453125000000029
40
0.453125000000029
40
0.468750000000029
40
0.468750000000029
40
0.484375000000028
40
0.484375000000028
40
0.492187500000028
40
0.492187500000028
40
0.500000000000028
40
0.500000000000028
40
0.515625000000025
40
0.515625000000025
40
0.531250000000023
40
0.531250000000023
40
0.535156250000023
40
0.535156250000023
40
0.539062500000022
40
0.546875000000021
40
0.546875000000021
40
0.562500000000018
40
0.562500000000018
40
0.566406250000017
40
0.566406250000017
40
0.570312500000017
40
0.578125000000016
40
0.578125000000016
40
0.593750000000016
40
0.593750000000016
40
0.601562500000015
40
0.601562500000015
40
0.609375000000015
40
0.625000000000014
40
0.625000000000014
40
0.640625000000013
40
0.640625000000013
40
0.656250000000012
40
0.656250000000012
40
0.671875000000011
40
0.671875000000011
40
0.67968750000001
40
0.67968750000001
40
0.687500000000008
40
0.687500000000008
40
0.718750000000008
40
0.718750000000008
40
0.750000000000008
40
0.750000000000008
40
0.781250000000007
40
0.781250000000007
40
0.812500000000007
40
0.812500000000007
40
0.875000000000005
40
0.875000000000005
40
0.937500000000002
40
0.937500000000002
40
1
40
1
40
1
40
1
41
1
10
40.8320498780276
20
-1.88708773795781
30
0
41
1
10
40.7587365508333
20
-1.83906442931152
30
0
41
1
10
40.6848351585817
20
-1.79095838349224
30
0
41
1
10
40.5353722246548
20
-1.69545052462726
30
0
41
1
10
40.4598247500454
20
-1.64803077191189
30
0
41
1
10
40.2302220584534
20
-1.50784484622119
30
0
41
1
10
40.0731727698102
20
-1.41718649712357
30
0
41
1
10
39.7483198245297
20
-1.24760146791618
30
0
41
1
10
39.5805255885224
20
-1.16866102826069
30
0
41
1
10
39.3837753044417
20
-1.09065781767154
30
0
41
1
10
39.3618040454364
20
-1.08213992374627
30
0
41
1
10
39.3176350375762
20
-1.06541653650876
30
0
41
1
10
39.295412939158
20
-1.05720242837134
30
0
41
1
10
39.2286240859758
20
-1.03313308200794
30
0
41
1
10
39.1839255346129
20
-1.01784451309797
30
0
41
1
10
39.049290590962
20
-0.974388086378184
30
0
41
1
10
38.9588179320343
20
-0.94861605464115
30
0
41
1
10
38.8219041248642
20
-0.915500788220243
30
0
41
1
10
38.7760722502189
20
-0.905353599379737
30
0
41
1
10
38.6839319000643
20
-0.887278743757378
30
0
41
1
10
38.5913156304479
20
-0.871420836417002
30
0
41
1
10
38.497829741703
20
-0.859641548388538
30
0
41
1
10
38.4039520560005
20
-0.849709106396858
30
0
41
1
10
38.356810463675
20
-0.845698767689186
30
0
41
1
10
38.2622218867729
20
-0.839122299612313
30
0
41
1
10
38.2147709417901
20
-0.836574811717213
30
0
41
1
10
38.1195341168135
20
-0.833067517384649
30
0
41
1
10
38.0718427548981
20
-0.832114101052042
30
0
41
1
10
37.9292592824984
20
-0.831777749352511
30
0
41
1
10
37.8345789453511
20
-0.834882355173448
30
0
41
1
10
37.6460668267855
20
-0.848596612384085
30
0
41
1
10
37.5522329671162
20
-0.859188874374979
30
0
41
1
10
37.3655688139986
20
-0.88917251985518
30
0
41
1
10
37.272726573827
20
-0.908461157040193
30
0
41
1
10
37.1344303720668
20
-0.94575249548069
30
0
41
1
10
37.0888411432067
20
-0.959485780381499
30
0
41
1
10
36.9989692917153
20
-0.989797858784868
30
0
41
1
10
36.9546611578746
20
-1.00638172075563
30
0
41
1
10
36.8674921084173
20
-1.04279665012402
30
0
41
1
10
36.824629772635
20
-1.0626248587734
30
0
41
1
10
36.7616285642782
20
-1.09522386549361
30
0
41
1
10
36.7409116967239
20
-1.10653609191127
30
0
41
1
10
36.7003487189122
20
-1.12995826324243
30
0
41
1
10
36.6804636505201
20
-1.14208804624573
30
0
41
1
10
36.6220784646885
20
-1.17980268288207
30
0
41
1
10
36.5848391007876
20
-1.20670412502022
30
0
41
1
10
36.5142838181457
20
-1.26449878869781
30
0
41
1
10
36.4809680993979
20
-1.29539348878328
30
0
41
1
10
36.4423007981863
20
-1.3369606542735
30
0
41
1
10
36.4346992451057
20
-1.34544315728738
30
0
41
1
10
36.4199046550646
20
-1.36261035786893
30
0
41
1
10
36.3983564746564
20
-1.38862320666189
30
0
41
1
10
36.3787583288564
20
-1.41541798264848
30
0
41
1
10
36.3422220204199
20
-1.47004054793217
30
0
41
1
10
36.3214066612506
20
-1.50783220876951
30
0
41
1
10
36.3000742217158
20
-1.55677076994272
30
0
41
1
10
36.2960377988979
20
-1.56665896377058
30
0
41
1
10
36.288513332089
20
-1.58640498253024
30
0
41
1
10
36.2780182484624
20
-1.61604473531091
30
0
41
1
10
36.269836808937
20
-1.64572997424403
30
0
41
1
10
36.2564232838869
20
-1.70512118434314
30
0
41
1
10
36.2514067270063
20
-1.74474203680847
30
0
41
1
10
36.2493738576793
20
-1.8040760225399
30
0
41
1
10
36.2496227007485
20
-1.82365376883675
30
0
41
1
10
36.2522591767283
20
-1.86215794162533
30
0
41
1
10
36.2592714559325
20
-1.91906471766734
30
0
41
1
10
36.274932875954
20
-1.97353794279945
30
0
41
1
10
36.3025501419173
20
-2.04418960092136
30
0
41
1
10
36.3194381476555
20
-2.07768656542527
30
0
41
1
10
36.3573300021791
20
-2.14194088368254
30
0
41
1
10
36.3783575762761
20
-2.17269555480379
30
0
41
1
10
36.4235608571301
20
-2.23196404307612
30
0
41
1
10
36.4477456397855
20
-2.26047369285143
30
0
41
1
10
36.4859286744315
20
-2.3017893109236
30
0
41
1
10
36.4989554483164
20
-2.31529485288274
30
0
41
1
10
36.5254340268956
20
-2.34170595558658
30
0
41
1
10
36.5389034918695
20
-2.35462891657585
30
0
41
1
10
36.6072565296168
20
-2.41795561246852
30
0
41
1
10
36.6651064515732
20
-2.46454340833142
30
0
41
1
10
36.7849988448894
20
-2.55149508165178
30
0
41
1
10
36.8470640166879
20
-2.59183808233073
30
0
41
1
10
36.9742070357167
20
-2.66731757426112
30
0
41
1
10
37.0393164052218
20
-2.70245665500684
30
0
41
1
10
37.1717324694576
20
-2.76807080732598
30
0
41
1
10
37.238580478032
20
-2.79832009787199
30
0
41
1
10
37.4403809208409
20
-2.88227898656748
30
0
41
1
10
37.5765506877195
20
-2.92926383554749
30
0
41
1
10
37.8502137359398
20
-3.00744944874853
30
0
41
1
10
37.9877262023866
20
-3.03861340919991
30
0
41
1
10
38.2633350429339
20
-3.08545520538812
30
0
41
1
10
38.4014321588977
20
-3.10111689177359
30
0
41
1
10
38.5398870604068
20
-3.10866404410416
30
0
0
SPLINE
5
191
100
AcDbEntity
8
SK1
62
256
6
ByLayer
370
18
48
1
60
0
100
AcDbSpline
70
4
71
3
72
25
73
21
40
0
40
0
40
0
40
0
40
0.0625082265236473
40
0.0625082265236473
40
0.125016453047295
40
0.125016453047295
40
0.25003290609459
40
0.25003290609459
40
0.500065812189181
40
0.500065812189181
40
0.625082265236477
40
0.625082265236477
40
0.687590491760124
40
0.718844605021948
40
0.718844605021948
40
0.750098718283772
40
0.750098718283772
40
0.875115171331068
40
0.875115171331068
40
1
40
1
40
1
40
1
41
1
10
-22.8
20
3.09999999999997
30
0
41
1
10
-22.8255580387326
20
3.09999999999997
30
0
41
1
10
-22.8507859698115
20
3.09999999999997
30
0
41
1
10
-22.900515272324
20
3.09999999999997
30
0
41
1
10
-22.9250377452358
20
3.09999999999997
30
0
41
1
10
-22.9972279312134
20
3.09999999999997
30
0
41
1
10
-23.0434983576829
20
3.09999999999997
30
0
41
1
10
-23.1757222997548
20
3.09999999999997
30
0
41
1
10
-23.2551635800205
20
3.09999999999997
30
0
41
1
10
-23.3559652856179
20
3.09999999999997
30
0
41
1
10
-23.386487399267
20
3.09999999999997
30
0
41
1
10
-23.4268208094404
20
3.09999999999997
30
0
41
1
10
-23.4456232733698
20
3.09999999999997
30
0
41
1
10
-23.4622079504984
20
3.09999999999997
30
0
41
1
10
-23.4727515433793
20
3.09999999999997
30
0
41
1
10
-23.4777720281785
20
3.09999999999997
30
0
41
1
10
-23.5014388703221
20
3.09999999999997
30
0
41
1
10
-23.5158360601473
20
3.09999999999997
30
0
41
1
10
-23.5351007812165
20
3.09999999999999
30
0
41
1
10
-23.539977031867
20
3.09999999999999
30
0
41
1
10
-23.5399999997829
20
3.09999999999999
30
0
0
SPLINE
5
192
100
AcDbEntity
8
SK1
62
256
6
ByLayer
370
18
48
1
60
0
100
AcDbSpline
70
4
71
3
72
25
73
21
40
0
40
0
40
0
40
0
40
0.124885143907605
40
0.124885143907605
40
0.249901551920804
40
0.249901551920804
40
0.281155653924104
40
0.281155653924104
40
0.312409755927404
40
0.374917959934003
40
0.374917959934003
40
0.499934367947203
40
0.499934367947203
40
0.749967183973602
40
0.749967183973602
40
0.874983591986801
40
0.874983591986801
40
0.937491795993401
40
0.937491795993401
40
1
40
1
40
1
40
1
41
1
10
-23.5399999999816
20
-3.10000000000005
30
0
41
1
10
-23.5399770599977
20
-3.10000000000005
30
0
41
1
10
-23.535100808986
20
-3.10000000000002
30
0
41
1
10
-23.5158360601473
20
-3.10000000000002
30
0
41
1
10
-23.5014388703221
20
-3.10000000000002
30
0
41
1
10
-23.4777720281785
20
-3.10000000000002
30
0
41
1
10
-23.4727515433793
20
-3.10000000000002
30
0
41
1
10
-23.4622079504984
20
-3.10000000000002
30
0
41
1
10
-23.4456232733698
20
-3.10000000000002
30
0
41
1
10
-23.4268208094403
20
-3.10000000000002
30
0
41
1
10
-23.3864873992669
20
-3.10000000000002
30
0
41
1
10
-23.3559652856179
20
-3.10000000000002
30
0
41
1
10
-23.2551635800205
20
-3.10000000000002
30
0
41
1
10
-23.1757222997547
20
-3.10000000000002
30
0
41
1
10
-23.0434983576829
20
-3.10000000000002
30
0
41
1
10
-22.9972279312133
20
-3.10000000000002
30
0
41
1
10
-22.9250377452358
20
-3.10000000000002
30
0
41
1
10
-22.9005152723239
20
-3.10000000000002
30
0
41
1
10
-22.8507859698115
20
-3.10000000000002
30
0
41
1
10
-22.8255580387326
20
-3.10000000000002
30
0
41
1
10
-22.8
20
-3.10000000000002
30
0
0
SPLINE
5
193
100
AcDbEntity
8
SK1
62
256
6
ByLayer
370
18
48
1
60
0
100
AcDbSpline
70
4
71
3
72
42
73
38
40
0
40
0
40
0
40
0
40
0.0624999999999998
40
0.0624999999999998
40
0.0937499999999997
40
0.0937499999999997
40
0.125
40
0.125
40
0.25
40
0.25
40
0.375
40
0.375
40
0.390625
40
0.390625
40
0.40625
40
0.40625
40
0.4375
40
0.4375
40
0.5
40
0.5625
40
0.5625
40
0.624999999999999
40
0.624999999999999
40
0.640624999999999
40
0.640624999999999
40
0.656249999999999
40
0.687499999999999
40
0.687499999999999
40
0.75
40
0.75
40
0.875
40
0.875
40
0.9375
40
0.9375
40
0.96875
40
0.96875
40
1
40
1
40
1
40
1
41
1
10
-22.8
20
-2.26618622359246
30
0
41
1
10
-22.8508894316494
20
-2.17995526185629
30
0
41
1
10
-22.9004658050821
20
-2.09275503916427
30
0
41
1
10
-22.9724426999165
20
-1.96019220081689
30
0
41
1
10
-22.996036028223
20
-1.91571008013594
30
0
41
1
10
-23.0423408985636
20
-1.82609493008272
30
0
41
1
10
-23.0650757832331
20
-1.78091234802616
30
0
41
1
10
-23.1758387500034
20
-1.55417609606832
30
0
41
1
10
-23.2554566958293
20
-1.36974721051177
30
0
41
1
10
-23.3897816515624
20
-0.992468314566707
30
0
41
1
10
-23.444474755522
20
-0.799613603282126
30
0
41
1
10
-23.486994699949
20
-0.57622580404788
30
0
41
1
10
-23.4914541484178
20
-0.551315357845539
30
0
41
1
10
-23.4998243597224
20
-0.501308982638278
30
0
41
1
10
-23.5037398055586
20
-0.476178764178911
30
0
41
1
10
-23.5145929273497
20
-0.400801949397191
30
0
41
1
10
-23.5206393479445
20
-0.350580412204295
30
0
41
1
10
-23.5351619313951
20
-0.200006058842433
30
0
41
1
10
-23.5448636827396
20
0.0005186273750724
30
0
41
1
10
-23.535110928051
20
0.200557804829629
30
0
41
1
10
-23.5158360601473
20
0.400359347393845
30
0
41
1
10
-23.5014388703221
20
0.500141333692056
30
0
41
1
10
-23.4777720281785
20
0.62472730657376
30
0
41
1
10
-23.4727515433793
20
0.649653694457953
30
0
41
1
10
-23.4622079504984
20
0.69924920209607
30
0
41
1
10
-23.4456232733698
20
0.773343264923909
30
0
41
1
10
-23.4268208094403
20
0.846574765308077
30
0
41
1
10
-23.386487399267
20
0.991976579143682
30
0
41
1
10
-23.3559652856179
20
1.08749807377382
30
0
41
1
10
-23.2551635800205
20
1.37047065302403
30
0
41
1
10
-23.1757222997547
20
1.55435848789429
30
0
41
1
10
-23.0434983576829
20
1.82511003621912
30
0
41
1
10
-22.9972279312134
20
1.91450654932038
30
0
41
1
10
-22.9250377452358
20
2.04751832711881
30
0
41
1
10
-22.9005152723239
20
2.09166174892783
30
0
41
1
10
-22.8507859698115
20
2.17932232815221
30
0
41
1
10
-22.8255580387326
20
2.22287871968496
30
0
41
1
10
-22.8
20
2.26618622359243
30
0
0
SPLINE
5
194
100
AcDbEntity
8
1
62
256
6
ByLayer
370
18
48
1
60
0
100
AcDbSpline
70
4
71
3
72
9
73
5
40
0
40
0
40
0
40
0
40
0.594235666699929
40
1
40
1
40
1
40
1
41
1
10
64.3585585045495
20
-3.51442142196248
30
0
41
1
10
64.3826422469769
20
-3.47335292163248
30
0
41
1
10
64.4208037047133
20
-3.41271886394495
30
0
41
1
10
64.4471996570146
20
-3.36050529111444
30
0
41
1
10
64.4585203278216
20
-3.34261883886981
30
0
0
SPLINE
5
195
100
AcDbEntity
8
1
62
256
6
ByLayer
370
18
48
1
60
0
100
AcDbSpline
70
4
71
3
72
8
73
4
40
0
40
0
40
0
40
0
40
1
40
1
40
1
40
1
41
1
10
64.4796657465516
20
-3.31484825143019
30
0
41
1
10
64.4947168902612
20
-3.29925041771682
30
0
41
1
10
64.5121953246319
20
-3.28934916540064
30
0
41
1
10
64.5304026164308
20
-3.28386859055968
30
0
0
SPLINE
5
196
100
AcDbEntity
8
1
62
256
6
ByLayer
370
18
48
1
60
0
100
AcDbSpline
70
4
71
2
72
6
73
3
40
0
40
0
40
0
40
1
40
1
40
1
41
1
10
57.015207726806
20
4.03113270487697
30
0
41
1
10
56.9122871312988
20
3.85577396718938
30
0
41
1
10
56.8108733447597
20
3.67972181472311
30
0
0
SPLINE
5
197
100
AcDbEntity
8
1
62
256
6
ByLayer
370
18
48
1
60
0
100
AcDbSpline
70
4
71
1
72
4
73
2
40
0
40
0
40
1
40
1
41
1
10
66
20
2.94052560695681
30
0
41
1
10
65.7980213152477
20
3.1424788617073
30
0
0
SPLINE
5
198
100
AcDbEntity
8
1
62
256
6
ByLayer
370
18
48
1
60
0
100
AcDbSpline
70
4
71
1
72
4
73
2
40
0
40
0
40
1
40
1
41
1
10
63.7177082975294
20
-3.70805085208951
30
0
41
1
10
64.3408535362222
20
-3.54453627806617
30
0
0
SPLINE
5
199
100
AcDbEntity
8
1
62
256
6
ByLayer
370
18
48
1
60
0
100
AcDbSpline
70
4
71
3
72
13
73
9
40
0
40
0
40
0
40
0
40
0.361473365148236
40
0.648358719734113
40
0.854587454377304
40
0.929693778399341
40
0.991941291873326
40
1
40
1
40
1
40
1
41
1
10
55.2956141943617
20
-4.0558179401614
30
0
41
1
10
55.3517909300766
20
-3.95945644959838
30
0
41
1
10
55.4521795451894
20
-3.78714825391839
30
0
41
1
10
55.5835887424983
20
-3.55991286585982
30
0
41
1
10
55.6705503295875
20
-3.41102959084944
30
0
41
1
10
55.7200236648573
20
-3.31996191805922
30
0
41
1
10
55.753884745811
20
-3.29262972059678
30
0
41
1
10
55.7717773894554
20
-3.28283910519895
30
0
41
1
10
55.7738426280514
20
-3.28176192928279
30
0
0
SPLINE
5
19A
100
AcDbEntity
8
1
62
256
6
ByLayer
370
18
48
1
60
0
100
AcDbSpline
70
4
71
2
72
6
73
3
40
0
40
0
40
0
40
1
40
1
40
1
41
1
10
54.9502460605612
20
-3.70728893024881
30
0
41
1
10
55.051806933968
20
-3.88437682691497
30
0
41
1
10
55.154874420773
20
-4.06062233853834
30
0
0
SPLINE
5
19B
100
AcDbEntity
8
1
62
256
6
ByLayer
370
18
48
1
60
0
100
AcDbSpline
70
4
71
3
72
15
73
11
40
0
40
0
40
0
40
0
40
0.397605169967629
40
0.548782465907669
40
0.66579728715849
40
0.767222101246375
40
0.840955261798675
40
0.889797136239035
40
0.948111678016488
40
1
40
1
40
1
40
1
41
1
10
58.0719355184394
20
3.70217627363314
30
0
41
1
10
58.0249143411192
20
3.61933593358762
30
0
41
1
10
57.9576081211397
20
3.50623770002662
30
0
41
1
10
57.8841427085795
20
3.36283729726145
30
0
41
1
10
57.8302279972588
20
3.29192907718681
30
0
41
1
10
57.762253621483
20
3.26500428931351
30
0
41
1
10
57.7085476072217
20
3.26362633434289
30
0
41
1
10
57.6723954497098
20
3.27184396446359
30
0
41
1
10
57.6360218100911
20
3.28698542429197
30
0
41
1
10
57.6142497865728
20
3.30451494025695
30
0
41
1
10
57.6046522392516
20
3.31362456296071
30
0
0
SPLINE
5
19C
100
AcDbEntity
8
1
62
256
6
ByLayer
370
18
48
1
60
0
100
AcDbSpline
70
4
71
3
72
8
73
4
40
0
40
0
40
0
40
0
40
1
40
1
40
1
40
1
41
1
10
57.2770083646054
20
3.87026532025323
30
0
41
1
10
57.27139082257
20
3.88001896293082
30
0
41
1
10
57.2657639773273
20
3.889770931443
30
0
41
1
10
57.2601145166254
20
3.89951049181551
30
0
0
SPLINE
5
19D
100
AcDbEntity
8
1
62
256
6
ByLayer
370
18
48
1
60
0
100
AcDbSpline
70
4
71
2
72
6
73
3
40
0
40
0
40
0
40
1
40
1
40
1
41
1
10
58.2750143337176
20
4.05280783943019
30
0
41
1
10
58.1714265453693
20
3.87586152080877
30
0
41
1
10
58.0693213259574
20
3.69807753310073
30
0
0
SPLINE
5
19E
100
AcDbEntity
8
1
62
256
6
ByLayer
370
18
48
1
60
0
100
AcDbSpline
70
4
71
3
72
18
73
14
40
0
40
0
40
0
40
0
40
0.221378426926366
40
0.383362682703041
40
0.442501260593902
40
0.490357567553383
40
0.529403213855238
40
0.556502083700653
40
0.611778986660169
40
0.653357631172633
40
0.700300125063423
40
0.828552404141143
40
1
40
1
40
1
40
1
41
1
10
62.8703688499417
20
-3.92727857498326
30
0
41
1
10
62.9275116043582
20
-3.82966615036528
30
0
41
1
10
63.0234480567839
20
-3.66015730470374
30
0
41
1
10
63.1391662555316
20
-3.46729418811776
30
0
41
1
10
63.198251592974
20
-3.34662608605618
30
0
41
1
10
63.247207450102
20
-3.2930328604088
30
0
41
1
10
63.2992090331206
20
-3.27081622584868
30
0
41
1
10
63.349843338563
20
-3.26222068096223
30
0
41
1
10
63.3968188625656
20
-3.26847249893143
30
0
41
1
10
63.4562355882868
20
-3.29763596850836
30
0
41
1
10
63.5151082793707
20
-3.36981111673657
30
0
41
1
10
63.5833947277453
20
-3.5133364254165
30
0
41
1
10
63.6529018300616
20
-3.62618043029221
30
0
41
1
10
63.6913128064662
20
-3.69223476810436
30
0
0
SPLINE
5
19F
100
AcDbEntity
8
1
62
256
6
ByLayer
370
18
48
1
60
0
100
AcDbSpline
70
4
71
1
72
4
73
2
40
0
40
0
40
1
40
1
41
1
10
62.6277618136327
20
-3.99492692787192
30
0
41
1
10
62.8638383351709
20
-3.93295911544192
30
0
0
SPLINE
5
1A0
100
AcDbEntity
8
1
62
256
6
ByLayer
370
18
48
1
60
0
100
AcDbSpline
70
4
71
2
72
6
73
3
40
0
40
0
40
0
40
1
40
1
40
1
41
1
10
62.4454595827855
20
-3.70039071494398
30
0
41
1
10
62.5270283804919
20
-3.842193540772
30
0
41
1
10
62.6091912776269
20
-3.98370499105363
30
0
0
SPLINE
5
1A1
100
AcDbEntity
8
1
62
256
6
ByLayer
370
18
48
1
60
0
100
AcDbSpline
70
4
71
3
72
18
73
14
40
0
40
0
40
0
40
0
40
0.193896980340695
40
0.348432870197928
40
0.460888502286087
40
0.502904690393687
40
0.538740388991185
40
0.595165810975714
40
0.632597093657775
40
0.682366960833709
40
0.746947807999321
40
0.831315370899506
40
1
40
1
40
1
40
1
41
1
10
54.0438049528691
20
-4.06020518978048
30
0
41
1
10
54.1000389992141
20
-3.96368664284552
30
0
41
1
10
54.2003275409287
20
-3.79127582307839
30
0
41
1
10
54.3311467498728
20
-3.56400634574041
30
0
41
1
10
54.4179472708889
20
-3.41482586255131
30
0
41
1
10
54.465402566887
20
-3.32469343375803
30
0
41
1
10
54.52115421055
20
-3.28071654822873
30
0
41
1
10
54.5696652273456
20
-3.26505961380573
30
0
41
1
10
54.6353161074329
20
-3.26598242795518
30
0
41
1
10
54.7081089142611
20
-3.29411736701206
30
0
41
1
10
54.7634973661795
20
-3.37492322622498
30
0
41
1
10
54.8380519251211
20
-3.51632977394311
30
0
41
1
10
54.9022182918984
20
-3.62538737807583
30
0
41
1
10
54.944479104038
20
-3.69872759447588
30
0
0
SPLINE
5
1A2
100
AcDbEntity
8
1
62
256
6
ByLayer
370
18
48
1
60
0
100
AcDbSpline
70
4
71
2
72
6
73
3
40
0
40
0
40
0
40
1
40
1
40
1
41
1
10
53.6945568012218
20
-3.69877623688913
30
0
41
1
10
53.7968054789075
20
-3.87688009386537
30
0
41
1
10
53.9004921881258
20
-4.05407975165934
30
0
0
SPLINE
5
1A3
100
AcDbEntity
8
1
62
256
6
ByLayer
370
18
48
1
60
0
100
AcDbSpline
70
4
71
3
72
16
73
12
40
0
40
0
40
0
40
0
40
0.2079319364165
40
0.318330794283711
40
0.368267433691899
40
0.405822277859554
40
0.462278208367362
40
0.498126016964497
40
0.652176923702182
40
0.806446562748533
40
1
40
1
40
1
40
1
41
1
10
59.3189958856571
20
3.69743795174966
30
0
41
1
10
59.2724654499377
20
3.602148490269
30
0
41
1
10
59.183598334791
20
3.47521265617505
30
0
41
1
10
59.1045385635393
20
3.30286384028821
30
0
41
1
10
59.0106994963129
20
3.26542188436903
30
0
41
1
10
58.9453267883183
20
3.26456819522417
30
0
41
1
10
58.8959591376765
20
3.27951874528125
30
0
41
1
10
58.7975113807526
20
3.36290768397632
30
0
41
1
10
58.72536366167
20
3.54768948832535
30
0
41
1
10
58.5733521707886
20
3.7879966215975
30
0
41
1
10
58.4756504621041
20
3.96226305070252
30
0
41
1
10
58.4194416225392
20
4.05872563514876
30
0
0
SPLINE
5
1A4
100
AcDbEntity
8
1
62
256
6
ByLayer
370
18
48
1
60
0
100
AcDbSpline
70
4
71
3
72
17
73
13
40
0
40
0
40
0
40
0
40
0.156082839731627
40
0.277228471739089
40
0.340860344216993
40
0.411601293717426
40
0.448252217824935
40
0.485130291945723
40
0.521530751364113
40
0.556444155061164
40
0.692572564073664
40
1
40
1
40
1
40
1
41
1
10
53.0616225959637
20
-3.59485035817718
30
0
41
1
10
53.0891180221897
20
-3.54613571699809
30
0
41
1
10
53.1411874250704
20
-3.4622626158677
30
0
41
1
10
53.1900987594995
20
-3.35085723042195
30
0
41
1
10
53.2556402819933
20
-3.28632852280646
30
0
41
1
10
53.3154309335709
20
-3.26556735337814
30
0
41
1
10
53.3670710179235
20
-3.26509803473235
30
0
41
1
10
53.4054499845966
20
-3.2738790463913
30
0
41
1
10
53.440438395149
20
-3.29003345424419
30
0
41
1
10
53.4983140614636
20
-3.33524485078465
30
0
41
1
10
53.5674237840833
20
-3.4901658604835
30
0
41
1
10
53.6502902303111
20
-3.61239158519197
30
0
41
1
10
53.6971748775655
20
-3.7029766828698
30
0
0
SPLINE
5
1A5
100
AcDbEntity
8
1
62
256
6
ByLayer
370
18
48
1
60
0
100
AcDbSpline
70
4
71
2
72
6
73
3
40
0
40
0
40
0
40
1
40
1
40
1
41
1
10
59.5312154907891
20
4.06142650017836
30
0
41
1
10
59.4282107267003
20
3.88531134404829
30
0
41
1
10
59.3267123118369
20
3.70834107123505
30
0
0
SPLINE
5
1A6
100
AcDbEntity
8
1
62
256
6
ByLayer
370
18
48
1
60
0
100
AcDbSpline
70
4
71
3
72
18
73
14
40
0
40
0
40
0
40
0
40
0.242438896060959
40
0.413432691913831
40
0.514117841059926
40
0.544929303776596
40
0.568179721472584
40
0.598136245620719
40
0.635600018295206
40
0.679441089485595
40
0.725939810280257
40
0.846789414754539
40
1
40
1
40
1
40
1
41
1
10
61.5422105224427
20
-4.06189474830606
30
0
41
1
10
61.6127517572723
20
-3.94088410976508
30
0
41
1
10
61.7293572491895
20
-3.73237419794626
30
0
41
1
10
61.8839793061481
20
-3.48628248451152
30
0
41
1
10
61.955624453924
20
-3.32312887902322
30
0
41
1
10
62.0274599620597
20
-3.27996816812845
30
0
41
1
10
62.0589926692715
20
-3.26906585662172
30
0
41
1
10
62.1013335076771
20
-3.26226081024569
30
0
41
1
10
62.1544523004006
20
-3.27059901743223
30
0
41
1
10
62.2121521135769
20
-3.29968971933573
30
0
41
1
10
62.2715175758932
20
-3.38044521238447
30
0
41
1
10
62.340959240853
20
-3.5231991601137
30
0
41
1
10
62.408092817589
20
-3.63549806061272
30
0
41
1
10
62.4445397558539
20
-3.69886527657607
30
0
0
SPLINE
5
1A7
100
AcDbEntity
8
1
62
256
6
ByLayer
370
18
48
1
60
0
100
AcDbSpline
70
4
71
2
72
6
73
3
40
0
40
0
40
0
40
1
40
1
40
1
41
1
10
61.1870422851233
20
-3.68237599407328
30
0
41
1
10
61.2885595069266
20
-3.85869368095584
30
0
41
1
10
61.3915854542766
20
-4.0343082243634
30
0
0
SPLINE
5
1A8
100
AcDbEntity
8
1
62
256
6
ByLayer
370
18
48
1
60
0
100
AcDbSpline
70
4
71
3
72
14
73
10
40
0
40
0
40
0
40
0
40
0.0307894550512672
40
0.066468208505157
40
0.110609159471745
40
0.166307457601764
40
0.418329852237358
40
0.675682092127977
40
1
40
1
40
1
40
1
41
1
10
60.2432332618865
20
3.26310778758136
30
0
41
1
10
60.2330505835745
20
3.2615383612636
30
0
41
1
10
60.2117099756195
20
3.26027370882991
30
0
41
1
10
60.1808741537964
20
3.26704921853346
30
0
41
1
10
60.1399858909539
20
3.28314300460866
30
0
41
1
10
60.0518747238487
20
3.35996467335119
30
0
41
1
10
59.9783088798774
20
3.54370434625074
30
0
41
1
10
59.8263311556628
20
3.7828853924261
30
0
41
1
10
59.7283793394725
20
3.95705369719224
30
0
41
1
10
59.6722069122124
20
4.05331113806301
30
0
0
SPLINE
5
1A9
100
AcDbEntity
8
1
62
256
6
ByLayer
370
18
48
1
60
0
100
AcDbSpline
70
4
71
2
72
6
73
3
40
0
40
0
40
0
40
1
40
1
40
1
41
1
10
61.0263833040542
20
-3.40704588244313
30
0
41
1
10
61.1006087633882
20
-3.53772624815917
30
0
41
1
10
61.1728790997601
20
-3.63870909295352
30
0
0
LINE
5
7F
100
AcDbEntity
8
80
62
256
6
ByLayer
370
18
48
1
60
0
100
AcDbLine
10
0
20
0
30
0
11
-5
21
0
31
0
39
0
210
0
220
0
230
1
0
LINE
5
80
100
AcDbEntity
8
4
62
256
6
ByLayer
370
18
48
0.05
60
0
100
AcDbLine
10
0
20
0
30
0
11
67.55
21
0
31
0
39
0
210
0
220
0
230
1
0
LINE
5
82
100
AcDbEntity
8
81
62
256
6
ByLayer
370
18
48
1
60
0
100
AcDbLine
10
67.55
20
0
30
0
11
72.55
21
0
31
0
39
0
210
0
220
0
230
1
0
LINE
5
83
100
AcDbEntity
8
SK4
62
256
6
ByLayer
370
18
48
0.05
60
0
100
AcDbLine
10
-24
20
0
30
0
11
67.55
21
0
31
0
39
0
210
0
220
0
230
1
0
LINE
5
85
100
AcDbEntity
8
1
62
256
6
ByLayer
370
18
48
1
60
0
100
AcDbLine
10
0
20
4
30
0
11
0
21
-4
31
0
39
0
210
0
220
0
230
1
0
LINE
5
86
100
AcDbEntity
8
1
62
256
6
ByLayer
370
18
48
1
60
0
100
AcDbLine
10
66
20
2.940525
30
0
11
66
21
2.938253
31
0
39
0
210
0
220
0
230
1
0
LINE
5
87
100
AcDbEntity
8
1
62
256
6
ByLayer
370
18
48
1
60
0
100
AcDbLine
10
64.33885
20
-3.545068
30
0
11
64.332064
21
-3.547241
31
0
39
0
210
0
220
0
230
1
0
LINE
5
88
100
AcDbEntity
8
1
62
256
6
ByLayer
370
18
48
1
60
0
100
AcDbLine
10
58.072309
20
3.70271
30
0
11
58.069304
21
3.698048
31
0
39
0
210
0
220
0
230
1
0
LINE
5
89
100
AcDbEntity
8
1
62
256
6
ByLayer
370
18
48
1
60
0
100
AcDbLine
10
66
20
0.268248
30
0
11
66
21
0.266241
31
0
39
0
210
0
220
0
230
1
0
LINE
5
8A
100
AcDbEntity
8
1
62
256
6
ByLayer
370
18
48
1
60
0
100
AcDbLine
10
57.040281
20
4.064209
30
0
11
57.042878
21
4.063855
31
0
39
0
210
0
220
0
230
1
0
LINE
5
8B
100
AcDbEntity
8
1
62
256
6
ByLayer
370
18
48
1
60
0
100
AcDbLine
10
57.165791
20
4.060353
30
0
11
57.157378
21
4.064212
31
0
39
0
210
0
220
0
230
1
0
LINE
5
8C
100
AcDbEntity
8
1
62
256
6
ByLayer
370
18
48
1
60
0
100
AcDbLine
10
53.697236
20
-3.703066
30
0
11
53.694737
21
-3.699086
31
0
39
0
210
0
220
0
230
1
0
LINE
5
8D
100
AcDbEntity
8
1
62
256
6
ByLayer
370
13
48
1
60
0
100
AcDbLine
10
52.306078
20
-2.130298
30
0
11
52.306078
21
-3.216384
31
0
39
0
210
0
220
0
230
1
0
LINE
5
8E
100
AcDbEntity
8
1
62
256
6
ByLayer
370
13
48
1
60
0
100
AcDbLine
10
52.306078
20
3.203618
30
0
11
52.306078
21
2.074915
31
0
39
0
210
0
220
0
230
1
0
LINE
5
8F
100
AcDbEntity
8
1
62
256
6
ByLayer
370
13
48
1
60
0
100
AcDbLine
10
51.756078
20
-2.961052
30
0
11
51.756078
21
-1.715504
31
0
39
0
210
0
220
0
230
1
0
LINE
5
90
100
AcDbEntity
8
1
62
256
6
ByLayer
370
13
48
1
60
0
100
AcDbLine
10
51.756078
20
2.314896
30
0
11
51.756078
21
3.10827
31
0
39
0
210
0
220
0
230
1
0
LINE
5
91
100
AcDbEntity
8
1
62
256
6
ByLayer
370
13
48
1
60
0
100
AcDbLine
10
31.096238
20
-3.11385
30
0
11
31.096238
21
3.11385
31
0
39
0
210
0
220
0
230
1
0
LINE
5
92
100
AcDbEntity
8
1
62
256
6
ByLayer
370
13
48
1
60
0
100
AcDbLine
10
30.905225
20
3.130561
30
0
11
30.905225
21
-3.130561
31
0
39
0
210
0
220
0
230
1
0
LINE
5
93
100
AcDbEntity
8
1
62
256
6
ByLayer
370
18
48
1
60
0
100
AcDbLine
10
25.974394
20
4
30
0
11
25.974394
21
-4
31
0
39
0
210
0
220
0
230
1
0
LINE
5
94
100
AcDbEntity
8
SK1
62
256
6
ByLayer
370
18
48
1
60
0
100
AcDbLine
10
-24
20
2.64
30
0
11
-24
21
-2.64
31
0
39
0
210
0
220
0
230
1
0
LINE
5
96
100
AcDbEntity
8
SK1
62
256
6
ByLayer
370
18
48
1
60
0
100
AcDbLine
10
-15
20
3.1
30
0
11
-14.26
21
3.84
31
0
39
0
210
0
220
0
230
1
0
LINE
5
97
100
AcDbEntity
8
SK1
62
256
6
ByLayer
370
18
48
1
60
0
100
AcDbLine
10
-22.8
20
3.1
30
0
11
-15
21
3.1
31
0
39
0
210
0
220
0
230
1
0
LINE
5
98
100
AcDbEntity
8
SK1
62
256
6
ByLayer
370
18
48
1
60
0
100
AcDbLine
10
-22.8
20
2.266186
30
0
11
-22.8
21
3.1
31
0
39
0
210
0
220
0
230
1
0
LINE
5
99
100
AcDbEntity
8
SK1
62
256
6
ByLayer
370
18
48
1
60
0
100
AcDbLine
10
-15
20
2.266186
30
0
11
-22.8
21
2.266186
31
0
39
0
210
0
220
0
230
1
0
LINE
5
9A
100
AcDbEntity
8
SK1
62
256
6
ByLayer
370
18
48
1
60
0
100
AcDbLine
10
-22.8
20
-2.266186
30
0
11
-15
21
-2.266186
31
0
39
0
210
0
220
0
230
1
0
LINE
5
9B
100
AcDbEntity
8
SK1
62
256
6
ByLayer
370
18
48
1
60
0
100
AcDbLine
10
-22.8
20
-3.1
30
0
11
-22.8
21
-2.266186
31
0
39
0
210
0
220
0
230
1
0
LINE
5
9C
100
AcDbEntity
8
SK1
62
256
6
ByLayer
370
18
48
1
60
0
100
AcDbLine
10
-15
20
-3.1
30
0
11
-22.8
21
-3.1
31
0
39
0
210
0
220
0
230
1
0
LINE
5
9D
100
AcDbEntity
8
SK1
62
256
6
ByLayer
370
18
48
1
60
0
100
AcDbLine
10
-15
20
-3.1
30
0
11
-14.26
21
-3.84
31
0
39
0
210
0
220
0
230
1
0
LINE
5
9E
100
AcDbEntity
8
SK1
62
256
6
ByLayer
370
18
48
1
60
0
100
AcDbLine
10
-15
20
2.266186
30
0
11
-15
21
-2.266186
31
0
39
0
210
0
220
0
230
1
0
LINE
5
9F
100
AcDbEntity
8
SK1
62
256
6
ByLayer
370
18
48
1
60
0
100
AcDbLine
10
-14.1
20
3.84
30
0
11
-14.1
21
-3.84
31
0
39
0
210
0
220
0
230
1
0
LINE
5
A0
100
AcDbEntity
8
SK1
62
256
6
ByLayer
370
18
48
1
60
0
100
AcDbLine
10
0
20
4
30
0
11
0
21
-4
31
0
39
0
210
0
220
0
230
1
0
LINE
5
A1
100
AcDbEntity
8
SK1
62
256
6
ByLayer
370
18
48
1
60
0
100
AcDbLine
10
-13.94
20
-4
30
0
11
-13.94
21
4
31
0
39
0
210
0
220
0
230
1
0
LINE
5
A2
100
AcDbEntity
8
1
62
256
6
ByLayer
370
18
48
1
60
0
100
AcDbLine
10
25.974394
20
4
30
0
11
0
21
4
31
0
39
0
210
0
220
0
230
1
0
LINE
5
A3
100
AcDbEntity
8
1
62
256
6
ByLayer
370
18
48
1
60
0
100
AcDbLine
10
0
20
-4
30
0
11
25.974394
21
-4
31
0
39
0
210
0
220
0
230
1
0
LINE
5
A4
100
AcDbEntity
8
1
62
256
6
ByLayer
370
18
48
1
60
0
100
AcDbLine
10
57.157382
20
4.064208
30
0
11
57.040249
21
4.064208
31
0
39
0
210
0
220
0
230
1
0
LINE
5
A5
100
AcDbEntity
8
1
62
256
6
ByLayer
370
18
48
1
60
0
100
AcDbLine
10
55.164651
20
-4.064208
30
0
11
55.282439
21
-4.064208
31
0
39
0
210
0
220
0
230
1
0
LINE
5
A6
100
AcDbEntity
8
1
62
256
6
ByLayer
370
18
48
1
60
0
100
AcDbLine
10
58.407788
20
4.064208
30
0
11
58.2904
21
4.064208
31
0
39
0
210
0
220
0
230
1
0
LINE
5
A7
100
AcDbEntity
8
1
62
256
6
ByLayer
370
18
48
1
60
0
100
AcDbLine
10
67.55
20
0
30
0
11
66
21
1.55
31
0
39
0
210
0
220
0
230
1
0
LINE
5
A8
100
AcDbEntity
8
1
62
256
6
ByLayer
370
18
48
1
60
0
100
AcDbLine
10
66
20
-1.55
30
0
11
67.55
21
0
31
0
39
0
210
0
220
0
230
1
0
LINE
5
A9
100
AcDbEntity
8
1
62
256
6
ByLayer
370
18
48
1
60
0
100
AcDbLine
10
53.914819
20
-4.064208
30
0
11
54.033042
21
-4.064208
31
0
39
0
210
0
220
0
230
1
0
LINE
5
AA
100
AcDbEntity
8
1
62
256
6
ByLayer
370
18
48
1
60
0
100
AcDbLine
10
52.856359
20
-3.578927
30
0
11
53.005565
21
-3.665071
31
0
39
0
210
0
220
0
230
1
0
LINE
5
AB
100
AcDbEntity
8
1
62
256
6
ByLayer
370
18
48
1
60
0
100
AcDbLine
10
59.657611
20
4.064208
30
0
11
59.539966
21
4.064208
31
0
39
0
210
0
220
0
230
1
0
LINE
5
AC
100
AcDbEntity
8
1
62
256
6
ByLayer
370
18
48
1
60
0
100
AcDbLine
10
61.415135
20
-4.064208
30
0
11
61.532742
21
-4.064208
31
0
39
0
210
0
220
0
230
1
0
LINE
5
AD
100
AcDbEntity
8
1
62
256
6
ByLayer
370
18
48
1
60
0
100
AcDbLine
10
31.096238
20
-3.11385
30
0
11
38.773181
21
-3.11385
31
0
39
0
210
0
220
0
230
1
0
LINE
5
AE
100
AcDbEntity
8
1
62
256
6
ByLayer
370
18
48
1
60
0
100
AcDbLine
10
44.553982
20
-3.11385
30
0
11
47.267251
21
-3.11385
31
0
39
0
210
0
220
0
230
1
0
LINE
5
AF
100
AcDbEntity
8
1
62
256
6
ByLayer
370
18
48
1
60
0
100
AcDbLine
10
51.514049
20
3.11385
30
0
11
48.79089
21
3.11385
31
0
39
0
210
0
220
0
230
1
0
LINE
5
B0
100
AcDbEntity
8
1
62
256
6
ByLayer
370
18
48
1
60
0
100
AcDbLine
10
43.020378
20
3.11385
30
0
11
40.291036
21
3.11385
31
0
39
0
210
0
220
0
230
1
0
LINE
5
B1
100
AcDbEntity
8
1
62
256
6
ByLayer
370
18
48
1
60
0
100
AcDbLine
10
36.300891
20
3.11385
30
0
11
31.096238
21
3.11385
31
0
39
0
210
0
220
0
230
1
0
LINE
5
B2
100
AcDbEntity
8
1
62
256
6
ByLayer
370
18
48
1
60
0
100
AcDbLine
10
30.905225
20
3.130561
30
0
11
25.974394
21
4
31
0
39
0
210
0
220
0
230
1
0
LINE
5
B3
100
AcDbEntity
8
1
62
256
6
ByLayer
370
18
48
1
60
0
100
AcDbLine
10
25.974394
20
-4
30
0
11
30.905225
21
-3.130561
31
0
39
0
210
0
220
0
230
1
0
LINE
5
B4
100
AcDbEntity
8
SK1
62
256
6
ByLayer
370
18
48
1
60
0
100
AcDbLine
10
-24
20
-2.64
30
0
11
-23.54
21
-3.1
31
0
39
0
210
0
220
0
230
1
0
LINE
5
B5
100
AcDbEntity
8
SK1
62
256
6
ByLayer
370
18
48
1
60
0
100
AcDbLine
10
-23.54
20
3.1
30
0
11
-24
21
2.64
31
0
39
0
210
0
220
0
230
1
0
LINE
5
B6
100
AcDbEntity
8
SK1
62
256
6
ByLayer
370
18
48
1
60
0
100
AcDbLine
10
-14.1
20
3.84
30
0
11
-14.26
21
3.84
31
0
39
0
210
0
220
0
230
1
0
LINE
5
B7
100
AcDbEntity
8
SK1
62
256
6
ByLayer
370
18
48
1
60
0
100
AcDbLine
10
-14.26
20
-3.84
30
0
11
-14.1
21
-3.84
31
0
39
0
210
0
220
0
230
1
0
LINE
5
B8
100
AcDbEntity
8
SK1
62
256
6
ByLayer
370
18
48
1
60
0
100
AcDbLine
10
-14.1
20
-3.84
30
0
11
-13.94
21
-4
31
0
39
0
210
0
220
0
230
1
0
LINE
5
B9
100
AcDbEntity
8
SK1
62
256
6
ByLayer
370
18
48
1
60
0
100
AcDbLine
10
-13.94
20
4
30
0
11
-14.1
21
3.84
31
0
39
0
210
0
220
0
230
1
0
LINE
5
BA
100
AcDbEntity
8
SK1
62
256
6
ByLayer
370
18
48
1
60
0
100
AcDbLine
10
0
20
4
30
0
11
-13.94
21
4
31
0
39
0
210
0
220
0
230
1
0
LINE
5
BB
100
AcDbEntity
8
SK1
62
256
6
ByLayer
370
18
48
1
60
0
100
AcDbLine
10
-13.94
20
-4
30
0
11
0
21
-4
31
0
39
0
210
0
220
0
230
1
0
LINE
5
BC
100
AcDbEntity
8
SK2
62
256
6
ByLayer
370
18
48
1
60
0
100
AcDbLine
10
14.017197
20
-4
30
0
11
14.017197
21
16.841828
31
0
39
0
210
0
220
0
230
1
0
LINE
5
BE
100
AcDbEntity
8
1
62
256
6
ByLayer
370
18
48
1
60
1
100
AcDbLine
10
14.017197
20
4
30
0
11
14.477981
21
0.500002
31
0
39
0
210
0
220
0
230
1
0
LINE
5
BF
100
AcDbEntity
8
1
62
256
6
ByLayer
370
18
48
1
60
1
100
AcDbLine
10
14.477981
20
0.500002
30
0
11
13.556413
21
0.499998
31
0
39
0
210
0
220
0
230
1
0
LINE
5
C0
100
AcDbEntity
8
1
62
256
6
ByLayer
370
18
48
1
60
1
100
AcDbLine
10
13.556413
20
0.499998
30
0
11
14.017197
21
4
31
0
39
0
210
0
220
0
230
1
0
LINE
5
C1
100
AcDbEntity
8
1
62
256
6
ByLayer
370
18
48
1
60
1
100
AcDbLine
10
14.017197
20
-4
30
0
11
13.556413
21
-0.500002
31
0
39
0
210
0
220
0
230
1
0
LINE
5
C2
100
AcDbEntity
8
1
62
256
6
ByLayer
370
18
48
1
60
1
100
AcDbLine
10
13.556413
20
-0.500002
30
0
11
14.477981
21
-0.499998
31
0
39
0
210
0
220
0
230
1
0
LINE
5
C3
100
AcDbEntity
8
1
62
256
6
ByLayer
370
18
48
1
60
1
100
AcDbLine
10
14.477981
20
-0.499998
30
0
11
14.017197
21
-4
31
0
39
0
210
0
220
0
230
1
0
LINE
5
C4
100
AcDbEntity
8
2
62
256
6
ByLayer
370
18
48
1
60
0
100
AcDbLine
10
66
20
-41.564208
30
0
11
-24
21
-41.564208
31
0
39
0
210
0
220
0
230
1
0
LINE
5
C6
100
AcDbEntity
8
2
62
256
6
ByLayer
370
18
48
1
60
0
100
AcDbLine
10
-24
20
-4.2275
30
0
11
-24
21
-43.564208
31
0
39
0
210
0
220
0
230
1
0
LINE
5
C7
100
AcDbEntity
8
2
62
256
6
ByLayer
370
18
48
1
60
0
100
AcDbLine
10
66
20
-5.651708
30
0
11
66
21
-43.564208
31
0
39
0
210
0
220
0
230
1
0
LINE
5
C8
100
AcDbEntity
8
1
62
256
6
ByLayer
370
18
48
1
60
1
100
AcDbLine
10
-24
20
-41.564208
30
0
11
-20.500002
21
-41.103425
31
0
39
0
210
0
220
0
230
1
0
LINE
5
C9
100
AcDbEntity
8
1
62
256
6
ByLayer
370
18
48
1
60
1
100
AcDbLine
10
-20.500002
20
-41.103425
30
0
11
-20.499998
21
-42.024992
31
0
39
0
210
0
220
0
230
1
0
LINE
5
CA
100
AcDbEntity
8
1
62
256
6
ByLayer
370
18
48
1
60
1
100
AcDbLine
10
-20.499998
20
-42.024992
30
0
11
-24
21
-41.564208
31
0
39
0
210
0
220
0
230
1
0
LINE
5
CB
100
AcDbEntity
8
1
62
256
6
ByLayer
370
18
48
1
60
1
100
AcDbLine
10
66
20
-41.564208
30
0
11
62.500002
21
-42.024992
31
0
39
0
210
0
220
0
230
1
0
LINE
5
CC
100
AcDbEntity
8
1
62
256
6
ByLayer
370
18
48
1
60
1
100
AcDbLine
10
62.500002
20
-42.024992
30
0
11
62.499998
21
-41.103425
31
0
39
0
210
0
220
0
230
1
0
LINE
5
CD
100
AcDbEntity
8
1
62
256
6
ByLayer
370
18
48
1
60
1
100
AcDbLine
10
62.499998
20
-41.103425
30
0
11
66
21
-41.564208
31
0
39
0
210
0
220
0
230
1
0
LINE
5
1AE
100
AcDbEntity
8
1
62
256
6
ByLayer
370
18
48
1
60
1
100
AcDbLine
10
14.017197
20
4
30
0
11
14.477981
21
0.500002
31
0
39
0
210
0
220
0
230
1
0
LINE
5
1AF
100
AcDbEntity
8
1
62
256
6
ByLayer
370
18
48
1
60
1
100
AcDbLine
10
14.477981
20
0.500002
30
0
11
13.556413
21
0.499998
31
0
39
0
210
0
220
0
230
1
0
LINE
5
1B0
100
AcDbEntity
8
1
62
256
6
ByLayer
370
18
48
1
60
1
100
AcDbLine
10
13.556413
20
0.499998
30
0
11
14.017197
21
4
31
0
39
0
210
0
220
0
230
1
0
LINE
5
1B2
100
AcDbEntity
8
1
62
256
6
ByLayer
370
18
48
1
60
1
100
AcDbLine
10
14.017197
20
-4
30
0
11
13.556413
21
-0.500002
31
0
39
0
210
0
220
0
230
1
0
LINE
5
1B3
100
AcDbEntity
8
1
62
256
6
ByLayer
370
18
48
1
60
1
100
AcDbLine
10
13.556413
20
-0.500002
30
0
11
14.477981
21
-0.499998
31
0
39
0
210
0
220
0
230
1
0
LINE
5
1B4
100
AcDbEntity
8
1
62
256
6
ByLayer
370
18
48
1
60
1
100
AcDbLine
10
14.477981
20
-0.499998
30
0
11
14.017197
21
-4
31
0
39
0
210
0
220
0
230
1
0
LINE
5
1B7
100
AcDbEntity
8
1
62
256
6
ByLayer
370
18
48
1
60
1
100
AcDbLine
10
-24
20
-41.564208
30
0
11
-20.500002
21
-41.103425
31
0
39
0
210
0
220
0
230
1
0
LINE
5
1B8
100
AcDbEntity
8
1
62
256
6
ByLayer
370
18
48
1
60
1
100
AcDbLine
10
-20.500002
20
-41.103425
30
0
11
-20.499998
21
-42.024992
31
0
39
0
210
0
220
0
230
1
0
LINE
5
1B9
100
AcDbEntity
8
1
62
256
6
ByLayer
370
18
48
1
60
1
100
AcDbLine
10
-20.499998
20
-42.024992
30
0
11
-24
21
-41.564208
31
0
39
0
210
0
220
0
230
1
0
LINE
5
1BB
100
AcDbEntity
8
1
62
256
6
ByLayer
370
18
48
1
60
1
100
AcDbLine
10
66
20
-41.564208
30
0
11
62.500002
21
-42.024992
31
0
39
0
210
0
220
0
230
1
0
LINE
5
1BC
100
AcDbEntity
8
1
62
256
6
ByLayer
370
18
48
1
60
1
100
AcDbLine
10
62.500002
20
-42.024992
30
0
11
62.499998
21
-41.103425
31
0
39
0
210
0
220
0
230
1
0
LINE
5
1BD
100
AcDbEntity
8
1
62
256
6
ByLayer
370
18
48
1
60
1
100
AcDbLine
10
62.499998
20
-41.103425
30
0
11
66
21
-41.564208
31
0
39
0
210
0
220
0
230
1
0
MTEXT
5
1AA
100
AcDbEntity
8
SK2
62
256
6
ByLayer
370
18
48
1
60
0
100
AcDbMText
10
12.676082
20
9.658437
30
0
210
0
220
0
230
1
1
%%c
40
3
41
0
44
1.084337
50
90
71
7
72
5
7
iso_b_vert
0
MTEXT
5
1AD
100
AcDbEntity
8
SK2
62
256
6
ByLayer
370
18
48
1
60
0
100
AcDbMText
10
12.676082
20
15.635
30
0
210
0
220
0
230
1
1
\W0.5404;8
40
3
41
0
44
1.084337
50
90
71
7
72
5
7
iso_b_vert
0
MTEXT
5
1B6
100
AcDbEntity
8
2
62
256
6
ByLayer
370
18
48
1
60
0
100
AcDbMText
10
19.367172
20
-40.679094
30
0
210
0
220
0
230
1
1
\W0.6740;90
40
3
41
0
44
1.084337
50
0
71
7
72
5
7
iso_b_vert
0
MTEXT
5
1BF
100
AcDbEntity
8
SK6
62
256
6
ByLayer
370
18
48
1
60
0
100
AcDbMText
10
3.205429
20
-82.114886
30
0
210
0
220
0
230
1
1
\W0.7281;T300-XM100DA-M8     C110
40
3
41
0
44
1.084337
50
0
71
7
72
5
7
iso_b_vert
0
HATCH
5
1B1
100
AcDbEntity
8
SK2
62
256
6
ByLayer
370
13
48
1
60
0
100
AcDbHatch
10
0
20
0
30
0
210
0
220
0
230
1
2
ANSI31
70
0
71
0
91
1
92
5
93
3
72
1
10
14.0171968077729
20
4.00000000000003
11
14.4779805493257
21
0.500001692553212
72
1
10
14.4779805493257
20
0.500001692553212
11
13.5564130662201
21
0.499998307446845
72
1
10
13.5564130662201
20
0.499998307446845
11
14.0171968077729
21
4.00000000000003
97
0
75
0
76
1
52
0
41
0.0062
77
0
78
1
53
45
43
0
44
0
45
-0.0139193969876572
46
0.0139193969876572
79
0
47
0
98
1
10
0
20
0
0
HATCH
5
1B5
100
AcDbEntity
8
SK2
62
256
6
ByLayer
370
13
48
1
60
0
100
AcDbHatch
10
0
20
0
30
0
210
0
220
0
230
1
2
ANSI31
70
0
71
0
91
1
92
5
93
3
72
1
10
14.0171968077729
20
-3.99999999999997
11
13.5564130662201
21
-0.500001692553155
72
1
10
13.5564130662201
20
-0.500001692553155
11
14.4779805493257
21
-0.499998307446788
72
1
10
14.4779805493257
20
-0.499998307446788
11
14.0171968077729
21
-3.99999999999997
97
0
75
0
76
1
52
0
41
0.0062
77
0
78
1
53
45
43
0
44
0
45
-0.0139193969876572
46
0.0139193969876572
79
0
47
0
98
1
10
0
20
0
0
HATCH
5
1BA
100
AcDbEntity
8
2
62
256
6
ByLayer
370
13
48
1
60
0
100
AcDbHatch
10
0
20
0
30
0
210
0
220
0
230
1
2
ANSI31
70
0
71
0
91
1
92
5
93
3
72
1
10
-24
20
-41.5642083312539
11
-20.5000016925532
21
-41.1034245897011
72
1
10
-20.5000016925532
20
-41.1034245897011
11
-20.4999983074468
21
-42.0249920728067
72
1
10
-20.4999983074468
20
-42.0249920728067
11
-24
21
-41.5642083312539
97
0
75
0
76
1
52
0
41
0.0062
77
0
78
1
53
45
43
0
44
0
45
-0.0139193969876572
46
0.0139193969876572
79
0
47
0
98
1
10
0
20
0
0
HATCH
5
1BE
100
AcDbEntity
8
2
62
256
6
ByLayer
370
13
48
1
60
0
100
AcDbHatch
10
0
20
0
30
0
210
0
220
0
230
1
2
ANSI31
70
0
71
0
91
1
92
5
93
3
72
1
10
66
20
-41.5642083312539
11
62.5000016925532
21
-42.0249920728067
72
1
10
62.5000016925532
20
-42.0249920728067
11
62.4999983074468
21
-41.1034245897011
72
1
10
62.4999983074468
20
-41.1034245897011
11
66
21
-41.5642083312539
97
0
75
0
76
1
52
0
41
0.0062
77
0
78
1
53
45
43
0
44
0
45
-0.0139193969876572
46
0.0139193969876572
79
0
47
0
98
1
10
0
20
0
0
DIMENSION
5
1C2
100
AcDbEntity
8
2
62
256
6
ByLayer
370
18
48
1
60
0
100
AcDbDimension
2
_U0
10
85.5
20
-4.064208
30
0
11
85.5
21
21.564208
31
0
70
32
71
1
72
1
41
1
210
0
220
0
230
1
3
Standard
100
AcDbAlignedDimension
13
66
23
4.064208
33
0
14
66
24
-4.064208
34
0
50
90
100
AcDbRotatedDimension
1001
ACAD
1000
DSTYLE
1002
{
1070
   371
1070
    13
1070
   372
1070
    13
1070
     3
1000

1070
   170
1070
     0
1070
   144
1040
1.0
1070
   277
1070
     2
1070
   284
1070
     8
1070
   278
1070
    46
1070
   146
1040
1.166667
1070
   345
1005
16
1070
   347
1005
16
1070
   346
1005
16
1070
   344
1005
0
1070
   343
1005
0
1070
   172
1070
     1
1070
    76
1070
     0
1070
    75
1070
     0
1070
   282
1070
     0
1070
   281
1070
     0
1070
    71
1070
     0
1070
    74
1070
     0
1070
   279
1070
     0
1070
   173
1070
     1
1070
   340
1005
1AB
1070
   271
1070
     3
1070
   272
1070
     3
1070
    77
1070
     1
1070
    73
1070
     0
1070
   171
1070
     3
1070
   274
1070
     4
1070
   177
1070
     2
1070
   176
1070
     2
1070
   178
1070
     2
1070
    78
1070
     8
1070
    48
1040
-0.1
1070
    41
1040
3.5
1070
   147
1040
1.5
1070
    42
1040
1.5875
1070
    44
1040
2.0
1070
   140
1040
3.0
1002
}
1001
ACAD_DSTYLE_DIM_LINETYPE
1070
   380
1005
16
1001
ACAD_DSTYLE_DIM_EXT1_LINETYPE
1070
   381
1005
16
1001
ACAD_DSTYLE_DIM_EXT2_LINETYPE
1070
   382
1005
16
0
DIMENSION
5
1DD
100
AcDbEntity
8
SK2
62
256
6
ByLayer
370
18
48
1
60
0
100
AcDbDimension
2
_U1
10
62.56
20
13.890393
30
0
11
64.28
21
13.890393
31
0
70
32
71
1
72
1
41
1
210
0
220
0
230
1
3
Standard
100
AcDbAlignedDimension
13
66
23
4.064208
33
0
14
62.56
24
0
34
0
50
0
100
AcDbRotatedDimension
1001
ACAD
1000
DSTYLE
1002
{
1070
   371
1070
    13
1070
   372
1070
    13
1070
   170
1070
     0
1070
   144
1040
1.0
1070
   277
1070
     2
1070
   284
1070
     8
1070
   278
1070
    46
1070
   146
1040
1.166667
1070
   345
1005
16
1070
   347
1005
16
1070
   346
1005
16
1070
   344
1005
0
1070
   343
1005
0
1070
   172
1070
     1
1070
    76
1070
     0
1070
    75
1070
     0
1070
   282
1070
     0
1070
   281
1070
     0
1070
    71
1070
     0
1070
    74
1070
     0
1070
   279
1070
     0
1070
   173
1070
     1
1070
   340
1005
1AB
1070
   271
1070
     3
1070
   272
1070
     3
1070
    77
1070
     1
1070
    73
1070
     1
1070
   171
1070
     3
1070
   274
1070
     4
1070
   177
1070
     2
1070
   176
1070
     2
1070
   178
1070
     2
1070
    78
1070
     8
1070
    48
1040
-0.1
1070
    41
1040
3.5
1070
   147
1040
1.5
1070
    42
1040
1.5875
1070
    44
1040
2.0
1070
   140
1040
3.0
1002
}
1001
ACAD_DSTYLE_DIM_LINETYPE
1070
   380
1005
16
1001
ACAD_DSTYLE_DIM_EXT1_LINETYPE
1070
   381
1005
16
1001
ACAD_DSTYLE_DIM_EXT2_LINETYPE
1070
   382
1005
16
0
DIMENSION
5
1F7
100
AcDbEntity
8
SK2
62
256
6
ByLayer
370
18
48
1
60
0
100
AcDbDimension
2
_U2
10
54
20
-11.064208
30
0
11
79.714286
21
-11.064208
31
0
70
32
71
1
72
1
41
1
210
0
220
0
230
1
3
Standard
100
AcDbAlignedDimension
13
66
23
-4.064208
33
0
14
54
24
-4.064208
34
0
50
0
100
AcDbRotatedDimension
1001
ACAD
1000
DSTYLE
1002
{
1070
   371
1070
    13
1070
   372
1070
    13
1070
   170
1070
     0
1070
   144
1040
1.0
1070
   277
1070
     2
1070
   284
1070
     8
1070
   278
1070
    46
1070
   146
1040
0.833333
1070
   345
1005
16
1070
   347
1005
16
1070
   346
1005
16
1070
   344
1005
0
1070
   343
1005
0
1070
   172
1070
     1
1070
    76
1070
     0
1070
    75
1070
     0
1070
   282
1070
     0
1070
   281
1070
     0
1070
    47
1040
0.5
1070
    72
1070
     0
1070
    71
1070
     1
1070
    74
1070
     0
1070
   279
1070
     0
1070
   173
1070
     1
1070
   340
1005
1AB
1070
   271
1070
     1
1070
   272
1070
     3
1070
    77
1070
     1
1070
    73
1070
     1
1070
   171
1070
     3
1070
   274
1070
     4
1070
   177
1070
     2
1070
   176
1070
     2
1070
   178
1070
     2
1070
    78
1070
     8
1070
    48
1040
0.5
1070
    41
1040
3.5
1070
   147
1040
1.5
1070
    42
1040
1.5875
1070
    44
1040
2.0
1070
   140
1040
3.0
1002
}
1001
ACAD_DSTYLE_DIM_LINETYPE
1070
   380
1005
16
1001
ACAD_DSTYLE_DIM_EXT1_LINETYPE
1070
   381
1005
16
1001
ACAD_DSTYLE_DIM_EXT2_LINETYPE
1070
   382
1005
16
0
DIMENSION
5
212
100
AcDbEntity
8
SK2
62
256
6
ByLayer
370
18
48
1
60
0
100
AcDbDimension
2
_U3
10
31
20
-33.564208
30
0
11
48.5
21
-33.564208
31
0
70
32
71
1
72
1
41
1
210
0
220
0
230
1
3
Standard
100
AcDbAlignedDimension
13
66
23
-4.064208
33
0
14
31
24
-3.11385
34
0
50
0
100
AcDbRotatedDimension
1001
ACAD
1000
DSTYLE
1002
{
1070
   371
1070
    13
1070
   372
1070
    13
1070
   170
1070
     0
1070
   144
1040
1.0
1070
   277
1070
     2
1070
   284
1070
     8
1070
   278
1070
    46
1070
   146
1040
1.166667
1070
   345
1005
16
1070
   347
1005
16
1070
   346
1005
16
1070
   344
1005
0
1070
   343
1005
0
1070
   172
1070
     1
1070
    76
1070
     0
1070
    75
1070
     0
1070
   282
1070
     0
1070
   281
1070
     0
1070
    71
1070
     0
1070
    74
1070
     0
1070
   279
1070
     0
1070
   173
1070
     1
1070
   340
1005
1AB
1070
   271
1070
     1
1070
   272
1070
     3
1070
    77
1070
     1
1070
    73
1070
     1
1070
   171
1070
     3
1070
   274
1070
     4
1070
   177
1070
     2
1070
   176
1070
     2
1070
   178
1070
     2
1070
    78
1070
     8
1070
    48
1040
-0.1
1070
    41
1040
3.5
1070
   147
1040
1.5
1070
    42
1040
1.5875
1070
    44
1040
2.0
1070
   140
1040
3.0
1002
}
1001
ACAD_DSTYLE_DIM_LINETYPE
1070
   380
1005
16
1001
ACAD_DSTYLE_DIM_EXT1_LINETYPE
1070
   381
1005
16
1001
ACAD_DSTYLE_DIM_EXT2_LINETYPE
1070
   382
1005
16
0
DIMENSION
5
22A
100
AcDbEntity
8
2
62
256
6
ByLayer
370
18
48
1
60
0
100
AcDbDimension
2
_U4
10
36.25
20
-22.564208
30
0
11
51.125
21
-22.564208
31
0
70
32
71
1
72
1
41
1
210
0
220
0
230
1
3
Standard
100
AcDbAlignedDimension
13
66
23
-4.064208
33
0
14
36.25
24
0
34
0
50
0
100
AcDbRotatedDimension
1001
ACAD
1000
DSTYLE
1002
{
1070
   371
1070
    13
1070
   372
1070
    13
1070
   170
1070
     0
1070
   144
1040
1.0
1070
   277
1070
     2
1070
   284
1070
     8
1070
   278
1070
    46
1070
   146
1040
1.166667
1070
   345
1005
16
1070
   347
1005
16
1070
   346
1005
16
1070
   344
1005
0
1070
   343
1005
0
1070
   172
1070
     1
1070
    76
1070
     0
1070
    75
1070
     0
1070
   282
1070
     0
1070
   281
1070
     0
1070
    71
1070
     0
1070
    74
1070
     0
1070
   279
1070
     0
1070
   173
1070
     1
1070
   340
1005
1AB
1070
   271
1070
     1
1070
   272
1070
     3
1070
    77
1070
     1
1070
    73
1070
     1
1070
   171
1070
     3
1070
   274
1070
     4
1070
   177
1070
     2
1070
   176
1070
     2
1070
   178
1070
     2
1070
    78
1070
     8
1070
    48
1040
-0.1
1070
    41
1040
3.5
1070
   147
1040
1.5
1070
    42
1040
1.5875
1070
    44
1040
2.0
1070
   140
1040
3.0
1002
}
1001
ACAD_DSTYLE_DIM_LINETYPE
1070
   380
1005
16
1001
ACAD_DSTYLE_DIM_EXT1_LINETYPE
1070
   381
1005
16
1001
ACAD_DSTYLE_DIM_EXT2_LINETYPE
1070
   382
1005
16
0
ENDSEC
0
SECTION
2
OBJECTS
0
DICTIONARY
5
2b2
330
0
100
AcDbDictionary
280
0
281
1
3
ACAD_GROUP
350
2b3
3
ACAD_MLINESTYLE
350
2b4
0
DICTIONARY
5
2b3
330
0
100
AcDbDictionary
280
0
281
1
0
DICTIONARY
5
2b4
330
0
100
AcDbDictionary
280
0
281
1
3
Standard
350
18
0
MLINESTYLE
5
18
330
2b4
100
AcDbMlineStyle
2
Standard
70
0
3

62
256
51
90
52
90
71
2
49
-0.5
62
256
6
ByLayer
49
0.5
62
256
6
ByLayer
0
RASTERVARIABLES
5
2a0
330

100
AcDbRasterVariables
90
0
70
1
71
1
72
1
0
ENDSEC
0
EOF
