0
SECTION
2
HEADER
9
$ACADVER
1
AC1015
9
$DWGCODEPAGE
3
ANSI_1252
9
$HANDSEED
5
30c
9
$ANGBASE
50
0
9
$ANGDIR
70
0
9
$ATTMODE
70
1
9
$AUNITS
70
0
9
$AUPREC
70
0
9
$CECOLOR
62
256
9
$CELTSCALE
40
1
9
$CELTYPE
6
ByLayer
9
$CELWEIGHT
370
18
9
$CLAYER
8
0
9
$CMLJUST
70
0
9
$CMLSCALE
40
1
9
$CMLSTYLE
2
Standard
9
$DIMSTYLE
2
Standard
9
$TEXTSIZE
40
0.2
9
$TEXTSTYLE
7
Standard
9
$LUNITS
70
2
9
$LUPREC
70
4
9
$EXTNAMES
290
1
9
$INSUNITS
70
4
9
$LTSCALE
40
1
9
$LWDISPLAY
290
1
9
$PDMODE
70
0
9
$PDSIZE
40
0
9
$PLINEGEN
70
0
0
ENDSEC
0
SECTION
2
CLASSES
0
CLASS
1
RASTERVARIABLES
2
AcDbRasterVariables
3
ISM
90
0
280
0
281
0
0
ENDSEC
0
SECTION
2
TABLES
0
TABLE
2
VPORT
5
302
100
AcDbSymbolTable
0
VPORT
5
1
100
AcDbSymbolTableRecord
100
AcDbViewportTableRecord
2
*Active
70
0
10
0
20
0
11
1
21
1
12
-1
22
1
13
0
23
0
14
0.5
24
0.5
15
10
25
10
16
0
26
0
36
1
17
0
27
0
37
0
0
ENDTAB
0
TABLE
2
LTYPE
5
303
100
AcDbSymbolTable
0
LTYPE
5
14
100
AcDbSymbolTableRecord
100
AcDbLinetypeTableRecord
70
0
2
ByBlock
3

72
65
73
0
40
0
0
LTYPE
5
15
100
AcDbSymbolTableRecord
100
AcDbLinetypeTableRecord
70
0
2
ByLayer
3

72
65
73
0
40
0
0
LTYPE
5
16
100
AcDbSymbolTableRecord
100
AcDbLinetypeTableRecord
70
0
2
Continuous
3
Solid line
72
65
73
0
40
0
0
LTYPE
5
6E
100
AcDbSymbolTableRecord
100
AcDbLinetypeTableRecord
70
0
2
CENTER
3
____ _ ____ _ ____ _ ____
72
65
73
4
40
47.5
49
22
74
0
49
-8.5
74
0
49
8.5
74
0
49
-8.5
74
0
0
LTYPE
5
6F
100
AcDbSymbolTableRecord
100
AcDbLinetypeTableRecord
70
0
2
DASHED
3
__ __ __ __ __ __ __ __ __
72
65
73
2
40
25.72
49
12.86
74
0
49
-12.86
74
0
0
ENDTAB
0
TABLE
2
LAYER
5
304
100
AcDbSymbolTable
0
LAYER
5
10
100
AcDbSymbolTableRecord
100
AcDbLayerTableRecord
2
0
70
0
62
7
6
Continuous
290
1
370
-3
390
0
0
LAYER
5
71
100
AcDbSymbolTableRecord
100
AcDbLayerTableRecord
2
81
70
0
62
-3
6
Continuous
290
1
370
-3
390
0
0
LAYER
5
73
100
AcDbSymbolTableRecord
100
AcDbLayerTableRecord
2
80
70
0
62
-6
6
Continuous
290
1
370
-3
390
0
0
LAYER
5
75
100
AcDbSymbolTableRecord
100
AcDbLayerTableRecord
2
1
70
0
62
4
6
Continuous
290
1
370
-3
390
0
0
LAYER
5
81
100
AcDbSymbolTableRecord
100
AcDbLayerTableRecord
2
4
70
0
62
-2
6
CENTER
290
1
370
-3
390
0
0
LAYER
5
C8
100
AcDbSymbolTableRecord
100
AcDbLayerTableRecord
2
2
70
0
62
7
6
Continuous
290
1
370
-3
390
0
0
LAYER
5
212
100
AcDbSymbolTableRecord
100
AcDbLayerTableRecord
2
Defpoints
70
0
62
7
6
Continuous
290
0
370
-3
390
0
0
LAYER
5
2ee
100
AcDbSymbolTableRecord
100
AcDbLayerTableRecord
2
SK4
70
0
62
2
6
CENTER
290
1
370
-3
390
0
0
LAYER
5
2ef
100
AcDbSymbolTableRecord
100
AcDbLayerTableRecord
2
SK1
70
0
62
4
6
Continuous
290
1
370
-3
390
0
0
LAYER
5
2f0
100
AcDbSymbolTableRecord
100
AcDbLayerTableRecord
2
SK2
70
0
62
7
6
Continuous
290
1
370
-3
390
0
0
LAYER
5
2f1
100
AcDbSymbolTableRecord
100
AcDbLayerTableRecord
2
SK6
70
0
62
5
6
Continuous
290
1
370
-3
390
0
0
ENDTAB
0
TABLE
2
STYLE
5
305
100
AcDbSymbolTable
0
STYLE
5
11
100
AcDbSymbolTableRecord
100
AcDbTextStyleTableRecord
2
Standard
3
txt
70
0
71
0
40
0
41
1
42
0
50
0
0
STYLE
5
1F8
100
AcDbSymbolTableRecord
100
AcDbTextStyleTableRecord
2
iso_b_vert
3
simplex.shx
70
0
71
0
40
0
41
1
42
0
50
0
0
STYLE
5
1F9
100
AcDbSymbolTableRecord
100
AcDbTextStyleTableRecord
2
DWGDirectTextStyle
3
simplex
70
0
71
0
40
0
41
1
42
0
50
0
0
ENDTAB
0
TABLE
2
DIMSTYLE
5
306
100
AcDbSymbolTable
100
AcDbDimStyleTable
0
DIMSTYLE
105
27
100
AcDbSymbolTableRecord
100
AcDbDimStyleTableRecord
2
Standard
70
0
3
<>
41
0.18
42
0.0625
44
0.18
140
0.18
147
0.09
73
0
74
0
77
1
271
2
275
0
278
52
280
0
340
11
0
ENDTAB
0
TABLE
2
VIEW
5
307
100
AcDbSymbolTable
0
ENDTAB
0
TABLE
2
UCS
5
308
100
AcDbSymbolTable
0
ENDTAB
0
TABLE
2
APPID
5
309
100
AcDbSymbolTable
0
APPID
5
12
100
AcDbSymbolTableRecord
100
AcDbRegAppTableRecord
2
ACAD
70
0
0
APPID
5
20E
100
AcDbSymbolTableRecord
100
AcDbRegAppTableRecord
2
ACAD_DSTYLE_DIMBREAK
70
0
0
APPID
5
2AD
100
AcDbSymbolTableRecord
100
AcDbRegAppTableRecord
2
ACAD_DSTYLE_DIM_LINETYPE
70
0
0
APPID
5
2AE
100
AcDbSymbolTableRecord
100
AcDbRegAppTableRecord
2
ACAD_DSTYLE_DIM_EXT1_LINETYPE
70
0
0
APPID
5
2AF
100
AcDbSymbolTableRecord
100
AcDbRegAppTableRecord
2
ACAD_DSTYLE_DIM_EXT2_LINETYPE
70
0
0
APPID
5
2EA
100
AcDbSymbolTableRecord
100
AcDbRegAppTableRecord
2
ACAD_MLEADERVER
70
0
0
ENDTAB
0
TABLE
2
BLOCK_RECORD
5
30a
100
AcDbSymbolTable
0
BLOCK_RECORD
5
1F
100
AcDbSymbolTableRecord
100
AcDbBlockTableRecord
2
*Model_Space
340
0
70
0
0
BLOCK_RECORD
5
1B
100
AcDbSymbolTableRecord
100
AcDbBlockTableRecord
2
*Paper_Space
340
0
70
0
0
BLOCK_RECORD
5
23
100
AcDbSymbolTableRecord
100
AcDbBlockTableRecord
2
*Paper_Space0
340
0
70
0
0
BLOCK_RECORD
5
213
100
AcDbSymbolTableRecord
100
AcDbBlockTableRecord
2
*D1
340
0
70
0
0
BLOCK_RECORD
5
221
100
AcDbSymbolTableRecord
100
AcDbBlockTableRecord
2
_U0
340
0
70
0
0
BLOCK_RECORD
5
22D
100
AcDbSymbolTableRecord
100
AcDbBlockTableRecord
2
*D3
340
0
70
0
0
BLOCK_RECORD
5
23A
100
AcDbSymbolTableRecord
100
AcDbBlockTableRecord
2
_U1
340
0
70
0
0
BLOCK_RECORD
5
247
100
AcDbSymbolTableRecord
100
AcDbBlockTableRecord
2
*D5
340
0
70
0
0
BLOCK_RECORD
5
255
100
AcDbSymbolTableRecord
100
AcDbBlockTableRecord
2
_U2
340
0
70
0
0
BLOCK_RECORD
5
262
100
AcDbSymbolTableRecord
100
AcDbBlockTableRecord
2
*D7
340
0
70
0
0
BLOCK_RECORD
5
26E
100
AcDbSymbolTableRecord
100
AcDbBlockTableRecord
2
_U3
340
0
70
0
0
BLOCK_RECORD
5
27A
100
AcDbSymbolTableRecord
100
AcDbBlockTableRecord
2
*D9
340
0
70
0
0
BLOCK_RECORD
5
286
100
AcDbSymbolTableRecord
100
AcDbBlockTableRecord
2
_U4
340
0
70
0
0
ENDTAB
0
ENDSEC
0
SECTION
2
BLOCKS
0
BLOCK
5
20
100
AcDbEntity
8
0
100
AcDbBlockBegin
2
*Model_Space
70
0
10
0
20
0
30
0
3
*Model_Space
0
ENDBLK
5
21
100
AcDbEntity
8
0
100
AcDbBlockEnd
0
BLOCK
5
1C
100
AcDbEntity
8
0
100
AcDbBlockBegin
2
*Paper_Space
70
0
10
0
20
0
30
0
3
*Paper_Space
0
ENDBLK
5
1D
100
AcDbEntity
8
0
100
AcDbBlockEnd
0
BLOCK
5
24
100
AcDbEntity
8
0
100
AcDbBlockBegin
2
*Paper_Space0
70
0
10
0
20
0
30
0
3
*Paper_Space0
0
ENDBLK
5
25
100
AcDbEntity
8
0
100
AcDbBlockEnd
0
BLOCK
5
214
100
AcDbEntity
8
0
100
AcDbBlockBegin
2
*D1
70
1
10
0
20
0
30
0
3
*D1
0
LINE
5
216
100
AcDbEntity
8
0
62
256
6
ByLayer
370
-2
48
1
60
0
100
AcDbLine
10
48.5875
20
2.551245
30
0
11
67.653755
21
2.551245
31
0
39
0
210
0
220
0
230
1
0
LINE
5
217
100
AcDbEntity
8
0
62
256
6
ByLayer
370
-2
48
1
60
0
100
AcDbLine
10
48.5875
20
-2.551245
30
0
11
67.653755
21
-2.551245
31
0
39
0
210
0
220
0
230
1
0
LINE
5
218
100
AcDbEntity
8
0
62
256
6
ByLayer
370
-2
48
1
60
0
100
AcDbLine
10
65.653755
20
2.551245
30
0
11
65.653755
21
30.551245
31
0
39
0
210
0
220
0
230
1
0
LINE
5
219
100
AcDbEntity
8
0
62
256
6
ByLayer
370
-2
48
1
60
0
100
AcDbLine
10
65.653755
20
6.051245
30
0
11
65.653755
21
9.551245
31
0
39
0
210
0
220
0
230
1
0
LINE
5
21A
100
AcDbEntity
8
0
62
256
6
ByLayer
370
-2
48
1
60
0
100
AcDbLine
10
65.653755
20
-6.051245
30
0
11
65.653755
21
-9.551245
31
0
39
0
210
0
220
0
230
1
0
SOLID
5
21B
100
AcDbEntity
8
0
62
256
6
ByLayer
370
-1
48
1
60
0
100
AcDbTrace
10
65.070422
20
6.051245
30
0
11
66.237088
21
6.051245
31
0
12
65.653755
22
2.551245
32
0
13
65.653755
23
2.551245
33
0
39
0
210
0
220
0
230
1
0
SOLID
5
21C
100
AcDbEntity
8
0
62
256
6
ByLayer
370
-1
48
1
60
0
100
AcDbTrace
10
66.237088
20
-6.051245
30
0
11
65.070422
21
-6.051245
31
0
12
65.653755
22
-2.551245
32
0
13
65.653755
23
-2.551245
33
0
39
0
210
0
220
0
230
1
0
MTEXT
5
21D
100
AcDbEntity
8
0
62
256
6
ByLayer
370
18
48
1
60
0
100
AcDbMText
10
59.653755
20
20.051245
30
0
210
0
220
0
230
1
1
\A1;5.102
40
3
41
0
44
1
50
90
71
5
72
5
7
iso_b_vert
0
POINT
5
21E
100
AcDbEntity
8
Defpoints
62
0
6
ByLayer
370
-1
48
1
60
0
100
AcDbPoint
10
47
20
2.551245
30
0
39
0
210
0
220
0
230
1
50
360
0
POINT
5
21F
100
AcDbEntity
8
Defpoints
62
0
6
ByLayer
370
-1
48
1
60
0
100
AcDbPoint
10
47
20
-2.551245
30
0
39
0
210
0
220
0
230
1
50
360
0
POINT
5
220
100
AcDbEntity
8
Defpoints
62
0
6
ByLayer
370
-1
48
1
60
0
100
AcDbPoint
10
65.653755
20
-2.551245
30
0
39
0
210
0
220
0
230
1
50
360
0
ENDBLK
5
215
100
AcDbEntity
8
0
100
AcDbBlockEnd
0
BLOCK
5
228
100
AcDbEntity
8
0
100
AcDbBlockBegin
2
_U0
70
0
10
0
20
0
30
0
3
_U0
0
MTEXT
5
222
100
AcDbEntity
8
2
62
256
6
ByLayer
370
18
48
1
60
0
100
AcDbMText
10
65.062641
20
12.686245
30
0
210
0
220
0
230
1
1
\W0.7203;M5
40
3
41
0
44
1.084337
50
90
71
7
72
5
7
iso_b_vert
0
LINE
5
223
100
AcDbEntity
8
2
62
256
6
ByLayer
370
13
48
1
60
0
100
AcDbLine
10
48.5875
20
2.551245
30
0
11
67.653755
21
2.551245
31
0
39
0
210
0
220
0
230
1
0
LINE
5
224
100
AcDbEntity
8
2
62
256
6
ByLayer
370
13
48
1
60
0
100
AcDbLine
10
48.5875
20
-2.551245
30
0
11
67.653755
21
-2.551245
31
0
39
0
210
0
220
0
230
1
0
LINE
5
225
100
AcDbEntity
8
2
62
256
6
ByLayer
370
13
48
1
60
0
100
AcDbLine
10
65.653755
20
-10.051245
30
0
11
65.653755
21
16.806044
31
0
39
0
210
0
220
0
230
1
0
SOLID
5
226
100
AcDbEntity
8
2
62
256
6
ByLayer
370
18
48
1
60
0
100
AcDbTrace
10
65.653755
20
2.551245
30
0
11
65.192971
21
6.051243
31
0
12
66.114539
22
6.051247
32
0
13
66.114539
23
6.051247
33
0
39
0
210
0
220
0
230
1
0
SOLID
5
227
100
AcDbEntity
8
2
62
256
6
ByLayer
370
18
48
1
60
0
100
AcDbTrace
10
65.653755
20
-2.551245
30
0
11
66.114539
21
-6.051243
31
0
12
65.192971
22
-6.051247
32
0
13
65.192971
23
-6.051247
33
0
39
0
210
0
220
0
230
1
0
ENDBLK
5
229
100
AcDbEntity
8
0
100
AcDbBlockEnd
0
BLOCK
5
22E
100
AcDbEntity
8
0
100
AcDbBlockBegin
2
*D3
70
1
10
0
20
0
30
0
3
*D3
0
LINE
5
230
100
AcDbEntity
8
0
62
256
6
ByLayer
370
-2
48
1
60
0
100
AcDbLine
10
47
20
4.138745
30
0
11
47
21
13.85
31
0
39
0
210
0
220
0
230
1
0
LINE
5
231
100
AcDbEntity
8
0
62
256
6
ByLayer
370
-2
48
1
60
0
100
AcDbLine
10
44.8
20
1.5875
30
0
11
44.8
21
13.85
31
0
39
0
210
0
220
0
230
1
0
LINE
5
232
100
AcDbEntity
8
0
62
256
6
ByLayer
370
-2
48
1
60
0
100
AcDbLine
10
50.5
20
11.85
30
0
11
54
21
11.85
31
0
39
0
210
0
220
0
230
1
0
LINE
5
233
100
AcDbEntity
8
0
62
256
6
ByLayer
370
-2
48
1
60
0
100
AcDbLine
10
41.3
20
11.85
30
0
11
37.8
21
11.85
31
0
39
0
210
0
220
0
230
1
0
SOLID
5
234
100
AcDbEntity
8
0
62
256
6
ByLayer
370
-1
48
1
60
0
100
AcDbTrace
10
50.5
20
12.433333
30
0
11
50.5
21
11.266667
31
0
12
47
22
11.85
32
0
13
47
23
11.85
33
0
39
0
210
0
220
0
230
1
0
SOLID
5
235
100
AcDbEntity
8
0
62
256
6
ByLayer
370
-1
48
1
60
0
100
AcDbTrace
10
41.3
20
11.266667
30
0
11
41.3
21
12.433333
31
0
12
44.8
22
11.85
32
0
13
44.8
23
11.85
33
0
39
0
210
0
220
0
230
1
0
MTEXT
5
236
100
AcDbEntity
8
0
62
256
6
ByLayer
370
18
48
1
60
0
100
AcDbMText
10
45.9
20
17.85
30
0
210
0
220
0
230
1
1
\A1;2.2
40
3
41
0
44
1
50
0
71
5
72
5
7
iso_b_vert
0
POINT
5
237
100
AcDbEntity
8
Defpoints
62
0
6
ByLayer
370
-1
48
1
60
0
100
AcDbPoint
10
47
20
2.551245
30
0
39
0
210
0
220
0
230
1
50
360
0
POINT
5
238
100
AcDbEntity
8
Defpoints
62
0
6
ByLayer
370
-1
48
1
60
0
100
AcDbPoint
10
44.8
20
0
30
0
39
0
210
0
220
0
230
1
50
360
0
POINT
5
239
100
AcDbEntity
8
Defpoints
62
0
6
ByLayer
370
-1
48
1
60
0
100
AcDbPoint
10
44.8
20
11.85
30
0
39
0
210
0
220
0
230
1
50
360
0
ENDBLK
5
22F
100
AcDbEntity
8
0
100
AcDbBlockEnd
0
BLOCK
5
242
100
AcDbEntity
8
0
100
AcDbBlockBegin
2
_U1
70
0
10
0
20
0
30
0
3
_U1
0
MTEXT
5
23B
100
AcDbEntity
8
SK2
62
256
6
ByLayer
370
18
48
1
60
0
100
AcDbMText
10
43.685958
20
12.632634
30
0
210
0
220
0
230
1
1
\W0.6474;'C'
40
3.5
41
0
44
1.084337
50
0
71
7
72
5
7
iso_b_vert
0
MTEXT
5
23C
100
AcDbEntity
8
SK2
62
256
6
ByLayer
370
18
48
1
60
0
100
AcDbMText
10
43.659458
20
19.735114
30
0
210
0
220
0
230
1
1
\W0.7121;2.2
40
3
41
0
44
1.084337
50
0
71
7
72
5
7
iso_b_vert
0
LINE
5
23D
100
AcDbEntity
8
SK2
62
256
6
ByLayer
370
13
48
1
60
0
100
AcDbLine
10
47
20
4.138745
30
0
11
47
21
13.85
31
0
39
0
210
0
220
0
230
1
0
LINE
5
23E
100
AcDbEntity
8
SK2
62
256
6
ByLayer
370
13
48
1
60
0
100
AcDbLine
10
44.8
20
1.5875
30
0
11
44.8
21
13.85
31
0
39
0
210
0
220
0
230
1
0
LINE
5
23F
100
AcDbEntity
8
SK2
62
256
6
ByLayer
370
13
48
1
60
0
100
AcDbLine
10
54.5
20
11.85
30
0
11
37.3
21
11.85
31
0
39
0
210
0
220
0
230
1
0
SOLID
5
240
100
AcDbEntity
8
SK2
62
256
6
ByLayer
370
18
48
1
60
0
100
AcDbTrace
10
47
20
11.85
30
0
11
50.499998
21
12.310784
31
0
12
50.500002
22
11.389216
32
0
13
50.500002
23
11.389216
33
0
39
0
210
0
220
0
230
1
0
SOLID
5
241
100
AcDbEntity
8
SK2
62
256
6
ByLayer
370
18
48
1
60
0
100
AcDbTrace
10
44.8
20
11.85
30
0
11
41.300002
21
11.389216
31
0
12
41.299998
22
12.310784
32
0
13
41.299998
23
12.310784
33
0
39
0
210
0
220
0
230
1
0
ENDBLK
5
243
100
AcDbEntity
8
0
100
AcDbBlockEnd
0
BLOCK
5
248
100
AcDbEntity
8
0
100
AcDbBlockBegin
2
*D5
70
1
10
0
20
0
30
0
3
*D5
0
LINE
5
24A
100
AcDbEntity
8
0
62
256
6
ByLayer
370
-2
48
1
60
0
100
AcDbLine
10
47
20
-4.138745
30
0
11
47
21
-11.551245
31
0
39
0
210
0
220
0
230
1
0
LINE
5
24B
100
AcDbEntity
8
0
62
256
6
ByLayer
370
-2
48
1
60
0
100
AcDbLine
10
39
20
-4.138745
30
0
11
39
21
-11.551245
31
0
39
0
210
0
220
0
230
1
0
LINE
5
24C
100
AcDbEntity
8
0
62
256
6
ByLayer
370
-2
48
1
60
0
100
AcDbLine
10
47
20
-9.551245
30
0
11
65
21
-9.551245
31
0
39
0
210
0
220
0
230
1
0
LINE
5
24D
100
AcDbEntity
8
0
62
256
6
ByLayer
370
-2
48
1
60
0
100
AcDbLine
10
50.5
20
-9.551245
30
0
11
54
21
-9.551245
31
0
39
0
210
0
220
0
230
1
0
LINE
5
24E
100
AcDbEntity
8
0
62
256
6
ByLayer
370
-2
48
1
60
0
100
AcDbLine
10
35.5
20
-9.551245
30
0
11
32
21
-9.551245
31
0
39
0
210
0
220
0
230
1
0
SOLID
5
24F
100
AcDbEntity
8
0
62
256
6
ByLayer
370
-1
48
1
60
0
100
AcDbTrace
10
50.5
20
-8.967912
30
0
11
50.5
21
-10.134578
31
0
12
47
22
-9.551245
32
0
13
47
23
-9.551245
33
0
39
0
210
0
220
0
230
1
0
SOLID
5
250
100
AcDbEntity
8
0
62
256
6
ByLayer
370
-1
48
1
60
0
100
AcDbTrace
10
35.5
20
-10.134578
30
0
11
35.5
21
-8.967912
31
0
12
39
22
-9.551245
32
0
13
39
23
-9.551245
33
0
39
0
210
0
220
0
230
1
0
MTEXT
5
251
100
AcDbEntity
8
0
62
256
6
ByLayer
370
18
48
1
60
0
100
AcDbMText
10
59.5
20
-3.551245
30
0
210
0
220
0
230
1
1
\A1;8
40
3
41
0
44
1
50
0
71
5
72
5
7
iso_b_vert
0
POINT
5
252
100
AcDbEntity
8
Defpoints
62
0
6
ByLayer
370
-1
48
1
60
0
100
AcDbPoint
10
47
20
-2.551245
30
0
39
0
210
0
220
0
230
1
50
360
0
POINT
5
253
100
AcDbEntity
8
Defpoints
62
0
6
ByLayer
370
-1
48
1
60
0
100
AcDbPoint
10
39
20
-2.551245
30
0
39
0
210
0
220
0
230
1
50
360
0
POINT
5
254
100
AcDbEntity
8
Defpoints
62
0
6
ByLayer
370
-1
48
1
60
0
100
AcDbPoint
10
39
20
-9.551245
30
0
39
0
210
0
220
0
230
1
50
360
0
ENDBLK
5
249
100
AcDbEntity
8
0
100
AcDbBlockEnd
0
BLOCK
5
25D
100
AcDbEntity
8
0
100
AcDbBlockBegin
2
_U2
70
0
10
0
20
0
30
0
3
_U2
0
MTEXT
5
256
100
AcDbEntity
8
SK2
62
256
6
ByLayer
370
18
48
1
60
0
100
AcDbMText
10
53.159
20
-8.666131
30
0
210
0
220
0
230
1
1
\W0.5404;8
40
3
41
0
44
1.084337
50
0
71
7
72
5
7
iso_b_vert
0
MTEXT
5
257
100
AcDbEntity
8
SK2
62
256
6
ByLayer
370
18
48
1
60
0
100
AcDbMText
10
56.974328
20
-8.31365
30
0
210
0
220
0
230
1
1
\W0.8315;\W0.4158;%%p\W0.8315;0.5
40
2.5
41
0
44
1.084337
50
0
71
7
72
5
7
iso_b_vert
0
LINE
5
258
100
AcDbEntity
8
SK2
62
256
6
ByLayer
370
13
48
1
60
0
100
AcDbLine
10
47
20
-4.138745
30
0
11
47
21
-11.551245
31
0
39
0
210
0
220
0
230
1
0
LINE
5
259
100
AcDbEntity
8
SK2
62
256
6
ByLayer
370
13
48
1
60
0
100
AcDbLine
10
39
20
-4.138745
30
0
11
39
21
-11.551245
31
0
39
0
210
0
220
0
230
1
0
LINE
5
25A
100
AcDbEntity
8
SK2
62
256
6
ByLayer
370
13
48
1
60
0
100
AcDbLine
10
39
20
-9.551245
30
0
11
64.091065
21
-9.551245
31
0
39
0
210
0
220
0
230
1
0
SOLID
5
25B
100
AcDbEntity
8
SK2
62
256
6
ByLayer
370
18
48
1
60
0
100
AcDbTrace
10
47
20
-9.551245
30
0
11
43.500002
21
-10.012029
31
0
12
43.499998
22
-9.090461
32
0
13
43.499998
23
-9.090461
33
0
39
0
210
0
220
0
230
1
0
SOLID
5
25C
100
AcDbEntity
8
SK2
62
256
6
ByLayer
370
18
48
1
60
0
100
AcDbTrace
10
39
20
-9.551245
30
0
11
42.499998
21
-9.090461
31
0
12
42.500002
22
-10.012029
32
0
13
42.500002
23
-10.012029
33
0
39
0
210
0
220
0
230
1
0
ENDBLK
5
25E
100
AcDbEntity
8
0
100
AcDbBlockEnd
0
BLOCK
5
263
100
AcDbEntity
8
0
100
AcDbBlockBegin
2
*D7
70
1
10
0
20
0
30
0
3
*D7
0
LINE
5
265
100
AcDbEntity
8
0
62
256
6
ByLayer
370
-2
48
1
60
0
100
AcDbLine
10
47
20
-4.138745
30
0
11
47
21
-34.051245
31
0
39
0
210
0
220
0
230
1
0
LINE
5
266
100
AcDbEntity
8
0
62
256
6
ByLayer
370
-2
48
1
60
0
100
AcDbLine
10
22
20
-3.51915
30
0
11
22
21
-34.051245
31
0
39
0
210
0
220
0
230
1
0
LINE
5
267
100
AcDbEntity
8
0
62
256
6
ByLayer
370
-2
48
1
60
0
100
AcDbLine
10
43.5
20
-32.051245
30
0
11
25.5
21
-32.051245
31
0
39
0
210
0
220
0
230
1
0
SOLID
5
268
100
AcDbEntity
8
0
62
256
6
ByLayer
370
-1
48
1
60
0
100
AcDbTrace
10
43.5
20
-32.634578
30
0
11
43.5
21
-31.467912
31
0
12
47
22
-32.051245
32
0
13
47
23
-32.051245
33
0
39
0
210
0
220
0
230
1
0
SOLID
5
269
100
AcDbEntity
8
0
62
256
6
ByLayer
370
-1
48
1
60
0
100
AcDbTrace
10
25.5
20
-31.467912
30
0
11
25.5
21
-32.634578
31
0
12
22
22
-32.051245
32
0
13
22
23
-32.051245
33
0
39
0
210
0
220
0
230
1
0
MTEXT
5
26A
100
AcDbEntity
8
0
62
256
6
ByLayer
370
18
48
1
60
0
100
AcDbMText
10
34.5
20
-26.051245
30
0
210
0
220
0
230
1
1
\A1;25
40
3
41
0
44
1
50
0
71
5
72
5
7
iso_b_vert
0
POINT
5
26B
100
AcDbEntity
8
Defpoints
62
0
6
ByLayer
370
-1
48
1
60
0
100
AcDbPoint
10
47
20
-2.551245
30
0
39
0
210
0
220
0
230
1
50
360
0
POINT
5
26C
100
AcDbEntity
8
Defpoints
62
0
6
ByLayer
370
-1
48
1
60
0
100
AcDbPoint
10
22
20
-1.93165
30
0
39
0
210
0
220
0
230
1
50
360
0
POINT
5
26D
100
AcDbEntity
8
Defpoints
62
0
6
ByLayer
370
-1
48
1
60
0
100
AcDbPoint
10
22
20
-32.051245
30
0
39
0
210
0
220
0
230
1
50
360
0
ENDBLK
5
264
100
AcDbEntity
8
0
100
AcDbBlockEnd
0
BLOCK
5
275
100
AcDbEntity
8
0
100
AcDbBlockBegin
2
_U3
70
0
10
0
20
0
30
0
3
_U3
0
MTEXT
5
26F
100
AcDbEntity
8
SK2
62
256
6
ByLayer
370
18
48
1
60
0
100
AcDbMText
10
32.867172
20
-31.166131
30
0
210
0
220
0
230
1
1
\W0.6740;25
40
3
41
0
44
1.084337
50
0
71
7
72
5
7
iso_b_vert
0
LINE
5
270
100
AcDbEntity
8
SK2
62
256
6
ByLayer
370
13
48
1
60
0
100
AcDbLine
10
47
20
-4.138745
30
0
11
47
21
-34.051245
31
0
39
0
210
0
220
0
230
1
0
LINE
5
271
100
AcDbEntity
8
SK2
62
256
6
ByLayer
370
13
48
1
60
0
100
AcDbLine
10
22
20
-3.51915
30
0
11
22
21
-34.051245
31
0
39
0
210
0
220
0
230
1
0
LINE
5
272
100
AcDbEntity
8
SK2
62
256
6
ByLayer
370
13
48
1
60
0
100
AcDbLine
10
47
20
-32.051245
30
0
11
22
21
-32.051245
31
0
39
0
210
0
220
0
230
1
0
SOLID
5
273
100
AcDbEntity
8
SK2
62
256
6
ByLayer
370
18
48
1
60
0
100
AcDbTrace
10
47
20
-32.051245
30
0
11
43.500002
21
-32.512029
31
0
12
43.499998
22
-31.590461
32
0
13
43.499998
23
-31.590461
33
0
39
0
210
0
220
0
230
1
0
SOLID
5
274
100
AcDbEntity
8
SK2
62
256
6
ByLayer
370
18
48
1
60
0
100
AcDbTrace
10
22
20
-32.051245
30
0
11
25.499998
21
-31.590461
31
0
12
25.500002
22
-32.512029
32
0
13
25.500002
23
-32.512029
33
0
39
0
210
0
220
0
230
1
0
ENDBLK
5
276
100
AcDbEntity
8
0
100
AcDbBlockEnd
0
BLOCK
5
27B
100
AcDbEntity
8
0
100
AcDbBlockBegin
2
*D9
70
1
10
0
20
0
30
0
3
*D9
0
LINE
5
27D
100
AcDbEntity
8
0
62
256
6
ByLayer
370
-2
48
1
60
0
100
AcDbLine
10
47
20
-4.138745
30
0
11
47
21
-23.051245
31
0
39
0
210
0
220
0
230
1
0
LINE
5
27E
100
AcDbEntity
8
0
62
256
6
ByLayer
370
-2
48
1
60
0
100
AcDbLine
10
25.75
20
-1.5875
30
0
11
25.75
21
-23.051245
31
0
39
0
210
0
220
0
230
1
0
LINE
5
27F
100
AcDbEntity
8
0
62
256
6
ByLayer
370
-2
48
1
60
0
100
AcDbLine
10
43.5
20
-21.051245
30
0
11
29.25
21
-21.051245
31
0
39
0
210
0
220
0
230
1
0
SOLID
5
280
100
AcDbEntity
8
0
62
256
6
ByLayer
370
-1
48
1
60
0
100
AcDbTrace
10
43.5
20
-21.634578
30
0
11
43.5
21
-20.467912
31
0
12
47
22
-21.051245
32
0
13
47
23
-21.051245
33
0
39
0
210
0
220
0
230
1
0
SOLID
5
281
100
AcDbEntity
8
0
62
256
6
ByLayer
370
-1
48
1
60
0
100
AcDbTrace
10
29.25
20
-20.467912
30
0
11
29.25
21
-21.634578
31
0
12
25.75
22
-21.051245
32
0
13
25.75
23
-21.051245
33
0
39
0
210
0
220
0
230
1
0
MTEXT
5
282
100
AcDbEntity
8
0
62
256
6
ByLayer
370
18
48
1
60
0
100
AcDbMText
10
36.375
20
-15.051245
30
0
210
0
220
0
230
1
1
\A1;21.3
40
3
41
0
44
1
50
0
71
5
72
5
7
iso_b_vert
0
POINT
5
283
100
AcDbEntity
8
Defpoints
62
0
6
ByLayer
370
-1
48
1
60
0
100
AcDbPoint
10
47
20
-2.551245
30
0
39
0
210
0
220
0
230
1
50
360
0
POINT
5
284
100
AcDbEntity
8
Defpoints
62
0
6
ByLayer
370
-1
48
1
60
0
100
AcDbPoint
10
25.75
20
0
30
0
39
0
210
0
220
0
230
1
50
360
0
POINT
5
285
100
AcDbEntity
8
Defpoints
62
0
6
ByLayer
370
-1
48
1
60
0
100
AcDbPoint
10
25.75
20
-21.051245
30
0
39
0
210
0
220
0
230
1
50
360
0
ENDBLK
5
27C
100
AcDbEntity
8
0
100
AcDbBlockEnd
0
BLOCK
5
28D
100
AcDbEntity
8
0
100
AcDbBlockBegin
2
_U4
70
0
10
0
20
0
30
0
3
_U4
0
MTEXT
5
287
100
AcDbEntity
8
2
62
256
6
ByLayer
370
18
48
1
60
0
100
AcDbMText
10
33.388486
20
-20.166131
30
0
210
0
220
0
230
1
1
\W0.6563;21.2
40
3
41
0
44
1.084337
50
0
71
7
72
5
7
iso_b_vert
0
LINE
5
288
100
AcDbEntity
8
2
62
256
6
ByLayer
370
13
48
1
60
0
100
AcDbLine
10
47
20
-4.138745
30
0
11
47
21
-23.051245
31
0
39
0
210
0
220
0
230
1
0
LINE
5
289
100
AcDbEntity
8
2
62
256
6
ByLayer
370
13
48
1
60
0
100
AcDbLine
10
25.75
20
-1.5875
30
0
11
25.75
21
-23.051245
31
0
39
0
210
0
220
0
230
1
0
LINE
5
28A
100
AcDbEntity
8
2
62
256
6
ByLayer
370
13
48
1
60
0
100
AcDbLine
10
47
20
-21.051245
30
0
11
25.75
21
-21.051245
31
0
39
0
210
0
220
0
230
1
0
SOLID
5
28B
100
AcDbEntity
8
2
62
256
6
ByLayer
370
18
48
1
60
0
100
AcDbTrace
10
47
20
-21.051245
30
0
11
43.500002
21
-21.512029
31
0
12
43.499998
22
-20.590461
32
0
13
43.499998
23
-20.590461
33
0
39
0
210
0
220
0
230
1
0
SOLID
5
28C
100
AcDbEntity
8
2
62
256
6
ByLayer
370
18
48
1
60
0
100
AcDbTrace
10
25.75
20
-21.051245
30
0
11
29.249998
21
-20.590461
31
0
12
29.250002
22
-21.512029
32
0
13
29.250002
23
-21.512029
33
0
39
0
210
0
220
0
230
1
0
ENDBLK
5
28E
100
AcDbEntity
8
0
100
AcDbBlockEnd
0
ENDSEC
0
SECTION
2
ENTITIES
0
ARC
5
D1
100
AcDbEntity
8
SK1
62
256
6
ByLayer
370
18
48
1
60
0
100
AcDbCircle
39
0
10
-17.45
20
0
30
0
40
2.87999999999977
210
0
220
0
230
1
100
AcDbArc
50
328.287282
51
31.712718
0
ARC
5
D2
100
AcDbEntity
8
1
62
256
6
ByLayer
370
18
48
1
60
0
100
AcDbCircle
39
0
10
37.61965
20
2.43165
30
0
40
0.5
210
0
220
0
230
1
100
AcDbArc
50
270
51
300
0
ARC
5
D3
100
AcDbEntity
8
1
62
256
6
ByLayer
370
18
48
1
60
0
100
AcDbCircle
39
0
10
22.043744
20
-2.43165
30
0
40
0.5
210
0
220
0
230
1
100
AcDbArc
50
90
51
100
0
ARC
5
D4
100
AcDbEntity
8
1
62
256
6
ByLayer
370
18
48
1
60
0
100
AcDbCircle
39
0
10
22.043744
20
2.43165
30
0
40
0.5
210
0
220
0
230
1
100
AcDbArc
50
260
51
270
0
POINT
5
70
100
AcDbEntity
8
81
62
256
6
ByLayer
370
18
48
1
60
0
100
AcDbPoint
10
47.2
20
0
30
0
39
0
210
0
220
0
230
1
50
360
0
POINT
5
72
100
AcDbEntity
8
80
62
256
6
ByLayer
370
18
48
1
60
0
100
AcDbPoint
10
0
20
0
30
0
39
0
210
0
220
0
230
1
50
360
0
POINT
5
74
100
AcDbEntity
8
1
62
256
6
ByLayer
370
18
48
1
60
1
100
AcDbPoint
10
47
20
2.551245
30
0
39
0
210
0
220
0
230
1
50
360
0
POINT
5
76
100
AcDbEntity
8
1
62
256
6
ByLayer
370
18
48
1
60
1
100
AcDbPoint
10
47
20
-2.551245
30
0
39
0
210
0
220
0
230
1
50
360
0
POINT
5
77
100
AcDbEntity
8
1
62
256
6
ByLayer
370
18
48
1
60
1
100
AcDbPoint
10
47
20
2.551245
30
0
39
0
210
0
220
0
230
1
50
360
0
POINT
5
78
100
AcDbEntity
8
1
62
256
6
ByLayer
370
18
48
1
60
1
100
AcDbPoint
10
44.8
20
0
30
0
39
0
210
0
220
0
230
1
50
360
0
POINT
5
79
100
AcDbEntity
8
1
62
256
6
ByLayer
370
18
48
1
60
1
100
AcDbPoint
10
47
20
-2.551245
30
0
39
0
210
0
220
0
230
1
50
360
0
POINT
5
7A
100
AcDbEntity
8
1
62
256
6
ByLayer
370
18
48
1
60
1
100
AcDbPoint
10
39
20
-2.551245
30
0
39
0
210
0
220
0
230
1
50
360
0
POINT
5
7B
100
AcDbEntity
8
1
62
256
6
ByLayer
370
18
48
1
60
1
100
AcDbPoint
10
47
20
-2.551245
30
0
39
0
210
0
220
0
230
1
50
360
0
POINT
5
7C
100
AcDbEntity
8
1
62
256
6
ByLayer
370
18
48
1
60
1
100
AcDbPoint
10
22
20
-1.93165
30
0
39
0
210
0
220
0
230
1
50
360
0
POINT
5
7D
100
AcDbEntity
8
1
62
256
6
ByLayer
370
18
48
1
60
1
100
AcDbPoint
10
47
20
-2.551245
30
0
39
0
210
0
220
0
230
1
50
360
0
POINT
5
7E
100
AcDbEntity
8
1
62
256
6
ByLayer
370
18
48
1
60
1
100
AcDbPoint
10
25.75
20
0
30
0
39
0
210
0
220
0
230
1
50
360
0
SPLINE
5
D5
100
AcDbEntity
8
1
62
256
6
ByLayer
370
13
48
1
60
0
100
AcDbSpline
70
4
71
3
72
8
73
4
40
0
40
0
40
0
40
0
40
1
40
1
40
1
40
1
41
1.04
10
46.0277414613316
20
-2.07939339599689
30
0
41
1.04
10
46.021652605706
20
-2.09057424872586
30
0
41
1.04
10
46.0155555730803
20
-2.09466884456308
30
0
41
1.04
10
46.0094410396593
20
-2.0915180909437
30
0
0
SPLINE
5
D6
100
AcDbEntity
8
1
62
256
6
ByLayer
370
18
48
1
60
0
100
AcDbSpline
70
4
71
3
72
10
73
6
40
0
40
0
40
0
40
0
40
0.0182957008680826
40
0.0182957008680826
40
1
40
1
40
1
40
1
41
1
10
45.9490465464144
20
-2.20977141353563
30
0
41
1
10
45.9489977697069
20
-2.20976671007963
30
0
41
1
10
45.9489490193701
20
-2.20976078327564
30
0
41
1
10
45.9462858650301
20
-2.20937001480516
30
0
41
1
10
45.9437458131148
20
-2.20547415876519
30
0
41
1
10
45.9412409898104
20
-2.19808802367709
30
0
0
SPLINE
5
D7
100
AcDbEntity
8
1
62
256
6
ByLayer
370
18
48
1
60
0
100
AcDbSpline
70
4
71
3
72
10
73
6
40
0
40
0
40
0
40
0
40
0.630812629633433
40
0.630812629633433
40
1
40
1
40
1
40
1
41
1
10
45.4991430969221
20
-2.22676116347083
30
0
41
1
10
45.5048719849254
20
-2.24758902981711
30
0
41
1
10
45.5105232203735
20
-2.26448026860692
30
0
41
1
10
45.5193430390049
20
-2.28512697780141
30
0
41
1
10
45.522571497624
20
-2.2914290713708
30
0
41
1
10
45.5257766573516
20
-2.29640522898663
30
0
0
SPLINE
5
D8
100
AcDbEntity
8
1
62
256
6
ByLayer
370
13
48
1
60
0
100
AcDbSpline
70
4
71
3
72
9
73
5
40
0
40
0
40
0
40
0
40
0.907910599900187
40
1
40
1
40
1
40
1
41
1.04
10
40.4265562435646
20
-2.08098213882832
30
0
41
1.04
10
40.419109456447
20
-2.09375110385381
30
0
41
1.04
10
40.4109838616429
20
-2.09599232849979
30
0
41
1.04
10
40.4029201985336
20
-2.085529192669
30
0
41
1.04
10
40.4021781288395
20
-2.08445866767516
30
0
0
SPLINE
5
D9
100
AcDbEntity
8
1
62
256
6
ByLayer
370
13
48
1
60
0
100
AcDbSpline
70
4
71
3
72
9
73
5
40
0
40
0
40
0
40
0
40
0.0794265846953516
40
1
40
1
40
1
40
1
41
1
10
41.8288287589637
20
2.07820247637503
30
0
41
1
10
41.8280863649458
20
2.079626068783
30
0
41
1
10
41.818735940069
20
2.09619949113812
30
0
41
1
10
41.8093388941896
20
2.09566852784448
30
0
41
1
10
41.800625435799
20
2.08058974220484
30
0
0
SPLINE
5
DA
100
AcDbEntity
8
1
62
256
6
ByLayer
370
13
48
1
60
0
100
AcDbSpline
70
4
71
3
72
8
73
4
40
0
40
0
40
0
40
0
40
1
40
1
40
1
40
1
41
1
10
45.4004282793579
20
-2.08065541979173
30
0
41
1
10
45.39340028928
20
-2.06848902907095
30
0
41
1
10
45.3862798859015
20
-2.04676934353043
30
0
41
1
10
45.3790588978977
20
-2.0149292492778
30
0
0
SPLINE
5
DB
100
AcDbEntity
8
1
62
256
6
ByLayer
370
13
48
1
60
0
100
AcDbSpline
70
4
71
3
72
8
73
4
40
0
40
0
40
0
40
0
40
1
40
1
40
1
40
1
41
1
10
39.8008778715488
20
-2.08145396016837
30
0
41
1
10
39.791152477255
20
-2.06502395864877
30
0
41
1
10
39.7815000539115
20
-2.03062640299098
30
0
41
1
10
39.7718872522313
20
-1.97958775712078
30
0
0
SPLINE
5
DC
100
AcDbEntity
8
1
62
256
6
ByLayer
370
13
48
1
60
0
100
AcDbSpline
70
4
71
3
72
8
73
4
40
0
40
0
40
0
40
0
40
1
40
1
40
1
40
1
41
1.04
10
45.225306810014
20
-2.08350707583741
30
0
41
1.04
10
45.2069819208465
20
-2.11111131203032
30
0
41
1.04
10
45.1880595680376
20
-2.07467849950139
30
0
41
1.04
10
45.1683815846188
20
-1.96312390580188
30
0
0
SPLINE
5
DD
100
AcDbEntity
8
1
62
256
6
ByLayer
370
18
48
1
60
0
100
AcDbSpline
70
4
71
3
72
16
73
12
40
0
40
0
40
0
40
0
40
0.196062484397917
40
0.196062484397917
40
0.598031242198958
40
0.598031242198958
40
0.698523431649218
40
0.698523431649218
40
0.799015621099479
40
0.799015621099479
40
1
40
1
40
1
40
1
41
1
10
45.0162229843738
20
-2.44143103084457
30
0
41
1
10
45.0134793136622
20
-2.44288683092455
30
0
41
1
10
45.0108467960911
20
-2.44036411151356
30
0
41
1
10
45.0030857393153
20
-2.42093742028982
30
0
41
1
10
44.9982671792025
20
-2.39180952454666
30
0
41
1
10
44.9923169173417
20
-2.3346560873677
30
0
41
1
10
44.9911297782065
20
-2.32223030045552
30
0
41
1
10
44.9887496460344
20
-2.29554414820797
30
0
41
1
10
44.9875548832592
20
-2.28126695632656
30
0
41
1
10
44.983931128431
20
-2.23566880922934
30
0
41
1
10
44.9814593231702
20
-2.20159228374078
30
0
41
1
10
44.9789023284393
20
-2.16379983196299
30
0
0
SPLINE
5
DE
100
AcDbEntity
8
1
62
256
6
ByLayer
370
18
48
1
60
0
100
AcDbSpline
70
4
71
3
72
21
73
17
40
0
40
0
40
0
40
0
40
0.176518771633718
40
0.353037543267436
40
0.353037543267436
40
0.441296929084295
40
0.441296929084295
40
0.485426621992726
40
0.485426621992726
40
0.529556314901156
40
0.706075086534878
40
0.706075086534878
40
0.8825938581686
40
0.8825938581686
40
0.970853243985461
40
1
40
1
40
1
40
1
41
1
10
44.750264014448
20
-2.10098033584774
30
0
41
1
10
44.756166481827
20
-2.14675930231815
30
0
41
1
10
44.7678154462193
20
-2.23027955589995
30
0
41
1
10
44.7793299970245
20
-2.29820912886433
30
0
41
1
10
44.7879612982564
20
-2.3432212804876
30
0
41
1
10
44.7908374549695
20
-2.35723336749169
30
0
41
1
10
44.7951548664632
20
-2.37672523122541
30
0
41
1
10
44.7965952295482
20
-2.3829699992998
30
0
41
1
10
44.7994607513398
20
-2.39487437515462
30
0
41
1
10
44.8065996686937
20
-2.42322189020615
30
0
41
1
10
44.8135927483527
20
-2.44453771175864
30
0
41
1
10
44.8247567871969
20
-2.46982058868065
30
0
41
1
10
44.8303465486497
20
-2.47805322400131
30
0
41
1
10
44.8387619868773
20
-2.48372348587577
30
0
41
1
10
44.8424982375545
20
-2.4847539323053
30
0
41
1
10
44.846236728752
20
-2.48377160798842
30
0
41
1
10
44.8471648505487
20
-2.48340247993721
30
0
0
SPLINE
5
DF
100
AcDbEntity
8
1
62
256
6
ByLayer
370
13
48
1
60
0
100
AcDbSpline
70
4
71
3
72
9
73
5
40
0
40
0
40
0
40
0
40
0.0061089315294729
40
1
40
1
40
1
40
1
41
1
10
44.602501030644
20
-2.08468565246102
30
0
41
1
10
44.602372474957
20
-2.08449516523027
30
0
41
1
10
44.5813264363044
20
-2.05277363010771
30
0
41
1
10
44.559927039735
20
-1.93261039329533
30
0
41
1
10
44.5379699640576
20
-1.7309615022165
30
0
0
SPLINE
5
E0
100
AcDbEntity
8
1
62
256
6
ByLayer
370
13
48
1
60
0
100
AcDbSpline
70
4
71
3
72
8
73
4
40
0
40
0
40
0
40
0
40
1
40
1
40
1
40
1
41
1.04
10
39.6267064158424
20
-2.08142744452794
30
0
41
1.04
10
39.6044604354228
20
-2.11904440310021
30
0
41
1.04
10
39.5827317683017
20
-2.05970769712884
30
0
41
1.04
10
39.5611394659883
20
-1.91829366959971
30
0
0
SPLINE
5
E1
100
AcDbEntity
8
1
62
256
6
ByLayer
370
13
48
1
60
0
100
AcDbSpline
70
4
71
3
72
9
73
5
40
0
40
0
40
0
40
0
40
0.223141864610355
40
1
40
1
40
1
40
1
41
1
10
39.000863142987
20
-2.08139579514625
30
0
41
1
10
38.9955691124461
20
-2.0727563331881
30
0
41
1
10
38.9719233202386
20
-2.01021795801447
30
0
41
1
10
38.9487526452109
20
-1.84191598818805
30
0
41
1
10
38.9307279757081
20
-1.66144601461815
30
0
0
SPLINE
5
E2
100
AcDbEntity
8
1
62
256
6
ByLayer
370
13
48
1
60
0
100
AcDbSpline
70
4
71
3
72
9
73
5
40
0
40
0
40
0
40
0
40
0.303715093523679
40
1
40
1
40
1
40
1
41
1.04
10
38.814257360601
20
-2.09174155748827
30
0
41
1.04
10
38.8045522720548
20
-2.09290177418028
30
0
41
1.04
10
38.7727371852589
20
-2.03802251424146
30
0
41
1.04
10
38.741775779434
20
-1.79273521340511
30
0
41
1.04
10
38.7200922265952
20
-1.55394666254497
30
0
0
SPLINE
5
E3
100
AcDbEntity
8
1
62
256
6
ByLayer
370
18
48
1
60
0
100
AcDbSpline
70
4
71
3
72
22
73
18
40
0
40
0
40
0
40
0
40
0.249999999999998
40
0.249999999999998
40
0.374999999999998
40
0.374999999999998
40
0.437499999999998
40
0.437499999999998
40
0.499999999999998
40
0.499999999999998
40
0.749999999999999
40
0.749999999999999
40
0.875
40
0.875
40
0.9375
40
0.9375
40
1
40
1
40
1
40
1
41
1
10
37.9916607951868
20
-1.96862879517312
30
0
41
1
10
37.9868829505048
20
-1.92803394341413
30
0
41
1
10
37.9821858785975
20
-1.87770718193806
30
0
41
1
10
37.9752345269663
20
-1.78819203701289
30
0
41
1
10
37.9729713214927
20
-1.75602039673777
30
0
41
1
10
37.9697204772891
20
-1.70424053710568
30
0
41
1
10
37.968660081177
20
-1.6863922862843
30
0
41
1
10
37.966584484187
20
-1.64949900319138
30
0
41
1
10
37.9655669823371
20
-1.63040446267715
30
0
41
1
10
37.9606031414306
20
-1.53268229041694
30
0
41
1
10
37.9569450875935
20
-1.44717259187394
30
0
41
1
10
37.9518250392805
20
-1.3082394974239
30
0
41
1
10
37.9501833257573
20
-1.26014104687118
30
0
41
1
10
37.947823433683
20
-1.18526375183143
30
0
41
1
10
37.9470539817065
20
-1.15984907046556
30
0
41
1
10
37.9455506390519
20
-1.10809205160621
30
0
41
1
10
37.9448175706958
20
-1.08177085291331
30
0
41
1
10
37.9441096068573
20
-1.05524944046255
30
0
0
SPLINE
5
E4
100
AcDbEntity
8
1
62
256
6
ByLayer
370
13
48
1
60
0
100
AcDbSpline
70
4
71
3
72
10
73
6
40
0
40
0
40
0
40
0
40
0.259027485641821
40
0.604457334909066
40
1
40
1
40
1
40
1
41
1
10
38.1837954205216
20
-2.03449552528176
30
0
41
1
10
38.1755282405743
20
-2.00292082506556
30
0
41
1
10
38.1562292904107
20
-1.89916092917585
30
0
41
1
10
38.1241196097213
20
-1.61321133160749
30
0
41
1
10
38.1014416451833
20
-1.33375853800982
30
0
41
1
10
38.0895711584238
20
-1.17227500346593
30
0
0
SPLINE
5
E5
100
AcDbEntity
8
1
62
256
6
ByLayer
370
18
48
1
60
0
100
AcDbSpline
70
4
71
3
72
23
73
19
40
0
40
0
40
0
40
0
40
0.124999999999999
40
0.124999999999999
40
0.187499999999998
40
0.187499999999998
40
0.218749999999998
40
0.218749999999998
40
0.249999999999998
40
0.374999999999998
40
0.374999999999998
40
0.499999999999998
40
0.499999999999998
40
0.624999999999999
40
0.624999999999999
40
0.749999999999999
40
0.749999999999999
40
1
40
1
40
1
40
1
41
1
10
38.1194663596524
20
-1.21332756380113
30
0
41
1
10
38.1258346685072
20
-1.27389007293488
30
0
41
1
10
38.1321989791133
20
-1.3326353745874
30
0
41
1
10
38.1417842954078
20
-1.41799036479205
30
0
41
1
10
38.1449859108226
20
-1.44598070735137
30
0
41
1
10
38.1498035492332
20
-1.48726161613757
30
0
41
1
10
38.1514120832906
20
-1.50090493670055
30
0
41
1
10
38.1546171529073
20
-1.52780552029367
30
0
41
1
10
38.1626098497426
20
-1.59418650054531
30
0
41
1
10
38.1705251815376
20
-1.6562855640218
30
0
41
1
10
38.1830950345694
20
-1.75028666815589
30
0
41
1
10
38.1893078051078
20
-1.79459874063838
30
0
41
1
10
38.2015780676915
20
-1.8778032806226
30
0
41
1
10
38.2076405275665
20
-1.91672243262329
30
0
41
1
10
38.2198345499879
20
-1.98893365321533
30
0
41
1
10
38.2259161517172
20
-2.02171567772811
30
0
41
1
10
38.2443454998499
20
-2.11053452051843
30
0
41
1
10
38.2567560427849
20
-2.15707038056411
30
0
41
1
10
38.2692092069293
20
-2.19066749219229
30
0
0
SPLINE
5
E6
100
AcDbEntity
8
1
62
256
6
ByLayer
370
18
48
1
60
0
100
AcDbSpline
70
4
71
3
72
24
73
20
40
0
40
0
40
0
40
0
40
0.125
40
0.125
40
0.1875
40
0.1875
40
0.21875
40
0.21875
40
0.25
40
0.375000000000001
40
0.500000000000001
40
0.625000000000002
40
0.625000000000002
40
0.687500000000002
40
0.687500000000002
40
0.750000000000002
40
0.750000000000002
40
0.875000000000001
40
1
40
1
40
1
40
1
41
1
10
38.6145170422147
20
-2.42739880237147
30
0
41
1
10
38.6114777610992
20
-2.42306960821708
30
0
41
1
10
38.6084661692148
20
-2.41490413703687
30
0
41
1
10
38.6039180825583
20
-2.39675279644055
30
0
41
1
10
38.6023965025601
20
-2.38971651024579
30
0
41
1
10
38.6000923468805
20
-2.37764533149001
30
0
41
1
10
38.5993204594475
20
-2.37336686798611
30
0
41
1
10
38.5977756132107
20
-2.36435128057221
30
0
41
1
10
38.5939037034186
20
-2.34063520267455
30
0
41
1
10
38.5868357366776
20
-2.28750384654595
30
0
41
1
10
38.5772504752983
20
-2.19494025232703
30
0
41
1
10
38.5707761313637
20
-2.11868699689688
30
0
41
1
10
38.5658893680359
20
-2.05584916636329
30
0
41
1
10
38.5642648464972
20
-2.0340821355999
30
0
41
1
10
38.5610358556746
20
-1.98910150639992
30
0
41
1
10
38.5594293712967
20
-1.96586204275025
30
0
41
1
10
38.5546306404769
20
-1.89392764493985
30
0
41
1
10
38.5482884328399
20
-1.79211653423093
30
0
41
1
10
38.5420029487299
20
-1.67857029932631
30
0
41
1
10
38.5388531024381
20
-1.61878786651363
30
0
0
SPLINE
5
E7
100
AcDbEntity
8
1
62
256
6
ByLayer
370
13
48
1
60
0
100
AcDbSpline
70
4
71
3
72
9
73
5
40
0
40
0
40
0
40
0
40
0.171965432503372
40
1
40
1
40
1
40
1
41
1.04
10
44.417529349444
20
-2.09169172916949
30
0
41
1.04
10
44.412497896909
20
-2.09442314286459
30
0
41
1.04
10
44.3831433158398
20
-2.08162758057721
30
0
41
1.04
10
44.3530957365544
20
-1.89559730812302
30
0
41
1.04
10
44.3272015618354
20
-1.63039634998657
30
0
0
SPLINE
5
E8
100
AcDbEntity
8
1
62
256
6
ByLayer
370
13
48
1
60
0
100
AcDbSpline
70
4
71
3
72
9
73
5
40
0
40
0
40
0
40
0
40
0.15718614567163
40
1
40
1
40
1
40
1
41
1
10
43.791622511609
20
-2.05953817315449
30
0
41
1
10
43.786456140296
20
-2.04497683739856
30
0
41
1
10
43.7537851948502
20
-1.92128340581479
30
0
41
1
10
43.7227220025379
20
-1.60817264544144
30
0
41
1
10
43.6968931482255
20
-1.27020724091218
30
0
0
SPLINE
5
E9
100
AcDbEntity
8
1
62
256
6
ByLayer
370
13
48
1
60
0
100
AcDbSpline
70
4
71
3
72
9
73
5
40
0
40
0
40
0
40
0
40
0.0450930475590582
40
1
40
1
40
1
40
1
41
1.04
10
43.580919656145
20
-2.02389089374271
30
0
41
1.04
10
43.579440362304
20
-2.01782678355225
30
0
41
1.04
10
43.5467038807894
20
-1.87454885117142
30
0
41
1.04
10
43.5155990792803
20
-1.5385182386737
30
0
41
1.04
10
43.4862092034005
20
-1.13158547925373
30
0
0
SPLINE
5
EA
100
AcDbEntity
8
1
62
256
6
ByLayer
370
18
48
1
60
0
100
AcDbSpline
70
4
71
3
72
23
73
19
40
0
40
0
40
0
40
0
40
0.125000000000003
40
0.125000000000003
40
0.250000000000006
40
0.250000000000006
40
0.312500000000007
40
0.312500000000007
40
0.343750000000008
40
0.343750000000008
40
0.375000000000009
40
0.500000000000007
40
0.625000000000005
40
0.750000000000004
40
0.750000000000004
40
0.875000000000002
40
0.875000000000002
40
1
40
1
40
1
40
1
41
1
10
45.9986589610767
20
1.1756505761287
30
0
41
1
10
46.0040377544841
20
1.11624063950873
30
0
41
1
10
46.0093100707622
20
1.0551802996859
30
0
41
1
10
46.0196624273095
20
0.929814501948954
30
0
41
1
10
46.0247419176617
20
0.86550824418012
30
0
41
1
10
46.0322693834271
20
0.766569097319717
30
0
41
1
10
46.0347646759699
20
0.733176114988339
30
0
41
1
10
46.0385037185578
20
0.682459001386718
30
0
41
1
10
46.0397510169506
20
0.665426889580374
30
0
41
1
10
46.0422362735078
20
0.631305847332527
30
0
41
1
10
46.0484318550268
20
0.545817890937485
30
0
41
1
10
46.0594392848042
20
0.390301214534674
30
0
41
1
10
46.0736873682755
20
0.179550809540785
30
0
41
1
10
46.0828897637705
20
0.0367795675308287
30
0
41
1
10
46.0919748165331
20
-0.107167665688564
30
0
41
1
10
46.0963993183616
20
-0.178739908303555
30
0
41
1
10
46.1050549560808
20
-0.320761562596886
30
0
41
1
10
46.1092819173583
20
-0.391267684278688
30
0
41
1
10
46.113423992945
20
-0.461262835958735
30
0
0
SPLINE
5
EB
100
AcDbEntity
8
1
62
256
6
ByLayer
370
13
48
1
60
0
100
AcDbSpline
70
4
71
3
72
10
73
6
40
0
40
0
40
0
40
0
40
0.0037273046551773
40
0.354752965016207
40
1
40
1
40
1
40
1
41
1
10
42.9504440617343
20
-1.838515039236
30
0
41
1
10
42.9503272981221
20
-1.83760300187245
30
0
41
1
10
42.9392134962166
20
-1.75056662264086
30
0
41
1
10
42.907721878937
20
-1.44310330499735
30
0
41
1
10
42.8764217676363
20
-0.996171620523313
30
0
41
1
10
42.8558263152796
20
-0.67627606848302
30
0
0
SPLINE
5
EC
100
AcDbEntity
8
1
62
256
6
ByLayer
370
18
48
1
60
0
100
AcDbSpline
70
4
71
3
72
28
73
24
40
0
40
0
40
0
40
0
40
0.125000000000002
40
0.125000000000002
40
0.250000000000004
40
0.250000000000004
40
0.281250000000004
40
0.281250000000004
40
0.312500000000004
40
0.375000000000005
40
0.375000000000005
40
0.500000000000005
40
0.625000000000006
40
0.625000000000006
40
0.656250000000005
40
0.656250000000005
40
0.687500000000005
40
0.687500000000005
40
0.750000000000004
40
0.750000000000004
40
0.875000000000002
40
0.875000000000002
40
1
40
1
40
1
40
1
41
1
10
39.9441944962532
20
0.0858222196794713
30
0
41
1
10
39.9398134572625
20
0.173254388701707
30
0
41
1
10
39.9353572838043
20
0.26033998418572
30
0
41
1
10
39.9263730927045
20
0.433820284097777
30
0
41
1
10
39.9218484509336
20
0.520215225602129
30
0
41
1
10
39.9161796963899
20
0.627763568581855
30
0
41
1
10
39.9150467051683
20
0.649221536779748
30
0
41
1
10
39.9127921477144
20
0.69185018213858
30
0
41
1
10
39.9094231169806
20
0.755443478020084
30
0
41
1
10
39.9060921867239
20
0.817999572928642
30
0
41
1
10
39.8994762332297
20
0.94174913776834
30
0
41
1
10
39.8907798964037
20
1.10312189049574
30
0
41
1
10
39.8822182366892
20
1.2572787484923
30
0
41
1
10
39.8768509501445
20
1.3513097322668
30
0
41
1
10
39.8757765982753
20
1.36999977684263
30
0
41
1
10
39.8736243266267
20
1.40714476862925
30
0
41
1
10
39.8725468478643
20
1.42559149556561
30
0
41
1
10
39.8693252454233
20
1.48025541601243
30
0
41
1
10
39.8671856854516
20
1.51590530564087
30
0
41
1
10
39.8607689110304
20
1.62052164561388
30
0
41
1
10
39.8564932531816
20
1.68716078391032
30
0
41
1
10
39.8478307950069
20
1.81431494458047
30
0
41
1
10
39.8434330342378
20
1.87482966054179
30
0
41
1
10
39.8389550301096
20
1.93222898763682
30
0
0
SPLINE
5
ED
100
AcDbEntity
8
1
62
256
6
ByLayer
370
13
48
1
60
0
100
AcDbSpline
70
4
71
3
72
9
73
5
40
0
40
0
40
0
40
0
40
0.109126374263266
40
1
40
1
40
1
40
1
41
1.04
10
40.2162110953687
20
-0.0451741671121489
30
0
41
1.04
10
40.2128444666617
20
0.0101199266265549
30
0
41
1.04
10
40.1819456173719
20
0.518045400188673
30
0
41
1.04
10
40.1505700747858
20
1.02396981539213
30
0
41
1.04
10
40.1218205680863
20
1.37916609401747
30
0
0
SPLINE
5
EE
100
AcDbEntity
8
1
62
256
6
ByLayer
370
13
48
1
60
0
100
AcDbSpline
70
4
71
3
72
11
73
7
40
0
40
0
40
0
40
0
40
0.191762673441167
40
0.536647549786561
40
0.888057716362518
40
1
40
1
40
1
40
1
41
1
10
42.1092270454276
20
-1.42468078652809
30
0
41
1
10
42.1031646166805
20
-1.35195844663716
30
0
41
1
10
42.0861334544886
20
-1.13412357048926
30
0
41
1
10
42.0575698884298
20
-0.71280918170001
30
0
41
1
10
42.0322396619714
20
-0.300317753717479
30
0
41
1
10
42.0181188461052
20
-0.068739934989992
30
0
41
1
10
42.0147291619178
20
-0.0131831486160365
30
0
0
SPLINE
5
EF
100
AcDbEntity
8
1
62
256
6
ByLayer
370
13
48
1
60
0
100
AcDbSpline
70
4
71
3
72
11
73
7
40
0
40
0
40
0
40
0
40
0.0757461645397014
40
0.418211616839727
40
0.767156583387751
40
1
40
1
40
1
40
1
41
1.04
10
41.8985129938325
20
-1.29666416051811
30
0
41
1.04
10
41.8960893607164
20
-1.26547783712603
30
0
41
1.04
10
41.8826843820777
20
-1.08901558784154
30
0
41
1.04
10
41.8578352067675
20
-0.723488098877457
30
0
41
1.04
10
41.8286643186533
20
-0.249031226153972
30
0
41
1.04
10
41.81094298007
20
0.0421746238407158
30
0
41
1.04
10
41.8039385283071
20
0.156558042401045
30
0
0
SPLINE
5
F0
100
AcDbEntity
8
1
62
256
6
ByLayer
370
13
48
1
60
0
100
AcDbSpline
70
4
71
3
72
9
73
5
40
0
40
0
40
0
40
0
40
0.226941780892198
40
1
40
1
40
1
40
1
41
1
10
40.4269496869583
20
-0.214466459574368
30
0
41
1
10
40.4199317311534
20
-0.0997651452906609
30
0
41
1
10
40.3889155126086
20
0.41135079623561
30
0
41
1
10
40.3574175114665
20
0.919535952800743
30
0
41
1
10
40.3325007014744
20
1.24815132187931
30
0
0
SPLINE
5
F1
100
AcDbEntity
8
1
62
256
6
ByLayer
370
13
48
1
60
0
100
AcDbSpline
70
4
71
3
72
9
73
5
40
0
40
0
40
0
40
0
40
0.238399196571262
40
1
40
1
40
1
40
1
41
1.04
10
42.7396774386073
20
-1.75151604223137
30
0
41
1.04
10
42.7322150584089
20
-1.68448608789874
30
0
41
1.04
10
42.7008450400959
20
-1.36429903151122
30
0
41
1.04
10
42.6695494545023
20
-0.902607036108148
30
0
41
1.04
10
42.6451805872037
20
-0.515290276564784
30
0
0
SPLINE
5
F2
100
AcDbEntity
8
1
62
256
6
ByLayer
370
13
48
1
60
0
100
AcDbSpline
70
4
71
3
72
10
73
6
40
0
40
0
40
0
40
0
40
0.0340423062105311
40
0.738048345219202
40
1
40
1
40
1
40
1
41
1
10
41.2680797836857
20
-0.863965877189116
30
0
41
1
10
41.2670381977991
20
-0.848348035952228
30
0
41
1
10
41.2444300407828
20
-0.50749959865729
30
0
41
1
10
41.2130697231932
20
0.0172055254612928
30
0
41
1
10
41.182058478751
20
0.51858740964704
30
0
41
1
10
41.1737094705855
20
0.649307818899558
30
0
0
SPLINE
5
F3
100
AcDbEntity
8
1
62
256
6
ByLayer
370
13
48
1
60
0
100
AcDbSpline
70
4
71
3
72
9
73
5
40
0
40
0
40
0
40
0
40
0.0612740844685556
40
1
40
1
40
1
40
1
41
1
10
39.5857691661919
20
0.458838721364088
30
0
41
1
10
39.5837865645422
20
0.490652019411158
30
0
41
1
10
39.5515094289923
20
1.00565637659261
30
0
41
1
10
39.5206028612711
20
1.44064248231243
30
0
41
1
10
39.4914722731966
20
1.71561492069935
30
0
0
SPLINE
5
F4
100
AcDbEntity
8
1
62
256
6
ByLayer
370
18
48
1
60
0
100
AcDbSpline
70
4
71
3
72
25
73
21
40
0
40
0
40
0
40
0
40
0.124999999999999
40
0.249999999999998
40
0.249999999999998
40
0.312499999999997
40
0.312499999999997
40
0.374999999999996
40
0.374999999999996
40
0.499999999999995
40
0.624999999999994
40
0.624999999999994
40
0.656249999999995
40
0.656249999999995
40
0.687499999999995
40
0.687499999999995
40
0.749999999999996
40
0.749999999999996
40
0.874999999999998
40
1
40
1
40
1
40
1
41
1
10
39.7661665228579
20
1.97806348642823
30
0
41
1
10
39.7705637454266
20
1.92281737953832
30
0
41
1
10
39.7792756119019
20
1.80559783756726
30
0
41
1
10
39.7879179927029
20
1.67488681230211
30
0
41
1
10
39.7944289590608
20
1.57161455009492
30
0
41
1
10
39.7965905437125
20
1.53653336870761
30
0
41
1
10
39.8008919681403
20
1.46533450823304
30
0
41
1
10
39.8030343508382
20
1.42917659930808
30
0
41
1
10
39.8094541989625
20
1.31905263730462
30
0
41
1
10
39.8179943969654
20
1.16782833477322
30
0
41
1
10
39.8266858502822
20
1.00787717147668
30
0
41
1
10
39.8322214752159
20
0.905110500843563
30
0
41
1
10
39.8333337506049
20
0.884416947463677
30
0
41
1
10
39.8355698919809
20
0.842746157693
30
0
41
1
10
39.8366926196442
20
0.821790076891091
30
0
41
1
10
39.8400603798125
20
0.758858294534718
30
0
41
1
10
39.8423111724935
20
0.716707355548181
30
0
41
1
10
39.8490888968004
20
0.589676962175389
30
0
41
1
10
39.8581723034717
20
0.418764909761279
30
0
41
1
10
39.8670915225721
20
0.244806703061158
30
0
41
1
10
39.8715021928116
20
0.157051946337248
30
0
0
SPLINE
5
F5
100
AcDbEntity
8
1
62
256
6
ByLayer
370
18
48
1
60
0
100
AcDbSpline
70
4
71
3
72
27
73
23
40
0
40
0
40
0
40
0
40
0.124999999999999
40
0.124999999999999
40
0.187499999999998
40
0.187499999999998
40
0.218749999999998
40
0.218749999999998
40
0.249999999999998
40
0.374999999999997
40
0.499999999999995
40
0.499999999999995
40
0.562499999999995
40
0.593749999999995
40
0.593749999999995
40
0.624999999999995
40
0.624999999999995
40
0.749999999999997
40
0.749999999999997
40
0.874999999999998
40
0.874999999999998
40
1
40
1
40
1
40
1
41
1
10
41.4482446163124
20
0.610644990578493
30
0
41
1
10
41.4525663031374
20
0.525706062709759
30
0
41
1
10
41.4568231341313
20
0.439703281342787
30
0
41
1
10
41.4632883065097
20
0.309087958494956
30
0
41
1
10
41.4654633354454
20
0.265280806085428
30
0
41
1
10
41.4687610671617
20
0.199159288818862
30
0
41
1
10
41.4698673473564
20
0.177017514246131
30
0
41
1
10
41.472079983751
20
0.132795723723831
30
0
41
1
10
41.4776125642497
20
0.0223862430083273
30
0
41
1
10
41.4875575689966
20
-0.175067817333968
30
0
41
1
10
41.4963280401672
20
-0.348806359476327
30
0
41
1
10
41.5028939381382
20
-0.478439141692832
30
0
41
1
10
41.5061744568995
20
-0.543087395408463
30
0
41
1
10
41.5094598599586
20
-0.607479124295764
30
0
41
1
10
41.5116526382745
20
-0.650349208189738
30
0
41
1
10
41.5127518288989
20
-0.67178581793317
30
0
41
1
10
41.5182369620594
20
-0.778413965572042
30
0
41
1
10
41.522577754411
20
-0.861743696938902
30
0
41
1
10
41.5313050914285
20
-1.02458414630217
30
0
41
1
10
41.535709431794
20
-1.10409374374751
30
0
41
1
10
41.5445076426996
20
-1.25930415364289
30
0
41
1
10
41.548896211369
20
-1.33500544773992
30
0
41
1
10
41.5532829044629
20
-1.40874442593378
30
0
0
SPLINE
5
F6
100
AcDbEntity
8
1
62
256
6
ByLayer
370
18
48
1
60
0
100
AcDbSpline
70
4
71
3
72
27
73
23
40
0
40
0
40
0
40
0
40
0.0624999999999998
40
0.0624999999999998
40
0.125
40
0.125
40
0.25
40
0.375
40
0.375
40
0.4375
40
0.4375
40
0.5
40
0.5
40
0.625000000000001
40
0.625000000000001
40
0.750000000000001
40
0.750000000000001
40
0.8125
40
0.8125
40
0.875
40
0.875
40
1
40
1
40
1
40
1
41
1
10
40.6069772655604
20
1.36706988230984
30
0
41
1
10
40.6092427063184
20
1.32975316184451
30
0
41
1
10
40.611515071379
20
1.29161206432065
30
0
41
1
10
40.6160131605623
20
1.21467646802751
30
0
41
1
10
40.6182448659891
20
1.17578577519419
30
0
41
1
10
40.6248903936175
20
1.05786733235823
30
0
41
1
10
40.6336165436469
20
0.897325390650963
30
0
41
1
10
40.6421568815745
20
0.730226561215574
30
0
41
1
10
40.6485610060115
20
0.602395719266582
30
0
41
1
10
40.6506965731075
20
0.559354098716966
30
0
41
1
10
40.6549828708207
20
0.472467115214045
30
0
41
1
10
40.6571159380856
20
0.428981359313809
30
0
41
1
10
40.6635160079489
20
0.298401605795846
30
0
41
1
10
40.6677865229275
20
0.211185571765952
30
0
41
1
10
40.6765064015522
20
0.0364428278023468
30
0
41
1
10
40.680938139119
20
-0.051084763371847
30
0
41
1
10
40.6876444660789
20
-0.182615762717887
30
0
41
1
10
40.6898899361935
20
-0.226499432061018
30
0
41
1
10
40.6943961977759
20
-0.314348488450889
30
0
41
1
10
40.6966623485706
20
-0.358417836135231
30
0
41
1
10
40.7034071165133
20
-0.489321992966552
30
0
41
1
10
40.7078489620672
20
-0.575217332985801
30
0
41
1
10
40.7122478123106
20
-0.659776726298361
30
0
0
SPLINE
5
F7
100
AcDbEntity
8
1
62
256
6
ByLayer
370
18
48
1
60
0
100
AcDbSpline
70
4
71
3
72
30
73
26
40
0
40
0
40
0
40
0
40
0.0624999999999996
40
0.0624999999999996
40
0.0937499999999994
40
0.0937499999999994
40
0.124999999999999
40
0.25
40
0.375
40
0.375
40
0.4375
40
0.46875
40
0.46875
40
0.499999999999999
40
0.499999999999999
40
0.625
40
0.625
40
0.75
40
0.75
40
0.875000000000001
40
0.875000000000001
40
0.90625
40
0.90625
40
0.9375
40
1
40
1
40
1
40
1
41
1
10
40.7849709149959
20
-0.728444038788012
30
0
41
1
10
40.7827637051352
20
-0.686310002140743
30
0
41
1
10
40.7805518224934
20
-0.64373540673887
30
0
41
1
10
40.7772263970902
20
-0.579198856622469
30
0
41
1
10
40.7761160564114
20
-0.557562820519593
30
0
41
1
10
40.773905270293
20
-0.514317610894977
30
0
41
1
10
40.7683947231382
20
-0.406118636034165
30
0
41
1
10
40.7586152673798
20
-0.210599055766949
30
0
41
1
10
40.749970319083
20
-0.0357532502447953
30
0
41
1
10
40.7434217982359
20
0.0957742693365446
30
0
41
1
10
40.740130964177
20
0.161636494130363
30
0
41
1
10
40.7367968050687
20
0.227647927361289
30
0
41
1
10
40.7345621791881
20
0.271689000168266
30
0
41
1
10
40.7334373203549
20
0.293748193449829
30
0
41
1
10
40.727820007698
20
0.403509738455853
30
0
41
1
10
40.7233414619649
20
0.490038519551831
30
0
41
1
10
40.7145410609608
20
0.660622426807493
30
0
41
1
10
40.7102187517144
20
0.744677255652618
30
0
41
1
10
40.7016042156831
20
0.910306551867876
30
0
41
1
10
40.6972832785913
20
0.99187986894853
30
0
41
1
10
40.6917923185758
20
1.0922412639336
30
0
41
1
10
40.6906888710153
20
1.11225911520586
30
0
41
1
10
40.6884854641156
20
1.15192421971915
30
0
41
1
10
40.6851829328746
20
1.21091573211243
30
0
41
1
10
40.6818864717114
20
1.2684070349126
30
0
41
1
10
40.6796903949369
20
1.30607865895112
30
0
0
SPLINE
5
F8
100
AcDbEntity
8
1
62
256
6
ByLayer
370
13
48
1
60
0
100
AcDbSpline
70
4
71
3
72
10
73
6
40
0
40
0
40
0
40
0
40
0.621209123239865
40
0.967152390661587
40
1
40
1
40
1
40
1
41
1.04
10
41.057341636924
20
-0.706615112431691
30
0
41
1.04
10
41.038267687561
20
-0.411311047352788
30
0
41
1.04
10
41.0079998032082
20
0.0932494640258651
30
0
41
1.04
10
40.9759652656115
20
0.610359772076171
30
0
41
1.04
10
40.9640310266157
20
0.79232407690914
30
0
41
1.04
10
40.9629975813052
20
0.807996667381653
30
0
0
SPLINE
5
F9
100
AcDbEntity
8
1
62
256
6
ByLayer
370
18
48
1
60
0
100
AcDbSpline
70
4
71
3
72
23
73
19
40
0
40
0
40
0
40
0
40
0.125
40
0.125
40
0.249999999999999
40
0.374999999999999
40
0.499999999999998
40
0.499999999999998
40
0.562499999999998
40
0.562499999999998
40
0.624999999999998
40
0.624999999999998
40
0.749999999999999
40
0.874999999999999
40
0.874999999999999
40
0.9375
40
0.9375
40
1
40
1
40
1
40
1
41
1
10
42.4677939909889
20
-2.05506943641495
30
0
41
1
10
42.4633975300875
20
-2.00317853717729
30
0
41
1
10
42.4589648072048
20
-1.94745801239799
30
0
41
1
10
42.4499731316228
20
-1.82826006440149
30
0
41
1
10
42.4409864862842
20
-1.70329597215959
30
0
41
1
10
42.4276401929784
20
-1.49915774639862
30
0
41
1
10
42.4188433156977
20
-1.35197793455774
30
0
41
1
10
42.4122565975851
20
-1.23731783169345
30
0
41
1
10
42.4100574526193
20
-1.198289246559
30
0
41
1
10
42.40570162903
20
-1.11964079466421
30
0
41
1
10
42.403540284897
20
-1.07994328454262
30
0
41
1
10
42.3970898473183
20
-0.959751861367721
30
0
41
1
10
42.3885800755443
20
-0.796571811195093
30
0
41
1
10
42.3800507029699
20
-0.627623819667122
30
0
41
1
10
42.373559933912
20
-0.498711974391796
30
0
41
1
10
42.3713806190283
20
-0.455373838564014
30
0
41
1
10
42.3669752150695
20
-0.367947045010311
30
0
41
1
10
42.3647641675334
20
-0.324158501669672
30
0
41
1
10
42.3625445858394
20
-0.280423260525026
30
0
0
SPLINE
5
FA
100
AcDbEntity
8
1
62
256
6
ByLayer
370
18
48
1
60
0
100
AcDbSpline
70
4
71
3
72
29
73
25
40
0
40
0
40
0
40
0
40
0.124999999999999
40
0.124999999999999
40
0.249999999999998
40
0.249999999999998
40
0.374999999999997
40
0.374999999999997
40
0.406249999999997
40
0.406249999999997
40
0.437499999999996
40
0.499999999999997
40
0.499999999999997
40
0.625
40
0.625
40
0.750000000000002
40
0.750000000000002
40
0.781250000000002
40
0.781250000000002
40
0.812500000000001
40
0.812500000000001
40
0.875000000000001
40
0.875000000000001
40
1
40
1
40
1
40
1
41
1
10
42.2892933206681
20
-0.208789990665764
30
0
41
1
10
42.2937927954431
20
-0.296970417009078
30
0
41
1
10
42.2982611096472
20
-0.384076335179174
30
0
41
1
10
42.3070722843657
20
-0.556208160774077
30
0
41
1
10
42.311416672828
20
-0.641233791870775
30
0
41
1
10
42.320077792099
20
-0.809197722912558
30
0
41
1
10
42.3244162418258
20
-0.892135173561712
30
0
41
1
10
42.3298851122627
20
-0.994455824382612
30
0
41
1
10
42.3309808636268
20
-1.01486612162176
30
0
41
1
10
42.3331618065134
20
-1.05531542762415
30
0
41
1
10
42.3364220630209
20
-1.11551697412699
30
0
41
1
10
42.3396499434845
20
-1.17431787268913
30
0
41
1
10
42.3460815579572
20
-1.29008072906376
30
0
41
1
10
42.3503314632526
20
-1.36480898700103
30
0
41
1
10
42.3589920144392
20
-1.50939917784319
30
0
41
1
10
42.3634152391636
20
-1.57926093855997
30
0
41
1
10
42.3690277010275
20
-1.66347387650293
30
0
41
1
10
42.3701543799053
20
-1.68016035040958
30
0
41
1
10
42.3724154073827
20
-1.71321759817357
30
0
41
1
10
42.3735510162506
20
-1.72960587134176
30
0
41
1
10
42.3769495104926
20
-1.77802433180656
30
0
41
1
10
42.3792090232151
20
-1.80938392474457
30
0
41
1
10
42.385962886113
20
-1.90076018563613
30
0
41
1
10
42.3904314677951
20
-1.95808143669865
30
0
41
1
10
42.3948614638155
20
-2.01186412316352
30
0
0
SPLINE
5
FB
100
AcDbEntity
8
1
62
256
6
ByLayer
370
18
48
1
60
0
100
AcDbSpline
70
4
71
3
72
8
73
4
40
0
40
0
40
0
40
0
40
1
40
1
40
1
40
1
41
1
10
45.8686545528705
20
2.09503421688089
30
0
41
1
10
45.8307423706868
20
2.01989374113029
30
0
41
1
10
45.7926367158766
20
1.94411648766359
30
0
41
1
10
45.7542753362699
20
1.8677327527428
30
0
0
SPLINE
5
FC
100
AcDbEntity
8
1
62
256
6
ByLayer
370
18
48
1
60
0
100
AcDbSpline
70
4
71
3
72
26
73
22
40
0
40
0
40
0
40
0
40
0.124999999999868
40
0.124999999999868
40
0.249999999999735
40
0.249999999999735
40
0.374999999999603
40
0.374999999999603
40
0.437499999999588
40
0.437499999999588
40
0.499999999999573
40
0.499999999999573
40
0.624999999999543
40
0.624999999999543
40
0.687499999999583
40
0.687499999999583
40
0.749999999999623
40
0.749999999999623
40
0.874999999999812
40
0.874999999999812
40
1
40
1
40
1
40
1
41
1
10
45.7542753362686
20
1.86773275274072
30
0
41
1
10
45.748631905627
20
1.85649576610078
30
0
41
1
10
45.7420773666241
20
1.84616951292827
30
0
41
1
10
45.7275350784018
20
1.8269384000462
30
0
41
1
10
45.7194692743766
20
1.81798809283734
30
0
41
1
10
45.7025152569965
20
1.80193846122563
30
0
41
1
10
45.6935913585573
20
1.79477386118208
30
0
41
1
10
45.6795635866453
20
1.78529019814843
30
0
41
1
10
45.6747751327162
20
1.78234221970681
30
0
41
1
10
45.6651513956006
20
1.77698087597651
30
0
41
1
10
45.6602956569524
20
1.77455269911957
30
0
41
1
10
45.6456016451695
20
1.76803628775411
30
0
41
1
10
45.6356386774457
20
1.76470103546046
30
0
41
1
10
45.6204304891294
20
1.76147724806216
30
0
41
1
10
45.6153165743014
20
1.76070798465184
30
0
41
1
10
45.6052438078987
20
1.75987283344162
30
0
41
1
10
45.6002553486916
20
1.75979899410939
30
0
41
1
10
45.5854581026219
20
1.76072558352334
30
0
41
1
10
45.5757216198325
20
1.76291636601815
30
0
41
1
10
45.5580865776679
20
1.77106778915643
30
0
41
1
10
45.5499916584093
20
1.77713208527737
30
0
41
1
10
45.5435575388565
20
1.78531798243603
30
0
0
SPLINE
5
FD
100
AcDbEntity
8
1
62
256
6
ByLayer
370
18
48
1
60
0
100
AcDbSpline
70
4
71
3
72
8
73
4
40
0
40
0
40
0
40
0
40
1
40
1
40
1
40
1
41
1
10
45.5435575388565
20
1.78531798243583
30
0
41
1
10
45.4843249949504
20
1.86067740168272
30
0
41
1
10
45.4254297926029
20
1.93128599063704
30
0
41
1
10
45.3670759534935
20
1.99694615577081
30
0
0
SPLINE
5
FE
100
AcDbEntity
8
1
62
256
6
ByLayer
370
18
48
1
60
0
100
AcDbSpline
70
4
71
3
72
8
73
4
40
0
40
0
40
0
40
0
40
1
40
1
40
1
40
1
41
1
10
45.3670759534935
20
1.99694615577079
30
0
41
1
10
45.2879433868753
20
1.97422832592207
30
0
41
1
10
45.2094188727818
20
1.94823897809596
30
0
41
1
10
45.1313134436894
20
1.91905053474011
30
0
0
SPLINE
5
FF
100
AcDbEntity
8
1
62
256
6
ByLayer
370
18
48
1
60
0
100
AcDbSpline
70
4
71
3
72
10
73
6
40
0
40
0
40
0
40
0
40
0.815431881366698
40
0.815431881366698
40
1
40
1
40
1
40
1
41
1
10
45.1313134436895
20
1.91905053473994
30
0
41
1
10
45.0953303883567
20
1.84397511710901
30
0
41
1
10
45.0591187080136
20
1.76887028729638
30
0
41
1
10
45.014510686608
20
1.67711940756129
30
0
41
1
10
45.0062691859754
20
1.66019991597926
30
0
41
1
10
44.9980185779293
20
1.64329567052349
30
0
0
SPLINE
5
100
100
AcDbEntity
8
1
62
256
6
ByLayer
370
18
48
1
60
0
100
AcDbSpline
70
4
71
3
72
16
73
12
40
0
40
0
40
0
40
0
40
0.151526127405445
40
0.151526127405445
40
0.292938439504496
40
0.292938439504496
40
0.434350751603547
40
0.434350751603547
40
0.717175375801773
40
0.717175375801773
40
1
40
1
40
1
40
1
41
1
10
38.9123230239547
20
-2.03287082488163
30
0
41
1
10
38.9069913806101
20
-2.03327849960979
30
0
41
1
10
38.9016105652939
20
-2.03401191993362
30
0
41
1
10
38.8911104631173
20
-2.0361187001333
30
0
41
1
10
38.8859996285954
20
-2.03745444240792
30
0
41
1
10
38.8759321813695
20
-2.04076133049179
30
0
41
1
10
38.8709461709987
20
-2.04273680852941
30
0
41
1
10
38.8561556739435
20
-2.04974420757185
30
0
41
1
10
38.8464241302444
20
-2.05593832742463
30
0
41
1
10
38.8287927100915
20
-2.07138859193339
30
0
41
1
10
38.8206962059236
20
-2.08083124892289
30
0
41
1
10
38.8142573606037
20
-2.09174155748366
30
0
0
SPLINE
5
101
100
AcDbEntity
8
1
62
256
6
ByLayer
370
18
48
1
60
0
100
AcDbSpline
70
4
71
3
72
8
73
4
40
0
40
0
40
0
40
0
40
1
40
1
40
1
40
1
41
1
10
38.814257360601
20
-2.09174155748826
30
0
41
1
10
38.7471313718917
20
-2.2054832631764
30
0
41
1
10
38.6804451825663
20
-2.31771728944994
30
0
41
1
10
38.6145170422147
20
-2.42739880237153
30
0
0
SPLINE
5
102
100
AcDbEntity
8
1
62
256
6
ByLayer
370
18
48
1
60
0
100
AcDbSpline
70
4
71
3
72
8
73
4
40
0
40
0
40
0
40
0
40
1
40
1
40
1
40
1
41
1
10
38.6145170422147
20
-2.42739880237147
30
0
41
1
10
38.5007068487728
20
-2.35775925362714
30
0
41
1
10
38.3860469248029
20
-2.27872233465686
30
0
41
1
10
38.2692092069294
20
-2.19066749219229
30
0
0
SPLINE
5
103
100
AcDbEntity
8
1
62
256
6
ByLayer
370
18
48
1
60
0
100
AcDbSpline
70
4
71
3
72
8
73
4
40
0
40
0
40
0
40
0
40
1
40
1
40
1
40
1
41
1
10
38.2692092069293
20
-2.19066749219229
30
0
41
1
10
38.2408677832378
20
-2.13932989001802
30
0
41
1
10
38.2124058053742
20
-2.08727003396282
30
0
41
1
10
38.1837954205216
20
-2.03449552528176
30
0
0
SPLINE
5
104
100
AcDbEntity
8
1
62
256
6
ByLayer
370
18
48
1
60
0
100
AcDbSpline
70
4
71
3
72
26
73
22
40
0
40
0
40
0
40
0
40
0.124999999999969
40
0.124999999999969
40
0.249999999999939
40
0.249999999999939
40
0.374999999999909
40
0.374999999999909
40
0.499999999999878
40
0.499999999999878
40
0.624999999999848
40
0.624999999999848
40
0.687499999999863
40
0.687499999999863
40
0.749999999999879
40
0.749999999999879
40
0.874999999999911
40
0.874999999999911
40
0.937499999999955
40
0.937499999999955
40
1
40
1
40
1
40
1
41
1
10
38.1837954205216
20
-2.03449552528176
30
0
41
1
10
38.1787228560672
20
-2.02513870962932
30
0
41
1
10
38.1729109597965
20
-2.01665736979712
30
0
41
1
10
38.1601080289068
20
-2.00107641985647
30
0
41
1
10
38.1530527450339
20
-1.99393646349446
30
0
41
1
10
38.1381457511337
20
-1.98122054474783
30
0
41
1
10
38.130321888887
20
-1.97564844732875
30
0
41
1
10
38.1139874748379
20
-1.96598977174327
30
0
41
1
10
38.1054139724182
20
-1.96188918799689
30
0
41
1
10
38.0880682312201
20
-1.95545623512558
30
0
41
1
10
38.0792575108406
20
-1.95308758985414
30
0
41
1
10
38.0658402795448
20
-1.95090427542459
30
0
41
1
10
38.0613341066717
20
-1.95040656256691
30
0
41
1
10
38.0522516547696
20
-1.94991586234107
30
0
41
1
10
38.0476583021454
20
-1.94992603365026
30
0
41
1
10
38.0340499693693
20
-1.95079078678054
30
0
41
1
10
38.0251274289897
20
-1.95244941528472
30
0
41
1
10
38.0120460578063
20
-1.95695247342513
30
0
41
1
10
38.0077306646024
20
-1.9588032034099
30
0
41
1
10
37.9994596432358
20
-1.96317741955829
30
0
41
1
10
37.9954746050742
20
-1.96570827228984
30
0
41
1
10
37.9916607951868
20
-1.96862879517312
30
0
0
SPLINE
5
105
100
AcDbEntity
8
1
62
256
6
ByLayer
370
18
48
1
60
0
100
AcDbSpline
70
4
71
3
72
8
73
4
40
0
40
0
40
0
40
0
40
1
40
1
40
1
40
1
41
1
10
37.9916607951868
20
-1.96862879517312
30
0
41
1
10
37.9511867914837
20
-1.93450502676876
30
0
41
1
10
37.9105169184631
20
-1.89949486674337
30
0
41
1
10
37.8696503280903
20
-1.8637110094036
30
0
0
SPLINE
5
106
100
AcDbEntity
8
1
62
256
6
ByLayer
370
18
48
1
60
0
100
AcDbSpline
70
4
71
3
72
8
73
4
40
0
40
0
40
0
40
0
40
1
40
1
40
1
40
1
41
1
10
45.9397805285045
20
1.15011640281162
30
0
41
1
10
45.9594687360218
20
1.15934005019929
30
0
41
1
10
45.9790915430607
20
1.1678471471979
30
0
41
1
10
45.9986589610767
20
1.1756505761287
30
0
0
SPLINE
5
107
100
AcDbEntity
8
1
62
256
6
ByLayer
370
18
48
1
60
0
100
AcDbSpline
70
4
71
3
72
10
73
6
40
0
40
0
40
0
40
0
40
0.5
40
0.5
40
1
40
1
40
1
40
1
41
1
10
44.4220082151014
20
-2.08795783392256
30
0
41
1
10
44.3761350987681
20
-2.16649940291222
30
0
41
1
10
44.3304808581403
20
-2.24455925197037
30
0
41
1
10
44.2397315720766
20
-2.39916050501873
30
0
41
1
10
44.1946939767262
20
-2.47560182125261
30
0
41
1
10
44.1499537759004
20
-2.55104608721103
30
0
0
SPLINE
5
108
100
AcDbEntity
8
1
62
256
6
ByLayer
370
18
48
1
60
0
100
AcDbSpline
70
4
71
3
72
8
73
4
40
0
40
0
40
0
40
0
40
1
40
1
40
1
40
1
41
1
10
43.9301724275225
20
-2.30288086100407
30
0
41
1
10
43.8842936447803
20
-2.2238556622724
30
0
41
1
10
43.8381501215421
20
-2.14274227834181
30
0
41
1
10
43.7916225116093
20
-2.059538173155
30
0
0
SPLINE
5
109
100
AcDbEntity
8
1
62
256
6
ByLayer
370
18
48
1
60
0
100
AcDbSpline
70
4
71
3
72
26
73
22
40
0
40
0
40
0
40
0
40
0.124999999999974
40
0.124999999999974
40
0.249999999999947
40
0.249999999999947
40
0.374999999999921
40
0.374999999999921
40
0.437499999999907
40
0.437499999999907
40
0.499999999999893
40
0.499999999999893
40
0.624999999999973
40
0.624999999999973
40
0.687500000000013
40
0.687500000000013
40
0.750000000000053
40
0.750000000000053
40
0.875000000000027
40
0.875000000000027
40
1
40
1
40
1
40
1
41
1
10
43.7916225116069
20
-2.05953817315077
30
0
41
1
10
43.785973775539
20
-2.04943668651506
30
0
41
1
10
43.7794140165087
20
-2.04045288534562
30
0
41
1
10
43.7648633182192
20
-2.02421948261485
30
0
41
1
10
43.7567941123917
20
-2.01694123670364
30
0
41
1
10
43.7398362299482
20
-2.00442254651591
30
0
41
1
10
43.7309118489843
20
-1.99912399806107
30
0
41
1
10
43.7168847922222
20
-1.99259294152802
30
0
41
1
10
43.7120975838769
20
-1.99065638447865
30
0
41
1
10
43.7024763970427
20
-1.9873362240981
30
0
41
1
10
43.6976219384921
20
-1.9859421325495
30
0
41
1
10
43.6829314530873
20
-1.98257207514987
30
0
41
1
10
43.6729703134677
20
-1.98139218649152
30
0
41
1
10
43.6577642801389
20
-1.98151735686625
30
0
41
1
10
43.6526521831586
20
-1.98188409310717
30
0
41
1
10
43.6425827442039
20
-1.98331086277918
30
0
41
1
10
43.6375958597748
20
-1.98436946414157
30
0
41
1
10
43.6228033203208
20
-1.98870126615498
30
0
41
1
10
43.6130709019882
20
-1.99319598500253
30
0
41
1
10
43.5954434117979
20
-2.00570871161494
30
0
41
1
10
43.5873518561989
20
-2.01388028367873
30
0
41
1
10
43.580919656145
20
-2.0238908937427
30
0
0
SPLINE
5
10A
100
AcDbEntity
8
1
62
256
6
ByLayer
370
18
48
1
60
0
100
AcDbSpline
70
4
71
3
72
10
73
6
40
0
40
0
40
0
40
0
40
0.5
40
0.5
40
1
40
1
40
1
40
1
41
1
10
43.580919656145
20
-2.0238908937427
30
0
41
1
10
43.5350484213669
20
-2.09528155956014
30
0
41
1
10
43.4893942049259
20
-2.16488124706254
30
0
41
1
10
43.3986488995656
20
-2.30008411957073
30
0
41
1
10
43.3536174193095
20
-2.36559328325293
30
0
41
1
10
43.3088926956056
20
-2.42891382710411
30
0
0
SPLINE
5
10B
100
AcDbEntity
8
1
62
256
6
ByLayer
370
18
48
1
60
0
100
AcDbSpline
70
4
71
3
72
8
73
4
40
0
40
0
40
0
40
0
40
1
40
1
40
1
40
1
41
1
10
43.2361109356127
20
-2.40612610344857
30
0
41
1
10
43.2603707996038
20
-2.41403549069457
30
0
41
1
10
43.2846299757509
20
-2.42163200007408
30
0
41
1
10
43.3088926956056
20
-2.42891382710411
30
0
0
SPLINE
5
10C
100
AcDbEntity
8
1
62
256
6
ByLayer
370
18
48
1
60
0
100
AcDbSpline
70
4
71
3
72
10
73
6
40
0
40
0
40
0
40
0
40
0.5
40
0.5
40
1
40
1
40
1
40
1
41
1
10
43.2361109356143
20
-2.40612610343493
30
0
41
1
10
43.1891796088745
20
-2.31382066693416
30
0
41
1
10
43.1419387637303
20
-2.22024719058905
30
0
41
1
10
43.0466227785558
20
-2.03067833739882
30
0
41
1
10
42.9987128749514
20
-1.93501706327277
30
0
41
1
10
42.9504440617347
20
-1.83851503923881
30
0
0
SPLINE
5
10D
100
AcDbEntity
8
1
62
256
6
ByLayer
370
18
48
1
60
0
100
AcDbSpline
70
4
71
3
72
26
73
22
40
0
40
0
40
0
40
0
40
0.125000000000081
40
0.125000000000081
40
0.250000000000162
40
0.250000000000162
40
0.375000000000244
40
0.375000000000244
40
0.437500000000285
40
0.437500000000285
40
0.500000000000326
40
0.500000000000326
40
0.6250000000003
40
0.6250000000003
40
0.687500000000286
40
0.687500000000286
40
0.750000000000272
40
0.750000000000272
40
0.875000000000136
40
0.875000000000136
40
1
40
1
40
1
40
1
41
1
10
42.9504440617321
20
-1.83851503923373
30
0
41
1
10
42.9447900037063
20
-1.82721109353679
30
0
41
1
10
42.9382237304707
20
-1.81679694892233
30
0
41
1
10
42.9236605584486
20
-1.79735372219187
30
0
41
1
10
42.915585655471
20
-1.78827820137266
30
0
41
1
10
42.8986187971763
20
-1.77194876525476
30
0
41
1
10
42.8896909319068
20
-1.7646289073393
30
0
41
1
10
42.8756610410024
20
-1.75488736491729
30
0
41
1
10
42.870873595535
20
-1.75184979514802
30
0
41
1
10
42.8612521930273
20
-1.74630289489028
30
0
41
1
10
42.8563978060295
20
-1.74377846744611
30
0
41
1
10
42.841708057934
20
-1.73696278012878
30
0
41
1
10
42.8317480974029
20
-1.73341428279994
30
0
41
1
10
42.8165448513266
20
-1.7298459232176
30
0
41
1
10
42.8114330607132
20
-1.72895760387394
30
0
41
1
10
42.8013638477252
20
-1.72788033724729
30
0
41
1
10
42.7963769501506
20
-1.72768285094392
30
0
41
1
10
42.7815839209986
20
-1.72822976110515
30
0
41
1
10
42.7718494749588
20
-1.73015236587798
30
0
41
1
10
42.7542133460768
20
-1.73777502456082
30
0
41
1
10
42.7461153502115
20
-1.74357265302916
30
0
41
1
10
42.7396774386073
20
-1.7515160422314
30
0
0
SPLINE
5
10E
100
AcDbEntity
8
1
62
256
6
ByLayer
370
18
48
1
60
0
100
AcDbSpline
70
4
71
3
72
10
73
6
40
0
40
0
40
0
40
0
40
0.5
40
0.5
40
1
40
1
40
1
40
1
41
1
10
42.7396774386073
20
-1.7515160422314
30
0
41
1
10
42.6938415594772
20
-1.8080704421275
30
0
41
1
10
42.6482201901933
20
-1.86168788240144
30
0
41
1
10
42.5575264984623
20
-1.96295734006827
30
0
41
1
10
42.512511080103
20
-2.01054165274945
30
0
41
1
10
42.4677939909889
20
-2.05506943641495
30
0
0
SPLINE
5
10F
100
AcDbEntity
8
1
62
256
6
ByLayer
370
18
48
1
60
0
100
AcDbSpline
70
4
71
3
72
8
73
4
40
0
40
0
40
0
40
0
40
1
40
1
40
1
40
1
41
1
10
42.3948614638102
20
-2.0118641231642
30
0
41
1
10
42.4191697301999
20
-2.02652994475309
30
0
41
1
10
42.4434789905711
20
-2.04093276828283
30
0
41
1
10
42.4677939909889
20
-2.05506943641495
30
0
0
SPLINE
5
110
100
AcDbEntity
8
1
62
256
6
ByLayer
370
18
48
1
60
0
100
AcDbSpline
70
4
71
3
72
10
73
6
40
0
40
0
40
0
40
0
40
0.5
40
0.5
40
1
40
1
40
1
40
1
41
1
10
42.3948614638111
20
-2.01186412315769
30
0
41
1
10
42.3479468967977
20
-1.91331850803147
30
0
41
1
10
42.3007428444601
20
-1.81495748639361
30
0
41
1
10
42.2054625348417
20
-1.61880933787987
30
0
41
1
10
42.1575566542038
20
-1.52137692958431
30
0
41
1
10
42.1092270454278
20
-1.4246807865305
30
0
0
SPLINE
5
111
100
AcDbEntity
8
1
62
256
6
ByLayer
370
18
48
1
60
0
100
AcDbSpline
70
4
71
3
72
26
73
22
40
0
40
0
40
0
40
0
40
0.124999999999909
40
0.124999999999909
40
0.249999999999819
40
0.249999999999819
40
0.374999999999728
40
0.374999999999728
40
0.437499999999733
40
0.437499999999733
40
0.499999999999739
40
0.499999999999739
40
0.624999999999858
40
0.624999999999858
40
0.687499999999918
40
0.687499999999918
40
0.749999999999977
40
0.749999999999977
40
0.874999999999989
40
0.874999999999989
40
1
40
1
40
1
40
1
41
1
10
42.1092270454253
20
-1.42468078652544
30
0
41
1
10
42.1035820209316
20
-1.41338642454389
30
0
41
1
10
42.0970254954042
20
-1.40266007872998
30
0
41
1
10
42.0824771645597
20
-1.38210294389043
30
0
41
1
10
42.0744066012348
20
-1.3722117268089
30
0
41
1
10
42.0574410366105
20
-1.35385238946654
30
0
41
1
10
42.0485109952214
20
-1.34531830492094
30
0
41
1
10
42.034473895913
20
-1.33345645277967
30
0
41
1
10
42.0296822954707
20
-1.3296599006689
30
0
41
1
10
42.0200527231702
20
-1.32251870005024
30
0
41
1
10
42.0151942373953
20
-1.31915586641816
30
0
41
1
10
42.0004927187832
20
-1.30969574319906
30
0
41
1
10
41.9905255502308
20
-1.30421483715645
30
0
41
1
10
41.9753138352908
20
-1.29743211375387
30
0
41
1
10
41.9702006109895
20
-1.29541878430226
30
0
41
1
10
41.9601307503652
20
-1.29202480558564
30
0
41
1
10
41.955144517213
20
-1.29062959537814
30
0
41
1
10
41.9403566067595
20
-1.28744726571932
30
0
41
1
10
41.9306304807832
20
-1.286672575121
30
0
41
1
10
41.9130197375393
20
-1.28873189243845
30
0
41
1
10
41.9049382170357
20
-1.29159811049487
30
0
41
1
10
41.8985129938325
20
-1.29666416051822
30
0
0
SPLINE
5
112
100
AcDbEntity
8
1
62
256
6
ByLayer
370
18
48
1
60
0
100
AcDbSpline
70
4
71
3
72
10
73
6
40
0
40
0
40
0
40
0
40
0.5
40
0.5
40
1
40
1
40
1
40
1
41
1
10
41.8985129938325
20
-1.29666416051808
30
0
41
1
10
41.8526440299014
20
-1.33283013614951
30
0
41
1
10
41.806993707201
20
-1.36511978953624
30
0
41
1
10
41.7162474685691
20
-1.4221947998478
30
0
41
1
10
41.6712096631561
20
-1.44693896250888
30
0
41
1
10
41.6264648785016
20
-1.46800408727157
30
0
0
SPLINE
5
113
100
AcDbEntity
8
1
62
256
6
ByLayer
370
18
48
1
60
0
100
AcDbSpline
70
4
71
3
72
8
73
4
40
0
40
0
40
0
40
0
40
1
40
1
40
1
40
1
41
1
10
41.5532829044558
20
-1.40874442593625
30
0
41
1
10
41.577673609111
20
-1.42868441106449
30
0
41
1
10
41.6020660416885
20
-1.44843899038622
30
0
41
1
10
41.6264648785016
20
-1.46800408727154
30
0
0
SPLINE
5
114
100
AcDbEntity
8
1
62
256
6
ByLayer
370
18
48
1
60
0
100
AcDbSpline
70
4
71
3
72
10
73
6
40
0
40
0
40
0
40
0
40
0.5
40
0.5
40
1
40
1
40
1
40
1
41
1
10
41.553282904457
20
-1.4087444259296
30
0
41
1
10
41.5064132964137
20
-1.31440954821215
30
0
41
1
10
41.4592582046989
20
-1.22168113927606
30
0
41
1
10
41.364114404116
20
-1.03969378150066
30
0
41
1
10
41.3162881289278
20
-0.95075239335975
30
0
41
1
10
41.2680797836859
20
-0.863965877192044
30
0
0
SPLINE
5
115
100
AcDbEntity
8
1
62
256
6
ByLayer
370
18
48
1
60
0
100
AcDbSpline
70
4
71
3
72
26
73
22
40
0
40
0
40
0
40
0
40
0.124999999999991
40
0.124999999999991
40
0.249999999999982
40
0.249999999999982
40
0.374999999999974
40
0.374999999999974
40
0.437500000000019
40
0.437500000000019
40
0.500000000000065
40
0.500000000000065
40
0.625000000000049
40
0.625000000000049
40
0.687500000000042
40
0.687500000000042
40
0.750000000000034
40
0.750000000000034
40
0.875000000000017
40
0.875000000000017
40
1
40
1
40
1
40
1
41
1
10
41.2680797836834
20
-0.863965877187638
30
0
41
1
10
41.2624334456939
20
-0.853801122501864
30
0
41
1
10
41.2558765815441
20
-0.843823775038743
30
0
41
1
10
41.2413331552785
20
-0.824176136237895
30
0
41
1
10
41.2332689285399
20
-0.814439367000602
30
0
41
1
10
41.2163213851903
20
-0.795833212855229
30
0
41
1
10
41.2074022476304
20
-0.786903137358934
30
0
41
1
10
41.1933832141599
20
-0.774041336715413
30
0
41
1
10
41.1885981860464
20
-0.769842214549755
30
0
41
1
10
41.1789806156331
20
-0.761769338007326
30
0
41
1
10
41.1741276982597
20
-0.757876265877087
30
0
41
1
10
41.1594408672501
20
-0.746627758094718
30
0
41
1
10
41.1494808518652
20
-0.739695081231986
30
0
41
1
10
41.1342741038429
20
-0.730266970875363
30
0
41
1
10
41.1291583313415
20
-0.727290026790001
30
0
41
1
10
41.1190811475817
20
-0.72183953688625
30
0
41
1
10
41.1140901203538
20
-0.719346567476123
30
0
41
1
10
41.0992843325614
20
-0.712636893656025
30
0
41
1
10
41.0895396810163
20
-0.709166160294103
30
0
41
1
10
41.0718867388596
20
-0.705338422322569
30
0
41
1
10
41.0637822350427
20
-0.704944654979158
30
0
41
1
10
41.0573416369267
20
-0.706615112430995
30
0
0
SPLINE
5
116
100
AcDbEntity
8
1
62
256
6
ByLayer
370
18
48
1
60
0
100
AcDbSpline
70
4
71
3
72
10
73
6
40
0
40
0
40
0
40
0
40
0.5
40
0.5
40
1
40
1
40
1
40
1
41
1
10
41.057341636924
20
-0.706615112431678
30
0
41
1
10
41.0114186433611
20
-0.718525870633925
30
0
41
1
10
40.9657081050021
20
-0.726210951205331
30
0
41
1
10
40.8748450703109
20
-0.733420774943596
30
0
41
1
10
40.8297530538453
20
-0.732930323399529
30
0
41
1
10
40.7849709149959
20
-0.728444038788012
30
0
0
SPLINE
5
117
100
AcDbEntity
8
1
62
256
6
ByLayer
370
18
48
1
60
0
100
AcDbSpline
70
4
71
3
72
8
73
4
40
0
40
0
40
0
40
0
40
1
40
1
40
1
40
1
41
1
10
40.7122478123006
20
-0.659776726299782
30
0
41
1
10
40.7364872667461
20
-0.682751483373266
30
0
41
1
10
40.7607257018306
20
-0.705643172972799
30
0
41
1
10
40.7849709149959
20
-0.728444038788041
30
0
0
SPLINE
5
118
100
AcDbEntity
8
1
62
256
6
ByLayer
370
18
48
1
60
0
100
AcDbSpline
70
4
71
3
72
10
73
6
40
0
40
0
40
0
40
0
40
0.5
40
0.5
40
1
40
1
40
1
40
1
41
1
10
40.7122478123023
20
-0.659776726294496
30
0
41
1
10
40.6653977935904
20
-0.579421184779761
30
0
41
1
10
40.6182369099312
20
-0.502002423673474
30
0
41
1
10
40.5230518691736
20
-0.353242166945421
30
0
41
1
10
40.4751948084201
20
-0.282166140145676
30
0
41
1
10
40.4269496869586
20
-0.214466459578432
30
0
0
SPLINE
5
119
100
AcDbEntity
8
1
62
256
6
ByLayer
370
18
48
1
60
0
100
AcDbSpline
70
4
71
3
72
26
73
22
40
0
40
0
40
0
40
0
40
0.12499999999996
40
0.12499999999996
40
0.24999999999992
40
0.24999999999992
40
0.374999999999879
40
0.374999999999879
40
0.437499999999859
40
0.437499999999859
40
0.499999999999839
40
0.499999999999839
40
0.624999999999799
40
0.624999999999799
40
0.687499999999833
40
0.687499999999833
40
0.749999999999867
40
0.749999999999867
40
0.874999999999934
40
0.874999999999934
40
1
40
1
40
1
40
1
41
1
10
40.4269496869557
20
-0.214466459574055
30
0
41
1
10
40.4212954146085
20
-0.206532135436646
30
0
41
1
10
40.4147280121326
20
-0.198385804978358
30
0
41
1
10
40.4001605880115
20
-0.181782668146809
30
0
41
1
10
40.392082154314
20
-0.173258841962309
30
0
41
1
10
40.3751079708868
20
-0.156438301646489
30
0
41
1
10
40.3661763271713
20
-0.148093305081517
30
0
41
1
10
40.3521411017915
20
-0.135651709469386
30
0
41
1
10
40.3473526105709
20
-0.131516023615859
30
0
41
1
10
40.3377295274943
20
-0.123410309375572
30
0
41
1
10
40.3328744347901
20
-0.119421788930424
30
0
41
1
10
40.3181829490937
20
-0.10764416805165
30
0
41
1
10
40.3082222943599
20
-0.100039980361089
30
0
41
1
10
40.2930191974167
20
-0.0890315593571529
30
0
41
1
10
40.2879105263806
20
-0.0854329864658041
30
0
41
1
10
40.2778474238927
20
-0.0785515597900144
30
0
41
1
10
40.2728637081049
20
-0.0752470369131686
30
0
41
1
10
40.2580804968008
20
-0.0657796733035241
30
0
41
1
10
40.2483548987174
20
-0.0600121289540709
30
0
41
1
10
40.2307354136221
20
-0.050727358660879
30
0
41
1
10
40.2226451306179
20
-0.0471076880833152
30
0
41
1
10
40.2162110953687
20
-0.0451741671121226
30
0
0
SPLINE
5
11A
100
AcDbEntity
8
1
62
256
6
ByLayer
370
18
48
1
60
0
100
AcDbSpline
70
4
71
3
72
10
73
6
40
0
40
0
40
0
40
0
40
0.5
40
0.5
40
1
40
1
40
1
40
1
41
1
10
40.2162110953687
20
-0.0451741671121511
30
0
41
1
10
40.1703496834386
20
-0.0313921472287291
30
0
41
1
10
40.1247062921942
20
-0.0133892769019326
30
0
41
1
10
40.0339700276025
20
0.0304607687087639
30
0
41
1
10
39.9889345945407
20
0.0562858055307913
30
0
41
1
10
39.9441944962532
20
0.0858222196795282
30
0
0
SPLINE
5
11B
100
AcDbEntity
8
1
62
256
6
ByLayer
370
18
48
1
60
0
100
AcDbSpline
70
4
71
3
72
8
73
4
40
0
40
0
40
0
40
0
40
1
40
1
40
1
40
1
41
1
10
39.8715021928004
20
0.157051946333212
30
0
41
1
10
39.8957297592416
20
0.133327987670072
30
0
41
1
10
39.9199589561413
20
0.109583145232278
30
0
41
1
10
39.9441944962532
20
0.0858222196795282
30
0
0
SPLINE
5
11C
100
AcDbEntity
8
1
62
256
6
ByLayer
370
18
48
1
60
0
100
AcDbSpline
70
4
71
3
72
10
73
6
40
0
40
0
40
0
40
0
40
0.5
40
0.5
40
1
40
1
40
1
40
1
41
1
10
39.8715021928023
20
0.157051946334008
30
0
41
1
10
39.824586096526
20
0.215324497820461
30
0
41
1
10
39.7773707067763
20
0.269785754111325
30
0
41
1
10
39.6820544990312
20
0.370692351653361
30
0
41
1
10
39.6341219611556
20
0.416955210030352
30
0
41
1
10
39.5857691661922
20
0.458838721360507
30
0
0
SPLINE
5
11D
100
AcDbEntity
8
1
62
256
6
ByLayer
370
18
48
1
60
0
100
AcDbSpline
70
4
71
3
72
14
73
10
40
0
40
0
40
0
40
0
40
0.5
40
0.5
40
0.75
40
0.75
40
0.875
40
0.875
40
1
40
1
40
1
40
1
41
1
10
37.6196503280903
20
-0.80111019100508
30
0
41
1
10
37.6623689496459
20
-0.829697777828784
30
0
41
1
10
37.7047640430752
20
-0.85954366729689
30
0
41
1
10
37.7674607885845
20
-0.906787635324633
30
0
41
1
10
37.7882134996788
20
-0.922946335810963
30
0
41
1
10
37.8190981908488
20
-0.947872126172342
30
0
41
1
10
37.8293618023041
20
-0.956303709875527
30
0
41
1
10
37.8496563653788
20
-0.973283220738807
30
0
41
1
10
37.8597045696944
20
-0.981844757045167
30
0
41
1
10
37.8696503280903
20
-0.990478462354616
30
0
0
SPLINE
5
11E
100
AcDbEntity
8
1
62
256
6
ByLayer
370
18
48
1
60
0
100
AcDbSpline
70
4
71
3
72
8
73
4
40
0
40
0
40
0
40
0
40
1
40
1
40
1
40
1
41
1
10
37.8696503280903
20
-0.990478462354616
30
0
41
1
10
37.8944927432809
20
-1.01204364455512
30
0
41
1
10
37.9193716202883
20
-1.0335711087418
30
0
41
1
10
37.9441096068587
20
-1.0552494404626
30
0
0
SPLINE
5
11F
100
AcDbEntity
8
1
62
256
6
ByLayer
370
18
48
1
60
0
100
AcDbSpline
70
4
71
3
72
20
73
16
40
0
40
0
40
0
40
0
40
0.249999999999938
40
0.249999999999938
40
0.374999999999949
40
0.374999999999949
40
0.499999999999959
40
0.499999999999959
40
0.624999999999969
40
0.624999999999969
40
0.749999999999979
40
0.749999999999979
40
0.87499999999999
40
0.87499999999999
40
1
40
1
40
1
40
1
41
1
10
37.9441096068591
20
-1.05524944046229
30
0
41
1
10
37.9563501415711
20
-1.06197318896801
30
0
41
1
10
37.969007430084
20
-1.06956471741637
30
0
41
1
10
37.9885750567229
20
-1.08236068514523
30
0
41
1
10
37.995165328413
20
-1.08684781528149
30
0
41
1
10
38.0081905963307
20
-1.0960999440359
30
0
41
1
10
38.0146653986119
20
-1.10089021465694
30
0
41
1
10
38.0275216332842
20
-1.11084031095737
30
0
41
1
10
38.0339031420828
20
-1.11599952104493
30
0
41
1
10
38.0465449614266
20
-1.12676756728052
30
0
41
1
10
38.0527537810351
20
-1.1323382149555
30
0
41
1
10
38.0645298905379
20
-1.14358072173175
30
0
41
1
10
38.0701836206255
20
-1.14933230107084
30
0
41
1
10
38.0806672403011
20
-1.16090556408918
30
0
41
1
10
38.0854145106106
20
-1.16663001618824
30
0
41
1
10
38.0895711584238
20
-1.17227500346613
30
0
0
SPLINE
5
120
100
AcDbEntity
8
1
62
256
6
ByLayer
370
18
48
1
60
0
100
AcDbSpline
70
4
71
3
72
8
73
4
40
0
40
0
40
0
40
0
40
1
40
1
40
1
40
1
41
1
10
38.0895711584238
20
-1.17227500346593
30
0
41
1
10
38.0995529232111
20
-1.18583086332407
30
0
41
1
10
38.1095175897708
20
-1.19951542939444
30
0
41
1
10
38.1194663596524
20
-1.21332756380116
30
0
0
SPLINE
5
121
100
AcDbEntity
8
1
62
256
6
ByLayer
370
18
48
1
60
0
100
AcDbSpline
70
4
71
3
72
10
73
6
40
0
40
0
40
0
40
0
40
0.5
40
0.5
40
1
40
1
40
1
40
1
41
1
10
38.1194663596524
20
-1.21332756380113
30
0
41
1
10
38.1907981291779
20
-1.27935654412934
30
0
41
1
10
38.261053461231
20
-1.34654092877301
30
0
41
1
10
38.4006927962487
20
-1.48185974544902
30
0
41
1
10
38.4699677395574
20
-1.55011016809061
30
0
41
1
10
38.5388531024381
20
-1.61878786651363
30
0
0
SPLINE
5
122
100
AcDbEntity
8
1
62
256
6
ByLayer
370
18
48
1
60
0
100
AcDbSpline
70
4
71
3
72
8
73
4
40
0
40
0
40
0
40
0
40
1
40
1
40
1
40
1
41
1
10
38.5388531024381
20
-1.61878786651363
30
0
41
1
10
38.5985740605852
20
-1.60438764445462
30
0
41
1
10
38.6589805556308
20
-1.58276316346865
30
0
41
1
10
38.7200922265952
20
-1.55394666254494
30
0
0
SPLINE
5
123
100
AcDbEntity
8
1
62
256
6
ByLayer
370
18
48
1
60
0
100
AcDbSpline
70
4
71
3
72
27
73
23
40
0
40
0
40
0
40
0
40
0.124999999999979
40
0.124999999999979
40
0.249999999999959
40
0.249999999999959
40
0.374999999999938
40
0.374999999999938
40
0.499999999999918
40
0.499999999999918
40
0.624999999999897
40
0.624999999999897
40
0.687499999999914
40
0.687499999999914
40
0.749999999999931
40
0.812499999999949
40
0.812499999999949
40
0.874999999999966
40
0.874999999999966
40
0.937499999999983
40
0.937499999999983
40
1
40
1
40
1
40
1
41
1
10
38.7200922265952
20
-1.55394666254494
30
0
41
1
10
38.725910486188
20
-1.55120312959599
30
0
41
1
10
38.7326923043845
20
-1.54976148071404
30
0
41
1
10
38.7477262820768
20
-1.54882937503103
30
0
41
1
10
38.7560801241845
20
-1.54937744465039
30
0
41
1
10
38.7734884407297
20
-1.5521989584694
30
0
41
1
10
38.7825845692761
20
-1.55445606758377
30
0
41
1
10
38.8014922496011
20
-1.56058808074565
30
0
41
1
10
38.8113603873071
20
-1.56450147933054
30
0
41
1
10
38.8310660447328
20
-1.57374937121716
30
0
41
1
10
38.8409867754418
20
-1.5791017552047
30
0
41
1
10
38.8559510857508
20
-1.58838227124295
30
0
41
1
10
38.860982061864
20
-1.59170792436666
30
0
41
1
10
38.8708861985968
20
-1.5987104225614
30
0
41
1
10
38.8806414979581
20
-1.60606410474264
30
0
41
1
10
38.8900664897732
20
-1.61418422399709
30
0
41
1
10
38.8992986656501
20
-1.6227471140283
30
0
41
1
10
38.9038167405691
20
-1.6272548249211
30
0
41
1
10
38.9123517134374
20
-1.63650260123452
30
0
41
1
10
38.9164034618143
20
-1.6412726010256
30
0
41
1
10
38.9240086117738
20
-1.65115005081381
30
0
41
1
10
38.9275660667333
20
-1.65627228558176
30
0
41
1
10
38.9307279757044
20
-1.6614460146134
30
0
0
SPLINE
5
124
100
AcDbEntity
8
1
62
256
6
ByLayer
370
18
48
1
60
0
100
AcDbSpline
70
4
71
3
72
10
73
6
40
0
40
0
40
0
40
0
40
0.5
40
0.5
40
1
40
1
40
1
40
1
41
1
10
38.9307279757081
20
-1.66144601461815
30
0
41
1
10
38.9771482950891
20
-1.73740207668897
30
0
41
1
10
39.0232517275346
20
-1.81494225963752
30
0
41
1
10
39.1147743387987
20
-1.97254226325904
30
0
41
1
10
39.1601283288807
20
-2.05248730034989
30
0
41
1
10
39.2051369826936
20
-2.13340356378856
30
0
0
SPLINE
5
125
100
AcDbEntity
8
1
62
256
6
ByLayer
370
18
48
1
60
0
100
AcDbSpline
70
4
71
3
72
10
73
6
40
0
40
0
40
0
40
0
40
0.5
40
0.5
40
1
40
1
40
1
40
1
41
1
10
39.2780579833099
20
-2.1717307468524
30
0
41
1
10
39.3245210825907
20
-2.13724314148485
30
0
41
1
10
39.3712731012722
20
-2.09890452740666
30
0
41
1
10
39.4656556899582
20
-2.01440811877981
30
0
41
1
10
39.5131256110796
20
-1.96839104789453
30
0
41
1
10
39.5611394659883
20
-1.91829366959971
30
0
0
SPLINE
5
126
100
AcDbEntity
8
1
62
256
6
ByLayer
370
18
48
1
60
0
100
AcDbSpline
70
4
71
3
72
27
73
23
40
0
40
0
40
0
40
0
40
0.125
40
0.125
40
0.249999999999999
40
0.249999999999999
40
0.374999999999999
40
0.374999999999999
40
0.499999999999998
40
0.499999999999998
40
0.624999999999998
40
0.624999999999998
40
0.687499999999998
40
0.687499999999998
40
0.749999999999998
40
0.812499999999997
40
0.812499999999997
40
0.874999999999997
40
0.874999999999997
40
0.937499999999999
40
0.937499999999999
40
1
40
1
40
1
40
1
41
1
10
39.5611394659883
20
-1.91829366959971
30
0
41
1
10
39.5669652151231
20
-1.9122151166751
30
0
41
1
10
39.5737532829609
20
-1.90755452416636
30
0
41
1
10
39.5887942494337
20
-1.90035512168339
30
0
41
1
10
39.5971470457947
20
-1.89782991823532
30
0
41
1
10
39.6145474190395
20
-1.894875338915
30
0
41
1
10
39.6236389243008
20
-1.89440653178286
30
0
41
1
10
39.6425359175985
20
-1.89538432228349
30
0
41
1
10
39.6523992476786
20
-1.89686164254087
30
0
41
1
10
39.6720999671091
20
-1.9017209691209
30
0
41
1
10
39.6820192509695
20
-1.90509491191264
30
0
41
1
10
39.6969816044924
20
-1.9117603680655
30
0
41
1
10
39.7020120251586
20
-1.91426953773711
30
0
41
1
10
39.711926483142
20
-1.91980573828022
30
0
41
1
10
39.7216928145905
20
-1.92585028443131
30
0
41
1
10
39.7311292996908
20
-1.93299995949539
30
0
41
1
10
39.740373399331
20
-1.94078423416832
30
0
41
1
10
39.7449025334682
20
-1.94500527518835
30
0
41
1
10
39.7534589533803
20
-1.95392023258526
30
0
41
1
10
39.7575210614916
20
-1.95864006607354
30
0
41
1
10
39.7651457379919
20
-1.96868617868904
30
0
41
1
10
39.7687148177082
20
-1.97403334441265
30
0
41
1
10
39.7718872522275
20
-1.97958775711473
30
0
0
SPLINE
5
127
100
AcDbEntity
8
1
62
256
6
ByLayer
370
18
48
1
60
0
100
AcDbSpline
70
4
71
3
72
10
73
6
40
0
40
0
40
0
40
0
40
0.5
40
0.5
40
1
40
1
40
1
40
1
41
1
10
39.7718872522312
20
-1.97958775712078
30
0
41
1
10
39.8183152736465
20
-2.06087561045521
30
0
41
1
10
39.8644245751176
20
-2.14243586259988
30
0
41
1
10
39.9559770046804
20
-2.30548440791947
30
0
41
1
10
40.0013583320618
20
-2.38686150795812
30
0
41
1
10
40.046414129347
20
-2.4679424488159
30
0
0
SPLINE
5
128
100
AcDbEntity
8
1
62
256
6
ByLayer
370
18
48
1
60
0
100
AcDbSpline
70
4
71
3
72
10
73
6
40
0
40
0
40
0
40
0
40
0.5
40
0.5
40
1
40
1
40
1
40
1
41
1
10
40.1193172881293
20
-2.48498452331972
30
0
41
1
10
40.1656999626181
20
-2.42426086488814
30
0
41
1
10
40.2124127371666
20
-2.36045505178549
30
0
41
1
10
40.3067655146996
20
-2.22670846691131
30
0
41
1
10
40.3542429114899
20
-2.15699834541954
30
0
41
1
10
40.4021781288395
20
-2.08445866767508
30
0
0
SPLINE
5
129
100
AcDbEntity
8
1
62
256
6
ByLayer
370
18
48
1
60
0
100
AcDbSpline
70
4
71
3
72
27
73
23
40
0
40
0
40
0
40
0
40
0.124999999999959
40
0.124999999999959
40
0.249999999999918
40
0.249999999999918
40
0.374999999999877
40
0.374999999999877
40
0.499999999999836
40
0.499999999999836
40
0.624999999999794
40
0.624999999999794
40
0.687499999999829
40
0.687499999999829
40
0.749999999999863
40
0.812499999999897
40
0.812499999999897
40
0.874999999999931
40
0.874999999999931
40
0.937499999999966
40
0.937499999999966
40
1
40
1
40
1
40
1
41
1
10
40.4021781288395
20
-2.08445866767508
30
0
41
1
10
40.4080075776541
20
-2.07563704629064
30
0
41
1
10
40.4148036308211
20
-2.06819531109835
30
0
41
1
10
40.4298664597341
20
-2.05538756179692
30
0
41
1
10
40.4382349108952
20
-2.05000719260531
30
0
41
1
10
40.4556649764871
20
-2.04151232803079
30
0
41
1
10
40.4647693476909
20
-2.03833849594074
30
0
41
1
10
40.4836876590499
20
-2.03401631775165
30
0
41
1
10
40.4935572269102
20
-2.03288768232514
30
0
41
1
10
40.5132594438841
20
-2.03282621676232
30
0
41
1
10
40.5231752093656
20
-2.03386051659245
30
0
41
1
10
40.5381269442807
20
-2.03720347917155
30
0
41
1
10
40.5431526302467
20
-2.03863086703649
30
0
41
1
10
40.5530467326676
20
-2.04210365863418
30
0
41
1
10
40.5627919561661
20
-2.04618815456288
30
0
41
1
10
40.5722067640339
20
-2.05159397354771
30
0
41
1
10
40.5814289183837
20
-2.05775812589462
30
0
41
1
10
40.5859444212725
20
-2.06122904718126
30
0
41
1
10
40.5944760556894
20
-2.06883003463849
30
0
41
1
10
40.5985268418018
20
-2.07297966219926
30
0
41
1
10
40.6061315933474
20
-2.08208647133924
30
0
41
1
10
40.6096914493751
20
-2.08706424837723
30
0
41
1
10
40.6128567889065
20
-2.09238002435922
30
0
0
SPLINE
5
12A
100
AcDbEntity
8
1
62
256
6
ByLayer
370
18
48
1
60
0
100
AcDbSpline
70
4
71
3
72
10
73
6
40
0
40
0
40
0
40
0
40
0.5
40
0.5
40
1
40
1
40
1
40
1
41
1
10
40.6128567889102
20
-2.0923800243657
30
0
41
1
10
40.6593857333285
20
-2.17051933384087
30
0
41
1
10
40.7055002241741
20
-2.2474300386354
30
0
41
1
10
40.7971554341083
20
-2.3987373806128
30
0
41
1
10
40.8425354443004
20
-2.47288236278374
30
0
41
1
10
40.8876098243824
20
-2.54555360215102
30
0
0
SPLINE
5
12B
100
AcDbEntity
8
1
62
256
6
ByLayer
370
18
48
1
60
0
100
AcDbSpline
70
4
71
3
72
8
73
4
40
0
40
0
40
0
40
0
40
1
40
1
40
1
40
1
41
1
10
40.9604857524636
20
-2.53974558191257
30
0
41
1
10
40.9361619251007
20
-2.54201772479382
30
0
41
1
10
40.911872062883
20
-2.54395395989837
30
0
41
1
10
40.8876098243823
20
-2.5455536021511
30
0
0
SPLINE
5
12C
100
AcDbEntity
8
1
62
256
6
ByLayer
370
18
48
1
60
0
100
AcDbSpline
70
4
71
3
72
10
73
6
40
0
40
0
40
0
40
0
40
0.5
40
0.5
40
1
40
1
40
1
40
1
41
1
10
40.9604857524636
20
-2.53974558191274
30
0
41
1
10
41.0068150497972
20
-2.45947912847953
30
0
41
1
10
41.0535004473804
20
-2.37719461550501
30
0
41
1
10
41.1478488519871
20
-2.20871372115872
30
0
41
1
10
41.1953428499994
20
-2.12282848577181
30
0
41
1
10
41.2433270822655
20
-2.0353650026951
30
0
0
SPLINE
5
12D
100
AcDbEntity
8
1
62
256
6
ByLayer
370
18
48
1
60
0
100
AcDbSpline
70
4
71
3
72
27
73
23
40
0
40
0
40
0
40
0
40
0.125
40
0.125
40
0.25
40
0.25
40
0.375
40
0.375
40
0.5
40
0.5
40
0.625
40
0.625
40
0.6875
40
0.6875
40
0.75
40
0.8125
40
0.8125
40
0.875
40
0.875
40
0.9375
40
0.9375
40
1
40
1
40
1
40
1
41
1
10
41.2433270822655
20
-2.0353650026951
30
0
41
1
10
41.2491541819712
20
-2.02474362954115
30
0
41
1
10
41.2559471473816
20
-2.01531937224883
30
0
41
1
10
41.2710039915497
20
-1.99827633648283
30
0
41
1
10
41.2793699703271
20
-1.99061695774282
30
0
41
1
10
41.2967979737524
20
-1.97748610454374
30
0
41
1
10
41.3059021660063
20
-1.97194241793508
30
0
41
1
10
41.3248216698939
20
-1.96277446591611
30
0
41
1
10
41.3346925604785
20
-1.95915696943757
30
0
41
1
10
41.3543995454377
20
-1.95418024953429
30
0
41
1
10
41.3643190966058
20
-1.95276644135114
30
0
41
1
10
41.3792787021948
20
-1.95244195645367
30
0
41
1
10
41.3843073542435
20
-1.95264078177902
30
0
41
1
10
41.3942047688548
20
-1.95369989330587
30
0
41
1
10
41.403953386223
20
-1.95541124930946
30
0
41
1
10
41.4133710300243
20
-1.95853080456891
30
0
41
1
10
41.422595850444
20
-1.96245522660223
30
0
41
1
10
41.4271107418472
20
-1.96482895011567
30
0
41
1
10
41.4356402202956
20
-1.9703544425833
30
0
41
1
10
41.4396895303763
20
-1.97351749092999
30
0
41
1
10
41.4472905542016
20
-1.98076856044113
30
0
41
1
10
41.4508474046088
20
-1.98487491744066
30
0
41
1
10
41.4540097194758
20
-1.98941329267291
30
0
0
SPLINE
5
12E
100
AcDbEntity
8
1
62
256
6
ByLayer
370
18
48
1
60
0
100
AcDbSpline
70
4
71
3
72
10
73
6
40
0
40
0
40
0
40
0
40
0.5
40
0.5
40
1
40
1
40
1
40
1
41
1
10
41.4540097194793
20
-1.98941329267896
30
0
41
1
10
41.5004544681995
20
-2.05606816613746
30
0
41
1
10
41.5465843318271
20
-2.12047287794678
30
0
41
1
10
41.6381697721276
20
-2.24440669404356
30
0
41
1
10
41.6835600998053
20
-2.30384915698073
30
0
41
1
10
41.7286113128574
20
-2.36068881375678
30
0
0
SPLINE
5
12F
100
AcDbEntity
8
1
62
256
6
ByLayer
370
18
48
1
60
0
100
AcDbSpline
70
4
71
3
72
8
73
4
40
0
40
0
40
0
40
0
40
1
40
1
40
1
40
1
41
1
10
41.8013027372893
20
-2.33283609978156
30
0
41
1
10
41.7770723713605
20
-2.34243536988248
30
0
41
1
10
41.7528417797599
20
-2.35171879559113
30
0
41
1
10
41.7286113128574
20
-2.36068881375678
30
0
0
SPLINE
5
130
100
AcDbEntity
8
1
62
256
6
ByLayer
370
18
48
1
60
0
100
AcDbSpline
70
4
71
3
72
10
73
6
40
0
40
0
40
0
40
0
40
0.5
40
0.5
40
1
40
1
40
1
40
1
41
1
10
41.8013027372891
20
-2.33283609976959
30
0
41
1
10
41.8477491534755
20
-2.24102757038037
30
0
41
1
10
41.8945007209453
20
-2.14860407204634
30
0
41
1
10
41.9889034962217
20
-1.96269784273292
30
0
41
1
10
42.0363842160623
20
-1.86952192448311
30
0
41
1
10
42.0843627230545
20
-1.77620605529245
30
0
0
SPLINE
5
131
100
AcDbEntity
8
1
62
256
6
ByLayer
370
18
48
1
60
0
100
AcDbSpline
70
4
71
3
72
18
73
14
40
0
40
0
40
0
40
0
40
0.185022179304084
40
0.185022179304084
40
0.370044358608168
40
0.370044358608168
40
0.555066537912252
40
0.555066537912252
40
0.740088717216336
40
0.740088717216336
40
0.925110896520419
40
0.925110896520419
40
1
40
1
40
1
40
1
41
1
10
42.0843627230545
20
-1.77620605529245
30
0
41
1
10
42.0902036639868
20
-1.76484570845864
30
0
41
1
10
42.0970098999376
20
-1.75438271605944
30
0
41
1
10
42.1120880223868
20
-1.734810922696
30
0
41
1
10
42.1204609093385
20
-1.72564175435579
30
0
41
1
10
42.1378948305786
20
-1.70919151012322
30
0
41
1
10
42.1470004674584
20
-1.70183045931526
30
0
41
1
10
42.1659195609363
20
-1.68872090498641
30
0
41
1
10
42.1757887577598
20
-1.6829650926922
30
0
41
1
10
42.19549269416
20
-1.67353544885827
30
0
41
1
10
42.2054101567377
20
-1.66979145950563
30
0
41
1
10
42.2194143988364
20
-1.6660378566402
30
0
41
1
10
42.2234768044561
20
-1.66513162883396
30
0
41
1
10
42.2275036786563
20
-1.66442697885995
30
0
0
SPLINE
5
132
100
AcDbEntity
8
1
62
256
6
ByLayer
370
18
48
1
60
0
100
AcDbSpline
70
4
71
3
72
8
73
4
40
0
40
0
40
0
40
0
40
1
40
1
40
1
40
1
41
1
10
42.6424433858002
20
-1.8824043542736
30
0
41
1
10
42.6485190210407
20
-1.87019394013524
30
0
41
1
10
42.654600442685
20
-1.85799731757919
30
0
41
1
10
42.6606879319762
20
-1.84581472277353
30
0
0
SPLINE
5
133
100
AcDbEntity
8
1
62
256
6
ByLayer
370
18
48
1
60
0
100
AcDbSpline
70
4
71
3
72
10
73
6
40
0
40
0
40
0
40
0
40
0.5
40
0.5
40
1
40
1
40
1
40
1
41
1
10
42.1136702216328
20
2.45415369683104
30
0
41
1
10
42.0668728834768
20
2.39861834159544
30
0
41
1
10
42.0197840456342
20
2.3394764810933
30
0
41
1
10
41.9247517110508
20
2.21392623427764
30
0
41
1
10
41.876980474627
20
2.14775037462718
30
0
41
1
10
41.8288287589637
20
2.07820247637503
30
0
0
SPLINE
5
134
100
AcDbEntity
8
1
62
256
6
ByLayer
370
18
48
1
60
0
100
AcDbSpline
70
4
71
3
72
26
73
22
40
0
40
0
40
0
40
0
40
0.124999999999946
40
0.124999999999946
40
0.249999999999893
40
0.249999999999893
40
0.374999999999839
40
0.374999999999839
40
0.437499999999812
40
0.437499999999812
40
0.499999999999785
40
0.499999999999785
40
0.624999999999839
40
0.624999999999839
40
0.687499999999866
40
0.687499999999866
40
0.749999999999893
40
0.749999999999893
40
0.874999999999946
40
0.874999999999946
40
1
40
1
40
1
40
1
41
1
10
41.8288287589612
20
2.07820247637139
30
0
41
1
10
41.8231849211092
20
2.07005080295443
30
0
41
1
10
41.8166297505255
20
2.06311862761129
30
0
41
1
10
41.8020874478287
20
2.05114253256639
30
0
41
1
10
41.7940223682844
20
2.04608852472018
30
0
41
1
10
41.7770717650835
20
2.03802652128527
30
0
41
1
10
41.7681506062311
20
2.03497243064311
30
0
41
1
10
41.7541284550496
20
2.03183808692685
30
0
41
1
10
41.7493422664783
20
2.03103939124043
30
0
41
1
10
41.7397228144533
20
2.02996697586175
30
0
41
1
10
41.7348691395966
20
2.02968778025763
30
0
41
1
10
41.7201807465449
20
2.02963761737516
30
0
41
1
10
41.7102206484511
20
2.03063824186356
30
0
41
1
10
41.6950156585072
20
2.0339885648124
30
0
41
1
10
41.6899018106851
20
2.03542269279527
30
0
41
1
10
41.679828913472
20
2.03891802968875
30
0
41
1
10
41.6748402689137
20
2.04098408073276
30
0
41
1
10
41.6600422106247
20
2.04825136507654
30
0
41
1
10
41.6503040404728
20
2.05460561900608
30
0
41
1
10
41.632662793466
20
2.07031717040528
30
0
41
1
10
41.624563410209
20
2.07986394855175
30
0
41
1
10
41.6181251540054
20
2.09082822605961
30
0
0
SPLINE
5
135
100
AcDbEntity
8
1
62
256
6
ByLayer
370
18
48
1
60
0
100
AcDbSpline
70
4
71
3
72
10
73
6
40
0
40
0
40
0
40
0
40
0.5
40
0.5
40
1
40
1
40
1
40
1
41
1
10
41.6181251540027
20
2.09082822606422
30
0
41
1
10
41.5721577238077
20
2.16911023987342
30
0
41
1
10
41.5264066542297
20
2.24677320540909
30
0
41
1
10
41.4354591310913
20
2.40033228590022
30
0
41
1
10
41.3903206749042
20
2.47612817499697
30
0
41
1
10
41.3454819398771
20
2.55080831295283
30
0
0
SPLINE
5
136
100
AcDbEntity
8
1
62
256
6
ByLayer
370
18
48
1
60
0
100
AcDbSpline
70
4
71
3
72
8
73
4
40
0
40
0
40
0
40
0
40
1
40
1
40
1
40
1
41
1
10
41.2729515157719
20
2.5485006593691
30
0
41
1
10
41.297134345233
20
2.54960057041626
30
0
41
1
10
41.3213096329283
20
2.5503696772534
30
0
41
1
10
41.3454819398771
20
2.5508083129528
30
0
0
SPLINE
5
137
100
AcDbEntity
8
1
62
256
6
ByLayer
370
18
48
1
60
0
100
AcDbSpline
70
4
71
3
72
10
73
6
40
0
40
0
40
0
40
0
40
0.5
40
0.5
40
1
40
1
40
1
40
1
41
1
10
41.2729515157719
20
2.5485006593691
30
0
41
1
10
41.2260212334899
20
2.46995400490039
30
0
41
1
10
41.1788288417549
20
2.38893793810206
30
0
41
1
10
41.0836652341324
20
2.22193529799387
30
0
41
1
10
41.0358563315419
20
2.13625106711527
30
0
41
1
10
40.9876434921098
20
2.04840375861517
30
0
0
SPLINE
5
138
100
AcDbEntity
8
1
62
256
6
ByLayer
370
18
48
1
60
0
100
AcDbSpline
70
4
71
3
72
26
73
22
40
0
40
0
40
0
40
0
40
0.124999999999982
40
0.124999999999982
40
0.249999999999964
40
0.249999999999964
40
0.374999999999947
40
0.374999999999947
40
0.437499999999887
40
0.437499999999887
40
0.499999999999828
40
0.499999999999828
40
0.624999999999819
40
0.624999999999819
40
0.687499999999814
40
0.687499999999814
40
0.749999999999809
40
0.749999999999809
40
0.874999999999904
40
0.874999999999904
40
1
40
1
40
1
40
1
41
1
10
40.9876434921075
20
2.04840375861082
30
0
41
1
10
40.9820047233947
20
2.03812951091223
30
0
41
1
10
40.9754567125301
20
2.0289478325594
30
0
41
1
10
40.9609298412683
20
2.01228226956093
30
0
41
1
10
40.9528730512667
20
2.00476746929923
30
0
41
1
10
40.9359358918261
20
1.99175634907886
30
0
41
1
10
40.9270202593717
20
1.98620116932264
30
0
41
1
10
40.9130032137721
20
1.97927105523786
30
0
41
1
10
40.9082172431803
20
1.97719829227003
30
0
41
1
10
40.8985973215241
20
1.9736063512826
30
0
41
1
10
40.8937430009694
20
1.97207606902418
30
0
41
1
10
40.8790513894093
20
1.96829662639729
30
0
41
1
10
40.8690874070315
20
1.96684280279396
30
0
41
1
10
40.8538742493706
20
1.96655508474586
30
0
41
1
10
40.8487555744515
20
1.96678400322878
30
0
41
1
10
40.838673947517
20
1.9679418836281
30
0
41
1
10
40.8336812125457
20
1.96886843692664
30
0
41
1
10
40.8188721138802
20
1.97281107764124
30
0
41
1
10
40.8091273386923
20
1.97705437547316
30
0
41
1
10
40.7914814226652
20
1.98911612317565
30
0
41
1
10
40.783383520166
20
1.99708304271758
30
0
41
1
10
40.7769485621156
20
2.00692887547382
30
0
0
SPLINE
5
139
100
AcDbEntity
8
1
62
256
6
ByLayer
370
18
48
1
60
0
100
AcDbSpline
70
4
71
3
72
10
73
6
40
0
40
0
40
0
40
0
40
0.5
40
0.5
40
1
40
1
40
1
40
1
41
1
10
40.7769485621156
20
2.00692887547382
30
0
41
1
10
40.7309974104532
20
2.07723661496186
30
0
41
1
10
40.6852641176395
20
2.14557193865502
30
0
41
1
10
40.5943720522765
20
2.27794131400711
30
0
41
1
10
40.5492709737246
20
2.34189914933145
30
0
41
1
10
40.5044742303868
20
2.403593019347
30
0
0
SPLINE
5
13A
100
AcDbEntity
8
1
62
256
6
ByLayer
370
18
48
1
60
0
100
AcDbSpline
70
4
71
3
72
8
73
4
40
0
40
0
40
0
40
0
40
1
40
1
40
1
40
1
41
1
10
40.4317056637702
20
2.37873793458087
30
0
41
1
10
40.4559679897383
20
2.38733644409277
30
0
41
1
10
40.4802227324979
20
2.39562183551266
30
0
41
1
10
40.5044742303868
20
2.40359301934694
30
0
0
SPLINE
5
13B
100
AcDbEntity
8
1
62
256
6
ByLayer
370
18
48
1
60
0
100
AcDbSpline
70
4
71
3
72
10
73
6
40
0
40
0
40
0
40
0
40
0.5
40
0.5
40
1
40
1
40
1
40
1
41
1
10
40.4317056637701
20
2.37873793458084
30
0
41
1
10
40.3848288185603
20
2.28532617599873
30
0
41
1
10
40.3376739932956
20
2.19079040024269
30
0
41
1
10
40.2425407200706
20
1.99961236842151
30
0
41
1
10
40.1947253191301
20
1.90330071220154
30
0
41
1
10
40.1465120818755
20
1.80632673932246
30
0
0
SPLINE
5
13C
100
AcDbEntity
8
1
62
256
6
ByLayer
370
18
48
1
60
0
100
AcDbSpline
70
4
71
3
72
26
73
22
40
0
40
0
40
0
40
0
40
0.124999999999909
40
0.124999999999909
40
0.249999999999819
40
0.249999999999819
40
0.374999999999728
40
0.374999999999728
40
0.437499999999733
40
0.437499999999733
40
0.499999999999738
40
0.499999999999738
40
0.62499999999975
40
0.62499999999975
40
0.687499999999756
40
0.687499999999756
40
0.749999999999762
40
0.749999999999762
40
0.874999999999881
40
0.874999999999881
40
1
40
1
40
1
40
1
41
1
10
40.1465120818727
20
1.80632673931694
30
0
41
1
10
40.1408619932329
20
1.7949624009386
30
0
41
1
10
40.1343006696701
20
1.78445847139724
30
0
41
1
10
40.1197472669642
20
1.7647920141128
30
0
41
1
10
40.1116773044294
20
1.75558151941482
30
0
41
1
10
40.0947188647457
20
1.73895165405
30
0
41
1
10
40.0857943380868
20
1.73146573727016
30
0
41
1
10
40.0717675133978
20
1.72145214593462
30
0
41
1
10
40.0669805894012
20
1.71831982318949
30
0
41
1
10
40.0573597696125
20
1.71257914395508
30
0
41
1
10
40.0525054107121
20
1.70995526578784
30
0
41
1
10
40.0378148293223
20
1.70283327973917
30
0
41
1
10
40.027853057133
20
1.69907022108919
30
0
41
1
10
40.0126451789715
20
1.69516020698205
30
0
41
1
10
40.0075317111845
20
1.69415465860126
30
0
41
1
10
39.9974591793303
20
1.69284071586569
30
0
41
1
10
39.9924705758869
20
1.6925231140051
30
0
41
1
10
39.9776722334822
20
1.69270305748461
30
0
41
1
10
39.9679341538005
20
1.69436952859053
30
0
41
1
10
39.950291621245
20
1.7014832938909
30
0
41
1
10
39.9421905681231
20
1.70702206323145
30
0
41
1
10
39.935749904697
20
1.71472300825681
30
0
0
SPLINE
5
13D
100
AcDbEntity
8
1
62
256
6
ByLayer
370
18
48
1
60
0
100
AcDbSpline
70
4
71
3
72
8
73
4
40
0
40
0
40
0
40
0
40
1
40
1
40
1
40
1
41
1
10
39.7267895117336
20
1.9452125178276
30
0
41
1
10
39.7055882499757
20
1.96659390483183
30
0
41
1
10
39.6844590182878
20
1.98727526331913
30
0
41
1
10
39.6633985743791
20
2.00725442894517
30
0
0
SPLINE
5
13E
100
AcDbEntity
8
1
62
256
6
ByLayer
370
18
48
1
60
0
100
AcDbSpline
70
4
71
3
72
8
73
4
40
0
40
0
40
0
40
0
40
1
40
1
40
1
40
1
41
1
10
39.5907679796641
20
1.96248315569059
30
0
41
1
10
39.6149839739406
20
1.97766852919577
30
0
41
1
10
39.6391925669289
20
1.99259317999616
30
0
41
1
10
39.6633985743791
20
2.00725442894512
30
0
0
SPLINE
5
13F
100
AcDbEntity
8
1
62
256
6
ByLayer
370
18
48
1
60
0
100
AcDbSpline
70
4
71
3
72
8
73
4
40
0
40
0
40
0
40
0
40
1
40
1
40
1
40
1
41
1
10
39.5907679796641
20
1.96248315569056
30
0
41
1
10
39.549056912854
20
1.87479689183397
30
0
41
1
10
39.5071083954086
20
1.78738039289266
30
0
41
1
10
39.4648085312795
20
1.70031505506023
30
0
0
SPLINE
5
140
100
AcDbEntity
8
1
62
256
6
ByLayer
370
18
48
1
60
0
100
AcDbSpline
70
4
71
3
72
10
73
6
40
0
40
0
40
0
40
0
40
0.5
40
0.5
40
1
40
1
40
1
40
1
41
1
10
39.4914722731966
20
1.71561492069935
30
0
41
1
10
39.5379378155855
20
1.76578714231312
30
0
41
1
10
39.5840756194085
20
1.81275141277001
30
0
41
1
10
39.6756821038606
20
1.90028503888968
30
0
41
1
10
39.7210871440873
20
1.94078801259261
30
0
41
1
10
39.766166522858
20
1.97806348642825
30
0
0
SPLINE
5
141
100
AcDbEntity
8
1
62
256
6
ByLayer
370
18
48
1
60
0
100
AcDbSpline
70
4
71
3
72
8
73
4
40
0
40
0
40
0
40
0
40
1
40
1
40
1
40
1
41
1
10
39.8389550301095
20
1.93222898763679
30
0
41
1
10
39.8146728261144
20
1.94775663928218
30
0
41
1
10
39.7904111154956
20
1.9630357136877
30
0
41
1
10
39.7661665228579
20
1.97806348642823
30
0
0
SPLINE
5
142
100
AcDbEntity
8
1
62
256
6
ByLayer
370
18
48
1
60
0
100
AcDbSpline
70
4
71
3
72
10
73
6
40
0
40
0
40
0
40
0
40
0.5
40
0.5
40
1
40
1
40
1
40
1
41
1
10
39.8389550301095
20
1.9322289876369
30
0
41
1
10
39.8853227325264
20
1.83841383714787
30
0
41
1
10
39.932028574023
20
1.74526293425927
30
0
41
1
10
40.0263811989399
20
1.56050961659861
30
0
41
1
10
40.0738628085238
20
1.46923775172007
30
0
41
1
10
40.1218205680864
20
1.37916609401717
30
0
0
SPLINE
5
143
100
AcDbEntity
8
1
62
256
6
ByLayer
370
18
48
1
60
0
100
AcDbSpline
70
4
71
3
72
27
73
23
40
0
40
0
40
0
40
0
40
0.125000000000001
40
0.125000000000001
40
0.250000000000001
40
0.250000000000001
40
0.375000000000002
40
0.375000000000002
40
0.500000000000003
40
0.500000000000003
40
0.625000000000003
40
0.625000000000003
40
0.687500000000003
40
0.687500000000003
40
0.750000000000002
40
0.812500000000002
40
0.812500000000002
40
0.875000000000001
40
0.875000000000001
40
0.937500000000001
40
0.937500000000001
40
1
40
1
40
1
40
1
41
1
10
40.1218205680864
20
1.37916609401717
30
0
41
1
10
40.1276424657094
20
1.36823172229941
30
0
41
1
10
40.134429251762
20
1.35782853877535
30
0
41
1
10
40.1494737289891
20
1.3378358104263
30
0
41
1
10
40.1578332261403
20
1.32816991732778
30
0
41
1
10
40.1752507984141
20
1.31027489426509
30
0
41
1
10
40.1843507804457
20
1.30196997269132
30
0
41
1
10
40.2032644493681
20
1.28655073886713
30
0
41
1
10
40.213134557254
20
1.27941736205122
30
0
41
1
10
40.2328425416559
20
1.2668924125617
30
0
41
1
10
40.2427636049938
20
1.26142203293597
30
0
41
1
10
40.2577272074134
20
1.25451801192867
30
0
41
1
10
40.2627576918305
20
1.25242636874591
30
0
41
1
10
40.2726608397312
20
1.24880011938944
30
0
41
1
10
40.2824152884523
20
1.24571969782997
30
0
41
1
10
40.291838927812
20
1.24381088520164
30
0
41
1
10
40.3010698353298
20
1.242569282602
30
0
41
1
10
40.3055877036778
20
1.24228920365556
30
0
41
1
10
40.314122531986
20
1.24251066867419
30
0
41
1
10
40.3181743026964
20
1.2430049676677
30
0
41
1
10
40.325779725321
20
1.24488033712561
30
0
41
1
10
40.3293378605914
20
1.24627216723326
30
0
41
1
10
40.3325007014706
20
1.24815132187464
30
0
0
SPLINE
5
144
100
AcDbEntity
8
1
62
256
6
ByLayer
370
18
48
1
60
0
100
AcDbSpline
70
4
71
3
72
10
73
6
40
0
40
0
40
0
40
0
40
0.5
40
0.5
40
1
40
1
40
1
40
1
41
1
10
40.3325007014744
20
1.24815132187931
30
0
41
1
10
40.3789364816259
20
1.27574044670703
30
0
41
1
10
40.4250560398928
20
1.29946954832047
30
0
41
1
10
40.5166054862167
20
1.3391445323922
30
0
41
1
10
40.5619672424805
20
1.3550629504924
30
0
41
1
10
40.6069772655603
20
1.36706988230964
30
0
0
SPLINE
5
145
100
AcDbEntity
8
1
62
256
6
ByLayer
370
18
48
1
60
0
100
AcDbSpline
70
4
71
3
72
8
73
4
40
0
40
0
40
0
40
0
40
1
40
1
40
1
40
1
41
1
10
40.679690394941
20
1.30607865895138
30
0
41
1
10
40.6554729603733
20
1.32661194083241
30
0
41
1
10
40.6312351174696
20
1.34694174062344
30
0
41
1
10
40.6069772655602
20
1.36706988230984
30
0
0
SPLINE
5
146
100
AcDbEntity
8
1
62
256
6
ByLayer
370
18
48
1
60
0
100
AcDbSpline
70
4
71
3
72
10
73
6
40
0
40
0
40
0
40
0
40
0.5
40
0.5
40
1
40
1
40
1
40
1
41
1
10
40.6796903949406
20
1.30607865894757
30
0
41
1
10
40.7261213548237
20
1.21874394389991
30
0
41
1
10
40.7728386364433
20
1.13328783301623
30
0
41
1
10
40.867324020611
20
0.966821078185461
30
0
41
1
10
40.9149049625679
20
0.886096367701327
30
0
41
1
10
40.9629975813052
20
0.807996667381644
30
0
0
SPLINE
5
147
100
AcDbEntity
8
1
62
256
6
ByLayer
370
18
48
1
60
0
100
AcDbSpline
70
4
71
3
72
27
73
23
40
0
40
0
40
0
40
0
40
0.125
40
0.125
40
0.25
40
0.25
40
0.375
40
0.375
40
0.5
40
0.5
40
0.625
40
0.625
40
0.6875
40
0.6875
40
0.75
40
0.8125
40
0.8125
40
0.875
40
0.875
40
0.9375
40
0.9375
40
1
40
1
40
1
40
1
41
1
10
40.9629975813052
20
0.807996667381616
30
0
41
1
10
40.9688291712239
20
0.798526494265587
30
0
41
1
10
40.975625732445
20
0.789140178455966
30
0
41
1
10
40.9906861153911
20
0.770511156441273
30
0
41
1
10
40.9990511044831
20
0.761184617572496
30
0
41
1
10
41.0164735568851
20
0.74333942471236
30
0
41
1
10
41.025574298206
20
0.734753110100087
30
0
41
1
10
41.0444856339605
20
0.718187807319651
30
0
41
1
10
41.0543526247244
20
0.710177882818755
30
0
41
1
10
41.0740542579634
20
0.69534822532998
30
0
41
1
10
41.0839715889448
20
0.688448749468392
30
0
41
1
10
41.0989277945533
20
0.678927958264552
30
0
41
1
10
41.1039554778524
20
0.675877884323171
30
0
41
1
10
41.1138568842833
20
0.670188725624712
30
0
41
1
10
41.1236093824616
20
0.66490318258937
30
0
41
1
10
41.1330312904864
20
0.660477126958256
30
0
41
1
10
41.1422601726038
20
0.656539559650412
30
0
41
1
10
41.1467798873646
20
0.654818429923921
30
0
41
1
10
41.1553184107207
20
0.652039789157357
30
0
41
1
10
41.1593719576989
20
0.650965740011344
30
0
41
1
10
41.1669807448985
20
0.649545922357106
30
0
41
1
10
41.1705425673336
20
0.649204981346514
30
0
41
1
10
41.1737094705807
20
0.649307818897228
30
0
0
SPLINE
5
148
100
AcDbEntity
8
1
62
256
6
ByLayer
370
18
48
1
60
0
100
AcDbSpline
70
4
71
3
72
10
73
6
40
0
40
0
40
0
40
0
40
0.5
40
0.5
40
1
40
1
40
1
40
1
41
1
10
41.1737094705856
20
0.649307818899558
30
0
41
1
10
41.2201484643284
20
0.650815813310345
30
0
41
1
10
41.2662667587477
20
0.648250644088478
30
0
41
1
10
41.3578243438099
20
0.635257964989478
30
0
41
1
10
41.403201094532
20
0.624843274814026
30
0
41
1
10
41.4482446163124
20
0.610644990578464
30
0
0
SPLINE
5
149
100
AcDbEntity
8
1
62
256
6
ByLayer
370
18
48
1
60
0
100
AcDbSpline
70
4
71
3
72
8
73
4
40
0
40
0
40
0
40
0
40
1
40
1
40
1
40
1
41
1
10
41.5208966228898
20
0.54175836927169
30
0
41
1
10
41.496673012191
20
0.564798765594929
30
0
41
1
10
41.4724562323954
20
0.587761495003463
30
0
41
1
10
41.4482446163124
20
0.610644990578464
30
0
0
SPLINE
5
14A
100
AcDbEntity
8
1
62
256
6
ByLayer
370
18
48
1
60
0
100
AcDbSpline
70
4
71
3
72
10
73
6
40
0
40
0
40
0
40
0
40
0.5
40
0.5
40
1
40
1
40
1
40
1
41
1
10
41.5208966228891
20
0.54175836926791
30
0
41
1
10
41.5673166898745
20
0.471116303163029
30
0
41
1
10
41.614063121723
20
0.403555690589457
30
0
41
1
10
41.7084744826812
20
0.274854910083235
30
0
41
1
10
41.7559786925802
20
0.213932609620088
30
0
41
1
10
41.8039385283071
20
0.156558042401031
30
0
0
SPLINE
5
14B
100
AcDbEntity
8
1
62
256
6
ByLayer
370
18
48
1
60
0
100
AcDbSpline
70
4
71
3
72
27
73
23
40
0
40
0
40
0
40
0
40
0.125
40
0.125
40
0.25
40
0.25
40
0.375
40
0.375
40
0.5
40
0.5
40
0.625
40
0.625
40
0.6875
40
0.6875
40
0.75
40
0.8125
40
0.8125
40
0.875
40
0.875
40
0.9375
40
0.9375
40
1
40
1
40
1
40
1
41
1
10
41.8039385283071
20
0.156558042401031
30
0
41
1
10
41.8097856347691
20
0.149563122638938
30
0
41
1
10
41.8166029861988
20
0.142193923900891
30
0
41
1
10
41.831709468862
20
0.126908811752003
30
0
41
1
10
41.8401006141851
20
0.118909275404718
30
0
41
1
10
41.8575675817185
20
0.102999531411655
30
0
41
1
10
41.8666876076036
20
0.095037282539181
30
0
41
1
10
41.8856303953403
20
0.0790706960198406
30
0
41
1
10
41.8955062360548
20
0.0710296798091008
30
0
41
1
10
41.9152132045962
20
0.0554545148906698
30
0
41
1
10
41.9251280997781
20
0.0478469328124902
30
0
41
1
10
41.9400731822253
20
0.0366985424630002
30
0
41
1
10
41.9450952118807
20
0.0330066980064032
30
0
41
1
10
41.9549778512531
20
0.0258493468496397
30
0
41
1
10
41.964711592238
20
0.0189070770370563
30
0
41
1
10
41.9741140293353
20
0.0124174354690751
30
0
41
1
10
41.9833238639592
20
0.0061827767810598
30
0
41
1
10
41.987834107544
20
0.0031932421093188
30
0
41
1
10
41.9963570953937
20
-0.002312405741776
30
0
41
1
10
42.0004042212601
20
-0.004852395390941
30
0
41
1
10
42.0080031508302
20
-0.0094387859439564
30
0
41
1
10
42.0115625675735
20
-0.0114879922012108
30
0
41
1
10
42.0147291619111
20
-0.0131831486042415
30
0
0
SPLINE
5
14C
100
AcDbEntity
8
1
62
256
6
ByLayer
370
18
48
1
60
0
100
AcDbSpline
70
4
71
3
72
10
73
6
40
0
40
0
40
0
40
0
40
0.5
40
0.5
40
1
40
1
40
1
40
1
41
1
10
42.0147291619171
20
-0.0131831486053784
30
0
41
1
10
42.0611888646626
20
-0.0380541785469291
30
0
41
1
10
42.107282872831
20
-0.067160890550781
30
0
41
1
10
42.1988199314238
20
-0.13257453273647
30
0
41
1
10
42.2442393142271
20
-0.168961823831694
30
0
41
1
10
42.2892933206681
20
-0.208789990665792
30
0
0
SPLINE
5
14D
100
AcDbEntity
8
1
62
256
6
ByLayer
370
18
48
1
60
0
100
AcDbSpline
70
4
71
3
72
8
73
4
40
0
40
0
40
0
40
0
40
1
40
1
40
1
40
1
41
1
10
42.3625445858393
20
-0.280423260525026
30
0
41
1
10
42.3381060299247
20
-0.256588104856434
30
0
41
1
10
42.3136904140532
20
-0.232708874908155
30
0
41
1
10
42.2892933206681
20
-0.208789990665764
30
0
0
SPLINE
5
14E
100
AcDbEntity
8
1
62
256
6
ByLayer
370
18
48
1
60
0
100
AcDbSpline
70
4
71
3
72
10
73
6
40
0
40
0
40
0
40
0
40
0.5
40
0.5
40
1
40
1
40
1
40
1
41
1
10
42.3625445858393
20
-0.280423260525026
30
0
41
1
10
42.4088590626617
20
-0.327790768743597
30
0
41
1
10
42.455510347587
20
-0.37114732734068
30
0
41
1
10
42.5497852240607
20
-0.449633307401143
30
0
41
1
10
42.5972397888454
20
-0.484623477952851
30
0
41
1
10
42.6451805872036
20
-0.515290276564798
30
0
0
SPLINE
5
14F
100
AcDbEntity
8
1
62
256
6
ByLayer
370
18
48
1
60
0
100
AcDbSpline
70
4
71
3
72
27
73
23
40
0
40
0
40
0
40
0
40
0.125000000000041
40
0.125000000000041
40
0.250000000000082
40
0.250000000000082
40
0.375000000000123
40
0.375000000000123
40
0.500000000000164
40
0.500000000000164
40
0.625000000000205
40
0.625000000000205
40
0.687500000000171
40
0.687500000000171
40
0.750000000000137
40
0.812500000000103
40
0.812500000000103
40
0.875000000000068
40
0.875000000000068
40
0.937500000000034
40
0.937500000000034
40
1
40
1
40
1
40
1
41
1
10
42.6451805872036
20
-0.515290276564798
30
0
41
1
10
42.6510108942076
20
-0.51901981084157
30
0
41
1
10
42.6578088160814
20
-0.523541732885718
30
0
41
1
10
42.6728775073674
20
-0.533759982178168
30
0
41
1
10
42.6812512284442
20
-0.539530950608651
30
0
41
1
10
42.6986934615939
20
-0.551713281918637
30
0
41
1
10
42.7078037167024
20
-0.558152752903652
30
0
41
1
10
42.7267339051326
20
-0.571714540276048
30
0
41
1
10
42.7366080540996
20
-0.578877676886322
30
0
41
1
10
42.75631639939
20
-0.593420785573898
30
0
41
1
10
42.7662347069747
20
-0.600859565827136
30
0
41
1
10
42.7811893423744
20
-0.612336830047809
30
0
41
1
10
42.7862153693022
20
-0.616238641464122
30
0
41
1
10
42.7961025258767
20
-0.624021241145385
30
0
41
1
10
42.805840313627
20
-0.63179395806975
30
0
41
1
10
42.8152463509658
20
-0.639558053640428
30
0
41
1
10
42.8244588733696
20
-0.647321677748351
30
0
41
1
10
42.8289665359215
20
-0.651203301259358
30
0
41
1
10
42.8374826426868
20
-0.658730837103377
30
0
41
1
10
42.8415256281465
20
-0.662405327744779
30
0
41
1
10
42.8491151382705
20
-0.669547654661073
30
0
41
1
10
42.8526672523057
20
-0.673023324430744
30
0
41
1
10
42.8558263152734
20
-0.676276068478842
30
0
0
SPLINE
5
150
100
AcDbEntity
8
1
62
256
6
ByLayer
370
18
48
1
60
0
100
AcDbSpline
70
4
71
3
72
10
73
6
40
0
40
0
40
0
40
0
40
0.5
40
0.5
40
1
40
1
40
1
40
1
41
1
10
42.8558263152796
20
-0.67627606848302
30
0
41
1
10
42.9023231586099
20
-0.724151761987457
30
0
41
1
10
42.9484937283638
20
-0.775493777762478
30
0
41
1
10
43.0401391348393
20
-0.884518464903266
30
0
41
1
10
43.0855470960492
20
-0.942115356373932
30
0
41
1
10
43.1306086983577
20
-1.00261653658305
30
0
0
SPLINE
5
151
100
AcDbEntity
8
1
62
256
6
ByLayer
370
18
48
1
60
0
100
AcDbSpline
70
4
71
3
72
10
73
6
40
0
40
0
40
0
40
0
40
0.5
40
0.5
40
1
40
1
40
1
40
1
41
1
10
43.2033743095636
20
-1.06786558238275
30
0
41
1
10
43.249747190455
20
-1.08715939284755
30
0
41
1
10
43.2963978578029
20
-1.10239682810598
30
0
41
1
10
43.3906852376831
20
-1.12394704646763
30
0
41
1
10
43.438178267105
20
-1.130122648141
30
0
41
1
10
43.4862092034006
20
-1.13158547925374
30
0
0
SPLINE
5
152
100
AcDbEntity
8
1
62
256
6
ByLayer
370
18
48
1
60
0
100
AcDbSpline
70
4
71
3
72
27
73
23
40
0
40
0
40
0
40
0
40
0.12499999999996
40
0.12499999999996
40
0.249999999999919
40
0.249999999999919
40
0.374999999999879
40
0.374999999999879
40
0.499999999999839
40
0.499999999999839
40
0.624999999999798
40
0.624999999999798
40
0.687499999999832
40
0.687499999999832
40
0.749999999999866
40
0.812499999999899
40
0.812499999999899
40
0.874999999999933
40
0.874999999999933
40
0.937499999999966
40
0.937499999999966
40
1
40
1
40
1
40
1
41
1
10
43.4862092034006
20
-1.13158547925374
30
0
41
1
10
43.4920491508917
20
-1.13176334080686
30
0
41
1
10
43.498857037095
20
-1.13308124882508
30
0
41
1
10
43.5139428319113
20
-1.13741022304714
30
0
41
1
10
43.5223229578774
20
-1.1404794022732
30
0
41
1
10
43.539771377484
20
-1.14791908987493
30
0
41
1
10
43.5488833124185
20
-1.15229418533775
30
0
41
1
10
43.5678132835511
20
-1.16230101534811
30
0
41
1
10
43.577684729784
20
-1.16797349514829
30
0
41
1
10
43.5973871099463
20
-1.18023742519389
30
0
41
1
10
43.6073020801308
20
-1.18686747515375
30
0
41
1
10
43.6222505662364
20
-1.19768189518652
30
0
41
1
10
43.627274299649
20
-1.20145575179796
30
0
41
1
10
43.6371584991389
20
-1.20919355174755
30
0
41
1
10
43.6468936937324
20
-1.21712807589813
30
0
41
1
10
43.6562973942843
20
-1.22549863248147
30
0
41
1
10
43.6655079981304
20
-1.23412258353667
30
0
41
1
10
43.6700169917513
20
-1.23856611073688
30
0
41
1
10
43.6785362476168
20
-1.24747574117345
30
0
41
1
10
43.6825809972831
20
-1.25197243874578
30
0
41
1
10
43.6901742269567
20
-1.26106256329311
30
0
41
1
10
43.6937299875148
20
-1.265671398237
30
0
41
1
10
43.6968931482195
20
-1.27020724090505
30
0
0
SPLINE
5
153
100
AcDbEntity
8
1
62
256
6
ByLayer
370
18
48
1
60
0
100
AcDbSpline
70
4
71
3
72
10
73
6
40
0
40
0
40
0
40
0
40
0.5
40
0.5
40
1
40
1
40
1
40
1
41
1
10
43.6968931482255
20
-1.27020724091216
30
0
41
1
10
43.7433835968112
20
-1.33687263671826
30
0
41
1
10
43.7895466974023
20
-1.40601249595642
30
0
41
1
10
43.881191361227
20
-1.54855973575931
30
0
41
1
10
43.9266091319472
20
-1.62186479639328
30
0
41
1
10
43.9716935794219
20
-1.69700891428528
30
0
0
SPLINE
5
154
100
AcDbEntity
8
1
62
256
6
ByLayer
370
18
48
1
60
0
100
AcDbSpline
70
4
71
3
72
10
73
6
40
0
40
0
40
0
40
0
40
0.5
40
0.5
40
1
40
1
40
1
40
1
41
1
10
44.0446570670538
20
-1.74936708554566
30
0
41
1
10
44.0910126420411
20
-1.73799819034951
30
0
41
1
10
44.1376798869126
20
-1.7224138415022
30
0
41
1
10
44.2319189428151
20
-1.68272027348257
30
0
41
1
10
44.2793310082271
20
-1.65867916103917
30
0
41
1
10
44.3272015618354
20
-1.63039634998654
30
0
0
SPLINE
5
155
100
AcDbEntity
8
1
62
256
6
ByLayer
370
18
48
1
60
0
100
AcDbSpline
70
4
71
3
72
27
73
23
40
0
40
0
40
0
40
0
40
0.12500000000004
40
0.12500000000004
40
0.25000000000008
40
0.25000000000008
40
0.37500000000012
40
0.37500000000012
40
0.50000000000016
40
0.50000000000016
40
0.6250000000002
40
0.6250000000002
40
0.687500000000167
40
0.687500000000167
40
0.750000000000133
40
0.8125000000001
40
0.8125000000001
40
0.875000000000067
40
0.875000000000067
40
0.937500000000033
40
0.937500000000033
40
1
40
1
40
1
40
1
41
1
10
44.3272015618354
20
-1.63039634998657
30
0
41
1
10
44.3330518025327
20
-1.62693991926372
30
0
41
1
10
44.3398744348039
20
-1.62484784647188
30
0
41
1
10
44.3549938967129
20
-1.62270095495362
30
0
41
1
10
44.3633937422174
20
-1.62268146152266
30
0
41
1
10
44.3808766133025
20
-1.62448204732468
30
0
41
1
10
44.3900037413176
20
-1.6262804701073
30
0
41
1
10
44.4089605004535
20
-1.63158064182269
30
0
41
1
10
44.4188408412016
20
-1.6351196302052
30
0
41
1
10
44.4385512300588
20
-1.64373141045047
30
0
41
1
10
44.4484659498876
20
-1.64881842999091
30
0
41
1
10
44.4634082445655
20
-1.65778093454432
30
0
41
1
10
44.4684282778743
20
-1.6610128613257
30
0
41
1
10
44.4783007005424
20
-1.66785431384204
30
0
41
1
10
44.4880241910166
20
-1.67507933618049
30
0
41
1
10
44.4974159268141
20
-1.68314042365853
30
0
41
1
10
44.506614339898
20
-1.69168334247217
30
0
41
1
10
44.5111169721393
20
-1.69620252813019
30
0
41
1
10
44.5196257996761
20
-1.70552091841611
30
0
41
1
10
44.5236662274824
20
-1.71034936993118
30
0
41
1
10
44.5312529382981
20
-1.7203970601459
30
0
41
1
10
44.534807015778
20
-1.72563667236056
30
0
41
1
10
44.5379699640543
20
-1.73096150221198
30
0
0
SPLINE
5
156
100
AcDbEntity
8
1
62
256
6
ByLayer
370
18
48
1
60
0
100
AcDbSpline
70
4
71
3
72
10
73
6
40
0
40
0
40
0
40
0
40
0.499999999999999
40
0.499999999999999
40
1
40
1
40
1
40
1
41
1
10
44.5379699640576
20
-1.7309615022165
30
0
41
1
10
44.5737834987843
20
-1.79125366072003
30
0
41
1
10
44.6093500952738
20
-1.85232333774027
30
0
41
1
10
44.6801333413358
20
-1.97585322920523
30
0
41
1
10
44.7153074502319
20
-2.0382020016439
30
0
41
1
10
44.7502640144482
20
-2.10098033584774
30
0
0
SPLINE
5
157
100
AcDbEntity
8
1
62
256
6
ByLayer
370
18
48
1
60
0
100
AcDbSpline
70
4
71
3
72
10
73
6
40
0
40
0
40
0
40
0
40
0.5
40
0.5
40
1
40
1
40
1
40
1
41
1
10
44.7502640144491
20
-2.10098033584745
30
0
41
1
10
44.7880326148751
20
-2.11321852582387
30
0
41
1
10
44.8260109932963
20
-2.12458597172073
30
0
41
1
10
44.9024194600693
20
-2.14557770748905
30
0
41
1
10
44.9406604112033
20
-2.15514735736914
30
0
41
1
10
44.9789023284401
20
-2.16379983196276
30
0
0
SPLINE
5
158
100
AcDbEntity
8
1
62
256
6
ByLayer
370
18
48
1
60
0
100
AcDbSpline
70
4
71
3
72
10
73
6
40
0
40
0
40
0
40
0
40
0.5
40
0.5
40
1
40
1
40
1
40
1
41
1
10
44.9789023284398
20
-2.16379983196217
30
0
41
1
10
45.0101159630849
20
-2.13367144601094
30
0
41
1
10
45.041544992039
20
-2.1018189498794
30
0
41
1
10
45.1046911068732
20
-2.03490598539003
30
0
41
1
10
45.1364289253581
20
-1.99982735571112
30
0
41
1
10
45.1683815846189
20
-1.96312390580218
30
0
0
SPLINE
5
159
100
AcDbEntity
8
1
62
256
6
ByLayer
370
18
48
1
60
0
100
AcDbSpline
70
4
71
3
72
27
73
23
40
0
40
0
40
0
40
0
40
0.125000000000041
40
0.125000000000041
40
0.250000000000081
40
0.250000000000081
40
0.375000000000122
40
0.375000000000122
40
0.500000000000163
40
0.500000000000163
40
0.625000000000203
40
0.625000000000203
40
0.687500000000169
40
0.687500000000169
40
0.750000000000135
40
0.812500000000101
40
0.812500000000101
40
0.875000000000068
40
0.875000000000068
40
0.937500000000034
40
0.937500000000034
40
1
40
1
40
1
40
1
41
1
10
45.1683815846189
20
-1.96312390580218
30
0
41
1
10
45.174226894865
20
-1.95640950215863
30
0
41
1
10
45.1810437242664
20
-1.95113960719806
30
0
41
1
10
45.1961519258851
20
-1.94276001362471
30
0
41
1
10
45.2045474093571
20
-1.93965844723178
30
0
41
1
10
45.222025947077
20
-1.93563138613231
30
0
41
1
10
45.2311512320333
20
-1.93466147083782
30
0
41
1
10
45.2501053576428
20
-1.93469134855587
30
0
41
1
10
45.2599854267163
20
-1.93572037806859
30
0
41
1
10
45.2796965951531
20
-1.93976054619296
30
0
41
1
10
45.289612770924
20
-1.94275981675898
30
0
41
1
10
45.3045586756822
20
-1.94891345671871
30
0
41
1
10
45.309579849986
20
-1.95125924632725
30
0
41
1
10
45.3194505366384
20
-1.95647783873599
30
0
41
1
10
45.3291715302916
20
-1.96222621449928
30
0
41
1
10
45.3385596384617
20
-1.96912164563469
30
0
41
1
10
45.3477536511278
20
-1.97667573720045
30
0
41
1
10
45.3522511683152
20
-1.98078832483145
30
0
41
1
10
45.360748758689
20
-1.98951859690786
30
0
41
1
10
45.3647830794291
20
-1.99416137058401
30
0
41
1
10
45.3723568744536
20
-2.00408767279814
30
0
41
1
10
45.3759032221915
20
-2.00939251595892
30
0
41
1
10
45.3790588978945
20
-2.01492924927251
30
0
0
SPLINE
5
15A
100
AcDbEntity
8
1
62
256
6
ByLayer
370
18
48
1
60
0
100
AcDbSpline
70
4
71
3
72
8
73
4
40
0
40
0
40
0
40
0
40
1
40
1
40
1
40
1
41
1
10
45.3790588978977
20
-2.0149292492778
30
0
41
1
10
45.4193386882035
20
-2.08560142153579
30
0
41
1
10
45.4593744030272
20
-2.15628459778282
30
0
41
1
10
45.4991430969221
20
-2.22676116347083
30
0
0
SPLINE
5
15B
100
AcDbEntity
8
1
62
256
6
ByLayer
370
18
48
1
60
0
100
AcDbSpline
70
4
71
3
72
12
73
8
40
0
40
0
40
0
40
0
40
0.5
40
0.5
40
0.75
40
0.75
40
1
40
1
40
1
40
1
41
1
10
45.4991430969221
20
-2.2267611634708
30
0
41
1
10
45.5722401797852
20
-2.22814135338865
30
0
41
1
10
45.6455881799913
20
-2.2264522329931
30
0
41
1
10
45.7560709969038
20
-2.21929362906207
30
0
41
1
10
45.7929740761888
20
-2.21613878449438
30
0
41
1
10
45.8669490081312
20
-2.20828518393105
30
0
41
1
10
45.9040100252317
20
-2.2035895499036
30
0
41
1
10
45.9412409898104
20
-2.19808802367729
30
0
0
SPLINE
5
15C
100
AcDbEntity
8
1
62
256
6
ByLayer
370
18
48
1
60
0
100
AcDbSpline
70
4
71
3
72
8
73
4
40
0
40
0
40
0
40
0
40
1
40
1
40
1
40
1
41
1
10
45.9412409898104
20
-2.19808802367709
30
0
41
1
10
45.9638676687122
20
-2.1631767510388
30
0
41
1
10
45.9865945512629
20
-2.12765224525424
30
0
41
1
10
46.0094410396593
20
-2.09151809094368
30
0
0
SPLINE
5
15D
100
AcDbEntity
8
1
62
256
6
ByLayer
370
18
48
1
60
0
100
AcDbSpline
70
4
71
3
72
14
73
10
40
0
40
0
40
0
40
0
40
0.0950319257965196
40
0.0950319257965196
40
0.547515962898262
40
0.547515962898262
40
0.773757981449131
40
0.773757981449131
40
1
40
1
40
1
40
1
41
1
10
40.1481917213646
20
-2.5512459407218
30
0
41
1
10
40.1472970466829
20
-2.55124767438593
30
0
41
1
10
40.1464016642163
20
-2.55105119407762
30
0
41
1
10
40.1412354945128
20
-2.54877631360625
30
0
41
1
10
40.1369235516759
20
-2.54240009500759
30
0
41
1
10
40.130326839727
20
-2.5258469283483
30
0
41
1
10
40.1281247682551
20
-2.51920107282035
30
0
41
1
10
40.1237223409877
20
-2.50372733084563
30
0
41
1
10
40.1215204418586
20
-2.49489551251068
30
0
41
1
10
40.1193172881293
20
-2.48498452331961
30
0
0
SPLINE
5
15E
100
AcDbEntity
8
1
62
256
6
ByLayer
370
18
48
1
60
0
100
AcDbSpline
70
4
71
3
72
15
73
11
40
0
40
0
40
0
40
0
40
0.100711553444327
40
0.100711553444327
40
0.201423106888654
40
0.201423106888654
40
0.402846213777305
40
0.402846213777305
40
0.805692427554607
40
1
40
1
40
1
40
1
41
1
10
40.0464141293471
20
-2.46794244881599
30
0
41
1
10
40.0475172281401
20
-2.47352584844208
30
0
41
1
10
40.0486203532677
20
-2.4788430153599
30
0
41
1
10
40.0508273445568
20
-2.4889387129511
30
0
41
1
10
40.0519313790677
20
-2.49371690989085
30
0
41
1
10
40.055226409702
20
-2.5071591639319
30
0
41
1
10
40.0574068051184
20
-2.51496250302597
30
0
41
1
10
40.0639122626862
20
-2.53496537767032
30
0
41
1
10
40.0702695083066
20
-2.54801171387473
30
0
41
1
10
40.0766155018638
20
-2.5512432827382
30
0
41
1
10
40.0786849398338
20
-2.55124722044064
30
0
0
SPLINE
5
15F
100
AcDbEntity
8
1
62
256
6
ByLayer
370
18
48
1
60
0
100
AcDbSpline
70
4
71
3
72
12
73
8
40
0
40
0
40
0
40
0
40
0.253756890013455
40
0.253756890013455
40
0.626878445006728
40
0.626878445006728
40
1
40
1
40
1
40
1
41
1
10
42.0787570827229
20
2.55124677872723
30
0
41
1
10
42.0816616996701
20
2.55125301928413
30
0
41
1
10
42.0845534168864
20
2.54914489507965
30
0
41
1
10
42.0917278845603
20
2.53882076048771
30
0
41
1
10
42.0960412829029
20
2.52819760440207
30
0
41
1
10
42.1047797306977
20
2.49798016442418
30
0
41
1
10
42.1091995197038
20
2.47838672334419
30
0
41
1
10
42.1136702216328
20
2.45415369683107
30
0
0
SPLINE
5
160
100
AcDbEntity
8
1
62
256
6
ByLayer
370
18
48
1
60
0
100
AcDbSpline
70
4
71
3
72
15
73
11
40
0
40
0
40
0
40
0
40
0.339396451737382
40
0.678792903474763
40
0.678792903474763
40
0.848491129343453
40
0.848491129343453
40
0.933340242277799
40
0.933340242277799
40
1
40
1
40
1
40
1
41
1
10
42.1868087918727
20
2.43357933342773
30
0
41
1
10
42.1823947328481
20
2.45998544807506
30
0
41
1
10
42.1736260638008
20
2.50388269160646
30
0
41
1
10
42.1649057618887
20
2.53018731244234
30
0
41
1
10
42.1583477707956
20
2.54319516249529
30
0
41
1
10
42.1561585477316
20
2.54640880623614
30
0
41
1
10
42.1528648541415
20
2.54950920390712
30
0
41
1
10
42.1517667745128
20
2.5502537212486
30
0
41
1
10
42.1498143549888
20
2.55106472647745
30
0
41
1
10
42.1489572131787
20
2.55124290194675
30
0
41
1
10
42.1481019830235
20
2.55124452403763
30
0
0
SPLINE
5
161
100
AcDbEntity
8
1
62
256
6
ByLayer
370
13
48
1
60
0
100
AcDbSpline
70
4
71
3
72
8
73
4
40
0
40
0
40
0
40
0
40
1
40
1
40
1
40
1
41
1.04
10
42.4592122813144
20
1.95843779211131
30
0
41
1.04
10
42.4482966682406
20
2.02153803190526
30
0
41
1.04
10
42.4374751832144
20
2.06254663130622
30
0
41
1.04
10
42.4266406121009
20
2.08100784146642
30
0
0
SPLINE
5
162
100
AcDbEntity
8
1
62
256
6
ByLayer
370
18
48
1
60
0
100
AcDbSpline
70
4
71
3
72
20
73
16
40
0
40
0
40
0
40
0
40
0.0653502395943426
40
0.0653502395943426
40
0.252280191675473
40
0.439210143756603
40
0.439210143756603
40
0.485942631776886
40
0.485942631776886
40
0.532675119797169
40
0.626140095837735
40
0.626140095837735
40
0.813070047918868
40
0.813070047918868
40
1
40
1
40
1
40
1
41
1
10
39.3481139816216
20
-2.55124698974197
30
0
41
1
10
39.3465524626417
20
-2.55124677069296
30
0
41
1
10
39.3449939132354
20
-2.5506910999882
30
0
41
1
10
39.3389895907017
20
-2.54642719678679
30
0
41
1
10
39.3301443668801
20
-2.53112463337286
30
0
41
1
10
39.3213850711725
20
-2.49788686763557
30
0
41
1
10
39.3159099539476
20
-2.47133556063724
30
0
41
1
10
39.3148132801142
20
-2.46572730604356
30
0
41
1
10
39.3126265153386
20
-2.4539674937609
30
0
41
1
10
39.309358824681
20
-2.43552954010744
30
0
41
1
10
39.3061226404152
20
-2.41472668270808
30
0
41
1
10
39.299673904681
20
-2.37002183130761
30
0
41
1
10
39.295407398258
20
-2.33609439430725
30
0
41
1
10
39.2868160856621
20
-2.26007731504654
30
0
41
1
10
39.2824865821524
20
-2.21798801594548
30
0
41
1
10
39.2780579833025
20
-2.17173074686434
30
0
0
SPLINE
5
163
100
AcDbEntity
8
1
62
256
6
ByLayer
370
18
48
1
60
0
100
AcDbSpline
70
4
71
3
72
24
73
20
40
0
40
0
40
0
40
0
40
0.178158837976045
40
0.356317675952091
40
0.356317675952091
40
0.400857385446102
40
0.400857385446102
40
0.445397094940112
40
0.534476513928134
40
0.534476513928134
40
0.712635351904177
40
0.712635351904177
40
0.890794189880221
40
0.890794189880221
40
0.935333899374231
40
0.935333899374231
40
0.979873608868242
40
0.979873608868242
40
1
40
1
40
1
40
1
41
1
10
39.2051369826936
20
-2.13340356378856
30
0
41
1
10
39.2094174978248
20
-2.18146416551514
30
0
41
1
10
39.2179132358429
20
-2.26977883312782
30
0
41
1
10
39.2264635807261
20
-2.34249849880726
30
0
41
1
10
39.2318938431492
20
-2.38292160535664
30
0
41
1
10
39.2329858626457
20
-2.39076511947815
30
0
41
1
10
39.2351714293858
20
-2.40587964132538
30
0
41
1
10
39.2384511000689
20
-2.42768894881308
30
0
41
1
10
39.2417426786388
20
-2.44694269784483
30
0
41
1
10
39.2483616531048
20
-2.48210035174011
30
0
41
1
10
39.2528405093607
20
-2.50108089010504
30
0
41
1
10
39.261855606657
20
-2.53021552229114
30
0
41
1
10
39.2663787357526
20
-2.5403700161184
30
0
41
1
10
39.2720060971724
20
-2.54742378606522
30
0
41
1
10
39.2731304697937
20
-2.54855184896414
30
0
41
1
10
39.2753767728645
20
-2.55023652843465
30
0
41
1
10
39.2765002101858
20
-2.55079336663073
30
0
41
1
10
39.2781240573098
20
-2.55118073540285
30
0
41
1
10
39.2786282003327
20
-2.55124224101672
30
0
41
1
10
39.2791311248736
20
-2.55124497058836
30
0
0
SPLINE
5
164
100
AcDbEntity
8
1
62
256
6
ByLayer
370
13
48
1
60
0
100
AcDbSpline
70
4
71
3
72
9
73
5
40
0
40
0
40
0
40
0
40
0.736331020864317
40
1
40
1
40
1
40
1
41
1
10
42.6699704328553
20
1.89238485000539
30
0
41
1
10
42.6530331166054
20
2.01105607744577
30
0
41
1
10
42.6304503780273
20
2.10129787033742
30
0
41
1
10
42.6077138921927
20
2.09232965353803
30
0
41
1
10
42.6017281353892
20
2.08310034840852
30
0
0
SPLINE
5
165
100
AcDbEntity
8
1
62
256
6
ByLayer
370
13
48
1
60
0
100
AcDbSpline
70
4
71
3
72
9
73
5
40
0
40
0
40
0
40
0
40
0.753203536490255
40
1
40
1
40
1
40
1
41
1.04
10
43.300425343682
20
1.62249453389732
30
0
41
1.04
10
43.2824373523105
20
1.8096030060662
30
0
41
1.04
10
43.2584905965921
20
1.99451174500345
30
0
41
1.04
10
43.2338680445795
20
2.06810817536619
30
0
41
1.04
10
43.2277867372236
20
2.07925578730054
30
0
0
SPLINE
5
166
100
AcDbEntity
8
1
62
256
6
ByLayer
370
18
48
1
60
0
100
AcDbSpline
70
4
71
3
72
19
73
15
40
0
40
0
40
0
40
0
40
0.137758614223203
40
0.137758614223203
40
0.310206891378562
40
0.310206891378562
40
0.482655168533921
40
0.65510344568928
40
0.65510344568928
40
0.74132758426696
40
0.74132758426696
40
0.82755172284464
40
0.82755172284464
40
1
40
1
40
1
40
1
41
1
10
42.8789061271775
20
2.55124567259264
30
0
41
1
10
42.8824498382756
20
2.55124702037668
30
0
41
1
10
42.8859906873598
20
2.548347713277
30
0
41
1
10
42.8939901258191
20
2.53510361871309
30
0
41
1
10
42.8983788121018
20
2.52319571083393
30
0
41
1
10
42.90710159213
20
2.49061151209369
30
0
41
1
10
42.9157696707118
20
2.44925645520223
30
0
41
1
10
42.9244618824482
20
2.39043006409531
30
0
41
1
10
42.9310430791887
20
2.33957182841459
30
0
41
1
10
42.9332521615295
20
2.32144609258467
30
0
41
1
10
42.9376509427473
20
2.28332668874199
30
0
41
1
10
42.939845490532
20
2.26330025976239
30
0
41
1
10
42.9464256092835
20
2.20037355608565
30
0
41
1
10
42.9508085011406
20
2.15463330546012
30
0
41
1
10
42.9552077311463
20
2.1051506863426
30
0
0
SPLINE
5
167
100
AcDbEntity
8
1
62
256
6
ByLayer
370
18
48
1
60
0
100
AcDbSpline
70
4
71
3
72
27
73
23
40
0
40
0
40
0
40
0
40
0.164653922102759
40
0.164653922102759
40
0.205817402628448
40
0.205817402628448
40
0.246980883154137
40
0.329307844205516
40
0.329307844205516
40
0.493961766308272
40
0.493961766308272
40
0.658615688411028
40
0.658615688411028
40
0.699779168936718
40
0.699779168936718
40
0.740942649462408
40
0.740942649462408
40
0.823269610513785
40
0.823269610513785
40
0.987923532616541
40
0.987923532616541
40
1
40
1
40
1
40
1
41
1
10
43.0278283050833
20
2.06411373622251
30
0
41
1
10
43.0235233374538
20
2.11562516324537
30
0
41
1
10
43.0192282213836
20
2.16363641035844
30
0
41
1
10
43.013818078754
20
2.21912697448701
30
0
41
1
10
43.0127331222085
20
2.23000553519049
30
0
41
1
10
43.0105699851441
20
2.25118289606465
30
0
41
1
10
43.0073310574914
20
2.28212529523313
30
0
41
1
10
43.0041025389132
20
2.31062571738232
30
0
41
1
10
42.9976413685494
20
2.36442179748508
30
0
41
1
10
42.9933280912391
20
2.39602112432775
30
0
41
1
10
42.9845996299815
20
2.45075489438324
30
0
41
1
10
42.9801699830282
20
2.47388958353912
30
0
41
1
10
42.9745722323593
20
2.49738885698417
30
0
41
1
10
42.9734506040116
20
2.50181707124034
30
0
41
1
10
42.9712047193163
20
2.5101241188346
30
0
41
1
10
42.9700792242849
20
2.51400629527072
30
0
41
1
10
42.9667185696951
20
2.52476167426994
30
0
41
1
10
42.9644945923213
20
2.53076541123329
30
0
41
1
10
42.9578658058421
20
2.54534713688213
30
0
41
1
10
42.953509802982
20
2.55050449968573
30
0
41
1
10
42.9488093345153
20
2.55121988012706
30
0
41
1
10
42.9484879372863
20
2.55124460655679
30
0
41
1
10
42.9481663429974
20
2.55124514766913
30
0
0
SPLINE
5
168
100
AcDbEntity
8
1
62
256
6
ByLayer
370
13
48
1
60
0
100
AcDbSpline
70
4
71
3
72
9
73
5
40
0
40
0
40
0
40
0
40
0.499007974644875
40
1
40
1
40
1
40
1
41
1.04
10
38.5338199894936
20
1.22477693024722
30
0
41
1.04
10
38.5188432014566
20
1.42431076062154
30
0
41
1.04
10
38.4881906957486
20
1.78223061580057
30
0
41
1.04
10
38.4562438764032
20
1.99252260072999
30
0
41
1.04
10
38.439734489645
20
2.04798156654705
30
0
0
SPLINE
5
169
100
AcDbEntity
8
1
62
256
6
ByLayer
370
18
48
1
60
0
100
AcDbSpline
70
4
71
3
72
26
73
22
40
0
40
0
40
0
40
0
40
0.0312499999999996
40
0.0312499999999996
40
0.0624999999999993
40
0.124999999999999
40
0.124999999999999
40
0.249999999999999
40
0.374999999999999
40
0.374999999999999
40
0.437499999999998
40
0.437499999999998
40
0.468749999999998
40
0.499999999999999
40
0.624999999999999
40
0.75
40
0.875
40
0.875
40
0.9375
40
0.9375
40
1
40
1
40
1
40
1
41
1
10
38.4057732843671
20
1.39466054015244
30
0
41
1
10
38.4050020323803
20
1.40912678641982
30
0
41
1
10
38.4042298168395
20
1.4234954469791
30
0
41
1
10
38.4026925875662
20
1.45186163595471
30
0
41
1
10
38.4003949093695
20
1.49390373892717
30
0
41
1
10
38.3981196077339
20
1.5344402451808
30
0
41
1
10
38.3935910920967
20
1.61353355345915
30
0
41
1
10
38.3876131803902
20
1.71372132538457
30
0
41
1
10
38.3816424446575
20
1.80343012086939
30
0
41
1
10
38.3771144973509
20
1.86669210589025
30
0
41
1
10
38.3755967704759
20
1.88710832517484
30
0
41
1
10
38.3733003798117
20
1.91670357172768
30
0
41
1
10
38.3717607724227
20
1.93611677209319
30
0
41
1
10
38.3671426861743
20
1.99180140686465
30
0
41
1
10
38.3602260950117
20
2.0659022814373
30
0
41
1
10
38.3510126995312
20
2.14510294407245
30
0
41
1
10
38.3448313918344
20
2.1847866123662
30
0
41
1
10
38.340155569852
20
2.2094675532947
30
0
41
1
10
38.3385889988628
20
2.21684556532014
30
0
41
1
10
38.3354728991651
20
2.22973521995448
30
0
41
1
10
38.3339190871041
20
2.23527161490136
30
0
41
1
10
38.3323676029
20
2.23991374491391
30
0
0
SPLINE
5
16A
100
AcDbEntity
8
1
62
256
6
ByLayer
370
18
48
1
60
0
100
AcDbSpline
70
4
71
3
72
30
73
26
40
0
40
0
40
0
40
0
40
0.11158047387757
40
0.11158047387757
40
0.143309742667657
40
0.143309742667657
40
0.175039011457745
40
0.175039011457745
40
0.238497549037919
40
0.238497549037919
40
0.365414624198269
40
0.492331699358618
40
0.492331699358618
40
0.555790236938792
40
0.555790236938792
40
0.587519505728879
40
0.587519505728879
40
0.619248774518965
40
0.74616584967931
40
0.873082924839655
40
0.873082924839655
40
0.936541462419828
40
0.968270731209914
40
0.968270731209914
40
1
40
1
40
1
40
1
41
1
10
44.1483739035032
20
-2.55124540156558
30
0
41
1
10
44.1445373986994
20
-2.55125019525283
30
0
41
1
10
44.1406625303496
20
-2.54776971479211
30
0
41
1
10
44.1355980111551
20
-2.53872647468407
30
0
41
1
10
44.1344717308026
20
-2.53643562017223
30
0
41
1
10
44.1322107384307
20
-2.53127008264414
30
0
41
1
10
44.1310749543833
20
-2.52839169521792
30
0
41
1
10
44.1276762164036
20
-2.51892733119746
30
0
41
1
10
44.1254163781849
20
-2.51150205165277
30
0
41
1
10
44.1186651741967
20
-2.48594578533314
30
0
41
1
10
44.1097429841747
20
-2.44314010657095
30
0
41
1
10
44.1009903194206
20
-2.38314671175004
30
0
41
1
10
44.0944543628195
20
-2.33160217771578
30
0
41
1
10
44.0922800910647
20
-2.31332695128077
30
0
41
1
10
44.0890177057599
20
-2.28424014502633
30
0
41
1
10
44.0879287340471
20
-2.27425236596903
30
0
41
1
10
44.0857606786103
20
-2.25382407514206
30
0
41
1
10
44.0803598510288
20
-2.20157485079506
30
0
41
1
10
44.0707762649596
20
-2.09708597830809
30
0
41
1
10
44.0622297845048
20
-1.98972325839162
30
0
41
1
10
44.0557270752203
20
-1.90373189828756
30
0
41
1
10
44.0524525784227
20
-1.85936622575508
30
0
41
1
10
44.0491292609236
20
-1.8129133540827
30
0
41
1
10
44.0469014501251
20
-1.78147551440188
30
0
41
1
10
44.0457798211986
20
-1.76549907565845
30
0
41
1
10
44.0446570670455
20
-1.74936708555407
30
0
0
SPLINE
5
16B
100
AcDbEntity
8
1
62
256
6
ByLayer
370
18
48
1
60
0
100
AcDbSpline
70
4
71
3
72
22
73
18
40
0
40
0
40
0
40
0
40
0.125
40
0.249999999999999
40
0.249999999999999
40
0.312499999999999
40
0.312499999999999
40
0.374999999999998
40
0.374999999999998
40
0.499999999999998
40
0.624999999999999
40
0.624999999999999
40
0.749999999999999
40
0.749999999999999
40
0.875
40
0.875
40
1
40
1
40
1
40
1
41
1
10
43.9716935794219
20
-1.69700891428525
30
0
41
1
10
43.9760567175325
20
-1.76286438173906
30
0
41
1
10
43.9846555190721
20
-1.88773621364541
30
0
41
1
10
43.9931696995011
20
-1.99918159882355
30
0
41
1
10
43.9995999825634
20
-2.07766328857065
30
0
41
1
10
44.0017509704563
20
-2.10297179704881
30
0
41
1
10
44.0060819704925
20
-2.15185243303978
30
0
41
1
10
44.0082660648725
20
-2.17546086295653
30
0
41
1
10
44.0148080485369
20
-2.24286654722198
30
0
41
1
10
44.023548602446
20
-2.32416670350258
30
0
41
1
10
44.0325046434655
20
-2.38878273108372
30
0
41
1
10
44.0416245002012
20
-2.44502035778507
30
0
41
1
10
44.0462821920975
20
-2.46895594882798
30
0
41
1
10
44.0556003802084
20
-2.50811964655054
30
0
41
1
10
44.0601735478646
20
-2.52301321848142
30
0
41
1
10
44.0690823394299
20
-2.54375636195121
30
0
41
1
10
44.0734189527442
20
-2.54960483375135
30
0
41
1
10
44.0776708829251
20
-2.55094644584884
30
0
0
SPLINE
5
16C
100
AcDbEntity
8
1
62
256
6
ByLayer
370
18
48
1
60
0
100
AcDbSpline
70
4
71
3
72
8
73
4
40
0
40
0
40
0
40
0
40
1
40
1
40
1
40
1
41
1
10
27.0008916901527
20
1.93165058040597
30
0
41
1
10
27.0790585759944
20
1.93166639404941
30
0
41
1
10
27.15728341155
20
1.92771516978652
30
0
41
1
10
27.2356260965291
20
1.9196578916852
30
0
0
SPLINE
5
16D
100
AcDbEntity
8
1
62
256
6
ByLayer
370
18
48
1
60
0
100
AcDbSpline
70
4
71
3
72
40
73
36
40
0
40
0
40
0
40
0
40
0.040044270546731
40
0.040044270546731
40
0.0883487771473728
40
0.0883487771473728
40
0.136653283748015
40
0.136653283748015
40
0.233262296949288
40
0.329871310150561
40
0.329871310150561
40
0.378175816751203
40
0.378175816751203
40
0.426480323351845
40
0.474784829952487
40
0.474784829952487
40
0.523089336553129
40
0.523089336553129
40
0.619698349754413
40
0.619698349754413
40
0.716307362955697
40
0.716307362955697
40
0.812916376156981
40
0.812916376156981
40
0.861220882757618
40
0.861220882757618
40
0.885373136057936
40
0.885373136057936
40
0.909525389358255
40
0.909525389358255
40
0.957829895958882
40
0.957829895958882
40
0.9819821492592
40
0.9819821492592
40
1
40
1
40
1
40
1
41
1
10
27.824001564108
20
-1.93161528999684
30
0
41
1
10
27.8013447399088
20
-1.93155545715254
30
0
41
1
10
27.7785157764945
20
-1.93141526009461
30
0
41
1
10
27.7277499576043
20
-1.9309572332981
30
0
41
1
10
27.6997292088325
20
-1.93060963145564
30
0
41
1
10
27.643116225341
20
-1.92976950314863
30
0
41
1
10
27.6146239463649
20
-1.92927847102342
30
0
41
1
10
27.5289300011443
20
-1.92767908117895
30
0
41
1
10
27.4138113048365
20
-1.92520479073727
30
0
41
1
10
27.2967782018093
20
-1.92285905213134
30
0
41
1
10
27.2081792398467
20
-1.92142143390501
30
0
41
1
10
27.1785073923257
20
-1.92099608582964
30
0
41
1
10
27.118864732328
20
-1.92029205932695
30
0
41
1
10
27.0589342398433
20
-1.91972915018624
30
0
41
1
10
26.9985026189009
20
-1.91943969718869
30
0
41
1
10
26.9378580200451
20
-1.91927271460594
30
0
41
1
10
26.9074863433409
20
-1.91925026553588
30
0
41
1
10
26.8167389085761
20
-1.91933399336202
30
0
41
1
10
26.756579152412
20
-1.91964254024981
30
0
41
1
10
26.6370278236016
20
-1.92076985926613
30
0
41
1
10
26.5776344036008
20
-1.92158972038635
30
0
41
1
10
26.4597558344215
20
-1.92364049809487
30
0
41
1
10
26.4012591250441
20
-1.92486829514965
30
0
41
1
10
26.3143295063731
20
-1.92679275726451
30
0
41
1
10
26.2854905482797
20
-1.92744700119613
30
0
41
1
10
26.2424731217987
20
-1.92839900322636
30
0
41
1
10
26.2281475299676
20
-1.9287118337933
30
0
41
1
10
26.1997774928458
20
-1.92931223698673
30
0
41
1
10
26.1857221592218
20
-1.92960008111862
30
0
41
1
10
26.1439713597379
20
-1.93040713939445
30
0
41
1
10
26.1166887618239
20
-1.93087149373184
30
0
41
1
10
26.0767263925726
20
-1.93135540167069
30
0
41
1
10
26.0635688252416
20
-1.93148099359806
30
0
41
1
10
26.0409035200803
20
-1.93161778216731
30
0
41
1
10
26.0313001382514
20
-1.93164988611079
30
0
41
1
10
26.0218319031135
20
-1.93164998786483
30
0
0
SPLINE
5
16E
100
AcDbEntity
8
1
62
256
6
ByLayer
370
13
48
1
60
0
100
AcDbSpline
70
4
71
3
72
9
73
5
40
0
40
0
40
0
40
0
40
0.696221950847072
40
1
40
1
40
1
40
1
41
1
10
43.5111088616343
20
1.51072251038465
30
0
41
1
10
43.4894774736692
20
1.75699211118467
30
0
41
1
10
43.4584474217729
20
2.01723786571884
30
0
41
1
10
43.4262726230399
20
2.0886446600035
30
0
41
1
10
43.4165435196621
20
2.09197891882007
30
0
0
SPLINE
5
16F
100
AcDbEntity
8
1
62
256
6
ByLayer
370
13
48
1
60
0
100
AcDbSpline
70
4
71
3
72
9
73
5
40
0
40
0
40
0
40
0
40
0.0388200053136663
40
1
40
1
40
1
40
1
41
1.04
10
44.1415735427571
20
1.11890438085064
30
0
41
1.04
10
44.1403994906311
20
1.13522853509621
30
0
41
1.04
10
44.1101120722618
20
1.55271658532988
30
0
41
1.04
10
44.078736998956
20
1.88654050036371
30
0
41
1.04
10
44.0468488702353
20
2.02130954689488
30
0
0
SPLINE
5
170
100
AcDbEntity
8
1
62
256
6
ByLayer
370
18
48
1
60
0
100
AcDbSpline
70
4
71
3
72
31
73
27
40
0
40
0
40
0
40
0
40
0.125000000000003
40
0.125000000000003
40
0.156250000000003
40
0.156250000000003
40
0.187500000000003
40
0.250000000000003
40
0.250000000000003
40
0.375000000000001
40
0.5
40
0.5
40
0.53125
40
0.53125
40
0.5625
40
0.5625
40
0.625
40
0.625
40
0.749999999999999
40
0.874999999999999
40
0.874999999999999
40
0.937499999999999
40
0.937499999999999
40
0.96875
40
0.96875
40
1
40
1
40
1
40
1
41
1
10
43.6912018488617
20
2.53929187460164
30
0
41
1
10
43.6955382514597
20
2.53082693507668
30
0
41
1
10
43.6998451502479
20
2.51786743194566
30
0
41
1
10
43.7052702212536
20
2.49587082074532
30
0
41
1
10
43.7063593969931
20
2.49117330919566
30
0
41
1
10
43.7085364771617
20
2.48123882098534
30
0
41
1
10
43.7118024013478
20
2.46552551758765
30
0
41
1
10
43.7150826281131
20
2.44740739118913
30
0
41
1
10
43.7216615095622
20
2.40801810686205
30
0
41
1
10
43.730482853127
20
2.34710710809693
30
0
41
1
10
43.7393896498102
20
2.26956894658693
30
0
41
1
10
43.7449829232734
20
2.21579277107304
30
0
41
1
10
43.7461029349063
20
2.20477111770552
30
0
41
1
10
43.7483458174054
20
2.1821892073159
30
0
41
1
10
43.7494703316634
20
2.17061144798277
30
0
41
1
10
43.7528345732211
20
2.13520760437211
30
0
41
1
10
43.7550636425644
20
2.1107292082271
30
0
41
1
10
43.7617140454922
20
2.03472141782024
30
0
41
1
10
43.7704819895756
20
1.92653088509684
30
0
41
1
10
43.7791252278024
20
1.80488897189841
30
0
41
1
10
43.7856048318058
20
1.70854320296894
30
0
41
1
10
43.7877644084164
20
1.6755739007385
30
0
41
1
10
43.7910105788746
20
1.62481436300172
30
0
41
1
10
43.7920952078672
20
1.60765392339522
30
0
41
1
10
43.7942609989316
20
1.57300645949474
30
0
41
1
10
43.7953409224523
20
1.5555398797585
30
0
41
1
10
43.7964185978203
20
1.53793214980422
30
0
0
SPLINE
5
171
100
AcDbEntity
8
1
62
256
6
ByLayer
370
18
48
1
60
0
100
AcDbSpline
70
4
71
3
72
24
73
20
40
0
40
0
40
0
40
0
40
0.125
40
0.25
40
0.25
40
0.312499999999999
40
0.343749999999999
40
0.343749999999999
40
0.374999999999998
40
0.374999999999998
40
0.499999999999999
40
0.624999999999999
40
0.75
40
0.75
40
0.8125
40
0.8125
40
0.875
40
0.875
40
1
40
1
40
1
40
1
41
1
10
43.8694912914559
20
1.48013926177734
30
0
41
1
10
43.8650220441374
20
1.55210436116872
30
0
41
1
10
43.856059353176
20
1.68971086277477
30
0
41
1
10
43.8472017233269
20
1.8149984399989
30
0
41
1
10
43.8405975932038
20
1.90431471129975
30
0
41
1
10
43.8373046501597
20
1.947808259168
30
0
41
1
10
43.8340190605753
20
1.98952785638113
30
0
41
1
10
43.8318291863756
20
2.01694211787006
30
0
41
1
10
43.8307330209429
20
2.03046811074313
30
0
41
1
10
43.8252699503185
20
2.09685308397627
30
0
41
1
10
43.8166753120884
20
2.19477377266463
30
0
41
1
10
43.8039080019281
20
2.31759636391911
30
0
41
1
10
43.7952435857247
20
2.38347172179681
30
0
41
1
10
43.7886004040945
20
2.4266938420987
30
0
41
1
10
43.7863591230354
20
2.44007599009959
30
0
41
1
10
43.781868464416
20
2.4644580499901
30
0
41
1
10
43.7796128659048
20
2.47550185074692
30
0
41
1
10
43.7728029670389
20
2.50525141284905
30
0
41
1
10
43.7681898066918
20
2.52058417142735
30
0
41
1
10
43.7636094226828
20
2.5314659951213
30
0
0
SPLINE
5
172
100
AcDbEntity
8
1
62
256
6
ByLayer
370
18
48
1
60
0
100
AcDbSpline
70
4
71
3
72
14
73
10
40
0
40
0
40
0
40
0
40
0.125000000000004
40
0.125000000000004
40
0.250000000000007
40
0.250000000000007
40
0.500000000000007
40
0.500000000000007
40
1
40
1
40
1
40
1
41
1
10
46.7129276576806
20
0.566743715607601
30
0
41
1
10
46.715128295659
20
0.546750864308621
30
0
41
1
10
46.7172796435216
20
0.526656152471361
30
0
41
1
10
46.7214983098228
20
0.486263050028043
30
0
41
1
10
46.7235672599474
20
0.465947136648367
30
0
41
1
10
46.7296396655239
20
0.404964255154056
30
0
41
1
10
46.7335173834654
20
0.36418926863314
30
0
41
1
10
46.7447702620773
20
0.24152095540947
30
0
41
1
10
46.7517688737444
20
0.159285785491363
30
0
41
1
10
46.7585164334614
20
0.0766143713498195
30
0
0
SPLINE
5
173
100
AcDbEntity
8
1
62
256
6
ByLayer
370
18
48
1
60
0
100
AcDbSpline
70
4
71
3
72
12
73
8
40
0
40
0
40
0
40
0
40
0.500000000000002
40
0.500000000000002
40
0.750000000000001
40
0.750000000000001
40
1
40
1
40
1
40
1
41
1
10
46.7791964115725
20
0.511188023506747
30
0
41
1
10
46.7753328496628
20
0.441041596094095
30
0
41
1
10
46.7716918333653
20
0.369733608044726
30
0
41
1
10
46.7665239163396
20
0.261024536810112
30
0
41
1
10
46.7648507417459
20
0.22449617009579
30
0
41
1
10
46.7616026003887
20
0.150844377178117
30
0
41
1
10
46.7600249864652
20
0.11364687162947
30
0
41
1
10
46.7585164334614
20
0.0766143713498195
30
0
0
SPLINE
5
174
100
AcDbEntity
8
1
62
256
6
ByLayer
370
18
48
1
60
0
100
AcDbSpline
70
4
71
3
72
17
73
13
40
0
40
0
40
0
40
0
40
0.25
40
0.5
40
0.5
40
0.624999999999999
40
0.624999999999999
40
0.687499999999999
40
0.687499999999999
40
0.749999999999999
40
0.749999999999999
40
1
40
1
40
1
40
1
41
1
10
46.7704096351737
20
-0.863425514255141
30
0
41
1
10
46.7705329397191
20
-0.789646155889159
30
0
41
1
10
46.7699521175131
20
-0.639593048611971
30
0
41
1
10
46.7680646650662
20
-0.484633079410372
30
0
41
1
10
46.7663311322546
20
-0.36651797802412
30
0
41
1
10
46.7657007059258
20
-0.326829549256132
30
0
41
1
10
46.7647014158169
20
-0.266806437599769
30
0
41
1
10
46.7643594031154
20
-0.246716926590125
30
0
41
1
10
46.7636620525258
20
-0.206370934285275
30
0
41
1
10
46.7633061027826
20
-0.186079961269229
30
0
41
1
10
46.7615131669072
20
-0.0846701519632802
30
0
41
1
10
46.7600633464178
20
-0.0038713976444171
30
0
41
1
10
46.7585164334614
20
0.0766143713498479
30
0
0
SPLINE
5
175
100
AcDbEntity
8
1
62
256
6
ByLayer
370
18
48
1
60
0
100
AcDbSpline
70
4
71
3
72
26
73
22
40
0
40
0
40
0
40
0
40
0.0624999999999989
40
0.0624999999999989
40
0.124999999999998
40
0.124999999999998
40
0.249999999999998
40
0.249999999999998
40
0.499999999999999
40
0.499999999999999
40
0.562499999999999
40
0.562499999999999
40
0.624999999999999
40
0.624999999999999
40
0.749999999999999
40
0.749999999999999
40
0.875
40
0.875
40
0.9375
40
0.9375
40
1
40
1
40
1
40
1
41
1
10
46.668823383814
20
-0.824539705231416
30
0
41
1
10
46.666604054265
20
-0.795192121618499
30
0
41
1
10
46.6644359887063
20
-0.765531123031707
30
0
41
1
10
46.6601961216242
20
-0.705580701526173
30
0
41
1
10
46.6581210983176
20
-0.675240851342096
30
0
41
1
10
46.6520683789311
20
-0.583904174961532
30
0
41
1
10
46.6482528555068
20
-0.522453341836751
30
0
41
1
10
46.6372991903645
20
-0.336485531441923
30
0
41
1
10
46.6306572965388
20
-0.210369138802804
30
0
41
1
10
46.6224563639266
20
-0.0500615503164568
30
0
41
1
10
46.6208248506939
20
-0.0178198783468702
30
0
41
1
10
46.6176281317178
20
0.0462504964399955
30
0
41
1
10
46.6160587464736
20
0.0781593723033041
30
0
41
1
10
46.6114525859344
20
0.173513596586844
30
0
41
1
10
46.6085160816629
20
0.236587488766958
30
0
41
1
10
46.6030214947825
20
0.361755550374539
30
0
41
1
10
46.6004609157233
20
0.423849784930354
30
0
41
1
10
46.5970462893415
20
0.516241594430994
30
0
41
1
10
46.5959799223568
20
0.54691369306488
30
0
41
1
10
46.594032717678
20
0.608001810589855
30
0
41
1
10
46.5931517477913
20
0.638424090074267
30
0
41
1
10
46.5923998055405
20
0.668513067624161
30
0
0
SPLINE
5
176
100
AcDbEntity
8
1
62
256
6
ByLayer
370
13
48
1
60
0
100
AcDbSpline
70
4
71
3
72
10
73
6
40
0
40
0
40
0
40
0
40
0.101778471584356
40
0.593147910432276
40
1
40
1
40
1
40
1
41
1
10
46.0346266502452
20
-0.339781252169075
30
0
41
1
10
46.0313884354858
20
-0.287196870659045
30
0
41
1
10
46.0124970451332
20
0.0214782370028956
30
0
41
1
10
45.9805855664911
20
0.55208795436107
30
0
41
1
10
45.9523363005878
20
0.977500011731252
30
0
41
1
10
45.9397805285046
20
1.15011640280986
30
0
0
SPLINE
5
177
100
AcDbEntity
8
1
62
256
6
ByLayer
370
18
48
1
60
0
100
AcDbSpline
70
4
71
3
72
25
73
21
40
0
40
0
40
0
40
0
40
0.125000000000002
40
0.250000000000003
40
0.250000000000003
40
0.312500000000004
40
0.343750000000004
40
0.343750000000004
40
0.375000000000003
40
0.375000000000003
40
0.500000000000003
40
0.625000000000003
40
0.750000000000002
40
0.750000000000002
40
0.781250000000002
40
0.781250000000002
40
0.812500000000002
40
0.875000000000002
40
0.875000000000002
40
1
40
1
40
1
40
1
41
1
10
43.3088926956056
20
-2.42891382710411
30
0
41
1
10
43.3046291515276
20
-2.40189782218928
30
0
41
1
10
43.2959900193217
20
-2.3395040766784
30
0
41
1
10
43.2871106726869
20
-2.26074921750586
30
0
41
1
10
43.280370944098
20
-2.19548492270883
30
0
41
1
10
43.2769811947533
20
-2.16130018618139
30
0
41
1
10
43.2735641137473
20
-2.12474589473507
30
0
41
1
10
43.2712802443691
20
-2.09984313169014
30
0
41
1
10
43.2701365665451
20
-2.08713716370056
30
0
41
1
10
43.2644373483548
20
-2.02264356314885
30
0
41
1
10
43.2553928722198
20
-1.91276950965454
30
0
41
1
10
43.2420723167257
20
-1.72849595312201
30
0
41
1
10
43.233327090008
20
-1.5926476518004
30
0
41
1
10
43.2278733514512
20
-1.5035396169778
30
0
41
1
10
43.2267836690316
20
-1.48551575137347
30
0
41
1
10
43.2246168943075
20
-1.4492583116093
30
0
41
1
10
43.2213808493681
20
-1.39448047463915
30
0
41
1
10
43.218180983059
20
-1.33854127992583
30
0
41
1
10
43.2118105044819
20
-1.22513866065648
30
0
41
1
10
43.2076035671246
20
-1.14750850945222
30
0
41
1
10
43.2033743095636
20
-1.06786558238272
30
0
0
SPLINE
5
178
100
AcDbEntity
8
1
62
256
6
ByLayer
370
18
48
1
60
0
100
AcDbSpline
70
4
71
3
72
29
73
25
40
0
40
0
40
0
40
0
40
0.124999999999999
40
0.124999999999999
40
0.187499999999999
40
0.187499999999999
40
0.249999999999999
40
0.249999999999999
40
0.374999999999998
40
0.499999999999998
40
0.499999999999998
40
0.562499999999998
40
0.562499999999998
40
0.593749999999999
40
0.593749999999999
40
0.624999999999999
40
0.749999999999999
40
0.749999999999999
40
0.875
40
0.875
40
0.9375
40
0.96875
40
0.96875
40
1
40
1
40
1
40
1
41
1
10
43.1306086983577
20
-1.00261653658302
30
0
41
1
10
43.1350625933671
20
-1.08318652731902
30
0
41
1
10
43.139490779122
20
-1.16213460353782
30
0
41
1
10
43.1461135194367
20
-1.27805602142391
30
0
41
1
10
43.1483241589165
20
-1.31638112127501
30
0
41
1
10
43.1527016634851
20
-1.39141146428435
30
0
41
1
10
43.1548715651562
20
-1.42817209913107
30
0
41
1
10
43.1613398236084
20
-1.53623204868018
30
0
41
1
10
43.1698507540539
20
-1.6743983526176
30
0
41
1
10
43.1783479910804
20
-1.80088712357349
30
0
41
1
10
43.1848173825795
20
-1.89128983742373
30
0
41
1
10
43.1869882373507
20
-1.920678706426
30
0
41
1
10
43.190267636316
20
-1.96361970653263
30
0
41
1
10
43.1913634031001
20
-1.97772559014481
30
0
41
1
10
43.193550853658
20
-2.00539594171059
30
0
41
1
10
43.1990172288862
20
-2.07331035430468
30
0
41
1
10
43.2044766255965
20
-2.13501154641091
30
0
41
1
10
43.2133170557573
20
-2.2259520710283
30
0
41
1
10
43.2178160090962
20
-2.26753081500391
30
0
41
1
10
43.2246515256344
20
-2.3240053352869
30
0
41
1
10
43.2280855168872
20
-2.35076642667619
30
0
41
1
10
43.2315277675085
20
-2.3752753763408
30
0
41
1
10
43.2338231740053
20
-2.39110793241005
30
0
41
1
10
43.2349705409644
20
-2.39876589107132
30
0
41
1
10
43.2361109356224
20
-2.40612610344863
30
0
0
SPLINE
5
179
100
AcDbEntity
8
1
62
256
6
ByLayer
370
13
48
1
60
0
100
AcDbSpline
70
4
71
3
72
9
73
5
40
0
40
0
40
0
40
0
40
0.615021444071153
40
1
40
1
40
1
40
1
41
1
10
38.7445617881946
20
1.08335179252708
30
0
41
1
10
38.7260921422105
20
1.34286127016497
30
0
41
1
10
38.6952576216744
20
1.72135295765653
30
0
41
1
10
38.6630994158862
20
1.94802413223178
30
0
41
1
10
38.6504388530986
20
2.00682924888025
30
0
0
SPLINE
5
17A
100
AcDbEntity
8
1
62
256
6
ByLayer
370
13
48
1
60
0
100
AcDbSpline
70
4
71
3
72
8
73
4
40
0
40
0
40
0
40
0
40
1
40
1
40
1
40
1
41
1.04
10
39.3750767176619
20
0.621924232539738
30
0
41
1.04
10
39.3428627700363
20
1.1268006728311
30
0
41
1.04
10
39.311948762815
20
1.54783655089398
30
0
41
1.04
10
39.2807078679465
20
1.80747720250184
30
0
0
SPLINE
5
17B
100
AcDbEntity
8
1
62
256
6
ByLayer
370
18
48
1
60
0
100
AcDbSpline
70
4
71
3
72
26
73
22
40
0
40
0
40
0
40
0
40
0.0625000000000003
40
0.0625000000000003
40
0.125
40
0.125
40
0.250000000000001
40
0.375000000000001
40
0.375000000000001
40
0.437500000000001
40
0.437500000000001
40
0.500000000000001
40
0.500000000000001
40
0.625000000000001
40
0.750000000000001
40
0.750000000000001
40
0.8125
40
0.8125
40
0.875
40
0.875
40
1
40
1
40
1
40
1
41
1
10
39.1031432052359
20
0.891609821070261
30
0
41
1
10
39.1009389117698
20
0.932983618170567
30
0
41
1
10
39.0987085799062
20
0.974177583296353
30
0
41
1
10
39.0942545375292
20
1.05513813626536
30
0
41
1
10
39.0920250564614
20
1.09501567375938
30
0
41
1
10
39.0853312745052
20
1.21287204527678
30
0
41
1
10
39.0763921205136
20
1.365286368753
30
0
41
1
10
39.0674455768236
20
1.50835409526511
30
0
41
1
10
39.0607308524214
20
1.61207731886387
30
0
41
1
10
39.0584911386343
20
1.64606229326011
30
0
41
1
10
39.0540096001575
20
1.71277767827192
30
0
41
1
10
39.0517865269746
20
1.74522916033052
30
0
41
1
10
39.0451633656141
20
1.83992442612845
30
0
41
1
10
39.0364567201794
20
1.95910756499526
30
0
41
1
10
39.0278923055388
20
2.06441156880442
30
0
41
1
10
39.0214646345058
20
2.13812080006446
30
0
41
1
10
39.0193211364621
20
2.16181072278371
30
0
41
1
10
39.0150200438497
20
2.20739868272207
30
0
41
1
10
39.0128571081681
20
2.22934432111572
30
0
41
1
10
39.0063961438964
20
2.29176852092016
30
0
41
1
10
39.0021093082228
20
2.3290393149791
30
0
41
1
10
38.9977862086668
20
2.36208732290072
30
0
0
SPLINE
5
17C
100
AcDbEntity
8
1
62
256
6
ByLayer
370
18
48
1
60
0
100
AcDbSpline
70
4
71
3
72
30
73
26
40
0
40
0
40
0
40
0
40
0.0624999999999999
40
0.0624999999999999
40
0.0937499999999997
40
0.0937499999999997
40
0.125
40
0.249999999999999
40
0.249999999999999
40
0.374999999999998
40
0.374999999999998
40
0.437499999999998
40
0.468749999999998
40
0.468749999999998
40
0.499999999999998
40
0.499999999999998
40
0.624999999999999
40
0.749999999999999
40
0.749999999999999
40
0.874999999999999
40
0.874999999999999
40
0.906249999999999
40
0.906249999999999
40
0.9375
40
1
40
1
40
1
40
1
41
1
10
38.9245389478779
20
2.38809870289609
30
0
41
1
10
38.9267115741393
20
2.37264709270372
30
0
41
1
10
38.9288887576361
20
2.35609208683155
30
0
41
1
10
38.9321682661252
20
2.32956985875489
30
0
41
1
10
38.9332641463071
20
2.32044302291698
30
0
41
1
10
38.9354490698001
20
2.3017321209901
30
0
41
1
10
38.9409026868233
20
2.25374680889914
30
0
41
1
10
38.9463271558255
20
2.19981341093356
30
0
41
1
10
38.9550948218846
20
2.10608616018902
30
0
41
1
10
38.9595324379995
20
2.0555057191182
30
0
41
1
10
38.96623043717
20
1.9740117164578
30
0
41
1
10
38.969589687864
20
1.93185612247251
30
0
41
1
10
38.9729587122736
20
1.88755268811343
30
0
41
1
10
38.975206534245
20
1.85753397185738
30
0
41
1
10
38.976332433408
20
1.84226748869878
30
0
41
1
10
38.9819341398272
20
1.76515300520288
30
0
41
1
10
38.9907593798404
20
1.63620748185119
30
0
41
1
10
38.9993508837757
20
1.49648654001314
30
0
41
1
10
39.0079117104305
20
1.35138132593286
30
0
41
1
10
39.0121756853164
20
1.27613694760004
30
0
41
1
10
39.0175954059999
20
1.17861285478955
30
0
41
1
10
39.0186858310333
20
1.15890715580451
30
0
41
1
10
39.0208673628822
20
1.1193489697493
30
0
41
1
10
39.0241424165069
20
1.05974959162811
30
0
41
1
10
39.0274263795177
20
0.999373453349733
30
0
41
1
10
39.0296196955974
20
0.958783143609878
30
0
0
SPLINE
5
17D
100
AcDbEntity
8
1
62
256
6
ByLayer
370
13
48
1
60
0
100
AcDbSpline
70
4
71
3
72
9
73
5
40
0
40
0
40
0
40
0
40
0.158845150619028
40
1
40
1
40
1
40
1
41
1
10
44.3523029381445
20
0.972014358555214
30
0
41
1
10
44.3474933287752
20
1.04200928661655
30
0
41
1
10
44.317008533796
20
1.47287304174071
30
0
41
1
10
44.2854126577776
20
1.8175923046083
30
0
41
1
10
44.2575463381843
20
1.97128586881982
30
0
0
SPLINE
5
17E
100
AcDbEntity
8
1
62
256
6
ByLayer
370
18
48
1
60
0
100
AcDbSpline
70
4
71
3
72
8
73
4
40
0
40
0
40
0
40
0
40
1
40
1
40
1
40
1
41
1
10
44.6352197234802
20
0.858056563479408
30
0
41
1
10
44.6360444169462
20
0.842562962640017
30
0
41
1
10
44.6368685118071
20
0.827010979054961
30
0
41
1
10
44.6376923247534
20
0.811400485013991
30
0
0
SPLINE
5
17F
100
AcDbEntity
8
1
62
256
6
ByLayer
370
18
48
1
60
0
100
AcDbSpline
70
4
71
3
72
26
73
22
40
0
40
0
40
0
40
0
40
0.249999999999999
40
0.249999999999999
40
0.312499999999999
40
0.312499999999999
40
0.374999999999999
40
0.374999999999999
40
0.499999999999997
40
0.499999999999997
40
0.624999999999995
40
0.624999999999995
40
0.687499999999995
40
0.687499999999995
40
0.718749999999996
40
0.718749999999996
40
0.749999999999997
40
0.749999999999997
40
0.874999999999998
40
0.874999999999998
40
1
40
1
40
1
40
1
41
1
10
44.4998089278623
20
2.29174750076692
30
0
41
1
10
44.5115805541904
20
2.22765860270374
30
0
41
1
10
44.5231917390806
20
2.14767651197192
30
0
41
1
10
44.5376635482784
20
2.02814305121888
30
0
41
1
10
44.5405584255515
20
2.00325154449578
30
0
41
1
10
44.5463556602268
20
1.95146265082266
30
0
41
1
10
44.5492410436035
20
1.92471431644077
30
0
41
1
10
44.5578306760181
20
1.84227923483763
30
0
41
1
10
44.5634839896541
20
1.78427538864162
30
0
41
1
10
44.5746790486289
20
1.6622276001541
30
0
41
1
10
44.580209032526
20
1.59816975841647
30
0
41
1
10
44.5885164054696
20
1.49747505708828
30
0
41
1
10
44.5912889407456
20
1.46314156019301
30
0
41
1
10
44.5954727507817
20
1.41046720947986
30
0
41
1
10
44.5968712908679
20
1.39271331464616
30
0
41
1
10
44.5996749336314
20
1.3568094413088
30
0
41
1
10
44.6010797080345
20
1.33866311065401
30
0
41
1
10
44.6080802010384
20
1.24740837146587
30
0
41
1
10
44.6136341431767
20
1.17236851500311
30
0
41
1
10
44.6245683642608
20
1.0182608070632
30
0
41
1
10
44.6299403770348
20
0.939186678256249
30
0
41
1
10
44.6352197234802
20
0.858056563479408
30
0
0
SPLINE
5
180
100
AcDbEntity
8
1
62
256
6
ByLayer
370
18
48
1
60
0
100
AcDbSpline
70
4
71
3
72
8
73
4
40
0
40
0
40
0
40
0
40
1
40
1
40
1
40
1
41
1
10
44.6424741014291
20
0.806951501180095
30
0
41
1
10
44.6400811422316
20
0.824073837766036
30
0
41
1
10
44.6376634724685
20
0.841108679708981
30
0
41
1
10
44.6352197234802
20
0.858056563479408
30
0
0
SPLINE
5
181
100
AcDbEntity
8
1
62
256
6
ByLayer
370
18
48
1
60
0
100
AcDbSpline
70
4
71
3
72
28
73
24
40
0
40
0
40
0
40
0
40
0.124999999999999
40
0.124999999999999
40
0.249999999999998
40
0.249999999999998
40
0.312499999999998
40
0.312499999999998
40
0.343749999999998
40
0.343749999999998
40
0.374999999999998
40
0.499999999999999
40
0.499999999999999
40
0.625
40
0.625
40
0.6875
40
0.71875
40
0.71875
40
0.75
40
0.75
40
0.875
40
0.875
40
1
40
1
40
1
40
1
41
1
10
44.7204193356814
20
0.732854150133477
30
0
41
1
10
44.7173925302237
20
0.812644669542664
30
0
41
1
10
44.7145418104221
20
0.89066347182262
30
0
41
1
10
44.7090764030448
20
1.0431843327888
30
0
41
1
10
44.7064610713198
20
1.11768691256765
30
0
41
1
10
44.7024625647115
20
1.22680686004188
30
0
41
1
10
44.7011157421685
20
1.26274027803405
30
0
41
1
10
44.6990824387774
20
1.3159684127732
30
0
41
1
10
44.6984019827989
20
1.33361201098228
30
0
41
1
10
44.6970458109175
20
1.36847603841562
30
0
41
1
10
44.6936625824129
20
1.45469353350833
30
0
41
1
10
44.690334654227
20
1.53627169402745
30
0
41
1
10
44.6851557410171
20
1.66096575867573
30
0
41
1
10
44.682651141436
20
1.7203833863426
30
0
41
1
10
44.6789576467096
20
1.80514861969917
30
0
41
1
10
44.6771249320928
20
1.84644018973606
30
0
41
1
10
44.6752970618023
20
1.88607913400622
30
0
41
1
10
44.6740777375676
20
1.91213405314355
30
0
41
1
10
44.6734672028786
20
1.92498600910113
30
0
41
1
10
44.6704223932641
20
1.98801372732251
30
0
41
1
10
44.6680019543596
20
2.03472379714901
30
0
41
1
10
44.6630720745769
20
2.12080873743213
30
0
41
1
10
44.6605470939814
20
2.16018686340686
30
0
41
1
10
44.6579493498377
20
2.19577165858058
30
0
0
SPLINE
5
182
100
AcDbEntity
8
1
62
256
6
ByLayer
370
13
48
1
60
0
100
AcDbSpline
70
4
71
3
72
9
73
5
40
0
40
0
40
0
40
0
40
0.343113918938479
40
1
40
1
40
1
40
1
41
1.04
10
44.9827422968683
20
0.499924942926892
30
0
41
1.04
10
44.9717866494154
20
0.674913615761132
30
0
41
1.04
10
44.9398130324214
20
1.16964809745601
30
0
41
1.04
10
44.9083365190074
20
1.55852790919199
30
0
41
1.04
10
44.888025322334
20
1.74362109961387
30
0
0
SPLINE
5
183
100
AcDbEntity
8
1
62
256
6
ByLayer
370
13
48
1
60
0
100
AcDbSpline
70
4
71
3
72
10
73
6
40
0
40
0
40
0
40
0
40
0.47597837710502
40
0.9740467446497
40
1
40
1
40
1
40
1
41
1.04
10
45.8239359429599
20
-0.172093848787141
30
0
41
1.04
10
45.8086910667908
20
0.0777372585621478
30
0
41
1.04
10
45.7774521203996
20
0.596561394952471
30
0
41
1.04
10
45.7458877500295
20
1.06808320503694
30
0
41
1.04
10
45.7298090103136
20
1.2780047903768
30
0
41
1.04
10
45.7290137958835
20
1.28830989797618
30
0
0
SPLINE
5
184
100
AcDbEntity
8
1
62
256
6
ByLayer
370
13
48
1
60
0
100
AcDbSpline
70
4
71
3
72
9
73
5
40
0
40
0
40
0
40
0
40
0.459475675402582
40
1
40
1
40
1
40
1
41
1
10
45.1934808077935
20
0.333550627308625
30
0
41
1
10
45.1788784909495
20
0.570620828572999
30
0
41
1
10
45.1469447377026
20
1.07522450001616
30
0
41
1
10
45.1155058106226
20
1.4735537074539
30
0
41
1
10
45.0987396959167
20
1.6443191782412
30
0
0
SPLINE
5
185
100
AcDbEntity
8
1
62
256
6
ByLayer
370
18
48
1
60
0
100
AcDbSpline
70
4
71
3
72
28
73
24
40
0
40
0
40
0
40
0
40
0.125000000000002
40
0.125000000000002
40
0.250000000000005
40
0.250000000000005
40
0.312500000000006
40
0.343750000000006
40
0.343750000000006
40
0.375000000000007
40
0.375000000000007
40
0.500000000000005
40
0.500000000000005
40
0.625000000000004
40
0.625000000000004
40
0.750000000000002
40
0.750000000000002
40
0.781250000000002
40
0.781250000000002
40
0.812500000000002
40
0.875000000000001
40
0.875000000000001
40
1
40
1
40
1
40
1
41
1
10
45.2496390651368
20
1.78281140469946
30
0
41
1
10
45.2553734242042
20
1.73265856021115
30
0
41
1
10
45.261043529496
20
1.67965185873211
30
0
41
1
10
45.2722657984059
20
1.56799202691906
30
0
41
1
10
45.2778083127806
20
1.50932638665449
30
0
41
1
10
45.2860812573389
20
1.41700348350548
30
0
41
1
10
45.2902102314616
20
1.36976155803009
30
0
41
1
10
45.294348692491
20
1.32087100099937
30
0
41
1
10
45.2971122148325
20
1.28790608032045
30
0
41
1
10
45.29849644156
20
1.27123513816505
30
0
41
1
10
45.305393679826
20
1.18744779439257
30
0
41
1
10
45.3108883951344
20
1.1186464576266
30
0
41
1
10
45.3218192303439
20
0.977594397739807
30
0
41
1
10
45.327229629248
20
0.905341503369215
30
0
41
1
10
45.3378322388115
20
0.757363180214099
30
0
41
1
10
45.3430316591823
20
0.681643574461759
30
0
41
1
10
45.3494226617187
20
0.584776399366859
30
0
41
1
10
45.350697062919
20
0.565269032769919
30
0
41
1
10
45.3532247266472
20
0.526212454579451
30
0
41
1
10
45.3569874813972
20
0.467521999173869
30
0
41
1
10
45.3606712893146
20
0.408518177375043
30
0
41
1
10
45.367957785077
20
0.290098314958925
30
0
41
1
10
45.3727052058176
20
0.210603236156487
30
0
41
1
10
45.3774293829355
20
0.13056060493355
30
0
0
SPLINE
5
186
100
AcDbEntity
8
1
62
256
6
ByLayer
370
18
48
1
60
0
100
AcDbSpline
70
4
71
3
72
27
73
23
40
0
40
0
40
0
40
0
40
0.124999999999999
40
0.249999999999998
40
0.249999999999998
40
0.281249999999998
40
0.281249999999998
40
0.312499999999998
40
0.312499999999998
40
0.374999999999998
40
0.374999999999998
40
0.499999999999998
40
0.499999999999998
40
0.624999999999999
40
0.624999999999999
40
0.687499999999999
40
0.687499999999999
40
0.749999999999999
40
0.749999999999999
40
0.875
40
0.875
40
1
40
1
40
1
40
1
41
1
10
45.6909268544159
20
-0.1351075543636
30
0
41
1
10
45.6872855631648
20
-0.0605594595326124
30
0
41
1
10
45.6802816183431
20
0.0881179765875117
30
0
41
1
10
45.6737367023928
20
0.235969314705898
30
0
41
1
10
45.6697293586088
20
0.328112269989703
30
0
41
1
10
45.6689319346142
20
0.34652761629809
30
0
41
1
10
45.6673431910633
20
0.383331513071823
30
0
41
1
10
45.6665508461944
20
0.401743968969839
30
0
41
1
10
45.6641890883496
20
0.456721392490152
30
0
41
1
10
45.6626347177241
20
0.493032388981305
30
0
41
1
10
45.6580014434993
20
0.600963156416668
30
0
41
1
10
45.6549262204278
20
0.671584746481955
30
0
41
1
10
45.6488555897771
20
0.810188533795952
30
0
41
1
10
45.6458863415209
20
0.878166890192489
30
0
41
1
10
45.6416094100134
20
0.978112950409837
30
0
41
1
10
45.6402106059269
20
1.01109193351169
30
0
41
1
10
45.6374632721867
20
1.07636807602205
30
0
41
1
10
45.6361116125647
20
1.10874191350575
30
0
41
1
10
45.6321589855205
20
1.20386453279238
30
0
41
1
10
45.6296534258849
20
1.26484545863369
30
0
41
1
10
45.6247511434212
20
1.38208429151854
30
0
41
1
10
45.6223362147422
20
1.43834418677471
30
0
41
1
10
45.6199450075917
20
1.49222361796834
30
0
0
SPLINE
5
187
100
AcDbEntity
8
1
62
256
6
ByLayer
370
18
48
1
60
0
100
AcDbSpline
70
4
71
3
72
27
73
23
40
0
40
0
40
0
40
0
40
0.125
40
0.25
40
0.25
40
0.28125
40
0.28125
40
0.312500000000001
40
0.312500000000001
40
0.375
40
0.375
40
0.5
40
0.5
40
0.625
40
0.625
40
0.6875
40
0.6875
40
0.71875
40
0.71875
40
0.75
40
0.875
40
1
40
1
40
1
40
1
41
1
10
41.6264648785016
20
-1.46800408727154
30
0
41
1
10
41.6220152218079
20
-1.39614812240222
30
0
41
1
10
41.6130102907567
20
-1.24784148345245
30
0
41
1
10
41.6041122452704
20
-1.09041935576173
30
0
41
1
10
41.5985640010357
20
-0.989117820706014
30
0
41
1
10
41.5974545319864
20
-0.968711529005731
30
0
41
1
10
41.5952334944093
20
-0.927603935773135
30
0
41
1
10
41.5941202840808
20
-0.906872468640216
30
0
41
1
10
41.5907859404415
20
-0.844477209063058
30
0
41
1
10
41.588573523696
20
-0.802655047793678
30
0
41
1
10
41.5819810353274
20
-0.676526107340692
30
0
41
1
10
41.5776503878542
20
-0.591558373051726
30
0
41
1
10
41.5690808789373
20
-0.419892135186274
30
0
41
1
10
41.5648434297941
20
-0.333193517996875
30
0
41
1
10
41.5584050618598
20
-0.201836616795447
30
0
41
1
10
41.5562435505018
20
-0.157832481819355
30
0
41
1
10
41.5529717554903
20
-0.0914925141949823
30
0
41
1
10
41.5518748107023
20
-0.0692943608985388
30
0
41
1
10
41.5496774953433
20
-0.024931056953335
30
0
41
1
10
41.5441823406449
20
0.0857653658602828
30
0
41
1
10
41.534256127186
20
0.28314240573215
30
0
41
1
10
41.5253607910866
20
0.455988705474141
30
0
41
1
10
41.520896622882
20
0.541758369269331
30
0
0
SPLINE
5
188
100
AcDbEntity
8
1
62
256
6
ByLayer
370
18
48
1
60
0
100
AcDbSpline
70
4
71
3
72
42
73
38
40
0
40
0
40
0
40
0
40
0.0625
40
0.0625
40
0.0937500000000001
40
0.0937500000000001
40
0.125
40
0.125
40
0.1875
40
0.1875
40
0.21875
40
0.21875
40
0.25
40
0.25
40
0.3125
40
0.3125
40
0.375
40
0.375
40
0.5
40
0.5
40
0.625
40
0.625
40
0.65625
40
0.65625
40
0.6875
40
0.6875
40
0.75
40
0.75
40
0.874999999999999
40
0.874999999999999
40
0.890624999999999
40
0.890624999999999
40
0.906249999999999
40
0.906249999999999
40
0.9375
40
0.9375
40
1
40
1
40
1
40
1
41
1
10
47.2
20
1.60171679510194
30
0
41
1
10
47.2
20
1.55694901624435
30
0
41
1
10
47.2
20
1.51261576873694
30
0
41
1
10
47.2000000000001
20
1.44677436873596
30
0
41
1
10
47.2000000000001
20
1.42493787444701
30
0
41
1
10
47.2000000000001
20
1.38149132811216
30
0
41
1
10
47.2
20
1.36010754269486
30
0
41
1
10
47.2000000000001
20
1.2971518986177
30
0
41
1
10
47.2000000000001
20
1.25667429156437
30
0
41
1
10
47.2000000000001
20
1.1981781751162
30
0
41
1
10
47.2000000000001
20
1.17904847934005
30
0
41
1
10
47.2
20
1.1415527987204
30
0
41
1
10
47.2
20
1.12316636359915
30
0
41
1
10
47.2000000000001
20
1.06842498163422
30
0
41
1
10
47.2
20
1.03270510224968
30
0
41
1
10
47.2
20
0.962928146734129
30
0
41
1
10
47.2000000000001
20
0.928846730209102
30
0
41
1
10
47.2000000000001
20
0.828992874803703
30
0
41
1
10
47.2
20
0.765616295668792
30
0
41
1
10
47.2000000000001
20
0.64522748930321
30
0
41
1
10
47.2000000000001
20
0.588193119765435
30
0
41
1
10
47.2
20
0.520951970798137
30
0
41
1
10
47.2000000000001
20
0.5077072860486
30
0
41
1
10
47.2000000000001
20
0.481631524282847
30
0
41
1
10
47.2000000000001
20
0.468795633007488
30
0
41
1
10
47.2000000000001
20
0.431079283198471
30
0
41
1
10
47.2
20
0.406932546172698
30
0
41
1
10
47.2
20
0.337449265983452
30
0
41
1
10
47.2000000000001
20
0.29505362167302
30
0
41
1
10
47.2000000000001
20
0.251843312622071
30
0
41
1
10
47.2000000000001
20
0.247086373417488
30
0
41
1
10
47.2000000000001
20
0.237871322608925
30
0
41
1
10
47.2000000000001
20
0.233444315143089
30
0
41
1
10
47.2000000000001
20
0.220786567319237
30
0
41
1
10
47.2000000000001
20
0.213122517852156
30
0
41
1
10
47.2000000000001
20
0.192332798326106
30
0
41
1
10
47.2
20
0.181447453926893
30
0
41
1
10
47.2
20
0.17352515492658
30
0
0
SPLINE
5
189
100
AcDbEntity
8
1
62
256
6
ByLayer
370
18
48
1
60
0
100
AcDbSpline
70
4
71
3
72
17
73
13
40
0
40
0
40
0
40
0
40
0.0625000000000001
40
0.0625000000000001
40
0.125
40
0.125
40
0.25
40
0.25
40
0.5
40
0.75
40
0.75
40
1
40
1
40
1
40
1
41
1
10
46.7348408595883
20
2.06100822842745
30
0
41
1
10
46.74479634947
20
2.05157632776127
30
0
41
1
10
46.7547759934807
20
2.04209134087742
30
0
41
1
10
46.7747738005761
20
2.02303098548393
30
0
41
1
10
46.7847937907226
20
2.01345363059596
30
0
41
1
10
46.8147847973785
20
1.98474565789829
30
0
41
1
10
46.8346589015411
20
1.96567199455814
30
0
41
1
10
46.8939973460496
20
1.90849739500911
30
0
41
1
10
46.9723770691336
20
1.83237107539963
30
0
41
1
10
47.0492207558082
20
1.75597392642967
30
0
41
1
10
47.12525261448
20
1.6791881435982
30
0
41
1
10
47.1628653474885
20
1.64060040429217
30
0
41
1
10
47.2000000000001
20
1.60171679510196
30
0
0
SPLINE
5
18A
100
AcDbEntity
8
1
62
256
6
ByLayer
370
18
48
1
60
0
100
AcDbSpline
70
4
71
3
72
8
73
4
40
0
40
0
40
0
40
0
40
1
40
1
40
1
40
1
41
1
10
46.7348408595884
20
2.06100822842745
30
0
41
1
10
46.6901759212458
20
2.06883187568232
30
0
41
1
10
46.6457366748323
20
2.07575362189053
30
0
41
1
10
46.6014854079612
20
2.08176202899924
30
0
0
SPLINE
5
18B
100
AcDbEntity
8
1
62
256
6
ByLayer
370
18
48
1
60
0
100
AcDbSpline
70
4
71
3
72
8
73
4
40
0
40
0
40
0
40
0
40
1
40
1
40
1
40
1
41
1
10
46.6014854079612
20
2.08176202899907
30
0
41
1
10
46.5994666641414
20
2.07820279202804
30
0
41
1
10
46.5974472730445
20
2.07463933002799
30
0
41
1
10
46.5954272215707
20
2.07107164511987
30
0
0
SPLINE
5
18C
100
AcDbEntity
8
1
62
256
6
ByLayer
370
18
48
1
60
0
100
AcDbSpline
70
4
71
3
72
26
73
22
40
0
40
0
40
0
40
0
40
0.124999999999882
40
0.124999999999882
40
0.249999999999764
40
0.249999999999764
40
0.374999999999646
40
0.374999999999646
40
0.437499999999638
40
0.437499999999638
40
0.49999999999963
40
0.49999999999963
40
0.624999999999722
40
0.624999999999722
40
0.687499999999768
40
0.687499999999768
40
0.749999999999814
40
0.749999999999814
40
0.874999999999907
40
0.874999999999907
40
1
40
1
40
1
40
1
41
1
10
46.5954272215694
20
2.07107164511757
30
0
41
1
10
46.5897883785203
20
2.06111268342585
30
0
41
1
10
46.583241321876
20
2.05227715763996
30
0
41
1
10
46.5687190401692
20
2.0363505595453
30
0
41
1
10
46.5606670552538
20
2.02923296398956
30
0
41
1
10
46.5437408056445
20
2.01703267139845
30
0
41
1
10
46.5348304815856
20
2.01189277688783
30
0
41
1
10
46.520821105517
20
2.0056019735683
30
0
41
1
10
46.5160373117482
20
2.00374514123348
30
0
41
1
10
46.5064212602173
20
2.0005833167782
30
0
41
1
10
46.5015687702877
20
1.99926818981157
30
0
41
1
10
46.4868825961501
20
1.99613496161646
30
0
41
1
10
46.4769223827608
20
1.99511275014754
30
0
41
1
10
46.4617131573675
20
1.99547685551636
30
0
41
1
10
46.4565922718158
20
1.99592410423423
30
0
41
1
10
46.4465038884923
20
1.99751219822196
30
0
41
1
10
46.4415068246761
20
1.99865177664623
30
0
41
1
10
46.4266813403969
20
2.0032288339238
30
0
41
1
10
46.4169188354916
20
2.0078937465843
30
0
41
1
10
46.3992314781946
20
2.02074610647998
30
0
41
1
10
46.3911108770077
20
2.02909097325488
30
0
41
1
10
46.3846616122536
20
2.03925699000905
30
0
0
SPLINE
5
18D
100
AcDbEntity
8
1
62
256
6
ByLayer
370
18
48
1
60
0
100
AcDbSpline
70
4
71
3
72
8
73
4
40
0
40
0
40
0
40
0
40
1
40
1
40
1
40
1
41
1
10
46.384661612251
20
2.03925699001337
30
0
41
1
10
46.3703198304041
20
2.06186403129888
30
0
41
1
10
46.3560010823053
20
2.08430287119722
30
0
41
1
10
46.3417029678495
20
2.10657538333743
30
0
0
SPLINE
5
18E
100
AcDbEntity
8
1
62
256
6
ByLayer
370
18
48
1
60
0
100
AcDbSpline
70
4
71
3
72
8
73
4
40
0
40
0
40
0
40
0
40
1
40
1
40
1
40
1
41
1
10
46.3417029678495
20
2.10657538333746
30
0
41
1
10
46.1828400243769
20
2.11520717773735
30
0
41
1
10
46.0255587208063
20
2.11153592415181
30
0
41
1
10
45.8686545528705
20
2.09503421688089
30
0
0
SPLINE
5
18F
100
AcDbEntity
8
1
62
256
6
ByLayer
370
18
48
1
60
0
100
AcDbSpline
70
4
71
3
72
12
73
8
40
0
40
0
40
0
40
0
40
0.25
40
0.25
40
0.5
40
0.5
40
1
40
1
40
1
40
1
41
1
10
37.8696503280903
20
-1.86371100940357
30
0
41
1
10
37.8507754116187
20
-1.84718363796992
30
0
41
1
10
37.8313567116005
20
-1.83176468689229
30
0
41
1
10
37.7914564181124
20
-1.80309287543983
30
0
41
1
10
37.7709825627186
20
-1.78984309386985
30
0
41
1
10
37.7082270384898
20
-1.75335676691876
30
0
41
1
10
37.664635223877
20
-1.73333629844336
30
0
41
1
10
37.619650328091
20
-1.71801646393794
30
0
0
SPLINE
5
190
100
AcDbEntity
8
1
62
256
6
ByLayer
370
18
48
1
60
0
100
AcDbSpline
70
4
71
3
72
82
73
78
40
0
40
0
40
0
40
0
40
0.0635092034446497
40
0.0635092034446497
40
0.0952638051669739
40
0.0952638051669739
40
0.127018406889298
40
0.127018406889298
40
0.158773008611622
40
0.158773008611622
40
0.174650309472785
40
0.174650309472785
40
0.190527610333948
40
0.190527610333948
40
0.222282212056272
40
0.222282212056272
40
0.238159512917434
40
0.238159512917434
40
0.254036813778596
40
0.254036813778596
40
0.317546017223242
40
0.317546017223242
40
0.333423318084405
40
0.333423318084405
40
0.349300618945567
40
0.349300618945567
40
0.365177919806729
40
0.365177919806729
40
0.381055220667892
40
0.381055220667892
40
0.444564424112544
40
0.444564424112544
40
0.476319025834871
40
0.476319025834871
40
0.492196326696035
40
0.500134977126617
40
0.500134977126617
40
0.5080736275572
40
0.5080736275572
40
0.523950928418364
40
0.523950928418364
40
0.539828229279528
40
0.539828229279528
40
0.571582831001856
40
0.571582831001856
40
0.635092034446513
40
0.635092034446513
40
0.666846636168842
40
0.666846636168842
40
0.674785286599425
40
0.674785286599425
40
0.682723937030008
40
0.682723937030008
40
0.698601237891176
40
0.698601237891176
40
0.762110441335844
40
0.762110441335844
40
0.793865043058178
40
0.793865043058178
40
0.825619644780512
40
0.825619644780512
40
0.833558295211096
40
0.833558295211096
40
0.841496945641679
40
0.841496945641679
40
0.857374246502847
40
0.857374246502847
40
0.889128848225181
40
0.889128848225181
40
0.920883449947515
40
0.920883449947515
40
0.952638051669849
40
0.952638051669849
40
0.968515352531016
40
0.968515352531016
40
0.984392653392183
40
1
40
1
40
1
40
1
41
1
10
37.6196503280903
20
-1.71801646393956
30
0
41
1
10
37.4315609909643
20
-1.65396168584914
30
0
41
1
10
37.2456170189678
20
-1.5769656508723
30
0
41
1
10
36.9667451128627
20
-1.44530616699882
30
0
41
1
10
36.8737223476634
20
-1.39880482615894
30
0
41
1
10
36.6877294237766
20
-1.30044016731492
30
0
41
1
10
36.594792069063
20
-1.24853266298297
30
0
41
1
10
36.4085182402865
20
-1.13968478142678
30
0
41
1
10
36.3151919527254
20
-1.08273385927461
30
0
41
1
10
36.174537366253
20
-0.993835577769516
30
0
41
1
10
36.1274664507482
20
-0.963575890769903
30
0
41
1
10
36.0336428565936
20
-0.90237384831542
30
0
41
1
10
35.9868391292017
20
-0.871401148779739
30
0
41
1
10
35.8466518579017
20
-0.777504423242789
30
0
41
1
10
35.7534806045755
20
-0.713616259615577
30
0
41
1
10
35.6137840560605
20
-0.616359984597608
30
0
41
1
10
35.5672217095663
20
-0.583713295704541
30
0
41
1
10
35.4742054869536
20
-0.517833281809061
30
0
41
1
10
35.4277457782496
20
-0.484607119418826
30
0
41
1
10
35.1955460020191
20
-0.317228351643166
30
0
41
1
10
35.0101303586094
20
-0.179289270547372
30
0
41
1
10
34.7762736794679
20
-0.0050847061584705
30
0
41
1
10
34.7293968846201
20
0.029843452030434
30
0
41
1
10
34.6353559488942
20
0.0997721275149388
30
0
41
1
10
34.5883596197801
20
0.134644614716365
30
0
41
1
10
34.4946095837323
20
0.203943348275317
30
0
41
1
10
34.4478156186908
20
0.238399745306594
30
0
41
1
10
34.3543293204731
20
0.30685378108322
30
0
41
1
10
34.3076157072552
20
0.340822779783281
30
0
41
1
10
34.0744262867495
20
0.509710536507441
30
0
41
1
10
33.8892606643961
20
0.641978398895787
30
0
41
1
10
33.6107497081771
20
0.832321283754823
30
0
41
1
10
33.5177817450838
20
0.894421352403015
30
0
41
1
10
33.3777317079741
20
0.985029479613814
30
0
41
1
10
33.3075582333937
20
1.02969955479023
30
0
41
1
10
33.2370902057742
20
1.07332658694347
30
0
41
1
10
33.1900378526623
20
1.10216906897776
30
0
41
1
10
33.1664770185839
20
1.1164677044934
30
0
41
1
10
33.0959252473332
20
1.1588313568964
30
0
41
1
10
33.0489631880517
20
1.1863982924921
30
0
41
1
10
32.9552105569222
20
1.24024109694446
30
0
41
1
10
32.9084626001616
20
1.26656212865481
30
0
41
1
10
32.7684775076839
20
1.34360004430053
30
0
41
1
10
32.6755316981597
20
1.39242591718895
30
0
41
1
10
32.3971393771423
20
1.5306594851547
30
0
41
1
10
32.2121082318622
20
1.61177796952722
30
0
41
1
10
31.9323928595358
20
1.71431857539895
30
0
41
1
10
31.8387684953368
20
1.74529868099776
30
0
41
1
10
31.7210165964726
20
1.77982540335708
30
0
41
1
10
31.6974146888372
20
1.78652445373055
30
0
41
1
10
31.6503148222337
20
1.79946495227361
30
0
41
1
10
31.6268020227315
20
1.80571249254095
30
0
41
1
10
31.5563682573506
20
1.82378628582541
30
0
41
1
10
31.5095492074957
20
1.8349421813825
30
0
41
1
10
31.275970908558
20
1.88621164483402
30
0
41
1
10
31.090795627282
20
1.91279059252045
30
0
41
1
10
30.8126122556261
20
1.9304879882645
30
0
41
1
10
30.7198067999887
20
1.9326941244766
30
0
41
1
10
30.5335158450754
20
1.9296951829246
30
0
41
1
10
30.4399524415918
20
1.92451011678943
30
0
41
1
10
30.3225854628688
20
1.91333803065265
30
0
41
1
10
30.2990909368057
20
1.91086818398898
30
0
41
1
10
30.2520540452834
20
1.90545396230453
30
0
41
1
10
30.2284905148081
20
1.9025066114404
30
0
41
1
10
30.1578984858854
20
1.89297176811724
30
0
41
1
10
30.1109877373239
20
1.88569545422769
30
0
41
1
10
29.9706069047824
20
1.86116021798719
30
0
41
1
10
29.8774843214574
20
1.84119478991781
30
0
41
1
10
29.6916299094365
20
1.79436728924762
30
0
41
1
10
29.5989049184905
20
1.76750319032226
30
0
41
1
10
29.4133808688847
20
1.70719511241396
30
0
41
1
10
29.3205871850641
20
1.67374510660389
30
0
41
1
10
29.1808984102781
20
1.61895941773307
30
0
41
1
10
29.1342584888151
20
1.5999271152815
30
0
41
1
10
29.0409064666831
20
1.5602481845961
30
0
41
1
10
28.9482575728487
20
1.51931839593891
30
0
41
1
10
28.8553390129379
20
1.47526184402554
30
0
41
1
10
28.8091831386346
20
1.45266481289247
30
0
0
SPLINE
5
191
100
AcDbEntity
8
1
62
256
6
ByLayer
370
18
48
1
60
0
100
AcDbSpline
70
4
71
3
72
105
73
101
40
0
40
0
40
0
40
0
40
0.033252970953768
40
0.033252970953768
40
0.0665059419075359
40
0.0665059419075359
40
0.0831324273844206
40
0.0831324273844206
40
0.0997589128613053
40
0.0997589128613053
40
0.133011883815075
40
0.133011883815075
40
0.14963836929196
40
0.14963836929196
40
0.166264854768845
40
0.166264854768845
40
0.182891340245731
40
0.182891340245731
40
0.199517825722616
40
0.199517825722616
40
0.216144311199501
40
0.216144311199501
40
0.232770796676387
40
0.232770796676387
40
0.266023767630158
40
0.266023767630158
40
0.282650253107043
40
0.282650253107043
40
0.299276738583928
40
0.299276738583928
40
0.315903224060814
40
0.315903224060814
40
0.332529709537699
40
0.332529709537699
40
0.36578268049147
40
0.36578268049147
40
0.399035651445241
40
0.399035651445241
40
0.432288622399012
40
0.432288622399012
40
0.440601865137453
40
0.440601865137453
40
0.448915107875895
40
0.448915107875895
40
0.457228350614337
40
0.457228350614337
40
0.465541593352779
40
0.465541593352779
40
0.498794564306549
40
0.498794564306549
40
0.532047535260318
40
0.532047535260318
40
0.565300506214088
40
0.565300506214088
40
0.581926991690972
40
0.581926991690972
40
0.590240234429414
40
0.590240234429414
40
0.598553477167856
40
0.598553477167856
40
0.615179962644741
40
0.615179962644741
40
0.631806448121627
40
0.631806448121627
40
0.665059419075396
40
0.665059419075396
40
0.698312390029166
40
0.698312390029166
40
0.71493887550605
40
0.71493887550605
40
0.723252118244493
40
0.723252118244493
40
0.731565360982935
40
0.731565360982935
40
0.748191846459818
40
0.748191846459818
40
0.764818331936701
40
0.764818331936701
40
0.798071302890468
40
0.798071302890468
40
0.831324273844235
40
0.831324273844235
40
0.847950759321117
40
0.847950759321117
40
0.864577244798
40
0.864577244798
40
0.897830215751765
40
0.897830215751765
40
0.906143458490207
40
0.906143458490207
40
0.914456701228649
40
0.931083186705533
40
0.931083186705533
40
0.964336157659299
40
0.964336157659299
40
0.980962643136183
40
0.980962643136183
40
0.997589128613066
40
0.997589128613066
40
1
40
1
40
1
40
1
41
1
10
27.2355293583757
20
1.919646039311
30
0
41
1
10
27.3445631952023
20
1.9107168813284
30
0
41
1
10
27.4530695613866
20
1.89688966863807
30
0
41
1
10
27.6691758601082
20
1.85962139989829
30
0
41
1
10
27.7768137827963
20
1.83619383654963
30
0
41
1
10
27.9377059479024
20
1.79373859178702
30
0
41
1
10
27.9913627656194
20
1.77842019653346
30
0
41
1
10
28.0989387724515
20
1.74558009269998
30
0
41
1
10
28.1528336973923
20
1.7280470416614
30
0
41
1
10
28.3148941872806
20
1.67215879274019
30
0
41
1
10
28.4234558328242
20
1.63053735432115
30
0
41
1
10
28.5872576041213
20
1.56159407319811
30
0
41
1
10
28.6420631705711
20
1.53749839274235
30
0
41
1
10
28.7511406176042
20
1.48754525455379
30
0
41
1
10
28.8055197769366
20
1.46164506535018
30
0
41
1
10
28.9139745579565
20
1.40802444074737
30
0
41
1
10
28.9680495441513
20
1.38030359804023
30
0
41
1
10
29.075885111448
20
1.32302668591115
30
0
41
1
10
29.1296456645982
20
1.29346912049527
30
0
41
1
10
29.2370109785785
20
1.23266558836062
30
0
41
1
10
29.290652786312
20
1.20145705044058
30
0
41
1
10
29.3981344591183
20
1.13774138025039
30
0
41
1
10
29.4519474134505
20
1.1052071585838
30
0
41
1
10
29.6136298154826
20
1.00562734509768
30
0
41
1
10
29.7217437972136
20
0.93660927346707
30
0
41
1
10
29.88465538067
20
0.829414586254671
30
0
41
1
10
29.9390792344541
20
0.793066482817579
30
0
41
1
10
30.0482009566919
20
0.719157929383016
30
0
41
1
10
30.1029953798087
20
0.68152965387543
30
0
41
1
10
30.212039778882
20
0.605618002133923
30
0
41
1
10
30.2663593846164
20
0.567284189007097
30
0
41
1
10
30.3745956895551
20
0.48986379283312
30
0
41
1
10
30.4284926190647
20
0.450750525168843
30
0
41
1
10
30.5897054692895
20
0.332448793649235
30
0
41
1
10
30.6972848859132
20
0.253300690073075
30
0
41
1
10
30.9126970792653
20
0.094536309709838
30
0
41
1
10
31.020572192525
20
0.0149770336434187
30
0
41
1
10
31.2369804078012
20
-0.144052650797647
30
0
41
1
10
31.3455105938906
20
-0.223526092112223
30
0
41
1
10
31.4815558201021
20
-0.322868725600358
30
0
41
1
10
31.5087858835401
20
-0.342734775350408
30
0
41
1
10
31.5633018020429
20
-0.382443517407353
30
0
41
1
10
31.5906049920825
20
-0.402297649410059
30
0
41
1
10
31.6450547824841
20
-0.441806459303592
30
0
41
1
10
31.6722224631291
20
-0.46148527461466
30
0
41
1
10
31.7264085972195
20
-0.500738501474132
30
0
41
1
10
31.7534356016728
20
-0.520300738697358
30
0
41
1
10
31.8885267886476
20
-0.617407252019802
30
0
41
1
10
31.996353536141
20
-0.692989073100335
30
0
41
1
10
32.2119817661049
20
-0.83953168264344
30
0
41
1
10
32.3198051593525
20
-0.910467363167896
30
0
41
1
10
32.5356968373625
20
-1.04745529232306
30
0
41
1
10
32.643770105084
20
-1.11350249851736
30
0
41
1
10
32.806205405802
20
-1.208676129596
30
0
41
1
10
32.8603995892754
20
-1.23975573444756
30
0
41
1
10
32.9417653831957
20
-1.28538224311734
30
0
41
1
10
32.9689016076258
20
-1.30042353731253
30
0
41
1
10
33.0231907855213
20
-1.33017765473536
30
0
41
1
10
33.0503571130908
20
-1.34491477136427
30
0
41
1
10
33.1318751171261
20
-1.38834998079506
30
0
41
1
10
33.1861925557643
20
-1.41616903749781
30
0
41
1
10
33.2946558895148
20
-1.46972520722093
30
0
41
1
10
33.3487973018326
20
-1.49546375466295
30
0
41
1
10
33.511072105779
20
-1.56951961526485
30
0
41
1
10
33.6190763655861
20
-1.61466858990073
30
0
41
1
10
33.8350426756746
20
-1.69647867185344
30
0
41
1
10
33.9429675973197
20
-1.73317079734019
30
0
41
1
10
34.1048454509678
20
-1.78173996394076
30
0
41
1
10
34.1588067077777
20
-1.79684713434182
30
0
41
1
10
34.2397524055658
20
-1.8178455681892
30
0
41
1
10
34.2667347528093
20
-1.82456788770494
30
0
41
1
10
34.3206985098423
20
-1.83744989925353
30
0
41
1
10
34.3476752757885
20
-1.84361064136834
30
0
41
1
10
34.4288193583299
20
-1.86114998100143
30
0
41
1
10
34.4831238357754
20
-1.87162123088851
30
0
41
1
10
34.5921714081726
20
-1.89010375383913
30
0
41
1
10
34.6466050306333
20
-1.89805660143594
30
0
41
1
10
34.8096420567799
20
-1.91811132037509
30
0
41
1
10
34.9180403123123
20
-1.9264322953544
30
0
41
1
10
35.1343361404774
20
-1.93328299144753
30
0
41
1
10
35.2422571122911
20
-1.93180838862312
30
0
41
1
10
35.403904383107
20
-1.92220250561445
30
0
41
1
10
35.4577451237437
20
-1.91776576330662
30
0
41
1
10
35.5653223297433
20
-1.90636939430604
30
0
41
1
10
35.6189916139666
20
-1.89938712785269
30
0
41
1
10
35.78060768214
20
-1.87476584625665
30
0
41
1
10
35.8890196948166
20
-1.85345614206483
30
0
41
1
10
36.0255447619915
20
-1.82073733130778
30
0
41
1
10
36.0528886005466
20
-1.81389208497774
30
0
41
1
10
36.1074527161081
20
-1.79965774255066
30
0
41
1
10
36.1891976578357
20
-1.77746974490589
30
0
41
1
10
36.2706678204737
20
-1.75281773132136
30
0
41
1
10
36.433278786048
20
-1.70030287576458
30
0
41
1
10
36.5412290468672
20
-1.66101147344713
30
0
41
1
10
36.7025234464447
20
-1.59570168160161
30
0
41
1
10
36.7561969559508
20
-1.57287717038199
30
0
41
1
10
36.8634042671131
20
-1.52513284478715
30
0
41
1
10
36.9168802960524
20
-1.50016184802897
30
0
41
1
10
36.9781809362411
20
-1.47048352590494
30
0
41
1
10
36.9859468601866
20
-1.4667066996227
30
0
41
1
10
36.9937156521935
20
-1.46291149099696
30
0
0
SPLINE
5
192
100
AcDbEntity
8
1
62
256
6
ByLayer
370
18
48
1
60
0
100
AcDbSpline
70
4
71
3
72
19
73
15
40
0
40
0
40
0
40
0
40
0.21102174262615
40
0.21102174262615
40
0.342518118855125
40
0.342518118855125
40
0.4740144950841
40
0.605510871313075
40
0.605510871313075
40
0.73700724754205
40
0.73700724754205
40
0.868503623771025
40
0.868503623771025
40
1
40
1
40
1
40
1
41
1
10
43.3130700116603
20
2.03447031082388
30
0
41
1
10
43.3209882182441
20
2.03463822033714
30
0
41
1
10
43.3289436860242
20
2.03550885663506
30
0
41
1
10
43.3419075739962
20
2.03816906162405
30
0
41
1
10
43.3469247733884
20
2.03950252421348
30
0
41
1
10
43.356799064609
20
2.04278896526173
30
0
41
1
10
43.3665259505438
20
2.04668904270883
30
0
41
1
10
43.3759247950718
20
2.0519185378339
30
0
41
1
10
43.3851322534089
20
2.05790949411133
30
0
41
1
10
43.3896421549094
20
2.06129651752389
30
0
41
1
10
43.398165540066
20
2.06874152188317
30
0
41
1
10
43.4022133438544
20
2.07281816157268
30
0
41
1
10
43.4098140884906
20
2.08179069221964
30
0
41
1
10
43.4133750750837
20
2.08670957345731
30
0
41
1
10
43.41654351966
20
2.09197891881627
30
0
0
SPLINE
5
193
100
AcDbEntity
8
1
62
256
6
ByLayer
370
18
48
1
60
0
100
AcDbSpline
70
4
71
3
72
10
73
6
40
0
40
0
40
0
40
0
40
0.5
40
0.5
40
1
40
1
40
1
40
1
41
1
10
43.4165435196621
20
2.09197891882007
30
0
41
1
10
43.4630185029278
20
2.16927007272864
30
0
41
1
10
43.5091595248464
20
2.24535618439913
30
0
41
1
10
43.600753249849
20
2.39466310396355
30
0
41
1
10
43.6461427997319
20
2.46778226090046
30
0
41
1
10
43.6912018488617
20
2.53929187460159
30
0
0
SPLINE
5
194
100
AcDbEntity
8
1
62
256
6
ByLayer
370
18
48
1
60
0
100
AcDbSpline
70
4
71
3
72
8
73
4
40
0
40
0
40
0
40
0
40
1
40
1
40
1
40
1
41
1
10
43.7636094226827
20
2.5314659951213
30
0
41
1
10
43.7394632355411
20
2.53439834427169
30
0
41
1
10
43.7152944553755
20
2.53701069728388
30
0
41
1
10
43.6912018488617
20
2.53929187460164
30
0
0
SPLINE
5
195
100
AcDbEntity
8
1
62
256
6
ByLayer
370
18
48
1
60
0
100
AcDbSpline
70
4
71
3
72
10
73
6
40
0
40
0
40
0
40
0
40
0.5
40
0.5
40
1
40
1
40
1
40
1
41
1
10
43.7636094226827
20
2.53146599512144
30
0
41
1
10
43.8100338412224
20
2.44986850953055
30
0
41
1
10
43.8568139729705
20
2.36645180453473
30
0
41
1
10
43.9513081214698
20
2.19607019565697
30
0
41
1
10
43.9988505532426
20
2.10940073514095
30
0
41
1
10
44.0468488702353
20
2.02130954689488
30
0
0
SPLINE
5
196
100
AcDbEntity
8
1
62
256
6
ByLayer
370
18
48
1
60
0
100
AcDbSpline
70
4
71
3
72
27
73
23
40
0
40
0
40
0
40
0
40
0.12499999999996
40
0.12499999999996
40
0.249999999999919
40
0.249999999999919
40
0.374999999999879
40
0.374999999999879
40
0.499999999999837
40
0.499999999999837
40
0.624999999999796
40
0.624999999999796
40
0.68749999999983
40
0.68749999999983
40
0.749999999999864
40
0.812499999999898
40
0.812499999999898
40
0.874999999999932
40
0.874999999999932
40
0.937499999999966
40
0.937499999999966
40
1
40
1
40
1
40
1
41
1
10
44.0468488702381
20
2.02130954689017
30
0
41
1
10
44.0526951217361
20
2.01057993649127
30
0
41
1
10
44.0595129532511
20
2.0010383133783
30
0
41
1
10
44.0746231688353
20
1.98374227923628
30
0
41
1
10
44.0830195537894
20
1.97594490577131
30
0
41
1
10
44.1004996114148
20
1.96253372370742
30
0
41
1
10
44.1096255049397
20
1.95684637414598
30
0
41
1
10
44.1285804775718
20
1.94737783034722
30
0
41
1
10
44.1384611607082
20
1.94360425933888
30
0
41
1
10
44.1581732850621
20
1.93830449188869
30
0
41
1
10
44.1680895601854
20
1.93672233017804
30
0
41
1
10
44.1830352026996
20
1.93612886821316
30
0
41
1
10
44.1880564217493
20
1.93623489676892
30
0
41
1
10
44.1979285746125
20
1.93710334454386
30
0
41
1
10
44.2076510238315
20
1.93862030744731
30
0
41
1
10
44.2170404659194
20
1.94153213605398
30
0
41
1
10
44.2262357826233
20
1.94524200924766
30
0
41
1
10
44.2307343431867
20
1.94750399366038
30
0
41
1
10
44.2392337449033
20
1.95280442145267
30
0
41
1
10
44.2432688695443
20
1.95585331932321
30
0
41
1
10
44.2508439885715
20
1.96287191172902
30
0
41
1
10
44.2543907236922
20
1.96686099687676
30
0
41
1
10
44.2575463381821
20
1.97128586881581
30
0
0
SPLINE
5
197
100
AcDbEntity
8
1
62
256
6
ByLayer
370
18
48
1
60
0
100
AcDbSpline
70
4
71
3
72
8
73
4
40
0
40
0
40
0
40
0
40
1
40
1
40
1
40
1
41
1
10
44.2575463381843
20
1.97128586881982
30
0
41
1
10
44.3393903365632
20
2.08604932075537
30
0
41
1
10
44.4202450744736
20
2.19333661261771
30
0
41
1
10
44.4998089278623
20
2.29174750076689
30
0
0
SPLINE
5
198
100
AcDbEntity
8
1
62
256
6
ByLayer
370
18
48
1
60
0
100
AcDbSpline
70
4
71
3
72
10
73
6
40
0
40
0
40
0
40
0
40
0.5
40
0.5
40
1
40
1
40
1
40
1
41
1
10
44.4998089278623
20
2.29174750076692
30
0
41
1
10
44.5260993907932
20
2.2764479059949
30
0
41
1
10
44.5524192183906
20
2.26080196834354
30
0
41
1
10
44.6051162521174
20
2.22880988039807
30
0
41
1
10
44.6314866567303
20
2.21246186410067
30
0
41
1
10
44.657949349838
20
2.19577165858087
30
0
0
SPLINE
5
199
100
AcDbEntity
8
1
62
256
6
ByLayer
370
18
48
1
60
0
100
AcDbSpline
70
4
71
3
72
12
73
8
40
0
40
0
40
0
40
0
40
0.250000000000009
40
0.250000000000009
40
0.500000000000019
40
0.500000000000019
40
1
40
1
40
1
40
1
41
1
10
44.6579493498377
20
2.19577165858058
30
0
41
1
10
44.6768382590181
20
2.15828080119732
30
0
41
1
10
44.6957961879902
20
2.12071239113604
30
0
41
1
10
44.7338706551448
20
2.04542847878724
30
0
41
1
10
44.7529942520923
20
2.00769800521445
30
0
41
1
10
44.8105190127775
20
1.89453441663196
30
0
41
1
10
44.8491043184595
20
1.81906572203292
30
0
41
1
10
44.8880253223339
20
1.74362109961407
30
0
0
SPLINE
5
19A
100
AcDbEntity
8
1
62
256
6
ByLayer
370
18
48
1
60
0
100
AcDbSpline
70
4
71
3
72
27
73
23
40
0
40
0
40
0
40
0
40
0.125000000000001
40
0.125000000000001
40
0.250000000000001
40
0.250000000000001
40
0.375000000000002
40
0.375000000000002
40
0.500000000000003
40
0.500000000000003
40
0.625000000000003
40
0.625000000000003
40
0.687500000000003
40
0.687500000000003
40
0.750000000000002
40
0.812500000000002
40
0.812500000000002
40
0.875000000000001
40
0.875000000000001
40
0.937500000000001
40
0.937500000000001
40
1
40
1
40
1
40
1
41
1
10
44.8880253223368
20
1.74362109961007
30
0
41
1
10
44.8938704352881
20
1.73229091036435
30
0
41
1
10
44.900685630815
20
1.7218244113252
30
0
41
1
10
44.9157876905908
20
1.70219591303811
30
0
41
1
10
44.9241775910084
20
1.69297005752233
30
0
41
1
10
44.9416439758089
20
1.67637038148581
30
0
41
1
10
44.9507637341445
20
1.66891735660039
30
0
41
1
10
44.969706897385
20
1.65558816848514
30
0
41
1
10
44.9795828000605
20
1.64970598524195
30
0
41
1
10
44.9992900806974
20
1.63999296226348
30
0
41
1
10
45.0092058962654
20
1.63609040365859
30
0
41
1
10
45.024153270657
20
1.63181441550722
30
0
41
1
10
45.0291758639764
20
1.63065148357256
30
0
41
1
10
45.0390542848998
20
1.62895284292949
30
0
41
1
10
45.0487833655309
20
1.62786890088688
30
0
41
1
10
45.0581801421495
20
1.62810661311247
30
0
41
1
10
45.0673834742743
20
1.62909735402945
30
0
41
1
10
45.0718879857272
20
1.62997750984596
30
0
41
1
10
45.0803989013599
20
1.6325470786461
30
0
41
1
10
45.0844396909059
20
1.63423710116052
30
0
41
1
10
45.0920257168079
20
1.63855276441888
30
0
41
1
10
45.0955784768781
20
1.64119427407942
30
0
41
1
10
45.0987396959146
20
1.64431917823771
30
0
0
SPLINE
5
19B
100
AcDbEntity
8
1
62
256
6
ByLayer
370
18
48
1
60
0
100
AcDbSpline
70
4
71
3
72
8
73
4
40
0
40
0
40
0
40
0
40
1
40
1
40
1
40
1
41
1
10
45.0987396959167
20
1.6443191782412
30
0
41
1
10
45.1494394610417
20
1.69443652381614
30
0
41
1
10
45.1997438821764
20
1.74061962855654
30
0
41
1
10
45.2496390651369
20
1.78281140469946
30
0
0
SPLINE
5
19C
100
AcDbEntity
8
1
62
256
6
ByLayer
370
18
48
1
60
0
100
AcDbSpline
70
4
71
3
72
8
73
4
40
0
40
0
40
0
40
0
40
1
40
1
40
1
40
1
41
1
10
45.2496390651368
20
1.78281140469949
30
0
41
1
10
45.3724433029547
20
1.69000870698298
30
0
41
1
10
45.4957927752797
20
1.59304754466589
30
0
41
1
10
45.6199450075918
20
1.49222361796868
30
0
0
SPLINE
5
19D
100
AcDbEntity
8
1
62
256
6
ByLayer
370
18
48
1
60
0
100
AcDbSpline
70
4
71
3
72
8
73
4
40
0
40
0
40
0
40
0
40
1
40
1
40
1
40
1
41
1
10
45.6199450075917
20
1.49222361796856
30
0
41
1
10
45.6560800132876
20
1.42344551050798
30
0
41
1
10
45.6924124973585
20
1.35545792200671
30
0
41
1
10
45.7290137958835
20
1.28830989797621
30
0
0
SPLINE
5
19E
100
AcDbEntity
8
1
62
256
6
ByLayer
370
18
48
1
60
0
100
AcDbSpline
70
4
71
3
72
27
73
23
40
0
40
0
40
0
40
0
40
0.125
40
0.125
40
0.25
40
0.25
40
0.375
40
0.375
40
0.5
40
0.5
40
0.625
40
0.625
40
0.6875
40
0.6875
40
0.75
40
0.8125
40
0.8125
40
0.875
40
0.875
40
0.9375
40
0.9375
40
1
40
1
40
1
40
1
41
1
10
45.7290137958863
20
1.28830989797331
30
0
41
1
10
45.7348783376279
20
1.2775509247781
30
0
41
1
10
45.7417185674998
20
1.26724882957794
30
0
41
1
10
45.7568739402912
20
1.24734039791238
30
0
41
1
10
45.7652925580285
20
1.23765560722168
30
0
41
1
10
45.7828042778703
20
1.21962493125793
30
0
41
1
10
45.7919429136267
20
1.21120125230951
30
0
41
1
10
45.8109147871173
20
1.1954415968579
30
0
41
1
10
45.8207957588946
20
1.18808907065153
30
0
41
1
10
45.8404995088961
20
1.17501565737842
30
0
41
1
10
45.8504076853868
20
1.16921460232717
30
0
41
1
10
45.8653356587281
20
1.16171472942713
30
0
41
1
10
45.8703492223493
20
1.15940747912984
30
0
41
1
10
45.8802042862266
20
1.15532294491538
30
0
41
1
10
45.8899106250599
20
1.15175156011634
30
0
41
1
10
45.8992851355469
20
1.14927812347045
30
0
41
1
10
45.9084670360769
20
1.14742970397893
30
0
41
1
10
45.9129616075091
20
1.14682425532271
30
0
41
1
10
45.9214566808849
20
1.14636718184093
30
0
41
1
10
45.9254911738468
20
1.14650627850949
30
0
41
1
10
45.9330678921475
20
1.14763527484339
30
0
41
1
10
45.9366188905061
20
1.1486352200242
30
0
41
1
10
45.9397805285023
20
1.150116402809
30
0
0
SPLINE
5
19F
100
AcDbEntity
8
1
62
256
6
ByLayer
370
18
48
1
60
0
100
AcDbSpline
70
4
71
3
72
14
73
10
40
0
40
0
40
0
40
0
40
0.12499999999998
40
0.12499999999998
40
0.249999999999961
40
0.249999999999961
40
0.499999999999961
40
0.499999999999961
40
1
40
1
40
1
40
1
41
1
10
45.9986589610767
20
1.17565057612873
30
0
41
1
10
46.0230812683126
20
1.15482632375225
30
0
41
1
10
46.0475893501468
20
1.13390038566462
30
0
41
1
10
46.0967851027951
20
1.09185291784033
30
0
41
1
10
46.1214653963554
20
1.07073692582279
30
0
41
1
10
46.1954593397084
20
1.00739324975123
30
0
41
1
10
46.2448356788955
20
0.965078228788457
30
0
41
1
10
46.3932251133681
20
0.838022100707803
30
0
41
1
10
46.4925010551647
20
0.753171989668175
30
0
41
1
10
46.5923998055257
20
0.668513067636553
30
0
0
SPLINE
5
1A0
100
AcDbEntity
8
1
62
256
6
ByLayer
370
18
48
1
60
0
100
AcDbSpline
70
4
71
3
72
17
73
13
40
0
40
0
40
0
40
0
40
0.249999999999902
40
0.249999999999902
40
0.499999999999803
40
0.499999999999803
40
0.624999999999853
40
0.624999999999853
40
0.749999999999902
40
0.874999999999951
40
0.874999999999951
40
1
40
1
40
1
40
1
41
1
10
46.5923998055277
20
0.668513067639481
30
0
41
1
10
46.6006646812054
20
0.658868253292894
30
0
41
1
10
46.6098566787394
20
0.649169409900907
30
0
41
1
10
46.6289203186854
20
0.630611184687893
30
0
41
1
10
46.6388847896978
20
0.621638783283885
30
0
41
1
10
46.6544379764013
20
0.608600237603781
30
0
41
1
10
46.6597257404442
20
0.604325647241467
30
0
41
1
10
46.6702835475302
20
0.596088069808218
30
0
41
1
10
46.6808776412371
20
0.588115811882972
30
0
41
1
10
46.6915332496326
20
0.580667113154135
30
0
41
1
10
46.7022159422684
20
0.573490913365902
30
0
41
1
10
46.7075973291909
20
0.570022790591509
30
0
41
1
10
46.7129276576788
20
0.56674371560743
30
0
0
SPLINE
5
1A1
100
AcDbEntity
8
1
62
256
6
ByLayer
370
18
48
1
60
0
100
AcDbSpline
70
4
71
3
72
8
73
4
40
0
40
0
40
0
40
0
40
1
40
1
40
1
40
1
41
1
10
46.7129276576787
20
0.56674371560743
30
0
41
1
10
46.7349755951284
20
0.548202224864724
30
0
41
1
10
46.7570611093692
20
0.529678980711452
30
0
41
1
10
46.7791964115817
20
0.511188023505582
30
0
0
SPLINE
5
1A2
100
AcDbEntity
8
1
62
256
6
ByLayer
370
18
48
1
60
0
100
AcDbSpline
70
4
71
3
72
18
73
14
40
0
40
0
40
0
40
0
40
0.124999999999989
40
0.124999999999989
40
0.249999999999978
40
0.249999999999978
40
0.499999999999999
40
0.499999999999999
40
0.750000000000019
40
0.750000000000019
40
0.875000000000009
40
0.875000000000009
40
1
40
1
40
1
40
1
41
1
10
47.1999999999999
20
0.173525154926637
30
0
41
1
10
47.1811569019995
20
0.181833350073333
30
0
41
1
10
47.1624118559399
20
0.191077680252448
30
0
41
1
10
47.1250717012764
20
0.211314332129888
30
0
41
1
10
47.1065541065592
20
0.2222683285421
30
0
41
1
10
47.0518326086031
20
0.257169559490023
30
0
41
1
10
47.0162618257037
20
0.283255845057312
30
0
41
1
10
46.9464707056388
20
0.340378754748741
30
0
41
1
10
46.9122544113944
20
0.371425306246124
30
0
41
1
10
46.8616857317509
20
0.421438541636803
30
0
41
1
10
46.8449564535239
20
0.438686178126034
30
0
41
1
10
46.8117192798881
20
0.474321836538536
30
0
41
1
10
46.7953545033636
20
0.492568571374932
30
0
41
1
10
46.7791964115797
20
0.511188023505724
30
0
0
SPLINE
5
1A3
100
AcDbEntity
8
1
62
256
6
ByLayer
370
18
48
1
60
0
100
AcDbSpline
70
4
71
3
72
8
73
4
40
0
40
0
40
0
40
0
40
1
40
1
40
1
40
1
41
1
10
44.0776708829185
20
-2.55094644584884
30
0
41
1
10
44.090936054825
20
-2.55114545939253
30
0
41
1
10
44.1042016318426
20
-2.55124498795783
30
0
41
1
10
44.1174683899617
20
-2.5512449890179
30
0
0
SPLINE
5
1A4
100
AcDbEntity
8
1
62
256
6
ByLayer
370
18
48
1
60
0
100
AcDbSpline
70
4
71
3
72
26
73
22
40
0
40
0
40
0
40
0
40
0.124999999999955
40
0.124999999999955
40
0.249999999999911
40
0.249999999999911
40
0.374999999999866
40
0.374999999999866
40
0.437499999999844
40
0.437499999999844
40
0.499999999999873
40
0.499999999999873
40
0.624999999999933
40
0.624999999999933
40
0.687499999999963
40
0.687499999999963
40
0.749999999999992
40
0.749999999999992
40
0.874999999999996
40
0.874999999999996
40
1
40
1
40
1
40
1
41
1
10
39.5857691661893
20
0.45883872136298
30
0
41
1
10
39.580121415231
20
0.463730840658855
30
0
41
1
10
39.5735617538802
20
0.469207402124141
30
0
41
1
10
39.5590085493249
20
0.481046578536535
30
0
41
1
10
39.5509361011764
20
0.487469481359824
30
0
41
1
10
39.5339687196739
20
0.500745365106923
30
0
41
1
10
39.5250387857758
20
0.507628533855012
30
0
41
1
10
39.5110023073452
20
0.518335507729603
30
0
41
1
10
39.5062116392818
20
0.521971774954523
30
0
41
1
10
39.4965836376141
20
0.529252531825023
30
0
41
1
10
39.491725745866
20
0.532912721150495
30
0
41
1
10
39.4770252041606
20
0.543963182455371
30
0
41
1
10
39.4670575828301
20
0.551421182164177
30
0
41
1
10
39.4518449007969
20
0.562816632100748
30
0
41
1
10
39.4467325500155
20
0.566648574698633
30
0
41
1
10
39.4366646518459
20
0.574212412742099
30
0
41
1
10
39.4316795574824
20
0.577966397106451
30
0
41
1
10
39.4168959054677
20
0.58914599266356
30
0
41
1
10
39.4071745636318
20
0.596563699764744
30
0
41
1
10
39.3895749448087
20
0.61023436593041
30
0
41
1
10
39.3814991405518
20
0.616644004792875
30
0
41
1
10
39.3750767176645
20
0.62192423253768
30
0
0
SPLINE
5
1A5
100
AcDbEntity
8
1
62
256
6
ByLayer
370
18
48
1
60
0
100
AcDbSpline
70
4
71
3
72
10
73
6
40
0
40
0
40
0
40
0
40
0.5
40
0.5
40
1
40
1
40
1
40
1
41
1
10
39.3750767176619
20
0.621924232539726
30
0
41
1
10
39.3292171562125
20
0.659627904966698
30
0
41
1
10
39.2835806955258
20
0.701243922835005
30
0
41
1
10
39.1928717265048
20
0.791429410721236
30
0
41
1
10
39.1478576778633
20
0.839946019562348
30
0
41
1
10
39.1031432052359
20
0.891609821070233
30
0
0
SPLINE
5
1A6
100
AcDbEntity
8
1
62
256
6
ByLayer
370
18
48
1
60
0
100
AcDbSpline
70
4
71
3
72
8
73
4
40
0
40
0
40
0
40
0
40
1
40
1
40
1
40
1
41
1
10
39.0296196955972
20
0.958783143609878
30
0
41
1
10
39.0541302124919
20
0.936512824286126
30
0
41
1
10
39.0786365327299
20
0.914120240341134
30
0
41
1
10
39.1031432052359
20
0.891609821070233
30
0
0
SPLINE
5
1A7
100
AcDbEntity
8
1
62
256
6
ByLayer
370
18
48
1
60
0
100
AcDbSpline
70
4
71
3
72
10
73
6
40
0
40
0
40
0
40
0
40
0.5
40
0.5
40
1
40
1
40
1
40
1
41
1
10
39.0296196955973
20
0.958783143609764
30
0
41
1
10
38.9827333582489
20
0.988533977230503
30
0
41
1
10
38.9355810115123
20
1.01389225365457
30
0
41
1
10
38.8404918547942
20
1.05556558310792
30
0
41
1
10
38.792721844737
20
1.07179943568437
30
0
41
1
10
38.7445617881946
20
1.08335179252708
30
0
0
SPLINE
5
1A8
100
AcDbEntity
8
1
62
256
6
ByLayer
370
18
48
1
60
0
100
AcDbSpline
70
4
71
3
72
26
73
22
40
0
40
0
40
0
40
0
40
0.124999999999949
40
0.124999999999949
40
0.249999999999898
40
0.249999999999898
40
0.374999999999847
40
0.374999999999847
40
0.437499999999846
40
0.437499999999846
40
0.499999999999845
40
0.499999999999845
40
0.624999999999842
40
0.624999999999842
40
0.687499999999869
40
0.687499999999869
40
0.749999999999896
40
0.749999999999896
40
0.874999999999948
40
0.874999999999948
40
1
40
1
40
1
40
1
41
1
10
38.744561788192
20
1.08335179252771
30
0
41
1
10
38.7389152942946
20
1.0847062409463
30
0
41
1
10
38.7323582350726
20
1.0869653806636
30
0
41
1
10
38.7178141823239
20
1.09286831889963
30
0
41
1
10
38.7097494957166
20
1.09655874328317
30
0
41
1
10
38.6928009422569
20
1.10499443213038
30
0
41
1
10
38.6838811256114
20
1.10975005287051
30
0
41
1
10
38.6698608384298
20
1.11769548584976
30
0
41
1
10
38.6650755157374
20
1.12048413709212
30
0
41
1
10
38.6554574580308
20
1.12624666509717
30
0
41
1
10
38.6506043176566
20
1.12923183540335
30
0
41
1
10
38.6359168780834
20
1.13851287780946
30
0
41
1
10
38.6259565190612
20
1.14512711738018
30
0
41
1
10
38.6107495642689
20
1.15584765722647
30
0
41
1
10
38.6056345250742
20
1.15955871699225
30
0
41
1
10
38.5955587259496
20
1.16710790713643
30
0
41
1
10
38.5905683694612
20
1.17096629648137
30
0
41
1
10
38.575764462926
20
1.18283197247308
30
0
41
1
10
38.5660211048759
20
1.19122191300204
30
0
41
1
10
38.5483686656843
20
1.20803001603426
30
0
41
1
10
38.5402630776002
20
1.21664324688504
30
0
41
1
10
38.5338199894964
20
1.22477693023995
30
0
0
SPLINE
5
1A9
100
AcDbEntity
8
1
62
256
6
ByLayer
370
18
48
1
60
0
100
AcDbSpline
70
4
71
3
72
8
73
4
40
0
40
0
40
0
40
0
40
1
40
1
40
1
40
1
41
1
10
38.5338199894939
20
1.2247769302432
30
0
41
1
10
38.4909264947633
20
1.2789252048785
30
0
41
1
10
38.4482102079413
20
1.33567626050089
30
0
41
1
10
38.4057732843671
20
1.39466054015247
30
0
0
SPLINE
5
1AA
100
AcDbEntity
8
1
62
256
6
ByLayer
370
18
48
1
60
0
100
AcDbSpline
70
4
71
3
72
12
73
8
40
0
40
0
40
0
40
0
40
0.5
40
0.5
40
0.75
40
0.75
40
1
40
1
40
1
40
1
41
1
10
38.4057732843671
20
1.39466054015244
30
0
41
1
10
38.3184009413991
20
1.43598575168261
30
0
41
1
10
38.2303666543312
20
1.47030296617967
30
0
41
1
10
38.0965339967757
20
1.51095301081728
30
0
41
1
10
38.0516428307773
20
1.5227193282264
30
0
41
1
10
37.9611877053984
20
1.54262622427109
30
0
41
1
10
37.91564940638
20
1.55079634779108
30
0
41
1
10
37.8696503280903
20
1.55703487265274
30
0
0
SPLINE
5
1AB
100
AcDbEntity
8
1
62
256
6
ByLayer
370
18
48
1
60
0
100
AcDbSpline
70
4
71
3
72
12
73
8
40
0
40
0
40
0
40
0
40
0.25
40
0.25
40
0.500000000000001
40
0.500000000000001
40
1
40
1
40
1
40
1
41
1
10
37.8696503280903
20
1.55703487265274
30
0
41
1
10
37.8507754116187
20
1.55959474211204
30
0
41
1
10
37.8313567116005
20
1.56284613822015
30
0
41
1
10
37.7914564181125
20
1.57070002058515
30
0
41
1
10
37.7709825627186
20
1.5753168564932
30
0
41
1
10
37.7082270384898
20
1.59156173266234
30
0
41
1
10
37.6646352238769
20
1.60555590847636
30
0
41
1
10
37.619650328091
20
1.62370971888913
30
0
0
SPLINE
5
1AC
100
AcDbEntity
8
1
62
256
6
ByLayer
370
18
48
1
60
0
100
AcDbSpline
70
4
71
3
72
34
73
30
40
0
40
0
40
0
40
0
40
0.167161181215844
40
0.167161181215844
40
0.250741771823766
40
0.250741771823766
40
0.334322362431688
40
0.334322362431688
40
0.417902953039609
40
0.417902953039609
40
0.45969324834357
40
0.45969324834357
40
0.501483543647531
40
0.501483543647531
40
0.585064134255453
40
0.585064134255453
40
0.626854429559414
40
0.626854429559414
40
0.668644724863375
40
0.668644724863375
40
0.835805906079211
40
0.835805906079211
40
0.87759620138317
40
0.87759620138317
40
0.91938649668713
40
0.91938649668713
40
0.96117679199109
40
0.96117679199109
40
1
40
1
40
1
40
1
41
1
10
37.6196503280903
20
1.62370971889089
30
0
41
1
10
37.4315609909643
20
1.69961382197258
30
0
41
1
10
37.2456170189678
20
1.76192127087202
30
0
41
1
10
36.9667451128627
20
1.83410815812078
30
0
41
1
10
36.8737223476634
20
1.85461107355212
30
0
41
1
10
36.6877294237767
20
1.88862219279676
30
0
41
1
10
36.594792069063
20
1.90212544321886
30
0
41
1
10
36.4085182402865
20
1.92183655363138
30
0
41
1
10
36.3151919527254
20
1.92804706940635
30
0
41
1
10
36.1745373662531
20
1.93169566161006
30
0
41
1
10
36.1274664507482
20
1.93196411544932
30
0
41
1
10
36.0336428565936
20
1.93059926545564
30
0
41
1
10
35.9868391292017
20
1.92897045189861
30
0
41
1
10
35.8466518579017
20
1.92129694925123
30
0
41
1
10
35.7534806045755
20
1.91246602651316
30
0
41
1
10
35.6137840560606
20
1.89387148971079
30
0
41
1
10
35.5672217095663
20
1.88678569998658
30
0
41
1
10
35.4742054869536
20
1.87081803652924
30
0
41
1
10
35.4277457782496
20
1.86193614267614
30
0
41
1
10
35.195546002019
20
1.81306324870795
30
0
41
1
10
35.0101303586094
20
1.75965008623967
30
0
41
1
10
34.7762736794679
20
1.67566673793988
30
0
41
1
10
34.7293968846201
20
1.65801094748733
30
0
41
1
10
34.6353559488942
20
1.6210136476922
30
0
41
1
10
34.5883596197801
20
1.60173860121844
30
0
41
1
10
34.4946095837323
20
1.5618091193455
30
0
41
1
10
34.4478156186908
20
1.54113877861636
30
0
41
1
10
34.3576480575829
20
1.49997524058162
30
0
41
1
10
34.3142491362996
20
1.47959047225007
30
0
41
1
10
34.2709127419159
20
1.45861864681379
30
0
0
SPLINE
5
1AD
100
AcDbEntity
8
1
62
256
6
ByLayer
370
18
48
1
60
0
100
AcDbSpline
70
4
71
3
72
59
73
55
40
0
40
0
40
0
40
0
40
0.0041700713224279
40
0.0041700713224279
40
0.0664094418647693
40
0.0664094418647693
40
0.0975291271359398
40
0.0975291271359398
40
0.113088969771525
40
0.113088969771525
40
0.128648812407111
40
0.128648812407111
40
0.159768497678284
40
0.159768497678284
40
0.190888182949457
40
0.190888182949457
40
0.253127553491804
40
0.253127553491804
40
0.31536692403415
40
0.31536692403415
40
0.346486609305324
40
0.346486609305324
40
0.36204645194091
40
0.36204645194091
40
0.377606294576497
40
0.377606294576497
40
0.408725979847673
40
0.408725979847673
40
0.439845665118848
40
0.439845665118848
40
0.5020850356612
40
0.5020850356612
40
0.564324406203551
40
0.564324406203551
40
0.595444091474728
40
0.595444091474728
40
0.626563776745905
40
0.626563776745905
40
0.688803147288256
40
0.688803147288256
40
0.704362989923843
40
0.704362989923843
40
0.719922832559431
40
0.751042517830605
40
0.751042517830605
40
0.813281888372954
40
0.813281888372954
40
0.844401573644128
40
0.844401573644128
40
0.875521258915303
40
0.875521258915303
40
0.937760629457651
40
0.937760629457651
40
1
40
1
40
1
40
1
41
1
10
32.4060553254002
20
1.93164999342361
30
0
41
1
10
32.4132866894097
20
1.93165201596153
30
0
41
1
10
32.4205185690498
20
1.93163206923003
30
0
41
1
10
32.5356968373625
20
1.93096483158274
30
0
41
1
10
32.643770105084
20
1.92545137067347
30
0
41
1
10
32.806205405802
20
1.90970422989057
30
0
41
1
10
32.8603995892754
20
1.90320580950527
30
0
41
1
10
32.9417653831957
20
1.89153210033882
30
0
41
1
10
32.9689016076258
20
1.88732019224904
30
0
41
1
10
33.0231907855212
20
1.87823920516655
30
0
41
1
10
33.0503571130908
20
1.87336057437045
30
0
41
1
10
33.1318751171261
20
1.85781710617155
30
0
41
1
10
33.1861925557643
20
1.84629342311163
30
0
41
1
10
33.2946558895148
20
1.82095717982872
30
0
41
1
10
33.3487973018326
20
1.80713994550442
30
0
41
1
10
33.5110721057791
20
1.76236509685737
30
0
41
1
10
33.6190763655861
20
1.72810346953352
30
0
41
1
10
33.8350426756746
20
1.65114154119917
30
0
41
1
10
33.9429675973197
20
1.60842142444628
30
0
41
1
10
34.1048454509677
20
1.53794048180367
30
0
41
1
10
34.1588067077777
20
1.51338055044994
30
0
41
1
10
34.2397524055658
20
1.47490437736806
30
0
41
1
10
34.2667347528093
20
1.46180591549839
30
0
41
1
10
34.3206985098423
20
1.43505215281732
30
0
41
1
10
34.3476752757886
20
1.4213915795811
30
0
41
1
10
34.42881935833
20
1.37976926556897
30
0
41
1
10
34.4831238357755
20
1.35109791900615
30
0
41
1
10
34.5921714081727
20
1.29192205180718
30
0
41
1
10
34.6466050306333
20
1.26160000466891
30
0
41
1
10
34.8096420567799
20
1.16866532973788
30
0
41
1
10
34.9180403123124
20
1.1040769563439
30
0
41
1
10
35.1343361404774
20
0.969876475059607
30
0
41
1
10
35.2422571122911
20
0.900290183951654
30
0
41
1
10
35.403904383107
20
0.792287824746325
30
0
41
1
10
35.4577451237437
20
0.75567896139421
30
0
41
1
10
35.5653223297433
20
0.681196140901449
30
0
41
1
10
35.6189916139666
20
0.643232203314284
30
0
41
1
10
35.78060768214
20
0.528399992912512
30
0
41
1
10
35.8890196948166
20
0.450423325002618
30
0
41
1
10
36.0255447619915
20
0.351400045855002
30
0
41
1
10
36.0528886005466
20
0.331529613654141
30
0
41
1
10
36.1074527161081
20
0.291814524578086
30
0
41
1
10
36.1891976578357
20
0.232217908648039
30
0
41
1
10
36.2706678204737
20
0.172585489540495
30
0
41
1
10
36.433278786048
20
0.0533167002030552
30
0
41
1
10
36.5412290468672
20
-0.0262276719560646
30
0
41
1
10
36.7025234464447
20
-0.145518291002361
30
0
41
1
10
36.7561969559508
20
-0.185258004261272
30
0
41
1
10
36.8634042671131
20
-0.264628087472175
30
0
41
1
10
36.9168802960526
20
-0.304336666123533
30
0
41
1
10
37.077493065637
20
-0.42275666313941
30
0
41
1
10
37.1851149363161
20
-0.500360166404164
30
0
41
1
10
37.4014228968803
20
-0.652933458606071
30
0
41
1
10
37.5101577831711
20
-0.727837048744277
30
0
41
1
10
37.6196503280903
20
-0.80111019100508
30
0
0
SPLINE
5
1AE
100
AcDbEntity
8
1
62
256
6
ByLayer
370
18
48
1
60
0
100
AcDbSpline
70
4
71
3
72
8
73
4
40
0
40
0
40
0
40
0
40
1
40
1
40
1
40
1
41
1
10
39.2780579833104
20
-2.17173074686261
30
0
41
1
10
39.2537610686441
20
-2.15922180287282
30
0
41
1
10
39.2294544374163
20
-2.14644523943733
30
0
41
1
10
39.2051369826935
20
-2.13340356378856
30
0
0
SPLINE
5
1AF
100
AcDbEntity
8
1
62
256
6
ByLayer
370
18
48
1
60
0
100
AcDbSpline
70
4
71
3
72
8
73
4
40
0
40
0
40
0
40
0
40
1
40
1
40
1
40
1
41
1
10
40.1193172881293
20
-2.48498452331961
30
0
41
1
10
40.0949960790541
20
-2.47962184817646
30
0
41
1
10
40.0706956596493
20
-2.47394077169489
30
0
41
1
10
40.0464141293469
20
-2.46794244881599
30
0
0
SPLINE
5
1B0
100
AcDbEntity
8
1
62
256
6
ByLayer
370
18
48
1
60
0
100
AcDbSpline
70
4
71
3
72
42
73
38
40
0
40
0
40
0
40
0
40
0.0596136292515529
40
0.0596136292515529
40
0.0909598416098348
40
0.0909598416098348
40
0.122306053968117
40
0.122306053968117
40
0.18499847868468
40
0.18499847868468
40
0.216344691042962
40
0.216344691042962
40
0.247690903401243
40
0.247690903401243
40
0.310383328117807
40
0.310383328117807
40
0.37307575283437
40
0.37307575283437
40
0.498460602267496
40
0.498460602267496
40
0.623845451700622
40
0.623845451700622
40
0.655191664058904
40
0.655191664058904
40
0.686537876417185
40
0.686537876417185
40
0.749230301133748
40
0.749230301133748
40
0.874615150566874
40
0.874615150566874
40
0.890288256746015
40
0.890288256746015
40
0.905961362925156
40
0.905961362925156
40
0.937307575283437
40
0.937307575283437
40
1
40
1
40
1
40
1
41
1
10
47.1999999999999
20
-0.886972215409912
30
0
41
1
10
47.1999999999999
20
-0.869381358680357
30
0
41
1
10
47.2
20
-0.854470260882977
30
0
41
1
10
47.2
20
-0.835847911455062
30
0
41
1
10
47.2
20
-0.830184714175033
30
0
41
1
10
47.2000000000001
20
-0.820402395732685
30
0
41
1
10
47.2000000000001
20
-0.816336400731245
30
0
41
1
10
47.2000000000001
20
-0.806603138967148
30
0
41
1
10
47.2
20
-0.803352211142624
30
0
41
1
10
47.2
20
-0.803291753094101
30
0
41
1
10
47.2000000000001
20
-0.804072003323682
30
0
41
1
10
47.2000000000001
20
-0.807289047858205
30
0
41
1
10
47.2000000000001
20
-0.809735356351155
30
0
41
1
10
47.2000000000001
20
-0.817555721682453
30
0
41
1
10
47.2
20
-0.823807064614499
30
0
41
1
10
47.2
20
-0.838538141340962
30
0
41
1
10
47.2
20
-0.846985257784127
30
0
41
1
10
47.2
20
-0.875530089125647
30
0
41
1
10
47.2000000000001
20
-0.89883861037589
30
0
41
1
10
47.2000000000001
20
-0.95398490523749
30
0
41
1
10
47.2000000000001
20
-0.985793003350267
30
0
41
1
10
47.2000000000001
20
-1.03098324891459
30
0
41
1
10
47.2000000000001
20
-1.04029408326144
30
0
41
1
10
47.2000000000001
20
-1.05947005847415
30
0
41
1
10
47.2000000000001
20
-1.06934059414706
30
0
41
1
10
47.2000000000001
20
-1.0996619077097
30
0
41
1
10
47.2000000000001
20
-1.12085872569554
30
0
41
1
10
47.2000000000001
20
-1.18736198980011
30
0
41
1
10
47.1999999999999
20
-1.23556545322558
30
0
41
1
10
47.2
20
-1.2942122542409
30
0
41
1
10
47.2
20
-1.30077211219915
30
0
41
1
10
47.2
20
-1.3141861982281
30
0
41
1
10
47.2000000000001
20
-1.32106080727667
30
0
41
1
10
47.2000000000001
20
-1.34208293454347
30
0
41
1
10
47.2
20
-1.35664791582138
30
0
41
1
10
47.2
20
-1.40190765245549
30
0
41
1
10
47.2
20
-1.43419412560868
30
0
41
1
10
47.2
20
-1.46858583513972
30
0
0
SPLINE
5
1B1
100
AcDbEntity
8
1
62
256
6
ByLayer
370
18
48
1
60
0
100
AcDbSpline
70
4
71
3
72
16
73
12
40
0
40
0
40
0
40
0
40
0.0624999999999793
40
0.0624999999999793
40
0.124999999999959
40
0.124999999999959
40
0.249999999999959
40
0.249999999999959
40
0.499999999999959
40
0.499999999999959
40
1
40
1
40
1
40
1
41
1
10
46.7704096351737
20
-0.863425514255141
30
0
41
1
10
46.7796715920075
20
-0.863655569419535
30
0
41
1
10
46.7889460496729
20
-0.863815235681983
30
0
41
1
10
46.8074446406874
20
-0.864238339124171
30
0
41
1
10
46.8166676634893
20
-0.864504833796701
30
0
41
1
10
46.8442679806267
20
-0.865426710789905
30
0
41
1
10
46.8625791982934
20
-0.866195773578085
30
0
41
1
10
46.9172819182497
20
-0.868782928548455
30
0
41
1
10
46.9534339760078
20
-0.870910346982384
30
0
41
1
10
47.060888877793
20
-0.878098293831101
30
0
41
1
10
47.1312442112852
20
-0.883844428798255
30
0
41
1
10
47.2000000000001
20
-0.889719138130744
30
0
0
SPLINE
5
1B2
100
AcDbEntity
8
1
62
256
6
ByLayer
370
18
48
1
60
0
100
AcDbSpline
70
4
71
3
72
18
73
14
40
0
40
0
40
0
40
0
40
0.249999999999881
40
0.249999999999881
40
0.499999999999762
40
0.499999999999762
40
0.624999999999821
40
0.624999999999821
40
0.749999999999881
40
0.749999999999881
40
0.87499999999994
40
0.87499999999994
40
1
40
1
40
1
40
1
41
1
10
46.7704096351737
20
-0.863425514255255
30
0
41
1
10
46.7615335452413
20
-0.857070550938744
30
0
41
1
10
46.7525728013122
20
-0.851262405354447
30
0
41
1
10
46.734485894843
20
-0.840877410911389
30
0
41
1
10
46.7252708365734
20
-0.836271269184834
30
0
41
1
10
46.7119584779385
20
-0.830825491274965
30
0
41
1
10
46.7075871682569
20
-0.829241991061082
30
0
41
1
10
46.6989979040507
20
-0.826597502013442
30
0
41
1
10
46.6947502760247
20
-0.825532361703637
30
0
41
1
10
46.6866470661576
20
-0.824057387490456
30
0
41
1
10
46.6827797226313
20
-0.82363955342862
30
0
41
1
10
46.6754590442172
20
-0.823520192542787
30
0
41
1
10
46.6719829744932
20
-0.823824727878929
30
0
41
1
10
46.6688233838141
20
-0.824539705231359
30
0
0
SPLINE
5
1B3
100
AcDbEntity
8
1
62
256
6
ByLayer
370
18
48
1
60
0
100
AcDbSpline
70
4
71
3
72
8
73
4
40
0
40
0
40
0
40
0
40
1
40
1
40
1
40
1
41
1
10
46.6688233838141
20
-0.824539705231359
30
0
41
1
10
46.4808569404058
20
-0.715742030810674
30
0
41
1
10
46.2965154888503
20
-0.593907743389195
30
0
41
1
10
46.113423992945
20
-0.461262835958735
30
0
0
SPLINE
5
1B4
100
AcDbEntity
8
1
62
256
6
ByLayer
370
18
48
1
60
0
100
AcDbSpline
70
4
71
3
72
8
73
4
40
0
40
0
40
0
40
0
40
1
40
1
40
1
40
1
41
1
10
46.113423992945
20
-0.461262835958735
30
0
41
1
10
46.0872672835165
20
-0.419812643415156
30
0
41
1
10
46.061011375826
20
-0.379309663955183
30
0
41
1
10
46.0346266502455
20
-0.33978125217368
30
0
0
SPLINE
5
1B5
100
AcDbEntity
8
1
62
256
6
ByLayer
370
18
48
1
60
0
100
AcDbSpline
70
4
71
3
72
26
73
22
40
0
40
0
40
0
40
0
40
0.125000000000001
40
0.125000000000001
40
0.250000000000001
40
0.250000000000001
40
0.375000000000001
40
0.375000000000001
40
0.437500000000001
40
0.437500000000001
40
0.500000000000001
40
0.500000000000001
40
0.625000000000001
40
0.625000000000001
40
0.687500000000002
40
0.687500000000002
40
0.750000000000002
40
0.750000000000002
40
0.875000000000001
40
0.875000000000001
40
1
40
1
40
1
40
1
41
1
10
46.0346266502431
20
-0.339781252170042
30
0
41
1
10
46.0289962608816
20
-0.331346055507254
30
0
41
1
10
46.0224582054879
20
-0.32277969725834
30
0
41
1
10
46.0079503291739
20
-0.305462629850837
30
0
41
1
10
45.999902887109
20
-0.296644611621872
30
0
41
1
10
45.9829796298046
20
-0.27936837004728
30
0
41
1
10
45.9740686759076
20
-0.270859838930221
30
0
41
1
10
45.9600542048401
20
-0.258269261107188
30
0
41
1
10
45.9552671313867
20
-0.254096979073097
30
0
41
1
10
45.9456441604723
20
-0.245953322420576
30
0
41
1
10
45.9407879762849
20
-0.241963248322804
30
0
41
1
10
45.9260900928759
20
-0.230233841570822
30
0
41
1
10
45.9161212189418
20
-0.222731056414631
30
0
41
1
10
45.9009007545284
20
-0.211995902437025
30
0
41
1
10
45.8957777215512
20
-0.208503895393903
30
0
41
1
10
45.8856882620826
20
-0.201879103637765
30
0
41
1
10
45.8806919619041
20
-0.198724574227185
30
0
41
1
10
45.865873365573
20
-0.189778409337407
30
0
41
1
10
45.8561223426149
20
-0.184456959818476
30
0
41
1
10
45.8384690111254
20
-0.176257683138175
30
0
41
1
10
45.83036978079
20
-0.173290391315362
30
0
41
1
10
45.8239359429626
20
-0.17209384878791
30
0
0
SPLINE
5
1B6
100
AcDbEntity
8
1
62
256
6
ByLayer
370
18
48
1
60
0
100
AcDbSpline
70
4
71
3
72
8
73
4
40
0
40
0
40
0
40
0
40
1
40
1
40
1
40
1
41
1
10
45.8239359429599
20
-0.172093848787426
30
0
41
1
10
45.7793750777339
20
-0.163806575822917
30
0
41
1
10
45.7350176902834
20
-0.151367110490185
30
0
41
1
10
45.6909268544159
20
-0.135107554363572
30
0
0
SPLINE
5
1B7
100
AcDbEntity
8
1
62
256
6
ByLayer
370
18
48
1
60
0
100
AcDbSpline
70
4
71
3
72
8
73
4
40
0
40
0
40
0
40
0
40
1
40
1
40
1
40
1
41
1
10
45.6909268544159
20
-0.135107554363572
30
0
41
1
10
45.5850552544262
20
-0.0485303783795814
30
0
41
1
10
45.4807149122066
20
0.0402002155621233
30
0
41
1
10
45.3774293829355
20
0.13056060493355
30
0
0
SPLINE
5
1B8
100
AcDbEntity
8
1
62
256
6
ByLayer
370
18
48
1
60
0
100
AcDbSpline
70
4
71
3
72
10
73
6
40
0
40
0
40
0
40
0
40
0.5
40
0.5
40
1
40
1
40
1
40
1
41
1
10
45.3774293829355
20
0.130560604933521
30
0
41
1
10
45.3470416790629
20
0.167652463951299
30
0
41
1
10
45.3164934840499
20
0.203196815682986
30
0
41
1
10
45.2551937517094
20
0.270890036396708
30
0
41
1
10
45.2244207413487
20
0.303068848766884
30
0
41
1
10
45.1934808077935
20
0.333550627308625
30
0
0
SPLINE
5
1B9
100
AcDbEntity
8
1
62
256
6
ByLayer
370
18
48
1
60
0
100
AcDbSpline
70
4
71
3
72
26
73
22
40
0
40
0
40
0
40
0
40
0.124999999999958
40
0.124999999999958
40
0.249999999999917
40
0.249999999999917
40
0.374999999999875
40
0.374999999999875
40
0.437499999999855
40
0.437499999999855
40
0.499999999999835
40
0.499999999999835
40
0.624999999999794
40
0.624999999999794
40
0.687499999999829
40
0.687499999999829
40
0.749999999999864
40
0.749999999999864
40
0.874999999999932
40
0.874999999999932
40
1
40
1
40
1
40
1
41
1
10
45.1934808077911
20
0.333550627310984
30
0
41
1
10
45.1878425203146
20
0.3391054236684
30
0
41
1
10
45.181295850366
20
0.345176467472442
30
0
41
1
10
45.1667733625669
20
0.358100883851705
30
0
41
1
10
45.1587204068118
20
0.365015513243918
30
0
41
1
10
45.1417922290632
20
0.379151851673669
30
0
41
1
10
45.1328809141301
20
0.386407997354496
30
0
41
1
10
45.1188700769969
20
0.397590427056656
30
0
41
1
10
45.1140859895696
20
0.401372190670315
30
0
41
1
10
45.1044694314825
20
0.408910710533178
30
0
41
1
10
45.0996166667516
20
0.412683790780221
30
0
41
1
10
45.0849294598372
20
0.424023805184191
30
0
41
1
10
45.0749682103366
20
0.431610490736802
30
0
41
1
10
45.0597573410791
20
0.443080728879806
30
0
41
1
10
45.0546373098071
20
0.446922446209669
30
0
41
1
10
45.0445512935419
20
0.454459764799111
30
0
41
1
10
45.0395556576083
20
0.458177837077386
30
0
41
1
10
45.0247352499592
20
0.469173035574954
30
0
41
1
10
45.0149781930311
20
0.476364374508052
30
0
41
1
10
44.9973027421444
20
0.489337698031648
30
0
41
1
10
44.9891881616484
20
0.495266172304014
30
0
41
1
10
44.9827422968709
20
0.49992494291979
30
0
0
SPLINE
5
1BA
100
AcDbEntity
8
1
62
256
6
ByLayer
370
18
48
1
60
0
100
AcDbSpline
70
4
71
3
72
10
73
6
40
0
40
0
40
0
40
0
40
0.5
40
0.5
40
1
40
1
40
1
40
1
41
1
10
44.9827422968685
20
0.499924942921467
30
0
41
1
10
44.9385345283835
20
0.531876257433481
30
0
41
1
10
44.8945217933631
20
0.56745627376867
30
0
41
1
10
44.8070176253351
20
0.645294833087235
30
0
41
1
10
44.7635671604567
20
0.687521491739943
30
0
41
1
10
44.7204193356814
20
0.732854150133505
30
0
0
SPLINE
5
1BB
100
AcDbEntity
8
1
62
256
6
ByLayer
370
18
48
1
60
0
100
AcDbSpline
70
4
71
3
72
8
73
4
40
0
40
0
40
0
40
0
40
1
40
1
40
1
40
1
41
1
10
44.7204193356816
20
0.732854150133534
30
0
41
1
10
44.6944245472965
20
0.757505984726322
30
0
41
1
10
44.6684454003149
20
0.782207874808734
30
0
41
1
10
44.6424741014291
20
0.806951501180066
30
0
0
SPLINE
5
1BC
100
AcDbEntity
8
1
62
256
6
ByLayer
370
18
48
1
60
0
100
AcDbSpline
70
4
71
3
72
8
73
4
40
0
40
0
40
0
40
0
40
1
40
1
40
1
40
1
41
1
10
44.6376923247534
20
0.811400485013991
30
0
41
1
10
44.6392862938031
20
0.809917924800175
30
0
41
1
10
44.6408802188457
20
0.808434929677333
30
0
41
1
10
44.6424741014291
20
0.806951501180066
30
0
0
SPLINE
5
1BD
100
AcDbEntity
8
1
62
256
6
ByLayer
370
18
48
1
60
0
100
AcDbSpline
70
4
71
3
72
10
73
6
40
0
40
0
40
0
40
0
40
0.5
40
0.5
40
1
40
1
40
1
40
1
41
1
10
44.6376923247534
20
0.811400485013991
30
0
41
1
10
44.5908395975149
20
0.847177965803951
30
0
41
1
10
44.5436731025133
20
0.878525263180308
30
0
41
1
10
44.4484557401063
20
0.93220040420502
30
0
41
1
10
44.4005743264851
20
0.954431062894429
30
0
41
1
10
44.3523029381447
20
0.972014358553452
30
0
0
SPLINE
5
1BE
100
AcDbEntity
8
1
62
256
6
ByLayer
370
18
48
1
60
0
100
AcDbSpline
70
4
71
3
72
26
73
22
40
0
40
0
40
0
40
0
40
0.125000000000091
40
0.125000000000091
40
0.250000000000182
40
0.250000000000182
40
0.375000000000272
40
0.375000000000272
40
0.437500000000267
40
0.437500000000267
40
0.500000000000262
40
0.500000000000262
40
0.625000000000143
40
0.625000000000143
40
0.687500000000083
40
0.687500000000083
40
0.750000000000023
40
0.750000000000023
40
0.875000000000012
40
0.875000000000012
40
1
40
1
40
1
40
1
41
1
10
44.3523029381422
20
0.972014358554361
30
0
41
1
10
44.3466527482867
20
0.974072491999067
30
0
41
1
10
44.3400905158236
20
0.976979434220112
30
0
41
1
10
44.3255338402947
20
0.984092961911671
30
0
41
1
10
44.3174611828606
20
0.988349321273915
30
0
41
1
10
44.3004970974374
20
0.997805354367102
30
0
41
1
10
44.2915697912171
20
1.00301907465132
30
0
41
1
10
44.2775396495303
20
1.01157565688482
30
0
41
1
10
44.2727517573039
20
1.01455492860112
30
0
41
1
10
44.2631295461506
20
1.02066616691715
30
0
41
1
10
44.2582747622507
20
1.02381040473918
30
0
41
1
10
44.2435839722019
20
1.03352224439891
30
0
41
1
10
44.2336235531501
20
1.04036281444644
30
0
41
1
10
44.218420008985
20
1.05131440847353
30
0
41
1
10
44.2133089518538
20
1.05508221322583
30
0
41
1
10
44.2032413167328
20
1.0627014791273
30
0
41
1
10
44.1982552754669
20
1.06657367617174
30
0
41
1
10
44.1834648368001
20
1.07840957461372
30
0
41
1
10
44.1737329383283
20
1.0866812078429
30
0
41
1
10
44.1561029468404
20
1.10301553206719
30
0
41
1
10
44.1480085819012
20
1.11126704189724
30
0
41
1
10
44.1415735427587
20
1.11890438084865
30
0
0
SPLINE
5
1BF
100
AcDbEntity
8
1
62
256
6
ByLayer
370
18
48
1
60
0
100
AcDbSpline
70
4
71
3
72
10
73
6
40
0
40
0
40
0
40
0
40
0.5
40
0.5
40
1
40
1
40
1
40
1
41
1
10
44.141573542757
20
1.11890438085061
30
0
41
1
10
44.0957095671552
20
1.17333741841048
30
0
41
1
10
44.0500593302714
20
1.23093069958057
30
0
41
1
10
43.9593007520994
20
1.35163059727589
30
0
41
1
10
43.9142492808855
20
1.41466383973307
30
0
41
1
10
43.8694912914559
20
1.48013926177737
30
0
0
SPLINE
5
1C0
100
AcDbEntity
8
1
62
256
6
ByLayer
370
18
48
1
60
0
100
AcDbSpline
70
4
71
3
72
8
73
4
40
0
40
0
40
0
40
0
40
1
40
1
40
1
40
1
41
1
10
43.7964185978203
20
1.53793214980422
30
0
41
1
10
43.8207819989459
20
1.51886215647733
30
0
41
1
10
43.8451379794176
20
1.49959645827144
30
0
41
1
10
43.8694912914559
20
1.48013926177734
30
0
0
SPLINE
5
1C1
100
AcDbEntity
8
1
62
256
6
ByLayer
370
18
48
1
60
0
100
AcDbSpline
70
4
71
3
72
10
73
6
40
0
40
0
40
0
40
0
40
0.5
40
0.5
40
1
40
1
40
1
40
1
41
1
10
43.7964185978203
20
1.53793214980422
30
0
41
1
10
43.7495458058391
20
1.54261527963411
30
0
41
1
10
43.7023933372972
20
1.54278300165208
30
0
41
1
10
43.6072299000151
20
1.53379351954976
30
0
41
1
10
43.5593842634518
20
1.52464734675522
30
0
41
1
10
43.5111088616343
20
1.51072251038431
30
0
0
SPLINE
5
1C2
100
AcDbEntity
8
1
62
256
6
ByLayer
370
18
48
1
60
0
100
AcDbSpline
70
4
71
3
72
26
73
22
40
0
40
0
40
0
40
0
40
0.124999999999937
40
0.124999999999937
40
0.249999999999873
40
0.249999999999873
40
0.37499999999981
40
0.37499999999981
40
0.437499999999828
40
0.437499999999828
40
0.499999999999847
40
0.499999999999847
40
0.624999999999884
40
0.624999999999884
40
0.687499999999903
40
0.687499999999903
40
0.749999999999923
40
0.749999999999923
40
0.874999999999961
40
0.874999999999961
40
1
40
1
40
1
40
1
41
1
10
43.511108861632
20
1.51072251038335
30
0
41
1
10
43.505472760869
20
1.50909680085286
30
0
41
1
10
43.4989278844203
20
1.50855281955123
30
0
41
1
10
43.4844064792383
20
1.50913029991324
30
0
41
1
10
43.4763519103913
20
1.51028386026203
30
0
41
1
10
43.4594176801305
20
1.51406036280903
30
0
41
1
10
43.4505029014283
20
1.51667581675116
30
0
41
1
10
43.4364857019727
20
1.52168967308572
30
0
41
1
10
43.4316990859891
20
1.52354869398587
30
0
41
1
10
43.4220778076885
20
1.5275797188439
30
0
41
1
10
43.4172227752718
20
1.52975846863964
30
0
41
1
10
43.4025290157269
20
1.53680072539021
30
0
41
1
10
43.3925636228741
20
1.54215960146158
30
0
41
1
10
43.3773481677499
20
1.55141401188607
30
0
41
1
10
43.372228687403
20
1.55470875330479
30
0
41
1
10
43.3621457245464
20
1.56160028805235
30
0
41
1
10
43.3571523918038
20
1.56521417361378
30
0
41
1
10
43.3423417294501
20
1.57662730418616
30
0
41
1
10
43.3325966606587
20
1.58509648971142
30
0
41
1
10
43.3149531614129
20
1.60303583727037
30
0
41
1
10
43.306857772599
20
1.61271685530158
30
0
41
1
10
43.3004253436846
20
1.6224945338933
30
0
0
SPLINE
5
1C3
100
AcDbEntity
8
1
62
256
6
ByLayer
370
18
48
1
60
0
100
AcDbSpline
70
4
71
3
72
10
73
6
40
0
40
0
40
0
40
0
40
0.5
40
0.5
40
1
40
1
40
1
40
1
41
1
10
43.300425343682
20
1.62249453389725
30
0
41
1
10
43.2544501991358
20
1.69237951709687
30
0
41
1
10
43.2086962317616
20
1.76442237669838
30
0
41
1
10
43.1177639234331
20
1.91196318243388
30
0
41
1
10
43.0726433631896
20
1.98735549881269
30
0
41
1
10
43.0278283050832
20
2.06411373622254
30
0
0
SPLINE
5
1C4
100
AcDbEntity
8
1
62
256
6
ByLayer
370
18
48
1
60
0
100
AcDbSpline
70
4
71
3
72
8
73
4
40
0
40
0
40
0
40
0
40
1
40
1
40
1
40
1
41
1
10
42.9552077311462
20
2.10515068634263
30
0
41
1
10
42.9794208365989
20
2.09173963900435
30
0
41
1
10
43.0036262275698
20
2.07805966841366
30
0
41
1
10
43.0278283050833
20
2.06411373622251
30
0
0
SPLINE
5
1C5
100
AcDbEntity
8
1
62
256
6
ByLayer
370
18
48
1
60
0
100
AcDbSpline
70
4
71
3
72
10
73
6
40
0
40
0
40
0
40
0
40
0.5
40
0.5
40
1
40
1
40
1
40
1
41
1
10
42.9552077311463
20
2.10515068634254
30
0
41
1
10
42.9083090189229
20
2.07822676536387
30
0
41
1
10
42.8611358191712
20
2.0470404728672
30
0
41
1
10
42.7659827729983
20
1.97603027440144
30
0
41
1
10
42.7181669694947
20
1.936326161084
30
0
41
1
10
42.6699704328551
20
1.89238485000746
30
0
0
SPLINE
5
1C6
100
AcDbEntity
8
1
62
256
6
ByLayer
370
18
48
1
60
0
100
AcDbSpline
70
4
71
3
72
26
73
22
40
0
40
0
40
0
40
0
40
0.125000000000095
40
0.125000000000095
40
0.250000000000189
40
0.250000000000189
40
0.375000000000284
40
0.375000000000284
40
0.437500000000332
40
0.437500000000332
40
0.500000000000379
40
0.500000000000379
40
0.625000000000366
40
0.625000000000366
40
0.687500000000306
40
0.687500000000306
40
0.750000000000245
40
0.750000000000245
40
0.875000000000122
40
0.875000000000122
40
1
40
1
40
1
40
1
41
1
10
42.6699704328526
20
1.89238485000519
30
0
41
1
10
42.6643243336367
20
1.88723723942559
30
0
41
1
10
42.6577682468221
20
1.88330829516244
30
0
41
1
10
42.6432268638035
20
1.87732979872587
30
0
41
1
10
42.6351641095853
20
1.8752922450316
30
0
41
1
10
42.6182194957765
20
1.87307203752241
30
0
41
1
10
42.6093016624456
20
1.87286134903928
30
0
41
1
10
42.595284081971
20
1.87388335841411
30
0
41
1
10
42.5904992625153
20
1.87445252504782
30
0
41
1
10
42.5808819594619
20
1.87603229818677
30
0
41
1
10
42.5760291194155
20
1.87704363895133
30
0
41
1
10
42.5613423780198
20
1.88075921290584
30
0
41
1
10
42.5513822599489
20
1.88413102441999
30
0
41
1
10
42.5361748271842
20
1.89080420964512
30
0
41
1
10
42.5310581200624
20
1.89330667281607
30
0
41
1
10
42.5209787212665
20
1.8988018182925
30
0
41
1
10
42.5159864179513
20
1.90180601968754
30
0
41
1
10
42.5011763086544
20
1.91168448159891
30
0
41
1
10
42.4914276287887
20
1.91952107714283
30
0
41
1
10
42.4737655747939
20
1.93731083523383
30
0
41
1
10
42.4656561108673
20
1.94747526891294
30
0
41
1
10
42.4592122813145
20
1.95843779211097
30
0
0
SPLINE
5
1C7
100
AcDbEntity
8
1
62
256
6
ByLayer
370
18
48
1
60
0
100
AcDbSpline
70
4
71
3
72
10
73
6
40
0
40
0
40
0
40
0
40
0.5
40
0.5
40
1
40
1
40
1
40
1
41
1
10
42.4592122813145
20
1.95843779211094
30
0
41
1
10
42.4132887660792
20
2.03656487430257
30
0
41
1
10
42.3675765080716
20
2.11546437531248
30
0
41
1
10
42.2767047844323
20
2.27412648643929
30
0
41
1
10
42.2316042067253
20
2.35378543625149
30
0
41
1
10
42.1868087918727
20
2.43357933342779
30
0
0
SPLINE
5
1C8
100
AcDbEntity
8
1
62
256
6
ByLayer
370
18
48
1
60
0
100
AcDbSpline
70
4
71
3
72
8
73
4
40
0
40
0
40
0
40
0
40
1
40
1
40
1
40
1
41
1
10
42.1136702216328
20
2.45415369683107
30
0
41
1
10
42.1380557942266
20
2.44761638657548
30
0
41
1
10
42.1624338730129
20
2.44075768472348
30
0
41
1
10
42.1868087918727
20
2.43357933342773
30
0
0
SPLINE
5
1C9
100
AcDbEntity
8
1
62
256
6
ByLayer
370
18
48
1
60
0
100
AcDbSpline
70
4
71
3
72
51
73
47
40
0
40
0
40
0
40
0
40
0.0257152922359946
40
0.0404771817475719
40
0.0404771817475719
40
0.055239071259149
40
0.055239071259149
40
0.0847628502823007
40
0.0847628502823007
40
0.114286629305452
40
0.114286629305452
40
0.173334187351752
40
0.173334187351752
40
0.291429303444356
40
0.291429303444356
40
0.350476861490658
40
0.350476861490658
40
0.365238751002233
40
0.365238751002233
40
0.380000640513809
40
0.40952441953696
40
0.40952441953696
40
0.52761953562957
40
0.52761953562957
40
0.586667093675873
40
0.586667093675873
40
0.645714651722176
40
0.645714651722176
40
0.660476541233753
40
0.660476541233753
40
0.67523843074533
40
0.67523843074533
40
0.704762209768483
40
0.704762209768483
40
0.763809767814786
40
0.763809767814786
40
0.82285732586109
40
0.82285732586109
40
0.881904883907393
40
0.881904883907393
40
0.911428662930545
40
0.911428662930545
40
0.940952441953697
40
0.970476220976848
40
0.970476220976848
40
1
40
1
40
1
40
1
41
1
10
33.4063439724652
20
-1.93164984242048
30
0
41
1
10
33.3656599476946
20
-1.9316377262129
30
0
41
1
10
33.3014981114404
20
-1.93049841326155
30
0
41
1
10
33.2370902057743
20
-1.9275837541791
30
0
41
1
10
33.1900378526623
20
-1.92498398759153
30
0
41
1
10
33.1664770185839
20
-1.92344672139478
30
0
41
1
10
33.0959252473332
20
-1.91814498527648
30
0
41
1
10
33.0489631880517
20
-1.91368992492519
30
0
41
1
10
32.9552105569222
20
-1.90297014760117
30
0
41
1
10
32.9084626001616
20
-1.89669480669897
30
0
41
1
10
32.7684775076838
20
-1.87516564820626
30
0
41
1
10
32.6755316981597
20
-1.85720018958005
30
0
41
1
10
32.3971393771423
20
-1.79273666604195
30
0
41
1
10
32.2121082318622
20
-1.73566250359792
30
0
41
1
10
31.9323928595358
20
-1.6303906252316
30
0
41
1
10
31.8387684953368
20
-1.59204774166142
30
0
41
1
10
31.7210165964726
20
-1.54017947169092
30
0
41
1
10
31.6974146888373
20
-1.52960209209138
30
0
41
1
10
31.6503148222337
20
-1.50811151593283
30
0
41
1
10
31.579777782278
20
-1.47534392772539
30
0
41
1
10
31.5095492074957
20
-1.4410122095405
30
0
41
1
10
31.275970908558
20
-1.32327144850598
30
0
41
1
10
31.090795627282
20
-1.21847125849268
30
0
41
1
10
30.8126122556262
20
-1.04856484270994
30
0
41
1
10
30.7198067999886
20
-0.989822011306444
30
0
41
1
10
30.5335158450754
20
-0.868731083662112
30
0
41
1
10
30.4399524415918
20
-0.806487623961829
30
0
41
1
10
30.3225854628688
20
-0.726380374503378
30
0
41
1
10
30.2990909368057
20
-0.710243835221718
30
0
41
1
10
30.2520540452834
20
-0.67774503155232
30
0
41
1
10
30.2284905148081
20
-0.661367925866159
30
0
41
1
10
30.1578984858854
20
-0.612030518211782
30
0
41
1
10
30.1109877373239
20
-0.578875161798919
30
0
41
1
10
29.9706069047824
20
-0.4787540826255
30
0
41
1
10
29.8774843214574
20
-0.411138498519676
30
0
41
1
10
29.6916299094365
20
-0.274904301052828
30
0
41
1
10
29.5989049184905
20
-0.206276520380612
30
0
41
1
10
29.4133808688847
20
-0.0686537627345842
30
0
41
1
10
29.3205871850644
20
0.0003487335561942
30
0
41
1
10
29.1808984102784
20
0.103520713012301
30
0
41
1
10
29.1342584888151
20
0.137864194989163
30
0
41
1
10
29.0409064666831
20
0.20656997179222
30
0
41
1
10
28.9474631868552
20
0.275268497232759
30
0
41
1
10
28.8537455968084
20
0.343829749762023
30
0
41
1
10
28.7598304676247
20
0.412241079789624
30
0
41
1
10
28.7127216807946
20
0.446408807260951
30
0
41
1
10
28.6658122416221
20
0.480219879484423
30
0
0
SPLINE
5
1CA
100
AcDbEntity
8
1
62
256
6
ByLayer
370
18
48
1
60
0
100
AcDbSpline
70
4
71
3
72
47
73
43
40
0
40
0
40
0
40
0
40
0.0751851475197299
40
0.0751851475197299
40
0.15037029503946
40
0.15037029503946
40
0.187962868799325
40
0.187962868799325
40
0.22555544255919
40
0.22555544255919
40
0.300740590078919
40
0.300740590078919
40
0.338333163838784
40
0.338333163838784
40
0.375925737598649
40
0.413518311358514
40
0.413518311358514
40
0.451110885118379
40
0.451110885118379
40
0.488703458878244
40
0.488703458878244
40
0.526296032638109
40
0.526296032638109
40
0.601481180157839
40
0.601481180157839
40
0.639073753917702
40
0.639073753917702
40
0.676666327677565
40
0.676666327677565
40
0.714258901437429
40
0.714258901437429
40
0.751851475197292
40
0.751851475197292
40
0.827036622717019
40
0.827036622717019
40
0.902221770236745
40
0.902221770236745
40
0.977406917756472
40
0.977406917756472
40
0.996203204636405
40
0.996203204636405
40
1
40
1
40
1
40
1
41
1
10
27.2355293583757
20
-1.14603017497788
30
0
41
1
10
27.3445631952024
20
-1.21060492503119
30
0
41
1
10
27.4530695613866
20
-1.27184498965377
30
0
41
1
10
27.6691758601082
20
-1.38761705474349
30
0
41
1
10
27.7768137827962
20
-1.44211209245185
30
0
41
1
10
27.9377059479025
20
-1.51859365713241
30
0
41
1
10
27.9913627656194
20
-1.54310158964705
30
0
41
1
10
28.0989387724515
20
-1.5899863124134
30
0
41
1
10
28.1528336973922
20
-1.61238448499233
30
0
41
1
10
28.3148941872806
20
-1.67641779165732
30
0
41
1
10
28.4234558328242
20
-1.71488466068206
30
0
41
1
10
28.5872576041213
20
-1.76605476848542
30
0
41
1
10
28.6420631705711
20
-1.78202959250299
30
0
41
1
10
28.7511406176042
20
-1.81151322250119
30
0
41
1
10
28.8598995717617
20
-1.83860265087228
30
0
41
1
10
28.9680495441513
20
-1.86093382624225
30
0
41
1
10
29.075885111448
20
-1.88088177112391
30
0
41
1
10
29.1296456645982
20
-1.88966173962498
30
0
41
1
10
29.2370109785785
20
-1.9047684378757
30
0
41
1
10
29.290652786312
20
-1.9110839361542
30
0
41
1
10
29.3981344591183
20
-1.92120718662053
30
0
41
1
10
29.4519474134505
20
-1.92502325859346
30
0
41
1
10
29.6136298154827
20
-1.93276666169243
30
0
41
1
10
29.7217437972136
20
-1.93299486153535
30
0
41
1
10
29.88465538067
20
-1.92590060148805
30
0
41
1
10
29.9390792344541
20
-1.92229452578812
30
0
41
1
10
30.048200956692
20
-1.91256712819808
30
0
41
1
10
30.1029953798087
20
-1.90642992139459
30
0
41
1
10
30.2120397788821
20
-1.89170462899625
30
0
41
1
10
30.2663593846164
20
-1.8831139141235
30
0
41
1
10
30.3745956895551
20
-1.86347868703919
30
0
41
1
10
30.4284926190647
20
-1.85242579409299
30
0
41
1
10
30.5897054692895
20
-1.81560270704509
30
0
41
1
10
30.6972848859132
20
-1.78649902399269
30
0
41
1
10
30.9126970792653
20
-1.71954675943488
30
0
41
1
10
31.020572192525
20
-1.68171455146299
30
0
41
1
10
31.2369804078012
20
-1.59759568993033
30
0
41
1
10
31.3455105938905
20
-1.55131766601403
30
0
41
1
10
31.4815558201021
20
-1.48798194874615
30
0
41
1
10
31.5087858835401
20
-1.4750407912924
30
0
41
1
10
31.5415498714007
20
-1.45915862824651
30
0
41
1
10
31.5470577455538
20
-1.45647816760609
30
0
41
1
10
31.5525664471463
20
-1.45378681048388
30
0
0
SPLINE
5
1CB
100
AcDbEntity
8
1
62
256
6
ByLayer
370
18
48
1
60
0
100
AcDbSpline
70
4
71
3
72
14
73
10
40
0
40
0
40
0
40
0
40
0.125
40
0.125
40
0.25
40
0.25
40
0.5
40
0.5
40
1
40
1
40
1
40
1
41
1
10
37.8696503280903
20
1.99861130712839
30
0
41
1
10
37.889374583834
20
2.01006636156717
30
0
41
1
10
37.9091219515919
20
2.02140478546082
30
0
41
1
10
37.9485094064752
20
2.04375853084878
30
0
41
1
10
37.9681272239553
20
2.0547596538814
30
0
41
1
10
38.0267456208353
20
2.08721134494235
30
0
41
1
10
38.065520526038
20
2.10811587927205
30
0
41
1
10
38.181044019522
20
2.16854638566497
30
0
41
1
10
38.2569126823951
20
2.20570952971826
30
0
41
1
10
38.3323676029
20
2.23991374491391
30
0
0
SPLINE
5
1CC
100
AcDbEntity
8
1
62
256
6
ByLayer
370
18
48
1
60
0
100
AcDbSpline
70
4
71
3
72
8
73
4
40
0
40
0
40
0
40
0
40
1
40
1
40
1
40
1
41
1
10
38.3323676029
20
2.23991374491391
30
0
41
1
10
38.3679155743333
20
2.17694468472533
30
0
41
1
10
38.4036815152155
20
2.11295767908035
30
0
41
1
10
38.439734489645
20
2.04798156654704
30
0
0
SPLINE
5
1CD
100
AcDbEntity
8
1
62
256
6
ByLayer
370
18
48
1
60
0
100
AcDbSpline
70
4
71
3
72
27
73
23
40
0
40
0
40
0
40
0
40
0.125
40
0.125
40
0.25
40
0.25
40
0.375
40
0.375
40
0.5
40
0.5
40
0.625
40
0.625
40
0.6875
40
0.6875
40
0.75
40
0.8125
40
0.8125
40
0.875
40
0.875
40
0.9375
40
0.9375
40
1
40
1
40
1
40
1
41
1
10
38.439734489645
20
2.04798156654704
30
0
41
1
10
38.4455564998311
20
2.03748890692674
30
0
41
1
10
38.4523408262991
20
2.02821182111651
30
0
41
1
10
38.4673761401353
20
2.01149081326906
30
0
41
1
10
38.4757277079344
20
2.00400936802654
30
0
41
1
10
38.4931287320941
20
1.99124349455138
30
0
41
1
10
38.5022210154139
20
1.98588775553287
30
0
41
1
10
38.521120466804
20
1.9771100740962
30
0
41
1
10
38.5309853097416
20
1.97369487795268
30
0
41
1
10
38.5506880520209
20
1.96912735344998
30
0
41
1
10
38.5606082936698
20
1.96792241610308
30
0
41
1
10
38.5755725122286
20
1.96792124257715
30
0
41
1
10
38.5806037158875
20
1.96822992875349
30
0
41
1
10
38.5905161520596
20
1.96951096077561
30
0
41
1
10
38.600280276633
20
1.97144585600759
30
0
41
1
10
38.6097143539261
20
1.97479337340184
30
0
41
1
10
38.6189559763612
20
1.97894877852389
30
0
41
1
10
38.6234817107988
20
1.98144069318539
30
0
41
1
10
38.6320310411084
20
1.98719956349572
30
0
41
1
10
38.6360895724886
20
1.9904785337408
30
0
41
1
10
38.6437071352997
20
1.99795989767728
30
0
41
1
10
38.6472713230838
20
2.0021810232484
30
0
41
1
10
38.6504388530949
20
2.00682924887386
30
0
0
SPLINE
5
1CE
100
AcDbEntity
8
1
62
256
6
ByLayer
370
18
48
1
60
0
100
AcDbSpline
70
4
71
3
72
10
73
6
40
0
40
0
40
0
40
0
40
0.5
40
0.5
40
1
40
1
40
1
40
1
41
1
10
38.6504388530986
20
2.00682924888025
30
0
41
1
10
38.6967889033522
20
2.07484612341875
30
0
41
1
10
38.7428265051423
20
2.14075392948848
30
0
41
1
10
38.8342387270446
20
2.26800316164298
30
0
41
1
10
38.8795522540935
20
2.32926197333745
30
0
41
1
10
38.9245389478779
20
2.38809870289597
30
0
0
SPLINE
5
1CF
100
AcDbEntity
8
1
62
256
6
ByLayer
370
18
48
1
60
0
100
AcDbSpline
70
4
71
3
72
8
73
4
40
0
40
0
40
0
40
0
40
1
40
1
40
1
40
1
41
1
10
38.9977862086755
20
2.36208732290109
30
0
41
1
10
38.9733723251634
20
2.37106737210974
30
0
41
1
10
38.9489569357206
20
2.37973792924402
30
0
41
1
10
38.9245389478778
20
2.38809870289609
30
0
0
SPLINE
5
1D0
100
AcDbEntity
8
1
62
256
6
ByLayer
370
18
48
1
60
0
100
AcDbSpline
70
4
71
3
72
10
73
6
40
0
40
0
40
0
40
0
40
0.5
40
0.5
40
1
40
1
40
1
40
1
41
1
10
38.9977862086746
20
2.36208732288816
30
0
41
1
10
39.0441973019305
20
2.27088794088181
30
0
41
1
10
39.0909233037709
20
2.17893516419011
30
0
41
1
10
39.1852885905417
20
1.99369785218468
30
0
41
1
10
39.2327666770079
20
1.90072662421702
30
0
41
1
10
39.2807078679465
20
1.80747720250182
30
0
0
SPLINE
5
1D1
100
AcDbEntity
8
1
62
256
6
ByLayer
370
18
48
1
60
0
100
AcDbSpline
70
4
71
3
72
27
73
23
40
0
40
0
40
0
40
0
40
0.125000000000001
40
0.125000000000001
40
0.250000000000001
40
0.250000000000001
40
0.375000000000002
40
0.375000000000002
40
0.500000000000002
40
0.500000000000002
40
0.625000000000002
40
0.625000000000002
40
0.687500000000002
40
0.687500000000002
40
0.750000000000002
40
0.812500000000001
40
0.812500000000001
40
0.875000000000001
40
0.875000000000001
40
0.9375
40
0.9375
40
1
40
1
40
1
40
1
41
1
10
39.2807078679465
20
1.80747720250182
30
0
41
1
10
39.2865410274851
20
1.79613124419274
30
0
41
1
10
39.2933402941558
20
1.7857106918535
30
0
41
1
10
39.3084076011389
20
1.76626992123133
30
0
41
1
10
39.3167760144729
20
1.75719087587302
30
0
41
1
10
39.3342027369612
20
1.74095490803023
30
0
41
1
10
39.3433055089688
20
1.73371817575031
30
0
41
1
10
39.3622194440918
20
1.72089041982315
30
0
41
1
10
39.3720864599526
20
1.71529315830455
30
0
41
1
10
39.3917858713091
20
1.70620364351558
30
0
41
1
10
39.4017009201903
20
1.70264220796034
30
0
41
1
10
39.416652198132
20
1.69893067389819
30
0
41
1
10
39.4216778798871
20
1.6979655102532
30
0
41
1
10
39.4315770520468
20
1.69667476198265
30
0
41
1
10
39.441327985655
20
1.69601459490733
30
0
41
1
10
39.4507506808578
20
1.69671088607018
30
0
41
1
10
39.4599821139877
20
1.69818418589938
30
0
41
1
10
39.4645048303524
20
1.69931821680504
30
0
41
1
10
39.4730516803356
20
1.70241065549837
30
0
41
1
10
39.4771104591137
20
1.70437114902893
30
0
41
1
10
39.4847313117074
20
1.70925223829883
30
0
41
1
10
39.488299648719
20
1.7121892075742
30
0
41
1
10
39.4914722731928
20
1.71561492069361
30
0
0
SPLINE
5
1D2
100
AcDbEntity
8
1
62
256
6
ByLayer
370
18
48
1
60
0
100
AcDbSpline
70
4
71
3
72
8
73
4
40
0
40
0
40
0
40
0
40
1
40
1
40
1
40
1
41
1
10
43.2033743095636
20
-1.06786558238272
30
0
41
1
10
43.1791348353342
20
-1.04622632200559
30
0
41
1
10
43.1548752588412
20
-1.02448046531916
30
0
41
1
10
43.1306086983577
20
-1.00261653658299
30
0
0
SPLINE
5
1D3
100
AcDbEntity
8
1
62
256
6
ByLayer
370
18
48
1
60
0
100
AcDbSpline
70
4
71
3
72
8
73
4
40
0
40
0
40
0
40
0
40
1
40
1
40
1
40
1
41
1
10
44.0446570670545
20
-1.74936708555444
30
0
41
1
10
44.0203282156397
20
-1.73213458094034
30
0
41
1
10
43.9960076008548
20
-1.714681379789
30
0
41
1
10
43.9716935794219
20
-1.69700891428525
30
0
0
SPLINE
5
1D4
100
AcDbEntity
8
1
62
256
6
ByLayer
370
18
48
1
60
0
100
AcDbSpline
70
4
71
3
72
27
73
23
40
0
40
0
40
0
40
0
40
0.125
40
0.125
40
0.25
40
0.25
40
0.375
40
0.375
40
0.5
40
0.5
40
0.625
40
0.625
40
0.6875
40
0.6875
40
0.75
40
0.8125
40
0.8125
40
0.875
40
0.875
40
0.9375
40
0.9375
40
1
40
1
40
1
40
1
41
1
10
46.0094410396593
20
-2.09151809094368
30
0
41
1
10
46.0152985111184
20
-2.08225387607396
30
0
41
1
10
46.0221282066932
20
-2.07437502433595
30
0
41
1
10
46.0372594211961
20
-2.06068734148553
30
0
41
1
10
46.0456642111473
20
-2.05486036534873
30
0
41
1
10
46.0631540371555
20
-2.04549796599048
30
0
41
1
10
46.072283409019
20
-2.04189902676515
30
0
41
1
10
46.0912411748036
20
-2.03673346299175
30
0
41
1
10
46.1011201319317
20
-2.03518578224933
30
0
41
1
10
46.1208276904731
20
-2.03431290285948
30
0
41
1
10
46.1307411638558
20
-2.03495136863489
30
0
41
1
10
46.145680922508
20
-2.03771077363146
30
0
41
1
10
46.1506997826201
20
-2.03894417605062
30
0
41
1
10
46.1605681741871
20
-2.04203431642759
30
0
41
1
10
46.1702868142129
20
-2.04574423862312
30
0
41
1
10
46.1796729428618
20
-2.05079101800519
30
0
41
1
10
46.1888651644194
20
-2.05660358637417
30
0
41
1
10
46.1933648676759
20
-2.059902197605
30
0
41
1
10
46.201867360426
20
-2.06717812601417
30
0
41
1
10
46.205904342097
20
-2.07117351905535
30
0
41
1
10
46.2134836959717
20
-2.07998945708687
30
0
41
1
10
46.2170349254169
20
-2.08483364241297
30
0
41
1
10
46.2201960403388
20
-2.09003566584852
30
0
0
SPLINE
5
1D5
100
AcDbEntity
8
1
62
256
6
ByLayer
370
18
48
1
60
0
100
AcDbSpline
70
4
71
3
72
8
73
4
40
0
40
0
40
0
40
0
40
1
40
1
40
1
40
1
41
1
10
46.2201960403419
20
-2.0900356658538
30
0
41
1
10
46.2294585954551
20
-2.10527839823425
30
0
41
1
10
46.2387068081117
20
-2.12046706143585
30
0
41
1
10
46.2479417010996
20
-2.13560168267728
30
0
0
SPLINE
5
1D6
100
AcDbEntity
8
1
62
256
6
ByLayer
370
18
48
1
60
0
100
AcDbSpline
70
4
71
3
72
12
73
8
40
0
40
0
40
0
40
0
40
0.5
40
0.5
40
0.75
40
0.75
40
1
40
1
40
1
40
1
41
1
10
46.2479417010998
20
-2.13560168267722
30
0
41
1
10
46.3357450827188
20
-2.11295848820049
30
0
41
1
10
46.4237868485252
20
-2.08630680284656
30
0
41
1
10
46.5565042914719
20
-2.04060687236139
30
0
41
1
10
46.6008526220682
20
-2.0244215879132
30
0
41
1
10
46.6898095197101
20
-1.99019857842211
30
0
41
1
10
46.734403585798
20
-1.9721598235183
30
0
41
1
10
46.7791964115799
20
-1.95321742041247
30
0
0
SPLINE
5
1D7
100
AcDbEntity
8
1
62
256
6
ByLayer
370
18
48
1
60
0
100
AcDbSpline
70
4
71
3
72
18
73
14
40
0
40
0
40
0
40
0
40
0.124999999999979
40
0.124999999999979
40
0.249999999999959
40
0.249999999999959
40
0.499999999999959
40
0.499999999999959
40
0.74999999999996
40
0.74999999999996
40
0.87499999999998
40
0.87499999999998
40
1
40
1
40
1
40
1
41
1
10
47.1999999999999
20
-1.46858583514018
30
0
41
1
10
47.1811569019995
20
-1.48837226373743
30
0
41
1
10
47.1624118559399
20
-1.50842094386343
30
0
41
1
10
47.1250717012765
20
-1.54897833515386
30
0
41
1
10
47.1065541065591
20
-1.5694038204368
30
0
41
1
10
47.0518326086031
20
-1.63053372065599
30
0
41
1
10
47.0162618257036
20
-1.67130344736569
30
0
41
1
10
46.9464707056386
20
-1.75262405389412
30
0
41
1
10
46.9122544113942
20
-1.79317582791614
30
0
41
1
10
46.8616857317507
20
-1.85366789539017
30
0
41
1
10
46.8449564535237
20
-1.87377613114356
30
0
41
1
10
46.8117192798877
20
-1.91385258737239
30
0
41
1
10
46.7953545033633
20
-1.93365140932053
30
0
41
1
10
46.7791964115794
20
-1.95321742040733
30
0
0
SPLINE
5
1D8
100
AcDbEntity
8
1
62
256
6
ByLayer
370
18
48
1
60
0
100
AcDbSpline
70
4
71
3
72
92
73
88
40
0
40
0
40
0
40
0
40
0.0312499999999981
40
0.0312499999999981
40
0.0624999999999961
40
0.0624999999999961
40
0.124999999999992
40
0.124999999999992
40
0.187499999999988
40
0.187499999999988
40
0.203124999999985
40
0.203124999999985
40
0.218749999999981
40
0.218749999999981
40
0.249999999999975
40
0.249999999999975
40
0.281249999999968
40
0.281249999999968
40
0.296874999999964
40
0.296874999999964
40
0.312499999999961
40
0.328124999999958
40
0.328124999999958
40
0.343749999999954
40
0.343749999999954
40
0.374999999999947
40
0.374999999999947
40
0.40624999999994
40
0.40624999999994
40
0.437499999999934
40
0.437499999999934
40
0.45312499999993
40
0.45312499999993
40
0.46093749999993
40
0.46093749999993
40
0.46874999999993
40
0.46874999999993
40
0.484374999999933
40
0.484374999999933
40
0.492187499999933
40
0.492187499999933
40
0.499999999999933
40
0.499999999999933
40
0.531249999999942
40
0.531249999999942
40
0.539062499999945
40
0.539062499999945
40
0.546874999999947
40
0.546874999999947
40
0.562499999999951
40
0.562499999999951
40
0.570312499999954
40
0.570312499999954
40
0.578124999999956
40
0.578124999999956
40
0.593749999999962
40
0.593749999999962
40
0.601562499999965
40
0.601562499999965
40
0.609374999999967
40
0.624999999999973
40
0.624999999999973
40
0.632812499999975
40
0.632812499999975
40
0.640624999999978
40
0.640624999999978
40
0.656249999999984
40
0.656249999999984
40
0.671874999999989
40
0.671874999999989
40
0.679687499999991
40
0.679687499999991
40
0.687499999999993
40
0.687499999999993
40
0.718749999999993
40
0.718749999999993
40
0.749999999999994
40
0.749999999999994
40
0.781249999999995
40
0.781249999999995
40
0.812499999999996
40
0.812499999999996
40
0.874999999999997
40
0.874999999999997
40
0.937499999999999
40
0.937499999999999
40
1
40
1
40
1
40
1
41
1
10
28.665625077521
20
0.479849916348286
30
0
41
1
10
28.618616971479
20
0.516479341610506
30
0
41
1
10
28.5713841187224
20
0.552292693139322
30
0
41
1
10
28.4758939055202
20
0.621463703614751
30
0
41
1
10
28.4275694341464
20
0.654717790857148
30
0
41
1
10
28.2807864256855
20
0.750580089469821
30
0
41
1
10
28.1804976860027
20
0.809245618173748
30
0
41
1
10
27.9733466889132
20
0.914607743887899
30
0
41
1
10
27.8665304768626
20
0.961374238075791
30
0
41
1
10
27.7277499576042
20
1.01140924988741
30
0
41
1
10
27.6997292088324
20
1.0209930873163
30
0
41
1
10
27.6431162253409
20
1.0392728818951
30
0
41
1
10
27.6146239463648
20
1.04793486736827
30
0
41
1
10
27.5289300011442
20
1.07236396075803
30
0
41
1
10
27.4713705863174
20
1.08664415517398
30
0
41
1
10
27.3552947533228
20
1.11099247042304
30
0
41
1
10
27.2967782018092
20
1.1210603861766
30
0
41
1
10
27.2081792398465
20
1.13268644772006
30
0
41
1
10
27.1785073923255
20
1.13597595991607
30
0
41
1
10
27.1188647323278
20
1.14131108106437
30
0
41
1
10
27.0589342107916
20
1.14544837557599
30
0
41
1
10
26.9985026189007
20
1.14751665516428
30
0
41
1
10
26.9378580200449
20
1.14870880146822
30
0
41
1
10
26.9074863433407
20
1.14886744121895
30
0
41
1
10
26.8167389085759
20
1.14827171912776
30
0
41
1
10
26.7565791524118
20
1.1461096229055
30
0
41
1
10
26.6370278236013
20
1.13774423425318
30
0
41
1
10
26.5776344036005
20
1.13155198806814
30
0
41
1
10
26.4597558344213
20
1.11427913664647
30
0
41
1
10
26.4012591250439
20
1.10326196000426
30
0
41
1
10
26.3143295063729
20
1.08218329425611
30
0
41
1
10
26.2854905482794
20
1.07438821717199
30
0
41
1
10
26.2424731217985
20
1.06131909927666
30
0
41
1
10
26.2281475299674
20
1.05672231821052
30
0
41
1
10
26.1997774928456
20
1.04708350843347
30
0
41
1
10
26.1857221592216
20
1.04203919680617
30
0
41
1
10
26.1439713597376
20
1.0261773320384
30
0
41
1
10
26.1166887618237
20
1.01463562550182
30
0
41
1
10
26.0767263925724
20
0.995592099438994
30
0
41
1
10
26.0635688252414
20
0.988950620988561
30
0
41
1
10
26.0376064424665
20
0.975023985389015
30
0
41
1
10
26.0247703134445
20
0.967719573985363
30
0
41
1
10
25.9619702959349
20
0.929658957168186
30
0
41
1
10
25.9163113398585
20
0.894594912985838
30
0
41
1
10
25.8671286406504
20
0.842349103524128
30
0
41
1
10
25.8576832074078
20
0.831461621976018
30
0
41
1
10
25.83971198748
20
0.808772126412805
30
0
41
1
10
25.831303374531
20
0.797118572367339
30
0
41
1
10
25.8078403014588
20
0.761196990031181
30
0
41
1
10
25.7945388765048
20
0.735973228119917
30
0
41
1
10
25.778306622009
20
0.696037322570561
30
0
41
1
10
25.773496008663
20
0.682302097263886
30
0
41
1
10
25.7652618520668
20
0.654497149280786
30
0
41
1
10
25.7618364448128
20
0.640453821247434
30
0
41
1
10
25.7535231556709
20
0.597909956177688
30
0
41
1
10
25.7505925466125
20
0.568996288609839
30
0
41
1
10
25.7497962875775
20
0.524817364319347
30
0
41
1
10
25.7501567447371
20
0.509909023113408
30
0
41
1
10
25.7521483037545
20
0.480340671344266
30
0
41
1
10
25.757020918269
20
0.436188310278084
30
0
41
1
10
25.7673567660237
20
0.392620304215882
30
0
41
1
10
25.7809534502107
20
0.3493944669965
30
0
41
1
10
25.7860281829735
20
0.335057278052972
30
0
41
1
10
25.7970062105412
20
0.306903575660869
30
0
41
1
10
25.8029368353027
20
0.29303502871528
30
0
41
1
10
25.8217835638325
20
0.251920344279625
30
0
41
1
10
25.8357007453124
20
0.22513765668117
30
0
41
1
10
25.8655325992412
20
0.172479217334313
30
0
41
1
10
25.8814538025548
20
0.146606703024815
30
0
41
1
10
25.9065203154085
20
0.108324892165541
30
0
41
1
10
25.9150862790891
20
0.0956370880915074
30
0
41
1
10
25.9324741538634
20
0.0705647381373069
30
0
41
1
10
25.9413054068052
20
0.0581650571228636
30
0
41
1
10
25.9860668582659
20
-0.0032282612161509
30
0
41
1
10
26.0237828307486
20
-0.0504353909665838
30
0
41
1
10
26.1016526531286
20
-0.142340471322086
30
0
41
1
10
26.141823200368
20
-0.187022542418816
30
0
41
1
10
26.2239008125087
20
-0.27454202234199
30
0
41
1
10
26.2658135616813
20
-0.317374001855939
30
0
41
1
10
26.3509311323893
20
-0.401610899040122
30
0
41
1
10
26.3941385955371
20
-0.443013291997005
30
0
41
1
10
26.5252622654427
20
-0.565484703719932
30
0
41
1
10
26.6135426183962
20
-0.643817316118913
30
0
41
1
10
26.7907279226369
20
-0.795426194301228
30
0
41
1
10
26.8796033626393
20
-0.868726985877856
30
0
41
1
10
27.0574740806961
20
-1.0108186044678
30
0
41
1
10
27.1464737813604
20
-1.07959973540292
30
0
41
1
10
27.2356260965291
20
-1.14594443698488
30
0
0
SPLINE
5
1D9
100
AcDbEntity
8
1
62
256
6
ByLayer
370
18
48
1
60
0
100
AcDbSpline
70
4
71
3
72
38
73
34
40
0
40
0
40
0
40
0
40
0.0456072188075196
40
0.0456072188075196
40
0.112838816063291
40
0.112838816063291
40
0.180070413319063
40
0.180070413319063
40
0.247302010574833
40
0.247302010574833
40
0.314533607830605
40
0.314533607830605
40
0.381765205086376
40
0.381765205086376
40
0.448996802342147
40
0.448996802342147
40
0.516228399597919
40
0.516228399597919
40
0.58345999685369
40
0.58345999685369
40
0.650691594109461
40
0.650691594109461
40
0.717923191365232
40
0.717923191365232
40
0.785154788621004
40
0.785154788621004
40
0.852386385876776
40
0.852386385876776
40
0.919617983132548
40
0.919617983132548
40
0.986849580388319
40
0.986849580388319
40
1
40
1
40
1
40
1
41
1
10
28.665609706877
20
0.479861131528509
30
0
41
1
10
28.6527643021677
20
0.48923282228958
30
0
41
1
10
28.6387126241287
20
0.497102025275069
30
0
41
1
10
28.599224483982
20
0.509957956320903
30
0
41
1
10
28.5724801973615
20
0.512803335482204
30
0
41
1
10
28.5121916323946
20
0.508315817028745
30
0
41
1
10
28.4784256610591
20
0.500832175637868
30
0
41
1
10
28.4061614084604
20
0.475229373595994
30
0
41
1
10
28.3674118821168
20
0.457169665258959
30
0
41
1
10
28.2837948331074
20
0.408759309379945
30
0
41
1
10
28.2401659525623
20
0.379064277061616
30
0
41
1
10
28.1506995464441
20
0.30880145215454
30
0
41
1
10
28.1040956296766
20
0.267387578010386
30
0
41
1
10
28.0118574714818
20
0.180988548094263
30
0
41
1
10
27.9661714354087
20
0.135364738227309
30
0
41
1
10
27.8757002075943
20
0.039073942170603
30
0
41
1
10
27.8305066028714
20
-0.0121214579208413
30
0
41
1
10
27.7432984068033
20
-0.116924100460381
30
0
41
1
10
27.7014085572463
20
-0.170349588485578
30
0
41
1
10
27.620956898655
20
-0.279188880996259
30
0
41
1
10
27.5820885081177
20
-0.335086255376382
30
0
41
1
10
27.509459750636
20
-0.446233923755642
30
0
41
1
10
27.4757376901832
20
-0.501352304705534
30
0
41
1
10
27.4129851318234
20
-0.61076478998379
30
0
41
1
10
27.3837905959668
20
-0.665406236253773
30
0
41
1
10
27.3307528142984
20
-0.772016468678032
30
0
41
1
10
27.3071341183049
20
-0.823774954598804
30
0
41
1
10
27.2709160124735
20
-0.921415506857215
30
0
41
1
10
27.2575123856695
20
-0.967857877313122
30
0
41
1
10
27.2400306087901
20
-1.05212644455753
30
0
41
1
10
27.2357013276256
20
-1.09060046819732
30
0
41
1
10
27.2352300918043
20
-1.13269640655142
30
0
41
1
10
27.2353509634399
20
-1.13939284765118
30
0
41
1
10
27.2356259352176
20
-1.145940596202
30
0
0
SPLINE
5
1DA
100
AcDbEntity
8
SK1
62
256
6
ByLayer
370
18
48
1
60
0
100
AcDbSpline
70
4
71
3
72
18
73
14
40
0
40
0
40
0
40
0
40
0.250010337724687
40
0.250010337724687
40
0.500020675449375
40
0.500020675449375
40
0.625025844311718
40
0.625025844311718
40
0.68752842874289
40
0.68752842874289
40
0.750031013174062
40
0.750031013174062
40
1
40
1
40
1
40
1
41
1
10
-22
20
2.44999999999996
30
0
41
1
10
-22.0619016558605
20
2.44999999999996
30
0
41
1
10
-22.1194530014235
20
2.44999999999996
30
0
41
1
10
-22.2230629385498
20
2.44999999999996
30
0
41
1
10
-22.2691240341919
20
2.44999999999996
30
0
41
1
10
-22.3268777895502
20
2.44999999999996
30
0
41
1
10
-22.3442324614345
20
2.44999999999996
30
0
41
1
10
-22.367021354728
20
2.44999999999996
30
0
41
1
10
-22.3740767558169
20
2.44999999999996
30
0
41
1
10
-22.3870353899801
20
2.44999999999996
30
0
41
1
10
-22.3929475360501
20
2.44999999999996
30
0
41
1
10
-22.4192510342965
20
2.44999999999996
30
0
41
1
10
-22.4299843449325
20
2.44999999999996
30
0
41
1
10
-22.43
20
2.44999999999996
30
0
0
SPLINE
5
1DB
100
AcDbEntity
8
SK1
62
256
6
ByLayer
370
18
48
1
60
0
100
AcDbSpline
70
4
71
3
72
18
73
14
40
0
40
0
40
0
40
0
40
0.249969012581281
40
0.249969012581281
40
0.312471594866174
40
0.312471594866174
40
0.374974177151068
40
0.374974177151068
40
0.499979341720855
40
0.499979341720855
40
0.749989670860427
40
0.749989670860427
40
1
40
1
40
1
40
1
41
1
10
-22.4300000000064
20
-2.45000000000002
30
0
41
1
10
-22.4299843478814
20
-2.45000000000002
30
0
41
1
10
-22.419251037187
20
-2.45000000000002
30
0
41
1
10
-22.3929475360501
20
-2.45000000000002
30
0
41
1
10
-22.3870353899801
20
-2.45000000000002
30
0
41
1
10
-22.3740767558169
20
-2.45000000000002
30
0
41
1
10
-22.367021354728
20
-2.45000000000002
30
0
41
1
10
-22.3442324614345
20
-2.45000000000002
30
0
41
1
10
-22.3268777895502
20
-2.45000000000002
30
0
41
1
10
-22.2691240341919
20
-2.45000000000002
30
0
41
1
10
-22.2230629385497
20
-2.45000000000002
30
0
41
1
10
-22.1194530014235
20
-2.45000000000002
30
0
41
1
10
-22.0619016558605
20
-2.45000000000005
30
0
41
1
10
-22
20
-2.45000000000002
30
0
0
SPLINE
5
1DC
100
AcDbEntity
8
SK1
62
256
6
ByLayer
370
18
48
1
60
0
100
AcDbSpline
70
4
71
3
72
28
73
24
40
0
40
0
40
0
40
0
40
0.125
40
0.125
40
0.25
40
0.25
40
0.3125
40
0.34375
40
0.34375
40
0.375
40
0.375
40
0.499999999999999
40
0.624999999999999
40
0.624999999999999
40
0.656249999999999
40
0.656249999999999
40
0.687499999999999
40
0.687499999999999
40
0.75
40
0.75
40
0.875
40
0.875
40
1
40
1
40
1
40
1
41
1
10
-22
20
-1.51390224255073
30
0
41
1
10
-22.0619431217069
20
-1.39606359649963
30
0
41
1
10
-22.119532991302
20
-1.27662087306044
30
0
41
1
10
-22.2231818426811
20
-1.03356928576781
30
0
41
1
10
-22.2692481386254
20
-0.909951764964148
30
0
41
1
10
-22.3269910848407
20
-0.720400065314834
30
0
41
1
10
-22.3530131297644
20
-0.624589117884
30
0
41
1
10
-22.3741650560419
20
-0.52700902667172
30
0
41
1
10
-22.3871128590611
20
-0.461536613163389
30
0
41
1
10
-22.3930196210638
20
-0.428522534965765
30
0
41
1
10
-22.4193029597357
20
-0.263614203190031
30
0
41
1
10
-22.4407212763269
20
0.0002299958251228
30
0
41
1
10
-22.4192545151676
20
0.264055216473878
30
0
41
1
10
-22.3929475360501
20
0.428940274925367
30
0
41
1
10
-22.3870353899801
20
0.461954837450179
30
0
41
1
10
-22.3740767558169
20
0.527428697331999
30
0
41
1
10
-22.367021354728
20
0.559954497623153
30
0
41
1
10
-22.3442324614345
20
0.656937197076928
30
0
41
1
10
-22.3268777895502
20
0.720799948348599
30
0
41
1
10
-22.2691240341919
20
0.91030296331661
30
0
41
1
10
-22.2230629385498
20
1.03386815006104
30
0
41
1
10
-22.1194530014235
20
1.27678836717467
30
0
41
1
10
-22.0619016558605
20
1.39614247982132
30
0
41
1
10
-22
20
1.51390224255064
30
0
0
SPLINE
5
1DD
100
AcDbEntity
8
1
62
256
6
ByLayer
370
18
48
1
60
0
100
AcDbSpline
70
4
71
1
72
4
73
2
40
0
40
0
40
1
40
1
41
1
10
41.2693415627911
20
2.54443069164913
30
0
41
1
10
41.1855069872155
20
2.39989245559144
30
0
0
SPLINE
5
1DE
100
AcDbEntity
8
1
62
256
6
ByLayer
370
18
48
1
60
0
100
AcDbSpline
70
4
71
2
72
6
73
3
40
0
40
0
40
0
40
1
40
1
40
1
41
1
10
45.9567093504839
20
-2.20146110866267
30
0
41
1
10
45.9922227508367
20
-2.1403949958908
30
0
41
1
10
46.0277485938083
20
-2.07938029551397
30
0
0
SPLINE
5
1DF
100
AcDbEntity
8
1
62
256
6
ByLayer
370
18
48
1
60
0
100
AcDbSpline
70
4
71
1
72
4
73
2
40
0
40
0
40
1
40
1
41
1
10
45.5455782345687
20
-2.30993304999009
30
0
41
1
10
45.9516082435255
20
-2.20913356307872
30
0
0
SPLINE
5
1E0
100
AcDbEntity
8
1
62
256
6
ByLayer
370
18
48
1
60
0
100
AcDbSpline
70
4
71
2
72
6
73
3
40
0
40
0
40
0
40
1
40
1
40
1
41
1
10
45.4028684345848
20
-2.08450190725651
30
0
41
1
10
45.458869493562
20
-2.18098471151484
30
0
41
1
10
45.5148468245249
20
-2.27753418238106
30
0
0
SPLINE
5
1E1
100
AcDbEntity
8
1
62
256
6
ByLayer
370
18
48
1
60
0
100
AcDbSpline
70
4
71
2
72
6
73
3
40
0
40
0
40
0
40
1
40
1
40
1
41
1
10
43.9299969454447
20
-2.30258547050451
30
0
41
1
10
44.0003670204306
20
-2.42371483894877
30
0
41
1
10
44.0705956572592
20
-2.54492863791754
30
0
0
SPLINE
5
1E2
100
AcDbEntity
8
1
62
256
6
ByLayer
370
18
48
1
60
0
100
AcDbSpline
70
4
71
2
72
6
73
3
40
0
40
0
40
0
40
1
40
1
40
1
41
1
10
46.0303940606498
20
-2.07407360259239
30
0
41
1
10
46.0407983136196
20
-2.0517019049955
30
0
41
1
10
46.064092580348
20
-2.04408760303858
30
0
0
SPLINE
5
1E3
100
AcDbEntity
8
1
62
256
6
ByLayer
370
18
48
1
60
0
100
AcDbSpline
70
4
71
2
72
6
73
3
40
0
40
0
40
0
40
1
40
1
40
1
41
1
10
46.0816331121716
20
-2.04059632715462
30
0
41
1
10
46.0928161395162
20
-2.03957152846715
30
0
41
1
10
46.1060961921043
20
-2.04094755197923
30
0
0
SPLINE
5
1E4
100
AcDbEntity
8
1
62
256
6
ByLayer
370
18
48
1
60
0
100
AcDbSpline
70
4
71
2
72
6
73
3
40
0
40
0
40
0
40
1
40
1
40
1
41
1
10
40.4268083768026
20
-2.08054575165298
30
0
41
1
10
40.4516889309603
20
-2.0294970196226
30
0
41
1
10
40.5156276968158
20
-2.04069061686778
30
0
0
SPLINE
5
1E5
100
AcDbEntity
8
1
62
256
6
ByLayer
370
18
48
1
60
0
100
AcDbSpline
70
4
71
2
72
6
73
3
40
0
40
0
40
0
40
1
40
1
40
1
41
1
10
40.1561295818822
20
-2.54650784801899
30
0
41
1
10
40.2909953038054
20
-2.31402650534983
30
0
41
1
10
40.4265730388062
20
-2.08095332212147
30
0
0
SPLINE
5
1E6
100
AcDbEntity
8
1
62
256
6
ByLayer
370
18
48
1
60
0
100
AcDbSpline
70
4
71
2
72
6
73
3
40
0
40
0
40
0
40
1
40
1
40
1
41
1
10
39.8002934128765
20
-2.08044480643883
30
0
41
1
10
39.9346864862501
20
-2.31174994160915
30
0
41
1
10
40.068924615081
20
-2.54342970658106
30
0
0
SPLINE
5
1E7
100
AcDbEntity
8
1
62
256
6
ByLayer
370
18
48
1
60
0
100
AcDbSpline
70
4
71
2
72
6
73
3
40
0
40
0
40
0
40
1
40
1
40
1
41
1
10
42.0702731153631
20
2.54556653740937
30
0
41
1
10
41.9356272476132
20
2.31306086227806
30
0
41
1
10
41.8006883506788
20
2.08069836579062
30
0
0
SPLINE
5
1E8
100
AcDbEntity
8
1
62
256
6
ByLayer
370
18
48
1
60
0
100
AcDbSpline
70
4
71
3
72
11
73
7
40
0
40
0
40
0
40
0
40
0.245365102733295
40
0.497325803591751
40
0.750482124365043
40
1
40
1
40
1
40
1
41
1
10
45.2269761419652
20
-2.08081276288758
30
0
41
1
10
45.2339661758609
20
-2.06777416991457
30
0
41
1
10
45.2542614682541
20
-2.04778152761526
30
0
41
1
10
45.313352244492
20
-2.02814453984939
30
0
41
1
10
45.3723097581553
20
-2.04694477079025
30
0
41
1
10
45.3923709769132
20
-2.06582655302984
30
0
41
1
10
45.3991556992269
20
-2.07834979398376
30
0
0
SPLINE
5
1E9
100
AcDbEntity
8
1
62
256
6
ByLayer
370
18
48
1
60
0
100
AcDbSpline
70
4
71
2
72
6
73
3
40
0
40
0
40
0
40
1
40
1
40
1
41
1
10
42.4279483969638
20
2.07866990585759
30
0
41
1
10
42.2931682483101
20
2.31018836577283
30
0
41
1
10
42.1586206852605
20
2.54214921671988
30
0
0
SPLINE
5
1EA
100
AcDbEntity
8
1
62
256
6
ByLayer
370
18
48
1
60
0
100
AcDbSpline
70
4
71
3
72
11
73
7
40
0
40
0
40
0
40
0
40
0.248690113603597
40
0.502095152096633
40
0.754398647143824
40
1
40
1
40
1
40
1
41
1
10
39.6271983316147
20
-2.08057997685904
30
0
41
1
10
39.6341488100499
20
-2.06753630247016
30
0
41
1
10
39.6544941539748
20
-2.04772730593871
30
0
41
1
10
39.7136668003399
20
-2.0282756582441
30
0
41
1
10
39.7730146043991
20
-2.0476094025212
30
0
41
1
10
39.7934827483611
20
-2.06773049095438
30
0
41
1
10
39.8005553197289
20
-2.08090241135358
30
0
0
SPLINE
5
1EB
100
AcDbEntity
8
1
62
256
6
ByLayer
370
18
48
1
60
0
100
AcDbSpline
70
4
71
3
72
11
73
7
40
0
40
0
40
0
40
0
40
0.246897310842477
40
0.49935249305911
40
0.752165897696592
40
1
40
1
40
1
40
1
41
1
10
42.5989384571741
20
2.078300714953
30
0
41
1
10
42.5920322312028
20
2.0657306873855
30
0
41
1
10
42.5718398440344
20
2.04669283558206
30
0
41
1
10
42.5128117262981
20
2.02813063334733
30
0
41
1
10
42.4538366059921
20
2.04796515046147
30
0
41
1
10
42.4336588942265
20
2.06779670550765
30
0
41
1
10
42.4267754855606
20
2.08077686249024
30
0
0
SPLINE
5
1EC
100
AcDbEntity
8
1
62
256
6
ByLayer
370
18
48
1
60
0
100
AcDbSpline
70
4
71
2
72
6
73
3
40
0
40
0
40
0
40
1
40
1
40
1
41
1
10
45.0096622299764
20
-2.45483526832746
30
0
41
1
10
45.0136531191518
20
-2.44795691370521
30
0
41
1
10
45.0176444713652
20
-2.44107834834583
30
0
0
SPLINE
5
1ED
100
AcDbEntity
8
1
62
256
6
ByLayer
370
18
48
1
60
0
100
AcDbSpline
70
4
71
2
72
6
73
3
40
0
40
0
40
0
40
1
40
1
40
1
41
1
10
45.0204973037759
20
-2.43616194563327
30
0
41
1
10
45.1241534971629
20
-2.2575297152047
30
0
41
1
10
45.2281219610733
20
-2.07875536469189
30
0
0
SPLINE
5
1EE
100
AcDbEntity
8
1
62
256
6
ByLayer
370
18
48
1
60
0
100
AcDbSpline
70
4
71
1
72
4
73
2
40
0
40
0
40
1
40
1
41
1
10
44.8479947688397
20
-2.48319901878111
30
0
41
1
10
45.0454767400337
20
-2.43417088467143
30
0
0
SPLINE
5
1EF
100
AcDbEntity
8
1
62
256
6
ByLayer
370
18
48
1
60
0
100
AcDbSpline
70
4
71
2
72
6
73
3
40
0
40
0
40
0
40
1
40
1
40
1
41
1
10
44.6007527929566
20
-2.08189322939279
30
0
41
1
10
44.7197899023176
20
-2.28702523452458
30
0
41
1
10
44.8386117650111
20
-2.49227416881845
30
0
0
SPLINE
5
1F0
100
AcDbEntity
8
1
62
256
6
ByLayer
370
18
48
1
60
0
100
AcDbSpline
70
4
71
3
72
11
73
7
40
0
40
0
40
0
40
0
40
0.242409151226888
40
0.500135423469103
40
0.757721269635339
40
1
40
1
40
1
40
1
41
1
10
44.4176799270651
20
-2.0916085104646
30
0
41
1
10
44.4260408957202
20
-2.07525019011146
30
0
41
1
10
44.4488732569283
20
-2.04939555955229
30
0
41
1
10
44.5098788741406
20
-2.02739674170954
30
0
41
1
10
44.5709263115511
20
-2.04583651434353
30
0
41
1
10
44.5937385665147
20
-2.06904030540488
30
0
41
1
10
44.6020900718387
20
-2.08406554740839
30
0
0
SPLINE
5
1F1
100
AcDbEntity
8
1
62
256
6
ByLayer
370
18
48
1
60
0
100
AcDbSpline
70
4
71
2
72
6
73
3
40
0
40
0
40
0
40
1
40
1
40
1
41
1
10
39.3581914227942
20
-2.54358484350155
30
0
41
1
10
39.492460478882
20
-2.31213668758843
30
0
41
1
10
39.6268793732715
20
-2.08113304533484
30
0
0
SPLINE
5
1F2
100
AcDbEntity
8
1
62
256
6
ByLayer
370
18
48
1
60
0
100
AcDbSpline
70
4
71
2
72
6
73
3
40
0
40
0
40
0
40
1
40
1
40
1
41
1
10
39.0002960617053
20
-2.08044991752485
30
0
41
1
10
39.135700562869
20
-2.3135113647152
30
0
41
1
10
39.2704908962675
20
-2.54603658925575
30
0
0
SPLINE
5
1F3
100
AcDbEntity
8
1
62
256
6
ByLayer
370
18
48
1
60
0
100
AcDbSpline
70
4
71
2
72
6
73
3
40
0
40
0
40
0
40
1
40
1
40
1
41
1
10
38.9120585328119
20
-2.04002740275615
30
0
41
1
10
38.9744863898247
20
-2.02925207993562
30
0
41
1
10
38.9996364636207
20
-2.07929827045197
30
0
0
SPLINE
5
1F4
100
AcDbEntity
8
1
62
256
6
ByLayer
370
18
48
1
60
0
100
AcDbSpline
70
4
71
2
72
6
73
3
40
0
40
0
40
0
40
1
40
1
40
1
41
1
10
42.869611978838
20
2.54496925182602
30
0
41
1
10
42.7356449095468
20
2.31375083341578
30
0
41
1
10
42.6015756549775
20
2.08286375429932
30
0
0
SPLINE
5
1F5
100
AcDbEntity
8
1
62
256
6
ByLayer
370
18
48
1
60
0
100
AcDbSpline
70
4
71
2
72
6
73
3
40
0
40
0
40
0
40
1
40
1
40
1
41
1
10
43.3130730587484
20
2.04129867327634
30
0
41
1
10
43.2513239616515
20
2.03092768854066
30
0
41
1
10
43.2289386830447
20
2.07706018354068
30
0
0
SPLINE
5
1F6
100
AcDbEntity
8
1
62
256
6
ByLayer
370
18
48
1
60
0
100
AcDbSpline
70
4
71
2
72
6
73
3
40
0
40
0
40
0
40
1
40
1
40
1
41
1
10
43.2254178905068
20
2.08324252237909
30
0
41
1
10
43.0902825602368
20
2.31554248506086
30
0
41
1
10
42.9555284305697
20
2.5477891375254
30
0
0
LINE
5
7F
100
AcDbEntity
8
80
62
256
6
ByLayer
370
18
48
1
60
0
100
AcDbLine
10
0
20
0
30
0
11
-5
21
0
31
0
39
0
210
0
220
0
230
1
0
LINE
5
80
100
AcDbEntity
8
4
62
256
6
ByLayer
370
18
48
0.05
60
0
100
AcDbLine
10
0
20
0
30
0
11
47.2
21
0
31
0
39
0
210
0
220
0
230
1
0
LINE
5
82
100
AcDbEntity
8
81
62
256
6
ByLayer
370
18
48
1
60
0
100
AcDbLine
10
47.2
20
0
30
0
11
52.2
21
0
31
0
39
0
210
0
220
0
230
1
0
LINE
5
83
100
AcDbEntity
8
SK4
62
256
6
ByLayer
370
18
48
0.05
60
0
100
AcDbLine
10
-23
20
0
30
0
11
47.2
21
0
31
0
39
0
210
0
220
0
230
1
0
LINE
5
85
100
AcDbEntity
8
1
62
256
6
ByLayer
370
18
48
1
60
0
100
AcDbLine
10
0
20
3
30
0
11
0
21
-3
31
0
39
0
210
0
220
0
230
1
0
LINE
5
86
100
AcDbEntity
8
1
62
256
6
ByLayer
370
18
48
1
60
0
100
AcDbLine
10
41.267647
20
2.541504
30
0
11
41.272952
21
2.548501
31
0
39
0
210
0
220
0
230
1
0
LINE
5
87
100
AcDbEntity
8
1
62
256
6
ByLayer
370
18
48
1
60
0
100
AcDbLine
10
45.402992
20
-2.084677
30
0
11
45.400428
21
-2.080655
31
0
39
0
210
0
220
0
230
1
0
LINE
5
88
100
AcDbEntity
8
1
62
256
6
ByLayer
370
18
48
1
60
0
100
AcDbLine
10
45.228106
20
-2.078784
30
0
11
45.225307
21
-2.083507
31
0
39
0
210
0
220
0
230
1
0
LINE
5
89
100
AcDbEntity
8
1
62
256
6
ByLayer
370
18
48
1
60
0
100
AcDbLine
10
45.019848
20
-2.437282
30
0
11
45.018417
21
-2.439442
31
0
39
0
210
0
220
0
230
1
0
LINE
5
8A
100
AcDbEntity
8
1
62
256
6
ByLayer
370
13
48
1
60
0
100
AcDbLine
10
37.86965
20
-0.990478
30
0
11
37.86965
21
-1.863711
31
0
39
0
210
0
220
0
230
1
0
LINE
5
8B
100
AcDbEntity
8
1
62
256
6
ByLayer
370
18
48
1
60
0
100
AcDbLine
10
44.422008
20
-2.087958
30
0
11
44.417529
21
-2.091692
31
0
39
0
210
0
220
0
230
1
0
LINE
5
8C
100
AcDbEntity
8
1
62
256
6
ByLayer
370
18
48
1
60
0
100
AcDbLine
10
47.2
20
1.605
30
0
11
47.2
21
1.601717
31
0
39
0
210
0
220
0
230
1
0
LINE
5
8D
100
AcDbEntity
8
1
62
256
6
ByLayer
370
18
48
1
60
0
100
AcDbLine
10
40.157943
20
-2.543387
30
0
11
40.15367
21
-2.548756
31
0
39
0
210
0
220
0
230
1
0
LINE
5
8E
100
AcDbEntity
8
1
62
256
6
ByLayer
370
18
48
1
60
0
100
AcDbLine
10
42.068254
20
2.542081
30
0
11
42.072185
21
2.547639
31
0
39
0
210
0
220
0
230
1
0
LINE
5
8F
100
AcDbEntity
8
1
62
256
6
ByLayer
370
18
48
1
60
0
100
AcDbLine
10
39.360352
20
-2.53986
30
0
11
39.357943
21
-2.543907
31
0
39
0
210
0
220
0
230
1
0
LINE
5
90
100
AcDbEntity
8
1
62
256
6
ByLayer
370
18
48
1
60
0
100
AcDbLine
10
43.227787
20
2.079256
30
0
11
43.225391
21
2.083284
31
0
39
0
210
0
220
0
230
1
0
LINE
5
91
100
AcDbEntity
8
1
62
256
6
ByLayer
370
18
48
1
60
0
100
AcDbLine
10
42.867698
20
2.541669
30
0
11
42.869257
21
2.544141
31
0
39
0
210
0
220
0
230
1
0
LINE
5
92
100
AcDbEntity
8
1
62
256
6
ByLayer
370
13
48
1
60
0
100
AcDbLine
10
37.86965
20
1.998637
30
0
11
37.86965
21
1.557035
31
0
39
0
210
0
220
0
230
1
0
LINE
5
93
100
AcDbEntity
8
1
62
256
6
ByLayer
370
13
48
1
60
0
100
AcDbLine
10
37.61965
20
-1.718016
30
0
11
37.61965
21
-0.80111
31
0
39
0
210
0
220
0
230
1
0
LINE
5
94
100
AcDbEntity
8
1
62
256
6
ByLayer
370
13
48
1
60
0
100
AcDbLine
10
37.61965
20
1.62371
30
0
11
37.61965
21
1.93165
31
0
39
0
210
0
220
0
230
1
0
LINE
5
95
100
AcDbEntity
8
1
62
256
6
ByLayer
370
13
48
1
60
0
100
AcDbLine
10
22.043744
20
-1.93165
30
0
11
22.043744
21
1.93165
31
0
39
0
210
0
220
0
230
1
0
LINE
5
96
100
AcDbEntity
8
1
62
256
6
ByLayer
370
18
48
1
60
0
100
AcDbLine
10
47.2
20
0.173525
30
0
11
47.2
21
-0.889719
31
0
39
0
210
0
220
0
230
1
0
LINE
5
97
100
AcDbEntity
8
1
62
256
6
ByLayer
370
13
48
1
60
0
100
AcDbLine
10
21.95692
20
1.939246
30
0
11
21.95692
21
-1.939246
31
0
39
0
210
0
220
0
230
1
0
LINE
5
98
100
AcDbEntity
8
1
62
256
6
ByLayer
370
18
48
1
60
0
100
AcDbLine
10
15.941086
20
3
30
0
11
15.941086
21
-3
31
0
39
0
210
0
220
0
230
1
0
LINE
5
99
100
AcDbEntity
8
SK1
62
256
6
ByLayer
370
18
48
1
60
0
100
AcDbLine
10
-23
20
1.88
30
0
11
-23
21
-1.88
31
0
39
0
210
0
220
0
230
1
0
LINE
5
9B
100
AcDbEntity
8
SK1
62
256
6
ByLayer
370
18
48
1
60
0
100
AcDbLine
10
-15
20
2.45
30
0
11
-14.57
21
2.88
31
0
39
0
210
0
220
0
230
1
0
LINE
5
9C
100
AcDbEntity
8
SK1
62
256
6
ByLayer
370
18
48
1
60
0
100
AcDbLine
10
-22
20
2.45
30
0
11
-15
21
2.45
31
0
39
0
210
0
220
0
230
1
0
LINE
5
9D
100
AcDbEntity
8
SK1
62
256
6
ByLayer
370
18
48
1
60
0
100
AcDbLine
10
-22
20
1.513902
30
0
11
-22
21
2.45
31
0
39
0
210
0
220
0
230
1
0
LINE
5
9E
100
AcDbEntity
8
SK1
62
256
6
ByLayer
370
18
48
1
60
0
100
AcDbLine
10
-15
20
1.513902
30
0
11
-22
21
1.513902
31
0
39
0
210
0
220
0
230
1
0
LINE
5
9F
100
AcDbEntity
8
SK1
62
256
6
ByLayer
370
18
48
1
60
0
100
AcDbLine
10
-22
20
-1.513902
30
0
11
-15
21
-1.513902
31
0
39
0
210
0
220
0
230
1
0
LINE
5
A0
100
AcDbEntity
8
SK1
62
256
6
ByLayer
370
18
48
1
60
0
100
AcDbLine
10
-22
20
-2.45
30
0
11
-22
21
-1.513902
31
0
39
0
210
0
220
0
230
1
0
LINE
5
A1
100
AcDbEntity
8
SK1
62
256
6
ByLayer
370
18
48
1
60
0
100
AcDbLine
10
-15
20
-2.45
30
0
11
-22
21
-2.45
31
0
39
0
210
0
220
0
230
1
0
LINE
5
A2
100
AcDbEntity
8
SK1
62
256
6
ByLayer
370
18
48
1
60
0
100
AcDbLine
10
-15
20
-2.45
30
0
11
-14.57
21
-2.88
31
0
39
0
210
0
220
0
230
1
0
LINE
5
A3
100
AcDbEntity
8
SK1
62
256
6
ByLayer
370
18
48
1
60
0
100
AcDbLine
10
-15
20
1.513902
30
0
11
-15
21
-1.513902
31
0
39
0
210
0
220
0
230
1
0
LINE
5
A4
100
AcDbEntity
8
SK1
62
256
6
ByLayer
370
18
48
1
60
0
100
AcDbLine
10
0
20
3
30
0
11
0
21
-3
31
0
39
0
210
0
220
0
230
1
0
LINE
5
A5
100
AcDbEntity
8
SK1
62
256
6
ByLayer
370
18
48
1
60
0
100
AcDbLine
10
-14.2
20
2.88
30
0
11
-14.2
21
-2.88
31
0
39
0
210
0
220
0
230
1
0
LINE
5
A6
100
AcDbEntity
8
SK1
62
256
6
ByLayer
370
18
48
1
60
0
100
AcDbLine
10
-14.08
20
-3
30
0
11
-14.08
21
3
31
0
39
0
210
0
220
0
230
1
0
LINE
5
A7
100
AcDbEntity
8
1
62
256
6
ByLayer
370
18
48
1
60
0
100
AcDbLine
10
15.941086
20
3
30
0
11
0
21
3
31
0
39
0
210
0
220
0
230
1
0
LINE
5
A8
100
AcDbEntity
8
1
62
256
6
ByLayer
370
18
48
1
60
0
100
AcDbLine
10
0
20
-3
30
0
11
15.941086
21
-3
31
0
39
0
210
0
220
0
230
1
0
LINE
5
A9
100
AcDbEntity
8
1
62
256
6
ByLayer
370
18
48
1
60
0
100
AcDbLine
10
47.2
20
1.605
30
0
11
47.042055
21
1.762945
31
0
39
0
210
0
220
0
230
1
0
LINE
5
AA
100
AcDbEntity
8
1
62
256
6
ByLayer
370
18
48
1
60
0
100
AcDbLine
10
40.078717
20
-2.551245
30
0
11
40.148148
21
-2.551245
31
0
39
0
210
0
220
0
230
1
0
LINE
5
AB
100
AcDbEntity
8
1
62
256
6
ByLayer
370
18
48
1
60
0
100
AcDbLine
10
42.148111
20
2.551245
30
0
11
42.078778
21
2.551245
31
0
39
0
210
0
220
0
230
1
0
LINE
5
AC
100
AcDbEntity
8
1
62
256
6
ByLayer
370
18
48
1
60
0
100
AcDbLine
10
39.279097
20
-2.551245
30
0
11
39.348121
21
-2.551245
31
0
39
0
210
0
220
0
230
1
0
LINE
5
AD
100
AcDbEntity
8
1
62
256
6
ByLayer
370
18
48
1
60
0
100
AcDbLine
10
42.948152
20
2.551245
30
0
11
42.878865
21
2.551245
31
0
39
0
210
0
220
0
230
1
0
LINE
5
AE
100
AcDbEntity
8
1
62
256
6
ByLayer
370
18
48
1
60
0
100
AcDbLine
10
44.117469
20
-2.551245
30
0
11
44.14835
21
-2.551245
31
0
39
0
210
0
220
0
230
1
0
LINE
5
AF
100
AcDbEntity
8
1
62
256
6
ByLayer
370
18
48
1
60
0
100
AcDbLine
10
22.043744
20
-1.93165
30
0
11
26.021856
21
-1.93165
31
0
39
0
210
0
220
0
230
1
0
LINE
5
B0
100
AcDbEntity
8
1
62
256
6
ByLayer
370
18
48
1
60
0
100
AcDbLine
10
27.818947
20
-1.93165
30
0
11
29.67613
21
-1.93165
31
0
39
0
210
0
220
0
230
1
0
LINE
5
B1
100
AcDbEntity
8
1
62
256
6
ByLayer
370
18
48
1
60
0
100
AcDbLine
10
33.406578
20
-1.93165
30
0
11
35.139926
21
-1.93165
31
0
39
0
210
0
220
0
230
1
0
LINE
5
B2
100
AcDbEntity
8
1
62
256
6
ByLayer
370
18
48
1
60
0
100
AcDbLine
10
37.61965
20
1.93165
30
0
11
36.131201
21
1.93165
31
0
39
0
210
0
220
0
230
1
0
LINE
5
B3
100
AcDbEntity
8
1
62
256
6
ByLayer
370
18
48
1
60
0
100
AcDbLine
10
32.406173
20
1.93165
30
0
11
30.682457
21
1.93165
31
0
39
0
210
0
220
0
230
1
0
LINE
5
B4
100
AcDbEntity
8
1
62
256
6
ByLayer
370
18
48
1
60
0
100
AcDbLine
10
27.000742
20
1.93165
30
0
11
22.043744
21
1.93165
31
0
39
0
210
0
220
0
230
1
0
LINE
5
B5
100
AcDbEntity
8
1
62
256
6
ByLayer
370
18
48
1
60
0
100
AcDbLine
10
21.95692
20
1.939246
30
0
11
15.941086
21
3
31
0
39
0
210
0
220
0
230
1
0
LINE
5
B6
100
AcDbEntity
8
1
62
256
6
ByLayer
370
18
48
1
60
0
100
AcDbLine
10
15.941086
20
-3
30
0
11
21.95692
21
-1.939246
31
0
39
0
210
0
220
0
230
1
0
LINE
5
B7
100
AcDbEntity
8
SK1
62
256
6
ByLayer
370
18
48
1
60
0
100
AcDbLine
10
-23
20
-1.88
30
0
11
-22.43
21
-2.45
31
0
39
0
210
0
220
0
230
1
0
LINE
5
B8
100
AcDbEntity
8
SK1
62
256
6
ByLayer
370
18
48
1
60
0
100
AcDbLine
10
-22.43
20
2.45
30
0
11
-23
21
1.88
31
0
39
0
210
0
220
0
230
1
0
LINE
5
B9
100
AcDbEntity
8
SK1
62
256
6
ByLayer
370
18
48
1
60
0
100
AcDbLine
10
-14.2
20
2.88
30
0
11
-14.57
21
2.88
31
0
39
0
210
0
220
0
230
1
0
LINE
5
BA
100
AcDbEntity
8
SK1
62
256
6
ByLayer
370
18
48
1
60
0
100
AcDbLine
10
-14.57
20
-2.88
30
0
11
-14.2
21
-2.88
31
0
39
0
210
0
220
0
230
1
0
LINE
5
BB
100
AcDbEntity
8
SK1
62
256
6
ByLayer
370
18
48
1
60
0
100
AcDbLine
10
0
20
3
30
0
11
-14.08
21
3
31
0
39
0
210
0
220
0
230
1
0
LINE
5
BC
100
AcDbEntity
8
SK1
62
256
6
ByLayer
370
18
48
1
60
0
100
AcDbLine
10
-14.08
20
-3
30
0
11
0
21
-3
31
0
39
0
210
0
220
0
230
1
0
LINE
5
BD
100
AcDbEntity
8
SK1
62
256
6
ByLayer
370
18
48
1
60
0
100
AcDbLine
10
-14.2
20
-2.88
30
0
11
-14.08
21
-3
31
0
39
0
210
0
220
0
230
1
0
LINE
5
BE
100
AcDbEntity
8
SK1
62
256
6
ByLayer
370
18
48
1
60
0
100
AcDbLine
10
-14.08
20
3
30
0
11
-14.2
21
2.88
31
0
39
0
210
0
220
0
230
1
0
LINE
5
BF
100
AcDbEntity
8
SK2
62
256
6
ByLayer
370
18
48
1
60
0
100
AcDbLine
10
8.930543
20
15.841828
30
0
11
8.930543
21
-10.5
31
0
39
0
210
0
220
0
230
1
0
LINE
5
C1
100
AcDbEntity
8
1
62
256
6
ByLayer
370
18
48
1
60
1
100
AcDbLine
10
8.930543
20
3
30
0
11
8.469759
21
6.499998
31
0
39
0
210
0
220
0
230
1
0
LINE
5
C2
100
AcDbEntity
8
1
62
256
6
ByLayer
370
18
48
1
60
1
100
AcDbLine
10
8.469759
20
6.499998
30
0
11
9.391327
21
6.500002
31
0
39
0
210
0
220
0
230
1
0
LINE
5
C3
100
AcDbEntity
8
1
62
256
6
ByLayer
370
18
48
1
60
1
100
AcDbLine
10
9.391327
20
6.500002
30
0
11
8.930543
21
3
31
0
39
0
210
0
220
0
230
1
0
LINE
5
C4
100
AcDbEntity
8
1
62
256
6
ByLayer
370
18
48
1
60
1
100
AcDbLine
10
8.930543
20
-3
30
0
11
9.391327
21
-6.499998
31
0
39
0
210
0
220
0
230
1
0
LINE
5
C5
100
AcDbEntity
8
1
62
256
6
ByLayer
370
18
48
1
60
1
100
AcDbLine
10
9.391327
20
-6.499998
30
0
11
8.469759
21
-6.500002
31
0
39
0
210
0
220
0
230
1
0
LINE
5
C6
100
AcDbEntity
8
1
62
256
6
ByLayer
370
18
48
1
60
1
100
AcDbLine
10
8.469759
20
-6.500002
30
0
11
8.930543
21
-3
31
0
39
0
210
0
220
0
230
1
0
LINE
5
C7
100
AcDbEntity
8
2
62
256
6
ByLayer
370
18
48
1
60
0
100
AcDbLine
10
47
20
-40.051245
30
0
11
-23
21
-40.051245
31
0
39
0
210
0
220
0
230
1
0
LINE
5
C9
100
AcDbEntity
8
2
62
256
6
ByLayer
370
18
48
1
60
0
100
AcDbLine
10
-23
20
-3.4675
30
0
11
-23
21
-42.051245
31
0
39
0
210
0
220
0
230
1
0
LINE
5
CA
100
AcDbEntity
8
2
62
256
6
ByLayer
370
18
48
1
60
0
100
AcDbLine
10
47
20
-4.138745
30
0
11
47
21
-42.051245
31
0
39
0
210
0
220
0
230
1
0
LINE
5
CB
100
AcDbEntity
8
1
62
256
6
ByLayer
370
18
48
1
60
1
100
AcDbLine
10
-23
20
-40.051245
30
0
11
-19.500002
21
-39.590461
31
0
39
0
210
0
220
0
230
1
0
LINE
5
CC
100
AcDbEntity
8
1
62
256
6
ByLayer
370
18
48
1
60
1
100
AcDbLine
10
-19.500002
20
-39.590461
30
0
11
-19.499998
21
-40.512029
31
0
39
0
210
0
220
0
230
1
0
LINE
5
CD
100
AcDbEntity
8
1
62
256
6
ByLayer
370
18
48
1
60
1
100
AcDbLine
10
-19.499998
20
-40.512029
30
0
11
-23
21
-40.051245
31
0
39
0
210
0
220
0
230
1
0
LINE
5
CE
100
AcDbEntity
8
1
62
256
6
ByLayer
370
18
48
1
60
1
100
AcDbLine
10
47
20
-40.051245
30
0
11
43.500002
21
-40.512029
31
0
39
0
210
0
220
0
230
1
0
LINE
5
CF
100
AcDbEntity
8
1
62
256
6
ByLayer
370
18
48
1
60
1
100
AcDbLine
10
43.500002
20
-40.512029
30
0
11
43.499998
21
-39.590461
31
0
39
0
210
0
220
0
230
1
0
LINE
5
D0
100
AcDbEntity
8
1
62
256
6
ByLayer
370
18
48
1
60
1
100
AcDbLine
10
43.499998
20
-39.590461
30
0
11
47
21
-40.051245
31
0
39
0
210
0
220
0
230
1
0
LINE
5
1FB
100
AcDbEntity
8
1
62
256
6
ByLayer
370
18
48
1
60
1
100
AcDbLine
10
8.930543
20
3
30
0
11
8.469759
21
6.499998
31
0
39
0
210
0
220
0
230
1
0
LINE
5
1FC
100
AcDbEntity
8
1
62
256
6
ByLayer
370
18
48
1
60
1
100
AcDbLine
10
8.469759
20
6.499998
30
0
11
9.391327
21
6.500002
31
0
39
0
210
0
220
0
230
1
0
LINE
5
1FD
100
AcDbEntity
8
1
62
256
6
ByLayer
370
18
48
1
60
1
100
AcDbLine
10
9.391327
20
6.500002
30
0
11
8.930543
21
3
31
0
39
0
210
0
220
0
230
1
0
LINE
5
1FF
100
AcDbEntity
8
1
62
256
6
ByLayer
370
18
48
1
60
1
100
AcDbLine
10
8.930543
20
-3
30
0
11
9.391327
21
-6.499998
31
0
39
0
210
0
220
0
230
1
0
LINE
5
200
100
AcDbEntity
8
1
62
256
6
ByLayer
370
18
48
1
60
1
100
AcDbLine
10
9.391327
20
-6.499998
30
0
11
8.469759
21
-6.500002
31
0
39
0
210
0
220
0
230
1
0
LINE
5
201
100
AcDbEntity
8
1
62
256
6
ByLayer
370
18
48
1
60
1
100
AcDbLine
10
8.469759
20
-6.500002
30
0
11
8.930543
21
-3
31
0
39
0
210
0
220
0
230
1
0
LINE
5
204
100
AcDbEntity
8
1
62
256
6
ByLayer
370
18
48
1
60
1
100
AcDbLine
10
-23
20
-40.051245
30
0
11
-19.500002
21
-39.590461
31
0
39
0
210
0
220
0
230
1
0
LINE
5
205
100
AcDbEntity
8
1
62
256
6
ByLayer
370
18
48
1
60
1
100
AcDbLine
10
-19.500002
20
-39.590461
30
0
11
-19.499998
21
-40.512029
31
0
39
0
210
0
220
0
230
1
0
LINE
5
206
100
AcDbEntity
8
1
62
256
6
ByLayer
370
18
48
1
60
1
100
AcDbLine
10
-19.499998
20
-40.512029
30
0
11
-23
21
-40.051245
31
0
39
0
210
0
220
0
230
1
0
LINE
5
208
100
AcDbEntity
8
1
62
256
6
ByLayer
370
18
48
1
60
1
100
AcDbLine
10
47
20
-40.051245
30
0
11
43.500002
21
-40.512029
31
0
39
0
210
0
220
0
230
1
0
LINE
5
209
100
AcDbEntity
8
1
62
256
6
ByLayer
370
18
48
1
60
1
100
AcDbLine
10
43.500002
20
-40.512029
30
0
11
43.499998
21
-39.590461
31
0
39
0
210
0
220
0
230
1
0
LINE
5
20A
100
AcDbEntity
8
1
62
256
6
ByLayer
370
18
48
1
60
1
100
AcDbLine
10
43.499998
20
-39.590461
30
0
11
47
21
-40.051245
31
0
39
0
210
0
220
0
230
1
0
MTEXT
5
1F7
100
AcDbEntity
8
SK2
62
256
6
ByLayer
370
18
48
1
60
0
100
AcDbMText
10
7.589429
20
8.658437
30
0
210
0
220
0
230
1
1
%%c
40
3
41
0
44
1.084337
50
90
71
7
72
5
7
iso_b_vert
0
MTEXT
5
1FA
100
AcDbEntity
8
SK2
62
256
6
ByLayer
370
18
48
1
60
0
100
AcDbMText
10
7.589429
20
14.635
30
0
210
0
220
0
230
1
1
\W0.5404;6
40
3
41
0
44
1.084337
50
90
71
7
72
5
7
iso_b_vert
0
MTEXT
5
203
100
AcDbEntity
8
2
62
256
6
ByLayer
370
18
48
1
60
0
100
AcDbMText
10
10.367172
20
-39.166131
30
0
210
0
220
0
230
1
1
\W0.6740;70
40
3
41
0
44
1.084337
50
0
71
7
72
5
7
iso_b_vert
0
MTEXT
5
20C
100
AcDbEntity
8
SK6
62
256
6
ByLayer
370
18
48
1
60
0
100
AcDbMText
10
-6.672701
20
-82.114886
30
0
210
0
220
0
230
1
1
\W0.7281;T300-XM100DA-M5     C110
40
3
41
0
44
1.084337
50
0
71
7
72
5
7
iso_b_vert
0
HATCH
5
1FE
100
AcDbEntity
8
SK2
62
256
6
ByLayer
370
13
48
1
60
0
100
AcDbHatch
10
0
20
0
30
0
210
0
220
0
230
1
2
ANSI31
70
0
71
0
91
1
92
5
93
3
72
1
10
8.93054303400569
20
3.00000000000003
11
8.46975929245292
21
6.49999830744684
72
1
10
8.46975929245292
20
6.49999830744684
11
9.39132677555847
21
6.50000169255321
72
1
10
9.39132677555847
20
6.50000169255321
11
8.93054303400569
21
3.00000000000003
97
0
75
0
76
1
52
0
41
0.0062
77
0
78
1
53
45
43
0
44
0
45
-0.0139193969876572
46
0.0139193969876572
79
0
47
0
98
1
10
0
20
0
0
HATCH
5
202
100
AcDbEntity
8
SK2
62
256
6
ByLayer
370
13
48
1
60
0
100
AcDbHatch
10
0
20
0
30
0
210
0
220
0
230
1
2
ANSI31
70
0
71
0
91
1
92
5
93
3
72
1
10
8.93054303400569
20
-2.99999999999997
11
9.39132677555847
21
-6.49999830744679
72
1
10
9.39132677555847
20
-6.49999830744679
11
8.46975929245292
21
-6.50000169255316
72
1
10
8.46975929245292
20
-6.50000169255316
11
8.93054303400569
21
-2.99999999999997
97
0
75
0
76
1
52
0
41
0.0062
77
0
78
1
53
45
43
0
44
0
45
-0.0139193969876572
46
0.0139193969876572
79
0
47
0
98
1
10
0
20
0
0
HATCH
5
207
100
AcDbEntity
8
2
62
256
6
ByLayer
370
13
48
1
60
0
100
AcDbHatch
10
0
20
0
30
0
210
0
220
0
230
1
2
ANSI31
70
0
71
0
91
1
92
5
93
3
72
1
10
-23
20
-40.0512449854632
11
-19.5000016925532
21
-39.5904612439104
72
1
10
-19.5000016925532
20
-39.5904612439104
11
-19.4999983074468
21
-40.512028727016
72
1
10
-19.4999983074468
20
-40.512028727016
11
-23
21
-40.0512449854632
97
0
75
0
76
1
52
0
41
0.0062
77
0
78
1
53
45
43
0
44
0
45
-0.0139193969876572
46
0.0139193969876572
79
0
47
0
98
1
10
0
20
0
0
HATCH
5
20B
100
AcDbEntity
8
2
62
256
6
ByLayer
370
13
48
1
60
0
100
AcDbHatch
10
0
20
0
30
0
210
0
220
0
230
1
2
ANSI31
70
0
71
0
91
1
92
5
93
3
72
1
10
47
20
-40.0512449854632
11
43.5000016925532
21
-40.512028727016
72
1
10
43.5000016925532
20
-40.512028727016
11
43.4999983074468
21
-39.5904612439104
72
1
10
43.4999983074468
20
-39.5904612439104
11
47
21
-40.0512449854632
97
0
75
0
76
1
52
0
41
0.0062
77
0
78
1
53
45
43
0
44
0
45
-0.0139193969876572
46
0.0139193969876572
79
0
47
0
98
1
10
0
20
0
0
DIMENSION
5
20F
100
AcDbEntity
8
2
62
256
6
ByLayer
370
18
48
1
60
0
100
AcDbDimension
2
_U0
10
65.653755
20
-2.551245
30
0
11
65.653755
21
20.051245
31
0
70
32
71
1
72
1
41
1
210
0
220
0
230
1
3
Standard
100
AcDbAlignedDimension
13
47
23
2.551245
33
0
14
47
24
-2.551245
34
0
50
90
100
AcDbRotatedDimension
1001
ACAD
1000
DSTYLE
1002
{
1070
   371
1070
    13
1070
   372
1070
    13
1070
     3
1000

1070
   170
1070
     0
1070
   144
1040
1.0
1070
   277
1070
     2
1070
   284
1070
     8
1070
   278
1070
    46
1070
   146
1040
1.166667
1070
   345
1005
16
1070
   347
1005
16
1070
   346
1005
16
1070
   344
1005
0
1070
   343
1005
0
1070
   172
1070
     1
1070
    76
1070
     0
1070
    75
1070
     0
1070
   282
1070
     0
1070
   281
1070
     0
1070
    71
1070
     0
1070
    74
1070
     0
1070
   279
1070
     0
1070
   173
1070
     1
1070
   340
1005
1F8
1070
   271
1070
     3
1070
   272
1070
     3
1070
    77
1070
     1
1070
    73
1070
     0
1070
   171
1070
     3
1070
   274
1070
     4
1070
   177
1070
     2
1070
   176
1070
     2
1070
   178
1070
     2
1070
    78
1070
     8
1070
    48
1040
-0.1
1070
    41
1040
3.5
1070
   147
1040
1.5
1070
    42
1040
1.5875
1070
    44
1040
2.0
1070
   140
1040
3.0
1002
}
1001
ACAD_DSTYLE_DIM_LINETYPE
1070
   380
1005
16
1001
ACAD_DSTYLE_DIM_EXT1_LINETYPE
1070
   381
1005
16
1001
ACAD_DSTYLE_DIM_EXT2_LINETYPE
1070
   382
1005
16
0
DIMENSION
5
22A
100
AcDbEntity
8
SK2
62
256
6
ByLayer
370
18
48
1
60
0
100
AcDbDimension
2
_U1
10
44.8
20
11.85
30
0
11
45.9
21
11.85
31
0
70
32
71
1
72
1
41
1
210
0
220
0
230
1
3
Standard
100
AcDbAlignedDimension
13
47
23
2.551245
33
0
14
44.8
24
0
34
0
50
0
100
AcDbRotatedDimension
1001
ACAD
1000
DSTYLE
1002
{
1070
   371
1070
    13
1070
   372
1070
    13
1070
   170
1070
     0
1070
   144
1040
1.0
1070
   277
1070
     2
1070
   284
1070
     8
1070
   278
1070
    46
1070
   146
1040
1.166667
1070
   345
1005
16
1070
   347
1005
16
1070
   346
1005
16
1070
   344
1005
0
1070
   343
1005
0
1070
   172
1070
     1
1070
    76
1070
     0
1070
    75
1070
     0
1070
   282
1070
     0
1070
   281
1070
     0
1070
    71
1070
     0
1070
    74
1070
     0
1070
   279
1070
     0
1070
   173
1070
     1
1070
   340
1005
1F8
1070
   271
1070
     3
1070
   272
1070
     3
1070
    77
1070
     1
1070
    73
1070
     1
1070
   171
1070
     3
1070
   274
1070
     4
1070
   177
1070
     2
1070
   176
1070
     2
1070
   178
1070
     2
1070
    78
1070
     8
1070
    48
1040
-0.1
1070
    41
1040
3.5
1070
   147
1040
1.5
1070
    42
1040
1.5875
1070
    44
1040
2.0
1070
   140
1040
3.0
1002
}
1001
ACAD_DSTYLE_DIM_LINETYPE
1070
   380
1005
16
1001
ACAD_DSTYLE_DIM_EXT1_LINETYPE
1070
   381
1005
16
1001
ACAD_DSTYLE_DIM_EXT2_LINETYPE
1070
   382
1005
16
0
DIMENSION
5
244
100
AcDbEntity
8
SK2
62
256
6
ByLayer
370
18
48
1
60
0
100
AcDbDimension
2
_U2
10
39
20
-9.551245
30
0
11
59.5
21
-9.551245
31
0
70
32
71
1
72
1
41
1
210
0
220
0
230
1
3
Standard
100
AcDbAlignedDimension
13
47
23
-2.551245
33
0
14
39
24
-2.551245
34
0
50
0
100
AcDbRotatedDimension
1001
ACAD
1000
DSTYLE
1002
{
1070
   371
1070
    13
1070
   372
1070
    13
1070
   170
1070
     0
1070
   144
1040
1.0
1070
   277
1070
     2
1070
   284
1070
     8
1070
   278
1070
    46
1070
   146
1040
0.833333
1070
   345
1005
16
1070
   347
1005
16
1070
   346
1005
16
1070
   344
1005
0
1070
   343
1005
0
1070
   172
1070
     1
1070
    76
1070
     0
1070
    75
1070
     0
1070
   282
1070
     0
1070
   281
1070
     0
1070
    47
1040
0.5
1070
    72
1070
     0
1070
    71
1070
     1
1070
    74
1070
     0
1070
   279
1070
     0
1070
   173
1070
     1
1070
   340
1005
1F8
1070
   271
1070
     1
1070
   272
1070
     3
1070
    77
1070
     1
1070
    73
1070
     1
1070
   171
1070
     3
1070
   274
1070
     4
1070
   177
1070
     2
1070
   176
1070
     2
1070
   178
1070
     2
1070
    78
1070
     8
1070
    48
1040
0.5
1070
    41
1040
3.5
1070
   147
1040
1.5
1070
    42
1040
1.5875
1070
    44
1040
2.0
1070
   140
1040
3.0
1002
}
1001
ACAD_DSTYLE_DIM_LINETYPE
1070
   380
1005
16
1001
ACAD_DSTYLE_DIM_EXT1_LINETYPE
1070
   381
1005
16
1001
ACAD_DSTYLE_DIM_EXT2_LINETYPE
1070
   382
1005
16
0
DIMENSION
5
25F
100
AcDbEntity
8
SK2
62
256
6
ByLayer
370
18
48
1
60
0
100
AcDbDimension
2
_U3
10
22
20
-32.051245
30
0
11
34.5
21
-32.051245
31
0
70
32
71
1
72
1
41
1
210
0
220
0
230
1
3
Standard
100
AcDbAlignedDimension
13
47
23
-2.551245
33
0
14
22
24
-1.93165
34
0
50
0
100
AcDbRotatedDimension
1001
ACAD
1000
DSTYLE
1002
{
1070
   371
1070
    13
1070
   372
1070
    13
1070
   170
1070
     0
1070
   144
1040
1.0
1070
   277
1070
     2
1070
   284
1070
     8
1070
   278
1070
    46
1070
   146
1040
1.166667
1070
   345
1005
16
1070
   347
1005
16
1070
   346
1005
16
1070
   344
1005
0
1070
   343
1005
0
1070
   172
1070
     1
1070
    76
1070
     0
1070
    75
1070
     0
1070
   282
1070
     0
1070
   281
1070
     0
1070
    71
1070
     0
1070
    74
1070
     0
1070
   279
1070
     0
1070
   173
1070
     1
1070
   340
1005
1F8
1070
   271
1070
     1
1070
   272
1070
     3
1070
    77
1070
     1
1070
    73
1070
     1
1070
   171
1070
     3
1070
   274
1070
     4
1070
   177
1070
     2
1070
   176
1070
     2
1070
   178
1070
     2
1070
    78
1070
     8
1070
    48
1040
-0.1
1070
    41
1040
3.5
1070
   147
1040
1.5
1070
    42
1040
1.5875
1070
    44
1040
2.0
1070
   140
1040
3.0
1002
}
1001
ACAD_DSTYLE_DIM_LINETYPE
1070
   380
1005
16
1001
ACAD_DSTYLE_DIM_EXT1_LINETYPE
1070
   381
1005
16
1001
ACAD_DSTYLE_DIM_EXT2_LINETYPE
1070
   382
1005
16
0
DIMENSION
5
277
100
AcDbEntity
8
2
62
256
6
ByLayer
370
18
48
1
60
0
100
AcDbDimension
2
_U4
10
25.75
20
-21.051245
30
0
11
36.375
21
-21.051245
31
0
70
32
71
1
72
1
41
1
210
0
220
0
230
1
3
Standard
100
AcDbAlignedDimension
13
47
23
-2.551245
33
0
14
25.75
24
0
34
0
50
0
100
AcDbRotatedDimension
1001
ACAD
1000
DSTYLE
1002
{
1070
   371
1070
    13
1070
   372
1070
    13
1070
   170
1070
     0
1070
   144
1040
1.0
1070
   277
1070
     2
1070
   284
1070
     8
1070
   278
1070
    46
1070
   146
1040
1.166667
1070
   345
1005
16
1070
   347
1005
16
1070
   346
1005
16
1070
   344
1005
0
1070
   343
1005
0
1070
   172
1070
     1
1070
    76
1070
     0
1070
    75
1070
     0
1070
   282
1070
     0
1070
   281
1070
     0
1070
    71
1070
     0
1070
    74
1070
     0
1070
   279
1070
     0
1070
   173
1070
     1
1070
   340
1005
1F8
1070
   271
1070
     1
1070
   272
1070
     3
1070
    77
1070
     1
1070
    73
1070
     1
1070
   171
1070
     3
1070
   274
1070
     4
1070
   177
1070
     2
1070
   176
1070
     2
1070
   178
1070
     2
1070
    78
1070
     8
1070
    48
1040
-0.1
1070
    41
1040
3.5
1070
   147
1040
1.5
1070
    42
1040
1.5875
1070
    44
1040
2.0
1070
   140
1040
3.0
1002
}
1001
ACAD_DSTYLE_DIM_LINETYPE
1070
   380
1005
16
1001
ACAD_DSTYLE_DIM_EXT1_LINETYPE
1070
   381
1005
16
1001
ACAD_DSTYLE_DIM_EXT2_LINETYPE
1070
   382
1005
16
0
ENDSEC
0
SECTION
2
OBJECTS
0
DICTIONARY
5
2ff
330
0
100
AcDbDictionary
280
0
281
1
3
ACAD_GROUP
350
300
3
ACAD_MLINESTYLE
350
301
0
DICTIONARY
5
300
330
0
100
AcDbDictionary
280
0
281
1
0
DICTIONARY
5
301
330
0
100
AcDbDictionary
280
0
281
1
3
Standard
350
18
0
MLINESTYLE
5
18
330
301
100
AcDbMlineStyle
2
Standard
70
0
3

62
256
51
90
52
90
71
2
49
-0.5
62
256
6
ByLayer
49
0.5
62
256
6
ByLayer
0
RASTERVARIABLES
5
2ed
330

100
AcDbRasterVariables
90
0
70
1
71
1
72
1
0
ENDSEC
0
EOF
