0
SECTION
2
HEADER
9
$ACADVER
1
AC1015
9
$DWGCODEPAGE
3
ANSI_1252
9
$HANDSEED
5
2c7
9
$ANGBASE
50
0
9
$ANGDIR
70
0
9
$ATTMODE
70
1
9
$AUNITS
70
0
9
$AUPREC
70
0
9
$CECOLOR
62
256
9
$CELTSCALE
40
1
9
$CELTYPE
6
ByLayer
9
$CELWEIGHT
370
18
9
$CLAYER
8
0
9
$CMLJUST
70
0
9
$CMLSCALE
40
1
9
$CMLSTYLE
2
Standard
9
$DIMSTYLE
2
Standard
9
$TEXTSIZE
40
0.2
9
$TEXTSTYLE
7
Standard
9
$LUNITS
70
2
9
$LUPREC
70
4
9
$EXTNAMES
290
1
9
$INSUNITS
70
4
9
$LTSCALE
40
1
9
$LWDISPLAY
290
1
9
$PDMODE
70
0
9
$PDSIZE
40
0
9
$PLINEGEN
70
0
0
ENDSEC
0
SECTION
2
CLASSES
0
CLASS
1
RASTERVARIABLES
2
AcDbRasterVariables
3
ISM
90
0
280
0
281
0
0
ENDSEC
0
SECTION
2
TABLES
0
TABLE
2
VPORT
5
2bd
100
AcDbSymbolTable
0
VPORT
5
1
100
AcDbSymbolTableRecord
100
AcDbViewportTableRecord
2
*Active
70
0
10
0
20
0
11
1
21
1
12
-1
22
1
13
0
23
0
14
0.5
24
0.5
15
10
25
10
16
0
26
0
36
1
17
0
27
0
37
0
0
ENDTAB
0
TABLE
2
LTYPE
5
2be
100
AcDbSymbolTable
0
LTYPE
5
14
100
AcDbSymbolTableRecord
100
AcDbLinetypeTableRecord
70
0
2
ByBlock
3

72
65
73
0
40
0
0
LTYPE
5
15
100
AcDbSymbolTableRecord
100
AcDbLinetypeTableRecord
70
0
2
ByLayer
3

72
65
73
0
40
0
0
LTYPE
5
16
100
AcDbSymbolTableRecord
100
AcDbLinetypeTableRecord
70
0
2
Continuous
3
Solid line
72
65
73
0
40
0
0
LTYPE
5
6E
100
AcDbSymbolTableRecord
100
AcDbLinetypeTableRecord
70
0
2
CENTER
3
____ _ ____ _ ____ _ ____
72
65
73
4
40
47.5
49
22
74
0
49
-8.5
74
0
49
8.5
74
0
49
-8.5
74
0
0
LTYPE
5
6F
100
AcDbSymbolTableRecord
100
AcDbLinetypeTableRecord
70
0
2
DASHED
3
__ __ __ __ __ __ __ __ __
72
65
73
2
40
25.72
49
12.86
74
0
49
-12.86
74
0
0
ENDTAB
0
TABLE
2
LAYER
5
2bf
100
AcDbSymbolTable
0
LAYER
5
10
100
AcDbSymbolTableRecord
100
AcDbLayerTableRecord
2
0
70
0
62
7
6
Continuous
290
1
370
-3
390
0
0
LAYER
5
71
100
AcDbSymbolTableRecord
100
AcDbLayerTableRecord
2
80
70
0
62
-6
6
Continuous
290
1
370
-3
390
0
0
LAYER
5
73
100
AcDbSymbolTableRecord
100
AcDbLayerTableRecord
2
81
70
0
62
-3
6
Continuous
290
1
370
-3
390
0
0
LAYER
5
75
100
AcDbSymbolTableRecord
100
AcDbLayerTableRecord
2
1
70
0
62
4
6
Continuous
290
1
370
-3
390
0
0
LAYER
5
81
100
AcDbSymbolTableRecord
100
AcDbLayerTableRecord
2
4
70
0
62
-2
6
CENTER
290
1
370
-3
390
0
0
LAYER
5
C1
100
AcDbSymbolTableRecord
100
AcDbLayerTableRecord
2
2
70
0
62
7
6
Continuous
290
1
370
-3
390
0
0
LAYER
5
1CD
100
AcDbSymbolTableRecord
100
AcDbLayerTableRecord
2
Defpoints
70
0
62
7
6
Continuous
290
0
370
-3
390
0
0
LAYER
5
2a9
100
AcDbSymbolTableRecord
100
AcDbLayerTableRecord
2
SK4
70
0
62
2
6
CENTER
290
1
370
-3
390
0
0
LAYER
5
2aa
100
AcDbSymbolTableRecord
100
AcDbLayerTableRecord
2
SK1
70
0
62
4
6
Continuous
290
1
370
-3
390
0
0
LAYER
5
2ab
100
AcDbSymbolTableRecord
100
AcDbLayerTableRecord
2
SK2
70
0
62
7
6
Continuous
290
1
370
-3
390
0
0
LAYER
5
2ac
100
AcDbSymbolTableRecord
100
AcDbLayerTableRecord
2
SK6
70
0
62
5
6
Continuous
290
1
370
-3
390
0
0
ENDTAB
0
TABLE
2
STYLE
5
2c0
100
AcDbSymbolTable
0
STYLE
5
11
100
AcDbSymbolTableRecord
100
AcDbTextStyleTableRecord
2
Standard
3
txt
70
0
71
0
40
0
41
1
42
0
50
0
0
STYLE
5
1B3
100
AcDbSymbolTableRecord
100
AcDbTextStyleTableRecord
2
iso_b_vert
3
simplex.shx
70
0
71
0
40
0
41
1
42
0
50
0
0
STYLE
5
1B4
100
AcDbSymbolTableRecord
100
AcDbTextStyleTableRecord
2
DWGDirectTextStyle
3
simplex
70
0
71
0
40
0
41
1
42
0
50
0
0
ENDTAB
0
TABLE
2
DIMSTYLE
5
2c1
100
AcDbSymbolTable
100
AcDbDimStyleTable
0
DIMSTYLE
105
27
100
AcDbSymbolTableRecord
100
AcDbDimStyleTableRecord
2
Standard
70
0
3
<>
41
0.18
42
0.0625
44
0.18
140
0.18
147
0.09
73
0
74
0
77
1
271
2
275
0
278
52
280
0
340
11
0
ENDTAB
0
TABLE
2
VIEW
5
2c2
100
AcDbSymbolTable
0
ENDTAB
0
TABLE
2
UCS
5
2c3
100
AcDbSymbolTable
0
ENDTAB
0
TABLE
2
APPID
5
2c4
100
AcDbSymbolTable
0
APPID
5
12
100
AcDbSymbolTableRecord
100
AcDbRegAppTableRecord
2
ACAD
70
0
0
APPID
5
1C9
100
AcDbSymbolTableRecord
100
AcDbRegAppTableRecord
2
ACAD_DSTYLE_DIMBREAK
70
0
0
APPID
5
268
100
AcDbSymbolTableRecord
100
AcDbRegAppTableRecord
2
ACAD_DSTYLE_DIM_LINETYPE
70
0
0
APPID
5
269
100
AcDbSymbolTableRecord
100
AcDbRegAppTableRecord
2
ACAD_DSTYLE_DIM_EXT1_LINETYPE
70
0
0
APPID
5
26A
100
AcDbSymbolTableRecord
100
AcDbRegAppTableRecord
2
ACAD_DSTYLE_DIM_EXT2_LINETYPE
70
0
0
APPID
5
2A5
100
AcDbSymbolTableRecord
100
AcDbRegAppTableRecord
2
ACAD_MLEADERVER
70
0
0
ENDTAB
0
TABLE
2
BLOCK_RECORD
5
2c5
100
AcDbSymbolTable
0
BLOCK_RECORD
5
1F
100
AcDbSymbolTableRecord
100
AcDbBlockTableRecord
2
*Model_Space
340
0
70
0
0
BLOCK_RECORD
5
1B
100
AcDbSymbolTableRecord
100
AcDbBlockTableRecord
2
*Paper_Space
340
0
70
0
0
BLOCK_RECORD
5
23
100
AcDbSymbolTableRecord
100
AcDbBlockTableRecord
2
*Paper_Space0
340
0
70
0
0
BLOCK_RECORD
5
1CE
100
AcDbSymbolTableRecord
100
AcDbBlockTableRecord
2
*D1
340
0
70
0
0
BLOCK_RECORD
5
1DC
100
AcDbSymbolTableRecord
100
AcDbBlockTableRecord
2
_U0
340
0
70
0
0
BLOCK_RECORD
5
1E8
100
AcDbSymbolTableRecord
100
AcDbBlockTableRecord
2
*D3
340
0
70
0
0
BLOCK_RECORD
5
1F5
100
AcDbSymbolTableRecord
100
AcDbBlockTableRecord
2
_U1
340
0
70
0
0
BLOCK_RECORD
5
202
100
AcDbSymbolTableRecord
100
AcDbBlockTableRecord
2
*D5
340
0
70
0
0
BLOCK_RECORD
5
210
100
AcDbSymbolTableRecord
100
AcDbBlockTableRecord
2
_U2
340
0
70
0
0
BLOCK_RECORD
5
21D
100
AcDbSymbolTableRecord
100
AcDbBlockTableRecord
2
*D7
340
0
70
0
0
BLOCK_RECORD
5
229
100
AcDbSymbolTableRecord
100
AcDbBlockTableRecord
2
_U3
340
0
70
0
0
BLOCK_RECORD
5
235
100
AcDbSymbolTableRecord
100
AcDbBlockTableRecord
2
*D9
340
0
70
0
0
BLOCK_RECORD
5
241
100
AcDbSymbolTableRecord
100
AcDbBlockTableRecord
2
_U4
340
0
70
0
0
ENDTAB
0
ENDSEC
0
SECTION
2
BLOCKS
0
BLOCK
5
20
100
AcDbEntity
8
0
100
AcDbBlockBegin
2
*Model_Space
70
0
10
0
20
0
30
0
3
*Model_Space
0
ENDBLK
5
21
100
AcDbEntity
8
0
100
AcDbBlockEnd
0
BLOCK
5
1C
100
AcDbEntity
8
0
100
AcDbBlockBegin
2
*Paper_Space
70
0
10
0
20
0
30
0
3
*Paper_Space
0
ENDBLK
5
1D
100
AcDbEntity
8
0
100
AcDbBlockEnd
0
BLOCK
5
24
100
AcDbEntity
8
0
100
AcDbBlockBegin
2
*Paper_Space0
70
0
10
0
20
0
30
0
3
*Paper_Space0
0
ENDBLK
5
25
100
AcDbEntity
8
0
100
AcDbBlockEnd
0
BLOCK
5
1CF
100
AcDbEntity
8
0
100
AcDbBlockBegin
2
*D1
70
1
10
0
20
0
30
0
3
*D1
0
LINE
5
1D1
100
AcDbEntity
8
0
62
256
6
ByLayer
370
-2
48
1
60
0
100
AcDbLine
10
43.5875
20
2.047508
30
0
11
62.712492
21
2.047508
31
0
39
0
210
0
220
0
230
1
0
LINE
5
1D2
100
AcDbEntity
8
0
62
256
6
ByLayer
370
-2
48
1
60
0
100
AcDbLine
10
43.5875
20
-2.047508
30
0
11
62.712492
21
-2.047508
31
0
39
0
210
0
220
0
230
1
0
LINE
5
1D3
100
AcDbEntity
8
0
62
256
6
ByLayer
370
-2
48
1
60
0
100
AcDbLine
10
60.712492
20
2.047508
30
0
11
60.712492
21
30.047508
31
0
39
0
210
0
220
0
230
1
0
LINE
5
1D4
100
AcDbEntity
8
0
62
256
6
ByLayer
370
-2
48
1
60
0
100
AcDbLine
10
60.712492
20
5.547508
30
0
11
60.712492
21
9.047508
31
0
39
0
210
0
220
0
230
1
0
LINE
5
1D5
100
AcDbEntity
8
0
62
256
6
ByLayer
370
-2
48
1
60
0
100
AcDbLine
10
60.712492
20
-5.547508
30
0
11
60.712492
21
-9.047508
31
0
39
0
210
0
220
0
230
1
0
SOLID
5
1D6
100
AcDbEntity
8
0
62
256
6
ByLayer
370
-1
48
1
60
0
100
AcDbTrace
10
60.129159
20
5.547508
30
0
11
61.295826
21
5.547508
31
0
12
60.712492
22
2.047508
32
0
13
60.712492
23
2.047508
33
0
39
0
210
0
220
0
230
1
0
SOLID
5
1D7
100
AcDbEntity
8
0
62
256
6
ByLayer
370
-1
48
1
60
0
100
AcDbTrace
10
61.295826
20
-5.547508
30
0
11
60.129159
21
-5.547508
31
0
12
60.712492
22
-2.047508
32
0
13
60.712492
23
-2.047508
33
0
39
0
210
0
220
0
230
1
0
MTEXT
5
1D8
100
AcDbEntity
8
0
62
256
6
ByLayer
370
18
48
1
60
0
100
AcDbMText
10
54.712492
20
19.547508
30
0
210
0
220
0
230
1
1
\A1;4.095
40
3
41
0
44
1
50
90
71
5
72
5
7
iso_b_vert
0
POINT
5
1D9
100
AcDbEntity
8
Defpoints
62
0
6
ByLayer
370
-1
48
1
60
0
100
AcDbPoint
10
42
20
2.047508
30
0
39
0
210
0
220
0
230
1
50
360
0
POINT
5
1DA
100
AcDbEntity
8
Defpoints
62
0
6
ByLayer
370
-1
48
1
60
0
100
AcDbPoint
10
42
20
-2.047508
30
0
39
0
210
0
220
0
230
1
50
360
0
POINT
5
1DB
100
AcDbEntity
8
Defpoints
62
0
6
ByLayer
370
-1
48
1
60
0
100
AcDbPoint
10
60.712492
20
-2.047508
30
0
39
0
210
0
220
0
230
1
50
360
0
ENDBLK
5
1D0
100
AcDbEntity
8
0
100
AcDbBlockEnd
0
BLOCK
5
1E3
100
AcDbEntity
8
0
100
AcDbBlockBegin
2
_U0
70
0
10
0
20
0
30
0
3
_U0
0
MTEXT
5
1DD
100
AcDbEntity
8
2
62
256
6
ByLayer
370
18
48
1
60
0
100
AcDbMText
10
60.121378
20
12.182508
30
0
210
0
220
0
230
1
1
\W0.7578;M4
40
3
41
0
44
1.084337
50
90
71
7
72
5
7
iso_b_vert
0
LINE
5
1DE
100
AcDbEntity
8
2
62
256
6
ByLayer
370
13
48
1
60
0
100
AcDbLine
10
43.5875
20
2.047508
30
0
11
62.712492
21
2.047508
31
0
39
0
210
0
220
0
230
1
0
LINE
5
1DF
100
AcDbEntity
8
2
62
256
6
ByLayer
370
13
48
1
60
0
100
AcDbLine
10
43.5875
20
-2.047508
30
0
11
62.712492
21
-2.047508
31
0
39
0
210
0
220
0
230
1
0
LINE
5
1E0
100
AcDbEntity
8
2
62
256
6
ByLayer
370
13
48
1
60
0
100
AcDbLine
10
60.712492
20
-9.547508
30
0
11
60.712492
21
16.618193
31
0
39
0
210
0
220
0
230
1
0
SOLID
5
1E1
100
AcDbEntity
8
2
62
256
6
ByLayer
370
18
48
1
60
0
100
AcDbTrace
10
60.712492
20
2.047508
30
0
11
60.251709
21
5.547506
31
0
12
61.173276
22
5.547509
32
0
13
61.173276
23
5.547509
33
0
39
0
210
0
220
0
230
1
0
SOLID
5
1E2
100
AcDbEntity
8
2
62
256
6
ByLayer
370
18
48
1
60
0
100
AcDbTrace
10
60.712492
20
-2.047508
30
0
11
61.173276
21
-5.547506
31
0
12
60.251709
22
-5.547509
32
0
13
60.251709
23
-5.547509
33
0
39
0
210
0
220
0
230
1
0
ENDBLK
5
1E4
100
AcDbEntity
8
0
100
AcDbBlockEnd
0
BLOCK
5
1E9
100
AcDbEntity
8
0
100
AcDbBlockBegin
2
*D3
70
1
10
0
20
0
30
0
3
*D3
0
LINE
5
1EB
100
AcDbEntity
8
0
62
256
6
ByLayer
370
-2
48
1
60
0
100
AcDbLine
10
42
20
3.635008
30
0
11
42
21
13.145616
31
0
39
0
210
0
220
0
230
1
0
LINE
5
1EC
100
AcDbEntity
8
0
62
256
6
ByLayer
370
-2
48
1
60
0
100
AcDbLine
10
40.08
20
1.5875
30
0
11
40.08
21
13.145616
31
0
39
0
210
0
220
0
230
1
0
LINE
5
1ED
100
AcDbEntity
8
0
62
256
6
ByLayer
370
-2
48
1
60
0
100
AcDbLine
10
45.5
20
11.145616
30
0
11
49
21
11.145616
31
0
39
0
210
0
220
0
230
1
0
LINE
5
1EE
100
AcDbEntity
8
0
62
256
6
ByLayer
370
-2
48
1
60
0
100
AcDbLine
10
36.58
20
11.145616
30
0
11
33.08
21
11.145616
31
0
39
0
210
0
220
0
230
1
0
SOLID
5
1EF
100
AcDbEntity
8
0
62
256
6
ByLayer
370
-1
48
1
60
0
100
AcDbTrace
10
45.5
20
11.728949
30
0
11
45.5
21
10.562283
31
0
12
42
22
11.145616
32
0
13
42
23
11.145616
33
0
39
0
210
0
220
0
230
1
0
SOLID
5
1F0
100
AcDbEntity
8
0
62
256
6
ByLayer
370
-1
48
1
60
0
100
AcDbTrace
10
36.58
20
10.562283
30
0
11
36.58
21
11.728949
31
0
12
40.08
22
11.145616
32
0
13
40.08
23
11.145616
33
0
39
0
210
0
220
0
230
1
0
MTEXT
5
1F1
100
AcDbEntity
8
0
62
256
6
ByLayer
370
18
48
1
60
0
100
AcDbMText
10
41.04
20
17.145616
30
0
210
0
220
0
230
1
1
\A1;1.92
40
3
41
0
44
1
50
0
71
5
72
5
7
iso_b_vert
0
POINT
5
1F2
100
AcDbEntity
8
Defpoints
62
0
6
ByLayer
370
-1
48
1
60
0
100
AcDbPoint
10
42
20
2.047508
30
0
39
0
210
0
220
0
230
1
50
360
0
POINT
5
1F3
100
AcDbEntity
8
Defpoints
62
0
6
ByLayer
370
-1
48
1
60
0
100
AcDbPoint
10
40.08
20
0
30
0
39
0
210
0
220
0
230
1
50
360
0
POINT
5
1F4
100
AcDbEntity
8
Defpoints
62
0
6
ByLayer
370
-1
48
1
60
0
100
AcDbPoint
10
40.08
20
11.145616
30
0
39
0
210
0
220
0
230
1
50
360
0
ENDBLK
5
1EA
100
AcDbEntity
8
0
100
AcDbBlockEnd
0
BLOCK
5
1FD
100
AcDbEntity
8
0
100
AcDbBlockBegin
2
_U1
70
0
10
0
20
0
30
0
3
_U1
0
MTEXT
5
1F6
100
AcDbEntity
8
SK2
62
256
6
ByLayer
370
18
48
1
60
0
100
AcDbMText
10
38.079986
20
11.92825
30
0
210
0
220
0
230
1
1
\W0.6474;'C'
40
3.5
41
0
44
1.084337
50
0
71
7
72
5
7
iso_b_vert
0
MTEXT
5
1F7
100
AcDbEntity
8
SK2
62
256
6
ByLayer
370
18
48
1
60
0
100
AcDbMText
10
38.053486
20
19.030731
30
0
210
0
220
0
230
1
1
\W0.6563;1.92
40
3
41
0
44
1.084337
50
0
71
7
72
5
7
iso_b_vert
0
LINE
5
1F8
100
AcDbEntity
8
SK2
62
256
6
ByLayer
370
13
48
1
60
0
100
AcDbLine
10
42
20
3.635008
30
0
11
42
21
13.145616
31
0
39
0
210
0
220
0
230
1
0
LINE
5
1F9
100
AcDbEntity
8
SK2
62
256
6
ByLayer
370
13
48
1
60
0
100
AcDbLine
10
40.08
20
1.5875
30
0
11
40.08
21
13.145616
31
0
39
0
210
0
220
0
230
1
0
LINE
5
1FA
100
AcDbEntity
8
SK2
62
256
6
ByLayer
370
13
48
1
60
0
100
AcDbLine
10
49.5
20
11.145616
30
0
11
32.58
21
11.145616
31
0
39
0
210
0
220
0
230
1
0
SOLID
5
1FB
100
AcDbEntity
8
SK2
62
256
6
ByLayer
370
18
48
1
60
0
100
AcDbTrace
10
42
20
11.145616
30
0
11
45.499998
21
11.6064
31
0
12
45.500002
22
10.684832
32
0
13
45.500002
23
10.684832
33
0
39
0
210
0
220
0
230
1
0
SOLID
5
1FC
100
AcDbEntity
8
SK2
62
256
6
ByLayer
370
18
48
1
60
0
100
AcDbTrace
10
40.08
20
11.145616
30
0
11
36.580002
21
10.684832
31
0
12
36.579998
22
11.6064
32
0
13
36.579998
23
11.6064
33
0
39
0
210
0
220
0
230
1
0
ENDBLK
5
1FE
100
AcDbEntity
8
0
100
AcDbBlockEnd
0
BLOCK
5
203
100
AcDbEntity
8
0
100
AcDbBlockBegin
2
*D5
70
1
10
0
20
0
30
0
3
*D5
0
LINE
5
205
100
AcDbEntity
8
0
62
256
6
ByLayer
370
-2
48
1
60
0
100
AcDbLine
10
42
20
-3.635008
30
0
11
42
21
-11.047508
31
0
39
0
210
0
220
0
230
1
0
LINE
5
206
100
AcDbEntity
8
0
62
256
6
ByLayer
370
-2
48
1
60
0
100
AcDbLine
10
35
20
-3.635008
30
0
11
35
21
-11.047508
31
0
39
0
210
0
220
0
230
1
0
LINE
5
207
100
AcDbEntity
8
0
62
256
6
ByLayer
370
-2
48
1
60
0
100
AcDbLine
10
42
20
-9.047508
30
0
11
60
21
-9.047508
31
0
39
0
210
0
220
0
230
1
0
LINE
5
208
100
AcDbEntity
8
0
62
256
6
ByLayer
370
-2
48
1
60
0
100
AcDbLine
10
45.5
20
-9.047508
30
0
11
49
21
-9.047508
31
0
39
0
210
0
220
0
230
1
0
LINE
5
209
100
AcDbEntity
8
0
62
256
6
ByLayer
370
-2
48
1
60
0
100
AcDbLine
10
31.5
20
-9.047508
30
0
11
28
21
-9.047508
31
0
39
0
210
0
220
0
230
1
0
SOLID
5
20A
100
AcDbEntity
8
0
62
256
6
ByLayer
370
-1
48
1
60
0
100
AcDbTrace
10
45.5
20
-8.464174
30
0
11
45.5
21
-9.630841
31
0
12
42
22
-9.047508
32
0
13
42
23
-9.047508
33
0
39
0
210
0
220
0
230
1
0
SOLID
5
20B
100
AcDbEntity
8
0
62
256
6
ByLayer
370
-1
48
1
60
0
100
AcDbTrace
10
31.5
20
-9.630841
30
0
11
31.5
21
-8.464174
31
0
12
35
22
-9.047508
32
0
13
35
23
-9.047508
33
0
39
0
210
0
220
0
230
1
0
MTEXT
5
20C
100
AcDbEntity
8
0
62
256
6
ByLayer
370
18
48
1
60
0
100
AcDbMText
10
54.5
20
-3.047508
30
0
210
0
220
0
230
1
1
\A1;7
40
3
41
0
44
1
50
0
71
5
72
5
7
iso_b_vert
0
POINT
5
20D
100
AcDbEntity
8
Defpoints
62
0
6
ByLayer
370
-1
48
1
60
0
100
AcDbPoint
10
42
20
-2.047508
30
0
39
0
210
0
220
0
230
1
50
360
0
POINT
5
20E
100
AcDbEntity
8
Defpoints
62
0
6
ByLayer
370
-1
48
1
60
0
100
AcDbPoint
10
35
20
-2.047508
30
0
39
0
210
0
220
0
230
1
50
360
0
POINT
5
20F
100
AcDbEntity
8
Defpoints
62
0
6
ByLayer
370
-1
48
1
60
0
100
AcDbPoint
10
35
20
-9.047508
30
0
39
0
210
0
220
0
230
1
50
360
0
ENDBLK
5
204
100
AcDbEntity
8
0
100
AcDbBlockEnd
0
BLOCK
5
218
100
AcDbEntity
8
0
100
AcDbBlockBegin
2
_U2
70
0
10
0
20
0
30
0
3
_U2
0
MTEXT
5
211
100
AcDbEntity
8
SK2
62
256
6
ByLayer
370
18
48
1
60
0
100
AcDbMText
10
48.159
20
-8.162393
30
0
210
0
220
0
230
1
1
\W0.5404;7
40
3
41
0
44
1.084337
50
0
71
7
72
5
7
iso_b_vert
0
MTEXT
5
212
100
AcDbEntity
8
SK2
62
256
6
ByLayer
370
18
48
1
60
0
100
AcDbMText
10
51.974328
20
-7.809912
30
0
210
0
220
0
230
1
1
\W0.8315;\W0.4158;%%p\W0.8315;0.5
40
2.5
41
0
44
1.084337
50
0
71
7
72
5
7
iso_b_vert
0
LINE
5
213
100
AcDbEntity
8
SK2
62
256
6
ByLayer
370
13
48
1
60
0
100
AcDbLine
10
42
20
-3.635008
30
0
11
42
21
-11.047508
31
0
39
0
210
0
220
0
230
1
0
LINE
5
214
100
AcDbEntity
8
SK2
62
256
6
ByLayer
370
13
48
1
60
0
100
AcDbLine
10
35
20
-3.635008
30
0
11
35
21
-11.047508
31
0
39
0
210
0
220
0
230
1
0
LINE
5
215
100
AcDbEntity
8
SK2
62
256
6
ByLayer
370
13
48
1
60
0
100
AcDbLine
10
27.5
20
-9.047508
30
0
11
59.091065
21
-9.047508
31
0
39
0
210
0
220
0
230
1
0
SOLID
5
216
100
AcDbEntity
8
SK2
62
256
6
ByLayer
370
18
48
1
60
0
100
AcDbTrace
10
42
20
-9.047508
30
0
11
45.499998
21
-8.586724
31
0
12
45.500002
22
-9.508291
32
0
13
45.500002
23
-9.508291
33
0
39
0
210
0
220
0
230
1
0
SOLID
5
217
100
AcDbEntity
8
SK2
62
256
6
ByLayer
370
18
48
1
60
0
100
AcDbTrace
10
35
20
-9.047508
30
0
11
31.500002
21
-9.508291
31
0
12
31.499998
22
-8.586724
32
0
13
31.499998
23
-8.586724
33
0
39
0
210
0
220
0
230
1
0
ENDBLK
5
219
100
AcDbEntity
8
0
100
AcDbBlockEnd
0
BLOCK
5
21E
100
AcDbEntity
8
0
100
AcDbBlockBegin
2
*D7
70
1
10
0
20
0
30
0
3
*D7
0
LINE
5
220
100
AcDbEntity
8
0
62
256
6
ByLayer
370
-2
48
1
60
0
100
AcDbLine
10
42
20
-3.635008
30
0
11
42
21
-33.547508
31
0
39
0
210
0
220
0
230
1
0
LINE
5
221
100
AcDbEntity
8
0
62
256
6
ByLayer
370
-2
48
1
60
0
100
AcDbLine
10
21
20
-3.08645
30
0
11
21
21
-33.547508
31
0
39
0
210
0
220
0
230
1
0
LINE
5
222
100
AcDbEntity
8
0
62
256
6
ByLayer
370
-2
48
1
60
0
100
AcDbLine
10
38.5
20
-31.547508
30
0
11
24.5
21
-31.547508
31
0
39
0
210
0
220
0
230
1
0
SOLID
5
223
100
AcDbEntity
8
0
62
256
6
ByLayer
370
-1
48
1
60
0
100
AcDbTrace
10
38.5
20
-32.130841
30
0
11
38.5
21
-30.964174
31
0
12
42
22
-31.547508
32
0
13
42
23
-31.547508
33
0
39
0
210
0
220
0
230
1
0
SOLID
5
224
100
AcDbEntity
8
0
62
256
6
ByLayer
370
-1
48
1
60
0
100
AcDbTrace
10
24.5
20
-30.964174
30
0
11
24.5
21
-32.130841
31
0
12
21
22
-31.547508
32
0
13
21
23
-31.547508
33
0
39
0
210
0
220
0
230
1
0
MTEXT
5
225
100
AcDbEntity
8
0
62
256
6
ByLayer
370
18
48
1
60
0
100
AcDbMText
10
31.5
20
-25.547508
30
0
210
0
220
0
230
1
1
\A1;21
40
3
41
0
44
1
50
0
71
5
72
5
7
iso_b_vert
0
POINT
5
226
100
AcDbEntity
8
Defpoints
62
0
6
ByLayer
370
-1
48
1
60
0
100
AcDbPoint
10
42
20
-2.047508
30
0
39
0
210
0
220
0
230
1
50
360
0
POINT
5
227
100
AcDbEntity
8
Defpoints
62
0
6
ByLayer
370
-1
48
1
60
0
100
AcDbPoint
10
21
20
-1.49895
30
0
39
0
210
0
220
0
230
1
50
360
0
POINT
5
228
100
AcDbEntity
8
Defpoints
62
0
6
ByLayer
370
-1
48
1
60
0
100
AcDbPoint
10
21
20
-31.547508
30
0
39
0
210
0
220
0
230
1
50
360
0
ENDBLK
5
21F
100
AcDbEntity
8
0
100
AcDbBlockEnd
0
BLOCK
5
230
100
AcDbEntity
8
0
100
AcDbBlockBegin
2
_U3
70
0
10
0
20
0
30
0
3
_U3
0
MTEXT
5
22A
100
AcDbEntity
8
SK2
62
256
6
ByLayer
370
18
48
1
60
0
100
AcDbMText
10
30.242115
20
-30.662393
30
0
210
0
220
0
230
1
1
\W0.6351;21
40
3
41
0
44
1.084337
50
0
71
7
72
5
7
iso_b_vert
0
LINE
5
22B
100
AcDbEntity
8
SK2
62
256
6
ByLayer
370
13
48
1
60
0
100
AcDbLine
10
42
20
-3.635008
30
0
11
42
21
-33.547508
31
0
39
0
210
0
220
0
230
1
0
LINE
5
22C
100
AcDbEntity
8
SK2
62
256
6
ByLayer
370
13
48
1
60
0
100
AcDbLine
10
21
20
-3.08645
30
0
11
21
21
-33.547508
31
0
39
0
210
0
220
0
230
1
0
LINE
5
22D
100
AcDbEntity
8
SK2
62
256
6
ByLayer
370
13
48
1
60
0
100
AcDbLine
10
42
20
-31.547508
30
0
11
21
21
-31.547508
31
0
39
0
210
0
220
0
230
1
0
SOLID
5
22E
100
AcDbEntity
8
SK2
62
256
6
ByLayer
370
18
48
1
60
0
100
AcDbTrace
10
42
20
-31.547508
30
0
11
38.500002
21
-32.008291
31
0
12
38.499998
22
-31.086724
32
0
13
38.499998
23
-31.086724
33
0
39
0
210
0
220
0
230
1
0
SOLID
5
22F
100
AcDbEntity
8
SK2
62
256
6
ByLayer
370
18
48
1
60
0
100
AcDbTrace
10
21
20
-31.547508
30
0
11
24.499998
21
-31.086724
31
0
12
24.500002
22
-32.008291
32
0
13
24.500002
23
-32.008291
33
0
39
0
210
0
220
0
230
1
0
ENDBLK
5
231
100
AcDbEntity
8
0
100
AcDbBlockEnd
0
BLOCK
5
236
100
AcDbEntity
8
0
100
AcDbBlockBegin
2
*D9
70
1
10
0
20
0
30
0
3
*D9
0
LINE
5
238
100
AcDbEntity
8
0
62
256
6
ByLayer
370
-2
48
1
60
0
100
AcDbLine
10
42
20
-3.635008
30
0
11
42
21
-22.547508
31
0
39
0
210
0
220
0
230
1
0
LINE
5
239
100
AcDbEntity
8
0
62
256
6
ByLayer
370
-2
48
1
60
0
100
AcDbLine
10
24.15
20
-1.5875
30
0
11
24.15
21
-22.547508
31
0
39
0
210
0
220
0
230
1
0
LINE
5
23A
100
AcDbEntity
8
0
62
256
6
ByLayer
370
-2
48
1
60
0
100
AcDbLine
10
38.5
20
-20.547508
30
0
11
27.65
21
-20.547508
31
0
39
0
210
0
220
0
230
1
0
SOLID
5
23B
100
AcDbEntity
8
0
62
256
6
ByLayer
370
-1
48
1
60
0
100
AcDbTrace
10
38.5
20
-21.130841
30
0
11
38.5
21
-19.964174
31
0
12
42
22
-20.547508
32
0
13
42
23
-20.547508
33
0
39
0
210
0
220
0
230
1
0
SOLID
5
23C
100
AcDbEntity
8
0
62
256
6
ByLayer
370
-1
48
1
60
0
100
AcDbTrace
10
27.65
20
-19.964174
30
0
11
27.65
21
-21.130841
31
0
12
24.15
22
-20.547508
32
0
13
24.15
23
-20.547508
33
0
39
0
210
0
220
0
230
1
0
MTEXT
5
23D
100
AcDbEntity
8
0
62
256
6
ByLayer
370
18
48
1
60
0
100
AcDbMText
10
33.075
20
-14.547508
30
0
210
0
220
0
230
1
1
\A1;17.9
40
3
41
0
44
1
50
0
71
5
72
5
7
iso_b_vert
0
POINT
5
23E
100
AcDbEntity
8
Defpoints
62
0
6
ByLayer
370
-1
48
1
60
0
100
AcDbPoint
10
42
20
-2.047508
30
0
39
0
210
0
220
0
230
1
50
360
0
POINT
5
23F
100
AcDbEntity
8
Defpoints
62
0
6
ByLayer
370
-1
48
1
60
0
100
AcDbPoint
10
24.15
20
0
30
0
39
0
210
0
220
0
230
1
50
360
0
POINT
5
240
100
AcDbEntity
8
Defpoints
62
0
6
ByLayer
370
-1
48
1
60
0
100
AcDbPoint
10
24.15
20
-20.547508
30
0
39
0
210
0
220
0
230
1
50
360
0
ENDBLK
5
237
100
AcDbEntity
8
0
100
AcDbBlockEnd
0
BLOCK
5
248
100
AcDbEntity
8
0
100
AcDbBlockBegin
2
_U4
70
0
10
0
20
0
30
0
3
_U4
0
MTEXT
5
242
100
AcDbEntity
8
2
62
256
6
ByLayer
370
18
48
1
60
0
100
AcDbMText
10
30.088486
20
-19.662393
30
0
210
0
220
0
230
1
1
\W0.6563;17.8
40
3
41
0
44
1.084337
50
0
71
7
72
5
7
iso_b_vert
0
LINE
5
243
100
AcDbEntity
8
2
62
256
6
ByLayer
370
13
48
1
60
0
100
AcDbLine
10
42
20
-3.635008
30
0
11
42
21
-22.547508
31
0
39
0
210
0
220
0
230
1
0
LINE
5
244
100
AcDbEntity
8
2
62
256
6
ByLayer
370
13
48
1
60
0
100
AcDbLine
10
24.15
20
-1.5875
30
0
11
24.15
21
-22.547508
31
0
39
0
210
0
220
0
230
1
0
LINE
5
245
100
AcDbEntity
8
2
62
256
6
ByLayer
370
13
48
1
60
0
100
AcDbLine
10
42
20
-20.547508
30
0
11
24.15
21
-20.547508
31
0
39
0
210
0
220
0
230
1
0
SOLID
5
246
100
AcDbEntity
8
2
62
256
6
ByLayer
370
18
48
1
60
0
100
AcDbTrace
10
42
20
-20.547508
30
0
11
38.500002
21
-21.008291
31
0
12
38.499998
22
-20.086724
32
0
13
38.499998
23
-20.086724
33
0
39
0
210
0
220
0
230
1
0
SOLID
5
247
100
AcDbEntity
8
2
62
256
6
ByLayer
370
18
48
1
60
0
100
AcDbTrace
10
24.15
20
-20.547508
30
0
11
27.649998
21
-20.086724
31
0
12
27.650002
22
-21.008291
32
0
13
27.650002
23
-21.008291
33
0
39
0
210
0
220
0
230
1
0
ENDBLK
5
249
100
AcDbEntity
8
0
100
AcDbBlockEnd
0
ENDSEC
0
SECTION
2
ENTITIES
0
ARC
5
CA
100
AcDbEntity
8
SK1
62
256
6
ByLayer
370
18
48
1
60
0
100
AcDbCircle
39
0
10
-16.7
20
0
30
0
40
2.15999999999998
210
0
220
0
230
1
100
AcDbArc
50
321.909474
51
38.090526
0
ARC
5
CB
100
AcDbEntity
8
1
62
256
6
ByLayer
370
18
48
1
60
0
100
AcDbCircle
39
0
10
33.777332
20
1.99895
30
0
40
0.5
210
0
220
0
230
1
100
AcDbArc
50
270
51
300
0
ARC
5
CC
100
AcDbEntity
8
1
62
256
6
ByLayer
370
18
48
1
60
0
100
AcDbCircle
39
0
10
21.043744
20
-1.99895
30
0
40
0.5
210
0
220
0
230
1
100
AcDbArc
50
90
51
100
0
ARC
5
CD
100
AcDbEntity
8
1
62
256
6
ByLayer
370
18
48
1
60
0
100
AcDbCircle
39
0
10
21.043744
20
1.99895
30
0
40
0.5
210
0
220
0
230
1
100
AcDbArc
50
260
51
270
0
POINT
5
70
100
AcDbEntity
8
80
62
256
6
ByLayer
370
18
48
1
60
0
100
AcDbPoint
10
0
20
0
30
0
39
0
210
0
220
0
230
1
50
360
0
POINT
5
72
100
AcDbEntity
8
81
62
256
6
ByLayer
370
18
48
1
60
0
100
AcDbPoint
10
42.2
20
0
30
0
39
0
210
0
220
0
230
1
50
360
0
POINT
5
74
100
AcDbEntity
8
1
62
256
6
ByLayer
370
18
48
1
60
1
100
AcDbPoint
10
42
20
2.047508
30
0
39
0
210
0
220
0
230
1
50
360
0
POINT
5
76
100
AcDbEntity
8
1
62
256
6
ByLayer
370
18
48
1
60
1
100
AcDbPoint
10
42
20
-2.047508
30
0
39
0
210
0
220
0
230
1
50
360
0
POINT
5
77
100
AcDbEntity
8
1
62
256
6
ByLayer
370
18
48
1
60
1
100
AcDbPoint
10
42
20
2.047508
30
0
39
0
210
0
220
0
230
1
50
360
0
POINT
5
78
100
AcDbEntity
8
1
62
256
6
ByLayer
370
18
48
1
60
1
100
AcDbPoint
10
40.08
20
0
30
0
39
0
210
0
220
0
230
1
50
360
0
POINT
5
79
100
AcDbEntity
8
1
62
256
6
ByLayer
370
18
48
1
60
1
100
AcDbPoint
10
42
20
-2.047508
30
0
39
0
210
0
220
0
230
1
50
360
0
POINT
5
7A
100
AcDbEntity
8
1
62
256
6
ByLayer
370
18
48
1
60
1
100
AcDbPoint
10
35
20
-2.047508
30
0
39
0
210
0
220
0
230
1
50
360
0
POINT
5
7B
100
AcDbEntity
8
1
62
256
6
ByLayer
370
18
48
1
60
1
100
AcDbPoint
10
42
20
-2.047508
30
0
39
0
210
0
220
0
230
1
50
360
0
POINT
5
7C
100
AcDbEntity
8
1
62
256
6
ByLayer
370
18
48
1
60
1
100
AcDbPoint
10
21
20
-1.49895
30
0
39
0
210
0
220
0
230
1
50
360
0
POINT
5
7D
100
AcDbEntity
8
1
62
256
6
ByLayer
370
18
48
1
60
1
100
AcDbPoint
10
42
20
-2.047508
30
0
39
0
210
0
220
0
230
1
50
360
0
POINT
5
7E
100
AcDbEntity
8
1
62
256
6
ByLayer
370
18
48
1
60
1
100
AcDbPoint
10
24.15
20
0
30
0
39
0
210
0
220
0
230
1
50
360
0
SPLINE
5
CE
100
AcDbEntity
8
1
62
256
6
ByLayer
370
13
48
1
60
0
100
AcDbSpline
70
4
71
3
72
8
73
4
40
0
40
0
40
0
40
0
40
1
40
1
40
1
40
1
41
1
10
37.5897542836822
20
1.84181533251498
30
0
41
1
10
37.5860013866325
20
1.84014612275524
30
0
41
1
10
37.5822452291372
20
1.83539629639114
30
0
41
1
10
37.5785073237177
20
1.82766796079701
30
0
0
SPLINE
5
CF
100
AcDbEntity
8
1
62
256
6
ByLayer
370
18
48
1
60
0
100
AcDbSpline
70
4
71
3
72
12
73
8
40
0
40
0
40
0
40
0
40
0.379379555358461
40
0.379379555358461
40
0.68968977767923
40
0.68968977767923
40
1
40
1
40
1
40
1
41
1
10
36.7194601939269
20
-2.04750884505162
30
0
41
1
10
36.7171700748792
20
-2.04748169035904
30
0
41
1
10
36.7148877586355
20
-2.04611102267597
30
0
41
1
10
36.7107389772961
20
-2.04114729084708
30
0
41
1
10
36.7088722586932
20
-2.03800249590751
30
0
41
1
10
36.7051278541554
20
-2.02984946824054
30
0
41
1
10
36.7032639391292
20
-2.02487000677002
30
0
41
1
10
36.7014062460559
20
-2.01901644766295
30
0
0
SPLINE
5
D0
100
AcDbEntity
8
1
62
256
6
ByLayer
370
18
48
1
60
0
100
AcDbSpline
70
4
71
3
72
10
73
6
40
0
40
0
40
0
40
0
40
0.201572136545513
40
0.201572136545513
40
1
40
1
40
1
40
1
41
1
10
41.1020924023059
20
-1.73899617210259
30
0
41
1
10
41.1015134068587
20
-1.73896756197968
30
0
41
1
10
41.1009363702609
20
-1.73876870654379
30
0
41
1
10
41.0980807975796
20
-1.73694575066244
30
0
41
1
10
41.0958173137668
20
-1.73284026687898
30
0
41
1
10
41.0936062828946
20
-1.72607192597465
30
0
0
SPLINE
5
D1
100
AcDbEntity
8
1
62
256
6
ByLayer
370
13
48
1
60
0
100
AcDbSpline
70
4
71
3
72
9
73
5
40
0
40
0
40
0
40
0
40
0.797834423915016
40
1
40
1
40
1
40
1
41
1
10
38.3302968304652
20
1.73776650261126
30
0
41
1
10
38.3170046840058
20
1.81074098791723
30
0
41
1
10
38.3004887200773
20
1.85537405733618
30
0
41
1
10
38.284186736862
20
1.83873564466717
30
0
41
1
10
38.2808988445693
20
1.83296078825285
30
0
0
SPLINE
5
D2
100
AcDbEntity
8
1
62
256
6
ByLayer
370
18
48
1
60
0
100
AcDbSpline
70
4
71
3
72
10
73
6
40
0
40
0
40
0
40
0
40
0.755363470075853
40
0.755363470075853
40
1
40
1
40
1
40
1
41
1
10
40.6939415144977
20
-1.74008618399688
30
0
41
1
10
40.7009134678236
20
-1.7670797081519
30
0
41
1
10
40.7078631838547
20
-1.78827235159974
30
0
41
1
10
40.7169506703104
20
-1.80833328147656
30
0
41
1
10
40.7191651386604
20
-1.8126048433835
30
0
41
1
10
40.7213725842186
20
-1.81622538608425
30
0
0
SPLINE
5
D3
100
AcDbEntity
8
1
62
256
6
ByLayer
370
18
48
1
60
0
100
AcDbSpline
70
4
71
3
72
12
73
8
40
0
40
0
40
0
40
0
40
0.227857691101895
40
0.227857691101895
40
0.617999605742421
40
0.617999605742421
40
1
40
1
40
1
40
1
41
1
10
40.7270856327068
20
-1.82414816663845
30
0
41
1
10
40.7280752508141
20
-1.82526634086293
30
0
41
1
10
40.7290622519566
20
-1.82624797652028
30
0
41
1
10
40.7317247295426
20
-1.82853131031101
30
0
41
1
10
40.733393659283
20
-1.82956899519175
30
0
41
1
10
40.7366803848948
20
-1.83083890677517
30
0
41
1
10
40.7383005430467
20
-1.83108996470369
30
0
41
1
10
40.7399148803102
20
-1.8309658796436
30
0
0
SPLINE
5
D4
100
AcDbEntity
8
1
62
256
6
ByLayer
370
13
48
1
60
0
100
AcDbSpline
70
4
71
3
72
8
73
4
40
0
40
0
40
0
40
0
40
1
40
1
40
1
40
1
41
1
10
36.5311735038548
20
-1.83276631268407
30
0
41
1
10
36.5260207346752
20
-1.82404840681801
30
0
41
1
10
36.5208986929659
20
-1.8095488938915
30
0
41
1
10
36.5158011881264
20
-1.78956940184972
30
0
0
SPLINE
5
D5
100
AcDbEntity
8
1
62
256
6
ByLayer
370
18
48
1
60
0
100
AcDbSpline
70
4
71
3
72
22
73
18
40
0
40
0
40
0
40
0
40
0.0317273212204508
40
0.0317273212204508
40
0.11975211020041
40
0.11975211020041
40
0.295801688160328
40
0.295801688160328
40
0.471851266120246
40
0.471851266120246
40
0.559876055100205
40
0.559876055100205
40
0.647900844080164
40
0.647900844080164
40
0.823950422040082
40
0.823950422040082
40
1
40
1
40
1
40
1
41
1
10
40.2820860024453
20
-1.94738344563171
30
0
41
1
10
40.2816564535131
20
-1.94754084362629
30
0
41
1
10
40.2812271085157
20
-1.94759311133268
30
0
41
1
10
40.2796067601016
20
-1.94739023832653
30
0
41
1
10
40.278425359324
20
-1.94642364072951
30
0
41
1
10
40.2749413423051
20
-1.94110308358597
30
0
41
1
10
40.2727050331553
20
-1.93431636709383
30
0
41
1
10
40.2684130967171
20
-1.9143871308529
30
0
41
1
10
40.2663543006589
20
-1.90124911920861
30
0
41
1
10
40.2632910635196
20
-1.87688511833727
30
0
41
1
10
40.2622728352434
20
-1.86798809096746
30
0
41
1
10
40.2602222125025
20
-1.8486425916434
30
0
41
1
10
40.2591872372736
20
-1.83816579922058
30
0
41
1
10
40.256057479349
20
-1.80459573535799
30
0
41
1
10
40.2539415920824
20
-1.779455430333
30
0
41
1
10
40.2495902640445
20
-1.72379109374665
30
0
41
1
10
40.2473470130892
20
-1.69326865213438
30
0
41
1
10
40.2450857454501
20
-1.65996863953586
30
0
0
SPLINE
5
D6
100
AcDbEntity
8
1
62
256
6
ByLayer
370
18
48
1
60
0
100
AcDbSpline
70
4
71
3
72
22
73
18
40
0
40
0
40
0
40
0
40
0.097040305278772
40
0.097040305278772
40
0.194080610557544
40
0.194080610557544
40
0.388161221115088
40
0.388161221115088
40
0.485201526393859
40
0.485201526393859
40
0.582241831672629
40
0.582241831672629
40
0.776322442230173
40
0.776322442230173
40
0.970403052787716
40
0.970403052787716
40
1
40
1
40
1
40
1
41
1
10
40.0345538380611
20
-1.58598940075999
30
0
41
1
10
40.0370926835388
20
-1.60667762586243
30
0
41
1
10
40.0396275503448
20
-1.62661224324646
30
0
41
1
10
40.0446730947541
20
-1.66485899252851
30
0
41
1
10
40.0471879514655
20
-1.68319241878567
30
0
41
1
10
40.054753884524
20
-1.73588042073351
30
0
41
1
10
40.0598388078602
20
-1.76792957198805
30
0
41
1
10
40.0676058569979
20
-1.81145809062554
30
0
41
1
10
40.0702170522655
20
-1.82522663184017
30
0
41
1
10
40.0754513171381
20
-1.85115313026921
30
0
41
1
10
40.0780627978912
20
-1.86325635071555
30
0
41
1
10
40.0858655871507
20
-1.89704022613836
30
0
41
1
10
40.0910257014203
20
-1.91620681053186
30
0
41
1
10
40.1011758600336
20
-1.94782639804762
30
0
41
1
10
40.1061586710791
20
-1.9602676682039
30
0
41
1
10
40.111780579958
20
-1.97057463863541
30
0
41
1
10
40.1125221466601
20
-1.97185703083736
30
0
41
1
10
40.1132615636762
20
-1.9730573988704
30
0
0
SPLINE
5
D7
100
AcDbEntity
8
1
62
256
6
ByLayer
370
18
48
1
60
0
100
AcDbSpline
70
4
71
3
72
10
73
6
40
0
40
0
40
0
40
0
40
0.370000009808403
40
0.370000009808403
40
1
40
1
40
1
40
1
41
1
10
40.1216543105614
20
-1.98319037394523
30
0
41
1
10
40.1229138383629
20
-1.98417033446518
30
0
41
1
10
40.1241673985015
20
-1.98489607131609
30
0
41
1
10
40.1275332349815
20
-1.98616366004251
30
0
41
1
10
40.1296366755959
20
-1.98622800918284
30
0
41
1
10
40.1317307509038
20
-1.98556550276109
30
0
0
SPLINE
5
D8
100
AcDbEntity
8
1
62
256
6
ByLayer
370
13
48
1
60
0
100
AcDbSpline
70
4
71
3
72
9
73
5
40
0
40
0
40
0
40
0
40
0.0140348518659994
40
1
40
1
40
1
40
1
41
1
10
39.0707109061987
20
1.40794843682889
30
0
41
1
10
39.0703133039833
20
1.41218686840114
30
0
41
1
10
39.0419772712542
20
1.71228469896866
30
0
41
1
10
39.0131697559819
20
1.87587666788588
30
0
41
1
10
38.9837872214783
20
1.8375506326247
30
0
0
SPLINE
5
D9
100
AcDbEntity
8
1
62
256
6
ByLayer
370
18
48
1
60
0
100
AcDbSpline
70
4
71
3
72
9
73
5
40
0
40
0
40
0
40
0
40
0.535385962729812
40
1
40
1
40
1
40
1
41
1
10
34.8747514340254
20
1.3635737882303
30
0
41
1
10
34.8601081907546
20
1.52651286189646
30
0
41
1
10
34.8322016773699
20
1.77078542073679
30
0
41
1
10
34.8024391024194
20
1.85054314538076
30
0
41
1
10
34.7881863584045
20
1.84169495250529
30
0
0
SPLINE
5
DA
100
AcDbEntity
8
1
62
256
6
ByLayer
370
13
48
1
60
0
100
AcDbSpline
70
4
71
3
72
9
73
5
40
0
40
0
40
0
40
0
40
0.634519428339703
40
1
40
1
40
1
40
1
41
1
10
40.030076363943
20
-1.83021474862915
30
0
41
1
10
40.0175312221648
20
-1.80654600602347
30
0
41
1
10
39.997687328662
20
-1.71575486879485
30
0
41
1
10
39.9781532923465
20
-1.54700600166069
30
0
41
1
10
39.9710275843564
20
-1.47626119512759
30
0
0
SPLINE
5
DB
100
AcDbEntity
8
1
62
256
6
ByLayer
370
13
48
1
60
0
100
AcDbSpline
70
4
71
3
72
9
73
5
40
0
40
0
40
0
40
0
40
0.571292474869373
40
1
40
1
40
1
40
1
41
1
10
39.8111633121517
20
0.893271153637016
30
0
41
1
10
39.7950149227592
20
1.1264324333107
30
0
41
1
10
39.765899377674
20
1.49819068913328
30
0
41
1
10
39.7367948697014
20
1.71012464042622
30
0
41
1
10
39.7242541921178
20
1.76808245928581
30
0
0
SPLINE
5
DC
100
AcDbEntity
8
1
62
256
6
ByLayer
370
13
48
1
60
0
100
AcDbSpline
70
4
71
3
72
9
73
5
40
0
40
0
40
0
40
0
40
0.0735578610825044
40
1
40
1
40
1
40
1
41
1
10
35.6152849226926
20
0.834077456941941
30
0
41
1
10
35.6130064171792
20
0.867798202088693
30
0
41
1
10
35.5821640354561
20
1.31672311333441
30
0
41
1
10
35.5536400948283
20
1.61398721317275
30
0
41
1
10
35.5287240237296
20
1.74709954002702
30
0
0
SPLINE
5
DD
100
AcDbEntity
8
1
62
256
6
ByLayer
370
18
48
1
60
0
100
AcDbSpline
70
4
71
3
72
28
73
24
40
0
40
0
40
0
40
0
40
0.124999999999999
40
0.124999999999999
40
0.187499999999998
40
0.187499999999998
40
0.249999999999998
40
0.249999999999998
40
0.374999999999997
40
0.374999999999997
40
0.499999999999997
40
0.499999999999997
40
0.562499999999996
40
0.562499999999996
40
0.624999999999996
40
0.624999999999996
40
0.749999999999997
40
0.749999999999997
40
0.874999999999998
40
0.874999999999998
40
0.937499999999999
40
0.937499999999999
40
1
40
1
40
1
40
1
41
1
10
39.8154881882379
20
1.89466525057472
30
0
41
1
10
39.8205432602952
20
1.87469266394052
30
0
41
1
10
39.8255879516988
20
1.85124708564931
30
0
41
1
10
39.8331528650653
20
1.81076437842697
30
0
41
1
10
39.8356775550273
20
1.79635590552869
30
0
41
1
10
39.8406851003291
20
1.7659725043444
30
0
41
1
10
39.8431736190519
20
1.74997885136818
30
0
41
1
10
39.8506477970808
20
1.6996741533556
30
0
41
1
10
39.8556465307159
20
1.6630488377705
30
0
41
1
10
39.8658916142837
20
1.5838063365203
30
0
41
1
10
39.8711203559092
20
1.5411926512632
30
0
41
1
10
39.8790291504325
20
1.47271329202866
30
0
41
1
10
39.8816827943641
20
1.44906178214615
30
0
41
1
10
39.8869415401006
20
1.40068990548755
30
0
41
1
10
39.8895510059099
20
1.37593522144712
30
0
41
1
10
39.8972950183705
20
1.29997479447658
30
0
41
1
10
39.9023369977699
20
1.247072137228
30
0
41
1
10
39.9121303891367
20
1.13668491932401
30
0
41
1
10
39.9168783646796
20
1.07919547305985
30
0
41
1
10
39.9239073204626
20
0.989471651279018
30
0
41
1
10
39.9262370558056
20
0.958982756051995
30
0
41
1
10
39.9309031012338
20
0.89682086284364
30
0
41
1
10
39.9332297699209
20
0.865289692329924
30
0
41
1
10
39.9355605593451
20
0.833363328604463
30
0
0
SPLINE
5
DE
100
AcDbEntity
8
1
62
256
6
ByLayer
370
18
48
1
60
0
100
AcDbSpline
70
4
71
3
72
28
73
24
40
0
40
0
40
0
40
0
40
0.125
40
0.125
40
0.187500000000001
40
0.187500000000001
40
0.250000000000001
40
0.250000000000001
40
0.375000000000001
40
0.375000000000001
40
0.4375
40
0.4375
40
0.5
40
0.5
40
0.625
40
0.625
40
0.75
40
0.75
40
0.875
40
0.875
40
0.9375
40
0.9375
40
1
40
1
40
1
40
1
41
1
10
40.4741092947045
20
1.47878136771231
30
0
41
1
10
40.4790785581848
20
1.44215804809602
30
0
41
1
10
40.4840180217432
20
1.40303736774609
30
0
41
1
10
40.491421262472
20
1.34058789126101
30
0
41
1
10
40.4938807309489
20
1.31920315484658
30
0
41
1
10
40.4987753108107
20
1.27545417098594
30
0
41
1
10
40.5012131197091
20
1.25306710329838
30
0
41
1
10
40.5085155140091
20
1.18436169347979
30
0
41
1
10
40.5133834006579
20
1.13649659322002
30
0
41
1
10
40.5206618172867
20
1.06154993849969
30
0
41
1
10
40.5230828870783
20
1.03604264856762
30
0
41
1
10
40.5279116363665
20
0.983964527371711
30
0
41
1
10
40.5303229639385
20
0.957360715527386
30
0
41
1
10
40.5375277130193
20
0.876157033194318
30
0
41
1
10
40.5422395156205
20
0.820786173179897
30
0
41
1
10
40.5514897716476
20
0.707671353142672
30
0
41
1
10
40.5560218804642
20
0.64992297418857
30
0
41
1
10
40.5649181712164
20
0.532058712201433
30
0
41
1
10
40.5692835163554
20
0.471944171342386
30
0
41
1
10
40.5757461273924
20
0.379954845615032
30
0
41
1
10
40.5778898823289
20
0.348934348976314
30
0
41
1
10
40.582124526386
20
0.286787956805256
30
0
41
1
10
40.5842189400962
20
0.255613278980349
30
0
41
1
10
40.5862972459653
20
0.224337949443452
30
0
0
SPLINE
5
DF
100
AcDbEntity
8
1
62
256
6
ByLayer
370
18
48
1
60
0
100
AcDbSpline
70
4
71
3
72
21
73
17
40
0
40
0
40
0
40
0
40
0.25
40
0.25
40
0.375
40
0.375
40
0.500000000000001
40
0.500000000000001
40
0.625000000000001
40
0.625000000000001
40
0.750000000000001
40
0.750000000000001
40
0.812500000000001
40
0.812500000000001
40
0.875000000000001
40
1
40
1
40
1
40
1
41
1
10
40.8702472839303
20
-0.0220770786275466
30
0
41
1
10
40.8642343548602
20
0.0935060201158535
30
0
41
1
10
40.8586596697152
20
0.207607604982371
30
0
41
1
10
40.8505266727468
20
0.376569484962118
30
0
41
1
10
40.8478498130298
20
0.432522205656596
30
0
41
1
10
40.842507018517
20
0.543661931343422
30
0
41
1
10
40.8398958427246
20
0.597954994364727
30
0
41
1
10
40.8348496541905
20
0.703917328841698
30
0
41
1
10
40.8324155118502
20
0.755608650171354
30
0
41
1
10
40.8277038161951
20
0.856436432634666
30
0
41
1
10
40.8254251479947
20
0.905573926528263
30
0
41
1
10
40.8221260032656
20
0.977296265228176
30
0
41
1
10
40.821045462921
20
1.00091211195166
30
0
41
1
10
40.8189283880936
20
1.04727875212788
30
0
41
1
10
40.8158295502778
20
1.11524333820699
30
0
41
1
10
40.8128985222948
20
1.17856796414847
30
0
41
1
10
40.8109215253855
20
1.21881068081564
30
0
0
SPLINE
5
E0
100
AcDbEntity
8
1
62
256
6
ByLayer
370
18
48
1
60
0
100
AcDbSpline
70
4
71
3
72
24
73
20
40
0
40
0
40
0
40
0
40
0.125
40
0.125
40
0.250000000000001
40
0.250000000000001
40
0.312500000000001
40
0.312500000000001
40
0.375000000000001
40
0.375000000000001
40
0.500000000000001
40
0.500000000000001
40
0.625000000000001
40
0.625000000000001
40
0.6875
40
0.6875
40
0.75
40
0.75
40
1
40
1
40
1
40
1
41
1
10
40.0153002945341
20
0.757044501553366
30
0
41
1
10
40.0128381261609
20
0.817701534861754
30
0
41
1
10
40.0104717228726
20
0.876807051073484
30
0
41
1
10
40.0058232526674
20
0.991939765765125
30
0
41
1
10
40.0035407016426
20
1.04796747906241
30
0
41
1
10
40.0001699370623
20
1.12959158437803
30
0
41
1
10
39.9990539162936
20
1.15643865247972
30
0
41
1
10
39.9968505492209
20
1.20872970186974
30
0
41
1
10
39.9957601055333
20
1.23424410527025
30
0
41
1
10
39.9924934145196
20
1.30894857803185
30
0
41
1
10
39.9903345424094
20
1.35630317254325
30
0
41
1
10
39.9860604447052
20
1.44631519848679
30
0
41
1
10
39.9839429659058
20
1.48897428858825
30
0
41
1
10
39.9807654231256
20
1.54941602766354
30
0
41
1
10
39.9797057919361
20
1.56897024770561
30
0
41
1
10
39.9775776885005
20
1.60686464927522
30
0
41
1
10
39.9765165771018
20
1.62507237238285
30
0
41
1
10
39.9712115448041
20
1.71229620097813
30
0
41
1
10
39.9669042813816
20
1.77004384882844
30
0
41
1
10
39.9624396668279
20
1.81552204545642
30
0
0
SPLINE
5
E1
100
AcDbEntity
8
1
62
256
6
ByLayer
370
13
48
1
60
0
100
AcDbSpline
70
4
71
3
72
9
73
5
40
0
40
0
40
0
40
0
40
0.713731199040313
40
1
40
1
40
1
40
1
41
1
10
40.5516344258061
20
0.262454092333144
30
0
41
1
10
40.5321488826264
20
0.582172649163311
30
0
41
1
10
40.5036731114811
20
1.03273773170289
30
0
41
1
10
40.4733918931331
20
1.38236022831703
30
0
41
1
10
40.464664222354
20
1.46974310579563
30
0
0
SPLINE
5
E2
100
AcDbEntity
8
1
62
256
6
ByLayer
370
18
48
1
60
0
100
AcDbSpline
70
4
71
3
72
38
73
34
40
0
40
0
40
0
40
0
40
0.249999999999862
40
0.249999999999862
40
0.312499999999825
40
0.312499999999825
40
0.343749999999806
40
0.343749999999806
40
0.374999999999788
40
0.374999999999788
40
0.40624999999977
40
0.40624999999977
40
0.437499999999752
40
0.437499999999752
40
0.499999999999735
40
0.499999999999735
40
0.531249999999737
40
0.531249999999737
40
0.546874999999749
40
0.546874999999749
40
0.56249999999976
40
0.56249999999976
40
0.593749999999783
40
0.593749999999783
40
0.624999999999806
40
0.624999999999806
40
0.687499999999838
40
0.687499999999838
40
0.74999999999987
40
0.74999999999987
40
0.874999999999935
40
0.874999999999935
40
1
40
1
40
1
40
1
41
1
10
41.018224216312
20
1.62457852585325
30
0
41
1
10
40.9897483336968
20
1.56719006879678
30
0
41
1
10
40.9611979769481
20
1.5093473565845
30
0
41
1
10
40.924070281271
20
1.43746858790311
30
0
41
1
10
40.9167435347103
20
1.42297189216052
30
0
41
1
10
40.9035550251359
20
1.40304053848283
30
0
41
1
10
40.8987782380398
20
1.39667606679313
30
0
41
1
10
40.8884500143118
20
1.38473408172041
30
0
41
1
10
40.8830280973202
20
1.37924909184392
30
0
41
1
10
40.871789165589
20
1.36902242095516
30
0
41
1
10
40.8659692269862
20
1.36428643668756
30
0
41
1
10
40.8539353874181
20
1.35556547473621
30
0
41
1
10
40.8476730218764
20
1.35155714911653
30
0
41
1
10
40.8286986263118
20
1.34114413727542
30
0
41
1
10
40.8157503156032
20
1.33627334452561
30
0
41
1
10
40.795964831703
20
1.33209536248148
30
0
41
1
10
40.7893194853614
20
1.33125428835905
30
0
41
1
10
40.7796182303613
20
1.33110043192929
30
0
41
1
10
40.7764169360511
20
1.33123712870034
30
0
41
1
10
40.7700936221623
20
1.33195619628413
30
0
41
1
10
40.7669505988367
20
1.33254353923351
30
0
41
1
10
40.7578220054755
20
1.33501007491918
30
0
41
1
10
40.7521884097203
20
1.3375760134347
30
0
41
1
10
40.7417389060153
20
1.34433738331157
30
0
41
1
10
40.736907670867
20
1.34856534250377
30
0
41
1
10
40.7236162015399
20
1.36242769087809
30
0
41
1
10
40.7160971383928
20
1.37325335736637
30
0
41
1
10
40.6999806614505
20
1.39325739396375
30
0
41
1
10
40.6916086725023
20
1.40271966846674
30
0
41
1
10
40.6666615717612
20
1.43091381426325
30
0
41
1
10
40.6502274486325
20
1.44942100061988
30
0
41
1
10
40.6174501665834
20
1.48534237091093
30
0
41
1
10
40.6010856915474
20
1.50274353811594
30
0
41
1
10
40.584748673782
20
1.51960970859639
30
0
0
SPLINE
5
E3
100
AcDbEntity
8
1
62
256
6
ByLayer
370
18
48
1
60
0
100
AcDbSpline
70
4
71
3
72
8
73
4
40
0
40
0
40
0
40
0
40
1
40
1
40
1
40
1
41
1
10
40.584748673782
20
1.51960970859639
30
0
41
1
10
40.5127651609463
20
1.49486068083451
30
0
41
1
10
40.4413160491051
20
1.46663287546971
30
0
41
1
10
40.3701766838354
20
1.43499181057598
30
0
0
SPLINE
5
E4
100
AcDbEntity
8
1
62
256
6
ByLayer
370
18
48
1
60
0
100
AcDbSpline
70
4
71
3
72
8
73
4
40
0
40
0
40
0
40
0
40
1
40
1
40
1
40
1
41
1
10
40.3701766838354
20
1.43499181057601
30
0
41
1
10
40.3484130334995
20
1.38989547319667
30
0
41
1
10
40.3265928469376
20
1.34489850615466
30
0
41
1
10
40.3048196439672
20
1.29996132310404
30
0
0
SPLINE
5
E5
100
AcDbEntity
8
1
62
256
6
ByLayer
370
18
48
1
60
0
100
AcDbSpline
70
4
71
3
72
14
73
10
40
0
40
0
40
0
40
0
40
0.036716413044722
40
0.036716413044722
40
0.11081515050282
40
0.11081515050282
40
0.407210100335213
40
0.407210100335213
40
1
40
1
40
1
40
1
41
1
10
35.5291802645258
20
-1.68296804951697
30
0
41
1
10
35.5266013483821
20
-1.68758256702159
30
0
41
1
10
35.5239872857846
20
-1.69216288666419
30
0
41
1
10
35.5160087831412
20
-1.70589798152363
30
0
41
1
10
35.5105625913119
20
-1.71496958998105
30
0
41
1
10
35.4832962201255
20
-1.76020428179905
30
0
41
1
10
35.4617845845369
20
-1.79635824446211
30
0
41
1
10
35.3974154806865
20
-1.90369240495792
30
0
41
1
10
35.354653557054
20
-1.97390190863843
30
0
41
1
10
35.3123840210637
20
-2.04254386794219
30
0
0
SPLINE
5
E6
100
AcDbEntity
8
1
62
256
6
ByLayer
370
18
48
1
60
0
100
AcDbSpline
70
4
71
3
72
14
73
10
40
0
40
0
40
0
40
0
40
0.500000000000027
40
0.500000000000027
40
0.750000000000013
40
0.750000000000013
40
0.875000000000007
40
0.875000000000007
40
1
40
1
40
1
40
1
41
1
10
33.7773316097986
20
-1.2756565874902
30
0
41
1
10
33.8199044021831
20
-1.25924457729821
30
0
41
1
10
33.8622537716519
20
-1.24697687099598
30
0
41
1
10
33.9249581267924
20
-1.23496593029245
30
0
41
1
10
33.9457277327163
20
-1.2320416256062
30
0
41
1
10
33.9766564814005
20
-1.22948907396093
30
0
41
1
10
33.9869388954614
20
-1.22894643666533
30
0
41
1
10
34.0072808071086
20
-1.22853496721873
30
0
41
1
10
34.0173565081706
20
-1.22866415198709
30
0
41
1
10
34.0273316097986
20
-1.229155834729
30
0
0
SPLINE
5
E7
100
AcDbEntity
8
1
62
256
6
ByLayer
370
18
48
1
60
0
100
AcDbSpline
70
4
71
3
72
10
73
6
40
0
40
0
40
0
40
0
40
0.5
40
0.5
40
1
40
1
40
1
40
1
41
1
10
34.0273316097986
20
-1.22915583472897
30
0
41
1
10
34.0594717648268
20
-1.23074005513485
30
0
41
1
10
34.0916050545898
20
-1.23185654934386
30
0
41
1
10
34.1550881589258
20
-1.23202048952902
30
0
41
1
10
34.1865399876922
20
-1.23120634355885
30
0
41
1
10
34.2177334063618
20
-1.22949723728894
30
0
0
SPLINE
5
E8
100
AcDbEntity
8
1
62
256
6
ByLayer
370
18
48
1
60
0
100
AcDbSpline
70
4
71
3
72
8
73
4
40
0
40
0
40
0
40
0
40
1
40
1
40
1
40
1
41
1
10
38.9541178856799
20
1.78615687064385
30
0
41
1
10
38.9640155718849
20
1.80334779123191
30
0
41
1
10
38.9738909643749
20
1.82049319840902
30
0
41
1
10
38.9837872214783
20
1.8375506326247
30
0
0
SPLINE
5
E9
100
AcDbEntity
8
1
62
256
6
ByLayer
370
18
48
1
60
0
100
AcDbSpline
70
4
71
3
72
15
73
11
40
0
40
0
40
0
40
0
40
0.500000000000002
40
0.500000000000002
40
0.750000000000021
40
0.87500000000001
40
0.87500000000001
40
0.937500000000005
40
0.937500000000005
40
1
40
1
40
1
40
1
41
1
10
38.9837872214783
20
1.8375506326247
30
0
41
1
10
39.0043369302123
20
1.87297062032494
30
0
41
1
10
39.0249450212749
20
1.90793930219243
30
0
41
1
10
39.0557803408665
20
1.95989670875221
30
0
41
1
10
39.071161719563
20
1.98576794490057
30
0
41
1
10
39.0862947639302
20
2.01167871930653
30
0
41
1
10
39.0938032128797
20
2.0246582323341
30
0
41
1
10
39.09629301106
20
2.02899248086172
30
0
41
1
10
39.1012670721119
20
2.03765318424831
30
0
41
1
10
39.1037443951285
20
2.041987432231
30
0
41
1
10
39.1063033678167
20
2.04622402987121
30
0
0
SPLINE
5
EA
100
AcDbEntity
8
1
62
256
6
ByLayer
370
18
48
1
60
0
100
AcDbSpline
70
4
71
3
72
44
73
40
40
0
40
0
40
0
40
0
40
0.0965350274141286
40
0.0965350274141286
40
0.186881524672727
40
0.186881524672727
40
0.23205477330202
40
0.23205477330202
40
0.277228021931312
40
0.277228021931312
40
0.322401270560605
40
0.322401270560605
40
0.367574519189898
40
0.367574519189898
40
0.41274776781919
40
0.41274776781919
40
0.457921016448483
40
0.457921016448483
40
0.503094265077776
40
0.503094265077776
40
0.548267513707068
40
0.548267513707068
40
0.570854138021715
40
0.570854138021715
40
0.593440762336361
40
0.593440762336361
40
0.616027386651007
40
0.616027386651007
40
0.638614010965654
40
0.638614010965654
40
0.6612006352803
40
0.6612006352803
40
0.683787259594946
40
0.683787259594946
40
0.72896050822424
40
0.72896050822424
40
0.819307005482826
40
0.819307005482826
40
1
40
1
40
1
40
1
41
1
10
39.3155282779349
20
1.80522878464032
30
0
41
1
10
39.3261799142471
20
1.78704544745006
30
0
41
1
10
39.3368625700547
20
1.76872904083419
30
0
41
1
10
39.3576576397652
20
1.73306618120412
30
0
41
1
10
39.3678203681433
20
1.7157859888967
30
0
41
1
10
39.3829924045912
20
1.68958859766556
30
0
41
1
10
39.388016541266
20
1.68079294110754
30
0
41
1
10
39.3978679841563
20
1.66295175106558
30
0
41
1
10
39.4026572248388
20
1.65387039623207
30
0
41
1
10
39.412621408649
20
1.63601034734992
30
0
41
1
10
39.4178258484312
20
1.62720619235014
30
0
41
1
10
39.4291631392746
20
1.61076425705218
30
0
41
1
10
39.4352994854157
20
1.60313255405126
30
0
41
1
10
39.4488342122575
20
1.58950257813055
30
0
41
1
10
39.4563120379614
20
1.58347578649392
30
0
41
1
10
39.4718693519207
20
1.5735957148938
30
0
41
1
10
39.4799897317597
20
1.56961726366643
30
0
41
1
10
39.4967691195104
20
1.56322434264112
30
0
41
1
10
39.505473254011
20
1.56082730476715
30
0
41
1
10
39.5228170387164
20
1.55801328883271
30
0
41
1
10
39.5315297297681
20
1.55762170537645
30
0
41
1
10
39.5446383545276
20
1.55873518763124
30
0
41
1
10
39.5490395697569
20
1.55938920573723
30
0
41
1
10
39.5576952167081
20
1.56126924617004
30
0
41
1
10
39.5619523400756
20
1.56249037820115
30
0
41
1
10
39.5703028412852
20
1.56556221626818
30
0
41
1
10
39.5743970174047
20
1.56740842019457
30
0
41
1
10
39.5823663278741
20
1.5719283324695
30
0
41
1
10
39.5861669346091
20
1.57459698133721
30
0
41
1
10
39.5932543127122
20
1.58064897471704
30
0
41
1
10
39.5965649619753
20
1.58404544708375
30
0
41
1
10
39.6028368471485
20
1.59138589793477
30
0
41
1
10
39.6058038409184
20
1.59533392579942
30
0
41
1
10
39.6144627016106
20
1.6073926192559
30
0
41
1
10
39.6200891971676
20
1.6155543942096
30
0
41
1
10
39.636951645624
20
1.63992308478504
30
0
41
1
10
39.648019132203
20
1.65618846144585
30
0
41
1
10
39.6809545950285
20
1.70476330138675
30
0
41
1
10
39.702555998319
20
1.73685842672026
30
0
41
1
10
39.7242541921178
20
1.76808245928581
30
0
0
SPLINE
5
EB
100
AcDbEntity
8
1
62
256
6
ByLayer
370
18
48
1
60
0
100
AcDbSpline
70
4
71
3
72
10
73
6
40
0
40
0
40
0
40
0
40
0.5
40
0.5
40
1
40
1
40
1
40
1
41
1
10
39.7242541921178
20
1.76808245928581
30
0
41
1
10
39.7394743262361
20
1.78998446494438
30
0
41
1
10
39.7547211626074
20
1.81142527313708
30
0
41
1
10
39.7851951609785
20
1.85352177388196
30
0
41
1
10
39.800454433379
20
1.87413501980697
30
0
41
1
10
39.8154881882379
20
1.89466525057472
30
0
0
SPLINE
5
EC
100
AcDbEntity
8
1
62
256
6
ByLayer
370
18
48
1
60
0
100
AcDbSpline
70
4
71
3
72
8
73
4
40
0
40
0
40
0
40
0
40
1
40
1
40
1
40
1
41
1
10
39.8154881882378
20
1.89466525057483
30
0
41
1
10
39.8641799004519
20
1.86985616870572
30
0
41
1
10
39.9131752757383
20
1.8434728914371
30
0
41
1
10
39.9624396668279
20
1.81552204545648
30
0
0
SPLINE
5
ED
100
AcDbEntity
8
1
62
256
6
ByLayer
370
18
48
1
60
0
100
AcDbSpline
70
4
71
3
72
45
73
41
40
0
40
0
40
0
40
0
40
0.249999999999989
40
0.249999999999989
40
0.312499999999989
40
0.312499999999989
40
0.374999999999988
40
0.374999999999988
40
0.406249999999993
40
0.406249999999993
40
0.437499999999998
40
0.468750000000003
40
0.468750000000003
40
0.500000000000008
40
0.500000000000008
40
0.531250000000013
40
0.531250000000013
40
0.562500000000018
40
0.562500000000018
40
0.593750000000023
40
0.593750000000023
40
0.625000000000028
40
0.625000000000028
40
0.656250000000033
40
0.656250000000033
40
0.687500000000039
40
0.687500000000039
40
0.703125000000041
40
0.703125000000041
40
0.718750000000043
40
0.718750000000043
40
0.750000000000034
40
0.750000000000034
40
0.765625000000029
40
0.765625000000029
40
0.781250000000025
40
0.812500000000026
40
0.875000000000018
40
0.875000000000018
40
1
40
1
40
1
40
1
41
1
10
39.9624396668279
20
1.81552204545645
30
0
41
1
10
39.9975108552739
20
1.7471247329805
30
0
41
1
10
40.0327220946314
20
1.67825860582315
30
0
41
1
10
40.0770231692701
20
1.59163354178142
30
0
41
1
10
40.0859089707675
20
1.57428916966356
30
0
41
1
10
40.1037767396841
20
1.53959185658118
30
0
41
1
10
40.112810747718
20
1.52227563302321
30
0
41
1
10
40.1262090309058
20
1.49613464026692
30
0
41
1
10
40.1306399150812
20
1.48738632135584
30
0
41
1
10
40.1393430878209
20
1.46975819891472
30
0
41
1
10
40.147883149681
20
1.45199558933135
30
0
41
1
10
40.1570358649562
20
1.43462500038055
30
0
41
1
10
40.1669514334439
20
1.41777065429912
30
0
41
1
10
40.1723352168802
20
1.4095645986711
30
0
41
1
10
40.1838997640606
20
1.39432843554323
30
0
41
1
10
40.1900950474547
20
1.38725968897037
30
0
41
1
10
40.2033427184203
20
1.37427523112228
30
0
41
1
10
40.2104569900112
20
1.36832865395823
30
0
41
1
10
40.224978242796
20
1.35775458801439
30
0
41
1
10
40.2324149746024
20
1.35306856964391
30
0
41
1
10
40.2476077197824
20
1.34485157420775
30
0
41
1
10
40.2554309104118
20
1.34130008107155
30
0
41
1
10
40.2709882621743
20
1.33582204131784
30
0
41
1
10
40.2787412804151
20
1.33389977319135
30
0
41
1
10
40.2941702665138
20
1.33167414310836
30
0
41
1
10
40.3018974326368
20
1.33137400820576
30
0
41
1
10
40.3129101046187
20
1.33243090190049
30
0
41
1
10
40.3165005163483
20
1.33303256529592
30
0
41
1
10
40.3234713491848
20
1.33488379463162
30
0
41
1
10
40.3268702101842
20
1.33616306711346
30
0
41
1
10
40.3364084465796
20
1.34093649081856
30
0
41
1
10
40.3419391628186
20
1.3454192198536
30
0
41
1
10
40.3497338332687
20
1.35287775402401
30
0
41
1
10
40.3522599432681
20
1.35545990032932
30
0
41
1
10
40.3573150593818
20
1.36058315447516
30
0
41
1
10
40.3648656405944
20
1.36827115482143
30
0
41
1
10
40.3822875302981
20
1.386195729344
30
0
41
1
10
40.3969667565276
20
1.40143217999747
30
0
41
1
10
40.4261476113387
20
1.43153323985175
30
0
41
1
10
40.4453684823998
20
1.45111304399407
30
0
41
1
10
40.464664222354
20
1.46974310579563
30
0
0
SPLINE
5
EE
100
AcDbEntity
8
1
62
256
6
ByLayer
370
18
48
1
60
0
100
AcDbSpline
70
4
71
3
72
8
73
4
40
0
40
0
40
0
40
0
40
1
40
1
40
1
40
1
41
1
10
40.464664222354
20
1.46974310579563
30
0
41
1
10
40.4678115505031
20
1.4727818551811
30
0
41
1
10
40.470960006676
20
1.47579441508972
30
0
41
1
10
40.4741092947045
20
1.47878136771229
30
0
0
SPLINE
5
EF
100
AcDbEntity
8
1
62
256
6
ByLayer
370
18
48
1
60
0
100
AcDbSpline
70
4
71
3
72
10
73
6
40
0
40
0
40
0
40
0
40
0.5
40
0.5
40
1
40
1
40
1
40
1
41
1
10
40.4741092947045
20
1.47878136771231
30
0
41
1
10
40.5296957194846
20
1.43798208433739
30
0
41
1
10
40.5855371406555
20
1.39588907229327
30
0
41
1
10
40.6977689440689
20
1.30920509309328
30
0
41
1
10
40.7541496214479
20
1.26460719829007
30
0
41
1
10
40.8109215253849
20
1.21881068081657
30
0
0
SPLINE
5
F0
100
AcDbEntity
8
1
62
256
6
ByLayer
370
18
48
1
60
0
100
AcDbSpline
70
4
71
3
72
40
73
36
40
0
40
0
40
0
40
0
40
0.124999999999985
40
0.124999999999985
40
0.249999999999971
40
0.249999999999971
40
0.312499999999964
40
0.312499999999964
40
0.374999999999956
40
0.374999999999956
40
0.437499999999949
40
0.437499999999949
40
0.499999999999942
40
0.499999999999942
40
0.562499999999935
40
0.562499999999935
40
0.593749999999946
40
0.593749999999946
40
0.624999999999957
40
0.624999999999957
40
0.687499999999979
40
0.687499999999979
40
0.718749999999975
40
0.718749999999975
40
0.749999999999971
40
0.749999999999971
40
0.781249999999968
40
0.781249999999968
40
0.812499999999964
40
0.812499999999964
40
0.843749999999961
40
0.843749999999961
40
0.874999999999957
40
0.874999999999957
40
1
40
1
40
1
40
1
41
1
10
40.8109215253849
20
1.21881068081657
30
0
41
1
10
40.8214367571034
20
1.1983900373047
30
0
41
1
10
40.8319920836701
20
1.1780390123798
30
0
41
1
10
40.8532602666208
20
1.13749994280556
30
0
41
1
10
40.8640350163286
20
1.11732882150639
30
0
41
1
10
40.8795721487941
20
1.08699635786905
30
0
41
1
10
40.8846163127488
20
1.07686440208394
30
0
41
1
10
40.8952050954428
20
1.05676680788486
30
0
41
1
10
40.900783738937
20
1.04675832995591
30
0
41
1
10
40.9130379221755
20
1.02736677708384
30
0
41
1
10
40.9197018575732
20
1.01800290101892
30
0
41
1
10
40.9343888261969
20
1.00010823535786
30
0
41
1
10
40.9424951833998
20
0.991518985322131
30
0
41
1
10
40.9592493760849
20
0.975863340350969
30
0
41
1
10
40.9679412346135
20
0.968651756604345
30
0
41
1
10
40.9813836798908
20
0.958650464305009
30
0
41
1
10
40.9859568517799
20
0.955442555051093
30
0
41
1
10
40.9950927681666
20
0.949436029557688
30
0
41
1
10
40.9996628120173
20
0.946629742548453
30
0
41
1
10
41.0133706934326
20
0.93886554643376
30
0
41
1
10
41.0225062886652
20
0.934565965861651
30
0
41
1
10
41.0361724084987
20
0.929468219259689
30
0
41
1
10
41.0407272624267
20
0.928000394181737
30
0
41
1
10
41.0495686313455
20
0.925663259075407
30
0
41
1
10
41.0538856298149
20
0.924778125619753
30
0
41
1
10
41.0622485938072
20
0.923730627038111
30
0
41
1
10
41.0663229849947
20
0.923599918010581
30
0
41
1
10
41.0738759885065
20
0.924203759545463
30
0
41
1
10
41.0773722755596
20
0.924925083155216
30
0
41
1
10
41.083960376392
20
0.926959574145059
30
0
41
1
10
41.0870560754504
20
0.928270429740508
30
0
41
1
10
41.0931091608957
20
0.931046807555248
30
0
41
1
10
41.0960901563651
20
0.932473841401332
30
0
41
1
10
41.1109842064215
20
0.939512897984628
30
0
41
1
10
41.1226807508592
20
0.945083845831363
30
0
41
1
10
41.1342664520241
20
0.950459126072616
30
0
0
SPLINE
5
F1
100
AcDbEntity
8
1
62
256
6
ByLayer
370
18
48
1
60
0
100
AcDbSpline
70
4
71
3
72
20
73
16
40
0
40
0
40
0
40
0
40
0.0124431322194512
40
0.0124431322194512
40
0.0782802567381945
40
0.0782802567381945
40
0.111198818997556
40
0.111198818997556
40
0.144117381256917
40
0.144117381256917
40
0.209954505775619
40
0.209954505775619
40
0.473303003850406
40
0.473303003850406
40
1
40
1
40
1
40
1
41
1
10
39.752698131792
20
-1.63570059182146
30
0
41
1
10
39.7514988217598
20
-1.63724462197217
30
0
41
1
10
39.7503228992622
20
-1.63882200560499
30
0
41
1
10
39.7430635292292
20
-1.64893702017034
30
0
41
1
10
39.7376845486868
20
-1.65806010171337
30
0
41
1
10
39.7298400814132
20
-1.67191207304694
30
0
41
1
10
39.7272636737363
20
-1.67655811936888
30
0
41
1
10
39.7220500577041
20
-1.68578645546504
30
0
41
1
10
39.7194052752941
20
-1.69036204679767
30
0
41
1
10
39.711386196586
20
-1.70399851600129
30
0
41
1
10
39.7059313425984
20
-1.71297272259247
30
0
41
1
10
39.6786374130753
20
-1.75772093535778
30
0
41
1
10
39.6571107969268
20
-1.79346889464915
30
0
41
1
10
39.5926664894003
20
-1.89943234178026
30
0
41
1
10
39.5498538353818
20
-1.96856044565339
30
0
41
1
10
39.5075377447844
20
-2.03598688977502
30
0
0
SPLINE
5
F2
100
AcDbEntity
8
1
62
256
6
ByLayer
370
18
48
1
60
0
100
AcDbSpline
70
4
71
3
72
46
73
42
40
0
40
0
40
0
40
0
40
0.124999999999939
40
0.124999999999939
40
0.249999999999878
40
0.249999999999878
40
0.281249999999856
40
0.281249999999856
40
0.312499999999834
40
0.312499999999834
40
0.328124999999829
40
0.328124999999829
40
0.343749999999824
40
0.343749999999824
40
0.374999999999814
40
0.374999999999814
40
0.390624999999801
40
0.390624999999801
40
0.406249999999789
40
0.406249999999789
40
0.43749999999978
40
0.43749999999978
40
0.453124999999775
40
0.453124999999775
40
0.468749999999771
40
0.468749999999771
40
0.499999999999777
40
0.499999999999777
40
0.531249999999784
40
0.531249999999784
40
0.56249999999979
40
0.56249999999979
40
0.578124999999793
40
0.578124999999793
40
0.593749999999797
40
0.593749999999797
40
0.624999999999814
40
0.624999999999814
40
0.749999999999872
40
0.749999999999872
40
1
40
1
40
1
40
1
41
1
10
36.3556483294231
20
0.196067093437534
30
0
41
1
10
36.3370049415585
20
0.217139129507984
30
0
41
1
10
36.3184307082804
20
0.237323320669503
30
0
41
1
10
36.2809228021944
20
0.27623434407198
30
0
41
1
10
36.2620038096914
20
0.294952595521522
30
0
41
1
10
36.2377130757592
20
0.317651320652374
30
0
41
1
10
36.2328901457499
20
0.322111263320409
30
0
41
1
10
36.2225457827198
20
0.331387772071793
30
0
41
1
10
36.2169715872231
20
0.336238978964445
30
0
41
1
10
36.2076211581482
20
0.344101478203015
30
0
41
1
10
36.2043433821153
20
0.346817329581569
30
0
41
1
10
36.1974790019025
20
0.352431824138932
30
0
41
1
10
36.1938935957729
20
0.355329905779854
30
0
41
1
10
36.1829568021871
20
0.364084337178326
30
0
41
1
10
36.1753574342954
20
0.37005730394111
30
0
41
1
10
36.1635241879783
20
0.379232419503893
30
0
41
1
10
36.1595058898903
20
0.382327680689201
30
0
41
1
10
36.1513087094004
20
0.388605840022762
30
0
41
1
10
36.1471079790497
20
0.391804945102621
30
0
41
1
10
36.1345013476453
20
0.401363654548788
30
0
41
1
10
36.1260397192563
20
0.407726176244154
30
0
41
1
10
36.1132895379265
20
0.417290790071945
30
0
41
1
10
36.1090296591716
20
0.420482473335198
30
0
41
1
10
36.1004923889466
20
0.426880306071865
30
0
41
1
10
36.0961839501963
20
0.430109723924545
30
0
41
1
10
36.0834782829218
20
0.439650502925446
30
0
41
1
10
36.0753803375279
20
0.445754228981542
30
0
41
1
10
36.0601521964348
20
0.45737129741488
30
0
41
1
10
36.0534137715772
20
0.462588398085046
30
0
41
1
10
36.0412298375117
20
0.472192314445465
30
0
41
1
10
36.0358001716336
20
0.476564373319519
30
0
41
1
10
36.0279451848667
20
0.483000913610823
30
0
41
1
10
36.0253682310902
20
0.485131733091975
30
0
41
1
10
36.020159927792
20
0.489469188661047
30
0
41
1
10
36.0175192763068
20
0.491683061648786
30
0
41
1
10
36.0095090875984
20
0.498444696966516
30
0
41
1
10
36.0040586520085
20
0.503106981029049
30
0
41
1
10
35.976776918744
20
0.526792013711258
30
0
41
1
10
35.955250310055
20
0.546632707202832
30
0
41
1
10
35.8908289264194
20
0.609221362380367
30
0
41
1
10
35.8480494245867
20
0.655088516075381
30
0
41
1
10
35.8057613213025
20
0.704407123041534
30
0
0
SPLINE
5
F3
100
AcDbEntity
8
1
62
256
6
ByLayer
370
18
48
1
60
0
100
AcDbSpline
70
4
71
3
72
15
73
11
40
0
40
0
40
0
40
0
40
0.0624999999999961
40
0.0624999999999961
40
0.124999999999992
40
0.124999999999992
40
0.249999999999985
40
0.499999999999999
40
0.499999999999999
40
1
40
1
40
1
40
1
41
1
10
35.7432784008283
20
0.762998441695686
30
0
41
1
10
35.7405914730191
20
0.764815308010782
30
0
41
1
10
35.7379971073677
20
0.76650780644664
30
0
41
1
10
35.7327897860062
20
0.769875737610107
30
0
41
1
10
35.7301861266807
20
0.771540558726144
30
0
41
1
10
35.7223341201104
20
0.77652364546347
30
0
41
1
10
35.7065165857467
20
0.786387635103551
30
0
41
1
10
35.6904578825633
20
0.795824271570837
30
0
41
1
10
35.6582666221926
20
0.813831474559294
30
0
41
1
10
35.6367420086009
20
0.824638067919636
30
0
41
1
10
35.6152849226926
20
0.834077456941941
30
0
0
SPLINE
5
F4
100
AcDbEntity
8
1
62
256
6
ByLayer
370
18
48
1
60
0
100
AcDbSpline
70
4
71
3
72
48
73
44
40
0
40
0
40
0
40
0
40
0.125000000000039
40
0.125000000000039
40
0.250000000000079
40
0.250000000000079
40
0.281250000000089
40
0.281250000000089
40
0.312500000000098
40
0.312500000000098
40
0.328125000000103
40
0.328125000000103
40
0.343750000000108
40
0.343750000000108
40
0.375000000000118
40
0.375000000000118
40
0.390625000000116
40
0.390625000000116
40
0.406250000000113
40
0.406250000000113
40
0.437500000000124
40
0.437500000000124
40
0.453125000000129
40
0.453125000000129
40
0.468750000000134
40
0.468750000000134
40
0.500000000000144
40
0.500000000000144
40
0.515625000000149
40
0.515625000000149
40
0.531250000000155
40
0.531250000000155
40
0.562500000000154
40
0.562500000000154
40
0.578125000000153
40
0.578125000000153
40
0.593750000000153
40
0.593750000000153
40
0.625000000000141
40
0.625000000000141
40
0.750000000000094
40
0.750000000000094
40
1
40
1
40
1
40
1
41
1
10
35.6152849226926
20
0.834077456941941
30
0
41
1
10
35.5966189160675
20
0.842288995954306
30
0
41
1
10
35.578023258252
20
0.849465283030071
30
0
41
1
10
35.5404796351623
20
0.862203068913232
30
0
41
1
10
35.5215469304303
20
0.867750661542829
30
0
41
1
10
35.4972492162156
20
0.87400557171884
30
0
41
1
10
35.492424206757
20
0.875147273984481
30
0
41
1
10
35.482068889534
20
0.878055529648549
30
0
41
1
10
35.4764889963249
20
0.879878832012395
30
0
41
1
10
35.4671401020047
20
0.883585034911562
30
0
41
1
10
35.4638645166663
20
0.884978186612813
30
0
41
1
10
35.4570096431811
20
0.888066057373663
30
0
41
1
10
35.4534257862996
20
0.889760136095958
30
0
41
1
10
35.4424910230238
20
0.895127623145783
30
0
41
1
10
35.4348975780815
20
0.899105546284062
30
0
41
1
10
35.4230812919687
20
0.905668009189355
30
0
41
1
10
35.4190700157935
20
0.907957110647629
30
0
41
1
10
35.4108901872089
20
0.912766573914297
30
0
41
1
10
35.4066980938405
20
0.915303904617474
30
0
41
1
10
35.3941080240313
20
0.923158295211806
30
0
41
1
10
35.3856612682031
20
0.928720550123302
30
0
41
1
10
35.3729385667517
20
0.937576463927826
30
0
41
1
10
35.3686887178685
20
0.940615209470394
30
0
41
1
10
35.3601733371131
20
0.946896375731598
30
0
41
1
10
35.3558802484791
20
0.950159735223792
30
0
41
1
10
35.3431786310494
20
0.960195759020195
30
0
41
1
10
35.3350879952224
20
0.967119989467733
30
0
41
1
10
35.3236835252141
20
0.977976100804824
30
0
41
1
10
35.3200674270311
20
0.981613136862222
30
0
41
1
10
35.3132687019254
20
0.98881762634025
30
0
41
1
10
35.3100667830328
20
0.992403171543941
30
0
41
1
10
35.3009251167548
20
1.00312824505164
30
0
41
1
10
35.295489106063
20
1.01018691382973
30
0
41
1
10
35.287634849865
20
1.02070939054752
30
0
41
1
10
35.285059310736
20
1.02421538885818
30
0
41
1
10
35.2798564453965
20
1.03126897728535
30
0
41
1
10
35.2772192161215
20
1.03481986653276
30
0
41
1
10
35.269217300021
20
1.04553987634378
30
0
41
1
10
35.263771297605
20
1.05277352583852
30
0
41
1
10
35.2365052936105
20
1.08920805079896
30
0
41
1
10
35.2149844008031
20
1.11908708954451
30
0
41
1
10
35.150580710002
20
1.21085097440152
30
0
41
1
10
35.107802373146
20
1.27495832835419
30
0
41
1
10
35.0655068716064
20
1.34136563621908
30
0
0
SPLINE
5
F5
100
AcDbEntity
8
1
62
256
6
ByLayer
370
18
48
1
60
0
100
AcDbSpline
70
4
71
3
72
15
73
11
40
0
40
0
40
0
40
0
40
0.0624999999999983
40
0.0624999999999983
40
0.124999999999997
40
0.124999999999997
40
0.249999999999993
40
0.499999999999986
40
0.499999999999986
40
1
40
1
40
1
40
1
41
1
10
35.0022553324633
20
1.38872537006949
30
0
41
1
10
34.9995905010524
20
1.38853915224476
30
0
41
1
10
34.997005821272
20
1.38822248473048
30
0
41
1
10
34.9918175459684
20
1.3875748882638
30
0
41
1
10
34.9892208908348
20
1.38723436153282
30
0
41
1
10
34.9813931764118
20
1.38620353337879
30
0
41
1
10
34.9656273869905
20
1.38405164549852
30
0
41
1
10
34.9496273627288
20
1.38148978253793
30
0
41
1
10
34.917558528272
20
1.37547558330246
30
0
41
1
10
34.8961201202511
20
1.37022171519837
30
0
41
1
10
34.8747514340254
20
1.36357378823021
30
0
0
SPLINE
5
F6
100
AcDbEntity
8
1
62
256
6
ByLayer
370
18
48
1
60
0
100
AcDbSpline
70
4
71
3
72
48
73
44
40
0
40
0
40
0
40
0
40
0.250000000000033
40
0.250000000000033
40
0.312500000000044
40
0.312500000000044
40
0.343750000000043
40
0.343750000000043
40
0.375000000000042
40
0.375000000000042
40
0.406250000000042
40
0.406250000000042
40
0.437500000000041
40
0.437500000000041
40
0.468750000000041
40
0.468750000000041
40
0.50000000000004
40
0.50000000000004
40
0.53125000000004
40
0.53125000000004
40
0.562500000000039
40
0.562500000000039
40
0.593750000000039
40
0.593750000000039
40
0.625000000000038
40
0.625000000000038
40
0.656250000000038
40
0.656250000000038
40
0.671875000000037
40
0.671875000000037
40
0.687500000000037
40
0.687500000000037
40
0.718750000000036
40
0.718750000000036
40
0.750000000000035
40
0.750000000000035
40
0.781250000000034
40
0.781250000000034
40
0.812500000000033
40
0.812500000000033
40
0.875000000000017
40
0.875000000000017
40
1
40
1
40
1
40
1
41
1
10
34.8747514340254
20
1.36357378823021
30
0
41
1
10
34.8475062376811
20
1.35509764357551
30
0
41
1
10
34.8203866948845
20
1.34438208471656
30
0
41
1
10
34.7857049970029
20
1.32931728744509
30
0
41
1
10
34.7787276104296
20
1.32622075708088
30
0
41
1
10
34.7681725390308
20
1.32147734210952
30
0
41
1
10
34.7646391555987
20
1.31987977930908
30
0
41
1
10
34.7575375331269
20
1.3166578292464
30
0
41
1
10
34.7539996181697
20
1.31499552737713
30
0
41
1
10
34.746658844315
20
1.31193351435908
30
0
41
1
10
34.7428323302735
20
1.31056347564783
30
0
41
1
10
34.7345363617134
20
1.3085595758435
30
0
41
1
10
34.7300660417384
20
1.30792693033408
30
0
41
1
10
34.7203518582711
20
1.30756581479721
30
0
41
1
10
34.7152149006675
20
1.30783114788611
30
0
41
1
10
34.7046005660713
20
1.30902615638468
30
0
41
1
10
34.6991057175957
20
1.30995999094756
30
0
41
1
10
34.687762946407
20
1.31247663806977
30
0
41
1
10
34.6818844451906
20
1.31406967274106
30
0
41
1
10
34.6698711761392
20
1.31797098857473
30
0
41
1
10
34.6637941988562
20
1.32027193001741
30
0
41
1
10
34.6515132456075
20
1.32558318116961
30
0
41
1
10
34.6453112444149
20
1.32858164570871
30
0
41
1
10
34.6327945116388
20
1.33529847234658
30
0
41
1
10
34.6264268812073
20
1.33904954834128
30
0
41
1
10
34.613896838664
20
1.34724910568895
30
0
41
1
10
34.6077306807885
20
1.35169301199906
30
0
41
1
10
34.5986998790548
20
1.35909293856318
30
0
41
1
10
34.5957060239903
20
1.36170099059373
30
0
41
1
10
34.5899256793704
20
1.36707553834799
30
0
41
1
10
34.587136906301
20
1.36984126424824
30
0
41
1
10
34.5790663595027
20
1.37836772235624
30
0
41
1
10
34.5740846870034
20
1.38436108887828
30
0
41
1
10
34.5647762092902
20
1.39685755725887
30
0
41
1
10
34.5605536890067
20
1.40321039436338
30
0
41
1
10
34.5525513592102
20
1.41599590573833
30
0
41
1
10
34.5487659139078
20
1.42243720911514
30
0
41
1
10
34.5411961153472
20
1.43534632804983
30
0
41
1
10
34.5373756720665
20
1.44180842291857
30
0
41
1
10
34.5256722493489
20
1.46119654060996
30
0
41
1
10
34.5176476469848
20
1.47414078894658
30
0
41
1
10
34.4938147812813
20
1.51317614043555
30
0
41
1
10
34.4780981675066
20
1.53944408959143
30
0
41
1
10
34.4624242224481
20
1.56587534555837
30
0
0
SPLINE
5
F7
100
AcDbEntity
8
1
62
256
6
ByLayer
370
18
48
1
60
0
100
AcDbSpline
70
4
71
3
72
8
73
4
40
0
40
0
40
0
40
0
40
1
40
1
40
1
40
1
41
1
10
25.2874350020693
20
-1.1636535688755
30
0
41
1
10
25.2862580471581
20
-1.19083442689239
30
0
41
1
10
25.2861906523895
20
-1.21856594875021
30
0
41
1
10
25.287158574631
20
-1.24681128830883
30
0
0
SPLINE
5
F8
100
AcDbEntity
8
1
62
256
6
ByLayer
370
18
48
1
60
0
100
AcDbSpline
70
4
71
3
72
49
73
45
40
0
40
0
40
0
40
0
40
0.250000000000002
40
0.250000000000002
40
0.375000000000003
40
0.375000000000003
40
0.4375
40
0.4375
40
0.468749999999998
40
0.468749999999998
40
0.499999999999996
40
0.499999999999996
40
0.531249999999994
40
0.531249999999994
40
0.562499999999992
40
0.562499999999992
40
0.578124999999991
40
0.578124999999991
40
0.59374999999999
40
0.59374999999999
40
0.624999999999988
40
0.624999999999988
40
0.656249999999986
40
0.656249999999986
40
0.687499999999983
40
0.687499999999983
40
0.703124999999982
40
0.703124999999982
40
0.718749999999981
40
0.718749999999981
40
0.73437499999998
40
0.73437499999998
40
0.749999999999979
40
0.749999999999979
40
0.765624999999978
40
0.765624999999978
40
0.781249999999977
40
0.781249999999977
40
0.796874999999976
40
0.796874999999976
40
0.812499999999975
40
0.87499999999998
40
0.87499999999998
40
1
40
1
40
1
40
1
41
1
10
35.9613220387508
20
-1.76670642577392
30
0
41
1
10
36.0002959922486
20
-1.737467355864
30
0
41
1
10
36.0396487968961
20
-1.70476079922176
30
0
41
1
10
36.0990744517427
20
-1.65029086437622
30
0
41
1
10
36.118906349475
20
-1.63117722143582
30
0
41
1
10
36.1489669855373
20
-1.60136654864371
30
0
41
1
10
36.1590868915638
20
-1.59131135689572
30
0
41
1
10
36.1742033471722
20
-1.57578104670873
30
0
41
1
10
36.1792119479958
20
-1.57050564051715
30
0
41
1
10
36.1890412520657
20
-1.55960248336626
30
0
41
1
10
36.1938180156793
20
-1.55392167154798
30
0
41
1
10
36.2037214523769
20
-1.54286357815747
30
0
41
1
10
36.2088595330923
20
-1.53749985375248
30
0
41
1
10
36.2200550596105
20
-1.5279748678208
30
0
41
1
10
36.2261238328675
20
-1.52381563739024
30
0
41
1
10
36.2362230739307
20
-1.51890257752373
30
0
41
1
10
36.2397770161612
20
-1.51747827793127
30
0
41
1
10
36.2470761014337
20
-1.51515513310912
30
0
41
1
10
36.2508282402
20
-1.51424836600393
30
0
41
1
10
36.2623691098727
20
-1.5122435671164
30
0
41
1
10
36.2704345852115
20
-1.51183644845179
30
0
41
1
10
36.2871594450702
20
-1.51254433490516
30
0
41
1
10
36.2958467734068
20
-1.51368862814101
30
0
41
1
10
36.3131947928888
20
-1.51765718079338
30
0
41
1
10
36.3219350905812
20
-1.52052818043901
30
0
41
1
10
36.3351292825489
20
-1.52639416412035
30
0
41
1
10
36.3395585773209
20
-1.52861380851317
30
0
41
1
10
36.3482506740145
20
-1.53349725461442
30
0
41
1
10
36.3525335904634
20
-1.53616703915833
30
0
41
1
10
36.3609521631794
20
-1.54202045653693
30
0
41
1
10
36.3650889264419
20
-1.54520088486618
30
0
41
1
10
36.3731657248723
20
-1.55223721441311
30
0
41
1
10
36.3769796480739
20
-1.55601126061995
30
0
41
1
10
36.3841481473783
20
-1.56408190080901
30
0
41
1
10
36.3875033467635
20
-1.56837773138017
30
0
41
1
10
36.3938569045475
20
-1.5773727776527
30
0
41
1
10
36.3968612432158
20
-1.58207927655838
30
0
41
1
10
36.4026767745811
20
-1.59157674915278
30
0
41
1
10
36.4055185474081
20
-1.59636604637896
30
0
41
1
10
36.411210680075
20
-1.60593769317816
30
0
41
1
10
36.4253749763041
20
-1.62990426752628
30
0
41
1
10
36.4392636324749
20
-1.65402415506628
30
0
41
1
10
36.4723287161284
20
-1.71204330556995
30
0
41
1
10
36.4940129003189
20
-1.75089910864216
30
0
41
1
10
36.5158011881264
20
-1.78956940184977
30
0
0
SPLINE
5
F9
100
AcDbEntity
8
1
62
256
6
ByLayer
370
18
48
1
60
0
100
AcDbSpline
70
4
71
3
72
15
73
11
40
0
40
0
40
0
40
0
40
0.5
40
0.5
40
0.750000000000001
40
0.874999999999979
40
0.874999999999979
40
0.937499999999989
40
0.937499999999989
40
1
40
1
40
1
40
1
41
1
10
36.5158011881264
20
-1.78956940184972
30
0
41
1
10
36.5364304601138
20
-1.82618265037371
30
0
41
1
10
36.5571222772747
20
-1.86255760996065
30
0
41
1
10
36.5880808893942
20
-1.91690419518278
30
0
41
1
10
36.6035224427225
20
-1.94403742398441
30
0
41
1
10
36.6187081385444
20
-1.97126730091884
30
0
41
1
10
36.6262412506198
20
-1.98491194865301
30
0
41
1
10
36.6287378755613
20
-1.98946905892902
30
0
41
1
10
36.6337325314632
20
-1.99857445365294
30
0
41
1
10
36.6362204180527
20
-2.00313146940243
30
0
41
1
10
36.6388058701422
20
-2.00759649523116
30
0
0
SPLINE
5
FA
100
AcDbEntity
8
1
62
256
6
ByLayer
370
18
48
1
60
0
100
AcDbSpline
70
4
71
3
72
47
73
43
40
0
40
0
40
0
40
0
40
0.249999999999978
40
0.249999999999978
40
0.374999999999971
40
0.374999999999971
40
0.437499999999968
40
0.437499999999968
40
0.468749999999971
40
0.468749999999971
40
0.499999999999974
40
0.499999999999974
40
0.531249999999977
40
0.531249999999977
40
0.56249999999998
40
0.56249999999998
40
0.593749999999983
40
0.593749999999983
40
0.624999999999986
40
0.624999999999986
40
0.640624999999988
40
0.640624999999988
40
0.656249999999989
40
0.656249999999989
40
0.687499999999992
40
0.687499999999992
40
0.718749999999995
40
0.718749999999995
40
0.734374999999997
40
0.734374999999997
40
0.749999999999998
40
0.749999999999998
40
0.765625
40
0.765625
40
0.781250000000001
40
0.781250000000001
40
0.796875000000003
40
0.796875000000003
40
0.812500000000004
40
0.875
40
0.875
40
1
40
1
40
1
40
1
41
1
10
36.7014062460623
20
-2.01901644765218
30
0
41
1
10
36.740357041159
20
-1.96521177643348
30
0
41
1
10
36.7796894128942
20
-1.90874640302326
30
0
41
1
10
36.8392068463302
20
-1.81992792620747
30
0
41
1
10
36.8590957314395
20
-1.78957631363093
30
0
41
1
10
36.8891962703134
20
-1.74334460475183
30
0
41
1
10
36.8993303956978
20
-1.72786944774401
30
0
41
1
10
36.9144769965284
20
-1.70432753570765
30
0
41
1
10
36.9194971057434
20
-1.69640356156904
30
0
41
1
10
36.9293522311419
20
-1.68026176802272
30
0
41
1
10
36.9341416589197
20
-1.67199400308257
30
0
41
1
10
36.9440645594507
20
-1.65574853267003
30
0
41
1
10
36.9492074915771
20
-1.64778110803999
30
0
41
1
10
36.9605232068589
20
-1.63288412549142
30
0
41
1
10
36.9666350236499
20
-1.62607014134653
30
0
41
1
10
36.9799951700867
20
-1.61425674001038
30
0
41
1
10
36.9872802521411
20
-1.6092286681461
30
0
41
1
10
37.0029176011371
20
-1.60113299230702
30
0
41
1
10
37.0110436842521
20
-1.59812434062303
30
0
41
1
10
37.0235791682614
20
-1.59481951583211
30
0
41
1
10
37.0278173737298
20
-1.59392706953074
30
0
41
1
10
37.0364128417912
20
-1.59257618608305
30
0
41
1
10
37.0407907706596
20
-1.59211731593785
30
0
41
1
10
37.0539237293582
20
-1.59148560488353
30
0
41
1
10
37.062685557434
20
-1.59208413286106
30
0
41
1
10
37.080183366002
20
-1.59553888189728
30
0
41
1
10
37.0890014433952
20
-1.59838105291053
30
0
41
1
10
37.1016001008089
20
-1.60440149465111
30
0
41
1
10
37.1057114915723
20
-1.60670451392866
30
0
41
1
10
37.1137028369239
20
-1.61208136909158
30
0
41
1
10
37.1175861771586
20
-1.61520188633182
30
0
41
1
10
37.1247793627
20
-1.62208893348603
30
0
41
1
10
37.1281293168189
20
-1.62587553600085
30
0
41
1
10
37.1344573458998
20
-1.63396034196785
30
0
41
1
10
37.1374399650369
20
-1.63826141289746
30
0
41
1
10
37.1432427128319
20
-1.64702932241548
30
0
41
1
10
37.146081984767
20
-1.65146801165744
30
0
41
1
10
37.1517673147674
20
-1.6603217836973
30
0
41
1
10
37.1659146624809
20
-1.6824815262645
30
0
41
1
10
37.179786286626
20
-1.70471493971948
30
0
41
1
10
37.2128088380608
20
-1.7579627986359
30
0
41
1
10
37.2344675008979
20
-1.793322375662
30
0
41
1
10
37.2562243005196
20
-1.82799795801634
30
0
0
SPLINE
5
FB
100
AcDbEntity
8
1
62
256
6
ByLayer
370
18
48
1
60
0
100
AcDbSpline
70
4
71
3
72
15
73
11
40
0
40
0
40
0
40
0
40
0.499999999999965
40
0.499999999999965
40
0.749999999999967
40
0.874999999999985
40
0.874999999999985
40
0.937499999999993
40
0.937499999999993
40
1
40
1
40
1
40
1
41
1
10
37.2562243005196
20
-1.82799795801637
30
0
41
1
10
37.2769062790467
20
-1.860960510512
30
0
41
1
10
37.2976480362507
20
-1.89323829925297
30
0
41
1
10
37.3286785677005
20
-1.94086932058653
30
0
41
1
10
37.3441550239924
20
-1.9645103166859
30
0
41
1
10
37.3593741478748
20
-1.98813963892627
30
0
41
1
10
37.3669236585223
20
-1.99997416936554
30
0
41
1
10
37.3694252696102
20
-2.00392879101452
30
0
41
1
10
37.3744327765267
20
-2.01181203889669
30
0
41
1
10
37.3769274972645
20
-2.0157555697206
30
0
41
1
10
37.3795272617427
20
-2.01954975142064
30
0
0
SPLINE
5
FC
100
AcDbEntity
8
1
62
256
6
ByLayer
370
18
48
1
60
0
100
AcDbSpline
70
4
71
3
72
8
73
4
40
0
40
0
40
0
40
0
40
1
40
1
40
1
40
1
41
1
10
37.4415069597301
20
-2.00834353959775
30
0
41
1
10
37.4208202187191
20
-2.01239124642194
30
0
41
1
10
37.4001653603565
20
-2.01612735257791
30
0
41
1
10
37.3795272617427
20
-2.01954975142061
30
0
0
SPLINE
5
FD
100
AcDbEntity
8
1
62
256
6
ByLayer
370
18
48
1
60
0
100
AcDbSpline
70
4
71
3
72
48
73
44
40
0
40
0
40
0
40
0
40
0.250000000000053
40
0.250000000000053
40
0.37500000000008
40
0.37500000000008
40
0.437500000000093
40
0.437500000000093
40
0.4687500000001
40
0.4687500000001
40
0.500000000000107
40
0.500000000000107
40
0.531250000000114
40
0.531250000000114
40
0.562500000000121
40
0.562500000000121
40
0.578125000000124
40
0.578125000000124
40
0.593750000000128
40
0.593750000000128
40
0.625000000000121
40
0.625000000000121
40
0.640625000000118
40
0.640625000000118
40
0.656250000000115
40
0.656250000000115
40
0.687500000000108
40
0.687500000000108
40
0.703125000000104
40
0.703125000000104
40
0.718750000000101
40
0.718750000000101
40
0.734375000000098
40
0.734375000000098
40
0.750000000000094
40
0.750000000000094
40
0.781250000000087
40
0.781250000000087
40
0.812500000000081
40
0.812500000000081
40
0.875000000000057
40
0.875000000000057
40
1
40
1
40
1
40
1
41
1
10
37.4415069597298
20
-2.0083435395851
30
0
41
1
10
37.4807115927932
20
-1.93670730975779
30
0
41
1
10
37.5203247764958
20
-1.8635458567409
30
0
41
1
10
37.5802401706942
20
-1.75167613947599
30
0
41
1
10
37.6002557739838
20
-1.71398350457594
30
0
41
1
10
37.6305512225061
20
-1.65722107611592
30
0
41
1
10
37.6407579496911
20
-1.63830553137714
30
0
41
1
10
37.6559802977003
20
-1.60973122493965
30
0
41
1
10
37.6610202112576
20
-1.60015677240395
30
0
41
1
10
37.670901637166
20
-1.58080148639681
30
0
41
1
10
37.6757152022388
20
-1.57099780853164
30
0
41
1
10
37.6857614351964
20
-1.55169297240371
30
0
41
1
10
37.6910121358211
20
-1.54217157995223
30
0
41
1
10
37.7025518565288
20
-1.52408869298344
30
0
41
1
10
37.7087833613496
20
-1.51563602154178
30
0
41
1
10
37.7190206875299
20
-1.50411789493916
30
0
41
1
10
37.7225793890126
20
-1.50046933163338
30
0
41
1
10
37.7299995458652
20
-1.49356999259598
30
0
41
1
10
37.7338835268437
20
-1.49030360495496
30
0
41
1
10
37.7457451393517
20
-1.48127428984674
30
0
41
1
10
37.7539519179512
20
-1.47618962165186
30
0
41
1
10
37.7666120919361
20
-1.46969508037228
30
0
41
1
10
37.7708924228852
20
-1.46772581522956
30
0
41
1
10
37.7795758052935
20
-1.46419964604147
30
0
41
1
10
37.7839826333308
20
-1.46264445752129
30
0
41
1
10
37.7971268514357
20
-1.45875773691026
30
0
41
1
10
37.8058721391034
20
-1.45721264581388
30
0
41
1
10
37.8189339650502
20
-1.45653762508673
30
0
41
1
10
37.8232787518136
20
-1.45658147907599
30
0
41
1
10
37.8319431742322
20
-1.45725809240852
30
0
41
1
10
37.8362656149705
20
-1.45789559026534
30
0
41
1
10
37.8446292245374
20
-1.45981919387248
30
0
41
1
10
37.8487007169335
20
-1.46110164989167
30
0
41
1
10
37.8565501890321
20
-1.46451713417102
30
0
41
1
10
37.860362033005
20
-1.46670163080788
30
0
41
1
10
37.870924948421
20
-1.47436556989467
30
0
41
1
10
37.8768184009859
20
-1.48096317620451
30
0
41
1
10
37.8881437323167
20
-1.49466597500259
30
0
41
1
10
37.8937172375292
20
-1.50157884563242
30
0
41
1
10
37.9103604552054
20
-1.52224768263366
30
0
41
1
10
37.9212931479394
20
-1.53601766344681
30
0
41
1
10
37.9538255242109
20
-1.57698061034475
30
0
41
1
10
37.9751604833292
20
-1.60383497315851
30
0
41
1
10
37.9966088933911
20
-1.62966351400234
30
0
0
SPLINE
5
FE
100
AcDbEntity
8
1
62
256
6
ByLayer
370
18
48
1
60
0
100
AcDbSpline
70
4
71
3
72
15
73
11
40
0
40
0
40
0
40
0
40
0.500000000000037
40
0.500000000000037
40
0.750000000000037
40
0.875000000000036
40
0.875000000000036
40
0.937500000000018
40
0.937500000000018
40
1
40
1
40
1
40
1
41
1
10
37.9966088933911
20
-1.62966351400234
30
0
41
1
10
38.0171894661416
20
-1.65444699036914
30
0
41
1
10
38.0378326264781
20
-1.67821417149591
30
0
41
1
10
38.0687247534834
20
-1.7126395597719
30
0
41
1
10
38.0841352176924
20
-1.72957114897969
30
0
41
1
10
38.0992950902089
20
-1.74638218343526
30
0
41
1
10
38.1068162587888
20
-1.75479386763882
30
0
41
1
10
38.1093096042611
20
-1.75760497655637
30
0
41
1
10
38.1142940900229
20
-1.76320145277577
30
0
41
1
10
38.1167766582275
20
-1.7660004544133
30
0
41
1
10
38.1193494334074
20
-1.76864239148142
30
0
0
SPLINE
5
FF
100
AcDbEntity
8
1
62
256
6
ByLayer
370
18
48
1
60
0
100
AcDbSpline
70
4
71
3
72
8
73
4
40
0
40
0
40
0
40
0
40
1
40
1
40
1
40
1
41
1
10
38.1820806837532
20
-1.73615064321453
30
0
41
1
10
38.1611516104856
20
-1.74726334561569
30
0
41
1
10
38.1402419931916
20
-1.75809397028152
30
0
41
1
10
38.119349433407
20
-1.76864239148193
30
0
0
SPLINE
5
100
100
AcDbEntity
8
1
62
256
6
ByLayer
370
18
48
1
60
0
100
AcDbSpline
70
4
71
3
72
18
73
14
40
0
40
0
40
0
40
0
40
0.483763836572939
40
0.483763836572939
40
0.725645754859409
40
0.725645754859409
40
0.846586714002644
40
0.846586714002644
40
0.907057193574253
40
0.907057193574253
40
0.967527673145862
40
0.967527673145862
40
1
40
1
40
1
40
1
41
1
10
38.1820806837529
20
-1.73615064320515
30
0
41
1
10
38.2211222777169
20
-1.6567578915772
30
0
41
1
10
38.2605446849926
20
-1.57725597515682
30
0
41
1
10
38.3201351227516
20
-1.45811959709297
30
0
41
1
10
38.3400403864511
20
-1.41838941970766
30
0
41
1
10
38.3701569805917
20
-1.35905855949659
30
0
41
1
10
38.3802958077676
20
-1.33934256129081
30
0
41
1
10
38.3954415278653
20
-1.30976716216634
30
0
41
1
10
38.4004601009018
20
-1.29989985973373
30
0
41
1
10
38.4103099859224
20
-1.28009162342738
30
0
41
1
10
38.4150981527247
20
-1.27013168482998
30
0
41
1
10
38.4227294676377
20
-1.25494965086693
30
0
41
1
10
38.4254491063531
20
-1.24967011739994
30
0
41
1
10
38.428273528749
20
-1.24443800149871
30
0
0
SPLINE
5
101
100
AcDbEntity
8
1
62
256
6
ByLayer
370
18
48
1
60
0
100
AcDbSpline
70
4
71
3
72
46
73
42
40
0
40
0
40
0
40
0
40
0.125000000000028
40
0.125000000000028
40
0.187500000000042
40
0.187500000000042
40
0.218750000000049
40
0.218750000000049
40
0.250000000000056
40
0.250000000000056
40
0.281250000000063
40
0.281250000000063
40
0.31250000000007
40
0.31250000000007
40
0.375000000000083
40
0.375000000000083
40
0.406250000000091
40
0.406250000000091
40
0.437500000000098
40
0.437500000000098
40
0.500000000000087
40
0.500000000000087
40
0.531250000000081
40
0.531250000000081
40
0.562500000000076
40
0.562500000000076
40
0.59375000000007
40
0.59375000000007
40
0.625000000000064
40
0.625000000000064
40
0.656250000000059
40
0.656250000000059
40
0.687500000000053
40
0.718750000000048
40
0.718750000000048
40
0.750000000000042
40
0.750000000000042
40
0.812500000000032
40
0.875000000000021
40
0.875000000000021
40
1
40
1
40
1
40
1
41
1
10
41.2334442163469
20
-0.308971208500992
30
0
41
1
10
41.2218573591331
20
-0.290977341342824
30
0
41
1
10
41.2102012065447
20
-0.273209359719942
30
0
41
1
10
41.1925015560283
20
-0.24687281364632
30
0
41
1
10
41.1865654646061
20
-0.238146473055139
30
0
41
1
10
41.1775881381094
20
-0.225131484401089
30
0
41
1
10
41.1745920734225
20
-0.220808495583896
30
0
41
1
10
41.1685313392094
20
-0.212174835869178
30
0
41
1
10
41.1654466002752
20
-0.207858114297721
30
0
41
1
10
41.1589332837338
20
-0.199156120486521
30
0
41
1
10
41.1555028803378
20
-0.194770372157961
30
0
41
1
10
41.1481425664114
20
-0.185885793356334
30
0
41
1
10
41.1441941425416
20
-0.181367003727445
30
0
41
1
10
41.1316518680437
20
-0.167752505293578
30
0
41
1
10
41.1226801320242
20
-0.158856434198611
30
0
41
1
10
41.1085467861338
20
-0.145709668117206
30
0
41
1
10
41.1037166136447
20
-0.141361962342018
30
0
41
1
10
41.0938052430607
20
-0.132733273068425
30
0
41
1
10
41.0886932098014
20
-0.128427458121593
30
0
41
1
10
41.0731377716918
20
-0.115789577483412
30
0
41
1
10
41.0626556673931
20
-0.107847213404767
30
0
41
1
10
41.0468157593206
20
-0.0965811037774529
30
0
41
1
10
41.0415156084779
20
-0.0929363752186703
30
0
41
1
10
41.0308741795925
20
-0.0859099637809209
30
0
41
1
10
41.0255952961263
20
-0.0825725847751357
30
0
41
1
10
41.0153881015636
20
-0.07648957134478
30
0
41
1
10
41.010429702707
20
-0.0737233355276601
30
0
41
1
10
41.0008557550003
20
-0.0688099037220127
30
0
41
1
10
40.9964017225652
20
-0.066746180534949
30
0
41
1
10
40.9880788551744
20
-0.0632779086002415
30
0
41
1
10
40.9841983898679
20
-0.0618697642414929
30
0
41
1
10
40.9768880010724
20
-0.0595116689847828
30
0
41
1
10
40.9700673702168
20
-0.0576164099153971
30
0
41
1
10
40.9636778637827
20
-0.0560707655972124
30
0
41
1
10
40.9572410830154
20
-0.0544164283632824
30
0
41
1
10
40.9539767611916
20
-0.0535105646139584
30
0
41
1
10
40.9440344266584
20
-0.0505421505435208
30
0
41
1
10
40.9304483116562
20
-0.0459884765855918
30
0
41
1
10
40.9169966492587
20
-0.0411027647106152
30
0
41
1
10
40.8968814481515
20
-0.0334827433462408
30
0
41
1
10
40.8835588878539
20
-0.0280151762893581
30
0
41
1
10
40.8702472839303
20
-0.0220770786275466
30
0
0
SPLINE
5
102
100
AcDbEntity
8
1
62
256
6
ByLayer
370
18
48
1
60
0
100
AcDbSpline
70
4
71
3
72
8
73
4
40
0
40
0
40
0
40
0
40
1
40
1
40
1
40
1
41
1
10
40.8702472839303
20
-0.0220770786275466
30
0
41
1
10
40.7743355153566
20
0.0581694901627259
30
0
41
1
10
40.6798624092964
20
0.140501801643637
30
0
41
1
10
40.5862972459653
20
0.224337949443481
30
0
0
SPLINE
5
103
100
AcDbEntity
8
1
62
256
6
ByLayer
370
18
48
1
60
0
100
AcDbSpline
70
4
71
3
72
8
73
4
40
0
40
0
40
0
40
0
40
1
40
1
40
1
40
1
41
1
10
40.5862972459653
20
0.224337949443481
30
0
41
1
10
40.5747379249889
20
0.237367590929068
30
0
41
1
10
40.5631797401596
20
0.250077686197216
30
0
41
1
10
40.5516344258061
20
0.262454092331751
30
0
0
SPLINE
5
104
100
AcDbEntity
8
1
62
256
6
ByLayer
370
18
48
1
60
0
100
AcDbSpline
70
4
71
3
72
47
73
43
40
0
40
0
40
0
40
0
40
0.124999999999958
40
0.124999999999958
40
0.249999999999916
40
0.249999999999916
40
0.281249999999903
40
0.281249999999903
40
0.31249999999989
40
0.31249999999989
40
0.328124999999884
40
0.328124999999884
40
0.343749999999877
40
0.343749999999877
40
0.374999999999864
40
0.374999999999864
40
0.406249999999851
40
0.406249999999851
40
0.437499999999837
40
0.437499999999837
40
0.468749999999824
40
0.468749999999824
40
0.484374999999825
40
0.484374999999825
40
0.499999999999827
40
0.499999999999827
40
0.515624999999829
40
0.515624999999829
40
0.53124999999983
40
0.53124999999983
40
0.562499999999847
40
0.562499999999847
40
0.593749999999863
40
0.593749999999863
40
0.624999999999879
40
0.624999999999879
40
0.656249999999895
40
0.656249999999895
40
0.687499999999912
40
0.749999999999933
40
0.749999999999933
40
1
40
1
40
1
40
1
41
1
10
40.5516344258061
20
0.262454092331723
30
0
41
1
10
40.5335646264495
20
0.281824649837603
30
0
41
1
10
40.5155431267798
20
0.30036059525824
30
0
41
1
10
40.4791812069033
20
0.336025996201528
30
0
41
1
10
40.4608534413757
20
0.353144921155916
30
0
41
1
10
40.4373722056263
20
0.373859459062146
30
0
41
1
10
40.4326970012647
20
0.377931331422758
30
0
41
1
10
40.4229983671693
20
0.386218721946562
30
0
41
1
10
40.4178869244453
20
0.390499220062793
30
0
41
1
10
40.4092832475847
20
0.397519245224885
30
0
41
1
10
40.406263868891
20
0.399955712348259
30
0
41
1
10
40.3998900082992
20
0.405044878498217
30
0
41
1
10
40.3965517659656
20
0.407684221323876
30
0
41
1
10
40.3863292228421
20
0.415702281249366
30
0
41
1
10
40.3791764660411
20
0.421230731274136
30
0
41
1
10
40.3642942609989
20
0.432612699303775
30
0
41
1
10
40.3565624006765
20
0.438465933617181
30
0
41
1
10
40.3404226621554
20
0.450607874584051
30
0
41
1
10
40.3321727821782
20
0.456778757556037
30
0
41
1
10
40.3156572907221
20
0.469131299771703
30
0
41
1
10
40.3073448756885
20
0.475346468440222
30
0
41
1
10
40.2948032577194
20
0.484777111766959
30
0
41
1
10
40.2905947347332
20
0.487951030942242
30
0
41
1
10
40.2823866203337
20
0.49417486575291
30
0
41
1
10
40.278364354148
20
0.497241880294752
30
0
41
1
10
40.2705120873755
20
0.503279155383893
30
0
41
1
10
40.2666544870943
20
0.50627121952752
30
0
41
1
10
40.2592898072037
20
0.512049193443147
30
0
41
1
10
40.2558129885103
20
0.514810915173086
30
0
41
1
10
40.2459232048939
20
0.522772526743978
30
0
41
1
10
40.2400407924255
20
0.527661628416524
30
0
41
1
10
40.2292272874552
20
0.536877571668782
30
0
41
1
10
40.2242462434228
20
0.541240454080935
30
0
41
1
10
40.2141056217467
20
0.55022021507591
30
0
41
1
10
40.2088928129663
20
0.554877176025059
30
0
41
1
10
40.1983305514403
20
0.564420467077127
30
0
41
1
10
40.1929905391418
20
0.569299842503824
30
0
41
1
10
40.1823727368187
20
0.579141875748434
30
0
41
1
10
40.1665049118629
20
0.59405508897629
30
0
41
1
10
40.1507616378538
20
0.609455736346177
30
0
41
1
10
40.0983873309632
20
0.661960571710779
30
0
41
1
10
40.0566203730361
20
0.707879952736505
30
0
41
1
10
40.0153002945341
20
0.757044501553395
30
0
0
SPLINE
5
105
100
AcDbEntity
8
1
62
256
6
ByLayer
370
18
48
1
60
0
100
AcDbSpline
70
4
71
3
72
8
73
4
40
0
40
0
40
0
40
0
40
1
40
1
40
1
40
1
41
1
10
40.0153002945341
20
0.757044501553423
30
0
41
1
10
39.9886152546031
20
0.782559014038952
30
0
41
1
10
39.9620391713834
20
0.808001904797294
30
0
41
1
10
39.935560559345
20
0.833363328604463
30
0
0
SPLINE
5
106
100
AcDbEntity
8
1
62
256
6
ByLayer
370
18
48
1
60
0
100
AcDbSpline
70
4
71
3
72
13
73
9
40
0
40
0
40
0
40
0
40
0.124999999999988
40
0.124999999999988
40
0.249999999999975
40
0.499999999999984
40
0.499999999999984
40
1
40
1
40
1
40
1
41
1
10
39.935560559345
20
0.833363328604463
30
0
41
1
10
39.9304609299125
20
0.836361728008086
30
0
41
1
10
39.925427277246
20
0.839210063038564
30
0
41
1
10
39.9152189270467
20
0.844922383566825
30
0
41
1
10
39.8998083032875
20
0.853383129777569
30
0
41
1
10
39.8841915281076
20
0.861411151658075
30
0
41
1
10
39.8529071577969
20
0.876618235351714
30
0
41
1
10
39.8320045725231
20
0.885594963545657
30
0
41
1
10
39.8111633121517
20
0.893271153637016
30
0
0
SPLINE
5
107
100
AcDbEntity
8
1
62
256
6
ByLayer
370
18
48
1
60
0
100
AcDbSpline
70
4
71
3
72
48
73
44
40
0
40
0
40
0
40
0
40
0.125000000000064
40
0.125000000000064
40
0.250000000000128
40
0.250000000000128
40
0.281250000000142
40
0.281250000000142
40
0.312500000000155
40
0.312500000000155
40
0.328125000000162
40
0.328125000000162
40
0.343750000000169
40
0.343750000000169
40
0.375000000000183
40
0.375000000000183
40
0.39062500000019
40
0.39062500000019
40
0.406250000000196
40
0.406250000000196
40
0.437500000000195
40
0.437500000000195
40
0.468750000000193
40
0.468750000000193
40
0.484375000000192
40
0.484375000000192
40
0.500000000000191
40
0.500000000000191
40
0.51562500000019
40
0.51562500000019
40
0.53125000000019
40
0.53125000000019
40
0.562500000000177
40
0.562500000000177
40
0.57812500000017
40
0.57812500000017
40
0.593750000000164
40
0.593750000000164
40
0.625000000000151
40
0.625000000000151
40
0.7500000000001
40
0.7500000000001
40
1
40
1
40
1
40
1
41
1
10
39.8111633121517
20
0.893271153637016
30
0
41
1
10
39.7925544158231
20
0.900125126144587
30
0
41
1
10
39.7739961211893
20
0.905947446850149
30
0
41
1
10
39.7365223728822
20
0.915982372512758
30
0
41
1
10
39.7176207532539
20
0.920179826228576
30
0
41
1
10
39.6933517051387
20
0.92475471474944
30
0
41
1
10
39.6885414213597
20
0.925555258980182
30
0
41
1
10
39.678211113233
20
0.927781094553723
30
0
41
1
10
39.6726311679386
20
0.929270577925166
30
0
41
1
10
39.6631829517785
20
0.932555154415951
30
0
41
1
10
39.6598377711792
20
0.933829898093563
30
0
41
1
10
39.6529431592627
20
0.936655981983222
30
0
41
1
10
39.649391585913
20
0.938202004326968
30
0
41
1
10
39.6384715246918
20
0.9431778841371
30
0
41
1
10
39.6308434922179
20
0.946936731122179
30
0
41
1
10
39.6188922478271
20
0.953252999796149
30
0
41
1
10
39.6148010138393
20
0.955486010567284
30
0
41
1
10
39.6065537508538
20
0.960146889632682
30
0
41
1
10
39.6023966254393
20
0.962576681084073
30
0
41
1
10
39.5898302359195
20
0.970176369750504
30
0
41
1
10
39.5813312515438
20
0.975637464515273
30
0
41
1
10
39.5641180878668
20
0.987419575995006
30
0
41
1
10
39.5553672276517
20
0.993766867476097
30
0
41
1
10
39.5427063990348
20
1.00375061146715
30
0
41
1
10
39.538544342312
20
1.00717584865546
30
0
41
1
10
39.5303660443835
20
1.01426784391899
30
0
41
1
10
39.526395506814
20
1.01789884992505
30
0
41
1
10
39.5188927241786
20
1.02515682076103
30
0
41
1
10
39.5153297966373
20
1.02881021597571
30
0
41
1
10
39.5085465217372
20
1.03616578783141
30
0
41
1
10
39.5053102676213
20
1.03988825819945
30
0
41
1
10
39.4961708137596
20
1.05093137670065
30
0
41
1
10
39.4907980829517
20
1.0581471435915
30
0
41
1
10
39.4829593764655
20
1.06897846016577
30
0
41
1
10
39.4803842309678
20
1.07259016314404
30
0
41
1
10
39.4751724598317
20
1.07985443466788
30
0
41
1
10
39.4725286448202
20
1.0835090832737
30
0
41
1
10
39.4645136128268
20
1.09453274199561
30
0
41
1
10
39.459062512649
20
1.10196052301507
30
0
41
1
10
39.431789887722
20
1.13934768741333
30
0
41
1
10
39.4102869573532
20
1.16994952422201
30
0
41
1
10
39.3459129951519
20
1.26379029785403
30
0
41
1
10
39.3031509197618
20
1.32916807725152
30
0
41
1
10
39.2608926221987
20
1.39670446374768
30
0
0
SPLINE
5
108
100
AcDbEntity
8
1
62
256
6
ByLayer
370
18
48
1
60
0
100
AcDbSpline
70
4
71
3
72
15
73
11
40
0
40
0
40
0
40
0
40
0.0625000000000017
40
0.0625000000000017
40
0.125000000000003
40
0.125000000000003
40
0.250000000000007
40
0.500000000000014
40
0.500000000000014
40
1
40
1
40
1
40
1
41
1
10
39.1981746162552
20
1.44210501756947
30
0
41
1
10
39.1955122787525
20
1.44172757978802
30
0
41
1
10
39.192927816539
20
1.44122206614256
30
0
41
1
10
39.1877399709596
20
1.44019717267693
30
0
41
1
10
39.1851430591159
20
1.43966876978951
30
0
41
1
10
39.17731523704
20
1.43807409482628
30
0
41
1
10
39.1615497307291
20
1.434796145082
30
0
41
1
10
39.145552424574
20
1.43111189146106
30
0
41
1
10
39.1134928858288
20
1.42285298527489
30
0
41
1
10
39.0920652728427
20
1.41610168200643
30
0
41
1
10
39.0707109061987
20
1.40794843682889
30
0
0
SPLINE
5
109
100
AcDbEntity
8
1
62
256
6
ByLayer
370
18
48
1
60
0
100
AcDbSpline
70
4
71
3
72
46
73
42
40
0
40
0
40
0
40
0
40
0.124999999999936
40
0.124999999999936
40
0.249999999999871
40
0.249999999999871
40
0.281249999999853
40
0.281249999999853
40
0.312499999999834
40
0.312499999999834
40
0.32812499999983
40
0.32812499999983
40
0.343749999999827
40
0.343749999999827
40
0.374999999999833
40
0.374999999999833
40
0.390624999999836
40
0.390624999999836
40
0.40624999999984
40
0.40624999999984
40
0.437499999999846
40
0.437499999999846
40
0.453124999999849
40
0.453124999999849
40
0.468749999999852
40
0.468749999999852
40
0.499999999999857
40
0.499999999999857
40
0.531249999999863
40
0.531249999999863
40
0.562499999999869
40
0.562499999999869
40
0.578124999999867
40
0.578124999999867
40
0.593749999999865
40
0.593749999999865
40
0.624999999999871
40
0.624999999999871
40
0.749999999999918
40
0.749999999999918
40
1
40
1
40
1
40
1
41
1
10
39.0707109061987
20
1.40794843682889
30
0
41
1
10
39.0521180223035
20
1.40084954490291
30
0
41
1
10
39.0335821804071
20
1.39270160699181
30
0
41
1
10
38.9961740177211
20
1.37488880644742
30
0
41
1
10
38.97731550486
20
1.36520790426434
30
0
41
1
10
38.9531187792251
20
1.35256450363965
30
0
41
1
10
38.9483234253478
20
1.34991394554598
30
0
41
1
10
38.9380495294106
20
1.34534977210254
30
0
41
1
10
38.9325090300521
20
1.34351550145385
30
0
41
1
10
38.9231346668352
20
1.3420189547179
30
0
41
1
10
38.9198142686367
20
1.34172469568205
30
0
41
1
10
38.9129648845231
20
1.34154332281668
30
0
41
1
10
38.9094410841979
20
1.3416433149427
30
0
41
1
10
38.8986210737937
20
1.34242092366918
30
0
41
1
10
38.8910813364214
20
1.34356467398047
30
0
41
1
10
38.8793073857244
20
1.34620591815241
30
0
41
1
10
38.8753037417044
20
1.3472441449446
30
0
41
1
10
38.8671235405145
20
1.34967770911575
30
0
41
1
10
38.8629262745247
20
1.35108536287814
30
0
41
1
10
38.8503291180262
20
1.35581345986864
30
0
41
1
10
38.8418598089854
20
1.3596206790294
30
0
41
1
10
38.8290766950073
20
1.36632310141013
30
0
41
1
10
38.8248022236529
20
1.36872516957001
30
0
41
1
10
38.8162275709225
20
1.37391691665132
30
0
41
1
10
38.8118969028061
20
1.37672755127977
30
0
41
1
10
38.7991645815304
20
1.38570189224819
30
0
41
1
10
38.7909823509831
20
1.39246972545052
30
0
41
1
10
38.7756397426911
20
1.40788152191428
30
0
41
1
10
38.7688594223829
20
1.41614513520128
30
0
41
1
10
38.7565558849432
20
1.43346808321365
30
0
41
1
10
38.7510976006581
20
1.44239729993319
30
0
41
1
10
38.7432139174875
20
1.45581788676111
30
0
41
1
10
38.7406306162535
20
1.46030607436757
30
0
41
1
10
38.735414662008
20
1.46928351110102
30
0
41
1
10
38.7327714097737
20
1.47377063280499
30
0
41
1
10
38.7247483753693
20
1.48723007674266
30
0
41
1
10
38.7192862049969
20
1.49620273823947
30
0
41
1
10
38.6919354532461
20
1.54117273470004
30
0
41
1
10
38.6703483374939
20
1.57759547667732
30
0
41
1
10
38.6057524897416
20
1.68766272969884
30
0
41
1
10
38.5628422866473
20
1.76224645445953
30
0
41
1
10
38.5204271310317
20
1.8375246062007
30
0
0
SPLINE
5
10A
100
AcDbEntity
8
1
62
256
6
ByLayer
370
18
48
1
60
0
100
AcDbSpline
70
4
71
3
72
15
73
11
40
0
40
0
40
0
40
0
40
0.062499999999985
40
0.062499999999985
40
0.12499999999997
40
0.12499999999997
40
0.24999999999997
40
0.49999999999997
40
0.49999999999997
40
1
40
1
40
1
40
1
41
1
10
38.4584097926848
20
1.86415148939375
30
0
41
1
10
38.4557188383031
20
1.86184395473148
30
0
41
1
10
38.4531219626661
20
1.85938354208184
30
0
41
1
10
38.4479097385285
20
1.85445218715398
30
0
41
1
10
38.4453039539429
20
1.85196754283123
30
0
41
1
10
38.4374451950175
20
1.84451670444193
30
0
41
1
10
38.4216140490949
20
1.82955697289518
30
0
41
1
10
38.4055408576053
20
1.81428156590496
30
0
41
1
10
38.3733196693497
20
1.78295698891799
30
0
41
1
10
38.351774117235
20
1.76097467469538
30
0
41
1
10
38.3302968302219
20
1.73776650394737
30
0
0
SPLINE
5
10B
100
AcDbEntity
8
1
62
256
6
ByLayer
370
18
48
1
60
0
100
AcDbSpline
70
4
71
3
72
48
73
44
40
0
40
0
40
0
40
0
40
0.12500000000002
40
0.12500000000002
40
0.250000000000041
40
0.250000000000041
40
0.281250000000051
40
0.281250000000051
40
0.31250000000006
40
0.31250000000006
40
0.328125000000059
40
0.328125000000059
40
0.343750000000058
40
0.343750000000058
40
0.375000000000056
40
0.375000000000056
40
0.390625000000062
40
0.390625000000062
40
0.406250000000069
40
0.406250000000069
40
0.437500000000081
40
0.437500000000081
40
0.468750000000094
40
0.468750000000094
40
0.484375000000093
40
0.484375000000093
40
0.500000000000091
40
0.500000000000091
40
0.51562500000009
40
0.51562500000009
40
0.531250000000088
40
0.531250000000088
40
0.562500000000085
40
0.562500000000085
40
0.578125000000083
40
0.578125000000083
40
0.593750000000082
40
0.593750000000082
40
0.62500000000008
40
0.62500000000008
40
0.75000000000005
40
0.75000000000005
40
1
40
1
40
1
40
1
41
1
10
38.3302968302219
20
1.73776650394737
30
0
41
1
10
38.3116703121361
20
1.71763884946714
30
0
41
1
10
38.2930944101935
20
1.69660674017112
30
0
41
1
10
38.2555922073699
20
1.65334313593979
30
0
41
1
10
38.2366798791938
20
1.63109527556046
30
0
41
1
10
38.2124061847226
20
1.60295389285568
30
0
41
1
10
38.2075952606875
20
1.5972118305223
30
0
41
1
10
38.1972542363395
20
1.58655358873761
30
0
41
1
10
38.1916656403137
20
1.58171435903247
30
0
41
1
10
38.1822048068568
20
1.57578011178552
30
0
41
1
10
38.1788558841507
20
1.57401167400332
30
0
41
1
10
38.1719591604464
20
1.57095546352224
30
0
41
1
10
38.1684074879922
20
1.56964911196746
30
0
41
1
10
38.1574894400388
20
1.56629421098975
30
0
41
1
10
38.1498656920035
20
1.56479588687648
30
0
41
1
10
38.1379255974834
20
1.56366403289735
30
0
41
1
10
38.1338391604123
20
1.56347774639613
30
0
41
1
10
38.1256053901092
20
1.56353562564755
30
0
41
1
10
38.1214555485518
20
1.56378280761834
30
0
41
1
10
38.1089123908817
20
1.56518989482987
30
0
41
1
10
38.1004304629221
20
1.56697555457558
30
0
41
1
10
38.0832552423846
20
1.57232024122894
30
0
41
1
10
38.0745283377835
20
1.57589452242112
30
0
41
1
10
38.0618998628099
20
1.58286200281324
30
0
41
1
10
38.0577481572607
20
1.58547439792787
30
0
41
1
10
38.0495894394591
20
1.59140330467423
30
0
41
1
10
38.0456264819607
20
1.59469606819465
30
0
41
1
10
38.0381369718394
20
1.60177688591719
30
0
41
1
10
38.0345795237394
20
1.60558694642975
30
0
41
1
10
38.0278056091717
20
1.61369453270595
30
0
41
1
10
38.0245731047575
20
1.61801756258106
30
0
41
1
10
38.0154390874189
20
1.63134916208855
30
0
41
1
10
38.0100703398181
20
1.64070990405398
30
0
41
1
10
38.0022445590506
20
1.65489429167121
30
0
41
1
10
37.9996748544878
20
1.65964694898642
30
0
41
1
10
37.994477234223
20
1.66911092643951
30
0
41
1
10
37.9918411998121
20
1.67381684262526
30
0
41
1
10
37.9838479172435
20
1.68787391230148
30
0
41
1
10
37.9784105863478
20
1.6971677643073
30
0
41
1
10
37.9511992952345
20
1.74359334849234
30
0
41
1
10
37.9297388313195
20
1.78085649321758
30
0
41
1
10
37.8655052672002
20
1.89210973227969
30
0
41
1
10
37.8228338360661
20
1.96573350718296
30
0
41
1
10
37.7806557356394
20
2.03847841022403
30
0
0
SPLINE
5
10C
100
AcDbEntity
8
1
62
256
6
ByLayer
370
18
48
1
60
0
100
AcDbSpline
70
4
71
3
72
15
73
11
40
0
40
0
40
0
40
0
40
0.0624999999999924
40
0.0624999999999924
40
0.124999999999985
40
0.124999999999985
40
0.24999999999997
40
0.49999999999997
40
0.49999999999997
40
1
40
1
40
1
40
1
41
1
10
37.7174546825835
20
2.04345242929708
30
0
41
1
10
37.7147811468463
20
2.03948717348936
30
0
41
1
10
37.7121921310656
20
2.03539982536415
30
0
41
1
10
37.7069953004551
20
2.02722126428435
30
0
41
1
10
37.7043952622032
20
2.02312007208431
30
0
41
1
10
37.696556493296
20
2.01082360486941
30
0
41
1
10
37.6807684449601
20
1.98620721566991
30
0
41
1
10
37.6647458325702
20
1.96139970128294
30
0
41
1
10
37.632630547783
20
1.91122478242056
30
0
41
1
10
37.6111602462789
20
1.87696443069362
30
0
41
1
10
37.5897542836822
20
1.84181533251498
30
0
0
SPLINE
5
10D
100
AcDbEntity
8
1
62
256
6
ByLayer
370
18
48
1
60
0
100
AcDbSpline
70
4
71
3
72
50
73
46
40
0
40
0
40
0
40
0
40
0.124999999999954
40
0.124999999999954
40
0.249999999999907
40
0.249999999999907
40
0.281249999999895
40
0.281249999999895
40
0.312499999999884
40
0.312499999999884
40
0.328124999999878
40
0.328124999999878
40
0.343749999999872
40
0.343749999999872
40
0.374999999999847
40
0.374999999999847
40
0.390624999999842
40
0.390624999999842
40
0.406249999999836
40
0.406249999999836
40
0.437499999999826
40
0.437499999999826
40
0.453124999999821
40
0.453124999999821
40
0.468749999999815
40
0.468749999999815
40
0.48437499999981
40
0.48437499999981
40
0.499999999999805
40
0.499999999999805
40
0.5156249999998
40
0.5156249999998
40
0.531249999999794
40
0.531249999999794
40
0.562499999999795
40
0.562499999999795
40
0.5781249999998
40
0.5781249999998
40
0.593749999999805
40
0.593749999999805
40
0.624999999999824
40
0.624999999999824
40
0.749999999999883
40
0.749999999999883
40
1
40
1
40
1
40
1
41
1
10
37.5897542836822
20
1.84181533251498
30
0
41
1
10
37.5711478228388
20
1.81126308259925
30
0
41
1
10
37.5525894876486
20
1.78005803881621
30
0
41
1
10
37.5151128944114
20
1.71690610376089
30
0
41
1
10
37.4962088029699
20
1.68494509896163
30
0
41
1
10
37.4719379098461
20
1.64490600102849
30
0
41
1
10
37.4671275059043
20
1.6368070958153
30
0
41
1
10
37.4567892066797
20
1.62136647896642
30
0
41
1
10
37.4512020296484
20
1.61409429553106
30
0
41
1
10
37.4417393053071
20
1.60439039407805
30
0
41
1
10
37.4383894277052
20
1.60133944763319
30
0
41
1
10
37.43149128025
20
1.59573485682299
30
0
41
1
10
37.4279382371121
20
1.59315793161483
30
0
41
1
10
37.417014257288
20
1.58600069380762
30
0
41
1
10
37.4093841687742
20
1.58198004249431
30
0
41
1
10
37.3974309313563
20
1.57707859761874
30
0
41
1
10
37.3933397466832
20
1.57563221069358
30
0
41
1
10
37.3851004768547
20
1.57321316362612
30
0
41
1
10
37.3809474329145
20
1.57224230312482
30
0
41
1
10
37.3683934673252
20
1.57005422110643
30
0
41
1
10
37.3599027946995
20
1.56951846251999
30
0
41
1
10
37.3470063858809
20
1.5701502880431
30
0
41
1
10
37.3426562170176
20
1.57060873830898
30
0
41
1
10
37.3340349507902
20
1.57207181863981
30
0
41
1
10
37.3297682053014
20
1.57307060165019
30
0
41
1
10
37.3213466081665
20
1.57572186725847
30
0
41
1
10
37.3171931990648
20
1.57738353480124
30
0
41
1
10
37.3090301331125
20
1.58152061273162
30
0
41
1
10
37.3050739014793
20
1.583977095086
30
0
41
1
10
37.2975901605876
20
1.58955663209502
30
0
41
1
10
37.2940349345255
20
1.59269348785526
30
0
41
1
10
37.2872642960257
20
1.5995925519882
30
0
41
1
10
37.2840329024027
20
1.60337810738827
30
0
41
1
10
37.2749065640826
20
1.61527323877365
30
0
41
1
10
37.2695405578359
20
1.62391162392373
30
0
41
1
10
37.2617157508232
20
1.63705338044375
30
0
41
1
10
37.2591458388613
20
1.64146561496156
30
0
41
1
10
37.2539467404216
20
1.65021232136331
30
0
41
1
10
37.2513097710877
20
1.65453867368524
30
0
41
1
10
37.2433143903635
20
1.6674051373673
30
0
41
1
10
37.2378760710161
20
1.6758373259749
30
0
41
1
10
37.210661782987
20
1.71780722210076
30
0
41
1
10
37.1891998668444
20
1.75117342703868
30
0
41
1
10
37.1249548610284
20
1.84946324073448
30
0
41
1
10
37.0822701466315
20
1.91274971096487
30
0
41
1
10
37.0400759452886
20
1.9737067104806
30
0
0
SPLINE
5
10E
100
AcDbEntity
8
1
62
256
6
ByLayer
370
18
48
1
60
0
100
AcDbSpline
70
4
71
3
72
8
73
4
40
0
40
0
40
0
40
0
40
1
40
1
40
1
40
1
41
1
10
36.9776853307042
20
1.95611438555306
30
0
41
1
10
36.9984881784809
20
1.96228704213428
30
0
41
1
10
37.0192835565865
20
1.96815136408782
30
0
41
1
10
37.0400759452889
20
1.97370671048117
30
0
0
SPLINE
5
10F
100
AcDbEntity
8
1
62
256
6
ByLayer
370
18
48
1
60
0
100
AcDbSpline
70
4
71
3
72
15
73
11
40
0
40
0
40
0
40
0
40
0.0624999999999848
40
0.0624999999999848
40
0.12499999999997
40
0.12499999999997
40
0.249999999999971
40
0.49999999999997
40
0.49999999999997
40
1
40
1
40
1
40
1
41
1
10
36.9776853307042
20
1.95611438555309
30
0
41
1
10
36.9749806980173
20
1.95103366411814
30
0
41
1
10
36.9723773460408
20
1.94584819557551
30
0
41
1
10
36.9671529147465
20
1.93547871126674
30
0
41
1
10
36.9645425390143
20
1.93028443078421
30
0
41
1
10
36.9566686405537
20
1.91471896595345
30
0
41
1
10
36.9408038872961
20
1.88360151031671
30
0
41
1
10
36.9246982608846
20
1.85245397425905
30
0
41
1
10
36.8924176444131
20
1.78989110894673
30
0
41
1
10
36.8708495386841
20
1.74778654945322
30
0
41
1
10
36.8493327091407
20
1.70518374203357
30
0
0
SPLINE
5
110
100
AcDbEntity
8
1
62
256
6
ByLayer
370
18
48
1
60
0
100
AcDbSpline
70
4
71
3
72
40
73
36
40
0
40
0
40
0
40
0
40
0.186423749897584
40
0.186423749897584
40
0.372847499795169
40
0.372847499795169
40
0.419453437269561
40
0.419453437269561
40
0.466059374743953
40
0.466059374743953
40
0.512665312218346
40
0.512665312218346
40
0.559271249692738
40
0.559271249692738
40
0.60587718716713
40
0.60587718716713
40
0.652483124641522
40
0.652483124641522
40
0.699089062115915
40
0.699089062115915
40
0.722392030853111
40
0.722392030853111
40
0.745694999590307
40
0.745694999590307
40
0.792300937064699
40
0.792300937064699
40
0.838906874539092
40
0.838906874539092
40
0.86220984327628
40
0.86220984327628
40
0.885512812013469
40
0.885512812013469
40
0.932118749487845
40
0.932118749487845
40
1
40
1
40
1
40
1
41
1
10
36.8493327091408
20
1.70518374203419
30
0
41
1
10
36.8307632283497
20
1.66841661458949
30
0
41
1
10
36.8122615333308
20
1.63135720216567
30
0
41
1
10
36.7749023433811
20
1.55701085897647
30
0
41
1
10
36.756056737051
20
1.51970914429629
30
0
41
1
10
36.7318745036533
20
1.47323570505409
30
0
41
1
10
36.7270821574293
20
1.46388400943138
30
0
41
1
10
36.7168214878394
20
1.44574230168198
30
0
41
1
10
36.7112897225334
20
1.43700832931003
30
0
41
1
10
36.6988063380887
20
1.42076115672413
30
0
41
1
10
36.6918054145511
20
1.41323354085486
30
0
41
1
10
36.6772501840192
20
1.39977602254825
30
0
41
1
10
36.6696333388431
20
1.39372733086051
30
0
41
1
10
36.6537524105251
20
1.38295766649642
30
0
41
1
10
36.6454262181268
20
1.37823871509516
30
0
41
1
10
36.6286735412344
20
1.37078451972386
30
0
41
1
10
36.6201893838262
20
1.36794426831125
30
0
41
1
10
36.6030388574686
20
1.36404996002145
30
0
41
1
10
36.5942932929298
20
1.36298679969843
30
0
41
1
10
36.5816399799
20
1.36331207605602
30
0
41
1
10
36.5774845310973
20
1.36375236326239
30
0
41
1
10
36.5693286467092
20
1.36543264653318
30
0
41
1
10
36.5653234652547
20
1.36668510658364
30
0
41
1
10
36.5540044841699
20
1.37156640615837
30
0
41
1
10
36.547216876782
20
1.37639775131649
30
0
41
1
10
36.5349443045406
20
1.38816682049165
30
0
41
1
10
36.5295457867723
20
1.3949281619075
30
0
41
1
10
36.5216954732281
20
1.40530270875129
30
0
41
1
10
36.5191209749103
20
1.40880083515557
30
0
41
1
10
36.5139199371091
20
1.41570307472091
30
0
41
1
10
36.5112835864542
20
1.41909461222883
30
0
41
1
10
36.5032846860194
20
1.42911223116349
30
0
41
1
10
36.4978409798842
20
1.43559228720017
30
0
41
1
10
36.484451000807
20
1.45134787218109
30
0
41
1
10
36.4765516994858
20
1.46062067640585
30
0
41
1
10
36.4686803242194
20
1.46980441528038
30
0
0
SPLINE
5
111
100
AcDbEntity
8
1
62
256
6
ByLayer
370
18
48
1
60
0
100
AcDbSpline
70
4
71
3
72
8
73
4
40
0
40
0
40
0
40
0
40
1
40
1
40
1
40
1
41
1
10
36.3905589783625
20
1.5579703733566
30
0
41
1
10
36.3601140894451
20
1.59092492445689
30
0
41
1
10
36.3297929579493
20
1.62206070234765
30
0
41
1
10
36.2997192181646
20
1.65143019686533
30
0
0
SPLINE
5
112
100
AcDbEntity
8
1
62
256
6
ByLayer
370
18
48
1
60
0
100
AcDbSpline
70
4
71
3
72
8
73
4
40
0
40
0
40
0
40
0
40
1
40
1
40
1
40
1
41
1
10
36.2367848945495
20
1.61328218273624
30
0
41
1
10
36.2577689174884
20
1.62626145654147
30
0
41
1
10
36.2787454423641
20
1.63897823295866
30
0
41
1
10
36.2997192181646
20
1.65143019686536
30
0
0
SPLINE
5
113
100
AcDbEntity
8
1
62
256
6
ByLayer
370
18
48
1
60
0
100
AcDbSpline
70
4
71
3
72
16
73
12
40
0
40
0
40
0
40
0
40
0.0624999999999911
40
0.0624999999999911
40
0.124999999999982
40
0.124999999999982
40
0.249999999999967
40
0.249999999999967
40
0.499999999999968
40
0.499999999999968
40
1
40
1
40
1
40
1
41
1
10
36.2367848945495
20
1.61328218273624
30
0
41
1
10
36.2341010431032
20
1.60774543355973
30
0
41
1
10
36.2315073423862
20
1.602161567878
30
0
41
1
10
36.2263012126451
20
1.59100229247304
30
0
41
1
10
36.2236975825388
20
1.5854223416612
30
0
41
1
10
36.2158465595213
20
1.56870136232069
30
0
41
1
10
36.2105747055566
20
1.55757112229676
30
0
41
1
10
36.1946773921933
20
1.52421514890557
30
0
41
1
10
36.1839738507188
20
1.50203163731115
30
0
41
1
10
36.1517987601843
20
1.43553546588288
30
0
41
1
10
36.1303046393949
20
1.3912553392033
30
0
41
1
10
36.1088640410978
20
1.34698261735306
30
0
0
SPLINE
5
114
100
AcDbEntity
8
1
62
256
6
ByLayer
370
18
48
1
60
0
100
AcDbSpline
70
4
71
3
72
8
73
4
40
0
40
0
40
0
40
0
40
1
40
1
40
1
40
1
41
1
10
36.1088640410977
20
1.34698261735204
30
0
41
1
10
36.1009397830752
20
1.33061980571591
30
0
41
1
10
36.0930282764652
20
1.31427225568362
30
0
41
1
10
36.0851105825938
20
1.29794694357125
30
0
0
SPLINE
5
115
100
AcDbEntity
8
1
62
256
6
ByLayer
370
18
48
1
60
0
100
AcDbSpline
70
4
71
3
72
34
73
30
40
0
40
0
40
0
40
0
40
0.0188146673900234
40
0.0188146673900234
40
0.0958952548592914
40
0.0958952548592914
40
0.172975842328559
40
0.172975842328559
40
0.250056429797827
40
0.250056429797827
40
0.327137017267095
40
0.327137017267095
40
0.404217604736363
40
0.404217604736363
40
0.442757898470996
40
0.442757898470996
40
0.48129819220563
40
0.48129819220563
40
0.635459367144163
40
0.635459367144163
40
0.71253995461343
40
0.71253995461343
40
0.789620542082697
40
0.789620542082697
40
0.866701129551964
40
0.866701129551964
40
0.943781717021232
40
0.943781717021232
40
1
40
1
40
1
40
1
41
1
10
26.4375218418786
20
1.11456736979039
30
0
41
1
10
26.4331228950439
20
1.10943589235239
30
0
41
1
10
26.4285335305531
20
1.1041049610767
30
0
41
1
10
26.4038285975702
20
1.07555804356406
30
0
41
1
10
26.3804827257011
20
1.04899375526628
30
0
41
1
10
26.327273187074
20
0.989177829210377
30
0
41
1
10
26.2969163181274
20
0.955377824593739
30
0
41
1
10
26.2311075196486
20
0.882731133028983
30
0
41
1
10
26.1956349440865
20
0.843850639504296
30
0
41
1
10
26.118610027827
20
0.760035995799313
30
0
41
1
10
26.078093053387
20
0.716232370367948
30
0
41
1
10
25.9945346706261
20
0.626520480110173
30
0
41
1
10
25.9515590274664
20
0.580688003710947
30
0
41
1
10
25.8893317174976
20
0.514852082169767
30
0
41
1
10
25.8687050464497
20
0.493106818326453
30
0
41
1
10
25.8277665644309
20
0.449979186707651
30
0
41
1
10
25.8075580325953
20
0.428722930255617
30
0
41
1
10
25.7077728904365
20
0.323925144416364
30
0
41
1
10
25.6315241712979
20
0.244368468728993
30
0
41
1
10
25.5244023767718
20
0.133390965607987
30
0
41
1
10
25.4902285785393
20
0.0981320807779866
30
0
41
1
10
25.4243923604814
20
0.030453477155163
30
0
41
1
10
25.3948385138866
20
0.0004171920364797
30
0
41
1
10
25.3477450017108
20
-0.0465023041982704
30
0
41
1
10
25.3290811708347
20
-0.0645662419410371
30
0
41
1
10
25.3021993483201
20
-0.0894465212609816
30
0
41
1
10
25.2936328873212
20
-0.0965962545721197
30
0
41
1
10
25.2864966039774
20
-0.100772138305643
30
0
41
1
10
25.2857847853155
20
-0.10008403366902
30
0
41
1
10
25.287158574631
20
-0.0971729195689193
30
0
0
SPLINE
5
116
100
AcDbEntity
8
1
62
256
6
ByLayer
370
18
48
1
60
0
100
AcDbSpline
70
4
71
3
72
18
73
14
40
0
40
0
40
0
40
0
40
0.0395978569177423
40
0.0395978569177423
40
0.113474944847147
40
0.113474944847147
40
0.187352032776551
40
0.187352032776551
40
0.261229120705956
40
0.261229120705956
40
0.408983296564765
40
0.408983296564765
40
1
40
1
40
1
40
1
41
1
10
34.6343946417581
20
1.6041283483886
30
0
41
1
10
34.6373021526276
20
1.60602613830321
30
0
41
1
10
34.6401547147955
20
1.60807349005842
30
0
41
1
10
34.6480562857965
20
1.614379950603
30
0
41
1
10
34.6528952605607
20
1.61909019468032
30
0
41
1
10
34.6619439751548
20
1.62974563927816
30
0
41
1
10
34.6660107533375
20
1.63551464632351
30
0
41
1
10
34.6736918358268
20
1.64738837845587
30
0
41
1
10
34.6773577731549
20
1.65347062763479
30
0
41
1
10
34.688422646765
20
1.67163346884425
30
0
41
1
10
34.6957134325735
20
1.68378444450596
30
0
41
1
10
34.7318808911634
20
1.74462890783883
30
0
41
1
10
34.7599302450959
20
1.79354849612562
30
0
41
1
10
34.7881863584045
20
1.84169495250529
30
0
0
SPLINE
5
117
100
AcDbEntity
8
1
62
256
6
ByLayer
370
18
48
1
60
0
100
AcDbSpline
70
4
71
3
72
15
73
11
40
0
40
0
40
0
40
0
40
0.50000000000004
40
0.50000000000004
40
0.750000000000042
40
0.875000000000041
40
0.875000000000041
40
0.93750000000002
40
0.93750000000002
40
1
40
1
40
1
40
1
41
1
10
34.7881863584045
20
1.84169495250529
30
0
41
1
10
34.8087235328831
20
1.87668887273767
30
0
41
1
10
34.8293249920586
20
1.91119984563761
30
0
41
1
10
34.8601551198079
20
1.96243283413858
30
0
41
1
10
34.8755350039384
20
1.98793376495286
30
0
41
1
10
34.8906651307987
20
2.0134691288049
30
0
41
1
10
34.8981716100698
20
2.02626060050719
30
0
41
1
10
34.9006603839886
20
2.0305325432966
30
0
41
1
10
34.9056339209097
20
2.03906612909742
30
0
41
1
10
34.9081109378337
20
2.04333669709246
30
0
41
1
10
34.9106739477944
20
2.04750169153598
30
0
0
SPLINE
5
118
100
AcDbEntity
8
1
62
256
6
ByLayer
370
18
48
1
60
0
100
AcDbSpline
70
4
71
3
72
45
73
41
40
0
40
0
40
0
40
0
40
0.148972105894739
40
0.148972105894739
40
0.234074895305248
40
0.234074895305248
40
0.276626290010502
40
0.276626290010502
40
0.319177684715757
40
0.319177684715757
40
0.361729079421012
40
0.361729079421012
40
0.404280474126266
40
0.404280474126266
40
0.446831868831521
40
0.446831868831521
40
0.468107566184149
40
0.468107566184149
40
0.489383263536776
40
0.489383263536776
40
0.531934658242031
40
0.531934658242031
40
0.574486052947286
40
0.574486052947286
40
0.595761750299913
40
0.595761750299913
40
0.61703744765254
40
0.61703744765254
40
0.638313145005168
40
0.638313145005168
40
0.659588842357795
40
0.659588842357795
40
0.70214023706305
40
0.70214023706305
40
0.723415934415684
40
0.723415934415684
40
0.744691631768318
40
0.829794421178883
40
0.829794421178883
40
1
40
1
40
1
40
1
41
1
10
35.0991606515615
20
1.83478695285513
30
0
41
1
10
35.1165166419374
20
1.80475738468158
30
0
41
1
10
35.1339176560095
20
1.7743096433548
30
0
41
1
10
35.1614594745648
20
1.72609379942762
30
0
41
1
10
35.1715686310649
20
1.70852969483394
30
0
41
1
10
35.1866800513269
20
1.68193749573675
30
0
41
1
10
35.1916889988312
20
1.6730134061753
30
0
41
1
10
35.2015247377378
20
1.65492300480236
30
0
41
1
10
35.2063033713699
20
1.6457101067696
30
0
41
1
10
35.2161802068405
20
1.62752995773488
30
0
41
1
10
35.2212898216755
20
1.61857370138856
30
0
41
1
10
35.2325073382015
20
1.60156054303002
30
0
41
1
10
35.2386541759379
20
1.59350427013021
30
0
41
1
10
35.2519599102678
20
1.57924895364144
30
0
41
1
10
35.2591509928407
20
1.5729854387732
30
0
41
1
10
35.2707541222953
20
1.56492510166612
30
0
41
1
10
35.2747713086259
20
1.56245418509144
30
0
41
1
10
35.2828908732354
20
1.55799153452807
30
0
41
1
10
35.2870101995632
20
1.55598538390623
30
0
41
1
10
35.2995285163512
20
1.5505875328347
30
0
41
1
10
35.3080835966833
20
1.5477972329208
30
0
41
1
10
35.3256331285042
20
1.54406361108133
30
0
41
1
10
35.3344682733381
20
1.54322278399869
30
0
41
1
10
35.3475979593223
20
1.5436855998426
30
0
41
1
10
35.3519638208098
20
1.54411535333156
30
0
41
1
10
35.3606674830398
20
1.54556106388418
30
0
41
1
10
35.3650159239065
20
1.54658292376467
30
0
41
1
10
35.3734689176022
20
1.54924296758506
30
0
41
1
10
35.3775982909796
20
1.55088024288429
30
0
41
1
10
35.3856087854001
20
1.55493416083641
30
0
41
1
10
35.3895185508389
20
1.55740536518101
30
0
41
1
10
35.4004813228728
20
1.56603597344446
30
0
41
1
10
35.4066885543305
20
1.5734004699514
30
0
41
1
10
35.4154351865516
20
1.5852150528697
30
0
41
1
10
35.4182812133158
20
1.58922558694707
30
0
41
1
10
35.4239824826311
20
1.59720897423691
30
0
41
1
10
35.4381689600865
20
1.61718542254556
30
0
41
1
10
35.4520770936784
20
1.6371899564509
30
0
41
1
10
35.4851860062175
20
1.68495820490091
30
0
41
1
10
35.5069027980628
20
1.71649228711649
30
0
41
1
10
35.5287240237296
20
1.74709954002702
30
0
0
SPLINE
5
119
100
AcDbEntity
8
1
62
256
6
ByLayer
370
18
48
1
60
0
100
AcDbSpline
70
4
71
3
72
15
73
11
40
0
40
0
40
0
40
0
40
0.500000000000021
40
0.500000000000021
40
0.750000000000011
40
0.875000000000007
40
0.875000000000007
40
0.937500000000003
40
0.937500000000003
40
1
40
1
40
1
40
1
41
1
10
35.5287240237296
20
1.74709954002702
30
0
41
1
10
35.5493032840799
20
1.77596476675046
30
0
41
1
10
35.5699471012042
20
1.80394855383969
30
0
41
1
10
35.6008445742452
20
1.84490069353865
30
0
41
1
10
35.6162583754854
20
1.86514373030926
30
0
41
1
10
35.6314210795914
20
1.88532004288362
30
0
41
1
10
35.6389434484023
20
1.89542172228917
30
0
41
1
10
35.6414369567598
20
1.89879731995975
30
0
41
1
10
35.6464231800822
20
1.90552514944505
30
0
41
1
10
35.6489066944725
20
1.9088909153603
30
0
41
1
10
35.6514829237662
20
1.91210445866253
30
0
0
SPLINE
5
11A
100
AcDbEntity
8
1
62
256
6
ByLayer
370
18
48
1
60
0
100
AcDbSpline
70
4
71
3
72
49
73
45
40
0
40
0
40
0
40
0
40
0.125000000000016
40
0.125000000000016
40
0.250000000000032
40
0.250000000000032
40
0.375000000000049
40
0.375000000000049
40
0.437500000000057
40
0.437500000000057
40
0.468750000000061
40
0.468750000000061
40
0.500000000000065
40
0.500000000000065
40
0.562500000000073
40
0.562500000000073
40
0.578125000000075
40
0.578125000000075
40
0.593750000000077
40
0.593750000000077
40
0.625000000000068
40
0.625000000000068
40
0.656250000000059
40
0.656250000000059
40
0.68750000000005
40
0.68750000000005
40
0.703125000000045
40
0.703125000000045
40
0.718750000000041
40
0.718750000000041
40
0.734375000000036
40
0.734375000000036
40
0.750000000000031
40
0.750000000000031
40
0.765625000000027
40
0.765625000000027
40
0.781250000000022
40
0.781250000000022
40
0.796875000000018
40
0.796875000000018
40
0.812500000000013
40
0.875000000000006
40
0.875000000000006
40
1
40
1
40
1
40
1
41
1
10
37.9356908959484
20
0.175052573041626
30
0
41
1
10
37.9549158305195
20
0.148267768708053
30
0
41
1
10
37.9742440035325
20
0.122206730869038
30
0
41
1
10
38.0130366963741
20
0.0716984269046179
30
0
41
1
10
38.0324993754336
20
0.0472480637961326
30
0
41
1
10
38.0715376651428
20
9.0474234185E-06
30
0
41
1
10
38.091078074815
20
-0.0227563069367989
30
0
41
1
10
38.1206690988965
20
-0.0557493851400181
30
0
41
1
10
38.13061620403
20
-0.0665798565240152
30
0
41
1
10
38.1455474637198
20
-0.0824853637168417
30
0
41
1
10
38.1505082495073
20
-0.0877183136415454
30
0
41
1
10
38.1602793374565
20
-0.0979675438374841
30
0
41
1
10
38.1650346832604
20
-0.102947394510466
30
0
41
1
10
38.1795097101207
20
-0.117852578105214
30
0
41
1
10
38.1896228480893
20
-0.127864668657537
30
0
41
1
10
38.2056712352357
20
-0.14232245097628
30
0
41
1
10
38.2090454840798
20
-0.145307660853263
30
0
41
1
10
38.2161669124852
20
-0.151496397211304
30
0
41
1
10
38.2199406948843
20
-0.154721839659004
30
0
41
1
10
38.2315023515378
20
-0.164455881766173
30
0
41
1
10
38.2396079318892
20
-0.171090405605042
30
0
41
1
10
38.2564229714673
20
-0.184591241261188
30
0
41
1
10
38.2652033321384
20
-0.191512832661459
30
0
41
1
10
38.2828206027962
20
-0.205221958804913
30
0
41
1
10
38.2917011816005
20
-0.212043479962603
30
0
41
1
10
38.3051203076611
20
-0.222259461560668
30
0
41
1
10
38.3096341954804
20
-0.22568129080733
30
0
41
1
10
38.3185427485271
20
-0.232415040284025
30
0
41
1
10
38.3229360334894
20
-0.23572601845845
30
0
41
1
10
38.3315850196228
20
-0.242234233468366
30
0
41
1
10
38.3358412421177
20
-0.24543227749453
30
0
41
1
10
38.3441763729085
20
-0.251693417821343
30
0
41
1
10
38.3482129796016
20
-0.254723857457577
30
0
41
1
10
38.3557400503092
20
-0.260371681860505
30
0
41
1
10
38.3592663096134
20
-0.263016167596476
30
0
41
1
10
38.3659168190355
20
-0.268009577552903
30
0
41
1
10
38.3690489361187
20
-0.270364153204468
30
0
41
1
10
38.375064843705
20
-0.274909167656432
30
0
41
1
10
38.3779589952296
20
-0.277108160734827
30
0
41
1
10
38.3837637602951
20
-0.281558619387738
30
0
41
1
10
38.3982049597238
20
-0.292724408957383
30
0
41
1
10
38.4123517679322
20
-0.304133663189163
30
0
41
1
10
38.4460189951616
20
-0.332185673139748
30
0
41
1
10
38.4680814848633
20
-0.35177628298851
30
0
41
1
10
38.490250051156
20
-0.372605858991904
30
0
0
SPLINE
5
11B
100
AcDbEntity
8
1
62
256
6
ByLayer
370
18
48
1
60
0
100
AcDbSpline
70
4
71
3
72
15
73
11
40
0
40
0
40
0
40
0
40
0.500000000000018
40
0.500000000000018
40
0.750000000000008
40
0.875000000000002
40
0.875000000000002
40
0.937500000000001
40
0.937500000000001
40
1
40
1
40
1
40
1
41
1
10
38.490250051156
20
-0.372605858991761
30
0
41
1
10
38.5109297517053
20
-0.392036497339404
30
0
41
1
10
38.5316712294228
20
-0.412518649023383
30
0
41
1
10
38.5627081481539
20
-0.444587252753394
30
0
41
1
10
38.5781894347186
20
-0.460942944942275
30
0
41
1
10
38.5934148583295
20
-0.477595757531617
30
0
41
1
10
38.6009676599226
20
-0.485955378823291
30
0
41
1
10
38.6034704300711
20
-0.488743264649088
30
0
41
1
10
38.6084801752039
20
-0.494350797842458
30
0
41
1
10
38.6109760090727
20
-0.497160764150323
30
0
41
1
10
38.6135763671545
20
-0.500075357002203
30
0
0
SPLINE
5
11C
100
AcDbEntity
8
1
62
256
6
ByLayer
370
18
48
1
60
0
100
AcDbSpline
70
4
71
3
72
50
73
46
40
0
40
0
40
0
40
0
40
0.24999999999997
40
0.24999999999997
40
0.374999999999959
40
0.374999999999959
40
0.406249999999963
40
0.406249999999963
40
0.437499999999967
40
0.437499999999967
40
0.46874999999997
40
0.46874999999997
40
0.499999999999974
40
0.499999999999974
40
0.531249999999978
40
0.531249999999978
40
0.562499999999981
40
0.562499999999981
40
0.578124999999983
40
0.578124999999983
40
0.593749999999985
40
0.593749999999985
40
0.624999999999989
40
0.624999999999989
40
0.64062499999999
40
0.64062499999999
40
0.656249999999992
40
0.656249999999992
40
0.687499999999995
40
0.687499999999995
40
0.703124999999997
40
0.703124999999997
40
0.718749999999999
40
0.718749999999999
40
0.734375000000001
40
0.734375000000001
40
0.750000000000003
40
0.750000000000003
40
0.781250000000006
40
0.781250000000006
40
0.81250000000001
40
0.81250000000001
40
0.875000000000007
40
0.875000000000007
40
1
40
1
40
1
40
1
41
1
10
38.6757544913582
20
-0.560304849204272
30
0
41
1
10
38.7149726502437
20
-0.590302605245256
30
0
41
1
10
38.7545910621365
20
-0.616553984545249
30
0
41
1
10
38.8145191284513
20
-0.649935349582307
30
0
41
1
10
38.8345391981879
20
-0.660018683720637
30
0
41
1
10
38.859797760073
20
-0.671494425286426
30
0
41
1
10
38.8648632249115
20
-0.673734797949663
30
0
41
1
10
38.8750303095819
20
-0.678113438576531
30
0
41
1
10
38.8801395695131
20
-0.680259403902738
30
0
41
1
10
38.890289998451
20
-0.684341980393043
30
0
41
1
10
38.8953296940668
20
-0.686277079304432
30
0
41
1
10
38.9052077288351
20
-0.689803764308124
30
0
41
1
10
38.9100253972344
20
-0.69137519173151
30
0
41
1
10
38.9201009538486
20
-0.694820053854215
30
0
41
1
10
38.9253783562691
20
-0.69670244083926
30
0
41
1
10
38.9369790992038
20
-0.701410924746199
30
0
41
1
10
38.9432462309634
20
-0.704217537985585
30
0
41
1
10
38.9535376691089
20
-0.709344169635813
30
0
41
1
10
38.9571144952988
20
-0.711203775762499
30
0
41
1
10
38.9645700459046
20
-0.71523947468657
30
0
41
1
10
38.9684699557094
20
-0.717428283174513
30
0
41
1
10
38.980364624921
20
-0.72431670330019
30
0
41
1
10
38.9885882614763
20
-0.729336713001885
30
0
41
1
10
39.0012694743512
20
-0.737412418645306
30
0
41
1
10
39.0055560401266
20
-0.740198680564589
30
0
41
1
10
39.0142504921822
20
-0.745977727764739
30
0
41
1
10
39.0186556510453
20
-0.748969564427739
30
0
41
1
10
39.0317922129371
20
-0.758112972317662
30
0
41
1
10
39.0405283966883
20
-0.764501265562018
30
0
41
1
10
39.0535709049307
20
-0.77457574998985
30
0
41
1
10
39.0579082848139
20
-0.778014707483749
30
0
41
1
10
39.0665561442744
20
-0.785076528376152
30
0
41
1
10
39.0708605343132
20
-0.788695753002486
30
0
41
1
10
39.0791879731915
20
-0.795950290091668
30
0
41
1
10
39.0832405788029
20
-0.799608420668847
30
0
41
1
10
39.0910480142102
20
-0.807007821335588
30
0
41
1
10
39.0948364703335
20
-0.810792514993665
30
0
41
1
10
39.1053106839825
20
-0.821849220055782
30
0
41
1
10
39.1111582189364
20
-0.828871821692815
30
0
41
1
10
39.1224417623656
20
-0.84287289727402
30
0
41
1
10
39.1280041214017
20
-0.849897361597442
30
0
41
1
10
39.1446023232078
20
-0.871092995218191
30
0
41
1
10
39.1555051458417
20
-0.885370737609094
30
0
41
1
10
39.1879607009517
20
-0.928716038011544
30
0
41
1
10
39.209247069339
20
-0.958277638808511
30
0
41
1
10
39.2306387612011
20
-0.988650618420706
30
0
0
SPLINE
5
11D
100
AcDbEntity
8
1
62
256
6
ByLayer
370
18
48
1
60
0
100
AcDbSpline
70
4
71
3
72
15
73
11
40
0
40
0
40
0
40
0
40
0.499999999999963
40
0.499999999999963
40
0.749999999999944
40
0.874999999999953
40
0.874999999999953
40
0.937499999999977
40
0.937499999999977
40
1
40
1
40
1
40
1
41
1
10
39.2306387612011
20
-0.988650618420706
30
0
41
1
10
39.2512514149793
20
-1.01791748132229
30
0
41
1
10
39.2719247741188
20
-1.04788002705322
30
0
41
1
10
39.3028571934067
20
-1.09377525300684
30
0
41
1
10
39.3182863759645
20
-1.11695471889718
30
0
41
1
10
39.3334624884375
20
-1.14040452484974
30
0
41
1
10
39.3409913517705
20
-1.15216756137042
30
0
41
1
10
39.3434869659648
20
-1.15609363797992
30
0
41
1
10
39.3484773490187
20
-1.1639639882921
30
0
41
1
10
39.3509629268383
20
-1.1679053894841
30
0
41
1
10
39.3535419259684
20
-1.17188537929326
30
0
0
SPLINE
5
11E
100
AcDbEntity
8
1
62
256
6
ByLayer
370
18
48
1
60
0
100
AcDbSpline
70
4
71
3
72
46
73
42
40
0
40
0
40
0
40
0
40
0.250000000000075
40
0.250000000000075
40
0.375000000000112
40
0.375000000000112
40
0.437500000000126
40
0.437500000000126
40
0.468750000000133
40
0.468750000000133
40
0.50000000000014
40
0.50000000000014
40
0.531250000000147
40
0.531250000000147
40
0.562500000000154
40
0.562500000000154
40
0.593750000000161
40
0.593750000000161
40
0.609375000000157
40
0.609375000000157
40
0.625000000000154
40
0.625000000000154
40
0.656250000000133
40
0.656250000000133
40
0.687500000000112
40
0.687500000000112
40
0.703125000000102
40
0.703125000000102
40
0.718750000000091
40
0.718750000000091
40
0.734375000000081
40
0.734375000000081
40
0.750000000000071
40
0.750000000000071
40
0.781250000000063
40
0.781250000000063
40
0.812500000000055
40
0.812500000000055
40
0.87500000000004
40
0.87500000000004
40
1
40
1
40
1
40
1
41
1
10
39.4160732175183
20
-1.22268290499443
30
0
41
1
10
39.4551325731197
20
-1.22427445191494
30
0
41
1
10
39.4945683171426
20
-1.2220658239255
30
0
41
1
10
39.5541754370109
20
-1.21267796490136
30
0
41
1
10
39.5740864229525
20
-1.20847770554224
30
0
41
1
10
39.6042143555823
20
-1.20087225186094
30
0
41
1
10
39.6143581570417
20
-1.19818534031825
30
0
41
1
10
39.6295085564456
20
-1.19365177206043
30
0
41
1
10
39.6345282246733
20
-1.19203273510084
30
0
41
1
10
39.6443789879078
20
-1.1884235969797
30
0
41
1
10
39.6491686334528
20
-1.18638367749537
30
0
41
1
10
39.6591111840134
20
-1.18260293508342
30
0
41
1
10
39.6642715944657
20
-1.18087098382222
30
0
41
1
10
39.6756357069906
20
-1.17851845690987
30
0
41
1
10
39.681848552297
20
-1.17792534252789
30
0
41
1
10
39.6952982691336
20
-1.17838695903762
30
0
41
1
10
39.7025682494195
20
-1.17942933210247
30
0
41
1
10
39.7142965760522
20
-1.182244001475
30
0
41
1
10
39.7183308782812
20
-1.18338690875473
30
0
41
1
10
39.7264754208649
20
-1.18598176609319
30
0
41
1
10
39.7306062795162
20
-1.18743887214956
30
0
41
1
10
39.7431581124198
20
-1.19226082510244
30
0
41
1
10
39.7517477049848
20
-1.19606821025261
30
0
41
1
10
39.7693153439827
20
-1.2050643607175
30
0
41
1
10
39.7780767192564
20
-1.21018113816615
30
0
41
1
10
39.7911540200697
20
-1.21888138244808
30
0
41
1
10
39.7955026587798
20
-1.22194751843011
30
0
41
1
10
39.8041723440198
20
-1.22844251224757
30
0
41
1
10
39.8084777215038
20
-1.23186146227852
30
0
41
1
10
39.8168476371491
20
-1.23895469179425
30
0
41
1
10
39.8209355411931
20
-1.24264410482962
30
0
41
1
10
39.8288579453653
20
-1.25039450475495
30
0
41
1
10
39.8327172972565
20
-1.25450802546661
30
0
41
1
10
39.843476469057
20
-1.26708746055337
30
0
41
1
10
39.8495856070757
20
-1.27585393863046
30
0
41
1
10
39.8611465518504
20
-1.29364160160586
30
0
41
1
10
39.8667749660535
20
-1.30258148701682
30
0
41
1
10
39.883650129722
20
-1.32948713560847
30
0
41
1
10
39.8947258219588
20
-1.34755720547395
30
0
41
1
10
39.9276855084631
20
-1.40213047511881
30
0
41
1
10
39.9493076458962
20
-1.43900913209012
30
0
41
1
10
39.9710275843564
20
-1.47626119512759
30
0
0
SPLINE
5
11F
100
AcDbEntity
8
1
62
256
6
ByLayer
370
18
48
1
60
0
100
AcDbSpline
70
4
71
3
72
8
73
4
40
0
40
0
40
0
40
0
40
1
40
1
40
1
40
1
41
1
10
39.9710275843564
20
-1.47626119512759
30
0
41
1
10
39.9921822537427
20
-1.51254376006008
30
0
41
1
10
40.0134005000362
20
-1.54911483660473
30
0
41
1
10
40.0345538380611
20
-1.58598940075999
30
0
0
SPLINE
5
120
100
AcDbEntity
8
1
62
256
6
ByLayer
370
18
48
1
60
0
100
AcDbSpline
70
4
71
3
72
8
73
4
40
0
40
0
40
0
40
0
40
1
40
1
40
1
40
1
41
1
10
40.0345538380611
20
-1.5859894007601
30
0
41
1
10
40.104305041285
20
-1.61432174298255
30
0
41
1
10
40.1743749995014
20
-1.63903607632218
30
0
41
1
10
40.24508574545
20
-1.659968639536
30
0
0
SPLINE
5
121
100
AcDbEntity
8
1
62
256
6
ByLayer
370
18
48
1
60
0
100
AcDbSpline
70
4
71
3
72
45
73
41
40
0
40
0
40
0
40
0
40
0.125000000000006
40
0.125000000000006
40
0.250000000000012
40
0.250000000000012
40
0.312500000000014
40
0.312500000000014
40
0.375000000000017
40
0.375000000000017
40
0.43750000000002
40
0.43750000000002
40
0.468750000000022
40
0.468750000000022
40
0.500000000000023
40
0.500000000000023
40
0.531250000000025
40
0.531250000000025
40
0.562500000000026
40
0.562500000000026
40
0.593750000000028
40
0.593750000000028
40
0.625000000000029
40
0.625000000000029
40
0.65625000000003
40
0.65625000000003
40
0.687500000000032
40
0.687500000000032
40
0.703125000000032
40
0.703125000000032
40
0.718750000000033
40
0.718750000000033
40
0.750000000000033
40
0.750000000000033
40
0.781250000000034
40
0.781250000000034
40
0.812500000000035
40
0.875000000000023
40
0.875000000000023
40
1
40
1
40
1
40
1
41
1
10
40.24508574545
20
-1.65996863953586
30
0
41
1
10
40.2604518554722
20
-1.64749433947125
30
0
41
1
10
40.2758563654047
20
-1.63447911619838
30
0
41
1
10
40.3067370572778
20
-1.60732392980412
30
0
41
1
10
40.3222055467948
20
-1.59317342504895
30
0
41
1
10
40.3456272419557
20
-1.57128392704001
30
0
41
1
10
40.353491013671
20
-1.56390293311924
30
0
41
1
10
40.369223642754
20
-1.54882323838413
30
0
41
1
10
40.3770383969491
20
-1.5410498446463
30
0
41
1
10
40.3922046660417
20
-1.52458961771734
30
0
41
1
10
40.3996956891349
20
-1.51609617636737
30
0
41
1
10
40.4126908394215
20
-1.50532984533231
30
0
41
1
10
40.4173530487578
20
-1.50205513253292
30
0
41
1
10
40.4273514523093
20
-1.49658452935594
30
0
41
1
10
40.4326581228577
20
-1.49439750839252
30
0
41
1
10
40.4439194358125
20
-1.49120724804803
30
0
41
1
10
40.4498741251901
20
-1.49020488079412
30
0
41
1
10
40.462392581332
20
-1.48931806736562
30
0
41
1
10
40.4688283073302
20
-1.48941565346865
30
0
41
1
10
40.4819130683597
20
-1.49053701246729
30
0
41
1
10
40.4885765418718
20
-1.49156300764977
30
0
41
1
10
40.5021480105312
20
-1.49464062903954
30
0
41
1
10
40.5090603444516
20
-1.49670676236005
30
0
41
1
10
40.5227281326558
20
-1.50198790151461
30
0
41
1
10
40.5295329735368
20
-1.50518970475969
30
0
41
1
10
40.5430654997672
20
-1.51275741558939
30
0
41
1
10
40.5498234017338
20
-1.5171491134455
30
0
41
1
10
40.5594907221187
20
-1.52456859436489
30
0
41
1
10
40.5626482051004
20
-1.52718892483421
30
0
41
1
10
40.5688007400538
20
-1.53279643927996
30
0
41
1
10
40.5718094736364
20
-1.53581064777413
30
0
41
1
10
40.5804314071355
20
-1.54535757067629
30
0
41
1
10
40.5855206206849
20
-1.55228435053388
30
0
41
1
10
40.5949481613179
20
-1.56677427401021
30
0
41
1
10
40.5993401966583
20
-1.57428702261677
30
0
41
1
10
40.6081945047014
20
-1.58922011922667
30
0
41
1
10
40.6213806459257
20
-1.61167376043957
30
0
41
1
10
40.6343428691767
20
-1.6342527107148
30
0
41
1
10
40.6600889153425
20
-1.67950664471019
30
0
41
1
10
40.6770199097494
20
-1.7098093475004
30
0
41
1
10
40.6939415144977
20
-1.74008618399691
30
0
0
SPLINE
5
122
100
AcDbEntity
8
1
62
256
6
ByLayer
370
18
48
1
60
0
100
AcDbSpline
70
4
71
3
72
10
73
6
40
0
40
0
40
0
40
0
40
0.5
40
0.5
40
1
40
1
40
1
40
1
41
1
10
40.6939415144977
20
-1.74008618399691
30
0
41
1
10
40.760088148276
20
-1.74434622770687
30
0
41
1
10
40.8263110078409
20
-1.74537390907361
30
0
41
1
10
40.9593296696951
20
-1.74078471407563
30
0
41
1
10
41.02618445385
20
-1.73512577038383
30
0
41
1
10
41.0936062828945
20
-1.72607192597477
30
0
0
SPLINE
5
123
100
AcDbEntity
8
1
62
256
6
ByLayer
370
18
48
1
60
0
100
AcDbSpline
70
4
71
3
72
15
73
11
40
0
40
0
40
0
40
0
40
0.499999999999985
40
0.499999999999985
40
0.749999999999977
40
0.874999999999971
40
0.874999999999971
40
0.937499999999986
40
0.937499999999986
40
1
40
1
40
1
40
1
41
1
10
37.7498324024886
20
0.292088011304202
30
0
41
1
10
37.7704139581127
20
0.285251945525346
30
0
41
1
10
37.791056451211
20
0.277157106728623
30
0
41
1
10
37.8219449241971
20
0.263403639103558
30
0
41
1
10
37.8373529174302
20
0.256145652131721
30
0
41
1
10
37.8525096230574
20
0.248581003136508
30
0
41
1
10
37.8600291458626
20
0.244770975887462
30
0
41
1
10
37.8625220070498
20
0.243501385135659
30
0
41
1
10
37.8675050217728
20
0.240930924198977
30
0
41
1
10
37.8699868159219
20
0.239641082465113
30
0
41
1
10
37.8725576645493
20
0.238216974245176
30
0
0
SPLINE
5
124
100
AcDbEntity
8
1
62
256
6
ByLayer
370
18
48
1
60
0
100
AcDbSpline
70
4
71
3
72
47
73
43
40
0
40
0
40
0
40
0
40
0.250000000000055
40
0.250000000000055
40
0.375000000000083
40
0.375000000000083
40
0.437500000000096
40
0.437500000000096
40
0.468750000000099
40
0.468750000000099
40
0.500000000000101
40
0.500000000000101
40
0.531250000000104
40
0.531250000000104
40
0.562500000000106
40
0.562500000000106
40
0.593750000000108
40
0.593750000000108
40
0.62500000000011
40
0.62500000000011
40
0.640625000000104
40
0.640625000000104
40
0.656250000000098
40
0.656250000000098
40
0.687500000000085
40
0.687500000000085
40
0.718750000000072
40
0.718750000000072
40
0.734375000000066
40
0.734375000000066
40
0.750000000000059
40
0.750000000000059
40
0.765625000000053
40
0.765625000000053
40
0.781250000000047
40
0.781250000000047
40
0.796875000000041
40
0.796875000000041
40
0.812500000000034
40
0.87500000000002
40
0.87500000000002
40
1
40
1
40
1
40
1
41
1
10
37.1948880861903
20
0.888548716112695
30
0
41
1
10
37.2338706806634
20
0.816912743315385
30
0
41
1
10
37.2732435493763
20
0.747183296511309
30
0
41
1
10
37.3327784845051
20
0.645956019309239
30
0
41
1
10
37.3526378823755
20
0.612822424791005
30
0
41
1
10
37.3827262339564
20
0.564010129996973
30
0
41
1
10
37.3928572080536
20
0.547874932323651
30
0
41
1
10
37.4080048702808
20
0.52393173288533
30
0
41
1
10
37.4130254655403
20
0.516000418064749
30
0
41
1
10
37.4228766265055
20
0.500279044280234
30
0
41
1
10
37.4276616591459
20
0.492500167413141
30
0
41
1
10
37.4375748874986
20
0.476937007342229
30
0
41
1
10
37.4427124794286
20
0.469150320000694
30
0
41
1
10
37.4540253527605
20
0.453392427620855
30
0
41
1
10
37.4601577017955
20
0.445502965200376
30
0
41
1
10
37.4735251825732
20
0.429870373099987
30
0
41
1
10
37.480790227741
20
0.422087127106636
30
0
41
1
10
37.4964420039117
20
0.406648521468014
30
0
41
1
10
37.5045719131329
20
0.399225019090864
30
0
41
1
10
37.5171095139434
20
0.388421508307658
30
0
41
1
10
37.5213478004653
20
0.384877475533983
30
0
41
1
10
37.5299421809483
20
0.377902428578864
30
0
41
1
10
37.5343187826785
20
0.374456013627025
30
0
41
1
10
37.5474533424397
20
0.364440393230922
30
0
41
1
10
37.5562165083309
20
0.358205715525287
30
0
41
1
10
37.5737165422384
20
0.346664332344346
30
0
41
1
10
37.5825374637587
20
0.341290821613029
30
0
41
1
10
37.5951415658665
20
0.334333465736876
30
0
41
1
10
37.599254497824
20
0.332186902534829
30
0
41
1
10
37.6072483878239
20
0.328339933535602
30
0
41
1
10
37.6111349909849
20
0.326653801612622
30
0
41
1
10
37.6183343307624
20
0.323929068518567
30
0
41
1
10
37.6216866194198
20
0.322868572833414
30
0
41
1
10
37.6280180776568
20
0.321191758242719
30
0
41
1
10
37.6310016440625
20
0.320573079178956
30
0
41
1
10
37.636806286116
20
0.319487980943023
30
0
41
1
10
37.6396460352881
20
0.318996482893311
30
0
41
1
10
37.6453326519741
20
0.317963713728062
30
0
41
1
10
37.6594834213359
20
0.31535343438793
30
0
41
1
10
37.6733594173509
20
0.312543676139114
30
0
41
1
10
37.7063940580405
20
0.305138140798277
30
0
41
1
10
37.7280628227767
20
0.299318673631433
30
0
41
1
10
37.7498324024886
20
0.292088011304173
30
0
0
SPLINE
5
125
100
AcDbEntity
8
1
62
256
6
ByLayer
370
18
48
1
60
0
100
AcDbSpline
70
4
71
3
72
12
73
8
40
0
40
0
40
0
40
0
40
0.260162171480155
40
0.260162171480155
40
0.520324342960309
40
0.520324342960309
40
1
40
1
40
1
40
1
41
1
10
36.6388058701423
20
-2.00759649523127
30
0
41
1
10
36.6407347671347
20
-2.01454248844604
30
0
41
1
10
36.6426671621726
20
-2.02061516375062
30
0
41
1
10
36.646498808965
20
-2.03087616174327
30
0
41
1
10
36.6484037222193
20
-2.03508690953103
30
0
41
1
10
36.6538014069791
20
-2.04448988301246
30
0
41
1
10
36.6572776817591
20
-2.04751832652602
30
0
41
1
10
36.6607573716038
20
-2.04750771598333
30
0
0
SPLINE
5
126
100
AcDbEntity
8
1
62
256
6
ByLayer
370
18
48
1
60
0
100
AcDbSpline
70
4
71
3
72
8
73
4
40
0
40
0
40
0
40
0
40
1
40
1
40
1
40
1
41
1
10
37.7806557356394
20
2.03847841022403
30
0
41
1
10
37.77724065597
20
2.04448924584261
30
0
41
1
10
37.7738106524133
20
2.04751140915835
30
0
41
1
10
37.7703050403111
20
2.04750782417739
30
0
0
SPLINE
5
127
100
AcDbEntity
8
1
62
256
6
ByLayer
370
18
48
1
60
0
100
AcDbSpline
70
4
71
3
72
21
73
17
40
0
40
0
40
0
40
0
40
0.0026467177022001
40
0.0026467177022001
40
0.10238204593198
40
0.10238204593198
40
0.20211737416176
40
0.20211737416176
40
0.40158803062132
40
0.601058687080881
40
0.800529343540442
40
0.800529343540442
40
0.850397007655332
40
0.850397007655332
40
0.900264671770221
40
1
40
1
40
1
40
1
41
1
10
38.4002311643803
20
2.03913514142576
30
0
41
1
10
38.4002809576628
20
2.03921930906208
30
0
41
1
10
38.4003307617855
20
2.03930284974311
30
0
41
1
10
38.4022577419306
20
2.04251016860209
30
0
41
1
10
38.4041506253016
20
2.04474246822133
30
0
41
1
10
38.4079845667517
20
2.04739161368894
30
0
41
1
10
38.4099333308061
20
2.04780432988
30
0
41
1
10
38.4157944872945
20
2.04628080349636
30
0
41
1
10
38.423652210793
20
2.03695852426426
30
0
41
1
10
38.4353657021739
20
2.00173939444278
30
0
41
1
10
38.4430971820993
20
1.9640736424569
30
0
41
1
10
38.447926353648
20
1.9359459594271
30
0
41
1
10
38.4488918268829
20
1.93009156632516
30
0
41
1
10
38.4508124154248
20
1.91799174752839
30
0
41
1
10
38.4536820158864
20
1.89923116137052
30
0
41
1
10
38.4565230456673
20
1.87865902276738
30
0
41
1
10
38.4584097926848
20
1.86415148939375
30
0
0
SPLINE
5
128
100
AcDbEntity
8
1
62
256
6
ByLayer
370
18
48
1
60
0
100
AcDbSpline
70
4
71
3
72
18
73
14
40
0
40
0
40
0
40
0
40
0.0310383104026665
40
0.0310383104026665
40
0.224830648322133
40
0.418622986241599
40
0.418622986241599
40
0.515519155201333
40
0.515519155201333
40
0.612415324161066
40
0.612415324161066
40
0.806207662080533
40
1
40
1
40
1
40
1
41
1
10
36.0199784247325
20
-2.0475068895679
30
0
41
1
10
36.0193602715372
20
-2.04751713041787
30
0
41
1
10
36.018742620979
20
-2.04743471229378
30
0
41
1
10
36.0142721113021
20
-2.04616967691263
30
0
41
1
10
36.0066039204542
20
-2.03681219115819
30
0
41
1
10
35.9989881501071
20
-2.01318129747901
30
0
41
1
10
35.9932724720003
20
-1.98996338869782
30
0
41
1
10
35.9913608899281
20
-1.98127646372072
30
0
41
1
10
35.9875653644015
20
-1.96220954861332
30
0
41
1
10
35.9856802081148
20
-1.95183105100375
30
0
41
1
10
35.9800495693521
20
-1.91820887271283
30
0
41
1
10
35.9726097484294
20
-1.86676086344639
30
0
41
1
10
35.9651307541013
20
-1.80226842851002
30
0
41
1
10
35.9613220387508
20
-1.76670642577395
30
0
0
SPLINE
5
129
100
AcDbEntity
8
1
62
256
6
ByLayer
370
18
48
1
60
0
100
AcDbSpline
70
4
71
3
72
21
73
17
40
0
40
0
40
0
40
0
40
0.183428348786978
40
0.183428348786978
40
0.366856697573956
40
0.366856697573956
40
0.412713784770701
40
0.412713784770701
40
0.458570871967445
40
0.458570871967445
40
0.550285046360935
40
0.550285046360935
40
0.733713395147914
40
0.917141743934893
40
0.917141743934893
40
1
40
1
40
1
40
1
41
1
10
35.8983923444304
20
-1.7340052954319
30
0
41
1
10
35.9022841179409
20
-1.7713281397435
30
0
41
1
10
35.9061576023911
20
-1.80545602297983
30
0
41
1
10
35.9137661931828
20
-1.86737343266009
30
0
41
1
10
35.9174995807311
20
-1.89516310512249
30
0
41
1
10
35.922142842829
20
-1.92584079217176
30
0
41
1
10
35.92307088594
20
-1.93177283638212
30
0
41
1
10
35.9249297817482
20
-1.94322533445464
30
0
41
1
10
35.9258618531221
20
-1.94875233323788
30
0
41
1
10
35.9286552915029
20
-1.9646264736341
30
0
41
1
10
35.9305197592271
20
-1.97428856904261
30
0
41
1
10
35.9361387864141
20
-2.00056882219479
30
0
41
1
10
35.9436962029075
20
-2.02840719065245
30
0
41
1
10
35.9514333960294
20
-2.04208288439889
30
0
41
1
10
35.9571118835867
20
-2.04679309769139
30
0
41
1
10
35.9588874390094
20
-2.04752409712776
30
0
41
1
10
35.9606709798184
20
-2.0475073931128
30
0
0
SPLINE
5
12A
100
AcDbEntity
8
1
62
256
6
ByLayer
370
18
48
1
60
0
100
AcDbSpline
70
4
71
3
72
15
73
11
40
0
40
0
40
0
40
0
40
0.41454176101236
40
0.41454176101236
40
0.51817720126545
40
0.51817720126545
40
0.621812641518539
40
0.621812641518539
40
0.829083522024717
40
1
40
1
40
1
40
1
41
1
10
34.4624242224481
20
1.56587534555834
30
0
41
1
10
34.457185227944
20
1.6204979327544
30
0
41
1
10
34.4519577020607
20
1.66581052230262
30
0
41
1
10
34.4453399702845
20
1.71039647594776
30
0
41
1
10
34.4440104022272
20
1.71871556753641
30
0
41
1
10
34.441371183455
20
1.73396063252281
30
0
41
1
10
34.4400584139213
20
1.74090966085157
30
0
41
1
10
34.4361376344095
20
1.75976886143431
30
0
41
1
10
34.4314122388759
20
1.77788165036827
30
0
41
1
10
34.4267121895198
20
1.78727799158395
30
0
41
1
10
34.4245797592874
20
1.78971816046214
30
0
0
SPLINE
5
12B
100
AcDbEntity
8
1
62
256
6
ByLayer
370
18
48
1
60
0
100
AcDbSpline
70
4
71
3
72
21
73
17
40
0
40
0
40
0
40
0
40
0.113086112638387
40
0.113086112638387
40
0.169629168957581
40
0.169629168957581
40
0.226172225276775
40
0.452344450553548
40
0.678516675830321
40
0.678516675830321
40
0.791602788468708
40
0.8481458447879
40
0.8481458447879
40
0.904688901107093
40
0.904688901107093
40
1
40
1
40
1
40
1
41
1
10
38.5204271310317
20
1.8375246062007
30
0
41
1
10
38.5184764274152
20
1.85303738417869
30
0
41
1
10
38.5165302325685
20
1.86777952405976
30
0
41
1
10
38.5136157462788
20
1.88871301377424
30
0
41
1
10
38.5126439442321
20
1.89550106281601
30
0
41
1
10
38.510711942717
20
1.90860798825392
30
0
41
1
10
38.5059053907346
20
1.9402403489959
30
0
41
1
10
38.4974505181958
20
1.98712156068649
30
0
41
1
10
38.4900710218926
20
2.01482947138737
30
0
41
1
10
38.4845165860391
20
2.030333898691
30
0
41
1
10
38.4817341741843
20
2.03676444278639
30
0
41
1
10
38.4789287567655
20
2.04118109391007
30
0
41
1
10
38.4770515589869
20
2.04367274478128
30
0
41
1
10
38.4761081278418
20
2.04469312483971
30
0
41
1
10
38.4735746975394
20
2.04680923705695
30
0
41
1
10
38.4719839382268
20
2.04748205957435
30
0
41
1
10
38.4703887539474
20
2.04750866320853
30
0
0
SPLINE
5
12C
100
AcDbEntity
8
1
62
256
6
ByLayer
370
18
48
1
60
0
100
AcDbSpline
70
4
71
3
72
26
73
22
40
0
40
0
40
0
40
0
40
0.0856891284712442
40
0.0856891284712442
40
0.150997047866156
40
0.150997047866156
40
0.183651007563611
40
0.183651007563611
40
0.216304967261067
40
0.34692080605089
40
0.477536644840713
40
0.477536644840713
40
0.542844564235624
40
0.57549852393308
40
0.57549852393308
40
0.608152483630536
40
0.608152483630536
40
0.738768322420357
40
0.869384161210178
40
0.869384161210178
40
1
40
1
40
1
40
1
41
1
10
39.1102977663681
20
2.0475091265856
30
0
41
1
10
39.1128498080225
20
2.04751491393304
30
0
41
1
10
39.1154247586892
20
2.04597038462833
30
0
41
1
10
39.1199927144764
20
2.04048620751294
30
0
41
1
10
39.1219784855567
20
2.03720182978185
30
0
41
1
10
39.1249691371768
20
2.03087797964491
30
0
41
1
10
39.1259684161424
20
2.02853523971535
30
0
41
1
10
39.1279588493717
20
2.02341067028968
30
0
41
1
10
39.1329221099935
20
2.00948550407452
30
0
41
1
10
39.1417281228041
20
1.97454927639717
30
0
41
1
10
39.1493631167604
20
1.92977740998916
30
0
41
1
10
39.1550394682006
20
1.89101015135984
30
0
41
1
10
39.1578656246333
20
1.87032692084955
30
0
41
1
10
39.160682650069
20
1.8476623434353
30
0
41
1
10
39.1625599993303
20
1.83210703108116
30
0
41
1
10
39.1634993061399
20
1.82409753450312
30
0
41
1
10
39.1681717487839
20
1.78315551468032
30
0
41
1
10
39.1755260586584
20
1.71166455829837
30
0
41
1
10
39.1828848099117
20
1.62858959463529
30
0
41
1
10
39.1904082592187
20
1.53973055368076
30
0
41
1
10
39.1942563115471
20
1.49240975335866
30
0
41
1
10
39.1981746162552
20
1.44210501756947
30
0
0
SPLINE
5
12D
100
AcDbEntity
8
1
62
256
6
ByLayer
370
18
48
1
60
0
100
AcDbSpline
70
4
71
3
72
93
73
89
40
0
40
0
40
0
40
0
40
0.0312500000000103
40
0.0312500000000103
40
0.0625000000000206
40
0.0625000000000206
40
0.125000000000041
40
0.125000000000041
40
0.187500000000062
40
0.187500000000062
40
0.218750000000072
40
0.218750000000072
40
0.250000000000082
40
0.250000000000082
40
0.281250000000092
40
0.281250000000092
40
0.296875000000098
40
0.296875000000098
40
0.312500000000103
40
0.312500000000103
40
0.343750000000113
40
0.343750000000113
40
0.359375000000118
40
0.359375000000118
40
0.375000000000123
40
0.375000000000123
40
0.382812500000124
40
0.382812500000124
40
0.390625000000124
40
0.390625000000124
40
0.406250000000129
40
0.406250000000129
40
0.421875000000134
40
0.421875000000134
40
0.437500000000139
40
0.437500000000139
40
0.468750000000145
40
0.468750000000145
40
0.50000000000015
40
0.50000000000015
40
0.515625000000155
40
0.515625000000155
40
0.53125000000016
40
0.53125000000016
40
0.546875000000165
40
0.546875000000165
40
0.550781250000164
40
0.550781250000164
40
0.554687500000164
40
0.554687500000164
40
0.562500000000161
40
0.570312500000157
40
0.570312500000157
40
0.578125000000154
40
0.578125000000154
40
0.58593750000015
40
0.58593750000015
40
0.593750000000146
40
0.593750000000146
40
0.609375000000139
40
0.609375000000139
40
0.617187500000136
40
0.617187500000136
40
0.625000000000132
40
0.625000000000132
40
0.640625000000127
40
0.640625000000127
40
0.656250000000121
40
0.656250000000121
40
0.671875000000116
40
0.671875000000116
40
0.68750000000011
40
0.68750000000011
40
0.718750000000099
40
0.718750000000099
40
0.750000000000088
40
0.750000000000088
40
0.781250000000077
40
0.781250000000077
40
0.812500000000066
40
0.812500000000066
40
0.875000000000044
40
0.875000000000044
40
0.937500000000022
40
0.937500000000022
40
0.968750000000011
40
0.968750000000011
40
1
40
1
40
1
40
1
41
1
10
26.4375357454697
20
-1.425287125382
30
0
41
1
10
26.4011321022827
20
-1.41616704096899
30
0
41
1
10
26.3644407452575
20
-1.40641055842974
30
0
41
1
10
26.2902018782546
20
-1.38600274043509
30
0
41
1
10
26.2526796632409
20
-1.37533760373594
30
0
41
1
10
26.1386492956573
20
-1.34247373972815
30
0
41
1
10
26.0606710904214
20
-1.31940172722332
30
0
41
1
10
25.8995313451545
20
-1.2738926513783
30
0
41
1
10
25.8164005793514
20
-1.25143084443874
30
0
41
1
10
25.686743461222
20
-1.22074839270729
30
0
41
1
10
25.6425789653217
20
-1.21101965270654
30
0
41
1
10
25.5537529416157
20
-1.19335521798593
30
0
41
1
10
25.508953207972
20
-1.18536770898558
30
0
41
1
10
25.4184904724004
20
-1.17154516381328
30
0
41
1
10
25.3728272228387
20
-1.16571124309149
30
0
41
1
10
25.3035878186564
20
-1.15897620137326
30
0
41
1
10
25.2803835953062
20
-1.15706774663735
30
0
41
1
10
25.2337045182051
20
-1.15400105744436
30
0
41
1
10
25.2101498946023
20
-1.15284548356365
30
0
41
1
10
25.1396451048582
20
-1.15067646327915
30
0
41
1
10
25.0930257479988
20
-1.15093341652454
30
0
41
1
10
25.0237943373738
20
-1.15440066672133
30
0
41
1
10
25.000838939538
20
-1.15609304599312
30
0
41
1
10
24.9551860977932
20
-1.16059308994269
30
0
41
1
10
24.9324723794188
20
-1.16332820749031
30
0
41
1
10
24.8985013550541
20
-1.16783622778883
30
0
41
1
10
24.8871941330348
20
-1.16940591433126
30
0
41
1
10
24.8645993875757
20
-1.17261992208844
30
0
41
1
10
24.8533102151665
20
-1.17425725310503
30
0
41
1
10
24.8194916910853
20
-1.17936212236177
30
0
41
1
10
24.7970045409661
20
-1.18299328043599
30
0
41
1
10
24.7521570112809
20
-1.1907293098316
30
0
41
1
10
24.7297494115098
20
-1.19484311287596
30
0
41
1
10
24.6853232800164
20
-1.20351940693914
30
0
41
1
10
24.6633284581059
20
-1.2080760331655
30
0
41
1
10
24.5980490959305
20
-1.22240908210543
30
0
41
1
10
24.5554631027704
20
-1.23284702243248
30
0
41
1
10
24.4725512156766
20
-1.25556164856775
30
0
41
1
10
24.4322184457916
20
-1.26783697348043
30
0
41
1
10
24.3739181388519
20
-1.28773416047608
30
0
41
1
10
24.3548516888146
20
-1.29461241444037
30
0
41
1
10
24.3176089833931
20
-1.30890722230382
30
0
41
1
10
24.2995516309135
20
-1.31627990307717
30
0
41
1
10
24.2650547585242
20
-1.33127857317024
30
0
41
1
10
24.248559171812
20
-1.33892582095055
30
0
41
1
10
24.2289821037513
20
-1.34862440955521
30
0
41
1
10
24.225121740223
20
-1.35056974113129
30
0
41
1
10
24.2175389222716
20
-1.3544568723772
30
0
41
1
10
24.2137902547199
20
-1.3563942508033
30
0
41
1
10
24.2029306206985
20
-1.36225660077673
30
0
41
1
10
24.1895260610704
20
-1.37021881308195
30
0
41
1
10
24.1784673377764
20
-1.37844812131129
30
0
41
1
10
24.1687130453402
20
-1.38679885630154
30
0
41
1
10
24.164556095883
20
-1.39098452186195
30
0
41
1
10
24.1578207629157
20
-1.39921184969677
30
0
41
1
10
24.1552169075059
20
-1.40327491242255
30
0
41
1
10
24.1515230058729
20
-1.4112750096742
30
0
41
1
10
24.1504342760393
20
-1.41524021071402
30
0
41
1
10
24.1494351138421
20
-1.42665473290401
30
0
41
1
10
24.1515952994807
20
-1.43364038105594
30
0
41
1
10
24.1577366135765
20
-1.44327218282481
30
0
41
1
10
24.1602946044692
20
-1.44634953550838
30
0
41
1
10
24.1662504917402
20
-1.45218868559553
30
0
41
1
10
24.1696297101968
20
-1.45493685608139
30
0
41
1
10
24.1807747455106
20
-1.46271952822119
30
0
41
1
10
24.1895382379133
20
-1.46729468798077
30
0
41
1
10
24.2090563070302
20
-1.47540575085793
30
0
41
1
10
24.2198197445301
20
-1.47894004214035
30
0
41
1
10
24.2429211875659
20
-1.48508680739991
30
0
41
1
10
24.2551773396681
20
-1.48767654049797
30
0
41
1
10
24.2806242692359
20
-1.49199337737292
30
0
41
1
10
24.2938416653947
20
-1.49372620063289
30
0
41
1
10
24.3346633745666
20
-1.49779375357358
30
0
41
1
10
24.3634214199838
20
-1.49900552553595
30
0
41
1
10
24.4230328924818
20
-1.49889061273279
30
0
41
1
10
24.4539265715849
20
-1.49755676348496
30
0
41
1
10
24.517147318011
20
-1.49259217650629
30
0
41
1
10
24.5492456866266
20
-1.48898023941774
30
0
41
1
10
24.6141040291668
20
-1.47971359722786
30
0
41
1
10
24.6468658669219
20
-1.47405727024304
30
0
41
1
10
24.7458390260244
20
-1.45419804893453
30
0
41
1
10
24.8127181056301
20
-1.43712308471825
30
0
41
1
10
24.9473414569231
20
-1.3955889548925
30
0
41
1
10
25.0150938372518
20
-1.37111936476651
30
0
41
1
10
25.1171284120539
20
-1.32870268452678
30
0
41
1
10
25.1512461056926
20
-1.31359063463412
30
0
41
1
10
25.2192903258767
20
-1.28156954936827
30
0
41
1
10
25.2532494527676
20
-1.26464852425519
30
0
41
1
10
25.2871585893643
20
-1.24681171824614
30
0
0
SPLINE
5
12E
100
AcDbEntity
8
1
62
256
6
ByLayer
370
18
48
1
60
0
100
AcDbSpline
70
4
71
3
72
93
73
89
40
0
40
0
40
0
40
0
40
0.0312499999999954
40
0.0312499999999954
40
0.0624999999999909
40
0.0624999999999909
40
0.124999999999982
40
0.124999999999982
40
0.187499999999973
40
0.187499999999973
40
0.218749999999968
40
0.218749999999968
40
0.249999999999964
40
0.249999999999964
40
0.281249999999959
40
0.281249999999959
40
0.296874999999957
40
0.296874999999957
40
0.312499999999954
40
0.312499999999954
40
0.34374999999995
40
0.34374999999995
40
0.359374999999947
40
0.359374999999947
40
0.374999999999945
40
0.374999999999945
40
0.382812499999944
40
0.382812499999944
40
0.390624999999943
40
0.390624999999943
40
0.406249999999941
40
0.406249999999941
40
0.421874999999938
40
0.421874999999938
40
0.437499999999936
40
0.437499999999936
40
0.468749999999931
40
0.468749999999931
40
0.499999999999927
40
0.499999999999927
40
0.515624999999926
40
0.515624999999926
40
0.531249999999926
40
0.531249999999926
40
0.546874999999926
40
0.546874999999926
40
0.550781249999924
40
0.550781249999924
40
0.554687499999923
40
0.554687499999923
40
0.562499999999922
40
0.570312499999922
40
0.570312499999922
40
0.578124999999921
40
0.578124999999921
40
0.585937499999921
40
0.585937499999921
40
0.593749999999921
40
0.593749999999921
40
0.60937499999992
40
0.60937499999992
40
0.61718749999992
40
0.61718749999992
40
0.624999999999921
40
0.624999999999921
40
0.640624999999922
40
0.640624999999922
40
0.656249999999924
40
0.656249999999924
40
0.671874999999926
40
0.671874999999926
40
0.687499999999928
40
0.687499999999928
40
0.718749999999934
40
0.718749999999934
40
0.74999999999994
40
0.74999999999994
40
0.781249999999946
40
0.781249999999946
40
0.812499999999953
40
0.812499999999953
40
0.874999999999968
40
0.874999999999968
40
0.937499999999984
40
0.937499999999984
40
0.968749999999992
40
0.968749999999992
40
1
40
1
40
1
40
1
41
1
10
26.4375357454697
20
1.11458358873989
30
0
41
1
10
26.4011321022827
20
1.13427854364832
30
0
41
1
10
26.3644407452575
20
1.15291094355572
30
0
41
1
10
26.2902018782546
20
1.1879513488185
30
0
41
1
10
26.2526796632409
20
1.20438730849492
30
0
41
1
10
26.1386492956573
20
1.25051300962301
30
0
41
1
10
26.0606710904214
20
1.27700580191865
30
0
41
1
10
25.8995313451545
20
1.32220482420004
30
0
41
1
10
25.8164005793513
20
1.34093760005038
30
0
41
1
10
25.686743461222
20
1.36383905920451
30
0
41
1
10
25.6425789653216
20
1.37060842663794
30
0
41
1
10
25.5537529416156
20
1.38231735491218
30
0
41
1
10
25.508953207972
20
1.38729676403904
30
0
41
1
10
25.4184904724004
20
1.39561428063928
30
0
41
1
10
25.3728272228386
20
1.39895249965684
30
0
41
1
10
25.3035878186562
20
1.40273071616238
30
0
41
1
10
25.280383595306
20
1.40378434765702
30
0
41
1
10
25.2337045182051
20
1.40546527914307
30
0
41
1
10
25.2101498946022
20
1.40609120158277
30
0
41
1
10
25.1396451048581
20
1.40726365900048
30
0
41
1
10
25.0930257479987
20
1.40712910968267
30
0
41
1
10
25.0237943373737
20
1.40524629065044
30
0
41
1
10
25.0008389395379
20
1.40432396089776
30
0
41
1
10
24.9551860977931
20
1.40182896205098
30
0
41
1
10
24.9324723794186
20
1.40029473279986
30
0
41
1
10
24.8985013550541
20
1.39771263823707
30
0
41
1
10
24.8871941330347
20
1.39680556935119
30
0
41
1
10
24.8645993875757
20
1.39492926938053
30
0
41
1
10
24.8533102151665
20
1.39396436082993
30
0
41
1
10
24.8194916910853
20
1.39092363085979
30
0
41
1
10
24.797004540966
20
1.38871905545142
30
0
41
1
10
24.7521570112808
20
1.38390202787227
30
0
41
1
10
24.7297494115097
20
1.38128378182515
30
0
41
1
10
24.6853232800163
20
1.37560291402318
30
0
41
1
10
24.6633284581059
20
1.37254444444767
30
0
41
1
10
24.5980490959304
20
1.36261898779315
30
0
41
1
10
24.5554631027703
20
1.35501375010205
30
0
41
1
10
24.4725512156766
20
1.33709252339946
30
0
41
1
10
24.4322184457915
20
1.32678930437214
30
0
41
1
10
24.3739181388517
20
1.30837161180156
30
0
41
1
10
24.3548516888144
20
1.30173590168579
30
0
41
1
10
24.317608983393
20
1.28719812141364
30
0
41
1
10
24.2995516309134
20
1.27933670596849
30
0
41
1
10
24.2650547585241
20
1.26238296322629
30
0
41
1
10
24.2485591718119
20
1.25326997526997
30
0
41
1
10
24.2289821037512
20
1.24093563467594
30
0
41
1
10
24.225121740223
20
1.23842304387546
30
0
41
1
10
24.2175389222715
20
1.23332061122431
30
0
41
1
10
24.2137902547198
20
1.2307370076839
30
0
41
1
10
24.2029306206984
20
1.22278789043702
30
0
41
1
10
24.1895260610704
20
1.2116427140711
30
0
41
1
10
24.1784673377763
20
1.19925989506316
30
0
41
1
10
24.1687130453402
20
1.18616475653775
30
0
41
1
10
24.1645560958829
20
1.17933598728814
30
0
41
1
10
24.1578207629156
20
1.16531812817888
30
0
41
1
10
24.1552169075058
20
1.15809574370687
30
0
41
1
10
24.1515230058729
20
1.14320654327685
30
0
41
1
10
24.1504342760393
20
1.13548026350372
30
0
41
1
10
24.1494351138422
20
1.11213690240879
30
0
41
1
10
24.1515952994808
20
1.09635441201587
30
0
41
1
10
24.1577366135765
20
1.07229653308039
30
0
41
1
10
24.1602946044692
20
1.0641896653255
30
0
41
1
10
24.1662504917403
20
1.04795985910195
30
0
41
1
10
24.1696297101968
20
1.03987841425689
30
0
41
1
10
24.1807747455106
20
1.0156966579487
30
0
41
1
10
24.1895382379133
20
0.999656996515711
30
0
41
1
10
24.2090563070303
20
0.967615498006779
30
0
41
1
10
24.2198197445301
20
0.951615875482304
30
0
41
1
10
24.2429211875659
20
0.919578656104477
30
0
41
1
10
24.2551773396682
20
0.903651859105281
30
0
41
1
10
24.280624269236
20
0.87206540586331
30
0
41
1
10
24.2938416653947
20
0.856372707900647
30
0
41
1
10
24.3346633745666
20
0.809466895581664
30
0
41
1
10
24.3634214199838
20
0.778419836991588
30
0
41
1
10
24.4230328924819
20
0.716361025079692
30
0
41
1
10
24.4539265715849
20
0.685327672270461
30
0
41
1
10
24.517147318011
20
0.623171625203241
30
0
41
1
10
24.5492456866267
20
0.592266282594011
30
0
41
1
10
24.6141040291669
20
0.530561638009175
30
0
41
1
10
24.646865866922
20
0.499763670109218
30
0
41
1
10
24.7458390260244
20
0.407287818300659
30
0
41
1
10
24.8127181056301
20
0.345513967909
30
0
41
1
10
24.9473414569231
20
0.220924301179991
30
0
41
1
10
25.0150938372518
20
0.158113444919365
30
0
41
1
10
25.117128412054
20
0.06284525817901
30
0
41
1
10
25.1512461056926
20
0.030883879619779
30
0
41
1
10
25.2192903258767
20
-0.0330772378883353
30
0
41
1
10
25.2532494527677
20
-0.06510732187337
30
0
41
1
10
25.2871585893643
20
-0.0971728883484673
30
0
0
SPLINE
5
12F
100
AcDbEntity
8
1
62
256
6
ByLayer
370
18
48
1
60
0
100
AcDbSpline
70
4
71
3
72
27
73
23
40
0
40
0
40
0
40
0
40
0.125000000000002
40
0.250000000000003
40
0.250000000000003
40
0.375000000000005
40
0.375000000000005
40
0.406250000000005
40
0.406250000000005
40
0.437500000000005
40
0.500000000000004
40
0.500000000000004
40
0.625000000000003
40
0.750000000000002
40
0.750000000000002
40
0.781250000000002
40
0.781250000000002
40
0.812500000000001
40
0.812500000000001
40
0.875000000000001
40
0.875000000000001
40
1
40
1
40
1
40
1
41
1
10
34.9106739477944
20
2.04750169153607
30
0
41
1
10
34.9146200457705
20
2.04733101097492
30
0
41
1
10
34.9224792901633
20
2.03968594547715
30
0
41
1
10
34.9302228102778
20
2.01788664126394
30
0
41
1
10
34.9379192343747
20
1.98900898289472
30
0
41
1
10
34.941742952042
20
1.97103151468528
30
0
41
1
10
34.9465355324373
20
1.94399351150764
30
0
41
1
10
34.9474961832237
20
1.93834883660077
30
0
41
1
10
34.9494110152242
20
1.9266578161625
30
0
41
1
10
34.952275553951
20
1.9085079827486
30
0
41
1
10
34.9551205452296
20
1.88854036280861
30
0
41
1
10
34.9607926715278
20
1.84622107866565
30
0
41
1
10
34.9683082731383
20
1.78344996208929
30
0
41
1
10
34.975806389766
20
1.7081031381187
30
0
41
1
10
34.9805184009526
20
1.65699224213407
30
0
41
1
10
34.9814621372147
20
1.64656860169239
30
0
41
1
10
34.9833532994011
20
1.62531408462516
30
0
41
1
10
34.9843021062757
20
1.61446701477797
30
0
41
1
10
34.9871441384399
20
1.58144338229076
30
0
41
1
10
34.9890317139739
20
1.55880158671928
30
0
41
1
10
34.9946884753307
20
1.48903777245661
30
0
41
1
10
34.9984505992414
20
1.44008200502012
30
0
41
1
10
35.0022553324633
20
1.38872537006918
30
0
0
SPLINE
5
130
100
AcDbEntity
8
1
62
256
6
ByLayer
370
13
48
1
60
0
100
AcDbSpline
70
4
71
3
72
10
73
6
40
0
40
0
40
0
40
0
40
0.390275512198388
40
0.895174311637433
40
1
40
1
40
1
40
1
41
1
10
35.8316816852072
20
-1.8342307770167
30
0
41
1
10
35.8246637065419
20
-1.82307633436582
30
0
41
1
10
35.8082851628425
20
-1.77186216212772
30
0
41
1
10
35.7891832295596
20
-1.64213173245298
30
0
41
1
10
35.777492506114
20
-1.53694760715481
30
0
41
1
10
35.7754805502871
20
-1.51810876067555
30
0
0
SPLINE
5
131
100
AcDbEntity
8
1
62
256
6
ByLayer
370
18
48
1
60
0
100
AcDbSpline
70
4
71
3
72
28
73
24
40
0
40
0
40
0
40
0
40
0.125
40
0.25
40
0.25
40
0.375000000000001
40
0.375000000000001
40
0.406250000000001
40
0.406250000000001
40
0.437500000000001
40
0.5
40
0.5
40
0.625000000000001
40
0.625000000000001
40
0.750000000000001
40
0.750000000000001
40
0.781250000000001
40
0.781250000000001
40
0.812500000000001
40
0.812500000000001
40
0.875
40
0.875
40
1
40
1
40
1
40
1
41
1
10
35.3123840210637
20
-2.04254386794219
30
0
41
1
10
35.3085569510297
20
-2.03762302460606
30
0
41
1
10
35.300893583794
20
-2.02057119267616
30
0
41
1
10
35.2931178651394
20
-1.98953853271681
30
0
41
1
10
35.2852870469438
20
-1.95151013844685
30
0
41
1
10
35.281359094642
20
-1.9289985856696
30
0
41
1
10
35.2765063388198
20
-1.89634014246278
30
0
41
1
10
35.2755372392631
20
-1.88957513338255
30
0
41
1
10
35.2736142077623
20
-1.87566741262134
30
0
41
1
10
35.2707485113749
20
-1.85421537124876
30
0
41
1
10
35.2679344736206
20
-1.83101275364453
30
0
41
1
10
35.2623462540165
20
-1.78231090524599
30
0
41
1
10
35.2586628146361
20
-1.74678697171777
30
0
41
1
10
35.2512257189192
20
-1.66968036020617
30
0
41
1
10
35.2474829887588
20
-1.62809767946317
30
0
41
1
10
35.2427375067979
20
-1.5722439734644
30
0
41
1
10
35.2417850755638
20
-1.56087897469962
30
0
41
1
10
35.2398726995715
20
-1.53775622178983
30
0
41
1
10
35.2389114078771
20
-1.52598154912465
30
0
41
1
10
35.2360295333232
20
-1.49024165522127
30
0
41
1
10
35.2341086484567
20
-1.46583545637398
30
0
41
1
10
35.2283401739962
20
-1.39091388356286
30
0
41
1
10
35.224485991693
20
-1.33869997602312
30
0
41
1
10
35.2206138492434
20
-1.2842587531303
30
0
0
SPLINE
5
132
100
AcDbEntity
8
1
62
256
6
ByLayer
370
18
48
1
60
0
100
AcDbSpline
70
4
71
3
72
8
73
4
40
0
40
0
40
0
40
0
40
1
40
1
40
1
40
1
41
1
10
41.7414794350743
20
0.429231531498658
30
0
41
1
10
41.7428172752972
20
0.42123232760585
30
0
41
1
10
41.7441158064089
20
0.41321191138772
30
0
41
1
10
41.7453818373565
20
0.405170811469617
30
0
0
SPLINE
5
133
100
AcDbEntity
8
1
62
256
6
ByLayer
370
18
48
1
60
0
100
AcDbSpline
70
4
71
3
72
8
73
4
40
0
40
0
40
0
40
0
40
1
40
1
40
1
40
1
41
1
10
41.746620555616
20
0.424873005889651
30
0
41
1
10
41.7462049797824
20
0.418322256924455
30
0
41
1
10
41.745792090622
20
0.411754859621112
30
0
41
1
10
41.7453818373564
20
0.405170811469617
30
0
0
SPLINE
5
134
100
AcDbEntity
8
1
62
256
6
ByLayer
370
18
48
1
60
0
100
AcDbSpline
70
4
71
3
72
34
73
30
40
0
40
0
40
0
40
0
40
0.0039062499999878
40
0.0039062499999878
40
0.0078124999999755
40
0.0078124999999755
40
0.0117187499999633
40
0.0117187499999633
40
0.0156249999999511
40
0.0156249999999511
40
0.0234374999999521
40
0.0234374999999521
40
0.0312499999999531
40
0.0312499999999531
40
0.046874999999955
40
0.046874999999955
40
0.0624999999999568
40
0.0937499999999603
40
0.0937499999999603
40
0.124999999999964
40
0.187499999999966
40
0.187499999999966
40
0.249999999999969
40
0.249999999999969
40
0.374999999999974
40
0.374999999999974
40
0.499999999999979
40
0.499999999999979
40
1
40
1
40
1
40
1
41
1
10
41.712971999287
20
-0.309761072794714
30
0
41
1
10
41.7135048756578
20
-0.310266637982352
30
0
41
1
10
41.7140831096638
20
-0.310688747027967
30
0
41
1
10
41.7153579290357
20
-0.311175417621797
30
0
41
1
10
41.7160575389373
20
-0.311217736173603
30
0
41
1
10
41.7174159613536
20
-0.310750494035375
30
0
41
1
10
41.7180767418815
20
-0.310241592742074
30
0
41
1
10
41.7192255181092
20
-0.308958995891459
30
0
41
1
10
41.7197201522203
20
-0.308204469190912
30
0
41
1
10
41.7210733131235
20
-0.305771713137773
30
0
41
1
10
41.7217631757691
20
-0.304016835502381
30
0
41
1
10
41.7229976567465
20
-0.300417046589587
30
0
41
1
10
41.7235311911604
20
-0.298560553688986
30
0
41
1
10
41.7249741344586
20
-0.292993099623686
30
0
41
1
10
41.725741668827
20
-0.289245958050259
30
0
41
1
10
41.7271143277933
20
-0.281722083539989
30
0
41
1
10
41.7289053578635
20
-0.270389051272957
30
0
41
1
10
41.7302377337805
20
-0.258966172219942
30
0
41
1
10
41.7318150710597
20
-0.243744977879402
30
0
41
1
10
41.7338666472271
20
-0.220900799087275
30
0
41
1
10
41.7353547865024
20
-0.198023821345089
30
0
41
1
10
41.7370978026123
20
-0.167495026534738
30
0
41
1
10
41.7378423407405
20
-0.152217478006491
30
0
41
1
10
41.7398389410613
20
-0.106347024618088
30
0
41
1
10
41.7408559113049
20
-0.0757491430031507
30
0
41
1
10
41.7425415960847
20
-0.0147904979581313
30
0
41
1
10
41.7432041913942
20
0.015605442628015
30
0
41
1
10
41.7458986912609
20
0.167137881780036
30
0
41
1
10
41.7461527621433
20
0.286938666544785
30
0
41
1
10
41.7453818373566
20
0.405170811469645
30
0
0
SPLINE
5
135
100
AcDbEntity
8
1
62
256
6
ByLayer
370
18
48
1
60
0
100
AcDbSpline
70
4
71
3
72
30
73
26
40
0
40
0
40
0
40
0
40
0.125000000000001
40
0.125000000000001
40
0.156250000000001
40
0.156250000000001
40
0.187500000000001
40
0.187500000000001
40
0.250000000000001
40
0.250000000000001
40
0.375000000000001
40
0.375000000000001
40
0.500000000000001
40
0.500000000000001
40
0.5625
40
0.5625
40
0.59375
40
0.59375
40
0.625
40
0.75
40
0.875
40
0.875
40
0.9375
40
0.9375
40
1
40
1
40
1
40
1
41
1
10
39.5075377447844
20
-2.03598688977502
30
0
41
1
10
39.503643537322
20
-2.02856850951247
30
0
41
1
10
39.4998085922182
20
-2.01757687891109
30
0
41
1
10
39.4950703729672
20
-1.99926039004217
30
0
41
1
10
39.4941252937942
20
-1.99536766521078
30
0
41
1
10
39.4922389434472
20
-1.98711821019955
30
0
41
1
10
39.4912965806992
20
-1.98275565063588
30
0
41
1
10
39.4884880004419
20
-1.96904053387686
30
0
41
1
10
39.486636469397
20
-1.95904596555795
30
0
41
1
10
39.481117083656
20
-1.9265603132414
30
0
41
1
10
39.4774866358995
20
-1.90157361633249
30
0
41
1
10
39.4701266069889
20
-1.84505337128812
30
0
41
1
10
39.4663793934839
20
-1.8135203430185
30
0
41
1
10
39.46065646443
20
-1.76123731172035
30
0
41
1
10
39.4587325163997
20
-1.74297741334368
30
0
41
1
10
39.455823192908
20
-1.71431444560508
30
0
41
1
10
39.4548480900064
20
-1.70453308393402
30
0
41
1
10
39.4528994279947
20
-1.68463560200604
30
0
41
1
10
39.4480299743382
20
-1.63404152486851
30
0
41
1
10
39.4392907701413
20
-1.53543974709135
30
0
41
1
10
39.4315579496533
20
-1.43734869698588
30
0
41
1
10
39.4257580399513
20
-1.3598384919612
30
0
41
1
10
39.4238245459336
20
-1.33334349959662
30
0
41
1
10
39.4199531144018
20
-1.27901700834698
30
0
41
1
10
39.4180115868088
20
-1.25113263032242
30
0
41
1
10
39.4160732175133
20
-1.22268290499861
30
0
0
SPLINE
5
136
100
AcDbEntity
8
1
62
256
6
ByLayer
370
18
48
1
60
0
100
AcDbSpline
70
4
71
3
72
28
73
24
40
0
40
0
40
0
40
0
40
0.125000000000001
40
0.125000000000001
40
0.1875
40
0.1875
40
0.25
40
0.25
40
0.375
40
0.499999999999999
40
0.499999999999999
40
0.562499999999999
40
0.562499999999999
40
0.593749999999999
40
0.593749999999999
40
0.624999999999999
40
0.749999999999999
40
0.875
40
0.875
40
0.937500000000001
40
0.96875
40
0.96875
40
1
40
1
40
1
40
1
41
1
10
35.1579718677916
20
-1.23480085418373
30
0
41
1
10
35.161704757415
20
-1.29056167922204
30
0
41
1
10
35.1654291715936
20
-1.34426787122573
30
0
41
1
10
35.171060916725
20
-1.42166003776549
30
0
41
1
10
35.1729512013422
20
-1.4469975160726
30
0
41
1
10
35.1767206312083
20
-1.49611578359551
30
0
41
1
10
35.1786016926281
20
-1.51992340297312
30
0
41
1
10
35.1842447732951
20
-1.5891340399599
30
0
41
1
10
35.1917616415051
20
-1.67552722786957
30
0
41
1
10
35.1993932986739
20
-1.75030732207267
30
0
41
1
10
35.2052398932872
20
-1.8019598178862
30
0
41
1
10
35.2072115268181
20
-1.8184370740023
30
0
41
1
10
35.2102049444287
20
-1.84201944959739
30
0
41
1
10
35.2112082656495
20
-1.84969260615569
30
0
41
1
10
35.2132107295308
20
-1.86457121576927
30
0
41
1
10
35.2182147971541
20
-1.90065476851683
30
0
41
1
10
35.2271269517143
20
-1.9557428369167
30
0
41
1
10
35.2347461473656
20
-1.99100583510884
30
0
41
1
10
35.240366135718
20
-2.01226866261064
30
0
41
1
10
35.2431537972814
20
-2.02160144427774
30
0
41
1
10
35.2459233131939
20
-2.02895408563418
30
0
41
1
10
35.2477681764304
20
-2.03341049605504
30
0
41
1
10
35.2486908731839
20
-2.03541763229498
30
0
41
1
10
35.2496091763302
20
-2.03719042190957
30
0
0
SPLINE
5
137
100
AcDbEntity
8
1
62
256
6
ByLayer
370
18
48
1
60
0
100
AcDbSpline
70
4
71
3
72
21
73
17
40
0
40
0
40
0
40
0
40
0.249999999999998
40
0.249999999999998
40
0.312499999999998
40
0.312499999999998
40
0.374999999999998
40
0.374999999999998
40
0.499999999999999
40
0.624999999999999
40
0.624999999999999
40
0.75
40
0.75
40
0.875
40
0.875
40
1
40
1
40
1
40
1
41
1
10
34.1041057671956
20
-1.20686999827035
30
0
41
1
10
34.1007729101483
20
-1.14528800096292
30
0
41
1
10
34.0977421349492
20
-1.07858356810993
30
0
41
1
10
34.0942960043101
20
-0.988755503558224
30
0
41
1
10
34.0936236014501
20
-0.970465296766179
30
0
41
1
10
34.0923089882182
20
-0.933224945591007
30
0
41
1
10
34.0916657750694
20
-0.914243999725386
30
0
41
1
10
34.089781619956
20
-0.856498000900814
30
0
41
1
10
34.0874089492328
20
-0.777931368632068
30
0
41
1
10
34.0852090222432
20
-0.696295674151258
30
0
41
1
10
34.0830326351296
20
-0.613127212732167
30
0
41
1
10
34.0819330515316
20
-0.570771788599103
30
0
41
1
10
34.079866575849
20
-0.48453290525353
30
0
41
1
10
34.0789127300355
20
-0.440640597446361
30
0
41
1
10
34.0773578702113
20
-0.351369022874792
30
0
41
1
10
34.0767684851814
20
-0.306572880179345
30
0
41
1
10
34.0764089843189
20
-0.261623618016216
30
0
0
SPLINE
5
138
100
AcDbEntity
8
1
62
256
6
ByLayer
370
18
48
1
60
0
100
AcDbSpline
70
4
71
3
72
24
73
20
40
0
40
0
40
0
40
0
40
0.125
40
0.125
40
0.25
40
0.374999999999999
40
0.374999999999999
40
0.437499999999999
40
0.437499999999999
40
0.499999999999999
40
0.499999999999999
40
0.624999999999999
40
0.749999999999999
40
0.749999999999999
40
0.812499999999999
40
0.812499999999999
40
0.874999999999999
40
0.874999999999999
40
1
40
1
40
1
40
1
41
1
10
39.3535419259684
20
-1.17188537929323
30
0
41
1
10
39.3572412126761
20
-1.22994270190895
30
0
41
1
10
39.3609368952403
20
-1.28546553705328
30
0
41
1
10
39.3684795153218
20
-1.3915812368073
30
0
41
1
10
39.3761344682633
20
-1.49276761254865
30
0
41
1
10
39.3839666973216
20
-1.58407318322472
30
0
41
1
10
39.3898944081767
20
-1.64871632939261
30
0
41
1
10
39.3918678027399
20
-1.66949570336999
30
0
41
1
10
39.3957913176884
20
-1.70936431295732
30
0
41
1
10
39.3977441999704
20
-1.7284838245522
30
0
41
1
10
39.4035769349963
20
-1.78343392983578
30
0
41
1
10
39.4112833316443
20
-1.85029044451247
30
0
41
1
10
39.4188918922453
20
-1.90439956566829
30
0
41
1
10
39.424602158165
20
-1.94007398203047
30
0
41
1
10
39.4265120849552
20
-1.95117391183806
30
0
41
1
10
39.430309060689
20
-1.97151164957623
30
0
41
1
10
39.4321969231385
20
-1.98076062018862
30
0
41
1
10
39.4378474078273
20
-2.00580050134872
30
0
41
1
10
39.4415961650099
20
-2.0188913422387
30
0
41
1
10
39.4453854604495
20
-2.02843160227656
30
0
0
SPLINE
5
139
100
AcDbEntity
8
1
62
256
6
ByLayer
370
18
48
1
60
0
100
AcDbSpline
70
4
71
3
72
24
73
20
40
0
40
0
40
0
40
0
40
0.125000000000001
40
0.125000000000001
40
0.187500000000002
40
0.187500000000002
40
0.250000000000003
40
0.250000000000003
40
0.500000000000005
40
0.500000000000005
40
0.562500000000004
40
0.562500000000004
40
0.625000000000004
40
0.750000000000002
40
0.875
40
0.875
40
0.9375
40
0.9375
40
1
40
1
40
1
40
1
41
1
10
34.183046567141
20
-0.343541952347806
30
0
41
1
10
34.1885299598774
20
-0.396444281974169
30
0
41
1
10
34.1939330124972
20
-0.449111161582295
30
0
41
1
10
34.2020188311838
20
-0.527741227878948
30
0
41
1
10
34.2047023017856
20
-0.553790248437849
30
0
41
1
10
34.2100480145388
20
-0.605272927748473
30
0
41
1
10
34.212716640983
20
-0.630753800370059
30
0
41
1
10
34.2261174222484
20
-0.756883643883839
30
0
41
1
10
34.2369612880139
20
-0.853735691274494
30
0
41
1
10
34.250588432533
20
-0.969645299231701
30
0
41
1
10
34.2533251310063
20
-0.992625289139681
30
0
41
1
10
34.2587661874041
20
-1.03771287489218
30
0
41
1
10
34.2668782414398
20
-1.10403007195026
30
0
41
1
10
34.2801653314008
20
-1.20812606570209
30
0
41
1
10
34.2906052579758
20
-1.28466712679605
30
0
41
1
10
34.2983969149399
20
-1.33953030927373
30
0
41
1
10
34.3009878636111
20
-1.35739361895111
30
0
41
1
10
34.3061640341062
20
-1.39226057266825
30
0
41
1
10
34.3087550832939
20
-1.40930125959136
30
0
41
1
10
34.3113328398864
20
-1.42581292182169
30
0
0
SPLINE
5
13A
100
AcDbEntity
8
1
62
256
6
ByLayer
370
18
48
1
60
0
100
AcDbSpline
70
4
71
3
72
25
73
21
40
0
40
0
40
0
40
0
40
0.0624999999999996
40
0.0624999999999996
40
0.124999999999999
40
0.124999999999999
40
0.249999999999999
40
0.374999999999999
40
0.374999999999999
40
0.4375
40
0.4375
40
0.5
40
0.5
40
0.75
40
0.75
40
0.875
40
0.875
40
0.9375
40
0.9375
40
1
40
1
40
1
40
1
41
1
10
34.6460751322609
20
-1.76302477850822
30
0
41
1
10
34.6447754445266
20
-1.74988705228077
30
0
41
1
10
34.6434652178907
20
-1.73598483890245
30
0
41
1
10
34.6408364333988
20
-1.70699060446046
30
0
41
1
10
34.639513886933
20
-1.69186917316773
30
0
41
1
10
34.6355261009887
20
-1.6446670562321
30
0
41
1
10
34.6301570042349
20
-1.57683933059712
30
0
41
1
10
34.6247079682938
20
-1.49937634585822
30
0
41
1
10
34.6205803916614
20
-1.43760966743565
30
0
41
1
10
34.6191971279178
20
-1.41640787230338
30
0
41
1
10
34.6164140131555
20
-1.37275562055802
30
0
41
1
10
34.6150111954352
20
-1.35025082355366
30
0
41
1
10
34.6080295094296
20
-1.23574525791341
30
0
41
1
10
34.6025090787234
20
-1.13722036854833
30
0
41
1
10
34.594289504889
20
-0.979329513114209
30
0
41
1
10
34.5915589622023
20
-0.92500301593634
30
0
41
1
10
34.5874597134237
20
-0.840888687134253
30
0
41
1
10
34.5860905235393
20
-0.812366277828545
30
0
41
1
10
34.5833761743742
20
-0.755061595694627
30
0
41
1
10
34.5820275350748
20
-0.726209268992392
30
0
41
1
10
34.5806846525024
20
-0.697160130273318
30
0
0
SPLINE
5
13B
100
AcDbEntity
8
1
62
256
6
ByLayer
370
18
48
1
60
0
100
AcDbSpline
70
4
71
3
72
10
73
6
40
0
40
0
40
0
40
0
40
0.366565811094136
40
0.700479266829799
40
1
40
1
40
1
40
1
41
1
10
35.121550644277
20
-1.80922234413151
30
0
41
1
10
35.1107570097572
20
-1.77544318645374
30
0
41
1
10
35.0901084602148
20
-1.66362973583989
30
0
41
1
10
35.061325992486
20
-1.38760393501676
30
0
41
1
10
35.043438432581
20
-1.16313563408215
30
0
41
1
10
35.0350294167038
20
-1.04875315569015
30
0
0
SPLINE
5
13C
100
AcDbEntity
8
1
62
256
6
ByLayer
370
18
48
1
60
0
100
AcDbSpline
70
4
71
3
72
8
73
4
40
0
40
0
40
0
40
0
40
1
40
1
40
1
40
1
41
1
10
41.712971999287
20
-0.309761072794743
30
0
41
1
10
41.7098377382954
20
-0.417511561050816
30
0
41
1
10
41.7076745575839
20
-0.521515545064688
30
0
41
1
10
41.7064841066909
20
-0.621876601385253
30
0
0
SPLINE
5
13D
100
AcDbEntity
8
1
62
256
6
ByLayer
370
18
48
1
60
0
100
AcDbSpline
70
4
71
3
72
18
73
14
40
0
40
0
40
0
40
0
40
0.25
40
0.25
40
0.5
40
0.5
40
0.625
40
0.625
40
0.75
40
0.75
40
0.875
40
0.875
40
1
40
1
40
1
40
1
41
1
10
41.712971999287
20
-0.309761072794714
30
0
41
1
10
41.7087749136895
20
-0.244106205000009
30
0
41
1
10
41.70478975434
20
-0.177859300104757
30
0
41
1
10
41.6973262292233
20
-0.0441704344643199
30
0
41
1
10
41.6938853081191
20
0.0224847568107975
30
0
41
1
10
41.6893066494602
20
0.122185301919586
30
0
41
1
10
41.6878817045614
20
0.155372207098338
30
0
41
1
10
41.6853170623076
20
0.22165435665022
30
0
41
1
10
41.6841820972814
20
0.254586906601418
30
0
41
1
10
41.6823489015932
20
0.319922365004572
30
0
41
1
10
41.6816427697693
20
0.352343655067188
30
0
41
1
10
41.680972830773
20
0.416678566720577
30
0
41
1
10
41.6809634753496
20
0.44858002378561
30
0
41
1
10
41.6818505218727
20
0.479970013288806
30
0
0
SPLINE
5
13E
100
AcDbEntity
8
1
62
256
6
ByLayer
370
18
48
1
60
0
100
AcDbSpline
70
4
71
3
72
26
73
22
40
0
40
0
40
0
40
0
40
0.125000000000001
40
0.125000000000001
40
0.250000000000002
40
0.250000000000002
40
0.312500000000003
40
0.343750000000002
40
0.343750000000002
40
0.375000000000002
40
0.375000000000002
40
0.500000000000001
40
0.625000000000001
40
0.75
40
0.75
40
0.78125
40
0.78125
40
0.8125
40
0.875
40
0.875
40
1
40
1
40
1
40
1
41
1
10
39.2608926221986
20
1.39670446374762
30
0
41
1
10
39.2571894678249
20
1.4483102778382
30
0
41
1
10
39.2535635277741
20
1.49710758318523
30
0
41
1
10
39.246283131001
20
1.58920078203741
30
0
41
1
10
39.242621422253
20
1.63249622247247
30
0
41
1
10
39.2369423275602
20
1.69326893714015
30
0
41
1
10
39.2340643002023
20
1.7226109647149
30
0
41
1
10
39.231137986239
20
1.75036041623412
30
0
41
1
10
39.2291772335496
20
1.76850180980239
30
0
41
1
10
39.2281918864614
20
1.77739295219729
30
0
41
1
10
39.2232716582104
20
1.82069271114207
30
0
41
1
10
39.2153974714503
20
1.88302822029601
30
0
41
1
10
39.2036888823294
20
1.95633436934497
30
0
41
1
10
39.1959579920526
20
1.99172898546737
30
0
41
1
10
39.1911316968166
20
2.00949815227946
30
0
41
1
10
39.1901658619866
20
2.01283567883087
30
0
41
1
10
39.1882448610745
20
2.01903523880901
30
0
41
1
10
39.1853755670847
20
2.02763634840301
30
0
41
1
10
39.1825383840697
20
2.03416730268808
30
0
41
1
10
39.1768955968575
20
2.04451249348662
30
0
41
1
10
39.1731772785117
20
2.04779399790485
30
0
41
1
10
39.1694682688807
20
2.04748814708657
30
0
0
SPLINE
5
13F
100
AcDbEntity
8
1
62
256
6
ByLayer
370
18
48
1
60
0
100
AcDbSpline
70
4
71
3
72
29
73
25
40
0
40
0
40
0
40
0
40
0.124999999999999
40
0.124999999999999
40
0.187499999999999
40
0.187499999999999
40
0.249999999999999
40
0.249999999999999
40
0.374999999999999
40
0.374999999999999
40
0.499999999999998
40
0.499999999999998
40
0.562499999999998
40
0.562499999999998
40
0.624999999999998
40
0.624999999999998
40
0.749999999999998
40
0.749999999999998
40
0.874999999999998
40
0.874999999999998
40
0.937499999999999
40
0.96875
40
0.96875
40
1
40
1
40
1
40
1
41
1
10
35.0655068716064
20
1.34136563621911
30
0
41
1
10
35.0615718979467
20
1.39417330552396
30
0
41
1
10
35.0576069332404
20
1.4447409038433
30
0
41
1
10
35.0516423745962
20
1.5171406916092
30
0
41
1
10
35.0496460589111
20
1.54075635293483
30
0
41
1
10
35.0456923286543
20
1.5863403552589
30
0
41
1
10
35.0437318613788
20
1.60834942085094
30
0
41
1
10
35.0379016014199
20
1.67207118837686
30
0
41
1
10
35.0340844095952
20
1.7114844501933
30
0
41
1
10
35.0265712249754
20
1.78425468362542
30
0
41
1
10
35.0228761058564
20
1.81761171606814
30
0
41
1
10
35.0173691984403
20
1.86301944390141
30
0
41
1
10
35.0155390060443
20
1.87738254145381
30
0
41
1
10
35.0118721560394
20
1.90452955542014
30
0
41
1
10
35.0100437323235
20
1.91724880883561
30
0
41
1
10
35.0045719079478
20
1.95264955476637
30
0
41
1
10
35.0009184736772
20
1.97268604629053
30
0
41
1
10
34.993429049274
20
2.00578861180046
30
0
41
1
10
34.989607942837
20
2.01885478396451
30
0
41
1
10
34.9837659729222
20
2.03318034498071
30
0
41
1
10
34.980817844748
20
2.03902215068427
30
0
41
1
10
34.9778327858507
20
2.04284970642044
30
0
41
1
10
34.9758350895075
20
2.04494836413204
30
0
41
1
10
34.9748317808948
20
2.0457709173856
30
0
41
1
10
34.9738307445899
20
2.04636193511138
30
0
0
SPLINE
5
140
100
AcDbEntity
8
1
62
256
6
ByLayer
370
18
48
1
60
0
100
AcDbSpline
70
4
71
3
72
22
73
18
40
0
40
0
40
0
40
0
40
0.125000000000001
40
0.125000000000001
40
0.250000000000002
40
0.250000000000002
40
0.312500000000002
40
0.312500000000002
40
0.375000000000003
40
0.375000000000003
40
0.500000000000002
40
0.500000000000002
40
0.625000000000001
40
0.625000000000001
40
0.750000000000001
40
0.750000000000001
40
1
40
1
40
1
40
1
41
1
10
41.1342664520242
20
0.950459126072701
30
0
41
1
10
41.1388771800911
20
0.905495722862582
30
0
41
1
10
41.1433867902012
20
0.859133813403815
30
0
41
1
10
41.1522717842729
20
0.763672825003937
30
0
41
1
10
41.1566475940105
20
0.714574456370542
30
0
41
1
10
41.1631498151231
20
0.638831900173614
30
0
41
1
10
41.165306352619
20
0.613233778588636
30
0
41
1
10
41.1696086475341
20
0.561322871657069
30
0
41
1
10
41.1717438987136
20
0.535137433605797
30
0
41
1
10
41.1780902181185
20
0.456300007201577
30
0
41
1
10
41.1822641305229
20
0.403202647961649
30
0
41
1
10
41.1905345798255
20
0.295958675864455
30
0
41
1
10
41.1946256747223
20
0.241811878612651
30
0
41
1
10
41.2027216084295
20
0.132462992957073
30
0
41
1
10
41.206728898024
20
0.0772232557212931
30
0
41
1
10
41.2186218418175
20
-0.0899076469107172
30
0
41
1
10
41.2261468662599
20
-0.200066078892462
30
0
41
1
10
41.233444216347
20
-0.308971208501049
30
0
0
SPLINE
5
141
100
AcDbEntity
8
1
62
256
6
ByLayer
370
18
48
1
60
0
100
AcDbSpline
70
4
71
3
72
26
73
22
40
0
40
0
40
0
40
0
40
0.0625000000000002
40
0.0625000000000002
40
0.125
40
0.125
40
0.250000000000001
40
0.375000000000001
40
0.500000000000001
40
0.500000000000001
40
0.562500000000001
40
0.562500000000001
40
0.625
40
0.625
40
0.75
40
0.75
40
0.875
40
0.875
40
0.9375
40
0.9375
40
1
40
1
40
1
40
1
41
1
10
35.6514829237662
20
1.9121044586625
30
0
41
1
10
35.6534674293488
20
1.89958285627921
30
0
41
1
10
35.6554501150444
20
1.88619956654483
30
0
41
1
10
35.6594064235575
20
1.85768290953075
30
0
41
1
10
35.6613838940334
20
1.84251804644114
30
0
41
1
10
35.6672758631678
20
1.79455004498504
30
0
41
1
10
35.6749515528629
20
1.72460084525625
30
0
41
1
10
35.686087715674
20
1.60229928132083
30
0
41
1
10
35.6934469516585
20
1.50921085649671
30
0
41
1
10
35.6990261088421
20
1.43493564497268
30
0
41
1
10
35.7008987243075
20
1.40939011906434
30
0
41
1
10
35.7046351473778
20
1.35738642972714
30
0
41
1
10
35.7065039735984
20
1.3308635781768
30
0
41
1
10
35.7121303710492
20
1.24976016813147
30
0
41
1
10
35.7159090993397
20
1.19364874434288
30
0
41
1
10
35.7235919022291
20
1.07739084646289
30
0
41
1
10
35.7275103279344
20
1.01724520334346
30
0
41
1
10
35.7334399646899
20
0.923937370510373
30
0
41
1
10
35.73542104599
20
0.892318648492818
30
0
41
1
10
35.7393787975482
20
0.828025007728058
30
0
41
1
10
35.7413382025533
20
0.79563063890501
30
0
41
1
10
35.7432784008283
20
0.762998441695657
30
0
0
SPLINE
5
142
100
AcDbEntity
8
1
62
256
6
ByLayer
370
13
48
1
60
0
100
AcDbSpline
70
4
71
3
72
9
73
5
40
0
40
0
40
0
40
0
40
0.866166995728398
40
1
40
1
40
1
40
1
41
1
10
39.3175166500762
20
-1.79627320361539
30
0
41
1
10
39.2928778831022
20
-1.70481545697945
30
0
41
1
10
39.2643192035637
20
-1.44564556252715
30
0
41
1
10
39.2346277835591
20
-1.04446528050065
30
0
41
1
10
39.2306387612011
20
-0.988650618420706
30
0
0
SPLINE
5
143
100
AcDbEntity
8
1
62
256
6
ByLayer
370
18
48
1
60
0
100
AcDbSpline
70
4
71
3
72
24
73
20
40
0
40
0
40
0
40
0
40
0.124999999999999
40
0.249999999999999
40
0.249999999999999
40
0.312499999999999
40
0.312499999999999
40
0.374999999999999
40
0.374999999999999
40
0.499999999999999
40
0.499999999999999
40
0.624999999999999
40
0.624999999999999
40
0.687499999999999
40
0.687499999999999
40
0.749999999999999
40
0.749999999999999
40
0.875
40
1
40
1
40
1
40
1
41
1
10
38.7676074977033
20
-1.82636092608169
30
0
41
1
10
38.7638091737995
20
-1.79457724422099
30
0
41
1
10
38.7562894618852
20
-1.72484023093975
30
0
41
1
10
38.7487850773845
20
-1.64289237468927
30
0
41
1
10
38.7430973962683
20
-1.57675484345887
30
0
41
1
10
38.7411890327288
20
-1.55389797142206
30
0
41
1
10
38.7373504172846
20
-1.50671508429482
30
0
41
1
10
38.7354319011873
20
-1.4825356164875
30
0
41
1
10
38.7296616460494
20
-1.40827173013156
30
0
41
1
10
38.7257945867813
20
-1.35646632603485
30
0
41
1
10
38.7179411872038
20
-1.24835375571843
30
0
41
1
10
38.7139613524203
20
-1.19204636066311
30
0
41
1
10
38.7080129701748
20
-1.10416085532827
30
0
41
1
10
38.7060329114548
20
-1.07429385916717
30
0
41
1
10
38.7020856840934
20
-1.01339446536363
30
0
41
1
10
38.7001148421953
20
-0.982299303769025
30
0
41
1
10
38.6942894854902
20
-0.888300423530836
30
0
41
1
10
38.6867203071594
20
-0.760483657831259
30
0
41
1
10
38.6794139060921
20
-0.627837048276717
30
0
41
1
10
38.6757544913516
20
-0.560304849208507
30
0
0
SPLINE
5
144
100
AcDbEntity
8
1
62
256
6
ByLayer
370
18
48
1
60
0
100
AcDbSpline
70
4
71
3
72
24
73
20
40
0
40
0
40
0
40
0
40
0.125000000000001
40
0.125000000000001
40
0.1875
40
0.1875
40
0.25
40
0.25
40
0.375
40
0.500000000000001
40
0.500000000000001
40
0.625000000000001
40
0.625000000000001
40
0.687500000000001
40
0.687500000000001
40
0.750000000000001
40
0.750000000000001
40
0.875000000000001
40
1
40
1
40
1
40
1
41
1
10
38.6135763671546
20
-0.500075357002117
30
0
41
1
10
38.6175165407237
20
-0.56803191175473
30
0
41
1
10
38.6214085775606
20
-0.634997375099971
30
0
41
1
10
38.6271723152594
20
-0.733950563338652
30
0
41
1
10
38.6290815747328
20
-0.766685283007405
30
0
41
1
10
38.6328809604089
20
-0.831647650009273
30
0
41
1
10
38.6347730981441
20
-0.863909596814381
30
0
41
1
10
38.6404210112303
20
-0.959699125044324
30
0
41
1
10
38.6477744849863
20
-1.08309695960003
30
0
41
1
10
38.6550092582471
20
-1.19813797120551
30
0
41
1
10
38.6623423308405
20
-1.30900750203469
30
0
41
1
10
38.66606261696
20
-1.36235660344465
30
0
41
1
10
38.6718516980416
20
-1.43915726918939
30
0
41
1
10
38.6738159490178
20
-1.4642672371991
30
0
41
1
10
38.6777516671175
20
-1.51284876545736
30
0
41
1
10
38.6797275736882
20
-1.53638306970299
30
0
41
1
10
38.6856661161155
20
-1.6047579670437
30
0
41
1
10
38.693611199694
20
-1.68999469835484
30
0
41
1
10
38.7015154150661
20
-1.76351805044032
30
0
41
1
10
38.7054503008038
20
-1.79729316752108
30
0
0
SPLINE
5
145
100
AcDbEntity
8
1
62
256
6
ByLayer
370
18
48
1
60
0
100
AcDbSpline
70
4
71
3
72
28
73
24
40
0
40
0
40
0
40
0
40
0.0625000000000001
40
0.0625000000000001
40
0.125
40
0.125
40
0.250000000000001
40
0.250000000000001
40
0.375000000000001
40
0.375000000000001
40
0.437500000000001
40
0.437500000000001
40
0.500000000000001
40
0.500000000000001
40
0.625000000000001
40
0.625000000000001
40
0.750000000000001
40
0.750000000000001
40
0.812500000000001
40
0.812500000000001
40
0.875000000000001
40
0.875000000000001
40
1
40
1
40
1
40
1
41
1
10
35.8057613213025
20
0.704407123041534
30
0
41
1
10
35.8038842036436
20
0.737576221579189
30
0
41
1
10
35.8019980980961
20
0.770593826473089
30
0
41
1
10
35.7982445442813
20
0.835493146061083
30
0
41
1
10
35.7963718058005
20
0.867469191141652
30
0
41
1
10
35.7907483651026
20
0.962000190958719
30
0
41
1
10
35.7869923524727
20
1.02316157908515
30
0
41
1
10
35.7793747966776
20
1.14180222656338
30
0
41
1
10
35.7754994815583
20
1.19928102679401
30
0
41
1
10
35.7696517913892
20
1.28268265118916
30
0
41
1
10
35.7676965228643
20
1.31002451490352
30
0
41
1
10
35.7637828687697
20
1.36369877491867
30
0
41
1
10
35.7618400069005
20
1.38981865645124
30
0
41
1
10
35.7560457206922
20
1.46607315167034
30
0
41
1
10
35.752229185233
20
1.51410804401047
30
0
41
1
10
35.7445761358509
20
1.60468082612204
30
0
41
1
10
35.7407460875005
20
1.64721889508778
30
0
41
1
10
35.7349810116327
20
1.70685466261983
30
0
41
1
10
35.7330559417697
20
1.72603668160366
30
0
41
1
10
35.7291957363748
20
1.76298242435573
30
0
41
1
10
35.7272557009619
20
1.78078634844849
30
0
41
1
10
35.7214757868528
20
1.83149163583593
30
0
41
1
10
35.7176624437325
20
1.86184226395179
30
0
41
1
10
35.7138688832215
20
1.88883800714515
30
0
0
SPLINE
5
146
100
AcDbEntity
8
1
62
256
6
ByLayer
370
13
48
1
60
0
100
AcDbSpline
70
4
71
3
72
10
73
6
40
0
40
0
40
0
40
0
40
0.637890157569153
40
0.968317086779183
40
1
40
1
40
1
40
1
41
1
10
36.3556483294231
20
0.196067093437477
30
0
41
1
10
36.3373680735825
20
0.497181475382007
30
0
41
1
10
36.3097673437354
20
0.940647278820364
30
0
41
1
10
36.2804688303046
20
1.30374613562566
30
0
41
1
10
36.2699533942991
20
1.41550716953776
30
0
41
1
10
36.2690340008448
20
1.42513329212147
30
0
0
SPLINE
5
147
100
AcDbEntity
8
1
62
256
6
ByLayer
370
18
48
1
60
0
100
AcDbSpline
70
4
71
3
72
21
73
17
40
0
40
0
40
0
40
0
40
0.125
40
0.25
40
0.25
40
0.375
40
0.375
40
0.5
40
0.625
40
0.625
40
0.6875
40
0.6875
40
0.75
40
0.75
40
0.875
40
1
40
1
40
1
40
1
41
1
10
36.3918510158097
20
1.52779784726121
30
0
41
1
10
36.3956452661698
20
1.48117723800377
30
0
41
1
10
36.4031980212474
20
1.38277002979376
30
0
41
1
10
36.4106818869279
20
1.27399108162135
30
0
41
1
10
36.4182745425499
20
1.15984241144099
30
0
41
1
10
36.4220863666018
20
1.10103474293055
30
0
41
1
10
36.4297740513115
20
0.9802398220491
30
0
41
1
10
36.4375104038505
20
0.856209867483585
30
0
41
1
10
36.4453137805329
20
0.725740503086058
30
0
41
1
10
36.4511893518195
20
0.625408080955822
30
0
41
1
10
36.4531573020911
20
0.591454000460942
30
0
41
1
10
36.4570632395719
20
0.523388506713616
30
0
41
1
10
36.4590037140905
20
0.489236684647665
30
0
41
1
10
36.4647922960913
20
0.386430868909855
30
0
41
1
10
36.4724216267591
20
0.248423917436867
30
0
41
1
10
36.4799502460114
20
0.108581039137846
30
0
41
1
10
36.4837183975805
20
0.038193882489594
30
0
0
SPLINE
5
148
100
AcDbEntity
8
1
62
256
6
ByLayer
370
18
48
1
60
0
100
AcDbSpline
70
4
71
3
72
39
73
35
40
0
40
0
40
0
40
0
40
0.0312500000000002
40
0.0312500000000002
40
0.0625000000000003
40
0.0625000000000003
40
0.125000000000001
40
0.156250000000001
40
0.156250000000001
40
0.187500000000001
40
0.187500000000001
40
0.250000000000001
40
0.250000000000001
40
0.281250000000001
40
0.281250000000001
40
0.312500000000001
40
0.312500000000001
40
0.375000000000001
40
0.375000000000001
40
0.500000000000001
40
0.500000000000001
40
0.750000000000001
40
0.750000000000001
40
0.781250000000001
40
0.781250000000001
40
0.812500000000001
40
0.812500000000001
40
0.875000000000001
40
0.875000000000001
40
0.906250000000001
40
0.906250000000001
40
0.937500000000001
40
0.937500000000001
40
1
40
1
40
1
40
1
41
1
10
42.2
20
1.13367841723459
30
0
41
1
10
42.2
20
1.11827291739675
30
0
41
1
10
42.2000000000001
20
1.10293603491073
30
0
41
1
10
42.2000000000001
20
1.07273944560481
30
0
41
1
10
42.2
20
1.05782939036277
30
0
41
1
10
42.1999999999999
20
1.01365419450895
30
0
41
1
10
42.2000000000001
20
0.970591511954382
30
0
41
1
10
42.2000000000001
20
0.929194092159605
30
0
41
1
10
42.2000000000001
20
0.901974885215395
30
0
41
1
10
42.2
20
0.888501095151412
30
0
41
1
10
42.2
20
0.849142690885486
30
0
41
1
10
42.2000000000001
20
0.824319608490043
30
0
41
1
10
42.2
20
0.789104062603798
30
0
41
1
10
42.2
20
0.777688492996305
30
0
41
1
10
42.2
20
0.755563887505929
30
0
41
1
10
42.2
20
0.744928783679057
30
0
41
1
10
42.2
20
0.712881310410097
30
0
41
1
10
42.2000000000001
20
0.691608170608646
30
0
41
1
10
42.2
20
0.628016790990301
30
0
41
1
10
42.2000000000001
20
0.585918682840742
30
0
41
1
10
42.2
20
0.460434144890286
30
0
41
1
10
42.2
20
0.377845645307957
30
0
41
1
10
42.2
20
0.286449313081533
30
0
41
1
10
42.2000000000001
20
0.276319345155201
30
0
41
1
10
42.2000000000001
20
0.256057516936551
30
0
41
1
10
42.2000000000001
20
0.245854665751693
30
0
41
1
10
42.2000000000001
20
0.216464764291999
30
0
41
1
10
42.2000000000001
20
0.198287734556629
30
0
41
1
10
42.2000000000001
20
0.173127335214872
30
0
41
1
10
42.2
20
0.16509476622241
30
0
41
1
10
42.2
20
0.149761655746289
30
0
41
1
10
42.2
20
0.142441363499216
30
0
41
1
10
42.2
20
0.121846936979438
30
0
41
1
10
42.2000000000001
20
0.109863795230751
30
0
41
1
10
42.2000000000001
20
0.0995716247848577
30
0
0
SPLINE
5
149
100
AcDbEntity
8
1
62
256
6
ByLayer
370
18
48
1
60
0
100
AcDbSpline
70
4
71
3
72
18
73
14
40
0
40
0
40
0
40
0
40
0.062499999999993
40
0.062499999999993
40
0.124999999999986
40
0.124999999999986
40
0.249999999999972
40
0.249999999999972
40
0.499999999999982
40
0.499999999999982
40
0.749999999999991
40
0.749999999999991
40
1
40
1
40
1
40
1
41
1
10
41.706484106691
20
1.61907925248531
30
0
41
1
10
41.7171461753815
20
1.60923348531821
30
0
41
1
10
41.7278518734923
20
1.59929498278581
30
0
41
1
10
41.7493469227801
20
1.57924524911627
30
0
41
1
10
41.7601176904515
20
1.56915990405716
30
0
41
1
10
41.7922877654614
20
1.53900029926624
30
0
41
1
10
41.813586899574
20
1.51896364651714
30
0
41
1
10
41.8770852298121
20
1.45890427414034
30
0
41
1
10
41.9189087260622
20
1.41891369663864
30
0
41
1
10
42.0014573915024
20
1.33854179984644
30
0
41
1
10
42.0421798624914
20
1.29816816761621
30
0
41
1
10
42.1222481745253
20
1.21662861993477
30
0
41
1
10
42.1616020543843
20
1.17545985322875
30
0
41
1
10
42.1999999999969
20
1.1336784172365
30
0
0
SPLINE
5
14A
100
AcDbEntity
8
1
62
256
6
ByLayer
370
18
48
1
60
0
100
AcDbSpline
70
4
71
3
72
8
73
4
40
0
40
0
40
0
40
0
40
1
40
1
40
1
40
1
41
1
10
41.7064841066909
20
1.61907925248531
30
0
41
1
10
41.6912159632506
20
1.62135280530717
30
0
41
1
10
41.6759797395411
20
1.62348916325038
30
0
41
1
10
41.6607727821769
20
1.62548775044553
30
0
0
SPLINE
5
14B
100
AcDbEntity
8
1
62
256
6
ByLayer
370
18
48
1
60
0
100
AcDbSpline
70
4
71
3
72
35
73
31
40
0
40
0
40
0
40
0
40
0.0625000000000113
40
0.0625000000000113
40
0.125000000000023
40
0.125000000000023
40
0.187500000000034
40
0.187500000000034
40
0.250000000000045
40
0.250000000000045
40
0.375000000000156
40
0.375000000000156
40
0.437500000000163
40
0.437500000000163
40
0.50000000000017
40
0.50000000000017
40
0.562500000000177
40
0.562500000000177
40
0.625000000000184
40
0.625000000000184
40
0.687500000000191
40
0.687500000000191
40
0.750000000000153
40
0.750000000000153
40
0.812500000000115
40
0.812500000000115
40
0.875000000000076
40
0.937500000000038
40
0.937500000000038
40
1
40
1
40
1
40
1
41
1
10
41.660772782177
20
1.62548775044553
30
0
41
1
10
41.6575373496799
20
1.62032801695654
30
0
41
1
10
41.6541682813666
20
1.61528710057027
30
0
41
1
10
41.6470207077148
20
1.60580407026404
30
0
41
1
10
41.6432357951583
20
1.60135164312737
30
0
41
1
10
41.6351728145872
20
1.59312928516115
30
0
41
1
10
41.6308916557778
20
1.58936384642601
30
0
41
1
10
41.6219014768836
20
1.58242316621542
30
0
41
1
10
41.617184276697
20
1.57923823324657
30
0
41
1
10
41.6027713879878
20
1.57067785787871
30
0
41
1
10
41.5927241027046
20
1.5661724090649
30
0
41
1
10
41.5769378764589
20
1.56152031441923
30
0
41
1
10
41.5715230200673
20
1.56034486524143
30
0
41
1
10
41.560697679649
20
1.5587883650571
30
0
41
1
10
41.555263315738
20
1.5583924063605
30
0
41
1
10
41.5443591404077
20
1.55837239506508
30
0
41
1
10
41.5388893170278
20
1.55874575574109
30
0
41
1
10
41.5279165752543
20
1.56040115025826
30
0
41
1
10
41.5224393097601
20
1.56168312164269
30
0
41
1
10
41.5118277441009
20
1.56538415342067
30
0
41
1
10
41.5066590467169
20
1.5678136347999
30
0
41
1
10
41.4966568905073
20
1.57404110024714
30
0
41
1
10
41.4919705118275
20
1.57775727930408
30
0
41
1
10
41.4832495339945
20
1.58616746997578
30
0
41
1
10
41.4791870358322
20
1.59088745153875
30
0
41
1
10
41.4715603255576
20
1.60098432589234
30
0
41
1
10
41.4644840697824
20
1.61163059671813
30
0
41
1
10
41.4579090219347
20
1.62275070392926
30
0
41
1
10
41.4512986997036
20
1.6338055592424
30
0
41
1
10
41.4479511390288
20
1.63927402724457
30
0
41
1
10
41.4445475628617
20
1.64466874091514
30
0
0
SPLINE
5
14C
100
AcDbEntity
8
1
62
256
6
ByLayer
370
18
48
1
60
0
100
AcDbSpline
70
4
71
3
72
8
73
4
40
0
40
0
40
0
40
0
40
1
40
1
40
1
40
1
41
1
10
41.4445475628617
20
1.64466874091514
30
0
41
1
10
41.3011013667115
20
1.65113079756537
30
0
41
1
10
41.1595698778967
20
1.64463612903151
30
0
41
1
10
41.018224216312
20
1.62457852585325
30
0
0
SPLINE
5
14D
100
AcDbEntity
8
1
62
256
6
ByLayer
370
18
48
1
60
0
100
AcDbSpline
70
4
71
3
72
8
73
4
40
0
40
0
40
0
40
0
40
1
40
1
40
1
40
1
41
1
10
35.2496091763286
20
-2.03719042190957
30
0
41
1
10
35.2705394932102
20
-2.03929766575158
30
0
41
1
10
35.2914629533972
20
-2.04108209347629
30
0
41
1
10
35.3123840210637
20
-2.04254386794219
30
0
0
SPLINE
5
14E
100
AcDbEntity
8
1
62
256
6
ByLayer
370
18
48
1
60
0
100
AcDbSpline
70
4
71
3
72
15
73
11
40
0
40
0
40
0
40
0
40
0.0625000000000128
40
0.0625000000000128
40
0.125000000000026
40
0.125000000000026
40
0.250000000000025
40
0.500000000000027
40
0.500000000000027
40
1
40
1
40
1
40
1
41
1
10
35.2496091763296
20
-2.03719042190852
30
0
41
1
10
35.2469201232574
20
-2.03264029986266
30
0
41
1
10
35.2443245586686
20
-2.02797174510187
30
0
41
1
10
35.2391148823805
20
-2.01863339538241
30
0
41
1
10
35.2365102025378
20
-2.01395276382127
30
0
41
1
10
35.2286549740553
20
-1.99992391473523
30
0
41
1
10
35.2128281345291
20
-1.97185877732377
30
0
41
1
10
35.196760717945
20
-1.9436800842432
30
0
41
1
10
35.1645538447591
20
-1.88689707229216
30
0
41
1
10
35.1430302578825
20
-1.84842842261352
30
0
41
1
10
35.121550644277
20
-1.80922234413151
30
0
0
SPLINE
5
14F
100
AcDbEntity
8
1
62
256
6
ByLayer
370
18
48
1
60
0
100
AcDbSpline
70
4
71
3
72
44
73
40
40
0
40
0
40
0
40
0
40
0.249999999999951
40
0.249999999999951
40
0.281249999999945
40
0.281249999999945
40
0.312499999999938
40
0.312499999999938
40
0.343749999999932
40
0.343749999999932
40
0.374999999999926
40
0.374999999999926
40
0.406249999999919
40
0.406249999999919
40
0.437499999999913
40
0.437499999999913
40
0.468749999999906
40
0.468749999999906
40
0.4999999999999
40
0.4999999999999
40
0.531249999999893
40
0.531249999999893
40
0.562499999999887
40
0.562499999999887
40
0.578124999999883
40
0.578124999999883
40
0.59374999999988
40
0.59374999999988
40
0.624999999999889
40
0.624999999999889
40
0.656249999999899
40
0.656249999999899
40
0.687499999999908
40
0.687499999999908
40
0.749999999999926
40
0.749999999999926
40
0.874999999999963
40
0.874999999999963
40
1
40
1
40
1
40
1
41
1
10
35.121550644277
20
-1.80922234413151
30
0
41
1
10
35.0897328804169
20
-1.75114635775952
30
0
41
1
10
35.0580899457145
20
-1.69158388929867
30
0
41
1
10
35.0212519124355
20
-1.62433643075048
30
0
41
1
10
35.0171402351812
20
-1.61686140356571
30
0
41
1
10
35.0088713927238
20
-1.60191199218264
30
0
41
1
10
35.0047321141007
20
-1.59441914677382
30
0
41
1
10
34.9963158870545
20
-1.57953466342224
30
0
41
1
10
34.991982001967
20
-1.57220267197809
30
0
41
1
10
34.982476688936
20
-1.55837547654258
30
0
41
1
10
34.977301204033
20
-1.55188457366654
30
0
41
1
10
34.9658753807711
20
-1.53999170860087
30
0
41
1
10
34.9598185895379
20
-1.53473884254404
30
0
41
1
10
34.9472217142114
20
-1.52526744522012
30
0
41
1
10
34.940672783972
20
-1.52105498074445
30
0
41
1
10
34.9270786079115
20
-1.51369233548476
30
0
41
1
10
34.9200088938339
20
-1.51054770353923
30
0
41
1
10
34.905783296749
20
-1.50574175422477
30
0
41
1
10
34.8985775978099
20
-1.50402955266551
30
0
41
1
10
34.8840084884697
20
-1.50193479719311
30
0
41
1
10
34.8765802452498
20
-1.5015497655769
30
0
41
1
10
34.8618903006147
20
-1.50239404650074
30
0
41
1
10
34.8546717161961
20
-1.50360446624768
30
0
41
1
10
34.8441401011168
20
-1.50715693407653
30
0
41
1
10
34.8406677683578
20
-1.50864245395365
30
0
41
1
10
34.8340497196413
20
-1.51214336498577
30
0
41
1
10
34.8308774214453
20
-1.51416529128883
30
0
41
1
10
34.8217516951402
20
-1.5210006094164
30
0
41
1
10
34.8161547360561
20
-1.526662659717
30
0
41
1
10
34.8059933739727
20
-1.53910462071786
30
0
41
1
10
34.8013945975108
20
-1.54585118094002
30
0
41
1
10
34.7924573049857
20
-1.55958352227069
30
0
41
1
10
34.788098000553
20
-1.56654510640942
30
0
41
1
10
34.7745656253977
20
-1.58680362199544
30
0
41
1
10
34.7651814704933
20
-1.59975611124003
30
0
41
1
10
34.7373816044449
20
-1.63863115227119
30
0
41
1
10
34.7190827947683
20
-1.66428877083214
30
0
41
1
10
34.6825272473694
20
-1.71445476265367
30
0
41
1
10
34.6642774002488
20
-1.73899540851303
30
0
41
1
10
34.6460751322612
20
-1.76302477850817
30
0
0
SPLINE
5
150
100
AcDbEntity
8
1
62
256
6
ByLayer
370
18
48
1
60
0
100
AcDbSpline
70
4
71
3
72
8
73
4
40
0
40
0
40
0
40
0
40
1
40
1
40
1
40
1
41
1
10
34.6460751322609
20
-1.76302477850822
30
0
41
1
10
34.53636176008
20
-1.65755580974664
30
0
41
1
10
34.4253808531689
20
-1.54483736366825
30
0
41
1
10
34.3113328398865
20
-1.42581292182175
30
0
0
SPLINE
5
151
100
AcDbEntity
8
1
62
256
6
ByLayer
370
18
48
1
60
0
100
AcDbSpline
70
4
71
3
72
27
73
23
40
0
40
0
40
0
40
0
40
0.249999999999985
40
0.249999999999985
40
0.312499999999982
40
0.312499999999982
40
0.374999999999979
40
0.374999999999979
40
0.437499999999976
40
0.499999999999973
40
0.499999999999973
40
0.624999999999967
40
0.624999999999967
40
0.687499999999964
40
0.687499999999964
40
0.749999999999962
40
0.749999999999962
40
0.874999999999956
40
0.874999999999956
40
0.937499999999978
40
0.937499999999978
40
1
40
1
40
1
40
1
41
1
10
34.3113328398864
20
-1.42581292182172
30
0
41
1
10
34.2989228003168
20
-1.40054321916452
30
0
41
1
10
34.2864096359462
20
-1.37530209963467
30
0
41
1
10
34.2705108096333
20
-1.34385748863323
30
0
41
1
10
34.2673178714559
20
-1.3375739021204
30
0
41
1
10
34.2609024382996
20
-1.32502217504262
30
0
41
1
10
34.2576876687646
20
-1.31874828997758
30
0
41
1
10
34.2509458652523
20
-1.30641599402992
30
0
41
1
10
34.2438837839995
20
-1.29430482658586
30
0
41
1
10
34.2357388614208
20
-1.28294954942891
30
0
41
1
10
34.2225807561414
20
-1.26657528867719
30
0
41
1
10
34.2130011360051
20
-1.25693541462226
30
0
41
1
10
34.1978495559666
20
-1.24391075171457
30
0
41
1
10
34.1926550370001
20
-1.23981885040334
30
0
41
1
10
34.1819580846848
20
-1.23217864527129
30
0
41
1
10
34.1765061432635
20
-1.22867372893714
30
0
41
1
10
34.1600462144175
20
-1.21933410279058
30
0
41
1
10
34.1488634122352
20
-1.21451293738076
30
0
41
1
10
34.1318174119153
20
-1.2094963254944
30
0
41
1
10
34.126113790417
20
-1.20821708171121
30
0
41
1
10
34.1149560149305
20
-1.20668573795993
30
0
41
1
10
34.1094682599654
20
-1.20643792505513
30
0
41
1
10
34.1041057671956
20
-1.20686999827035
30
0
0
SPLINE
5
152
100
AcDbEntity
8
1
62
256
6
ByLayer
370
18
48
1
60
0
100
AcDbSpline
70
4
71
3
72
8
73
4
40
0
40
0
40
0
40
0
40
1
40
1
40
1
40
1
41
1
10
34.1041057671956
20
-1.20686999827032
30
0
41
1
10
34.0785997720485
20
-1.17967938246397
30
0
41
1
10
34.0530276928644
20
-1.15232350044968
30
0
41
1
10
34.0273316097986
20
-1.12483605507927
30
0
0
SPLINE
5
153
100
AcDbEntity
8
1
62
256
6
ByLayer
370
18
48
1
60
0
100
AcDbSpline
70
4
71
3
72
12
73
8
40
0
40
0
40
0
40
0
40
0.249999999999988
40
0.249999999999988
40
0.499999999999976
40
0.499999999999976
40
1
40
1
40
1
40
1
41
1
10
34.0273316097986
20
-1.12483605507882
30
0
41
1
10
34.0085756447294
20
-1.1047725471937
30
0
41
1
10
33.9892273483282
20
-1.08565207942252
30
0
41
1
10
33.9493955747819
20
-1.04926406297193
30
0
41
1
10
33.9289266257322
20
-1.03198832507761
30
0
41
1
10
33.866117230438
20
-0.982776929206153
30
0
41
1
10
33.8223981427075
20
-0.953421549114125
30
0
41
1
10
33.777331609801
20
-0.92740893757059
30
0
0
SPLINE
5
154
100
AcDbEntity
8
1
62
256
6
ByLayer
370
18
48
1
60
0
100
AcDbSpline
70
4
71
3
72
68
73
64
40
0
40
0
40
0
40
0
40
0.0378830938322227
40
0.0378830938322227
40
0.0757661876644453
40
0.0757661876644453
40
0.113649281496668
40
0.113649281496668
40
0.151532375328891
40
0.151532375328891
40
0.189415469161113
40
0.189415469161113
40
0.208357016077226
40
0.208357016077226
40
0.227298562993338
40
0.227298562993338
40
0.265181656825563
40
0.265181656825563
40
0.303064750657788
40
0.303064750657788
40
0.340947844490013
40
0.340947844490013
40
0.378830938322238
40
0.378830938322238
40
0.397772485238351
40
0.397772485238351
40
0.416714032154465
40
0.416714032154465
40
0.454597125986692
40
0.454597125986692
40
0.492480219818919
40
0.492480219818919
40
0.530363313651146
40
0.530363313651146
40
0.568246407483373
40
0.568246407483373
40
0.587187954399486
40
0.587187954399486
40
0.606129501315598
40
0.606129501315598
40
0.681895688980043
40
0.681895688980043
40
0.719778782812266
40
0.719778782812266
40
0.757661876644489
40
0.757661876644489
40
0.776603423560599
40
0.776603423560599
40
0.795544970476709
40
0.795544970476709
40
0.833428064308929
40
0.833428064308929
40
0.87131115814115
40
0.87131115814115
40
0.90919425197337
40
0.90919425197337
40
0.947077345805591
40
0.947077345805591
40
0.9660188927217
40
0.9660188927217
40
0.984960439637809
40
0.984960439637809
40
1
40
1
40
1
40
1
41
1
10
33.7773316097986
20
-0.927408937574882
30
0
41
1
10
33.7001369195424
20
-0.88285180479042
30
0
41
1
10
33.6233472929725
20
-0.836590926861561
30
0
41
1
10
33.4704191971421
20
-0.740904801234905
30
0
41
1
10
33.3942399828247
20
-0.691525032783971
30
0
41
1
10
33.2420067977544
20
-0.590266279233077
30
0
41
1
10
33.1658927265327
20
-0.538465574116032
30
0
41
1
10
33.0135699260181
20
-0.432659963250302
30
0
41
1
10
32.9373931828743
20
-0.378610156965294
30
0
41
1
10
32.7845742402753
20
-0.268754496145732
30
0
41
1
10
32.7079281705784
20
-0.21295342018945
30
0
41
1
10
32.592233328385
20
-0.128419216003039
30
0
41
1
10
32.5536512066493
20
-0.100168953656578
30
0
41
1
10
32.4767723601395
20
-0.0437936036167343
30
0
41
1
10
32.4384248195168
20
-0.0156302237706427
30
0
41
1
10
32.3236182315954
20
0.0687359581633302
30
0
41
1
10
32.2474182309395
20
0.124846255081366
30
0
41
1
10
32.0951912157589
20
0.236115524895126
30
0
41
1
10
32.0191009503883
20
0.291189367588828
30
0
41
1
10
31.8668060497814
20
0.400005241334725
30
0
41
1
10
31.7906402227369
20
0.453798240622405
30
0
41
1
10
31.637869051551
20
0.559600621808301
30
0
41
1
10
31.5612871234926
20
0.611640226720056
30
0
41
1
10
31.4457286720635
20
0.687877684913218
30
0
41
1
10
31.4070930680426
20
0.712959043168723
30
0
41
1
10
31.3301445845448
20
0.762111985646726
30
0
41
1
10
31.2917740764488
20
0.786249298102206
30
0
41
1
10
31.1769074123821
20
0.857280015926449
30
0
41
1
10
31.1006477809495
20
0.902782292757024
30
0
41
1
10
30.9483820101242
20
0.989707750648364
30
0
41
1
10
30.8723585778756
20
1.03111055562798
30
0
41
1
10
30.7200511647752
20
1.10934698160875
30
0
41
1
10
30.6438660808748
20
1.1462805155376
30
0
41
1
10
30.4911939602869
20
1.21548747955248
30
0
41
1
10
30.4146701082508
20
1.24772504925471
30
0
41
1
10
30.2992378416328
20
1.29216226202502
30
0
41
1
10
30.2606016192212
20
1.30634018438607
30
0
41
1
10
30.1835995767811
20
1.33314823366146
30
0
41
1
10
30.1451785636061
20
1.34580332743337
30
0
41
1
10
29.9535549014374
20
1.4054376903178
30
0
41
1
10
29.8016401043433
20
1.44137012756013
30
0
41
1
10
29.5733275525095
20
1.47685869614506
30
0
41
1
10
29.4971387752097
20
1.48562780924277
30
0
41
1
10
29.3445162772514
20
1.49695997012586
30
0
41
1
10
29.2680444418771
20
1.49950724044572
30
0
41
1
10
29.1527207443265
20
1.49851877205032
30
0
41
1
10
29.11410033665
20
1.49738405144265
30
0
41
1
10
29.0370284382729
20
1.49351910341838
30
0
41
1
10
28.9985826876383
20
1.49079370478424
30
0
41
1
10
28.8834928234726
20
1.48027789665801
30
0
41
1
10
28.8071477760707
20
1.47013564548567
30
0
41
1
10
28.6547781218416
20
1.44377528458671
30
0
41
1
10
28.5787546910619
20
1.42755646117371
30
0
41
1
10
28.4265792640069
20
1.38926618791797
30
0
41
1
10
28.3503971585061
20
1.36721918490534
30
0
41
1
10
28.1978135739307
20
1.31729131347859
30
0
41
1
10
28.1213843929847
20
1.28941677000799
30
0
41
1
10
28.0061701126225
20
1.24338659372248
30
0
41
1
10
27.9676243438283
20
1.22732198892953
30
0
41
1
10
27.8904767422092
20
1.19390804476359
30
0
41
1
10
27.8519975288782
20
1.17660856838378
30
0
41
1
10
27.7831303095683
20
1.14452891890647
30
0
41
1
10
27.7527078675921
20
1.12996426856148
30
0
41
1
10
27.722331628024
20
1.11504533237678
30
0
0
SPLINE
5
155
100
AcDbEntity
8
1
62
256
6
ByLayer
370
18
48
1
60
0
100
AcDbSpline
70
4
71
3
72
101
73
97
40
0
40
0
40
0
40
0
40
0.0159036746139286
40
0.0159036746139286
40
0.0334768232815395
40
0.0334768232815395
40
0.0510499719491503
40
0.0510499719491503
40
0.0861962692843737
40
0.0861962692843737
40
0.103769417951985
40
0.103769417951985
40
0.121342566619597
40
0.121342566619597
40
0.156488863954821
40
0.156488863954821
40
0.174062012622432
40
0.174062012622432
40
0.191635161290044
40
0.191635161290044
40
0.209208309957656
40
0.209208309957656
40
0.226781458625267
40
0.226781458625267
40
0.261927755960493
40
0.261927755960493
40
0.279500904628105
40
0.279500904628105
40
0.297074053295716
40
0.297074053295716
40
0.314647201963328
40
0.314647201963328
40
0.323433776297133
40
0.323433776297133
40
0.332220350630938
40
0.332220350630938
40
0.349793499298546
40
0.349793499298546
40
0.367366647966154
40
0.367366647966154
40
0.402512945301371
40
0.402512945301371
40
0.420086093968979
40
0.420086093968979
40
0.437659242636587
40
0.437659242636587
40
0.472805539971803
40
0.472805539971803
40
0.490378688639411
40
0.490378688639411
40
0.507951837307018
40
0.507951837307018
40
0.525524985974625
40
0.525524985974625
40
0.543098134642233
40
0.543098134642233
40
0.578244431977445
40
0.578244431977445
40
0.595817580645053
40
0.595817580645053
40
0.61339072931266
40
0.61339072931266
40
0.630963877980267
40
0.630963877980267
40
0.63975045231407
40
0.63975045231407
40
0.648537026647873
40
0.683683323983085
40
0.683683323983085
40
0.701256472650692
40
0.701256472650692
40
0.718829621318298
40
0.718829621318298
40
0.753975918653509
40
0.753975918653509
40
0.78912221598872
40
0.78912221598872
40
0.797908790322524
40
0.797908790322524
40
0.806695364656327
40
0.806695364656327
40
0.824268513323935
40
0.824268513323935
40
0.859414810659148
40
0.859414810659148
40
0.89456110799436
40
0.89456110799436
40
0.912134256661967
40
0.912134256661967
40
0.929707405329573
40
0.929707405329573
40
0.947280553997179
40
0.947280553997179
40
0.964853702664786
40
0.964853702664786
40
1
40
1
40
1
40
1
41
1
10
26.2253805044534
20
1.49894986792108
30
0
41
1
10
26.2655201739118
20
1.49893561929147
30
0
41
1
10
26.3057916440493
20
1.49805963120289
30
0
41
1
10
26.3907805951176
20
1.49438303216766
30
0
41
1
10
26.435414490464
20
1.49138814906456
30
0
41
1
10
26.5243738763309
20
1.48327845194078
30
0
41
1
10
26.568772246507
20
1.47816275311339
30
0
41
1
10
26.7019506686019
20
1.45968078728876
30
0
41
1
10
26.7906923627726
20
1.44317495089444
30
0
41
1
10
26.9242865597307
20
1.41233002295701
30
0
41
1
10
26.9689275642645
20
1.40102261228344
30
0
41
1
10
27.0580281244106
20
1.3764839572556
30
0
41
1
10
27.1025253110365
20
1.36324587704018
30
0
41
1
10
27.2358544868723
20
1.32062681198349
30
0
41
1
10
27.3244225408984
20
1.28825200966176
30
0
41
1
10
27.457947858947
20
1.23451947172057
30
0
41
1
10
27.5026034347315
20
1.21570929112284
30
0
41
1
10
27.5917847588963
20
1.17645080967736
30
0
41
1
10
27.6362387018394
20
1.15603673834721
30
0
41
1
10
27.7248277660362
20
1.11361018921261
30
0
41
1
10
27.7689589422473
20
1.09159160592384
30
0
41
1
10
27.8571081739763
20
1.0461548570552
30
0
41
1
10
27.9011336385965
20
1.02274554582752
30
0
41
1
10
28.0331258866683
20
0.950530829621016
30
0
41
1
10
28.1210238734274
20
0.899756879826839
30
0
41
1
10
28.2530155521445
20
0.819985731197619
30
0
41
1
10
28.2970339442824
20
0.792789984479271
30
0
41
1
10
28.3851217595807
20
0.73718519184925
30
0
41
1
10
28.4291804973831
20
0.708761640949433
30
0
41
1
10
28.517524757489
20
0.650897794402084
30
0
41
1
10
28.5618269043967
20
0.621479761115552
30
0
41
1
10
28.6285060759895
20
0.576657839877186
30
0
41
1
10
28.6507692864902
20
0.561600250011935
30
0
41
1
10
28.6953706619254
20
0.531250739712277
30
0
41
1
10
28.7176961751235
20
0.515967211434941
30
0
41
1
10
28.7845004844906
20
0.469958979497676
30
0
41
1
10
28.8288961806219
20
0.439012425543581
30
0
41
1
10
28.9174105793729
20
0.37657751210071
30
0
41
1
10
28.9615209312511
20
0.34507765993439
30
0
41
1
10
29.0936129656943
20
0.250005928001343
30
0
41
1
10
29.1814161981037
20
0.185944136385672
30
0
41
1
10
29.3133949413862
20
0.0897476129751169
30
0
41
1
10
29.3574114187193
20
0.0576346708709821
30
0
41
1
10
29.4454378982925
20
-0.006760593751352
30
0
41
1
10
29.4894367801169
20
-0.039058515530968
30
0
41
1
10
29.621569026887
20
-0.136008451867525
30
0
41
1
10
29.7098987907715
20
-0.200632063725578
30
0
41
1
10
29.8432939921217
20
-0.296809999582422
30
0
41
1
10
29.8879699269505
20
-0.328809446105964
30
0
41
1
10
29.9769139032109
20
-0.392018753058494
30
0
41
1
10
30.0212559876805
20
-0.423280912118401
30
0
41
1
10
30.1096989123658
20
-0.485106568181038
30
0
41
1
10
30.1537861544505
20
-0.515687836467777
30
0
41
1
10
30.2417711026003
20
-0.576084348116694
30
0
41
1
10
30.2857549317434
20
-0.605787828194167
30
0
41
1
10
30.4178048623462
20
-0.693286886179408
30
0
41
1
10
30.5057796063471
20
-0.749714350131256
30
0
41
1
10
30.6378268315534
20
-0.831282692020153
30
0
41
1
10
30.6818587449802
20
-0.857956936537732
30
0
41
1
10
30.7699598099634
20
-0.910254206552082
30
0
41
1
10
30.8140256476102
20
-0.935879269128066
30
0
41
1
10
30.9024268895341
20
-0.98580485025829
30
0
41
1
10
30.9467756263554
20
-1.01009255115741
30
0
41
1
10
31.013535422463
20
-1.04549147438306
30
0
41
1
10
31.0358510615684
20
-1.05713119567656
30
0
41
1
10
31.0804349851566
20
-1.08000175020854
30
0
41
1
10
31.1917240974778
20
-1.13613333645
30
0
41
1
10
31.3021910530131
20
-1.18708651037201
30
0
41
1
10
31.4341391324006
20
-1.24316220973304
30
0
41
1
10
31.478072101016
20
-1.2609631377037
30
0
41
1
10
31.5660556188102
20
-1.29464947448048
30
0
41
1
10
31.610076421556
20
-1.3105602487025
30
0
41
1
10
31.7421083573274
20
-1.35559260419001
30
0
41
1
10
31.8300585500099
20
-1.38202608283353
30
0
41
1
10
32.0064042651982
20
-1.42723406688515
30
0
41
1
10
32.0947834118192
20
-1.44600408049141
30
0
41
1
10
32.2061778175271
20
-1.46430759818966
30
0
41
1
10
32.2285112818293
20
-1.4677145650906
30
0
41
1
10
32.2730698899326
20
-1.47399046384481
30
0
41
1
10
32.2953160482797
20
-1.47686321664233
30
0
41
1
10
32.3619477871987
20
-1.48469358916034
30
0
41
1
10
32.4062081280574
20
-1.48886662802047
30
0
41
1
10
32.5386623702454
20
-1.49823268122063
30
0
41
1
10
32.6265812726954
20
-1.50026066587463
30
0
41
1
10
32.8024751436949
20
-1.49600657547515
30
0
41
1
10
32.8904535492723
20
-1.48974447293608
30
0
41
1
10
33.0225753566134
20
-1.47416447874954
30
0
41
1
10
33.0666384104829
20
-1.46793744749147
30
0
41
1
10
33.1547912788333
20
-1.4533723091499
30
0
41
1
10
33.1988739927578
20
-1.44502697945211
30
0
41
1
10
33.2873605913072
20
-1.42629068252791
30
0
41
1
10
33.3317851482176
20
-1.4159130832289
30
0
41
1
10
33.4209845726379
20
-1.39312714713378
30
0
41
1
10
33.4656329229576
20
-1.38074874623797
30
0
41
1
10
33.5993382190004
20
-1.34069914655447
30
0
41
1
10
33.688199948522
20
-1.31001725897465
30
0
41
1
10
33.7773316097986
20
-1.27565658749018
30
0
0
SPLINE
5
156
100
AcDbEntity
8
1
62
256
6
ByLayer
370
18
48
1
60
0
100
AcDbSpline
70
4
71
3
72
12
73
8
40
0
40
0
40
0
40
0
40
0.500000000000011
40
0.500000000000011
40
0.750000000000005
40
0.750000000000005
40
1
40
1
40
1
40
1
41
1
10
41.1342664520241
20
0.950459126072616
30
0
41
1
10
41.2246833622858
20
0.873829328607826
30
0
41
1
10
41.3152411932821
20
0.795972598007324
30
0
41
1
10
41.4517315681579
20
0.677916714705162
30
0
41
1
10
41.4973632995412
20
0.638376296549922
30
0
41
1
10
41.5891985812162
20
0.559234180795926
30
0
41
1
10
41.6353877688839
20
0.519619152519255
30
0
41
1
10
41.6818505217952
20
0.479970013354375
30
0
0
SPLINE
5
157
100
AcDbEntity
8
1
62
256
6
ByLayer
370
18
48
1
60
0
100
AcDbSpline
70
4
71
3
72
12
73
8
40
0
40
0
40
0
40
0
40
0.250000000000101
40
0.250000000000101
40
0.500000000000202
40
0.500000000000202
40
1
40
1
40
1
40
1
41
1
10
41.6818505217967
20
0.479970013364493
30
0
41
1
10
41.6863901910729
20
0.475405559867568
30
0
41
1
10
41.6910898018616
20
0.470909009009034
30
0
41
1
10
41.7007638041313
20
0.462031624087246
30
0
41
1
10
41.7057535289084
20
0.457637929932503
30
0
41
1
10
41.720808572013
20
0.444867053720657
30
0
41
1
10
41.7310430818487
20
0.436800482693656
30
0
41
1
10
41.7414794350743
20
0.429231531498658
30
0
0
SPLINE
5
158
100
AcDbEntity
8
1
62
256
6
ByLayer
370
18
48
1
60
0
100
AcDbSpline
70
4
71
3
72
8
73
4
40
0
40
0
40
0
40
0
40
1
40
1
40
1
40
1
41
1
10
41.7414794350743
20
0.429231531498658
30
0
41
1
10
41.743192659644
20
0.427778614359084
30
0
41
1
10
41.7449063636794
20
0.42632576946005
30
0
41
1
10
41.7466205556292
20
0.42487300588769
30
0
0
SPLINE
5
159
100
AcDbEntity
8
1
62
256
6
ByLayer
370
18
48
1
60
0
100
AcDbSpline
70
4
71
3
72
18
73
14
40
0
40
0
40
0
40
0
40
0.249999999999951
40
0.249999999999951
40
0.374999999999946
40
0.374999999999946
40
0.499999999999942
40
0.499999999999942
40
0.749999999999971
40
0.749999999999971
40
0.874999999999986
40
0.874999999999986
40
1
40
1
40
1
40
1
41
1
10
42.2
20
0.0995716247848861
30
0
41
1
10
42.158523549926
20
0.107206734797899
30
0
41
1
10
42.1181463099158
20
0.121569226357991
30
0
41
1
10
42.0585525437641
20
0.150821185773111
30
0
41
1
10
42.0388515561691
20
0.161877611864412
30
0
41
1
10
41.9996845784843
20
0.186418425131649
30
0
41
1
10
41.9804537725167
20
0.199755308077528
30
0
41
1
10
41.9237553706171
20
0.242491890227541
30
0
41
1
10
41.8871999881657
20
0.274648262308005
30
0
41
1
10
41.8335985367007
20
0.327570273360919
30
0
41
1
10
41.8159415186771
20
0.346003230718395
30
0
41
1
10
41.7809817900516
20
0.384417140617728
30
0
41
1
10
41.7636519695193
20
0.404460353861282
30
0
41
1
10
41.7466205556257
20
0.42487300588752
30
0
0
SPLINE
5
15A
100
AcDbEntity
8
1
62
256
6
ByLayer
370
18
48
1
60
0
100
AcDbSpline
70
4
71
3
72
8
73
4
40
0
40
0
40
0
40
0
40
1
40
1
40
1
40
1
41
1
10
39.4453854604495
20
-2.02843160227658
30
0
41
1
10
39.4660999240907
20
-2.03126414793042
30
0
41
1
10
39.4868159532036
20
-2.03378285046972
30
0
41
1
10
39.5075377447844
20
-2.03598688977502
30
0
0
SPLINE
5
15B
100
AcDbEntity
8
1
62
256
6
ByLayer
370
18
48
1
60
0
100
AcDbSpline
70
4
71
3
72
15
73
11
40
0
40
0
40
0
40
0
40
0.0624999999999812
40
0.0624999999999812
40
0.124999999999963
40
0.124999999999963
40
0.249999999999955
40
0.49999999999997
40
0.49999999999997
40
1
40
1
40
1
40
1
41
1
10
39.4453854604495
20
-2.02843160227661
30
0
41
1
10
39.4427042260386
20
-2.02378170550068
30
0
41
1
10
39.4401112807972
20
-2.01902132155686
30
0
41
1
10
39.4349066742344
20
-2.00950001200204
30
0
41
1
10
39.4323035051438
20
-2.00472947831008
30
0
41
1
10
39.4244543480664
20
-1.99042974471604
30
0
41
1
10
39.4086445917892
20
-1.96182915317687
30
0
41
1
10
39.3925989168155
20
-1.93311914144388
30
0
41
1
10
39.3604390958464
20
-1.875284025018
30
0
41
1
10
39.3389418163887
20
-1.83611317647876
30
0
41
1
10
39.3175166500762
20
-1.79627320361539
30
0
0
SPLINE
5
15C
100
AcDbEntity
8
1
62
256
6
ByLayer
370
18
48
1
60
0
100
AcDbSpline
70
4
71
3
72
48
73
44
40
0
40
0
40
0
40
0
40
0.125000000000065
40
0.125000000000065
40
0.25000000000013
40
0.25000000000013
40
0.281250000000147
40
0.281250000000147
40
0.312500000000163
40
0.312500000000163
40
0.328125000000178
40
0.328125000000178
40
0.343750000000192
40
0.343750000000192
40
0.375000000000234
40
0.375000000000234
40
0.390625000000247
40
0.390625000000247
40
0.406250000000261
40
0.406250000000261
40
0.437500000000273
40
0.437500000000273
40
0.468750000000284
40
0.468750000000284
40
0.48437500000029
40
0.48437500000029
40
0.500000000000296
40
0.500000000000296
40
0.515625000000302
40
0.515625000000302
40
0.531250000000308
40
0.531250000000308
40
0.562500000000309
40
0.562500000000309
40
0.578125000000304
40
0.578125000000304
40
0.593750000000299
40
0.593750000000299
40
0.62500000000028
40
0.62500000000028
40
0.750000000000183
40
0.750000000000183
40
1
40
1
40
1
40
1
41
1
10
39.3175166500762
20
-1.79627320361539
30
0
41
1
10
39.2988988583443
20
-1.76165352755041
30
0
41
1
10
39.2803348900695
20
-1.726547682161
30
0
41
1
10
39.2428610793249
20
-1.65587220541832
30
0
41
1
10
39.2239651449674
20
-1.62029004787374
30
0
41
1
10
39.1997127401722
20
-1.575854316445
30
0
41
1
10
39.1949060312575
20
-1.56689333791999
30
0
41
1
10
39.1845822076241
20
-1.54964655935774
30
0
41
1
10
39.179005762961
20
-1.54142211107006
30
0
41
1
10
39.1695661710515
20
-1.53015035733455
30
0
41
1
10
39.1662243033836
20
-1.52654964435922
30
0
41
1
10
39.1593361879625
20
-1.51981964009951
30
0
41
1
10
39.1557883496187
20
-1.51666910478431
30
0
41
1
10
39.1448807519507
20
-1.50776250418986
30
0
41
1
10
39.1372625901291
20
-1.50253842321169
30
0
41
1
10
39.1253288736127
20
-1.49577042962235
30
0
41
1
10
39.1212440639117
20
-1.49368778972388
30
0
41
1
10
39.1130064661135
20
-1.48998786797517
30
0
41
1
10
39.1088543641568
20
-1.48837418217747
30
0
41
1
10
39.0963033973574
20
-1.48425103336047
30
0
41
1
10
39.0878150479648
20
-1.48241645245062
30
0
41
1
10
39.0706253271664
20
-1.48062984789436
30
0
41
1
10
39.0618815698029
20
-1.48067990296812
30
0
41
1
10
39.049231215913
20
-1.48271574948396
30
0
41
1
10
39.0450728953417
20
-1.48373694990175
30
0
41
1
10
39.0369027100038
20
-1.48660703827159
30
0
41
1
10
39.0329288902251
20
-1.48845197217983
30
0
41
1
10
39.0254246656025
20
-1.49286414323325
30
0
41
1
10
39.0218613012922
20
-1.49544226280844
30
0
41
1
10
39.0150777530239
20
-1.50126636097133
30
0
41
1
10
39.0118415722171
20
-1.50453277960401
30
0
41
1
10
39.0026970241914
20
-1.51495399609951
30
0
41
1
10
38.997323403727
20
-1.52270580646871
30
0
41
1
10
38.9894890262389
20
-1.53453418894858
30
0
41
1
10
38.9869162708585
20
-1.53851143763001
30
0
41
1
10
38.9817115630613
20
-1.54637285872823
30
0
41
1
10
38.9790717053321
20
-1.55024759071654
30
0
41
1
10
38.9710672134172
20
-1.56173596996766
30
0
41
1
10
38.9656223794699
20
-1.56921930355324
30
0
41
1
10
38.9383758170546
20
-1.60637370223131
30
0
41
1
10
38.9168891557759
20
-1.63571637417144
30
0
41
1
10
38.8525707844572
20
-1.72132351237835
30
0
41
1
10
38.8098413574767
20
-1.77533558288448
30
0
41
1
10
38.7676074977033
20
-1.82636092608169
30
0
0
SPLINE
5
15D
100
AcDbEntity
8
1
62
256
6
ByLayer
370
18
48
1
60
0
100
AcDbSpline
70
4
71
3
72
8
73
4
40
0
40
0
40
0
40
0
40
1
40
1
40
1
40
1
41
1
10
38.7054503008038
20
-1.79729316752108
30
0
41
1
10
38.7261657990605
20
-1.80726149819623
30
0
41
1
10
38.746883344738
20
-1.81695153522361
30
0
41
1
10
38.7676074977033
20
-1.82636092608169
30
0
0
SPLINE
5
15E
100
AcDbEntity
8
1
62
256
6
ByLayer
370
18
48
1
60
0
100
AcDbSpline
70
4
71
3
72
15
73
11
40
0
40
0
40
0
40
0
40
0.0624999999999987
40
0.0624999999999987
40
0.124999999999997
40
0.124999999999997
40
0.249999999999997
40
0.499999999999999
40
0.499999999999999
40
1
40
1
40
1
40
1
41
1
10
38.7054503008038
20
-1.79729316752108
30
0
41
1
10
38.7027486536169
20
-1.79187067066121
30
0
41
1
10
38.7001464047223
20
-1.78637021709773
30
0
41
1
10
38.6949240014129
20
-1.7753743966401
30
0
41
1
10
38.6923142874675
20
-1.76987126486736
30
0
41
1
10
38.6844426070626
20
-1.75338098863674
30
0
41
1
10
38.6685848577932
20
-1.72043926047053
30
0
41
1
10
38.6524841622418
20
-1.68754927364083
30
0
41
1
10
38.6202079971206
20
-1.62166621224554
30
0
41
1
10
38.5986265424202
20
-1.57755894812635
30
0
41
1
10
38.5771127425999
20
-1.53326037888792
30
0
0
SPLINE
5
15F
100
AcDbEntity
8
1
62
256
6
ByLayer
370
18
48
1
60
0
100
AcDbSpline
70
4
71
3
72
8
73
4
40
0
40
0
40
0
40
0
40
1
40
1
40
1
40
1
41
1
10
37.9648078130479
20
-1.33140105649966
30
0
41
1
10
37.9858271853436
20
-1.34744501916705
30
0
41
1
10
38.0068495485123
20
-1.36327612285598
30
0
41
1
10
38.0278792646403
20
-1.37889095872106
30
0
0
SPLINE
5
160
100
AcDbEntity
8
1
62
256
6
ByLayer
370
18
48
1
60
0
100
AcDbSpline
70
4
71
3
72
8
73
4
40
0
40
0
40
0
40
0
40
1
40
1
40
1
40
1
41
1
10
37.2235583574002
20
-0.691076941315714
30
0
41
1
10
37.244629064667
20
-0.71099667391195
30
0
41
1
10
37.2657003892903
20
-0.730807233581118
30
0
41
1
10
37.2867778308502
20
-0.750503348910115
30
0
0
SPLINE
5
161
100
AcDbEntity
8
1
62
256
6
ByLayer
370
18
48
1
60
0
100
AcDbSpline
70
4
71
3
72
8
73
4
40
0
40
0
40
0
40
0
40
1
40
1
40
1
40
1
41
1
10
36.4837183975805
20
0.038193882489594
30
0
41
1
10
36.5044085581493
20
0.0174217010651603
30
0
41
1
10
36.5250995200966
20
-0.0033578229536602
30
0
41
1
10
36.5457960109164
20
-0.0241399703791956
30
0
0
SPLINE
5
162
100
AcDbEntity
8
1
62
256
6
ByLayer
370
18
48
1
60
0
100
AcDbSpline
70
4
71
3
72
15
73
11
40
0
40
0
40
0
40
0
40
0.0625000000000119
40
0.0625000000000119
40
0.125000000000024
40
0.125000000000024
40
0.250000000000021
40
0.500000000000015
40
0.500000000000015
40
1
40
1
40
1
40
1
41
1
10
36.4837183975805
20
0.038193882489594
30
0
41
1
10
36.4810279294175
20
0.0417595329408869
30
0
41
1
10
36.4784315070375
20
0.0452389225499985
30
0
41
1
10
36.4732202197504
20
0.0521801551565488
30
0
41
1
10
36.4706148995586
20
0.0556348043624268
30
0
41
1
10
36.4627576651534
20
0.0659820663914275
30
0
41
1
10
36.4469297573145
20
0.0865705075564165
30
0
41
1
10
36.4308613312334
20
0.106756014864374
30
0
41
1
10
36.3986516407542
20
0.146388125503393
30
0
41
1
10
36.3771165578447
20
0.17180222875993
30
0
41
1
10
36.3556483294231
20
0.196067093437534
30
0
0
SPLINE
5
163
100
AcDbEntity
8
1
62
256
6
ByLayer
370
18
48
1
60
0
100
AcDbSpline
70
4
71
3
72
8
73
4
40
0
40
0
40
0
40
0
40
1
40
1
40
1
40
1
41
1
10
35.7432784008283
20
0.762998441695686
30
0
41
1
10
35.7641024293305
20
0.743586250485606
30
0
41
1
10
35.7849283775032
20
0.724054263026204
30
0
41
1
10
35.8057613213025
20
0.704407123041506
30
0
0
SPLINE
5
164
100
AcDbEntity
8
1
62
256
6
ByLayer
370
18
48
1
60
0
100
AcDbSpline
70
4
71
3
72
8
73
4
40
0
40
0
40
0
40
0
40
1
40
1
40
1
40
1
41
1
10
35.0022553324633
20
1.38872537006949
30
0
41
1
10
35.0233441300605
20
1.37315518032372
30
0
41
1
10
35.0444260970873
20
1.35736710895682
30
0
41
1
10
35.0655068716064
20
1.34136563621908
30
0
0
SPLINE
5
165
100
AcDbEntity
8
1
62
256
6
ByLayer
370
18
48
1
60
0
100
AcDbSpline
70
4
71
3
72
12
73
8
40
0
40
0
40
0
40
0
40
0.5
40
0.5
40
0.75
40
0.75
40
1
40
1
40
1
40
1
41
1
10
34.4624242224481
20
1.56587534555834
30
0
41
1
10
34.3915327702425
20
1.56794203086639
30
0
41
1
10
34.3201163032611
20
1.56401218538861
30
0
41
1
10
34.2115627656425
20
1.5490729267049
30
0
41
1
10
34.1751383775351
20
1.54258210855338
30
0
41
1
10
34.1016901019437
20
1.52653684385501
30
0
41
1
10
34.0646957444857
20
1.51700929561545
30
0
41
1
10
34.0273316097986
20
1.50591026550424
30
0
0
SPLINE
5
166
100
AcDbEntity
8
1
62
256
6
ByLayer
370
18
48
1
60
0
100
AcDbSpline
70
4
71
3
72
12
73
8
40
0
40
0
40
0
40
0
40
0.25
40
0.25
40
0.5
40
0.5
40
1
40
1
40
1
40
1
41
1
10
34.0273316097986
20
1.50591026550427
30
0
41
1
10
34.0085756447295
20
1.50033879910177
30
0
41
1
10
33.9892273483282
20
1.49561311770066
30
0
41
1
10
33.9493955747819
20
1.487893952322
30
0
41
1
10
33.9289266257322
20
1.48491617059537
30
0
41
1
10
33.866117230438
20
1.47891943813158
30
0
41
1
10
33.8223981427075
20
1.47880911485621
30
0
41
1
10
33.777331609801
20
1.48354407565628
30
0
0
SPLINE
5
167
100
AcDbEntity
8
1
62
256
6
ByLayer
370
18
48
1
60
0
100
AcDbSpline
70
4
71
3
72
24
73
20
40
0
40
0
40
0
40
0
40
0.128262663785677
40
0.128262663785677
40
0.256525327571354
40
0.256525327571354
40
0.384787991357031
40
0.384787991357031
40
0.513050655142708
40
0.513050655142708
40
0.641313318928385
40
0.641313318928385
40
0.70544465082122
40
0.70544465082122
40
0.769575982714054
40
0.769575982714054
40
0.897838646499724
40
0.897838646499724
40
1
40
1
40
1
40
1
41
1
10
33.7773316097986
20
1.4835440756643
30
0
41
1
10
33.7001369195424
20
1.49165461376828
30
0
41
1
10
33.6233472929725
20
1.4965343558433
30
0
41
1
10
33.4704191971421
20
1.49996886792618
30
0
41
1
10
33.3942399828247
20
1.498513898364
30
0
41
1
10
33.2420067977544
20
1.48936100378811
30
0
41
1
10
33.1658927265327
20
1.48167847996774
30
0
41
1
10
33.0135699260181
20
1.4601496857168
30
0
41
1
10
32.9373931828743
20
1.44628660708625
30
0
41
1
10
32.7845742402754
20
1.41239918335791
30
0
41
1
10
32.7079281705784
20
1.39237513252527
30
0
41
1
10
32.592233328385
20
1.35779832912738
30
0
41
1
10
32.5536512066493
20
1.34554202092005
30
0
41
1
10
32.4767723601395
20
1.31970156494242
30
0
41
1
10
32.4384248195168
20
1.30610178202863
30
0
41
1
10
32.3236182315954
20
1.26330978083746
30
0
41
1
10
32.2474182309395
20
1.23210533684059
30
0
41
1
10
32.1106802304097
20
1.17163320592834
30
0
41
1
10
32.05007048266
20
1.14330110698359
30
0
41
1
10
31.9894348393381
20
1.1134922993148
30
0
0
SPLINE
5
168
100
AcDbEntity
8
1
62
256
6
ByLayer
370
18
48
1
60
0
100
AcDbSpline
70
4
71
3
72
14
73
10
40
0
40
0
40
0
40
0
40
0.28366764649656
40
0.28366764649656
40
0.462750734872414
40
0.462750734872414
40
0.64183382324827
40
0.64183382324827
40
1
40
1
40
1
40
1
41
1
10
27.079737560799
20
-1.49894986182312
30
0
41
1
10
27.0192829659918
20
-1.49895449827494
30
0
41
1
10
26.9587246720975
20
-1.49698225118357
30
0
41
1
10
26.8595791335872
20
-1.49048862037694
30
0
41
1
10
26.8211222023916
20
-1.48717543427492
30
0
41
1
10
26.7439646921512
20
-1.47893950664806
30
0
41
1
10
26.7054296231313
20
-1.47403384952898
30
0
41
1
10
26.5901637115067
20
-1.45702515521992
30
0
41
1
10
26.5136844213934
20
-1.442616219272
30
0
41
1
10
26.4374139408571
20
-1.42524471693622
30
0
0
SPLINE
5
169
100
AcDbEntity
8
1
62
256
6
ByLayer
370
18
48
1
60
0
100
AcDbSpline
70
4
71
3
72
8
73
4
40
0
40
0
40
0
40
0
40
1
40
1
40
1
40
1
41
1
10
25.2870228573319
20
-1.24686919979669
30
0
41
1
10
25.3315002294638
20
-1.22879391035053
30
0
41
1
10
25.3758126190072
20
-1.20984887801919
30
0
41
1
10
25.4200281323631
20
-1.19009943170318
30
0
0
SPLINE
5
16A
100
AcDbEntity
8
1
62
256
6
ByLayer
370
18
48
1
60
0
100
AcDbSpline
70
4
71
3
72
47
73
43
40
0
40
0
40
0
40
0
40
0.0270401913786544
40
0.0270401913786544
40
0.0675801834045522
40
0.0675801834045522
40
0.10812017543045
40
0.10812017543045
40
0.148660167456348
40
0.148660167456348
40
0.168930163469297
40
0.168930163469297
40
0.189200159482246
40
0.270280143534034
40
0.270280143534034
40
0.310820135559925
40
0.310820135559925
40
0.351360127585817
40
0.351360127585817
40
0.432440111637596
40
0.432440111637596
40
0.513520095689376
40
0.513520095689376
40
0.533790091702318
40
0.533790091702318
40
0.554060087715261
40
0.554060087715261
40
0.594600079741147
40
0.594600079741147
40
0.675680063792919
40
0.675680063792919
40
0.75676004784469
40
0.75676004784469
40
0.797300039870576
40
0.797300039870576
40
0.837840031896462
40
0.837840031896462
40
0.878380023922347
40
0.878380023922347
40
0.918920015948233
40
0.918920015948233
40
1
40
1
40
1
40
1
41
1
10
30.5057501921771
20
1.49895143904826
30
0
41
1
10
30.5351003647843
20
1.49895864378408
30
0
41
1
10
30.5644525719514
20
1.49850474992923
30
0
41
1
10
30.6378268315534
20
1.49621693617553
30
0
41
1
10
30.6818587449802
20
1.49380574595031
30
0
41
1
10
30.7699598099634
20
1.4868744898005
30
0
41
1
10
30.8140256476102
20
1.48235037600926
30
0
41
1
10
30.9024268895341
20
1.47120363388473
30
0
41
1
10
30.9467756263554
20
1.46458760767357
30
0
41
1
10
31.013535422463
20
1.45309412637542
30
0
41
1
10
31.0358510615684
20
1.44899645849816
30
0
41
1
10
31.0804349851565
20
1.44029799693092
30
0
41
1
10
31.1917240974778
20
1.41730361507825
30
0
41
1
10
31.3021910530131
20
1.38815512616984
30
0
41
1
10
31.4341391324007
20
1.34741630557306
30
0
41
1
10
31.478072101016
20
1.33290296854585
30
0
41
1
10
31.5660556188103
20
1.30217502730989
30
0
41
1
10
31.610076421556
20
1.28594450321455
30
0
41
1
10
31.7421083573274
20
1.23458734861035
30
0
41
1
10
31.8300585500099
20
1.19676511081064
30
0
41
1
10
32.0064042651982
20
1.11428449488935
30
0
41
1
10
32.0947834118192
20
1.06959941589162
30
0
41
1
10
32.2061778175271
20
1.00998463669382
30
0
41
1
10
32.2285112818293
20
0.997860401000878
30
0
41
1
10
32.2730698899326
20
0.973323952901211
30
0
41
1
10
32.2953160482797
20
0.960900733098015
30
0
41
1
10
32.3619477871987
20
0.923160668589446
30
0
41
1
10
32.4062081280573
20
0.897352636327696
30
0
41
1
10
32.5386623702453
20
0.818166530467352
30
0
41
1
10
32.6265812726954
20
0.763083426244179
30
0
41
1
10
32.8024751436949
20
0.649374811091747
30
0
41
1
10
32.8904535492723
20
0.59076210282646
30
0
41
1
10
33.0225753566134
20
0.500340751313672
30
0
41
1
10
33.0666384104829
20
0.469778240189129
30
0
41
1
10
33.1547912788333
20
0.40776834045991
30
0
41
1
10
33.1988739927578
20
0.37630928853622
30
0
41
1
10
33.2873605913072
20
0.312888243724842
30
0
41
1
10
33.3317851482176
20
0.280956879744252
30
0
41
1
10
33.4209845726379
20
0.216632672685819
30
0
41
1
10
33.4656329229576
20
0.184326485006693
30
0
41
1
10
33.5993382190005
20
0.0870670266832292
30
0
41
1
10
33.688199948522
20
0.021572983599242
30
0
41
1
10
33.7773316097986
20
-0.0438340346620691
30
0
0
SPLINE
5
16B
100
AcDbEntity
8
1
62
256
6
ByLayer
370
18
48
1
60
0
100
AcDbSpline
70
4
71
3
72
14
73
10
40
0
40
0
40
0
40
0
40
0.5
40
0.5
40
0.75
40
0.75
40
0.875
40
0.875
40
1
40
1
40
1
40
1
41
1
10
33.7773316097986
20
-0.0438340346620691
30
0
41
1
10
33.8199044021831
20
-0.0750750030121026
30
0
41
1
10
33.8622537716519
20
-0.105674665282464
30
0
41
1
10
33.9249581267924
20
-0.15116666367777
30
0
41
1
10
33.9457277327163
20
-0.166253767269609
30
0
41
1
10
33.9766564814005
20
-0.188755777894869
30
0
41
1
10
33.9869388954613
20
-0.196241994516328
30
0
41
1
10
34.0072808071085
20
-0.211056549470442
30
0
41
1
10
34.0173565081706
20
-0.21839654500684
30
0
41
1
10
34.0273316097986
20
-0.225661135921769
30
0
0
SPLINE
5
16C
100
AcDbEntity
8
1
62
256
6
ByLayer
370
18
48
1
60
0
100
AcDbSpline
70
4
71
3
72
8
73
4
40
0
40
0
40
0
40
0
40
1
40
1
40
1
40
1
41
1
10
34.0273316097986
20
-0.225661135921797
30
0
41
1
10
34.0437028150778
20
-0.237583832408774
30
0
41
1
10
34.0600801442301
20
-0.24954433817561
30
0
41
1
10
34.076408984405
20
-0.261623618009281
30
0
0
SPLINE
5
16D
100
AcDbEntity
8
1
62
256
6
ByLayer
370
18
48
1
60
0
100
AcDbSpline
70
4
71
3
72
18
73
14
40
0
40
0
40
0
40
0
40
0.125000000000052
40
0.125000000000052
40
0.250000000000104
40
0.250000000000104
40
0.500000000000098
40
0.500000000000098
40
0.625000000000095
40
0.625000000000095
40
0.750000000000092
40
0.750000000000092
40
1
40
1
40
1
40
1
41
1
10
34.0764089844047
20
-0.261623618009338
30
0
41
1
10
34.0812750104303
20
-0.265379851097066
30
0
41
1
10
34.08618973791
20
-0.269153919828142
30
0
41
1
10
34.096125603415
20
-0.276754314166567
30
0
41
1
10
34.1011641114242
20
-0.280593246662505
30
0
41
1
10
34.1160856146041
20
-0.291939172857326
30
0
41
1
10
34.125892792466
20
-0.299364941266333
30
0
41
1
10
34.1402974962273
20
-0.3103226600347
30
0
41
1
10
34.1449662035587
20
-0.313883545742129
30
0
41
1
10
34.1538756512558
20
-0.320708193073841
30
0
41
1
10
34.1581148605802
20
-0.323970241882876
30
0
41
1
10
34.1701432350365
20
-0.333287707162015
30
0
41
1
10
34.1766503404917
20
-0.338412784406728
30
0
41
1
10
34.183046567141
20
-0.343541952347238
30
0
0
SPLINE
5
16E
100
AcDbEntity
8
1
62
256
6
ByLayer
370
18
48
1
60
0
100
AcDbSpline
70
4
71
3
72
10
73
6
40
0
40
0
40
0
40
0
40
0.5
40
0.5
40
1
40
1
40
1
40
1
41
1
10
34.1830465671412
20
-0.343541952347351
30
0
41
1
10
34.2511008480173
20
-0.397739412476682
30
0
41
1
10
34.3180004610207
20
-0.454597962036502
30
0
41
1
10
34.4503412709486
20
-0.572675463918273
30
0
41
1
10
34.5157492679934
20
-0.633944232251451
30
0
41
1
10
34.5806846525024
20
-0.697160130273318
30
0
0
SPLINE
5
16F
100
AcDbEntity
8
1
62
256
6
ByLayer
370
18
48
1
60
0
100
AcDbSpline
70
4
71
3
72
45
73
41
40
0
40
0
40
0
40
0
40
0.124999999999949
40
0.124999999999949
40
0.249999999999899
40
0.249999999999899
40
0.312499999999874
40
0.312499999999874
40
0.343749999999867
40
0.343749999999867
40
0.374999999999861
40
0.374999999999861
40
0.437499999999847
40
0.437499999999847
40
0.468749999999841
40
0.468749999999841
40
0.499999999999834
40
0.499999999999834
40
0.531249999999828
40
0.531249999999828
40
0.562499999999821
40
0.562499999999821
40
0.593749999999814
40
0.593749999999814
40
0.624999999999808
40
0.624999999999808
40
0.656249999999801
40
0.656249999999801
40
0.671874999999807
40
0.671874999999807
40
0.687499999999813
40
0.687499999999813
40
0.718749999999825
40
0.718749999999825
40
0.734374999999831
40
0.734374999999831
40
0.749999999999836
40
0.874999999999918
40
0.874999999999918
40
1
40
1
40
1
40
1
41
1
10
34.5806846525024
20
-0.697160130273289
30
0
41
1
10
34.5962650126048
20
-0.705482365127494
30
0
41
1
10
34.6118805804246
20
-0.71317216028919
30
0
41
1
10
34.6431783250621
20
-0.727270894530335
30
0
41
1
10
34.6588791276715
20
-0.733698149904455
30
0
41
1
10
34.6826971671869
20
-0.742575220888369
30
0
41
1
10
34.69069996244
20
-0.745425869004151
30
0
41
1
10
34.7024417358052
20
-0.749167378185945
30
0
41
1
10
34.7062931818529
20
-0.750306308773332
30
0
41
1
10
34.7139422618329
20
-0.752441663111057
30
0
41
1
10
34.7177680247096
20
-0.753467207258041
30
0
41
1
10
34.7297370659806
20
-0.756914684228832
30
0
41
1
10
34.7383964465231
20
-0.759749931972948
30
0
41
1
10
34.7537268558343
20
-0.766315678201465
30
0
41
1
10
34.7592741079555
20
-0.768907899039789
30
0
41
1
10
34.7709466565678
20
-0.774817962619892
30
0
41
1
10
34.7770313430515
20
-0.77811265352986
30
0
41
1
10
34.789612278429
20
-0.78527326810692
30
0
41
1
10
34.7961018270286
20
-0.789127829787077
30
0
41
1
10
34.8094436938285
20
-0.797366495267909
30
0
41
1
10
34.8162788476615
20
-0.801743368656048
30
0
41
1
10
34.8299304756454
20
-0.81085369949713
30
0
41
1
10
34.836793384353
20
-0.815620464101073
30
0
41
1
10
34.8505861097794
20
-0.825675314393919
30
0
41
1
10
34.8575774807713
20
-0.831002487812867
30
0
41
1
10
34.8712389744184
20
-0.841941800992288
30
0
41
1
10
34.8779102222432
20
-0.847544790994277
30
0
41
1
10
34.8875893745218
20
-0.856229029019374
30
0
41
1
10
34.8907776479641
20
-0.859190593608957
30
0
41
1
10
34.896823430531
20
-0.865058470537974
30
0
41
1
10
34.8997002459871
20
-0.867979696892519
30
0
41
1
10
34.9079174686489
20
-0.876710420239363
30
0
41
1
10
34.9128348669954
20
-0.882499197897033
30
0
41
1
10
34.9197870372903
20
-0.891124113931909
30
0
41
1
10
34.9220371381315
20
-0.893984681342317
30
0
41
1
10
34.9265362287708
20
-0.899722060766806
30
0
41
1
10
34.9467021538149
20
-0.925588204258219
30
0
41
1
10
34.9662730180331
20
-0.951920953550001
30
0
41
1
10
35.0007805257989
20
-0.999647224813373
30
0
41
1
10
35.0178724704956
20
-1.02395339854431
30
0
41
1
10
35.0350294167038
20
-1.04875315569023
30
0
0
SPLINE
5
170
100
AcDbEntity
8
1
62
256
6
ByLayer
370
18
48
1
60
0
100
AcDbSpline
70
4
71
3
72
15
73
11
40
0
40
0
40
0
40
0
40
0.499999999999982
40
0.499999999999982
40
0.749999999999993
40
0.874999999999998
40
0.874999999999998
40
0.937499999999999
40
0.937499999999999
40
1
40
1
40
1
40
1
41
1
10
35.0350294167038
20
-1.04875315569015
30
0
41
1
10
35.0556417840237
20
-1.07854760148089
30
0
41
1
10
35.0763192369205
20
-1.10900519914455
30
0
41
1
10
35.1072621834755
20
-1.15559625898956
30
0
41
1
10
35.1226974059345
20
-1.17911263296605
30
0
41
1
10
35.1378788302283
20
-1.20289027026627
30
0
41
1
10
35.1454100545976
20
-1.21481638315851
30
0
41
1
10
35.1479061073285
20
-1.21879678983234
30
0
41
1
10
35.1528993278197
20
-1.22677521568107
30
0
41
1
10
35.1553864753329
20
-1.23077057048334
30
0
41
1
10
35.1579718677916
20
-1.23480085418373
30
0
0
SPLINE
5
171
100
AcDbEntity
8
1
62
256
6
ByLayer
370
18
48
1
60
0
100
AcDbSpline
70
4
71
3
72
8
73
4
40
0
40
0
40
0
40
0
40
1
40
1
40
1
40
1
41
1
10
35.2206138492475
20
-1.28425875312959
30
0
41
1
10
35.1997216604777
20
-1.26796648097135
30
0
41
1
10
35.1788414704442
20
-1.25148006208161
30
0
41
1
10
35.1579718677916
20
-1.23480085418373
30
0
0
SPLINE
5
172
100
AcDbEntity
8
1
62
256
6
ByLayer
370
18
48
1
60
0
100
AcDbSpline
70
4
71
3
72
47
73
43
40
0
40
0
40
0
40
0
40
0.250000000000033
40
0.250000000000033
40
0.37500000000005
40
0.37500000000005
40
0.437500000000058
40
0.437500000000058
40
0.468750000000062
40
0.468750000000062
40
0.500000000000066
40
0.500000000000066
40
0.53125000000007
40
0.53125000000007
40
0.562500000000074
40
0.562500000000074
40
0.593750000000077
40
0.593750000000077
40
0.609375000000073
40
0.609375000000073
40
0.625000000000068
40
0.625000000000068
40
0.656250000000043
40
0.656250000000043
40
0.687500000000018
40
0.687500000000018
40
0.703125000000014
40
0.703125000000014
40
0.718750000000009
40
0.718750000000009
40
0.734375000000005
40
0.734375000000005
40
0.75
40
0.75
40
0.781250000000003
40
0.781250000000003
40
0.796875
40
0.796875
40
0.812499999999997
40
0.874999999999995
40
0.874999999999995
40
1
40
1
40
1
40
1
41
1
10
35.2206138492471
20
-1.28425875312612
30
0
41
1
10
35.2595312022128
20
-1.28345568689804
30
0
41
1
10
35.2988148903165
20
-1.27879719411823
30
0
41
1
10
35.3582060548712
20
-1.2657143455074
30
0
41
1
10
35.3780182880699
20
-1.26029005156212
30
0
41
1
10
35.4080173236135
20
-1.25084392941145
30
0
41
1
10
35.4181147318238
20
-1.24753662678171
30
0
41
1
10
35.433208944683
20
-1.2421023652762
30
0
41
1
10
35.4382125351838
20
-1.24018811497342
30
0
41
1
10
35.4480385968079
20
-1.23600168296969
30
0
41
1
10
35.4528108550696
20
-1.23366911649504
30
0
41
1
10
35.4626598195185
20
-1.22923431312299
30
0
41
1
10
35.4677495031262
20
-1.22714760645948
30
0
41
1
10
35.4789149767735
20
-1.22401754464144
30
0
41
1
10
35.4850588127257
20
-1.22299085676625
30
0
41
1
10
35.4983637307116
20
-1.22259879741273
30
0
41
1
10
35.5055434242285
20
-1.22321434528246
30
0
41
1
10
35.5171060727881
20
-1.22539466521724
30
0
41
1
10
35.5211115709994
20
-1.22633600033225
30
0
41
1
10
35.5292337673254
20
-1.22855775361242
30
0
41
1
10
35.5333538646467
20
-1.22983605700452
30
0
41
1
10
35.5458725673491
20
-1.23413364722842
30
0
41
1
10
35.5544254341531
20
-1.23760073038667
30
0
41
1
10
35.5719637039907
20
-1.24593914227853
30
0
41
1
10
35.5808110632223
20
-1.2507882495502
30
0
41
1
10
35.5939514299631
20
-1.25910986902167
30
0
41
1
10
35.5983212314629
20
-1.26205724676203
30
0
41
1
10
35.6070334655915
20
-1.26832590936834
30
0
41
1
10
35.611390254626
20
-1.27166031657677
30
0
41
1
10
35.6198633989424
20
-1.27860382388098
30
0
41
1
10
35.6240032204934
20
-1.28222633430951
30
0
41
1
10
35.6320363896891
20
-1.28985397975506
30
0
41
1
10
35.6359576733508
20
-1.29391106489797
30
0
41
1
10
35.6469769685947
20
-1.30648773706531
30
0
41
1
10
35.6532150138714
20
-1.31531609243504
30
0
41
1
10
35.6619868042279
20
-1.32881294776496
30
0
41
1
10
35.6648378497228
20
-1.33333350026797
30
0
41
1
10
35.67054971571
20
-1.34238283773689
30
0
41
1
10
35.6847623786615
20
-1.36504963009219
30
0
41
1
10
35.6986955222224
20
-1.38792339037104
30
0
41
1
10
35.7318636684319
20
-1.44316852189911
30
0
41
1
10
35.7536190419459
20
-1.48047495384799
30
0
41
1
10
35.7754805502871
20
-1.51810876067557
30
0
0
SPLINE
5
173
100
AcDbEntity
8
1
62
256
6
ByLayer
370
18
48
1
60
0
100
AcDbSpline
70
4
71
3
72
15
73
11
40
0
40
0
40
0
40
0
40
0.500000000000019
40
0.500000000000019
40
0.75000000000003
40
0.875000000000015
40
0.875000000000015
40
0.937500000000008
40
0.937500000000008
40
1
40
1
40
1
40
1
41
1
10
35.7754805502871
20
-1.51810876067557
30
0
41
1
10
35.7960937553767
20
-1.55359365798137
30
0
41
1
10
35.8167682568692
20
-1.58930023334148
30
0
41
1
10
35.8477013826284
20
-1.6432252117186
30
0
41
1
10
35.8631304695705
20
-1.67028370695593
30
0
41
1
10
35.8783050899992
20
-1.69753508040105
30
0
41
1
10
35.8858329165793
20
-1.7111970311833
30
0
41
1
10
35.8883277560605
20
-1.71575822509362
30
0
41
1
10
35.8933189577115
20
-1.72488714559432
30
0
41
1
10
35.8958050094033
20
-1.72945751662837
30
0
41
1
10
35.8983923444303
20
-1.73400529543187
30
0
0
SPLINE
5
174
100
AcDbEntity
8
1
62
256
6
ByLayer
370
18
48
1
60
0
100
AcDbSpline
70
4
71
3
72
8
73
4
40
0
40
0
40
0
40
0
40
1
40
1
40
1
40
1
41
1
10
35.9613220387508
20
-1.76670642577395
30
0
41
1
10
35.9403367647182
20
-1.75607095527823
30
0
41
1
10
35.9193602764562
20
-1.74516996244208
30
0
41
1
10
35.8983923444301
20
-1.7340052954319
30
0
0
SPLINE
5
175
100
AcDbEntity
8
1
62
256
6
ByLayer
370
18
48
1
60
0
100
AcDbSpline
70
4
71
3
72
8
73
4
40
0
40
0
40
0
40
0
40
1
40
1
40
1
40
1
41
1
10
36.7014062460626
20
-2.01901644766286
30
0
41
1
10
36.6805275150037
20
-2.0155238455464
30
0
41
1
10
36.6596646535899
20
-2.01171583018771
30
0
41
1
10
36.6388058701421
20
-2.0075964952313
30
0
0
SPLINE
5
176
100
AcDbEntity
8
1
62
256
6
ByLayer
370
18
48
1
60
0
100
AcDbSpline
70
4
71
3
72
26
73
22
40
0
40
0
40
0
40
0
40
0.0625000000000006
40
0.0625000000000006
40
0.125000000000001
40
0.125000000000001
40
0.250000000000002
40
0.375000000000002
40
0.375000000000002
40
0.437500000000003
40
0.437500000000003
40
0.500000000000003
40
0.500000000000003
40
0.625000000000002
40
0.750000000000002
40
0.750000000000002
40
0.812500000000001
40
0.812500000000001
40
0.875000000000001
40
0.875000000000001
40
1
40
1
40
1
40
1
41
1
10
38.0278792646403
20
-1.37889095872106
30
0
41
1
10
38.0259141110558
20
-1.35276715986436
30
0
41
1
10
38.0239161309891
20
-1.32586555543557
30
0
41
1
10
38.0199220397772
20
-1.27121101038293
30
0
41
1
10
38.0179218962613
20
-1.24340616578451
30
0
41
1
10
38.0119299942457
20
-1.15858416646782
30
0
41
1
10
38.003966869369
20
-1.0417420878934
30
0
41
1
10
37.996161658526
20
-0.917495483389075
30
0
41
1
10
37.9903666834188
20
-0.821479779371202
30
0
41
1
10
37.9884444419006
20
-0.789001844903765
30
0
41
1
10
37.984613629437
20
-0.723079987667376
30
0
41
1
10
37.9827173307101
20
-0.689846339608948
30
0
41
1
10
37.9770914997419
20
-0.589695476013446
30
0
41
1
10
37.9697433562599
20
-0.454661221347891
30
0
41
1
10
37.9624828789308
20
-0.316701353944921
30
0
41
1
10
37.9569591551297
20
-0.212128870627225
30
0
41
1
10
37.9551045385148
20
-0.177087281312737
30
0
41
1
10
37.9513461472734
20
-0.10663077564854
30
0
41
1
10
37.9494366598757
20
-0.071112151537136
30
0
41
1
10
37.9436517455094
20
0.0350146944556684
30
0
41
1
10
37.9396797143794
20
0.105270934711598
30
0
41
1
10
37.9356908959436
20
0.175052573042422
30
0
0
SPLINE
5
177
100
AcDbEntity
8
1
62
256
6
ByLayer
370
18
48
1
60
0
100
AcDbSpline
70
4
71
3
72
48
73
44
40
0
40
0
40
0
40
0
40
0.125000000000073
40
0.125000000000073
40
0.250000000000147
40
0.250000000000147
40
0.28125000000017
40
0.28125000000017
40
0.312500000000193
40
0.312500000000193
40
0.328125000000204
40
0.328125000000204
40
0.343750000000215
40
0.343750000000215
40
0.375000000000238
40
0.375000000000238
40
0.390625000000241
40
0.390625000000241
40
0.406250000000245
40
0.406250000000245
40
0.437500000000253
40
0.437500000000253
40
0.468750000000261
40
0.468750000000261
40
0.484375000000257
40
0.484375000000257
40
0.500000000000253
40
0.500000000000253
40
0.515625000000249
40
0.515625000000249
40
0.531250000000244
40
0.531250000000244
40
0.562500000000236
40
0.562500000000236
40
0.578125000000232
40
0.578125000000232
40
0.593750000000229
40
0.593750000000229
40
0.625000000000212
40
0.625000000000212
40
0.750000000000144
40
0.750000000000144
40
1
40
1
40
1
40
1
41
1
10
38.5771127425999
20
-1.53326037888792
30
0
41
1
10
38.5584863584403
20
-1.49490722067085
30
0
41
1
10
38.5399109852996
20
-1.45643016276091
30
0
41
1
10
38.5024116879856
20
-1.37958719068754
30
0
41
1
10
38.4835017207426
20
-1.34121347937977
30
0
41
1
10
38.4592347418211
20
-1.29353810571161
30
0
41
1
10
38.4544253504062
20
-1.28396851481972
30
0
41
1
10
38.4440899372452
20
-1.26530302263717
30
0
41
1
10
38.4385051889782
20
-1.25624677712131
30
0
41
1
10
38.4290513702506
20
-1.2433815623028
30
0
41
1
10
38.425704863177
20
-1.23919032750243
30
0
41
1
10
38.4188125692884
20
-1.23119848385929
30
0
41
1
10
38.4152632894945
20
-1.22737581736283
30
0
41
1
10
38.4043532714218
20
-1.21634821076029
30
0
41
1
10
38.3967359674781
20
-1.20957350165611
30
0
41
1
10
38.3848087944593
20
-1.20026768369959
30
0
41
1
10
38.380727270474
20
-1.19729848908159
30
0
41
1
10
38.3725024533582
20
-1.19177109244362
30
0
41
1
10
38.3683574716796
20
-1.18921465698895
30
0
41
1
10
38.3558299658715
20
-1.18217085399337
30
0
41
1
10
38.3473599090364
20
-1.17827196583551
30
0
41
1
10
38.3302118151117
20
-1.17209606697961
30
0
41
1
10
38.3214980173707
20
-1.16981170431345
30
0
41
1
10
38.3088860206321
20
-1.16822760602014
30
0
41
1
10
38.3047394787132
20
-1.16801563113384
30
0
41
1
10
38.2965903571986
20
-1.16835460421205
30
0
41
1
10
38.2926261766949
20
-1.16891194661315
30
0
41
1
10
38.2851364181637
20
-1.1707746011235
30
0
41
1
10
38.2815783897281
20
-1.17208068609429
30
0
41
1
10
38.2748030960308
20
-1.17536636237716
30
0
41
1
10
38.2715697337764
20
-1.17735941902407
30
0
41
1
10
38.2624273610206
20
-1.18403581572218
30
0
41
1
10
38.2570567561542
20
-1.18938089239742
30
0
41
1
10
38.2492370275007
20
-1.19761839152875
30
0
41
1
10
38.2466708131641
20
-1.20040201641425
30
0
41
1
10
38.2414837225579
20
-1.20586408284561
30
0
41
1
10
38.2388537909461
20
-1.20853033907812
30
0
41
1
10
38.2308765594684
20
-1.21636293651431
30
0
41
1
10
38.225448757784
20
-1.22137224346767
30
0
41
1
10
38.198276829845
20
-1.24604315650697
30
0
41
1
10
38.1768397673462
20
-1.26512618970563
30
0
41
1
10
38.1126792576969
20
-1.3191594719905
30
0
41
1
10
38.0700393425265
20
-1.35098760207413
30
0
41
1
10
38.0278792646404
20
-1.37889095872109
30
0
0
SPLINE
5
178
100
AcDbEntity
8
1
62
256
6
ByLayer
370
13
48
1
60
0
100
AcDbSpline
70
4
71
3
72
9
73
5
40
0
40
0
40
0
40
0
40
0.309306440261977
40
1
40
1
40
1
40
1
41
1
10
38.5771127425999
20
-1.53326037888792
30
0
41
1
10
38.568199202472
20
-1.45199744776397
30
0
41
1
10
38.5393760143576
20
-1.14217828936032
30
0
41
1
10
38.5103494473045
20
-0.698062989821665
30
0
41
1
10
38.490250051156
20
-0.372605858991761
30
0
0
SPLINE
5
179
100
AcDbEntity
8
1
62
256
6
ByLayer
370
18
48
1
60
0
100
AcDbSpline
70
4
71
3
72
22
73
18
40
0
40
0
40
0
40
0
40
0.074316338848694
40
0.074316338848694
40
0.537158169424347
40
0.537158169424347
40
0.595013398246304
40
0.595013398246304
40
0.652868627068261
40
0.652868627068261
40
0.768579084712174
40
0.768579084712174
40
0.82643431353413
40
0.82643431353413
40
0.884289542356087
40
0.884289542356087
40
1
40
1
40
1
40
1
41
1
10
42.2000000000001
20
-0.731059678504437
30
0
41
1
10
42.2000000000001
20
-0.73684548772161
30
0
41
1
10
42.2000000000001
20
-0.742670283240813
30
0
41
1
10
42.2000000000001
20
-0.785045145841536
30
0
41
1
10
42.2
20
-0.823090162511534
30
0
41
1
10
42.2
20
-0.867704152512744
30
0
41
1
10
42.2
20
-0.87269068174831
30
0
41
1
10
42.2
20
-0.882661605565801
30
0
41
1
10
42.2000000000001
20
-0.887562815311497
30
0
41
1
10
42.2000000000001
20
-0.903689133007504
30
0
41
1
10
42.2
20
-0.9160942561318
30
0
41
1
10
42.2
20
-0.937158261778961
30
0
41
1
10
42.2000000000001
20
-0.944592909361148
30
0
41
1
10
42.2000000000001
20
-0.960315887205013
30
0
41
1
10
42.2000000000001
20
-0.96863293590107
30
0
41
1
10
42.2000000000001
20
-0.994605082786308
30
0
41
1
10
42.2
20
-1.01328426925676
30
0
41
1
10
42.2
20
-1.03328167850123
30
0
0
SPLINE
5
17A
100
AcDbEntity
8
1
62
256
6
ByLayer
370
18
48
1
60
0
100
AcDbSpline
70
4
71
3
72
18
73
14
40
0
40
0
40
0
40
0
40
0.062499999999984
40
0.062499999999984
40
0.124999999999968
40
0.124999999999968
40
0.249999999999972
40
0.249999999999972
40
0.499999999999982
40
0.499999999999982
40
0.749999999999991
40
0.749999999999991
40
1
40
1
40
1
40
1
41
1
10
41.7064841066911
20
-0.621876601384969
30
0
41
1
10
41.7171564194412
20
-0.622851851770747
30
0
41
1
10
41.7278714752382
20
-0.623642352448201
30
0
41
1
10
41.7493834084354
20
-0.624877174288827
30
0
41
1
10
41.7601619134032
20
-0.625380392011664
30
0
41
1
10
41.7923565338639
20
-0.627189963717115
30
0
41
1
10
41.8136732394352
20
-0.628662882873186
30
0
41
1
10
41.8772264304821
20
-0.63359966773146
30
0
41
1
10
41.919070884235
20
-0.637583810937855
30
0
41
1
10
42.0016298569385
20
-0.646238173346148
30
0
41
1
10
42.0423420652994
20
-0.650917291364493
30
0
41
1
10
42.1223557901009
20
-0.660592963656399
30
0
41
1
10
42.1616542469032
20
-0.665608517252565
30
0
41
1
10
42.2000000000043
20
-0.670665673089673
30
0
0
SPLINE
5
17B
100
AcDbEntity
8
1
62
256
6
ByLayer
370
18
48
1
60
0
100
AcDbSpline
70
4
71
3
72
10
73
6
40
0
40
0
40
0
40
0
40
0.500000000000013
40
0.500000000000013
40
1
40
1
40
1
40
1
41
1
10
41.7064841066911
20
-0.621876601384969
30
0
41
1
10
41.6263394862773
20
-0.575375658548182
30
0
41
1
10
41.5470670474341
20
-0.525834702718868
30
0
41
1
10
41.3895122797389
20
-0.421449188934872
30
0
41
1
10
41.3113053394081
20
-0.366502247647929
30
0
41
1
10
41.2334442163469
20
-0.308971208501021
30
0
0
SPLINE
5
17C
100
AcDbEntity
8
1
62
256
6
ByLayer
370
18
48
1
60
0
100
AcDbSpline
70
4
71
3
72
8
73
4
40
0
40
0
40
0
40
0
40
1
40
1
40
1
40
1
41
1
10
39.1981746162552
20
1.44210501756947
30
0
41
1
10
39.219086976914
20
1.42719132154537
30
0
41
1
10
39.2399911608139
20
1.41205635609362
30
0
41
1
10
39.260892622199
20
1.39670446374762
30
0
0
SPLINE
5
17D
100
AcDbEntity
8
1
62
256
6
ByLayer
370
18
48
1
60
0
100
AcDbSpline
70
4
71
3
72
8
73
4
40
0
40
0
40
0
40
0
40
1
40
1
40
1
40
1
41
1
10
38.4584097926848
20
1.86415148939375
30
0
41
1
10
38.4790900948634
20
1.85555973464477
30
0
41
1
10
38.4997609134265
20
1.84668327674669
30
0
41
1
10
38.5204271310317
20
1.8375246062007
30
0
0
SPLINE
5
17E
100
AcDbEntity
8
1
62
256
6
ByLayer
370
18
48
1
60
0
100
AcDbSpline
70
4
71
3
72
8
73
4
40
0
40
0
40
0
40
0
40
1
40
1
40
1
40
1
41
1
10
37.7174546825835
20
2.04345242929708
30
0
41
1
10
37.7385298157374
20
2.04212109238569
30
0
41
1
10
37.7595956860035
20
2.04046284179216
30
0
41
1
10
37.7806557356394
20
2.03847841022403
30
0
0
SPLINE
5
17F
100
AcDbEntity
8
1
62
256
6
ByLayer
370
18
48
1
60
0
100
AcDbSpline
70
4
71
3
72
56
73
52
40
0
40
0
40
0
40
0
40
0.0196764274236183
40
0.0196764274236183
40
0.0663585023082053
40
0.0663585023082053
40
0.113040577192792
40
0.113040577192792
40
0.159722652077379
40
0.159722652077379
40
0.206404726961966
40
0.206404726961966
40
0.229745764404261
40
0.229745764404261
40
0.253086801846556
40
0.253086801846556
40
0.346450951615738
40
0.346450951615738
40
0.393133026500329
40
0.393133026500329
40
0.439815101384921
40
0.439815101384921
40
0.463156138827218
40
0.463156138827218
40
0.486497176269514
40
0.486497176269514
40
0.533179251154106
40
0.533179251154106
40
0.579861326038697
40
0.579861326038697
40
0.626543400923288
40
0.626543400923288
40
0.673225475807879
40
0.673225475807879
40
0.696566513250173
40
0.696566513250173
40
0.719907550692467
40
0.719907550692467
40
0.766589625577056
40
0.766589625577056
40
0.813271700461644
40
0.813271700461644
40
0.859953775346232
40
0.859953775346232
40
0.906635850230821
40
0.906635850230821
40
0.929976887673115
40
0.929976887673115
40
0.953317925115409
40
0.953317925115409
40
1
40
1
40
1
40
1
41
1
10
31.3505047119094
20
-1.49894993439057
30
0
41
1
10
31.3180980361849
20
-1.49895720724152
30
0
41
1
10
31.2857626108917
20
-1.49839840427168
30
0
41
1
10
31.1769074123821
20
-1.49462162808211
30
0
41
1
10
31.1006477809495
20
-1.48880707785548
30
0
41
1
10
30.9483820101242
20
-1.47099558747408
30
0
41
1
10
30.8723585778756
20
-1.45899987955411
30
0
41
1
10
30.7200511647752
20
-1.42902548273602
30
0
41
1
10
30.6438660808748
20
-1.4110163487087
30
0
41
1
10
30.4911939602869
20
-1.3689587220795
30
0
41
1
10
30.4146701082508
20
-1.34492344020185
30
0
41
1
10
30.2992378416328
20
-1.30447068881483
30
0
41
1
10
30.2606016192213
20
-1.29022911931031
30
0
41
1
10
30.1835995767812
20
-1.2605223909691
30
0
41
1
10
30.1451785636061
20
-1.24504026423654
30
0
41
1
10
29.9535549014374
20
-1.164459222099
30
0
41
1
10
29.8016401043433
20
-1.08995365459768
30
0
41
1
10
29.5733275525095
20
-0.965695893740161
30
0
41
1
10
29.4971387752097
20
-0.922212786089318
30
0
41
1
10
29.3445162772514
20
-0.831151535484935
30
0
41
1
10
29.2680444418771
20
-0.78360903455004
30
0
41
1
10
29.1527207443265
20
-0.709645271575084
30
0
41
1
10
29.11410033665
20
-0.684506275984091
30
0
41
1
10
29.037028438273
20
-0.633668551188663
30
0
41
1
10
28.9985826876383
20
-0.607979655243923
30
0
41
1
10
28.8834928234726
20
-0.530139934437585
30
0
41
1
10
28.8071477760707
20
-0.477148276138081
30
0
41
1
10
28.6547781218417
20
-0.369564920447431
30
0
41
1
10
28.5787546910619
20
-0.314971594520585
30
0
41
1
10
28.4265792640069
20
-0.204796983938024
30
0
41
1
10
28.3503971585061
20
-0.149258607167809
30
0
41
1
10
28.1978135739307
20
-0.0373124959228051
30
0
41
1
10
28.1213843929847
20
0.0190589398777945
30
0
41
1
10
28.0061701126225
20
0.103723494187705
30
0
41
1
10
27.9676243438283
20
0.131993704894313
30
0
41
1
10
27.8904767422092
20
0.188334500739046
30
0
41
1
10
27.8519975288782
20
0.216325102517061
30
0
41
1
10
27.7368348602644
20
0.299759448725837
30
0
41
1
10
27.6604228066983
20
0.354660236202903
30
0
41
1
10
27.5079726150508
20
0.46257485824529
30
0
41
1
10
27.4319439309386
20
0.515599881217383
30
0
41
1
10
27.2797894131363
20
0.619163017669706
30
0
41
1
10
27.2036217943528
20
0.669652249217165
30
0
41
1
10
27.0510762922473
20
0.767997508598626
30
0
41
1
10
26.9746861743572
20
0.8158345690901
30
0
41
1
10
26.8595791335872
20
0.885133706308096
30
0
41
1
10
26.8211222023916
20
0.907822981358436
30
0
41
1
10
26.7439646921512
20
0.95229539323509
30
0
41
1
10
26.7054296231313
20
0.973983837397157
30
0
41
1
10
26.5901637115067
20
1.0372745110956
30
0
41
1
10
26.5136844213934
20
1.0771754734354
30
0
41
1
10
26.4374139408571
20
1.11467515289817
30
0
0
SPLINE
5
180
100
AcDbEntity
8
1
62
256
6
ByLayer
370
18
48
1
60
0
100
AcDbSpline
70
4
71
3
72
63
73
59
40
0
40
0
40
0
40
0
40
0.0579290324206821
40
0.0579290324206821
40
0.115858064841364
40
0.115858064841364
40
0.144822581051705
40
0.144822581051705
40
0.173787097262046
40
0.202751613472387
40
0.202751613472387
40
0.231716129682728
40
0.231716129682728
40
0.26068064589307
40
0.26068064589307
40
0.289645162103411
40
0.289645162103411
40
0.34757419452409
40
0.34757419452409
40
0.376538710734429
40
0.376538710734429
40
0.405503226944769
40
0.405503226944769
40
0.463432259365448
40
0.463432259365448
40
0.492396775575789
40
0.492396775575789
40
0.52136129178613
40
0.52136129178613
40
0.550325807996471
40
0.550325807996471
40
0.579290324206812
40
0.579290324206812
40
0.637219356627494
40
0.637219356627494
40
0.666183872837834
40
0.666183872837834
40
0.695148389048173
40
0.695148389048173
40
0.724112905258513
40
0.724112905258513
40
0.738595163363684
40
0.738595163363684
40
0.753077421468855
40
0.753077421468855
40
0.782041937679198
40
0.782041937679198
40
0.81100645388954
40
0.81100645388954
40
0.868935486310225
40
0.868935486310225
40
0.897900002520568
40
0.897900002520568
40
0.92686451873091
40
0.92686451873091
40
0.984793551151598
40
0.984793551151598
40
1
40
1
40
1
40
1
41
1
10
25.2870228573319
20
-0.0970695470874148
30
0
41
1
10
25.3758888917428
20
-0.162000336242755
30
0
41
1
10
25.4640963113704
20
-0.226540261129287
30
0
41
1
10
25.6402803666179
20
-0.35337602137858
30
0
41
1
10
25.7282520510087
20
-0.415686343179459
30
0
41
1
10
25.8602003128813
20
-0.507281610740051
30
0
41
1
10
25.9041808884991
20
-0.537501997858271
30
0
41
1
10
25.9921439395077
20
-0.597305932212095
30
0
41
1
10
26.0801206638384
20
-0.656456793191211
30
0
41
1
10
26.1684216372844
20
-0.713909848598007
30
0
41
1
10
26.2570663947224
20
-0.770286831194824
30
0
41
1
10
26.3015532834539
20
-0.797947587481303
30
0
41
1
10
26.3907805951176
20
-0.852298729862667
30
0
41
1
10
26.435414490464
20
-0.878953390550549
30
0
41
1
10
26.5243738763309
20
-0.930982245882404
30
0
41
1
10
26.568772246507
20
-0.956367684993097
30
0
41
1
10
26.7019506686019
20
-1.03039446898049
30
0
41
1
10
26.7906923627726
20
-1.07692930178791
30
0
41
1
10
26.9242865597307
20
-1.14197459349282
30
0
41
1
10
26.9689275642645
20
-1.16288262423558
30
0
41
1
10
27.0580281244106
20
-1.20293066361754
30
0
41
1
10
27.1025253110365
20
-1.22209071550512
30
0
41
1
10
27.2358544868723
20
-1.27698452791603
30
0
41
1
10
27.3244225408984
20
-1.31018264618243
30
0
41
1
10
27.457947858947
20
-1.35408169234637
30
0
41
1
10
27.5026034347316
20
-1.36777042021677
30
0
41
1
10
27.5917847588964
20
-1.39315174573514
30
0
41
1
10
27.6362387018394
20
-1.40482749892334
30
0
41
1
10
27.7248277660362
20
-1.42619183375362
30
0
41
1
10
27.7689589422473
20
-1.43587821643152
30
0
41
1
10
27.8571081739763
20
-1.45318273958395
30
0
41
1
10
27.9011336385965
20
-1.46080073225528
30
0
41
1
10
28.0331258866683
20
-1.48056762324336
30
0
41
1
10
28.1210238734274
20
-1.48962895566504
30
0
41
1
10
28.2530155521445
20
-1.49702301118174
30
0
41
1
10
28.2970339442824
20
-1.49845454562609
30
0
41
1
10
28.3851217595807
20
-1.49922990448866
30
0
41
1
10
28.4291804973831
20
-1.49857110044351
30
0
41
1
10
28.517524757489
20
-1.49514019855707
30
0
41
1
10
28.5618269043967
20
-1.49237169080774
30
0
41
1
10
28.6285060759896
20
-1.48663436335138
30
0
41
1
10
28.6507692864902
20
-1.4844576215265
30
0
41
1
10
28.6953706619254
20
-1.47957223368772
30
0
41
1
10
28.7176961751235
20
-1.47686434146957
30
0
41
1
10
28.7845004844906
20
-1.46797844325434
30
0
41
1
10
28.8288961806219
20
-1.46102895185538
30
0
41
1
10
28.9174105793729
20
-1.44509808010588
30
0
41
1
10
28.9615209312511
20
-1.436111950731
30
0
41
1
10
29.0936129656943
20
-1.4061788678379
30
0
41
1
10
29.1814161981037
20
-1.38227886148627
30
0
41
1
10
29.3133949413862
20
-1.34097319524418
30
0
41
1
10
29.3574114187193
20
-1.32628592851455
30
0
41
1
10
29.4454378982925
20
-1.29503480904015
30
0
41
1
10
29.4894367801169
20
-1.27846119109228
30
0
41
1
10
29.621569026887
20
-1.22598372584602
30
0
41
1
10
29.7098987907716
20
-1.18736836031866
30
0
41
1
10
29.8221732047347
20
-1.13431349275493
30
0
41
1
10
29.8455756054726
20
-1.12303405785141
30
0
41
1
10
29.8689761013553
20
-1.11153977475357
30
0
0
SPLINE
5
181
100
AcDbEntity
8
1
62
256
6
ByLayer
370
18
48
1
60
0
100
AcDbSpline
70
4
71
3
72
8
73
4
40
0
40
0
40
0
40
0
40
1
40
1
40
1
40
1
41
1
10
34.9738307445989
20
2.04636193511138
30
0
41
1
10
34.9527787380524
20
2.04707052664043
30
0
41
1
10
34.9317309938251
20
2.04745055763237
30
0
41
1
10
34.9106739477942
20
2.0475016915361
30
0
0
SPLINE
5
182
100
AcDbEntity
8
1
62
256
6
ByLayer
370
18
48
1
60
0
100
AcDbSpline
70
4
71
3
72
8
73
4
40
0
40
0
40
0
40
0
40
1
40
1
40
1
40
1
41
1
10
35.7138688832288
20
1.88883800714558
30
0
41
1
10
35.6930586607918
20
1.89688830945843
30
0
41
1
10
35.6722640651561
20
1.9046441301931
30
0
41
1
10
35.6514829237662
20
1.91210445866255
30
0
0
SPLINE
5
183
100
AcDbEntity
8
1
62
256
6
ByLayer
370
18
48
1
60
0
100
AcDbSpline
70
4
71
3
72
50
73
46
40
0
40
0
40
0
40
0
40
0.125000000000025
40
0.125000000000025
40
0.25000000000005
40
0.25000000000005
40
0.375000000000074
40
0.375000000000074
40
0.437500000000082
40
0.437500000000082
40
0.468750000000082
40
0.468750000000082
40
0.500000000000081
40
0.500000000000081
40
0.531250000000081
40
0.531250000000081
40
0.56250000000008
40
0.56250000000008
40
0.59375000000008
40
0.59375000000008
40
0.609375000000079
40
0.609375000000079
40
0.625000000000079
40
0.625000000000079
40
0.656250000000078
40
0.656250000000078
40
0.67187500000007
40
0.67187500000007
40
0.687500000000062
40
0.703125000000053
40
0.703125000000053
40
0.718750000000045
40
0.718750000000045
40
0.734375000000037
40
0.734375000000037
40
0.750000000000029
40
0.750000000000029
40
0.781250000000013
40
0.781250000000013
40
0.79687500000001
40
0.79687500000001
40
0.812500000000006
40
0.875000000000004
40
0.875000000000004
40
1
40
1
40
1
40
1
41
1
10
35.7138688832282
20
1.8888380071345
30
0
41
1
10
35.7333350506798
20
1.85037471279591
30
0
41
1
10
35.7529091386689
20
1.81168735908284
30
0
41
1
10
35.7922130308273
20
1.73404985774522
30
0
41
1
10
35.8119352905581
20
1.69510516437182
30
0
41
1
10
35.8515076724262
20
1.61694765084934
30
0
41
1
10
35.8713196409685
20
1.57770861633995
30
0
41
1
10
35.9013408300358
20
1.51878450494368
30
0
41
1
10
35.9114460227597
20
1.49916494372982
30
0
41
1
10
35.9265737721017
20
1.46964489336747
30
0
41
1
10
35.9315935851959
20
1.45977364432477
30
0
41
1
10
35.9414505374546
20
1.43990982165761
30
0
41
1
10
35.9462361520989
20
1.42988475498265
30
0
41
1
10
35.9561086236153
20
1.41000815421478
30
0
41
1
10
35.9612094788295
20
1.40016518783167
30
0
41
1
10
35.9724055685232
20
1.38107675716441
30
0
41
1
10
35.9785606336601
20
1.37179126388355
30
0
41
1
10
35.9918806878781
20
1.35474701754069
30
0
41
1
10
35.9990726100828
20
1.34692122676583
30
0
41
1
10
36.0106623952256
20
1.33624456233142
30
0
41
1
10
36.0146792128164
20
1.33284716420531
30
0
41
1
10
36.0228195224306
20
1.32647058285514
30
0
41
1
10
36.026947673247
20
1.32348268726344
30
0
41
1
10
36.0394870435283
20
1.31506598715507
30
0
41
1
10
36.0480491396675
20
1.31016790909834
30
0
41
1
10
36.0612063651564
20
1.30401570894784
30
0
41
1
10
36.0656435333738
20
1.30217245885245
30
0
41
1
10
36.0744541251672
20
1.29903147920882
30
0
41
1
10
36.0832421872742
20
1.29641756834818
30
0
41
1
10
36.0919770958872
20
1.29482248333934
30
0
41
1
10
36.1006788343173
20
1.29376392407616
30
0
41
1
10
36.1050337619994
20
1.2935043081863
30
0
41
1
10
36.1135055696957
20
1.29360393423821
30
0
41
1
10
36.1176413278192
20
1.29395531640009
30
0
41
1
10
36.1256588601769
20
1.29541523779079
30
0
41
1
10
36.1295631950002
20
1.2965603047503
30
0
41
1
10
36.1405834867424
20
1.30132115215994
30
0
41
1
10
36.1468117962797
20
1.30623505983991
30
0
41
1
10
36.1555747438318
20
1.31443171892482
30
0
41
1
10
36.1584259966656
20
1.31724825572161
30
0
41
1
10
36.1641364552381
20
1.32282877197778
30
0
41
1
10
36.17834562581
20
1.33678353440703
30
0
41
1
10
36.1922751547285
20
1.35068542265594
30
0
41
1
10
36.2254334437758
20
1.38361363863464
30
0
41
1
10
36.2471814487214
20
1.40499649549363
30
0
41
1
10
36.2690340008448
20
1.42513329212147
30
0
0
SPLINE
5
184
100
AcDbEntity
8
1
62
256
6
ByLayer
370
18
48
1
60
0
100
AcDbSpline
70
4
71
3
72
15
73
11
40
0
40
0
40
0
40
0
40
0.49999999999996
40
0.49999999999996
40
0.749999999999939
40
0.874999999999949
40
0.874999999999949
40
0.937499999999974
40
0.937499999999974
40
1
40
1
40
1
40
1
41
1
10
36.2690340008448
20
1.42513329212147
30
0
41
1
10
36.2896269146393
20
1.44410935106018
30
0
41
1
10
36.3102833309379
20
1.46193333381984
30
0
41
1
10
36.3411948966319
20
1.48726247004629
30
0
41
1
10
36.3566147728495
20
1.49960204261041
30
0
41
1
10
36.3717824731283
20
1.51177204252429
30
0
41
1
10
36.3793071964408
20
1.5178565311991
30
0
41
1
10
36.3818014336481
20
1.51989136807808
30
0
41
1
10
36.386789293177
20
1.52393001802324
30
0
41
1
10
36.3892736206785
20
1.52594884011415
30
0
41
1
10
36.3918510158097
20
1.52779784726101
30
0
0
SPLINE
5
185
100
AcDbEntity
8
1
62
256
6
ByLayer
370
18
48
1
60
0
100
AcDbSpline
70
4
71
3
72
8
73
4
40
0
40
0
40
0
40
0
40
1
40
1
40
1
40
1
41
1
10
36.4542576955591
20
1.48546621894241
30
0
41
1
10
36.4334478894721
20
1.49981410529207
30
0
41
1
10
36.4126464377071
20
1.51392505685769
30
0
41
1
10
36.3918510158095
20
1.52779784726121
30
0
0
SPLINE
5
186
100
AcDbEntity
8
1
62
256
6
ByLayer
370
18
48
1
60
0
100
AcDbSpline
70
4
71
3
72
8
73
4
40
0
40
0
40
0
40
0
40
1
40
1
40
1
40
1
41
1
10
37.1948880861906
20
0.888548716115764
30
0
41
1
10
37.1739077522061
20
0.907536989560924
30
0
41
1
10
37.1529289295175
20
0.926369822458696
30
0
41
1
10
37.1319458256875
20
0.945042645333501
30
0
0
SPLINE
5
187
100
AcDbEntity
8
1
62
256
6
ByLayer
370
18
48
1
60
0
100
AcDbSpline
70
4
71
3
72
8
73
4
40
0
40
0
40
0
40
0
40
1
40
1
40
1
40
1
41
1
10
37.9356908959488
20
0.175052573043217
30
0
41
1
10
37.9146378918853
20
0.196144305881603
30
0
41
1
10
37.8935974739595
20
0.217203047963778
30
0
41
1
10
37.8725576645493
20
0.238216974245262
30
0
0
SPLINE
5
188
100
AcDbEntity
8
1
62
256
6
ByLayer
370
18
48
1
60
0
100
AcDbSpline
70
4
71
3
72
8
73
4
40
0
40
0
40
0
40
0
40
1
40
1
40
1
40
1
41
1
10
38.6757544913588
20
-0.560304849206261
30
0
41
1
10
38.6550149406012
20
-0.540311682639185
30
0
41
1
10
38.6342895891912
20
-0.520234527184215
30
0
41
1
10
38.6135763671544
20
-0.500075357002117
30
0
0
SPLINE
5
189
100
AcDbEntity
8
1
62
256
6
ByLayer
370
18
48
1
60
0
100
AcDbSpline
70
4
71
3
72
8
73
4
40
0
40
0
40
0
40
0
40
1
40
1
40
1
40
1
41
1
10
39.4160732175187
20
-1.22268290499881
30
0
41
1
10
39.3952249527609
20
-1.20593092187522
30
0
41
1
10
39.3743817770916
20
-1.18899780101483
30
0
41
1
10
39.3535419259684
20
-1.17188537929326
30
0
0
SPLINE
5
18A
100
AcDbEntity
8
1
62
256
6
ByLayer
370
18
48
1
60
0
100
AcDbSpline
70
4
71
3
72
37
73
33
40
0
40
0
40
0
40
0
40
0.124999999999994
40
0.124999999999994
40
0.187500000000002
40
0.187500000000002
40
0.250000000000011
40
0.250000000000011
40
0.312500000000019
40
0.312500000000019
40
0.375000000000027
40
0.375000000000027
40
0.437500000000035
40
0.437500000000035
40
0.500000000000043
40
0.562500000000051
40
0.562500000000051
40
0.625000000000059
40
0.625000000000059
40
0.687500000000067
40
0.687500000000067
40
0.750000000000075
40
0.750000000000075
40
0.812500000000083
40
0.812500000000083
40
0.84375000000007
40
0.84375000000007
40
0.875000000000056
40
0.875000000000056
40
0.937500000000028
40
0.937500000000028
40
1
40
1
40
1
40
1
41
1
10
41.0936062828946
20
-1.72607192597465
30
0
41
1
10
41.1017045004763
20
-1.71404008240123
30
0
41
1
10
41.1098465403523
20
-1.70194416724851
30
0
41
1
10
41.1217291041563
20
-1.68326702708899
30
0
41
1
10
41.1256042121291
20
-1.67691886225373
30
0
41
1
10
41.1334028006453
20
-1.66422001263393
30
0
41
1
10
41.1373446390961
20
-1.65788955736466
30
0
41
1
10
41.1456635632364
20
-1.64564859768504
30
0
41
1
10
41.150060584876
20
-1.6397221664493
30
0
41
1
10
41.1594715026459
20
-1.62882394342347
30
0
41
1
10
41.1644912166348
20
-1.62383783501389
30
0
41
1
10
41.1752909703844
20
-1.6150122606617
30
0
41
1
10
41.1811020189915
20
-1.61115626856744
30
0
41
1
10
41.1933819888749
20
-1.60473327428878
30
0
41
1
10
41.2060913326878
20
-1.59969503027432
30
0
41
1
10
41.2194585917694
20
-1.59680908891031
30
0
41
1
10
41.2331368240102
20
-1.59500143091193
30
0
41
1
10
41.240120323718
20
-1.59464980530652
30
0
41
1
10
41.2539796601478
20
-1.59523622273835
30
0
41
1
10
41.2609054941374
20
-1.596198553357
30
0
41
1
10
41.2747307964922
20
-1.59949323189517
30
0
41
1
10
41.2816950338138
20
-1.6018377514298
30
0
41
1
10
41.295244543032
20
-1.607979755446
30
0
41
1
10
41.3017952877707
20
-1.61172159014262
30
0
41
1
10
41.3111138409125
20
-1.61882032687251
30
0
41
1
10
41.3141462731411
20
-1.62146765955833
30
0
41
1
10
41.3198530954378
20
-1.62714681312278
30
0
41
1
10
41.3225472431037
20
-1.63019033456177
30
0
41
1
10
41.3302445944674
20
-1.63981014219786
30
0
41
1
10
41.334855142258
20
-1.64689556254521
30
0
41
1
10
41.3439414828171
20
-1.66113806121771
30
0
41
1
10
41.3484481021944
20
-1.66827532162574
30
0
41
1
10
41.3529269161577
20
-1.67542015376404
30
0
0
SPLINE
5
18B
100
AcDbEntity
8
1
62
256
6
ByLayer
370
18
48
1
60
0
100
AcDbSpline
70
4
71
3
72
12
73
8
40
0
40
0
40
0
40
0
40
0.25
40
0.25
40
0.5
40
0.5
40
1
40
1
40
1
40
1
41
1
10
41.3529269161577
20
-1.67542015376404
30
0
41
1
10
41.3856674273938
20
-1.66708414415439
30
0
41
1
10
41.4184133737302
20
-1.65802908262202
30
0
41
1
10
41.4838598459622
20
-1.63854381176495
30
0
41
1
10
41.516589236002
20
-1.62810655480737
30
0
41
1
10
41.6149302538899
20
-1.59476220487423
30
0
41
1
10
41.6806324125744
20
-1.56983692079697
30
0
41
1
10
41.7466205556354
20
-1.54238226761817
30
0
0
SPLINE
5
18C
100
AcDbEntity
8
1
62
256
6
ByLayer
370
18
48
1
60
0
100
AcDbSpline
70
4
71
3
72
19
73
15
40
0
40
0
40
0
40
0
40
0.125
40
0.125
40
0.25
40
0.375
40
0.375
40
0.5
40
0.5
40
0.75
40
0.75
40
0.875
40
0.875
40
1
40
1
40
1
40
1
41
1
10
42.2000000000001
20
-1.03328167850128
30
0
41
1
10
42.1793604460005
20
-1.05283583068007
30
0
41
1
10
42.1586035295989
20
-1.07325041464029
30
0
41
1
10
42.1178967978454
20
-1.1145214634233
30
0
41
1
10
42.0777869184793
20
-1.15642412692068
30
0
41
1
10
42.0386014002491
20
-1.19932157122071
30
0
41
1
10
41.9997703317943
20
-1.24261107884306
30
0
41
1
10
41.9805031989855
20
-1.26448511568591
30
0
41
1
10
41.9232778410548
20
-1.33035242459116
30
0
41
1
10
41.8866106364634
20
-1.37374469943631
30
0
41
1
10
41.8330961183424
20
-1.43781349576003
30
0
41
1
10
41.8155118831852
20
-1.45899955290332
30
0
41
1
10
41.7807780779259
20
-1.50098584212691
30
0
41
1
10
41.7636351807635
20
-1.52178340631264
30
0
41
1
10
41.7466205556326
20
-1.54238226760657
30
0
0
SPLINE
5
18D
100
AcDbEntity
8
1
62
256
6
ByLayer
370
18
48
1
60
0
100
AcDbSpline
70
4
71
3
72
47
73
43
40
0
40
0
40
0
40
0
40
0.24999999999998
40
0.24999999999998
40
0.374999999999971
40
0.374999999999971
40
0.43749999999997
40
0.43749999999997
40
0.46874999999997
40
0.46874999999997
40
0.49999999999997
40
0.49999999999997
40
0.531249999999969
40
0.531249999999969
40
0.562499999999969
40
0.562499999999969
40
0.593749999999969
40
0.593749999999969
40
0.624999999999969
40
0.624999999999969
40
0.656249999999968
40
0.656249999999968
40
0.671874999999968
40
0.671874999999968
40
0.687499999999968
40
0.687499999999968
40
0.718749999999968
40
0.718749999999968
40
0.734374999999968
40
0.734374999999968
40
0.749999999999968
40
0.749999999999968
40
0.765624999999968
40
0.765624999999968
40
0.781249999999968
40
0.781249999999968
40
0.796874999999968
40
0.796874999999968
40
0.812499999999968
40
0.874999999999979
40
0.874999999999979
40
1
40
1
40
1
40
1
41
1
10
36.4542576955591
20
1.48546621894241
30
0
41
1
10
36.493165989981
20
1.40608752384904
30
0
41
1
10
36.532494218486
20
1.32727796370614
30
0
41
1
10
36.591890717649
20
1.21049436852127
30
0
41
1
10
36.6117204325687
20
1.17178099875068
30
0
41
1
10
36.6417569069658
20
1.11415240994296
30
0
41
1
10
36.6518630752699
20
1.09503266417334
30
0
41
1
10
36.6669828449659
20
1.06645642428845
30
0
41
1
10
36.6719964888992
20
1.05694450097084
30
0
41
1
10
36.681844653853
20
1.03792342513842
30
0
41
1
10
36.6866285013048
20
1.02840144962312
30
0
41
1
10
36.6964902291728
20
1.00946333278955
30
0
41
1
10
36.701581881891
20
1.00005249693925
30
0
41
1
10
36.712723001979
20
0.981508052998237
30
0
41
1
10
36.7187948314358
20
0.972357271023128
30
0
41
1
10
36.7323344806194
20
0.954537079508441
30
0
41
1
10
36.7395856562674
20
0.946153506100643
30
0
41
1
10
36.7549973260028
20
0.930385025239701
30
0
41
1
10
36.7632047206014
20
0.922941863893016
30
0
41
1
10
36.7800856483543
20
0.909081031191818
30
0
41
1
10
36.7886729978687
20
0.902727577696226
30
0
41
1
10
36.8017639325555
20
0.894109815961514
30
0
41
1
10
36.8061632186254
20
0.89139224986684
30
0
41
1
10
36.8150410981999
20
0.88632140432847
30
0
41
1
10
36.8195233004063
20
0.883969729372922
30
0
41
1
10
36.8327890205315
20
0.877605464723189
30
0
41
1
10
36.841496455706
20
0.87419689309948
30
0
41
1
10
36.8542779547962
20
0.87053637020594
30
0
41
1
10
36.8584768570551
20
0.869570930617016
30
0
41
1
10
36.8664933465047
20
0.868325188762697
30
0
41
1
10
36.8703290578756
20
0.868057068789057
30
0
41
1
10
36.8776179159601
20
0.868301287460156
30
0
41
1
10
36.8810842228577
20
0.868822550033059
30
0
41
1
10
36.8875057576592
20
0.870432809963859
30
0
41
1
10
36.8904959399484
20
0.87151521031663
30
0
41
1
10
36.8963069014083
20
0.87386855282486
30
0
41
1
10
36.8991481576643
20
0.875111771936218
30
0
41
1
10
36.9048386007117
20
0.877547069207708
30
0
41
1
10
36.9189992820114
20
0.883622757332517
30
0
41
1
10
36.9328864732706
20
0.88956773291244
30
0
41
1
10
36.9659484650318
20
0.903257887246411
30
0
41
1
10
36.9876171948678
20
0.911613943010963
30
0
41
1
10
37.0093984410057
20
0.918562801584983
30
0
0
SPLINE
5
18E
100
AcDbEntity
8
1
62
256
6
ByLayer
370
18
48
1
60
0
100
AcDbSpline
70
4
71
3
72
26
73
22
40
0
40
0
40
0
40
0
40
0.124999999999999
40
0.249999999999999
40
0.249999999999999
40
0.281249999999998
40
0.281249999999998
40
0.312499999999998
40
0.312499999999998
40
0.374999999999998
40
0.374999999999998
40
0.499999999999999
40
0.499999999999999
40
0.625
40
0.625
40
0.6875
40
0.6875
40
0.75
40
0.75
40
0.875
40
1
40
1
40
1
40
1
41
1
10
36.5457960109164
20
-0.0241399703791956
30
0
41
1
10
36.5419869005626
20
0.0460470306832121
30
0
41
1
10
36.5344811089795
20
0.185943496535856
30
0
41
1
10
36.5270579782027
20
0.324885292839099
30
0
41
1
10
36.5223853229638
20
0.411415365734428
30
0
41
1
10
36.5214490802074
20
0.428705911432303
30
0
41
1
10
36.5195714980459
20
0.463255639495003
30
0
41
1
10
36.518628782295
20
0.480539845495855
30
0
41
1
10
36.5158037392745
20
0.532101274404226
30
0
41
1
10
36.5139233744621
20
0.566108940976193
30
0
41
1
10
36.5082716005179
20
0.667053730801001
30
0
41
1
10
36.5044886539263
20
0.732915376720968
30
0
41
1
10
36.4968008576335
20
0.861814046249606
30
0
41
1
10
36.4929038856786
20
0.924851503009677
30
0
41
1
10
36.4870289651689
20
1.01726219693478
30
0
41
1
10
36.4850652712849
20
1.04770745493118
30
0
41
1
10
36.4811301491545
20
1.10786760642756
30
0
41
1
10
36.479157393204
20
1.13759918290452
30
0
41
1
10
36.4732962662952
20
1.22465968975536
30
0
41
1
10
36.4655901976214
20
1.33577007688223
30
0
41
1
10
36.45803130624
20
1.43719210631471
30
0
41
1
10
36.4542576955591
20
1.48546621894241
30
0
0
SPLINE
5
18F
100
AcDbEntity
8
1
62
256
6
ByLayer
370
18
48
1
60
0
100
AcDbSpline
70
4
71
3
72
46
73
42
40
0
40
0
40
0
40
0
40
0.124999999999978
40
0.124999999999978
40
0.249999999999956
40
0.249999999999956
40
0.28124999999995
40
0.28124999999995
40
0.312499999999945
40
0.312499999999945
40
0.328124999999942
40
0.328124999999942
40
0.34374999999994
40
0.34374999999994
40
0.374999999999934
40
0.374999999999934
40
0.390624999999939
40
0.390624999999939
40
0.406249999999944
40
0.406249999999944
40
0.437499999999954
40
0.437499999999954
40
0.453124999999958
40
0.453124999999958
40
0.468749999999963
40
0.468749999999963
40
0.499999999999957
40
0.499999999999957
40
0.53124999999995
40
0.53124999999995
40
0.562499999999944
40
0.562499999999944
40
0.578124999999941
40
0.578124999999941
40
0.593749999999938
40
0.593749999999938
40
0.624999999999942
40
0.624999999999942
40
0.749999999999958
40
0.749999999999958
40
1
40
1
40
1
40
1
41
1
10
37.0961501514256
20
-0.46786643749158
30
0
41
1
10
37.0775586336638
20
-0.436702959565054
30
0
41
1
10
37.0590200095903
20
-0.40614008053123
30
0
41
1
10
37.0215975940314
20
-0.346150995630893
30
0
41
1
10
37.0027282200311
20
-0.316727783647821
30
0
41
1
10
36.9785131010507
20
-0.280586634692668
30
0
41
1
10
36.9737140855516
20
-0.273409875070627
30
0
41
1
10
36.9634241785075
20
-0.258968720463486
30
0
41
1
10
36.9578718287266
20
-0.251689150321482
30
0
41
1
10
36.9484749572492
20
-0.240567250935953
30
0
41
1
10
36.9451462655852
20
-0.236803961332697
30
0
41
1
10
36.9382874269494
20
-0.229364779231332
30
0
41
1
10
36.9347591209613
20
-0.225682038397934
30
0
41
1
10
36.9239256862268
20
-0.214726631848578
30
0
41
1
10
36.9163771297656
20
-0.207545380388098
30
0
41
1
10
36.9045888613919
20
-0.196937800073499
30
0
41
1
10
36.9005802585456
20
-0.193429798309893
30
0
41
1
10
36.8923896101823
20
-0.186471410653297
30
0
41
1
10
36.8881878537253
20
-0.183008250615302
30
0
41
1
10
36.8755812038709
20
-0.172933664235359
30
0
41
1
10
36.8671062374492
20
-0.166556700972336
30
0
41
1
10
36.8543157416934
20
-0.157460591641666
30
0
41
1
10
36.8500389924382
20
-0.154508087724224
30
0
41
1
10
36.841460152475
20
-0.148778631658786
30
0
41
1
10
36.8371283697754
20
-0.145983184538352
30
0
41
1
10
36.82440483192
20
-0.138120726436256
30
0
41
1
10
36.8162218441565
20
-0.1335574560905
30
0
41
1
10
36.8009137027018
20
-0.12624672221304
30
0
41
1
10
36.7941481290607
20
-0.123667266700068
30
0
41
1
10
36.7818660346451
20
-0.119954939633885
30
0
41
1
10
36.7764170502226
20
-0.118826283973363
30
0
41
1
10
36.7685371479052
20
-0.11731219773705
30
0
41
1
10
36.7659538570147
20
-0.116836282808947
30
0
41
1
10
36.7607355409446
20
-0.115788567368213
30
0
41
1
10
36.7580904162843
20
-0.115205459394531
30
0
41
1
10
36.7500638671731
20
-0.113295841687659
30
0
41
1
10
36.7446005338286
20
-0.111819164650143
30
0
41
1
10
36.717249389811
20
-0.103999423881618
30
0
41
1
10
36.695666773262
20
-0.0968097963269088
30
0
41
1
10
36.631083331301
20
-0.0716118163057899
30
0
41
1
10
36.5881905638401
20
-0.0499628181979972
30
0
41
1
10
36.5457960109164
20
-0.0241399703791956
30
0
0
SPLINE
5
190
100
AcDbEntity
8
1
62
256
6
ByLayer
370
18
48
1
60
0
100
AcDbSpline
70
4
71
3
72
15
73
11
40
0
40
0
40
0
40
0
40
0.499999999999979
40
0.499999999999979
40
0.749999999999989
40
0.874999999999995
40
0.874999999999995
40
0.937499999999997
40
0.937499999999997
40
1
40
1
40
1
40
1
41
1
10
37.0093984410057
20
0.918562801584955
30
0
41
1
10
37.0299523239211
20
0.925120095167784
30
0
41
1
10
37.0505667921527
20
0.930396112163663
30
0
41
1
10
37.0814111839522
20
0.936685452543514
30
0
41
1
10
37.0967968683269
20
0.939449789103833
30
0
41
1
10
37.11193156094
20
0.941953071998
30
0
41
1
10
37.1194401951066
20
0.943188313565088
30
0
41
1
10
37.1219296633768
20
0.943603054997794
30
0
41
1
10
37.126904709347
20
0.944402449883654
30
0
41
1
10
37.1293824879746
20
0.944799402013757
30
0
41
1
10
37.1319458256876
20
0.945042645333444
30
0
0
SPLINE
5
191
100
AcDbEntity
8
1
62
256
6
ByLayer
370
13
48
1
60
0
100
AcDbSpline
70
4
71
3
72
9
73
5
40
0
40
0
40
0
40
0
40
0.862203785158857
40
1
40
1
40
1
40
1
41
1
10
37.0961501514256
20
-0.46786643749158
30
0
41
1
10
37.0718582197758
20
-0.0786440113046183
30
0
41
1
10
37.0432025265601
20
0.419998687192873
30
0
41
1
10
37.0135124873572
20
0.859529194171358
30
0
41
1
10
37.0093984410057
20
0.918562801584955
30
0
0
SPLINE
5
192
100
AcDbEntity
8
1
62
256
6
ByLayer
370
18
48
1
60
0
100
AcDbSpline
70
4
71
3
72
15
73
11
40
0
40
0
40
0
40
0
40
0.0624999999999998
40
0.0624999999999998
40
0.125
40
0.125
40
0.249999999999999
40
0.499999999999999
40
0.499999999999999
40
1
40
1
40
1
40
1
41
1
10
37.2235583574002
20
-0.691076941315714
30
0
41
1
10
37.2208980431666
20
-0.686253650113315
30
0
41
1
10
37.2183150479026
20
-0.681461021742393
30
0
41
1
10
37.2131301551324
20
-0.671890940740468
30
0
41
1
10
37.2105346218885
20
-0.667115203779986
30
0
41
1
10
37.2027110525272
20
-0.652808815204992
30
0
41
1
10
37.1869541303298
20
-0.624291890852874
30
0
41
1
10
37.1709649841404
20
-0.596098436974046
30
0
41
1
10
37.1389202119347
20
-0.540223989830764
30
0
41
1
10
37.1175007258831
20
-0.503654702029564
30
0
41
1
10
37.0961501514256
20
-0.46786643749158
30
0
0
SPLINE
5
193
100
AcDbEntity
8
1
62
256
6
ByLayer
370
18
48
1
60
0
100
AcDbSpline
70
4
71
3
72
27
73
23
40
0
40
0
40
0
40
0
40
0.125000000000001
40
0.125000000000001
40
0.250000000000002
40
0.375000000000003
40
0.375000000000003
40
0.406250000000003
40
0.406250000000003
40
0.437500000000003
40
0.500000000000003
40
0.500000000000003
40
0.625000000000002
40
0.75
40
0.75
40
0.78125
40
0.78125
40
0.8125
40
0.8125
40
0.875
40
0.875
40
1
40
1
40
1
40
1
41
1
10
37.1319458256875
20
0.945042645333501
30
0
41
1
10
37.1356979381976
20
0.882255990350473
30
0
41
1
10
37.1394599099995
20
0.818271064186433
30
0
41
1
10
37.1471211382037
20
0.687983178726711
30
0
41
1
10
37.1548878510927
20
0.555375353995458
30
0
41
1
10
37.162791297343
20
0.418118566597116
30
0
41
1
10
37.1677547383518
20
0.330830397318721
30
0
41
1
10
37.1687490854792
20
0.313289800367045
30
0
41
1
10
37.170728362757
20
0.278262142281676
30
0
41
1
10
37.1736874719842
20
0.225725707673433
30
0
41
1
10
37.1766163539458
20
0.173204191814904
30
0
41
1
10
37.1824340706829
20
0.068180722548334
30
0
41
1
10
37.1900819104546
20
-0.0717986423832428
30
0
41
1
10
37.197563098171
20
-0.211672174452531
30
0
41
1
10
37.2022283100229
20
-0.299056907917077
30
0
41
1
10
37.203160953092
20
-0.316532031734965
30
0
41
1
10
37.2050269839726
20
-0.351478507974292
30
0
41
1
10
37.2059614177462
20
-0.368969365210944
30
0
41
1
10
37.2087530773937
20
-0.421148432915771
30
0
41
1
10
37.2106026814787
20
-0.455619840907019
30
0
41
1
10
37.2161411691895
20
-0.55810782508982
30
0
41
1
10
37.2198185506917
20
-0.625200593229721
30
0
41
1
10
37.2235583574002
20
-0.691076941315799
30
0
0
SPLINE
5
194
100
AcDbEntity
8
1
62
256
6
ByLayer
370
18
48
1
60
0
100
AcDbSpline
70
4
71
3
72
15
73
11
40
0
40
0
40
0
40
0
40
0.0624999999999923
40
0.0624999999999923
40
0.124999999999984
40
0.124999999999984
40
0.249999999999969
40
0.499999999999969
40
0.499999999999969
40
1
40
1
40
1
40
1
41
1
10
37.9648078130479
20
-1.33140105649966
30
0
41
1
10
37.9621131047236
20
-1.32591169850338
30
0
41
1
10
37.9595140333272
20
-1.32040088371738
30
0
41
1
10
37.9542975632097
20
-1.30939037341722
30
0
41
1
10
37.9516899866023
20
-1.30388815205598
30
0
41
1
10
37.9438255789906
20
-1.28740194947446
30
0
41
1
10
37.9279830974671
20
-1.25450110253931
30
0
41
1
10
37.9118991803567
20
-1.22179970995887
30
0
41
1
10
37.8796585702091
20
-1.15661554482483
30
0
41
1
10
37.8581025498139
20
-1.11342392585954
30
0
41
1
10
37.8366211972472
20
-1.07055457934544
30
0
0
SPLINE
5
195
100
AcDbEntity
8
1
62
256
6
ByLayer
370
18
48
1
60
0
100
AcDbSpline
70
4
71
3
72
28
73
24
40
0
40
0
40
0
40
0
40
0.0625000000000003
40
0.0937500000000001
40
0.0937500000000001
40
0.125
40
0.125
40
0.249999999999998
40
0.374999999999997
40
0.499999999999995
40
0.499999999999995
40
0.531249999999995
40
0.531249999999995
40
0.562499999999995
40
0.624999999999996
40
0.624999999999996
40
0.749999999999997
40
0.749999999999997
40
0.874999999999998
40
0.874999999999998
40
0.937499999999999
40
0.937499999999999
40
1
40
1
40
1
40
1
41
1
10
37.8725576645494
20
0.23821697424529
30
0
41
1
10
37.874509494087
20
0.203373596143479
30
0
41
1
10
37.877451457988
20
0.150848513647361
30
0
41
1
10
37.8804095361948
20
0.0979268427013551
30
0
41
1
10
37.8823847423168
20
0.0625565235184808
30
0
41
1
10
37.8833752208249
20
0.0448033254091058
30
0
41
1
10
37.8883088148418
20
-0.043725940867148
30
0
41
1
10
37.8961052851989
20
-0.184311242370967
30
0
41
1
10
37.9075021222416
20
-0.39210711273563
30
0
41
1
10
37.9149684546112
20
-0.528581083471238
30
0
41
1
10
37.9196422416942
20
-0.613211758488376
30
0
41
1
10
37.9205788596549
20
-0.630129222952689
30
0
41
1
10
37.9224467629929
20
-0.663752349115526
30
0
41
1
10
37.925240291417
20
-0.713863299915971
30
0
41
1
10
37.9280171710317
20
-0.763014503748479
30
0
41
1
10
37.9335734563974
20
-0.86005751672667
30
0
41
1
10
37.9372799530313
20
-0.923076924165201
30
0
41
1
10
37.9448528318521
20
-1.04578963851313
30
0
41
1
10
37.9487437860081
20
-1.10548194214007
30
0
41
1
10
37.9547315702835
20
-1.19247067770561
30
0
41
1
10
37.9567501061552
20
-1.22108304113647
30
0
41
1
10
37.9607942878012
20
-1.27725666939568
30
0
41
1
10
37.9628085096986
20
-1.30466214771775
30
0
41
1
10
37.9648078130479
20
-1.33140105649966
30
0
0
SPLINE
5
196
100
AcDbEntity
8
1
62
256
6
ByLayer
370
18
48
1
60
0
100
AcDbSpline
70
4
71
3
72
31
73
27
40
0
40
0
40
0
40
0
40
0.125
40
0.125
40
0.15625
40
0.15625
40
0.187500000000001
40
0.187500000000001
40
0.250000000000001
40
0.250000000000001
40
0.375000000000001
40
0.500000000000001
40
0.500000000000001
40
0.562500000000001
40
0.562500000000001
40
0.593750000000001
40
0.593750000000001
40
0.625000000000001
40
0.750000000000001
40
0.750000000000001
40
0.875
40
0.875
40
0.9375
40
0.96875
40
0.96875
40
1
40
1
40
1
40
1
41
1
10
37.2867778308502
20
-0.750503348910115
30
0
41
1
10
37.2828609543092
20
-0.685384942739574
30
0
41
1
10
37.278944216462
20
-0.61884890982742
30
0
41
1
10
37.2740569427763
20
-0.533860092929643
30
0
41
1
10
37.2730798150042
20
-0.516771163673695
30
0
41
1
10
37.2711259987744
20
-0.482408864915357
30
0
41
1
10
37.2701494310342
20
-0.465137259387007
30
0
41
1
10
37.267236960975
20
-0.413349435793464
30
0
41
1
10
37.265312588671
20
-0.378759185864311
30
0
41
1
10
37.2595828460445
20
-0.274797481200181
30
0
41
1
10
37.2520607053067
20
-0.135673533093694
30
0
41
1
10
37.2446374785619
20
0.0044451291415726
30
0
41
1
10
37.2390357870267
20
0.109909570729656
30
0
41
1
10
37.2371626398416
20
0.145127069336382
30
0
41
1
10
37.2343333408468
20
0.198048715505991
30
0
41
1
10
37.2333861910345
20
0.215719408130099
30
0
41
1
10
37.2314943156266
20
0.250890956827959
30
0
41
1
10
37.2267669580732
20
0.338511083881343
30
0
41
1
10
37.2220014684699
20
0.424608505528056
30
0
41
1
10
37.2142849876874
20
0.560459421488048
30
0
41
1
10
37.2103999835348
20
0.627433363709883
30
0
41
1
10
37.2045787899933
20
0.726458254709001
30
0
41
1
10
37.2016689334796
20
0.775610947853295
30
0
41
1
10
37.1987615725039
20
0.824215385907593
30
0
41
1
10
37.1968235450162
20
0.856495040077419
30
0
41
1
10
37.1958533727832
20
0.872594403734951
30
0
41
1
10
37.1948880861869
20
0.888548716115849
30
0
0
SPLINE
5
197
100
AcDbEntity
8
1
62
256
6
ByLayer
370
18
48
1
60
0
100
AcDbSpline
70
4
71
3
72
46
73
42
40
0
40
0
40
0
40
0
40
0.125000000000176
40
0.125000000000176
40
0.250000000000352
40
0.250000000000352
40
0.281250000000389
40
0.281250000000389
40
0.312500000000426
40
0.312500000000426
40
0.328125000000439
40
0.328125000000439
40
0.343750000000451
40
0.343750000000451
40
0.375000000000463
40
0.375000000000463
40
0.390625000000461
40
0.390625000000461
40
0.40625000000046
40
0.40625000000046
40
0.437500000000456
40
0.437500000000456
40
0.453125000000454
40
0.453125000000454
40
0.468750000000453
40
0.468750000000453
40
0.500000000000433
40
0.500000000000433
40
0.531250000000414
40
0.531250000000414
40
0.562500000000394
40
0.562500000000394
40
0.578125000000384
40
0.578125000000384
40
0.593750000000374
40
0.593750000000374
40
0.625000000000344
40
0.625000000000344
40
0.750000000000233
40
0.750000000000233
40
1
40
1
40
1
40
1
41
1
10
37.8366211972472
20
-1.07055457934544
30
0
41
1
10
37.8180060012925
20
-1.03340508965033
30
0
41
1
10
37.7994462569284
20
-0.996510827812102
30
0
41
1
10
37.7619965803676
20
-0.923390906649018
30
0
41
1
10
37.7431217458345
20
-0.887163117818176
30
0
41
1
10
37.7189157726966
20
-0.842372730561095
30
0
41
1
10
37.7141189933334
20
-0.833423523415007
30
0
41
1
10
37.7038323583744
20
-0.815724058461626
30
0
41
1
10
37.69828199343
20
-0.806987664384337
30
0
41
1
10
37.6888932957194
20
-0.794156937392358
30
0
41
1
10
37.6855681294346
20
-0.789899325559873
30
0
41
1
10
37.6787151390501
20
-0.781636883402683
30
0
41
1
10
37.6751905594947
20
-0.777621224137221
30
0
41
1
10
37.664370564838
20
-0.765864336516785
30
0
41
1
10
37.6568339278227
20
-0.758407128072434
30
0
41
1
10
37.6450687123219
20
-0.747766233915826
30
0
41
1
10
37.6410686697053
20
-0.744312001909265
30
0
41
1
10
37.6328972553079
20
-0.737607401727161
30
0
41
1
10
37.6287046139137
20
-0.734346351501557
30
0
41
1
10
37.6161214716692
20
-0.725103319631216
30
0
41
1
10
37.6076642100815
20
-0.719571596517852
30
0
41
1
10
37.5949032818324
20
-0.712178118422173
30
0
41
1
10
37.5906368956271
20
-0.709866796413536
30
0
41
1
10
37.582079918358
20
-0.705588526199591
30
0
41
1
10
37.577758692932
20
-0.703608589164986
30
0
41
1
10
37.565050095896
20
-0.698446377033747
30
0
41
1
10
37.5568935667001
20
-0.696062822700867
30
0
41
1
10
37.5415721056008
20
-0.694003225176431
30
0
41
1
10
37.5348019749509
20
-0.694380464643388
30
0
41
1
10
37.5225178540057
20
-0.697050667589338
30
0
41
1
10
37.5170632327873
20
-0.699300657405246
30
0
41
1
10
37.5091907571717
20
-0.70289951411155
30
0
41
1
10
37.506611687297
20
-0.704139145523328
30
0
41
1
10
37.5014059674441
20
-0.70651854271614
30
0
41
1
10
37.4987684968837
20
-0.707644063785779
30
0
41
1
10
37.4907618323633
20
-0.710839556487713
30
0
41
1
10
37.4853103189915
20
-0.712743912497331
30
0
41
1
10
37.4580085000778
20
-0.721818576164878
30
0
41
1
10
37.4364556093522
20
-0.728229047617532
30
0
41
1
10
37.3719685614353
20
-0.743812587242076
30
0
41
1
10
37.3291277201012
20
-0.749341868419805
30
0
41
1
10
37.2867778308502
20
-0.750503348910115
30
0
0
SPLINE
5
198
100
AcDbEntity
8
1
62
256
6
ByLayer
370
13
48
1
60
0
100
AcDbSpline
70
4
71
3
72
9
73
5
40
0
40
0
40
0
40
0
40
0.0853927113348689
40
1
40
1
40
1
40
1
41
1
10
37.8366211974063
20
-1.07055458147917
30
0
41
1
10
37.8341818321524
20
-1.03784590289769
30
0
41
1
10
37.805582011872
20
-0.645200562346645
30
0
41
1
10
37.7767990787111
20
-0.147662016258266
30
0
41
1
10
37.7498324096691
20
0.29208789421088
30
0
0
SPLINE
5
199
100
AcDbEntity
8
SK1
62
256
6
ByLayer
370
18
48
1
60
0
100
AcDbSpline
70
4
71
3
72
22
73
18
40
0
40
0
40
0
40
0
40
0.124791167204018
40
0.124791167204018
40
0.249582334408037
40
0.249582334408037
40
0.499164668816073
40
0.499164668816073
40
0.623955836020091
40
0.623955836020091
40
0.6863514196221
40
0.6863514196221
40
0.748747003224109
40
0.748747003224109
40
0.998329337632146
40
0.998329337632146
40
1
40
1
40
1
40
1
41
1
10
-20
20
1.69999999999996
30
0
41
1
10
-20.0312316853358
20
1.69999999999996
30
0
41
1
10
-20.0617192417948
20
1.69999999999996
30
0
41
1
10
-20.1208596891055
20
1.69999999999996
30
0
41
1
10
-20.1493656186911
20
1.69999999999996
30
0
41
1
10
-20.2310529984633
20
1.69999999999996
30
0
41
1
10
-20.2804608464447
20
1.69999999999996
30
0
41
1
10
-20.3435532811028
20
1.69999999999996
30
0
41
1
10
-20.3627338867565
20
1.69999999999996
30
0
41
1
10
-20.38816586535
20
1.69999999999996
30
0
41
1
10
-20.3960857212648
20
1.69999999999996
30
0
41
1
10
-20.4107049699779
20
1.69999999999996
30
0
41
1
10
-20.4174169984215
20
1.69999999999996
30
0
41
1
10
-20.4473858919688
20
1.69999999999996
30
0
41
1
10
-20.4599620558586
20
1.69999999999996
30
0
41
1
10
-20.4600011669713
20
1.69999999999996
30
0
41
1
10
-20.4599995831983
20
1.69999999999996
30
0
41
1
10
-20.4599985830983
20
1.69999999999996
30
0
0
SPLINE
5
19A
100
AcDbEntity
8
SK1
62
256
6
ByLayer
370
18
48
1
60
0
100
AcDbSpline
70
4
71
3
72
22
73
18
40
0
40
0
40
0
40
0
40
0.0016706631584483
40
0.0016706631584483
40
0.251252997368836
40
0.251252997368836
40
0.313648580921433
40
0.313648580921433
40
0.37604416447403
40
0.37604416447403
40
0.500835331579224
40
0.500835331579224
40
0.750417665789612
40
0.750417665789612
40
0.875208832894806
40
0.875208832894806
40
1
40
1
40
1
40
1
41
1
10
-20.4599985830977
20
-1.70000000000002
30
0
41
1
10
-20.4599995831977
20
-1.70000000000002
30
0
41
1
10
-20.4600011669714
20
-1.70000000000002
30
0
41
1
10
-20.4599620558586
20
-1.70000000000002
30
0
41
1
10
-20.4473858919688
20
-1.70000000000002
30
0
41
1
10
-20.4174169984215
20
-1.70000000000002
30
0
41
1
10
-20.4107049699778
20
-1.70000000000002
30
0
41
1
10
-20.3960857212648
20
-1.70000000000002
30
0
41
1
10
-20.38816586535
20
-1.70000000000002
30
0
41
1
10
-20.3627338867565
20
-1.70000000000002
30
0
41
1
10
-20.3435532811027
20
-1.70000000000002
30
0
41
1
10
-20.2804608464446
20
-1.70000000000002
30
0
41
1
10
-20.2310529984632
20
-1.70000000000002
30
0
41
1
10
-20.149365618691
20
-1.70000000000002
30
0
41
1
10
-20.1208596891054
20
-1.70000000000002
30
0
41
1
10
-20.0617192417947
20
-1.70000000000002
30
0
41
1
10
-20.0312316853357
20
-1.70000000000002
30
0
41
1
10
-19.9999999999999
20
-1.70000000000002
30
0
0
SPLINE
5
19B
100
AcDbEntity
8
SK1
62
256
6
ByLayer
370
18
48
1
60
0
100
AcDbSpline
70
4
71
3
72
36
73
32
40
0
40
0
40
0
40
0
40
0.125
40
0.125
40
0.1875
40
0.1875
40
0.21875
40
0.21875
40
0.25
40
0.25
40
0.375
40
0.375
40
0.40625
40
0.40625
40
0.4375
40
0.4375
40
0.5
40
0.5
40
0.625
40
0.625
40
0.65625
40
0.65625
40
0.6875
40
0.6875
40
0.75
40
0.75
40
0.875
40
0.875
40
0.9375
40
0.9375
40
1
40
1
40
1
40
1
41
1
10
-20
20
-1.33251641640922
30
0
41
1
10
-20.0619570033713
20
-1.23208453757155
30
0
41
1
10
-20.1208934451722
20
-1.12965097552558
30
0
41
1
10
-20.2025079673024
20
-0.971500902838301
30
0
41
1
10
-20.228570378338
20
-0.918027140039612
30
0
41
1
10
-20.2655373688126
20
-0.836407210974187
30
0
41
1
10
-20.2775195132155
20
-0.808927766947448
30
0
41
1
10
-20.3006145980522
20
-0.753621537637287
30
0
41
1
10
-20.3117094621023
20
-0.725840868162408
30
0
41
1
10
-20.3647255977526
20
-0.586244858368786
30
0
41
1
10
-20.3993082575669
20
-0.472361658462375
30
0
41
1
10
-20.4292131408545
20
-0.326253405457749
30
0
41
1
10
-20.434526040706
20
-0.296843505489079
30
0
41
1
10
-20.4437226189511
20
-0.237620982341923
30
0
41
1
10
-20.4476123873896
20
-0.207728264162228
30
0
41
1
10
-20.4569241252164
20
-0.118263345594499
30
0
41
1
10
-20.460018842259
20
-0.0587803152315871
30
0
41
1
10
-20.4599620558586
20
0.119187946780414
30
0
41
1
10
-20.4473858919688
20
0.237188039676823
30
0
41
1
10
-20.4174169984215
20
0.3839546979614
30
0
41
1
10
-20.4107049699778
20
0.413306545192626
30
0
41
1
10
-20.3960857212648
20
0.471362685163768
30
0
41
1
10
-20.38816586535
20
0.500139234671508
30
0
41
1
10
-20.3627338867565
20
0.585779561952279
30
0
41
1
10
-20.3435532811027
20
0.641955637443345
30
0
41
1
10
-20.2804608464447
20
0.808196053664091
30
0
41
1
10
-20.2310529984632
20
0.915995088215112
30
0
41
1
10
-20.149365618691
20
1.0745711851834
30
0
41
1
10
-20.1208596891054
20
1.12690362148609
30
0
41
1
10
-20.0617192417947
20
1.23069114925624
30
0
41
1
10
-20.0312316853357
20
1.28189006802472
30
0
41
1
10
-19.9999999999999
20
1.33251641640928
30
0
0
SPLINE
5
19C
100
AcDbEntity
8
1
62
256
6
ByLayer
370
18
48
1
60
0
100
AcDbSpline
70
4
71
2
72
6
73
3
40
0
40
0
40
0
40
1
40
1
40
1
41
1
10
37.4989197933294
20
1.69001484647296
30
0
41
1
10
37.4960145882298
20
1.68500574447228
30
0
41
1
10
37.4931007311945
20
1.67993262466132
30
0
0
SPLINE
5
19D
100
AcDbEntity
8
1
62
256
6
ByLayer
370
18
48
1
60
0
100
AcDbSpline
70
4
71
2
72
6
73
3
40
0
40
0
40
0
40
1
40
1
40
1
41
1
10
37.698273179591
20
2.03415609197839
30
0
41
1
10
37.6387287345721
20
1.9305336524933
30
0
41
1
10
37.5784108308389
20
1.82746778616371
30
0
0
SPLINE
5
19E
100
AcDbEntity
8
1
62
256
6
ByLayer
370
18
48
1
60
0
100
AcDbSpline
70
4
71
3
72
10
73
6
40
0
40
0
40
0
40
0
40
0.414470141982957
40
0.816924254111143
40
1
40
1
40
1
40
1
41
1
10
41.0945502809547
20
-1.75642687475005
30
0
41
1
10
41.1065495166644
20
-1.73444753011592
30
0
41
1
10
41.1345250371377
20
-1.69295224741577
30
0
41
1
10
41.1595167158832
20
-1.62571661556939
30
0
41
1
10
41.1953013675632
20
-1.60595673883512
30
0
41
1
10
41.2075608535972
20
-1.60063978695541
30
0
0
SPLINE
5
19F
100
AcDbEntity
8
1
62
256
6
ByLayer
370
18
48
1
60
0
100
AcDbSpline
70
4
71
3
72
10
73
6
40
0
40
0
40
0
40
0
40
0.560191639245228
40
0.974217540327741
40
1
40
1
40
1
40
1
41
1
10
36.7273008751876
20
-2.04297301337013
30
0
41
1
10
36.7730317510404
20
-1.96396723286642
30
0
41
1
10
36.8582886135923
20
-1.83109675679398
30
0
41
1
10
36.9241533907862
20
-1.68061463149945
30
0
41
1
10
36.9700417437127
20
-1.62639638551977
30
0
41
1
10
36.9728627972472
20
-1.62334619636093
30
0
0
SPLINE
5
1A0
100
AcDbEntity
8
1
62
256
6
ByLayer
370
18
48
1
60
0
100
AcDbSpline
70
4
71
2
72
6
73
3
40
0
40
0
40
0
40
1
40
1
40
1
41
1
10
36.5341195109798
20
-1.83711430620508
30
0
41
1
10
36.5944369216626
20
-1.9403591087929
30
0
41
1
10
36.6539843462862
20
-2.04405564437479
30
0
0
SPLINE
5
1A1
100
AcDbEntity
8
1
62
256
6
ByLayer
370
18
48
1
60
0
100
AcDbSpline
70
4
71
2
72
6
73
3
40
0
40
0
40
0
40
1
40
1
40
1
41
1
10
40.7447716194251
20
-1.8297432397612
30
0
41
1
10
40.9243569316406
20
-1.7841326121941
30
0
41
1
10
41.1039422424599
20
-1.73852208426197
30
0
0
SPLINE
5
1A2
100
AcDbEntity
8
1
62
256
6
ByLayer
370
18
48
1
60
0
100
AcDbSpline
70
4
71
3
72
15
73
11
40
0
40
0
40
0
40
0
40
0.388056464673332
40
0.599232828689242
40
0.658137944732311
40
0.722715848118548
40
0.790044305852772
40
0.857704381180654
40
0.921981273854312
40
1
40
1
40
1
40
1
41
1
10
38.2809671518505
20
1.83308041432133
30
0
41
1
10
38.2572548719733
20
1.78754662011764
30
0
41
1
10
38.2124795754836
20
1.72114209679569
30
0
41
1
10
38.1737768845126
20
1.63402651731681
30
0
41
1
10
38.1351147564021
20
1.60478249547018
30
0
41
1
10
38.1088353507537
20
1.5949133343961
30
0
41
1
10
38.0794154936543
20
1.59340127245037
30
0
41
1
10
38.0507636800467
20
1.60039199579384
30
0
41
1
10
38.0244077507784
20
1.61670629801216
30
0
41
1
10
38.0108343639623
20
1.63189259991381
30
0
41
1
10
38.0042326432047
20
1.64101185876567
30
0
0
SPLINE
5
1A3
100
AcDbEntity
8
1
62
256
6
ByLayer
370
18
48
1
60
0
100
AcDbSpline
70
4
71
2
72
6
73
3
40
0
40
0
40
0
40
1
40
1
40
1
41
1
10
38.4019380195766
20
2.04198183468481
30
0
41
1
10
38.3418306679008
20
1.9372930874876
30
0
41
1
10
38.2808698133619
20
1.83290973480317
30
0
0
SPLINE
5
1A4
100
AcDbEntity
8
1
62
256
6
ByLayer
370
18
48
1
60
0
100
AcDbSpline
70
4
71
3
72
19
73
15
40
0
40
0
40
0
40
0
40
0.267964962314482
40
0.396165387415036
40
0.458624228621513
40
0.488613489401523
40
0.51876120257428
40
0.550772194373676
40
0.583865366836965
40
0.616744470188523
40
0.648516504730302
40
0.705573690006602
40
0.762305097581411
40
1
40
1
40
1
40
1
41
1
10
40.2775277633584
20
-1.95766909638431
30
0
41
1
10
40.3133449811405
20
-1.89619439123723
30
0
41
1
10
40.3650133172469
20
-1.80417802781844
30
0
41
1
10
40.4265237779919
20
-1.69858186895453
30
0
41
1
10
40.4528211949226
20
-1.64528214474626
30
0
41
1
10
40.4735360641274
20
-1.61989082868877
30
0
41
1
10
40.4933565901179
20
-1.60512475728333
30
0
41
1
10
40.5175705051059
20
-1.59619950573605
30
0
41
1
10
40.5440725776038
20
-1.59333141366037
30
0
41
1
10
40.5700673795342
20
-1.59830801518763
30
0
41
1
10
40.5998490632494
20
-1.61234664880243
30
0
41
1
10
40.624285090586
20
-1.64222702469655
30
0
41
1
10
40.6663675434518
20
-1.72112698655349
30
0
41
1
10
40.7035897868985
20
-1.78324856724339
30
0
41
1
10
40.7308548495997
20
-1.83277070713069
30
0
0
SPLINE
5
1A5
100
AcDbEntity
8
1
62
256
6
ByLayer
370
18
48
1
60
0
100
AcDbSpline
70
4
71
3
72
17
73
13
40
0
40
0
40
0
40
0
40
0.293844019472645
40
0.514279439290622
40
0.543805540513898
40
0.574202725872667
40
0.606697653392996
40
0.639627294287547
40
0.671823975850383
40
0.701776216539163
40
0.758076366776493
40
1
40
1
40
1
40
1
41
1
10
36.0275774315577
20
-2.04341601819999
30
0
41
1
10
36.073350074148
20
-1.96450697853763
30
0
41
1
10
36.1580254531995
20
-1.83150319006773
30
0
41
1
10
36.2239808299485
20
-1.67802469614179
30
0
41
1
10
36.2788259008394
20
-1.61428891569921
30
0
41
1
10
36.3029577476057
20
-1.60016325751667
30
0
41
1
10
36.3312055139867
20
-1.59321266650627
30
0
41
1
10
36.3607971382392
20
-1.59482216626503
30
0
41
1
10
36.3875121500351
20
-1.6051774441863
30
0
41
1
10
36.4153805384234
20
-1.6264945185423
30
0
41
1
10
36.460139485343
20
-1.70967181718717
30
0
41
1
10
36.5040421293648
20
-1.77578958544589
30
0
41
1
10
36.5307877370319
20
-1.8321027413067
30
0
0
SPLINE
5
1A6
100
AcDbEntity
8
1
62
256
6
ByLayer
370
18
48
1
60
0
100
AcDbSpline
70
4
71
2
72
6
73
3
40
0
40
0
40
0
40
1
40
1
40
1
41
1
10
40.1345134455373
20
-1.98485406014643
30
0
41
1
10
40.2177435496718
20
-1.96372233782952
30
0
41
1
10
40.3009722735875
20
-1.94258518135558
30
0
0
SPLINE
5
1A7
100
AcDbEntity
8
1
62
256
6
ByLayer
370
18
48
1
60
0
100
AcDbSpline
70
4
71
2
72
6
73
3
40
0
40
0
40
0
40
1
40
1
40
1
41
1
10
35.8307801050764
20
-1.83273740063447
30
0
41
1
10
35.8917083048366
20
-1.93700530977517
30
0
41
1
10
35.951780646898
20
-2.04157876500082
30
0
0
SPLINE
5
1A8
100
AcDbEntity
8
1
62
256
6
ByLayer
370
18
48
1
60
0
100
AcDbSpline
70
4
71
2
72
6
73
3
40
0
40
0
40
0
40
1
40
1
40
1
41
1
10
40.0316599925642
20
-1.83302251712368
30
0
41
1
10
40.0764261939398
20
-1.91026453398183
30
0
41
1
10
40.1214589824738
20
-1.98716950786931
30
0
0
SPLINE
5
1A9
100
AcDbEntity
8
1
62
256
6
ByLayer
370
18
48
1
60
0
100
AcDbSpline
70
4
71
3
72
17
73
13
40
0
40
0
40
0
40
0
40
0.231498215080011
40
0.367341166910187
40
0.435220226158317
40
0.472546292922241
40
0.510993322929858
40
0.549733187000464
40
0.588055511036199
40
0.659079149882974
40
0.798180125292027
40
1
40
1
40
1
40
1
41
1
10
34.7711331991088
20
1.81233706117735
30
0
41
1
10
34.7512252829683
20
1.7753175026497
30
0
41
1
10
34.7167537732025
20
1.71795597794755
30
0
41
1
10
34.6817205248276
20
1.64574956030191
30
0
41
1
10
34.6513291388533
20
1.61223818257412
30
0
41
1
10
34.6272486310172
20
1.60013353533603
30
0
41
1
10
34.6066243458911
20
1.59435286922988
30
0
41
1
10
34.5850063172028
20
1.59374122894246
30
0
41
1
10
34.5579220926545
20
1.59864973471625
30
0
41
1
10
34.5164710074706
20
1.62103546604715
30
0
41
1
10
34.4831873169826
20
1.69143020374761
30
0
41
1
10
34.4499561311489
20
1.74149700203972
30
0
41
1
10
34.4337018655348
20
1.77363470796672
30
0
0
SPLINE
5
1AA
100
AcDbEntity
8
1
62
256
6
ByLayer
370
18
48
1
60
0
100
AcDbSpline
70
4
71
3
72
18
73
14
40
0
40
0
40
0
40
0
40
0.185128620785117
40
0.245139657206413
40
0.276891047479237
40
0.311177665357209
40
0.346366204019675
40
0.381238330906735
40
0.413948875837517
40
0.445548994562855
40
0.594398609531757
40
0.749063296580446
40
1
40
1
40
1
40
1
41
1
10
38.9542887093868
20
1.78598077640308
30
0
41
1
10
38.934615616357
20
1.74577656598646
30
0
41
1
10
38.9013220270155
20
1.69453521897538
30
0
41
1
10
38.8663213688778
20
1.62859939396122
30
0
41
1
10
38.8391873383819
20
1.60677820133932
30
0
41
1
10
38.8128252893396
20
1.5959350583129
30
0
41
1
10
38.7833285883295
20
1.59354770799101
30
0
41
1
10
38.7548530602252
20
1.599921129655
30
0
41
1
10
38.7302961476256
20
1.61350789208484
30
0
41
1
10
38.6900467428916
20
1.65781714098642
30
0
41
1
10
38.6518625112816
20
1.74597970429116
30
0
41
1
10
38.5705183509957
20
1.88031690967313
30
0
41
1
10
38.513436746417
20
1.98203255862563
30
0
41
1
10
38.4769168097102
20
2.0447249781075
30
0
0
SPLINE
5
1AB
100
AcDbEntity
8
1
62
256
6
ByLayer
370
18
48
1
60
0
100
AcDbSpline
70
4
71
3
72
16
73
12
40
0
40
0
40
0
40
0
40
0.112812029333518
40
0.167901277394947
40
0.224653082339652
40
0.285553820968524
40
0.347255354887149
40
0.407377829515114
40
0.46280607185233
40
0.565575919720574
40
1
40
1
40
1
40
1
41
1
10
35.5298113755163
20
-1.6831865829285
30
0
41
1
10
35.5366486856059
20
-1.66537665689597
30
0
41
1
10
35.5504182928689
20
-1.64191976760409
30
0
41
1
10
35.5746811417863
20
-1.61426810131681
30
0
41
1
10
35.5990585615378
20
-1.59977017741488
30
0
41
1
10
35.6275317286783
20
-1.59259381693036
30
0
41
1
10
35.6573868210769
20
-1.5939536069549
30
0
41
1
10
35.6843436566631
20
-1.60409229749456
30
0
41
1
10
35.7126013641275
20
-1.62513243638131
30
0
41
1
10
35.7584410251028
20
-1.70758444853675
30
0
41
1
10
35.8033857061753
20
-1.77518608780028
30
0
41
1
10
35.8316168990396
20
-1.83412749339101
30
0
0
SPLINE
5
1AC
100
AcDbEntity
8
1
62
256
6
ByLayer
370
18
48
1
60
0
100
AcDbSpline
70
4
71
3
72
16
73
12
40
0
40
0
40
0
40
0
40
0.0064203219300719
40
0.06847804679957
40
0.132343047054622
40
0.200910136867124
40
0.270384730412454
40
0.338036019070353
40
0.400315968602787
40
0.515380582911264
40
1
40
1
40
1
40
1
41
1
10
39.7529026222352
20
-1.63602974341745
30
0
41
1
10
39.7533474290717
20
-1.63520414093145
30
0
41
1
10
39.7582357632997
20
-1.62652006338115
30
0
41
1
10
39.772249177198
20
-1.61283972970247
30
0
41
1
10
39.7961120113821
20
-1.59773754104828
30
0
41
1
10
39.8247682457051
20
-1.59044357074424
30
0
41
1
10
39.8546557798231
20
-1.5915139178673
30
0
41
1
10
39.8817231703937
20
-1.60143414635826
30
0
41
1
10
39.9101338277959
20
-1.62217464608111
30
0
41
1
10
39.9562485319613
20
-1.70388548025804
30
0
41
1
10
40.0014589307508
20
-1.77115341738204
30
0
41
1
10
40.0300054458588
20
-1.83008058788744
30
0
0
SPLINE
5
1AD
100
AcDbEntity
8
1
62
256
6
ByLayer
370
18
48
1
60
0
100
AcDbSpline
70
4
71
1
72
4
73
2
40
0
40
0
40
1
40
1
41
1
10
39.3157316429175
20
1.80385267726947
30
0
41
1
10
39.1860143512697
20
2.02189513065051
30
0
0
SPLINE
5
1AE
100
AcDbEntity
8
1
62
256
6
ByLayer
370
18
48
1
60
0
100
AcDbSpline
70
4
71
1
72
4
73
2
40
0
40
0
40
1
40
1
41
1
10
35.0989721363378
20
1.83398365797854
30
0
41
1
10
34.9868297995781
20
2.02062391089524
30
0
0
SPLINE
5
1AF
100
AcDbEntity
8
1
62
256
6
ByLayer
370
18
48
1
60
0
100
AcDbSpline
70
4
71
3
72
8
73
4
40
0
40
0
40
0
40
0
40
1
40
1
40
1
40
1
41
1
10
40.6251521805801
20
0.205704356664484
30
0
41
1
10
40.6098242421467
20
0.219121889577565
30
0
41
1
10
40.5946194876153
20
0.232936171263361
30
0
41
1
10
40.5795011391785
20
0.247042817446214
30
0
0
SPLINE
5
1B0
100
AcDbEntity
8
1
62
256
6
ByLayer
370
18
48
1
60
0
100
AcDbSpline
70
4
71
1
72
4
73
2
40
0
40
0
40
1
40
1
41
1
10
40.5795011391785
20
0.247042817446214
30
0
41
1
10
40.5731926109534
20
0.252388702297026
30
0
0
SPLINE
5
1B1
100
AcDbEntity
8
1
62
256
6
ByLayer
370
18
48
1
60
0
100
AcDbSpline
70
4
71
3
72
8
73
4
40
0
40
0
40
0
40
0
40
1
40
1
40
1
40
1
41
1
10
41.9443086305975
20
0.220578782561319
30
0
41
1
10
41.9630809854849
20
0.208197451614751
30
0
41
1
10
41.9818565746137
20
0.195580221921233
30
0
41
1
10
42.0006370403987
20
0.182763985823072
30
0
0
LINE
5
7F
100
AcDbEntity
8
80
62
256
6
ByLayer
370
18
48
1
60
0
100
AcDbLine
10
0
20
0
30
0
11
-5
21
0
31
0
39
0
210
0
220
0
230
1
0
LINE
5
80
100
AcDbEntity
8
4
62
256
6
ByLayer
370
18
48
0.05
60
0
100
AcDbLine
10
0
20
0
30
0
11
42.2
21
0
31
0
39
0
210
0
220
0
230
1
0
LINE
5
82
100
AcDbEntity
8
81
62
256
6
ByLayer
370
18
48
1
60
0
100
AcDbLine
10
42.2
20
0
30
0
11
47.2
21
0
31
0
39
0
210
0
220
0
230
1
0
LINE
5
83
100
AcDbEntity
8
SK4
62
256
6
ByLayer
370
18
48
0.05
60
0
100
AcDbLine
10
-21
20
0
30
0
11
42.2
21
0
31
0
39
0
210
0
220
0
230
1
0
LINE
5
85
100
AcDbEntity
8
1
62
256
6
ByLayer
370
18
48
1
60
0
100
AcDbLine
10
0
20
2.25
30
0
11
0
21
-2.25
31
0
39
0
210
0
220
0
230
1
0
LINE
5
86
100
AcDbEntity
8
1
62
256
6
ByLayer
370
18
48
1
60
0
100
AcDbLine
10
36.534227
20
-1.837248
30
0
11
36.531173
21
-1.832766
31
0
39
0
210
0
220
0
230
1
0
LINE
5
87
100
AcDbEntity
8
1
62
256
6
ByLayer
370
18
48
1
60
0
100
AcDbLine
10
42.2
20
1.14
30
0
11
42.2
21
1.133678
31
0
39
0
210
0
220
0
230
1
0
LINE
5
88
100
AcDbEntity
8
1
62
256
6
ByLayer
370
18
48
1
60
0
100
AcDbLine
10
37.710651
20
2.047509
30
0
11
37.717455
21
2.043452
31
0
39
0
210
0
220
0
230
1
0
LINE
5
89
100
AcDbEntity
8
1
62
256
6
ByLayer
370
13
48
1
60
0
100
AcDbLine
10
34.027332
20
1.50591
30
0
11
34.027332
21
1.565937
31
0
39
0
210
0
220
0
230
1
0
LINE
5
8A
100
AcDbEntity
8
1
62
256
6
ByLayer
370
13
48
1
60
0
100
AcDbLine
10
33.777332
20
1.49895
30
0
11
33.777332
21
1.483544
31
0
39
0
210
0
220
0
230
1
0
LINE
5
8B
100
AcDbEntity
8
1
62
256
6
ByLayer
370
13
48
1
60
0
100
AcDbLine
10
21.043744
20
-1.49895
30
0
11
21.043744
21
1.49895
31
0
39
0
210
0
220
0
230
1
0
LINE
5
8C
100
AcDbEntity
8
1
62
256
6
ByLayer
370
13
48
1
60
0
100
AcDbLine
10
33.777332
20
-0.927409
30
0
11
33.777332
21
-0.043834
31
0
39
0
210
0
220
0
230
1
0
LINE
5
8D
100
AcDbEntity
8
1
62
256
6
ByLayer
370
13
48
1
60
0
100
AcDbLine
10
34.027332
20
-0.225661
30
0
11
34.027332
21
-1.124836
31
0
39
0
210
0
220
0
230
1
0
LINE
5
8E
100
AcDbEntity
8
1
62
256
6
ByLayer
370
18
48
1
60
0
100
AcDbLine
10
42.2
20
0.099572
30
0
11
42.2
21
-0.670666
31
0
39
0
210
0
220
0
230
1
0
LINE
5
8F
100
AcDbEntity
8
1
62
256
6
ByLayer
370
13
48
1
60
0
100
AcDbLine
10
20.95692
20
1.506546
30
0
11
20.95692
21
-1.506546
31
0
39
0
210
0
220
0
230
1
0
LINE
5
90
100
AcDbEntity
8
1
62
256
6
ByLayer
370
18
48
1
60
0
100
AcDbLine
10
16.740584
20
2.25
30
0
11
16.740584
21
-2.25
31
0
39
0
210
0
220
0
230
1
0
LINE
5
91
100
AcDbEntity
8
SK1
62
256
6
ByLayer
370
18
48
1
60
0
100
AcDbLine
10
-21
20
1.16
30
0
11
-21
21
-1.16
31
0
39
0
210
0
220
0
230
1
0
LINE
5
93
100
AcDbEntity
8
SK1
62
256
6
ByLayer
370
18
48
1
60
0
100
AcDbLine
10
-15
20
1.332516
30
0
11
-15
21
-1.332516
31
0
39
0
210
0
220
0
230
1
0
LINE
5
94
100
AcDbEntity
8
SK1
62
256
6
ByLayer
370
18
48
1
60
0
100
AcDbLine
10
-15
20
1.7
30
0
11
-14.54
21
2.16
31
0
39
0
210
0
220
0
230
1
0
LINE
5
95
100
AcDbEntity
8
SK1
62
256
6
ByLayer
370
18
48
1
60
0
100
AcDbLine
10
-20
20
1.7
30
0
11
-15
21
1.7
31
0
39
0
210
0
220
0
230
1
0
LINE
5
96
100
AcDbEntity
8
SK1
62
256
6
ByLayer
370
18
48
1
60
0
100
AcDbLine
10
-20
20
1.332516
30
0
11
-20
21
1.7
31
0
39
0
210
0
220
0
230
1
0
LINE
5
97
100
AcDbEntity
8
SK1
62
256
6
ByLayer
370
18
48
1
60
0
100
AcDbLine
10
-15
20
1.332516
30
0
11
-20
21
1.332516
31
0
39
0
210
0
220
0
230
1
0
LINE
5
98
100
AcDbEntity
8
SK1
62
256
6
ByLayer
370
18
48
1
60
0
100
AcDbLine
10
-20
20
-1.332516
30
0
11
-15
21
-1.332516
31
0
39
0
210
0
220
0
230
1
0
LINE
5
99
100
AcDbEntity
8
SK1
62
256
6
ByLayer
370
18
48
1
60
0
100
AcDbLine
10
-20
20
-1.7
30
0
11
-20
21
-1.332516
31
0
39
0
210
0
220
0
230
1
0
LINE
5
9A
100
AcDbEntity
8
SK1
62
256
6
ByLayer
370
18
48
1
60
0
100
AcDbLine
10
-15
20
-1.7
30
0
11
-20
21
-1.7
31
0
39
0
210
0
220
0
230
1
0
LINE
5
9B
100
AcDbEntity
8
SK1
62
256
6
ByLayer
370
18
48
1
60
0
100
AcDbLine
10
-15
20
-1.7
30
0
11
-14.54
21
-2.16
31
0
39
0
210
0
220
0
230
1
0
LINE
5
9C
100
AcDbEntity
8
SK1
62
256
6
ByLayer
370
18
48
1
60
0
100
AcDbLine
10
-14.4
20
2.16
30
0
11
-14.4
21
-2.16
31
0
39
0
210
0
220
0
230
1
0
LINE
5
9D
100
AcDbEntity
8
SK1
62
256
6
ByLayer
370
18
48
1
60
0
100
AcDbLine
10
0
20
2.25
30
0
11
0
21
-2.25
31
0
39
0
210
0
220
0
230
1
0
LINE
5
9E
100
AcDbEntity
8
SK1
62
256
6
ByLayer
370
18
48
1
60
0
100
AcDbLine
10
-14.31
20
-2.25
30
0
11
-14.31
21
2.25
31
0
39
0
210
0
220
0
230
1
0
LINE
5
9F
100
AcDbEntity
8
1
62
256
6
ByLayer
370
18
48
1
60
0
100
AcDbLine
10
16.740584
20
2.25
30
0
11
0
21
2.25
31
0
39
0
210
0
220
0
230
1
0
LINE
5
A0
100
AcDbEntity
8
1
62
256
6
ByLayer
370
18
48
1
60
0
100
AcDbLine
10
0
20
-2.25
30
0
11
16.740584
21
-2.25
31
0
39
0
210
0
220
0
230
1
0
LINE
5
A1
100
AcDbEntity
8
1
62
256
6
ByLayer
370
18
48
1
60
0
100
AcDbLine
10
42.2
20
1.14
30
0
11
42.033556
21
1.306444
31
0
39
0
210
0
220
0
230
1
0
LINE
5
A2
100
AcDbEntity
8
1
62
256
6
ByLayer
370
18
48
1
60
0
100
AcDbLine
10
37.77018
20
2.047508
30
0
11
37.710561
21
2.047508
31
0
39
0
210
0
220
0
230
1
0
LINE
5
A3
100
AcDbEntity
8
1
62
256
6
ByLayer
370
18
48
1
60
0
100
AcDbLine
10
36.660753
20
-2.047508
30
0
11
36.719743
21
-2.047508
31
0
39
0
210
0
220
0
230
1
0
LINE
5
A4
100
AcDbEntity
8
1
62
256
6
ByLayer
370
18
48
1
60
0
100
AcDbLine
10
38.470155
20
2.047508
30
0
11
38.410265
21
2.047508
31
0
39
0
210
0
220
0
230
1
0
LINE
5
A5
100
AcDbEntity
8
1
62
256
6
ByLayer
370
18
48
1
60
0
100
AcDbLine
10
34.415913
20
1.790285
30
0
11
34.027332
21
1.565937
31
0
39
0
210
0
220
0
230
1
0
LINE
5
A6
100
AcDbEntity
8
1
62
256
6
ByLayer
370
18
48
1
60
0
100
AcDbLine
10
35.960695
20
-2.047508
30
0
11
36.019969
21
-2.047508
31
0
39
0
210
0
220
0
230
1
0
LINE
5
A7
100
AcDbEntity
8
1
62
256
6
ByLayer
370
18
48
1
60
0
100
AcDbLine
10
39.169945
20
2.047508
30
0
11
39.110349
21
2.047508
31
0
39
0
210
0
220
0
230
1
0
LINE
5
A8
100
AcDbEntity
8
1
62
256
6
ByLayer
370
18
48
1
60
0
100
AcDbLine
10
21.043744
20
-1.49895
30
0
11
24.402431
21
-1.49895
31
0
39
0
210
0
220
0
230
1
0
LINE
5
A9
100
AcDbEntity
8
1
62
256
6
ByLayer
370
18
48
1
60
0
100
AcDbLine
10
27.079779
20
-1.49895
30
0
11
28.365371
21
-1.49895
31
0
39
0
210
0
220
0
230
1
0
LINE
5
AA
100
AcDbEntity
8
1
62
256
6
ByLayer
370
18
48
1
60
0
100
AcDbLine
10
31.350392
20
-1.49895
30
0
11
32.647511
21
-1.49895
31
0
39
0
210
0
220
0
230
1
0
LINE
5
AB
100
AcDbEntity
8
1
62
256
6
ByLayer
370
18
48
1
60
0
100
AcDbLine
10
33.777332
20
1.49895
30
0
11
33.484807
21
1.49895
31
0
39
0
210
0
220
0
230
1
0
LINE
5
AC
100
AcDbEntity
8
1
62
256
6
ByLayer
370
18
48
1
60
0
100
AcDbLine
10
30.50598
20
1.49895
30
0
11
29.214519
21
1.49895
31
0
39
0
210
0
220
0
230
1
0
LINE
5
AD
100
AcDbEntity
8
1
62
256
6
ByLayer
370
18
48
1
60
0
100
AcDbLine
10
26.225277
20
1.49895
30
0
11
21.043744
21
1.49895
31
0
39
0
210
0
220
0
230
1
0
LINE
5
AE
100
AcDbEntity
8
1
62
256
6
ByLayer
370
18
48
1
60
0
100
AcDbLine
10
20.95692
20
1.506546
30
0
11
16.740584
21
2.25
31
0
39
0
210
0
220
0
230
1
0
LINE
5
AF
100
AcDbEntity
8
1
62
256
6
ByLayer
370
18
48
1
60
0
100
AcDbLine
10
16.740584
20
-2.25
30
0
11
20.95692
21
-1.506546
31
0
39
0
210
0
220
0
230
1
0
LINE
5
B0
100
AcDbEntity
8
SK1
62
256
6
ByLayer
370
18
48
1
60
0
100
AcDbLine
10
-21
20
-1.16
30
0
11
-20.46
21
-1.7
31
0
39
0
210
0
220
0
230
1
0
LINE
5
B1
100
AcDbEntity
8
SK1
62
256
6
ByLayer
370
18
48
1
60
0
100
AcDbLine
10
-20.46
20
1.7
30
0
11
-21
21
1.16
31
0
39
0
210
0
220
0
230
1
0
LINE
5
B2
100
AcDbEntity
8
SK1
62
256
6
ByLayer
370
18
48
1
60
0
100
AcDbLine
10
-14.4
20
2.16
30
0
11
-14.54
21
2.16
31
0
39
0
210
0
220
0
230
1
0
LINE
5
B3
100
AcDbEntity
8
SK1
62
256
6
ByLayer
370
18
48
1
60
0
100
AcDbLine
10
-14.54
20
-2.16
30
0
11
-14.4
21
-2.16
31
0
39
0
210
0
220
0
230
1
0
LINE
5
B4
100
AcDbEntity
8
SK1
62
256
6
ByLayer
370
18
48
1
60
0
100
AcDbLine
10
-14.4
20
-2.16
30
0
11
-14.31
21
-2.25
31
0
39
0
210
0
220
0
230
1
0
LINE
5
B5
100
AcDbEntity
8
SK1
62
256
6
ByLayer
370
18
48
1
60
0
100
AcDbLine
10
-14.31
20
2.25
30
0
11
-14.4
21
2.16
31
0
39
0
210
0
220
0
230
1
0
LINE
5
B6
100
AcDbEntity
8
SK1
62
256
6
ByLayer
370
18
48
1
60
0
100
AcDbLine
10
0
20
2.25
30
0
11
-14.31
21
2.25
31
0
39
0
210
0
220
0
230
1
0
LINE
5
B7
100
AcDbEntity
8
SK1
62
256
6
ByLayer
370
18
48
1
60
0
100
AcDbLine
10
-14.31
20
-2.25
30
0
11
0
21
-2.25
31
0
39
0
210
0
220
0
230
1
0
LINE
5
B8
100
AcDbEntity
8
SK2
62
256
6
ByLayer
370
18
48
1
60
0
100
AcDbLine
10
9.215292
20
18.86497
30
0
11
9.215292
21
-9.75
31
0
39
0
210
0
220
0
230
1
0
LINE
5
BA
100
AcDbEntity
8
1
62
256
6
ByLayer
370
18
48
1
60
1
100
AcDbLine
10
9.215292
20
2.25
30
0
11
8.754508
21
5.749998
31
0
39
0
210
0
220
0
230
1
0
LINE
5
BB
100
AcDbEntity
8
1
62
256
6
ByLayer
370
18
48
1
60
1
100
AcDbLine
10
8.754508
20
5.749998
30
0
11
9.676076
21
5.750002
31
0
39
0
210
0
220
0
230
1
0
LINE
5
BC
100
AcDbEntity
8
1
62
256
6
ByLayer
370
18
48
1
60
1
100
AcDbLine
10
9.676076
20
5.750002
30
0
11
9.215292
21
2.25
31
0
39
0
210
0
220
0
230
1
0
LINE
5
BD
100
AcDbEntity
8
1
62
256
6
ByLayer
370
18
48
1
60
1
100
AcDbLine
10
9.215292
20
-2.25
30
0
11
9.676076
21
-5.749998
31
0
39
0
210
0
220
0
230
1
0
LINE
5
BE
100
AcDbEntity
8
1
62
256
6
ByLayer
370
18
48
1
60
1
100
AcDbLine
10
9.676076
20
-5.749998
30
0
11
8.754508
21
-5.750002
31
0
39
0
210
0
220
0
230
1
0
LINE
5
BF
100
AcDbEntity
8
1
62
256
6
ByLayer
370
18
48
1
60
1
100
AcDbLine
10
8.754508
20
-5.750002
30
0
11
9.215292
21
-2.25
31
0
39
0
210
0
220
0
230
1
0
LINE
5
C0
100
AcDbEntity
8
2
62
256
6
ByLayer
370
18
48
1
60
0
100
AcDbLine
10
42
20
-39.547508
30
0
11
-21
21
-39.547508
31
0
39
0
210
0
220
0
230
1
0
LINE
5
C2
100
AcDbEntity
8
2
62
256
6
ByLayer
370
18
48
1
60
0
100
AcDbLine
10
-21
20
-2.7475
30
0
11
-21
21
-41.547508
31
0
39
0
210
0
220
0
230
1
0
LINE
5
C3
100
AcDbEntity
8
2
62
256
6
ByLayer
370
18
48
1
60
0
100
AcDbLine
10
42
20
-3.635008
30
0
11
42
21
-41.547508
31
0
39
0
210
0
220
0
230
1
0
LINE
5
C4
100
AcDbEntity
8
1
62
256
6
ByLayer
370
18
48
1
60
1
100
AcDbLine
10
-21
20
-39.547508
30
0
11
-17.500002
21
-39.086724
31
0
39
0
210
0
220
0
230
1
0
LINE
5
C5
100
AcDbEntity
8
1
62
256
6
ByLayer
370
18
48
1
60
1
100
AcDbLine
10
-17.500002
20
-39.086724
30
0
11
-17.499998
21
-40.008291
31
0
39
0
210
0
220
0
230
1
0
LINE
5
C6
100
AcDbEntity
8
1
62
256
6
ByLayer
370
18
48
1
60
1
100
AcDbLine
10
-17.499998
20
-40.008291
30
0
11
-21
21
-39.547508
31
0
39
0
210
0
220
0
230
1
0
LINE
5
C7
100
AcDbEntity
8
1
62
256
6
ByLayer
370
18
48
1
60
1
100
AcDbLine
10
42
20
-39.547508
30
0
11
38.500002
21
-40.008291
31
0
39
0
210
0
220
0
230
1
0
LINE
5
C8
100
AcDbEntity
8
1
62
256
6
ByLayer
370
18
48
1
60
1
100
AcDbLine
10
38.500002
20
-40.008291
30
0
11
38.499998
21
-39.086724
31
0
39
0
210
0
220
0
230
1
0
LINE
5
C9
100
AcDbEntity
8
1
62
256
6
ByLayer
370
18
48
1
60
1
100
AcDbLine
10
38.499998
20
-39.086724
30
0
11
42
21
-39.547508
31
0
39
0
210
0
220
0
230
1
0
LINE
5
1B6
100
AcDbEntity
8
1
62
256
6
ByLayer
370
18
48
1
60
1
100
AcDbLine
10
9.215292
20
2.25
30
0
11
8.754508
21
5.749998
31
0
39
0
210
0
220
0
230
1
0
LINE
5
1B7
100
AcDbEntity
8
1
62
256
6
ByLayer
370
18
48
1
60
1
100
AcDbLine
10
8.754508
20
5.749998
30
0
11
9.676076
21
5.750002
31
0
39
0
210
0
220
0
230
1
0
LINE
5
1B8
100
AcDbEntity
8
1
62
256
6
ByLayer
370
18
48
1
60
1
100
AcDbLine
10
9.676076
20
5.750002
30
0
11
9.215292
21
2.25
31
0
39
0
210
0
220
0
230
1
0
LINE
5
1BA
100
AcDbEntity
8
1
62
256
6
ByLayer
370
18
48
1
60
1
100
AcDbLine
10
9.215292
20
-2.25
30
0
11
9.676076
21
-5.749998
31
0
39
0
210
0
220
0
230
1
0
LINE
5
1BB
100
AcDbEntity
8
1
62
256
6
ByLayer
370
18
48
1
60
1
100
AcDbLine
10
9.676076
20
-5.749998
30
0
11
8.754508
21
-5.750002
31
0
39
0
210
0
220
0
230
1
0
LINE
5
1BC
100
AcDbEntity
8
1
62
256
6
ByLayer
370
18
48
1
60
1
100
AcDbLine
10
8.754508
20
-5.750002
30
0
11
9.215292
21
-2.25
31
0
39
0
210
0
220
0
230
1
0
LINE
5
1BF
100
AcDbEntity
8
1
62
256
6
ByLayer
370
18
48
1
60
1
100
AcDbLine
10
-21
20
-39.547508
30
0
11
-17.500002
21
-39.086724
31
0
39
0
210
0
220
0
230
1
0
LINE
5
1C0
100
AcDbEntity
8
1
62
256
6
ByLayer
370
18
48
1
60
1
100
AcDbLine
10
-17.500002
20
-39.086724
30
0
11
-17.499998
21
-40.008291
31
0
39
0
210
0
220
0
230
1
0
LINE
5
1C1
100
AcDbEntity
8
1
62
256
6
ByLayer
370
18
48
1
60
1
100
AcDbLine
10
-17.499998
20
-40.008291
30
0
11
-21
21
-39.547508
31
0
39
0
210
0
220
0
230
1
0
LINE
5
1C3
100
AcDbEntity
8
1
62
256
6
ByLayer
370
18
48
1
60
1
100
AcDbLine
10
42
20
-39.547508
30
0
11
38.500002
21
-40.008291
31
0
39
0
210
0
220
0
230
1
0
LINE
5
1C4
100
AcDbEntity
8
1
62
256
6
ByLayer
370
18
48
1
60
1
100
AcDbLine
10
38.500002
20
-40.008291
30
0
11
38.499998
21
-39.086724
31
0
39
0
210
0
220
0
230
1
0
LINE
5
1C5
100
AcDbEntity
8
1
62
256
6
ByLayer
370
18
48
1
60
1
100
AcDbLine
10
38.499998
20
-39.086724
30
0
11
42
21
-39.547508
31
0
39
0
210
0
220
0
230
1
0
MTEXT
5
1B2
100
AcDbEntity
8
SK2
62
256
6
ByLayer
370
18
48
1
60
0
100
AcDbMText
10
7.874177
20
7.908437
30
0
210
0
220
0
230
1
1
%%c
40
3
41
0
44
1.084337
50
90
71
7
72
5
7
iso_b_vert
0
MTEXT
5
1B5
100
AcDbEntity
8
SK2
62
256
6
ByLayer
370
18
48
1
60
0
100
AcDbMText
10
7.874177
20
13.885
30
0
210
0
220
0
230
1
1
\W0.7610;4.5
40
3
41
0
44
1.084337
50
90
71
7
72
5
7
iso_b_vert
0
MTEXT
5
1BE
100
AcDbEntity
8
2
62
256
6
ByLayer
370
18
48
1
60
0
100
AcDbMText
10
8.867172
20
-38.662393
30
0
210
0
220
0
230
1
1
\W0.6740;63
40
3
41
0
44
1.084337
50
0
71
7
72
5
7
iso_b_vert
0
MTEXT
5
1C7
100
AcDbEntity
8
SK6
62
256
6
ByLayer
370
18
48
1
60
0
100
AcDbMText
10
-8.65243
20
-82.114886
30
0
210
0
220
0
230
1
1
\W0.7320;T300-XM100DA-M4     C110
40
3
41
0
44
1.084337
50
0
71
7
72
5
7
iso_b_vert
0
HATCH
5
1B9
100
AcDbEntity
8
SK2
62
256
6
ByLayer
370
13
48
1
60
0
100
AcDbHatch
10
0
20
0
30
0
210
0
220
0
230
1
2
ANSI31
70
0
71
0
91
1
92
5
93
3
72
1
10
9.21529189468805
20
2.25000000000003
11
8.75450815313528
21
5.74999830744684
72
1
10
8.75450815313528
20
5.74999830744684
11
9.67607563624082
21
5.75000169255321
72
1
10
9.67607563624082
20
5.75000169255321
11
9.21529189468805
21
2.25000000000003
97
0
75
0
76
1
52
0
41
0.0062
77
0
78
1
53
45
43
0
44
0
45
-0.0139193969876572
46
0.0139193969876572
79
0
47
0
98
1
10
0
20
0
0
HATCH
5
1BD
100
AcDbEntity
8
SK2
62
256
6
ByLayer
370
13
48
1
60
0
100
AcDbHatch
10
0
20
0
30
0
210
0
220
0
230
1
2
ANSI31
70
0
71
0
91
1
92
5
93
3
72
1
10
9.21529189468805
20
-2.24999999999997
11
9.67607563624082
21
-5.74999830744679
72
1
10
9.67607563624082
20
-5.74999830744679
11
8.75450815313528
21
-5.75000169255316
72
1
10
8.75450815313528
20
-5.75000169255316
11
9.21529189468805
21
-2.24999999999997
97
0
75
0
76
1
52
0
41
0.0062
77
0
78
1
53
45
43
0
44
0
45
-0.0139193969876572
46
0.0139193969876572
79
0
47
0
98
1
10
0
20
0
0
HATCH
5
1C2
100
AcDbEntity
8
2
62
256
6
ByLayer
370
13
48
1
60
0
100
AcDbHatch
10
0
20
0
30
0
210
0
220
0
230
1
2
ANSI31
70
0
71
0
91
1
92
5
93
3
72
1
10
-21
20
-39.5475076550227
11
-17.5000016925532
21
-39.08672391347
72
1
10
-17.5000016925532
20
-39.08672391347
11
-17.4999983074468
21
-40.0082913965755
72
1
10
-17.4999983074468
20
-40.0082913965755
11
-21
21
-39.5475076550227
97
0
75
0
76
1
52
0
41
0.0062
77
0
78
1
53
45
43
0
44
0
45
-0.0139193969876572
46
0.0139193969876572
79
0
47
0
98
1
10
0
20
0
0
HATCH
5
1C6
100
AcDbEntity
8
2
62
256
6
ByLayer
370
13
48
1
60
0
100
AcDbHatch
10
0
20
0
30
0
210
0
220
0
230
1
2
ANSI31
70
0
71
0
91
1
92
5
93
3
72
1
10
42
20
-39.5475076550227
11
38.5000016925532
21
-40.0082913965755
72
1
10
38.5000016925532
20
-40.0082913965755
11
38.4999983074468
21
-39.08672391347
72
1
10
38.4999983074468
20
-39.08672391347
11
42
21
-39.5475076550227
97
0
75
0
76
1
52
0
41
0.0062
77
0
78
1
53
45
43
0
44
0
45
-0.0139193969876572
46
0.0139193969876572
79
0
47
0
98
1
10
0
20
0
0
DIMENSION
5
1CA
100
AcDbEntity
8
2
62
256
6
ByLayer
370
18
48
1
60
0
100
AcDbDimension
2
_U0
10
60.712492
20
-2.047508
30
0
11
60.712492
21
19.547508
31
0
70
32
71
1
72
1
41
1
210
0
220
0
230
1
3
Standard
100
AcDbAlignedDimension
13
42
23
2.047508
33
0
14
42
24
-2.047508
34
0
50
90
100
AcDbRotatedDimension
1001
ACAD
1000
DSTYLE
1002
{
1070
   371
1070
    13
1070
   372
1070
    13
1070
     3
1000

1070
   170
1070
     0
1070
   144
1040
1.0
1070
   277
1070
     2
1070
   284
1070
     8
1070
   278
1070
    46
1070
   146
1040
1.166667
1070
   345
1005
16
1070
   347
1005
16
1070
   346
1005
16
1070
   344
1005
0
1070
   343
1005
0
1070
   172
1070
     1
1070
    76
1070
     0
1070
    75
1070
     0
1070
   282
1070
     0
1070
   281
1070
     0
1070
    71
1070
     0
1070
    74
1070
     0
1070
   279
1070
     0
1070
   173
1070
     1
1070
   340
1005
1B3
1070
   271
1070
     3
1070
   272
1070
     3
1070
    77
1070
     1
1070
    73
1070
     0
1070
   171
1070
     3
1070
   274
1070
     4
1070
   177
1070
     2
1070
   176
1070
     2
1070
   178
1070
     2
1070
    78
1070
     8
1070
    48
1040
-0.1
1070
    41
1040
3.5
1070
   147
1040
1.5
1070
    42
1040
1.5875
1070
    44
1040
2.0
1070
   140
1040
3.0
1002
}
1001
ACAD_DSTYLE_DIM_LINETYPE
1070
   380
1005
16
1001
ACAD_DSTYLE_DIM_EXT1_LINETYPE
1070
   381
1005
16
1001
ACAD_DSTYLE_DIM_EXT2_LINETYPE
1070
   382
1005
16
0
DIMENSION
5
1E5
100
AcDbEntity
8
SK2
62
256
6
ByLayer
370
18
48
1
60
0
100
AcDbDimension
2
_U1
10
40.08
20
11.145616
30
0
11
41.04
21
11.145616
31
0
70
32
71
1
72
1
41
1
210
0
220
0
230
1
3
Standard
100
AcDbAlignedDimension
13
42
23
2.047508
33
0
14
40.08
24
0
34
0
50
0
100
AcDbRotatedDimension
1001
ACAD
1000
DSTYLE
1002
{
1070
   371
1070
    13
1070
   372
1070
    13
1070
   170
1070
     0
1070
   144
1040
1.0
1070
   277
1070
     2
1070
   284
1070
     8
1070
   278
1070
    46
1070
   146
1040
1.166667
1070
   345
1005
16
1070
   347
1005
16
1070
   346
1005
16
1070
   344
1005
0
1070
   343
1005
0
1070
   172
1070
     1
1070
    76
1070
     0
1070
    75
1070
     0
1070
   282
1070
     0
1070
   281
1070
     0
1070
    71
1070
     0
1070
    74
1070
     0
1070
   279
1070
     0
1070
   173
1070
     1
1070
   340
1005
1B3
1070
   271
1070
     3
1070
   272
1070
     3
1070
    77
1070
     1
1070
    73
1070
     1
1070
   171
1070
     3
1070
   274
1070
     4
1070
   177
1070
     2
1070
   176
1070
     2
1070
   178
1070
     2
1070
    78
1070
     8
1070
    48
1040
-0.1
1070
    41
1040
3.5
1070
   147
1040
1.5
1070
    42
1040
1.5875
1070
    44
1040
2.0
1070
   140
1040
3.0
1002
}
1001
ACAD_DSTYLE_DIM_LINETYPE
1070
   380
1005
16
1001
ACAD_DSTYLE_DIM_EXT1_LINETYPE
1070
   381
1005
16
1001
ACAD_DSTYLE_DIM_EXT2_LINETYPE
1070
   382
1005
16
0
DIMENSION
5
1FF
100
AcDbEntity
8
SK2
62
256
6
ByLayer
370
18
48
1
60
0
100
AcDbDimension
2
_U2
10
35
20
-9.047508
30
0
11
54.5
21
-9.047508
31
0
70
32
71
1
72
1
41
1
210
0
220
0
230
1
3
Standard
100
AcDbAlignedDimension
13
42
23
-2.047508
33
0
14
35
24
-2.047508
34
0
50
0
100
AcDbRotatedDimension
1001
ACAD
1000
DSTYLE
1002
{
1070
   371
1070
    13
1070
   372
1070
    13
1070
   170
1070
     0
1070
   144
1040
1.0
1070
   277
1070
     2
1070
   284
1070
     8
1070
   278
1070
    46
1070
   146
1040
0.833333
1070
   345
1005
16
1070
   347
1005
16
1070
   346
1005
16
1070
   344
1005
0
1070
   343
1005
0
1070
   172
1070
     1
1070
    76
1070
     0
1070
    75
1070
     0
1070
   282
1070
     0
1070
   281
1070
     0
1070
    47
1040
0.5
1070
    72
1070
     0
1070
    71
1070
     1
1070
    74
1070
     0
1070
   279
1070
     0
1070
   173
1070
     1
1070
   340
1005
1B3
1070
   271
1070
     1
1070
   272
1070
     3
1070
    77
1070
     1
1070
    73
1070
     1
1070
   171
1070
     3
1070
   274
1070
     4
1070
   177
1070
     2
1070
   176
1070
     2
1070
   178
1070
     2
1070
    78
1070
     8
1070
    48
1040
0.5
1070
    41
1040
3.5
1070
   147
1040
1.5
1070
    42
1040
1.5875
1070
    44
1040
2.0
1070
   140
1040
3.0
1002
}
1001
ACAD_DSTYLE_DIM_LINETYPE
1070
   380
1005
16
1001
ACAD_DSTYLE_DIM_EXT1_LINETYPE
1070
   381
1005
16
1001
ACAD_DSTYLE_DIM_EXT2_LINETYPE
1070
   382
1005
16
0
DIMENSION
5
21A
100
AcDbEntity
8
SK2
62
256
6
ByLayer
370
18
48
1
60
0
100
AcDbDimension
2
_U3
10
21
20
-31.547508
30
0
11
31.5
21
-31.547508
31
0
70
32
71
1
72
1
41
1
210
0
220
0
230
1
3
Standard
100
AcDbAlignedDimension
13
42
23
-2.047508
33
0
14
21
24
-1.49895
34
0
50
0
100
AcDbRotatedDimension
1001
ACAD
1000
DSTYLE
1002
{
1070
   371
1070
    13
1070
   372
1070
    13
1070
   170
1070
     0
1070
   144
1040
1.0
1070
   277
1070
     2
1070
   284
1070
     8
1070
   278
1070
    46
1070
   146
1040
1.166667
1070
   345
1005
16
1070
   347
1005
16
1070
   346
1005
16
1070
   344
1005
0
1070
   343
1005
0
1070
   172
1070
     1
1070
    76
1070
     0
1070
    75
1070
     0
1070
   282
1070
     0
1070
   281
1070
     0
1070
    71
1070
     0
1070
    74
1070
     0
1070
   279
1070
     0
1070
   173
1070
     1
1070
   340
1005
1B3
1070
   271
1070
     1
1070
   272
1070
     3
1070
    77
1070
     1
1070
    73
1070
     1
1070
   171
1070
     3
1070
   274
1070
     4
1070
   177
1070
     2
1070
   176
1070
     2
1070
   178
1070
     2
1070
    78
1070
     8
1070
    48
1040
-0.1
1070
    41
1040
3.5
1070
   147
1040
1.5
1070
    42
1040
1.5875
1070
    44
1040
2.0
1070
   140
1040
3.0
1002
}
1001
ACAD_DSTYLE_DIM_LINETYPE
1070
   380
1005
16
1001
ACAD_DSTYLE_DIM_EXT1_LINETYPE
1070
   381
1005
16
1001
ACAD_DSTYLE_DIM_EXT2_LINETYPE
1070
   382
1005
16
0
DIMENSION
5
232
100
AcDbEntity
8
2
62
256
6
ByLayer
370
18
48
1
60
0
100
AcDbDimension
2
_U4
10
24.15
20
-20.547508
30
0
11
33.075
21
-20.547508
31
0
70
32
71
1
72
1
41
1
210
0
220
0
230
1
3
Standard
100
AcDbAlignedDimension
13
42
23
-2.047508
33
0
14
24.15
24
0
34
0
50
0
100
AcDbRotatedDimension
1001
ACAD
1000
DSTYLE
1002
{
1070
   371
1070
    13
1070
   372
1070
    13
1070
   170
1070
     0
1070
   144
1040
1.0
1070
   277
1070
     2
1070
   284
1070
     8
1070
   278
1070
    46
1070
   146
1040
1.166667
1070
   345
1005
16
1070
   347
1005
16
1070
   346
1005
16
1070
   344
1005
0
1070
   343
1005
0
1070
   172
1070
     1
1070
    76
1070
     0
1070
    75
1070
     0
1070
   282
1070
     0
1070
   281
1070
     0
1070
    71
1070
     0
1070
    74
1070
     0
1070
   279
1070
     0
1070
   173
1070
     1
1070
   340
1005
1B3
1070
   271
1070
     1
1070
   272
1070
     3
1070
    77
1070
     1
1070
    73
1070
     1
1070
   171
1070
     3
1070
   274
1070
     4
1070
   177
1070
     2
1070
   176
1070
     2
1070
   178
1070
     2
1070
    78
1070
     8
1070
    48
1040
-0.1
1070
    41
1040
3.5
1070
   147
1040
1.5
1070
    42
1040
1.5875
1070
    44
1040
2.0
1070
   140
1040
3.0
1002
}
1001
ACAD_DSTYLE_DIM_LINETYPE
1070
   380
1005
16
1001
ACAD_DSTYLE_DIM_EXT1_LINETYPE
1070
   381
1005
16
1001
ACAD_DSTYLE_DIM_EXT2_LINETYPE
1070
   382
1005
16
0
ENDSEC
0
SECTION
2
OBJECTS
0
DICTIONARY
5
2ba
330
0
100
AcDbDictionary
280
0
281
1
3
ACAD_GROUP
350
2bb
3
ACAD_MLINESTYLE
350
2bc
0
DICTIONARY
5
2bb
330
0
100
AcDbDictionary
280
0
281
1
0
DICTIONARY
5
2bc
330
0
100
AcDbDictionary
280
0
281
1
3
Standard
350
18
0
MLINESTYLE
5
18
330
2bc
100
AcDbMlineStyle
2
Standard
70
0
3

62
256
51
90
52
90
71
2
49
-0.5
62
256
6
ByLayer
49
0.5
62
256
6
ByLayer
0
RASTERVARIABLES
5
2a8
330

100
AcDbRasterVariables
90
0
70
1
71
1
72
1
0
ENDSEC
0
EOF
