0
SECTION
2
HEADER
9
$ACADVER
1
AC1015
9
$DWGCODEPAGE
3
ANSI_1252
9
$HANDSEED
5
33e
9
$ANGBASE
50
0
9
$ANGDIR
70
0
9
$ATTMODE
70
1
9
$AUNITS
70
0
9
$AUPREC
70
0
9
$CECOLOR
62
256
9
$CELTSCALE
40
1
9
$CELTYPE
6
ByLayer
9
$CELWEIGHT
370
18
9
$CLAYER
8
0
9
$CMLJUST
70
0
9
$CMLSCALE
40
1
9
$CMLSTYLE
2
Standard
9
$DIMSTYLE
2
Standard
9
$TEXTSIZE
40
0.2
9
$TEXTSTYLE
7
Standard
9
$LUNITS
70
2
9
$LUPREC
70
4
9
$EXTNAMES
290
1
9
$INSUNITS
70
4
9
$LTSCALE
40
1
9
$LWDISPLAY
290
1
9
$PDMODE
70
0
9
$PDSIZE
40
0
9
$PLINEGEN
70
0
0
ENDSEC
0
SECTION
2
CLASSES
0
CLASS
1
RASTERVARIABLES
2
AcDbRasterVariables
3
ISM
90
0
280
0
281
0
0
ENDSEC
0
SECTION
2
TABLES
0
TABLE
2
VPORT
5
334
100
AcDbSymbolTable
0
VPORT
5
1
100
AcDbSymbolTableRecord
100
AcDbViewportTableRecord
2
*Active
70
0
10
0
20
0
11
1
21
1
12
-1
22
1
13
0
23
0
14
0.5
24
0.5
15
10
25
10
16
0
26
0
36
1
17
0
27
0
37
0
0
ENDTAB
0
TABLE
2
LTYPE
5
335
100
AcDbSymbolTable
0
LTYPE
5
14
100
AcDbSymbolTableRecord
100
AcDbLinetypeTableRecord
70
0
2
ByBlock
3

72
65
73
0
40
0
0
LTYPE
5
15
100
AcDbSymbolTableRecord
100
AcDbLinetypeTableRecord
70
0
2
ByLayer
3

72
65
73
0
40
0
0
LTYPE
5
16
100
AcDbSymbolTableRecord
100
AcDbLinetypeTableRecord
70
0
2
Continuous
3
Solid line
72
65
73
0
40
0
0
LTYPE
5
6E
100
AcDbSymbolTableRecord
100
AcDbLinetypeTableRecord
70
0
2
CENTER
3
____ _ ____ _ ____ _ ____
72
65
73
4
40
47.5
49
22
74
0
49
-8.5
74
0
49
8.5
74
0
49
-8.5
74
0
0
LTYPE
5
6F
100
AcDbSymbolTableRecord
100
AcDbLinetypeTableRecord
70
0
2
DASHED
3
__ __ __ __ __ __ __ __ __
72
65
73
2
40
25.72
49
12.86
74
0
49
-12.86
74
0
0
ENDTAB
0
TABLE
2
LAYER
5
336
100
AcDbSymbolTable
0
LAYER
5
10
100
AcDbSymbolTableRecord
100
AcDbLayerTableRecord
2
0
70
0
62
7
6
Continuous
290
1
370
-3
390
0
0
LAYER
5
71
100
AcDbSymbolTableRecord
100
AcDbLayerTableRecord
2
81
70
0
62
-3
6
Continuous
290
1
370
-3
390
0
0
LAYER
5
73
100
AcDbSymbolTableRecord
100
AcDbLayerTableRecord
2
80
70
0
62
-6
6
Continuous
290
1
370
-3
390
0
0
LAYER
5
75
100
AcDbSymbolTableRecord
100
AcDbLayerTableRecord
2
1
70
0
62
4
6
Continuous
290
1
370
-3
390
0
0
LAYER
5
82
100
AcDbSymbolTableRecord
100
AcDbLayerTableRecord
2
4
70
0
62
-2
6
CENTER
290
1
370
-3
390
0
0
LAYER
5
CA
100
AcDbSymbolTableRecord
100
AcDbLayerTableRecord
2
2
70
0
62
7
6
Continuous
290
1
370
-3
390
0
0
LAYER
5
243
100
AcDbSymbolTableRecord
100
AcDbLayerTableRecord
2
Defpoints
70
0
62
7
6
Continuous
290
0
370
-3
390
0
0
LAYER
5
320
100
AcDbSymbolTableRecord
100
AcDbLayerTableRecord
2
SK4
70
0
62
2
6
CENTER
290
1
370
-3
390
0
0
LAYER
5
321
100
AcDbSymbolTableRecord
100
AcDbLayerTableRecord
2
SK1
70
0
62
4
6
Continuous
290
1
370
-3
390
0
0
LAYER
5
322
100
AcDbSymbolTableRecord
100
AcDbLayerTableRecord
2
SK2
70
0
62
7
6
Continuous
290
1
370
-3
390
0
0
LAYER
5
323
100
AcDbSymbolTableRecord
100
AcDbLayerTableRecord
2
SK6
70
0
62
5
6
Continuous
290
1
370
-3
390
0
0
ENDTAB
0
TABLE
2
STYLE
5
337
100
AcDbSymbolTable
0
STYLE
5
11
100
AcDbSymbolTableRecord
100
AcDbTextStyleTableRecord
2
Standard
3
txt
70
0
71
0
40
0
41
1
42
0
50
0
0
STYLE
5
229
100
AcDbSymbolTableRecord
100
AcDbTextStyleTableRecord
2
iso_b_vert
3
simplex.shx
70
0
71
0
40
0
41
1
42
0
50
0
0
STYLE
5
22A
100
AcDbSymbolTableRecord
100
AcDbTextStyleTableRecord
2
DWGDirectTextStyle
3
simplex
70
0
71
0
40
0
41
1
42
0
50
0
0
ENDTAB
0
TABLE
2
DIMSTYLE
5
338
100
AcDbSymbolTable
100
AcDbDimStyleTable
0
DIMSTYLE
105
27
100
AcDbSymbolTableRecord
100
AcDbDimStyleTableRecord
2
Standard
70
0
3
<>
41
0.18
42
0.0625
44
0.18
140
0.18
147
0.09
73
0
74
0
77
1
271
2
275
0
278
52
280
0
340
11
0
ENDTAB
0
TABLE
2
VIEW
5
339
100
AcDbSymbolTable
0
ENDTAB
0
TABLE
2
UCS
5
33a
100
AcDbSymbolTable
0
ENDTAB
0
TABLE
2
APPID
5
33b
100
AcDbSymbolTable
0
APPID
5
12
100
AcDbSymbolTableRecord
100
AcDbRegAppTableRecord
2
ACAD
70
0
0
APPID
5
23F
100
AcDbSymbolTableRecord
100
AcDbRegAppTableRecord
2
ACAD_DSTYLE_DIMBREAK
70
0
0
APPID
5
2DF
100
AcDbSymbolTableRecord
100
AcDbRegAppTableRecord
2
ACAD_DSTYLE_DIM_LINETYPE
70
0
0
APPID
5
2E0
100
AcDbSymbolTableRecord
100
AcDbRegAppTableRecord
2
ACAD_DSTYLE_DIM_EXT1_LINETYPE
70
0
0
APPID
5
2E1
100
AcDbSymbolTableRecord
100
AcDbRegAppTableRecord
2
ACAD_DSTYLE_DIM_EXT2_LINETYPE
70
0
0
APPID
5
31C
100
AcDbSymbolTableRecord
100
AcDbRegAppTableRecord
2
ACAD_MLEADERVER
70
0
0
ENDTAB
0
TABLE
2
BLOCK_RECORD
5
33c
100
AcDbSymbolTable
0
BLOCK_RECORD
5
1F
100
AcDbSymbolTableRecord
100
AcDbBlockTableRecord
2
*Model_Space
340
0
70
0
0
BLOCK_RECORD
5
1B
100
AcDbSymbolTableRecord
100
AcDbBlockTableRecord
2
*Paper_Space
340
0
70
0
0
BLOCK_RECORD
5
23
100
AcDbSymbolTableRecord
100
AcDbBlockTableRecord
2
*Paper_Space0
340
0
70
0
0
BLOCK_RECORD
5
244
100
AcDbSymbolTableRecord
100
AcDbBlockTableRecord
2
*D1
340
0
70
0
0
BLOCK_RECORD
5
252
100
AcDbSymbolTableRecord
100
AcDbBlockTableRecord
2
_U0
340
0
70
0
0
BLOCK_RECORD
5
25E
100
AcDbSymbolTableRecord
100
AcDbBlockTableRecord
2
*D3
340
0
70
0
0
BLOCK_RECORD
5
26B
100
AcDbSymbolTableRecord
100
AcDbBlockTableRecord
2
_U1
340
0
70
0
0
BLOCK_RECORD
5
278
100
AcDbSymbolTableRecord
100
AcDbBlockTableRecord
2
*D5
340
0
70
0
0
BLOCK_RECORD
5
286
100
AcDbSymbolTableRecord
100
AcDbBlockTableRecord
2
_U2
340
0
70
0
0
BLOCK_RECORD
5
293
100
AcDbSymbolTableRecord
100
AcDbBlockTableRecord
2
*D7
340
0
70
0
0
BLOCK_RECORD
5
29F
100
AcDbSymbolTableRecord
100
AcDbBlockTableRecord
2
_U3
340
0
70
0
0
BLOCK_RECORD
5
2AB
100
AcDbSymbolTableRecord
100
AcDbBlockTableRecord
2
*D9
340
0
70
0
0
BLOCK_RECORD
5
2B8
100
AcDbSymbolTableRecord
100
AcDbBlockTableRecord
2
_U4
340
0
70
0
0
ENDTAB
0
ENDSEC
0
SECTION
2
BLOCKS
0
BLOCK
5
20
100
AcDbEntity
8
0
100
AcDbBlockBegin
2
*Model_Space
70
0
10
0
20
0
30
0
3
*Model_Space
0
ENDBLK
5
21
100
AcDbEntity
8
0
100
AcDbBlockEnd
0
BLOCK
5
1C
100
AcDbEntity
8
0
100
AcDbBlockBegin
2
*Paper_Space
70
0
10
0
20
0
30
0
3
*Paper_Space
0
ENDBLK
5
1D
100
AcDbEntity
8
0
100
AcDbBlockEnd
0
BLOCK
5
24
100
AcDbEntity
8
0
100
AcDbBlockBegin
2
*Paper_Space0
70
0
10
0
20
0
30
0
3
*Paper_Space0
0
ENDBLK
5
25
100
AcDbEntity
8
0
100
AcDbBlockEnd
0
BLOCK
5
245
100
AcDbEntity
8
0
100
AcDbBlockBegin
2
*D1
70
1
10
0
20
0
30
0
3
*D1
0
LINE
5
247
100
AcDbEntity
8
0
62
256
6
ByLayer
370
-2
48
1
60
0
100
AcDbLine
10
36.5875
20
1.540348
30
0
11
55.844652
21
1.540348
31
0
39
0
210
0
220
0
230
1
0
LINE
5
248
100
AcDbEntity
8
0
62
256
6
ByLayer
370
-2
48
1
60
0
100
AcDbLine
10
36.5875
20
-1.540348
30
0
11
55.844652
21
-1.540348
31
0
39
0
210
0
220
0
230
1
0
LINE
5
249
100
AcDbEntity
8
0
62
256
6
ByLayer
370
-2
48
1
60
0
100
AcDbLine
10
53.844652
20
1.540348
30
0
11
53.844652
21
28.683205
31
0
39
0
210
0
220
0
230
1
0
LINE
5
24A
100
AcDbEntity
8
0
62
256
6
ByLayer
370
-2
48
1
60
0
100
AcDbLine
10
53.844652
20
5.040348
30
0
11
53.844652
21
8.540348
31
0
39
0
210
0
220
0
230
1
0
LINE
5
24B
100
AcDbEntity
8
0
62
256
6
ByLayer
370
-2
48
1
60
0
100
AcDbLine
10
53.844652
20
-5.040348
30
0
11
53.844652
21
-8.540348
31
0
39
0
210
0
220
0
230
1
0
SOLID
5
24C
100
AcDbEntity
8
0
62
256
6
ByLayer
370
-1
48
1
60
0
100
AcDbTrace
10
53.261319
20
5.040348
30
0
11
54.427986
21
5.040348
31
0
12
53.844652
22
1.540348
32
0
13
53.844652
23
1.540348
33
0
39
0
210
0
220
0
230
1
0
SOLID
5
24D
100
AcDbEntity
8
0
62
256
6
ByLayer
370
-1
48
1
60
0
100
AcDbTrace
10
54.427986
20
-5.040348
30
0
11
53.261319
21
-5.040348
31
0
12
53.844652
22
-1.540348
32
0
13
53.844652
23
-1.540348
33
0
39
0
210
0
220
0
230
1
0
MTEXT
5
24E
100
AcDbEntity
8
0
62
256
6
ByLayer
370
18
48
1
60
0
100
AcDbMText
10
47.844652
20
18.611776
30
0
210
0
220
0
230
1
1
\A1;3.081
40
3
41
0
44
1
50
90
71
5
72
5
7
iso_b_vert
0
POINT
5
24F
100
AcDbEntity
8
Defpoints
62
0
6
ByLayer
370
-1
48
1
60
0
100
AcDbPoint
10
35
20
1.540348
30
0
39
0
210
0
220
0
230
1
50
360
0
POINT
5
250
100
AcDbEntity
8
Defpoints
62
0
6
ByLayer
370
-1
48
1
60
0
100
AcDbPoint
10
35
20
-1.540348
30
0
39
0
210
0
220
0
230
1
50
360
0
POINT
5
251
100
AcDbEntity
8
Defpoints
62
0
6
ByLayer
370
-1
48
1
60
0
100
AcDbPoint
10
53.844652
20
-1.540348
30
0
39
0
210
0
220
0
230
1
50
360
0
ENDBLK
5
246
100
AcDbEntity
8
0
100
AcDbBlockEnd
0
BLOCK
5
259
100
AcDbEntity
8
0
100
AcDbBlockBegin
2
_U0
70
0
10
0
20
0
30
0
3
_U0
0
MTEXT
5
253
100
AcDbEntity
8
2
62
256
6
ByLayer
370
18
48
1
60
0
100
AcDbMText
10
53.253538
20
11.675348
30
0
210
0
220
0
230
1
1
\W0.7203;M3
40
3
41
0
44
1.084337
50
90
71
7
72
5
7
iso_b_vert
0
LINE
5
254
100
AcDbEntity
8
2
62
256
6
ByLayer
370
13
48
1
60
0
100
AcDbLine
10
36.5875
20
1.540348
30
0
11
55.844652
21
1.540348
31
0
39
0
210
0
220
0
230
1
0
LINE
5
255
100
AcDbEntity
8
2
62
256
6
ByLayer
370
13
48
1
60
0
100
AcDbLine
10
36.5875
20
-1.540348
30
0
11
55.844652
21
-1.540348
31
0
39
0
210
0
220
0
230
1
0
LINE
5
256
100
AcDbEntity
8
2
62
256
6
ByLayer
370
13
48
1
60
0
100
AcDbLine
10
53.844652
20
-9.040348
30
0
11
53.844652
21
15.795147
31
0
39
0
210
0
220
0
230
1
0
SOLID
5
257
100
AcDbEntity
8
2
62
256
6
ByLayer
370
18
48
1
60
0
100
AcDbTrace
10
53.844652
20
1.540348
30
0
11
53.383869
21
5.040346
31
0
12
54.305436
22
5.040349
32
0
13
54.305436
23
5.040349
33
0
39
0
210
0
220
0
230
1
0
SOLID
5
258
100
AcDbEntity
8
2
62
256
6
ByLayer
370
18
48
1
60
0
100
AcDbTrace
10
53.844652
20
-1.540348
30
0
11
54.305436
21
-5.040346
31
0
12
53.383869
22
-5.040349
32
0
13
53.383869
23
-5.040349
33
0
39
0
210
0
220
0
230
1
0
ENDBLK
5
25A
100
AcDbEntity
8
0
100
AcDbBlockEnd
0
BLOCK
5
25F
100
AcDbEntity
8
0
100
AcDbBlockBegin
2
*D3
70
1
10
0
20
0
30
0
3
*D3
0
LINE
5
261
100
AcDbEntity
8
0
62
256
6
ByLayer
370
-2
48
1
60
0
100
AcDbLine
10
35
20
3.127848
30
0
11
35
21
12.6
31
0
39
0
210
0
220
0
230
1
0
LINE
5
262
100
AcDbEntity
8
0
62
256
6
ByLayer
370
-2
48
1
60
0
100
AcDbLine
10
33.62
20
1.5875
30
0
11
33.62
21
12.6
31
0
39
0
210
0
220
0
230
1
0
LINE
5
263
100
AcDbEntity
8
0
62
256
6
ByLayer
370
-2
48
1
60
0
100
AcDbLine
10
38.5
20
10.6
30
0
11
42
21
10.6
31
0
39
0
210
0
220
0
230
1
0
LINE
5
264
100
AcDbEntity
8
0
62
256
6
ByLayer
370
-2
48
1
60
0
100
AcDbLine
10
30.12
20
10.6
30
0
11
26.62
21
10.6
31
0
39
0
210
0
220
0
230
1
0
SOLID
5
265
100
AcDbEntity
8
0
62
256
6
ByLayer
370
-1
48
1
60
0
100
AcDbTrace
10
38.5
20
11.183333
30
0
11
38.5
21
10.016667
31
0
12
35
22
10.6
32
0
13
35
23
10.6
33
0
39
0
210
0
220
0
230
1
0
SOLID
5
266
100
AcDbEntity
8
0
62
256
6
ByLayer
370
-1
48
1
60
0
100
AcDbTrace
10
30.12
20
10.016667
30
0
11
30.12
21
11.183333
31
0
12
33.62
22
10.6
32
0
13
33.62
23
10.6
33
0
39
0
210
0
220
0
230
1
0
MTEXT
5
267
100
AcDbEntity
8
0
62
256
6
ByLayer
370
18
48
1
60
0
100
AcDbMText
10
34.31
20
16.6
30
0
210
0
220
0
230
1
1
\A1;1.38
40
3
41
0
44
1
50
0
71
5
72
5
7
iso_b_vert
0
POINT
5
268
100
AcDbEntity
8
Defpoints
62
0
6
ByLayer
370
-1
48
1
60
0
100
AcDbPoint
10
35
20
1.540348
30
0
39
0
210
0
220
0
230
1
50
360
0
POINT
5
269
100
AcDbEntity
8
Defpoints
62
0
6
ByLayer
370
-1
48
1
60
0
100
AcDbPoint
10
33.62
20
0
30
0
39
0
210
0
220
0
230
1
50
360
0
POINT
5
26A
100
AcDbEntity
8
Defpoints
62
0
6
ByLayer
370
-1
48
1
60
0
100
AcDbPoint
10
33.62
20
10.6
30
0
39
0
210
0
220
0
230
1
50
360
0
ENDBLK
5
260
100
AcDbEntity
8
0
100
AcDbBlockEnd
0
BLOCK
5
273
100
AcDbEntity
8
0
100
AcDbBlockBegin
2
_U1
70
0
10
0
20
0
30
0
3
_U1
0
MTEXT
5
26C
100
AcDbEntity
8
SK2
62
256
6
ByLayer
370
18
48
1
60
0
100
AcDbMText
10
31.349986
20
11.382634
30
0
210
0
220
0
230
1
1
\W0.6474;'C'
40
3.5
41
0
44
1.084337
50
0
71
7
72
5
7
iso_b_vert
0
MTEXT
5
26D
100
AcDbEntity
8
SK2
62
256
6
ByLayer
370
18
48
1
60
0
100
AcDbMText
10
31.323486
20
18.485114
30
0
210
0
220
0
230
1
1
\W0.6563;1.38
40
3
41
0
44
1.084337
50
0
71
7
72
5
7
iso_b_vert
0
LINE
5
26E
100
AcDbEntity
8
SK2
62
256
6
ByLayer
370
13
48
1
60
0
100
AcDbLine
10
35
20
3.127848
30
0
11
35
21
12.6
31
0
39
0
210
0
220
0
230
1
0
LINE
5
26F
100
AcDbEntity
8
SK2
62
256
6
ByLayer
370
13
48
1
60
0
100
AcDbLine
10
33.62
20
1.5875
30
0
11
33.62
21
12.6
31
0
39
0
210
0
220
0
230
1
0
LINE
5
270
100
AcDbEntity
8
SK2
62
256
6
ByLayer
370
13
48
1
60
0
100
AcDbLine
10
42.5
20
10.6
30
0
11
26.12
21
10.6
31
0
39
0
210
0
220
0
230
1
0
SOLID
5
271
100
AcDbEntity
8
SK2
62
256
6
ByLayer
370
18
48
1
60
0
100
AcDbTrace
10
35
20
10.6
30
0
11
38.499998
21
11.060784
31
0
12
38.500002
22
10.139216
32
0
13
38.500002
23
10.139216
33
0
39
0
210
0
220
0
230
1
0
SOLID
5
272
100
AcDbEntity
8
SK2
62
256
6
ByLayer
370
18
48
1
60
0
100
AcDbTrace
10
33.62
20
10.6
30
0
11
30.120002
21
10.139216
31
0
12
30.119998
22
11.060784
32
0
13
30.119998
23
11.060784
33
0
39
0
210
0
220
0
230
1
0
ENDBLK
5
274
100
AcDbEntity
8
0
100
AcDbBlockEnd
0
BLOCK
5
279
100
AcDbEntity
8
0
100
AcDbBlockBegin
2
*D5
70
1
10
0
20
0
30
0
3
*D5
0
LINE
5
27B
100
AcDbEntity
8
0
62
256
6
ByLayer
370
-2
48
1
60
0
100
AcDbLine
10
35
20
-3.127848
30
0
11
35
21
-10.540348
31
0
39
0
210
0
220
0
230
1
0
LINE
5
27C
100
AcDbEntity
8
0
62
256
6
ByLayer
370
-2
48
1
60
0
100
AcDbLine
10
29
20
-3.127848
30
0
11
29
21
-10.540348
31
0
39
0
210
0
220
0
230
1
0
LINE
5
27D
100
AcDbEntity
8
0
62
256
6
ByLayer
370
-2
48
1
60
0
100
AcDbLine
10
35
20
-8.540348
30
0
11
52.857143
21
-8.540348
31
0
39
0
210
0
220
0
230
1
0
LINE
5
27E
100
AcDbEntity
8
0
62
256
6
ByLayer
370
-2
48
1
60
0
100
AcDbLine
10
38.5
20
-8.540348
30
0
11
42
21
-8.540348
31
0
39
0
210
0
220
0
230
1
0
LINE
5
27F
100
AcDbEntity
8
0
62
256
6
ByLayer
370
-2
48
1
60
0
100
AcDbLine
10
25.5
20
-8.540348
30
0
11
22
21
-8.540348
31
0
39
0
210
0
220
0
230
1
0
SOLID
5
280
100
AcDbEntity
8
0
62
256
6
ByLayer
370
-1
48
1
60
0
100
AcDbTrace
10
38.5
20
-7.957014
30
0
11
38.5
21
-9.123681
31
0
12
35
22
-8.540348
32
0
13
35
23
-8.540348
33
0
39
0
210
0
220
0
230
1
0
SOLID
5
281
100
AcDbEntity
8
0
62
256
6
ByLayer
370
-1
48
1
60
0
100
AcDbTrace
10
25.5
20
-9.123681
30
0
11
25.5
21
-7.957014
31
0
12
29
22
-8.540348
32
0
13
29
23
-8.540348
33
0
39
0
210
0
220
0
230
1
0
MTEXT
5
282
100
AcDbEntity
8
0
62
256
6
ByLayer
370
18
48
1
60
0
100
AcDbMText
10
47.428571
20
-2.540348
30
0
210
0
220
0
230
1
1
\A1;6
40
3
41
0
44
1
50
0
71
5
72
5
7
iso_b_vert
0
POINT
5
283
100
AcDbEntity
8
Defpoints
62
0
6
ByLayer
370
-1
48
1
60
0
100
AcDbPoint
10
35
20
-1.540348
30
0
39
0
210
0
220
0
230
1
50
360
0
POINT
5
284
100
AcDbEntity
8
Defpoints
62
0
6
ByLayer
370
-1
48
1
60
0
100
AcDbPoint
10
29
20
-1.540348
30
0
39
0
210
0
220
0
230
1
50
360
0
POINT
5
285
100
AcDbEntity
8
Defpoints
62
0
6
ByLayer
370
-1
48
1
60
0
100
AcDbPoint
10
29
20
-8.540348
30
0
39
0
210
0
220
0
230
1
50
360
0
ENDBLK
5
27A
100
AcDbEntity
8
0
100
AcDbBlockEnd
0
BLOCK
5
28E
100
AcDbEntity
8
0
100
AcDbBlockBegin
2
_U2
70
0
10
0
20
0
30
0
3
_U2
0
MTEXT
5
287
100
AcDbEntity
8
SK2
62
256
6
ByLayer
370
18
48
1
60
0
100
AcDbMText
10
41.159
20
-7.655233
30
0
210
0
220
0
230
1
1
\W0.5404;6
40
3
41
0
44
1.084337
50
0
71
7
72
5
7
iso_b_vert
0
MTEXT
5
288
100
AcDbEntity
8
SK2
62
256
6
ByLayer
370
18
48
1
60
0
100
AcDbMText
10
44.974328
20
-7.302752
30
0
210
0
220
0
230
1
1
\W0.8315;\W0.4158;%%p\W0.8315;0.5
40
2.5
41
0
44
1.084337
50
0
71
7
72
5
7
iso_b_vert
0
LINE
5
289
100
AcDbEntity
8
SK2
62
256
6
ByLayer
370
13
48
1
60
0
100
AcDbLine
10
35
20
-3.127848
30
0
11
35
21
-10.540348
31
0
39
0
210
0
220
0
230
1
0
LINE
5
28A
100
AcDbEntity
8
SK2
62
256
6
ByLayer
370
13
48
1
60
0
100
AcDbLine
10
29
20
-3.127848
30
0
11
29
21
-10.540348
31
0
39
0
210
0
220
0
230
1
0
LINE
5
28B
100
AcDbEntity
8
SK2
62
256
6
ByLayer
370
13
48
1
60
0
100
AcDbLine
10
21.5
20
-8.540348
30
0
11
52.091065
21
-8.540348
31
0
39
0
210
0
220
0
230
1
0
SOLID
5
28C
100
AcDbEntity
8
SK2
62
256
6
ByLayer
370
18
48
1
60
0
100
AcDbTrace
10
35
20
-8.540348
30
0
11
38.499998
21
-8.079564
31
0
12
38.500002
22
-9.001131
32
0
13
38.500002
23
-9.001131
33
0
39
0
210
0
220
0
230
1
0
SOLID
5
28D
100
AcDbEntity
8
SK2
62
256
6
ByLayer
370
18
48
1
60
0
100
AcDbTrace
10
29
20
-8.540348
30
0
11
25.500002
21
-9.001131
31
0
12
25.499998
22
-8.079564
32
0
13
25.499998
23
-8.079564
33
0
39
0
210
0
220
0
230
1
0
ENDBLK
5
28F
100
AcDbEntity
8
0
100
AcDbBlockEnd
0
BLOCK
5
294
100
AcDbEntity
8
0
100
AcDbBlockBegin
2
*D7
70
1
10
0
20
0
30
0
3
*D7
0
LINE
5
296
100
AcDbEntity
8
0
62
256
6
ByLayer
370
-2
48
1
60
0
100
AcDbLine
10
35
20
-3.127848
30
0
11
35
21
-33.040348
31
0
39
0
210
0
220
0
230
1
0
LINE
5
297
100
AcDbEntity
8
0
62
256
6
ByLayer
370
-2
48
1
60
0
100
AcDbLine
10
17
20
-2.73105
30
0
11
17
21
-33.040348
31
0
39
0
210
0
220
0
230
1
0
LINE
5
298
100
AcDbEntity
8
0
62
256
6
ByLayer
370
-2
48
1
60
0
100
AcDbLine
10
31.5
20
-31.040348
30
0
11
20.5
21
-31.040348
31
0
39
0
210
0
220
0
230
1
0
SOLID
5
299
100
AcDbEntity
8
0
62
256
6
ByLayer
370
-1
48
1
60
0
100
AcDbTrace
10
31.5
20
-31.623681
30
0
11
31.5
21
-30.457014
31
0
12
35
22
-31.040348
32
0
13
35
23
-31.040348
33
0
39
0
210
0
220
0
230
1
0
SOLID
5
29A
100
AcDbEntity
8
0
62
256
6
ByLayer
370
-1
48
1
60
0
100
AcDbTrace
10
20.5
20
-30.457014
30
0
11
20.5
21
-31.623681
31
0
12
17
22
-31.040348
32
0
13
17
23
-31.040348
33
0
39
0
210
0
220
0
230
1
0
MTEXT
5
29B
100
AcDbEntity
8
0
62
256
6
ByLayer
370
18
48
1
60
0
100
AcDbMText
10
26
20
-25.040348
30
0
210
0
220
0
230
1
1
\A1;18
40
3
41
0
44
1
50
0
71
5
72
5
7
iso_b_vert
0
POINT
5
29C
100
AcDbEntity
8
Defpoints
62
0
6
ByLayer
370
-1
48
1
60
0
100
AcDbPoint
10
35
20
-1.540348
30
0
39
0
210
0
220
0
230
1
50
360
0
POINT
5
29D
100
AcDbEntity
8
Defpoints
62
0
6
ByLayer
370
-1
48
1
60
0
100
AcDbPoint
10
17
20
-1.14355
30
0
39
0
210
0
220
0
230
1
50
360
0
POINT
5
29E
100
AcDbEntity
8
Defpoints
62
0
6
ByLayer
370
-1
48
1
60
0
100
AcDbPoint
10
17
20
-31.040348
30
0
39
0
210
0
220
0
230
1
50
360
0
ENDBLK
5
295
100
AcDbEntity
8
0
100
AcDbBlockEnd
0
BLOCK
5
2A6
100
AcDbEntity
8
0
100
AcDbBlockBegin
2
_U3
70
0
10
0
20
0
30
0
3
_U3
0
MTEXT
5
2A0
100
AcDbEntity
8
SK2
62
256
6
ByLayer
370
18
48
1
60
0
100
AcDbMText
10
24.742115
20
-30.155233
30
0
210
0
220
0
230
1
1
\W0.5321;18
40
3
41
0
44
1.084337
50
0
71
7
72
5
7
iso_b_vert
0
LINE
5
2A1
100
AcDbEntity
8
SK2
62
256
6
ByLayer
370
13
48
1
60
0
100
AcDbLine
10
35
20
-3.127848
30
0
11
35
21
-33.040348
31
0
39
0
210
0
220
0
230
1
0
LINE
5
2A2
100
AcDbEntity
8
SK2
62
256
6
ByLayer
370
13
48
1
60
0
100
AcDbLine
10
17
20
-2.73105
30
0
11
17
21
-33.040348
31
0
39
0
210
0
220
0
230
1
0
LINE
5
2A3
100
AcDbEntity
8
SK2
62
256
6
ByLayer
370
13
48
1
60
0
100
AcDbLine
10
35
20
-31.040348
30
0
11
17
21
-31.040348
31
0
39
0
210
0
220
0
230
1
0
SOLID
5
2A4
100
AcDbEntity
8
SK2
62
256
6
ByLayer
370
18
48
1
60
0
100
AcDbTrace
10
35
20
-31.040348
30
0
11
31.500002
21
-31.501131
31
0
12
31.499998
22
-30.579564
32
0
13
31.499998
23
-30.579564
33
0
39
0
210
0
220
0
230
1
0
SOLID
5
2A5
100
AcDbEntity
8
SK2
62
256
6
ByLayer
370
18
48
1
60
0
100
AcDbTrace
10
17
20
-31.040348
30
0
11
20.499998
21
-30.579564
31
0
12
20.500002
22
-31.501131
32
0
13
20.500002
23
-31.501131
33
0
39
0
210
0
220
0
230
1
0
ENDBLK
5
2A7
100
AcDbEntity
8
0
100
AcDbBlockEnd
0
BLOCK
5
2AC
100
AcDbEntity
8
0
100
AcDbBlockBegin
2
*D9
70
1
10
0
20
0
30
0
3
*D9
0
LINE
5
2AE
100
AcDbEntity
8
0
62
256
6
ByLayer
370
-2
48
1
60
0
100
AcDbLine
10
35
20
-3.127848
30
0
11
35
21
-22.040348
31
0
39
0
210
0
220
0
230
1
0
LINE
5
2AF
100
AcDbEntity
8
0
62
256
6
ByLayer
370
-2
48
1
60
0
100
AcDbLine
10
19.7
20
-1.5875
30
0
11
19.7
21
-22.040348
31
0
39
0
210
0
220
0
230
1
0
LINE
5
2B0
100
AcDbEntity
8
0
62
256
6
ByLayer
370
-2
48
1
60
0
100
AcDbLine
10
38.5
20
-20.040348
30
0
11
42
21
-20.040348
31
0
39
0
210
0
220
0
230
1
0
LINE
5
2B1
100
AcDbEntity
8
0
62
256
6
ByLayer
370
-2
48
1
60
0
100
AcDbLine
10
16.2
20
-20.040348
30
0
11
12.7
21
-20.040348
31
0
39
0
210
0
220
0
230
1
0
SOLID
5
2B2
100
AcDbEntity
8
0
62
256
6
ByLayer
370
-1
48
1
60
0
100
AcDbTrace
10
38.5
20
-19.457014
30
0
11
38.5
21
-20.623681
31
0
12
35
22
-20.040348
32
0
13
35
23
-20.040348
33
0
39
0
210
0
220
0
230
1
0
SOLID
5
2B3
100
AcDbEntity
8
0
62
256
6
ByLayer
370
-1
48
1
60
0
100
AcDbTrace
10
16.2
20
-20.623681
30
0
11
16.2
21
-19.457014
31
0
12
19.7
22
-20.040348
32
0
13
19.7
23
-20.040348
33
0
39
0
210
0
220
0
230
1
0
MTEXT
5
2B4
100
AcDbEntity
8
0
62
256
6
ByLayer
370
18
48
1
60
0
100
AcDbMText
10
27.35
20
-14.040348
30
0
210
0
220
0
230
1
1
\A1;15.3
40
3
41
0
44
1
50
0
71
5
72
5
7
iso_b_vert
0
POINT
5
2B5
100
AcDbEntity
8
Defpoints
62
0
6
ByLayer
370
-1
48
1
60
0
100
AcDbPoint
10
35
20
-1.540348
30
0
39
0
210
0
220
0
230
1
50
360
0
POINT
5
2B6
100
AcDbEntity
8
Defpoints
62
0
6
ByLayer
370
-1
48
1
60
0
100
AcDbPoint
10
19.7
20
0
30
0
39
0
210
0
220
0
230
1
50
360
0
POINT
5
2B7
100
AcDbEntity
8
Defpoints
62
0
6
ByLayer
370
-1
48
1
60
0
100
AcDbPoint
10
19.7
20
-20.040348
30
0
39
0
210
0
220
0
230
1
50
360
0
ENDBLK
5
2AD
100
AcDbEntity
8
0
100
AcDbBlockEnd
0
BLOCK
5
2BF
100
AcDbEntity
8
0
100
AcDbBlockBegin
2
_U4
70
0
10
0
20
0
30
0
3
_U4
0
MTEXT
5
2B9
100
AcDbEntity
8
2
62
256
6
ByLayer
370
18
48
1
60
0
100
AcDbMText
10
24.363486
20
-19.155233
30
0
210
0
220
0
230
1
1
\W0.6563;15.3
40
3
41
0
44
1.084337
50
0
71
7
72
5
7
iso_b_vert
0
LINE
5
2BA
100
AcDbEntity
8
2
62
256
6
ByLayer
370
13
48
1
60
0
100
AcDbLine
10
35
20
-3.127848
30
0
11
35
21
-22.040348
31
0
39
0
210
0
220
0
230
1
0
LINE
5
2BB
100
AcDbEntity
8
2
62
256
6
ByLayer
370
13
48
1
60
0
100
AcDbLine
10
19.7
20
-1.5875
30
0
11
19.7
21
-22.040348
31
0
39
0
210
0
220
0
230
1
0
LINE
5
2BC
100
AcDbEntity
8
2
62
256
6
ByLayer
370
13
48
1
60
0
100
AcDbLine
10
35
20
-20.040348
30
0
11
19.7
21
-20.040348
31
0
39
0
210
0
220
0
230
1
0
SOLID
5
2BD
100
AcDbEntity
8
2
62
256
6
ByLayer
370
18
48
1
60
0
100
AcDbTrace
10
35
20
-20.040348
30
0
11
31.500002
21
-20.501131
31
0
12
31.499998
22
-19.579564
32
0
13
31.499998
23
-19.579564
33
0
39
0
210
0
220
0
230
1
0
SOLID
5
2BE
100
AcDbEntity
8
2
62
256
6
ByLayer
370
18
48
1
60
0
100
AcDbTrace
10
19.7
20
-20.040348
30
0
11
23.199998
21
-19.579564
31
0
12
23.200002
22
-20.501131
32
0
13
23.200002
23
-20.501131
33
0
39
0
210
0
220
0
230
1
0
ENDBLK
5
2C0
100
AcDbEntity
8
0
100
AcDbBlockEnd
0
ENDSEC
0
SECTION
2
ENTITIES
0
ARC
5
D3
100
AcDbEntity
8
SK1
62
256
6
ByLayer
370
18
48
1
60
0
100
AcDbCircle
39
0
10
-16.35
20
0
30
0
40
1.6800000000001
210
0
220
0
230
1
100
AcDbArc
50
323.472515
51
36.527485
0
ARC
5
D4
100
AcDbEntity
8
1
62
256
6
ByLayer
370
18
48
1
60
0
100
AcDbCircle
39
0
10
17.043744
20
-1.64355
30
0
40
0.5
210
0
220
0
230
1
100
AcDbArc
50
90
51
100
0
ARC
5
D5
100
AcDbEntity
8
1
62
256
6
ByLayer
370
18
48
1
60
0
100
AcDbCircle
39
0
10
17.043744
20
1.64355
30
0
40
0.5
210
0
220
0
230
1
100
AcDbArc
50
260
51
270
0
POINT
5
70
100
AcDbEntity
8
81
62
256
6
ByLayer
370
18
48
1
60
0
100
AcDbPoint
10
35.2
20
0
30
0
39
0
210
0
220
0
230
1
50
360
0
POINT
5
72
100
AcDbEntity
8
80
62
256
6
ByLayer
370
18
48
1
60
0
100
AcDbPoint
10
0
20
0
30
0
39
0
210
0
220
0
230
1
50
360
0
POINT
5
74
100
AcDbEntity
8
1
62
256
6
ByLayer
370
18
48
1
60
1
100
AcDbPoint
10
35
20
1.540348
30
0
39
0
210
0
220
0
230
1
50
360
0
POINT
5
76
100
AcDbEntity
8
1
62
256
6
ByLayer
370
18
48
1
60
1
100
AcDbPoint
10
35
20
-1.540348
30
0
39
0
210
0
220
0
230
1
50
360
0
POINT
5
77
100
AcDbEntity
8
1
62
256
6
ByLayer
370
18
48
1
60
1
100
AcDbPoint
10
35
20
1.540348
30
0
39
0
210
0
220
0
230
1
50
360
0
POINT
5
78
100
AcDbEntity
8
1
62
256
6
ByLayer
370
18
48
1
60
1
100
AcDbPoint
10
33.62
20
0
30
0
39
0
210
0
220
0
230
1
50
360
0
POINT
5
79
100
AcDbEntity
8
1
62
256
6
ByLayer
370
18
48
1
60
1
100
AcDbPoint
10
35
20
-1.540348
30
0
39
0
210
0
220
0
230
1
50
360
0
POINT
5
7A
100
AcDbEntity
8
1
62
256
6
ByLayer
370
18
48
1
60
1
100
AcDbPoint
10
29
20
-1.540348
30
0
39
0
210
0
220
0
230
1
50
360
0
POINT
5
7B
100
AcDbEntity
8
1
62
256
6
ByLayer
370
18
48
1
60
1
100
AcDbPoint
10
35
20
-1.540348
30
0
39
0
210
0
220
0
230
1
50
360
0
POINT
5
7C
100
AcDbEntity
8
1
62
256
6
ByLayer
370
18
48
1
60
1
100
AcDbPoint
10
17
20
-1.14355
30
0
39
0
210
0
220
0
230
1
50
360
0
POINT
5
7D
100
AcDbEntity
8
1
62
256
6
ByLayer
370
18
48
1
60
1
100
AcDbPoint
10
35
20
-1.540348
30
0
39
0
210
0
220
0
230
1
50
360
0
POINT
5
7E
100
AcDbEntity
8
1
62
256
6
ByLayer
370
18
48
1
60
1
100
AcDbPoint
10
19.7
20
0
30
0
39
0
210
0
220
0
230
1
50
360
0
SPLINE
5
D6
100
AcDbEntity
8
1
62
256
6
ByLayer
370
18
48
1
60
0
100
AcDbSpline
70
4
71
3
72
8
73
4
40
0
40
0
40
0
40
0
40
1
40
1
40
1
40
1
41
1.04
10
28.3994464986609
20
-1.23122365282032
30
0
41
1.04
10
28.3976514649858
20
-1.23601930216842
30
0
41
1.04
10
28.3958582100392
20
-1.23988455136545
30
0
41
1.04
10
28.3940662774402
20
-1.24281328831288
30
0
0
SPLINE
5
D7
100
AcDbEntity
8
1
62
256
6
ByLayer
370
18
48
1
60
0
100
AcDbSpline
70
4
71
3
72
8
73
4
40
0
40
0
40
0
40
0
40
1
40
1
40
1
40
1
41
1
10
31.7535655724291
20
1.24383451919454
30
0
41
1
10
31.7509807416021
20
1.23997968687192
30
0
41
1
10
31.7483898752615
20
1.23416503367454
30
0
41
1
10
31.7457932437879
20
1.22636563563921
30
0
0
SPLINE
5
D8
100
AcDbEntity
8
1
62
256
6
ByLayer
370
18
48
1
60
0
100
AcDbSpline
70
4
71
3
72
8
73
4
40
0
40
0
40
0
40
0
40
1
40
1
40
1
40
1
41
1
10
28.7534236713189
20
1.2441758693827
30
0
41
1
10
28.7518024291563
20
1.24166504936525
30
0
41
1
10
28.7501789508462
20
1.23835403896212
30
0
41
1
10
28.7485532801695
20
1.23425466325776
30
0
0
SPLINE
5
D9
100
AcDbEntity
8
1
62
256
6
ByLayer
370
13
48
1
60
0
100
AcDbSpline
70
4
71
3
72
8
73
4
40
0
40
0
40
0
40
0
40
1
40
1
40
1
40
1
41
1.04
10
32.149678961537
20
1.23053515841225
30
0
41
1.04
10
32.1473570950343
20
1.23689871506558
30
0
41
1.04
10
32.1450388953536
20
1.2417129998311
30
0
41
1.04
10
32.1427247121364
20
1.24495085681244
30
0
0
SPLINE
5
DA
100
AcDbEntity
8
1
62
256
6
ByLayer
370
18
48
1
60
0
100
AcDbSpline
70
4
71
3
72
8
73
4
40
0
40
0
40
0
40
0
40
1
40
1
40
1
40
1
41
1
10
34.0557414629905
20
-1.31609154355624
30
0
41
1
10
34.0618001618134
20
-1.33835462226995
30
0
41
1
10
34.0678322172824
20
-1.35464086851496
30
0
41
1
10
34.0737561136314
20
-1.36487186165252
30
0
0
SPLINE
5
DB
100
AcDbEntity
8
1
62
256
6
ByLayer
370
13
48
1
60
0
100
AcDbSpline
70
4
71
3
72
8
73
4
40
0
40
0
40
0
40
0
40
1
40
1
40
1
40
1
41
1
10
31.0038275330147
20
-1.24397520524863
30
0
41
1
10
31.0001927911354
20
-1.23841310395102
30
0
41
1
10
30.9965544310589
20
-1.22897951071269
30
0
41
1
10
30.9929375349902
20
-1.21601365255651
30
0
0
SPLINE
5
DC
100
AcDbEntity
8
1
62
256
6
ByLayer
370
13
48
1
60
0
100
AcDbSpline
70
4
71
3
72
9
73
5
40
0
40
0
40
0
40
0
40
0.433774188628524
40
1
40
1
40
1
40
1
41
1.04
10
29.1544980091945
20
1.21600308303306
30
0
41
1.04
10
29.1529181956748
20
1.22179401878624
30
0
41
1.04
10
29.1492812483219
20
1.23344105857359
30
0
41
1.04
10
29.1456554024748
20
1.24108188499587
30
0
41
1.04
10
29.1436065575541
20
1.24414317029689
30
0
0
SPLINE
5
DD
100
AcDbEntity
8
1
62
256
6
ByLayer
370
13
48
1
60
0
100
AcDbSpline
70
4
71
3
72
9
73
5
40
0
40
0
40
0
40
0
40
0.547977807293075
40
1
40
1
40
1
40
1
41
1
10
34.0033628030394
20
-1.24360605784787
30
0
41
1
10
34.0005185205837
20
-1.23930793843235
30
0
41
1
10
33.9953345584694
20
-1.22706674691474
30
0
41
1
10
33.9901540140236
20
-1.20679118631711
30
0
41
1
10
33.9878124201467
20
-1.19605351705567
30
0
0
SPLINE
5
DE
100
AcDbEntity
8
1
62
256
6
ByLayer
370
13
48
1
60
0
100
AcDbSpline
70
4
71
3
72
9
73
5
40
0
40
0
40
0
40
0
40
0.921031612695203
40
1
40
1
40
1
40
1
41
1
10
32.2821047306932
20
1.20619069814282
30
0
41
1
10
32.2730061572966
20
1.24331215980587
30
0
41
1
10
32.2631819019978
20
1.25840855505342
30
0
41
1
10
32.2534412956985
20
1.24429028787711
30
0
41
1
10
32.2526726145423
20
1.24299595705762
30
0
0
SPLINE
5
DF
100
AcDbEntity
8
1
62
256
6
ByLayer
370
13
48
1
60
0
100
AcDbSpline
70
4
71
3
72
9
73
5
40
0
40
0
40
0
40
0
40
0.626889880704791
40
1
40
1
40
1
40
1
41
1.04
10
33.8946882148533
20
-1.24143329205716
30
0
41
1.04
10
33.8864164823024
20
-1.25598160224404
30
0
41
1.04
10
33.873333327813
20
-1.24726148909085
30
0
41
1.04
10
33.8602719317454
20
-1.18733713393823
30
0
41
1.04
10
33.8553964661648
20
-1.15846931224477
30
0
0
SPLINE
5
E0
100
AcDbEntity
8
1
62
256
6
ByLayer
370
13
48
1
60
0
100
AcDbSpline
70
4
71
3
72
9
73
5
40
0
40
0
40
0
40
0
40
0.306120914532691
40
1
40
1
40
1
40
1
41
1.04
10
30.8954724951943
20
-1.24099825596744
30
0
41
1.04
10
30.8919277384782
20
-1.24766783645222
30
0
41
1.04
10
30.8803074491169
20
-1.25724939951324
30
0
41
1.04
10
30.8685113347311
20
-1.22480207038698
30
0
41
1.04
10
30.8605217508276
20
-1.18577702581716
30
0
0
SPLINE
5
E1
100
AcDbEntity
8
1
62
256
6
ByLayer
370
13
48
1
60
0
100
AcDbSpline
70
4
71
3
72
9
73
5
40
0
40
0
40
0
40
0
40
0.069717874164733
40
1
40
1
40
1
40
1
41
1.04
10
32.6782380619945
20
1.07712411527112
30
0
41
1.04
10
32.6774469546465
20
1.08344996533336
30
0
41
1.04
10
32.6661116608874
20
1.17178227047898
30
0
41
1.04
10
32.654982291797
20
1.22457670281994
30
0
41
1.04
10
32.6446054142796
20
1.24208903015054
30
0
0
SPLINE
5
E2
100
AcDbEntity
8
1
62
256
6
ByLayer
370
13
48
1
60
0
100
AcDbSpline
70
4
71
3
72
10
73
6
40
0
40
0
40
0
40
0
40
0.349256414291774
40
0.748975842927592
40
1
40
1
40
1
40
1
41
1
10
29.2869281236696
20
1.18491551516288
30
0
41
1
10
29.2827971088396
20
1.20569164329706
30
0
41
1
10
29.2739727360047
20
1.23984656981759
30
0
41
1
10
29.2622777047284
20
1.25407025164984
30
0
41
1
10
29.2547366303394
20
1.24621086638945
30
0
41
1
10
29.2518383732221
20
1.24075414989957
30
0
0
SPLINE
5
E3
100
AcDbEntity
8
1
62
256
6
ByLayer
370
13
48
1
60
0
100
AcDbSpline
70
4
71
3
72
9
73
5
40
0
40
0
40
0
40
0
40
0.661418393566353
40
1
40
1
40
1
40
1
41
1
10
30.5037309798862
20
-1.24415363851727
30
0
41
1
10
30.4952560501384
20
-1.23165455638033
30
0
41
1
10
30.4822665934038
20
-1.18057481400885
30
0
41
1
10
30.4689240254577
20
-1.07881299595636
30
0
41
1
10
30.4643716478783
20
-1.03904753275182
30
0
0
SPLINE
5
E4
100
AcDbEntity
8
1
62
256
6
ByLayer
370
13
48
1
60
0
100
AcDbSpline
70
4
71
3
72
9
73
5
40
0
40
0
40
0
40
0
40
0.402325718083185
40
1
40
1
40
1
40
1
41
1.04
10
29.6830510962361
20
1.03670344787343
30
0
41
1.04
10
29.6778532527245
20
1.08242792543788
30
0
41
1.04
10
29.6649245114164
20
1.17989982980221
30
0
41
1.04
10
29.6520032743565
20
1.23016662735074
30
0
41
1.04
10
29.644231460632
20
1.24261582181647
30
0
0
SPLINE
5
E5
100
AcDbEntity
8
1
62
256
6
ByLayer
370
18
48
1
60
0
100
AcDbSpline
70
4
71
3
72
22
73
18
40
0
40
0
40
0
40
0
40
0.0233321604162121
40
0.0233321604162121
40
0.104721147048195
40
0.104721147048195
40
0.186110133680178
40
0.348888106944143
40
0.348888106944143
40
0.511666080208108
40
0.511666080208108
40
0.59305506684009
40
0.59305506684009
40
0.674444053472072
40
0.674444053472072
40
0.837222026736036
40
1
40
1
40
1
40
1
41
1
10
33.7686512773278
20
-1.45816256246638
30
0
41
1
10
33.7684402510874
20
-1.458585890644
30
0
41
1
10
33.7682305119946
20
-1.45896374789007
30
0
41
1
10
33.7672949447271
20
-1.46045510728084
30
0
41
1
10
33.7665825734771
20
-1.46105113200633
30
0
41
1
10
33.7652022028451
20
-1.46109961225653
30
0
41
1
10
33.7631928883899
20
-1.45946876020759
30
0
41
1
10
33.761352677076
20
-1.45280132670791
30
0
41
1
10
33.7589987323873
20
-1.43946661144039
30
0
41
1
10
33.7578726981286
20
-1.43057519787053
30
0
41
1
10
33.756194212648
20
-1.41385843482413
30
0
41
1
10
33.7556340734112
20
-1.40772546929628
30
0
41
1
10
33.7545009965102
20
-1.39434466227391
30
0
41
1
10
33.7539269844731
20
-1.38708061639701
30
0
41
1
10
33.7521903094571
20
-1.36383931309692
30
0
41
1
10
33.7498235356662
20
-1.32890852874075
30
0
41
1
10
33.7473150575752
20
-1.28637167451095
30
0
41
1
10
33.746038273726
20
-1.26317128306513
30
0
0
SPLINE
5
E6
100
AcDbEntity
8
1
62
256
6
ByLayer
370
18
48
1
60
0
100
AcDbSpline
70
4
71
3
72
18
73
14
40
0
40
0
40
0
40
0
40
0.195924063301817
40
0.195924063301817
40
0.391848126603634
40
0.391848126603634
40
0.489810158254541
40
0.489810158254541
40
0.587772189905449
40
0.587772189905449
40
0.783696253207263
40
0.783696253207263
40
1
40
1
40
1
40
1
41
1
10
33.5838238351374
20
-1.20696673488391
30
0
41
1
10
33.587552469085
20
-1.23605822172596
30
0
41
1
10
33.5912570139395
20
-1.26297656580525
30
0
41
1
10
33.5986748044537
20
-1.31263454382955
30
0
41
1
10
33.6023905207679
20
-1.33537732885969
30
0
41
1
10
33.6080267663347
20
-1.36633620909703
30
0
41
1
10
33.6099159340294
20
-1.37612824588822
30
0
41
1
10
33.6137235613226
20
-1.39463107183033
30
0
41
1
10
33.6156464342292
20
-1.40335186258954
30
0
41
1
10
33.6213958949489
20
-1.42757738243253
30
0
41
1
10
33.6252185184018
20
-1.44125699643988
30
0
41
1
10
33.6331063815164
20
-1.46481436942094
30
0
41
1
10
33.6371405469322
20
-1.47415292093587
30
0
41
1
10
33.6410901306197
20
-1.48042727747773
30
0
0
SPLINE
5
E7
100
AcDbEntity
8
1
62
256
6
ByLayer
370
13
48
1
60
0
100
AcDbSpline
70
4
71
3
72
9
73
5
40
0
40
0
40
0
40
0
40
0.381929806374472
40
1
40
1
40
1
40
1
41
1
10
33.5031473891706
20
-1.24286032229296
30
0
41
1
10
33.497527284327
20
-1.234025398189
30
0
41
1
10
33.482836357702
20
-1.18688518358451
30
0
41
1
10
33.4681666935896
20
-1.07767409522526
30
0
41
1
10
33.4592487574743
20
-0.992674043087135
30
0
0
SPLINE
5
E8
100
AcDbEntity
8
1
62
256
6
ByLayer
370
13
48
1
60
0
100
AcDbSpline
70
4
71
3
72
10
73
6
40
0
40
0
40
0
40
0
40
0.175859354634048
40
0.926783924794209
40
1
40
1
40
1
40
1
41
1
10
32.8106709647225
20
1.01570298657293
30
0
41
1
10
32.8073324320661
20
1.04630763821342
30
0
41
1
10
32.7897664409932
20
1.19351639249731
30
0
41
1
10
32.7713420201472
20
1.26078525874311
30
0
41
1
10
32.755955630058
20
1.2467912121387
30
0
41
1
10
32.7545875862594
20
1.24500344825449
30
0
0
SPLINE
5
E9
100
AcDbEntity
8
1
62
256
6
ByLayer
370
13
48
1
60
0
100
AcDbSpline
70
4
71
3
72
9
73
5
40
0
40
0
40
0
40
0
40
0.2306167428131
40
1
40
1
40
1
40
1
41
1.04
10
33.2068150716057
20
0.78619978858773
30
0
41
1.04
10
33.202364395159
20
0.840491155192124
30
0
41
1.04
10
33.1832337889702
20
1.0577445595482
30
0
41
1.04
10
33.1647830091193
20
1.18683918819236
30
0
41
1.04
10
33.1506928633964
20
1.2281040803779
30
0
0
SPLINE
5
EA
100
AcDbEntity
8
1
62
256
6
ByLayer
370
18
48
1
60
0
100
AcDbSpline
70
4
71
3
72
22
73
18
40
0
40
0
40
0
40
0
40
0.25
40
0.25
40
0.312500000000001
40
0.312500000000001
40
0.375000000000001
40
0.375000000000001
40
0.500000000000001
40
0.500000000000001
40
0.750000000000001
40
0.750000000000001
40
0.8125
40
0.8125
40
0.875
40
0.875
40
1
40
1
40
1
40
1
41
1
10
32.9291792369282
20
1.5403466678581
30
0
41
1
10
32.9344355232276
20
1.54046433433709
30
0
41
1
10
32.9395920972443
20
1.5303646741786
30
0
41
1
10
32.9461366280415
20
1.50514216478626
30
0
41
1
10
32.9474503642809
20
1.4994619021877
30
0
41
1
10
32.9500927515874
20
1.48681033663448
30
0
41
1
10
32.9514242621789
20
1.47982248146027
30
0
41
1
10
32.9554289400573
20
1.45699307685641
30
0
41
1
10
32.9580934043758
20
1.43941176337344
30
0
41
1
10
32.9661172506259
20
1.37981603623683
30
0
41
1
10
32.9715593800629
20
1.33101862604775
30
0
41
1
10
32.9782834836422
20
1.25841291678944
30
0
41
1
10
32.9796266665527
20
1.24326170703628
30
0
41
1
10
32.9822776737589
20
1.21206755801217
30
0
41
1
10
32.9835871010627
20
1.19601134805609
30
0
41
1
10
32.9874787104102
20
1.14649087719394
30
0
41
1
10
32.990021429771
20
1.11167791935398
30
0
41
1
10
32.992576530573
20
1.07509357398985
30
0
0
SPLINE
5
EB
100
AcDbEntity
8
1
62
256
6
ByLayer
370
13
48
1
60
0
100
AcDbSpline
70
4
71
3
72
9
73
5
40
0
40
0
40
0
40
0
40
0.629454841731639
40
1
40
1
40
1
40
1
41
1.04
10
30.3878066414295
20
-1.24927804399362
30
0
41
1.04
10
30.3764582284371
20
-1.2534955320832
30
0
41
1.04
10
30.3581298576684
20
-1.19938064142982
30
0
41
1.04
10
30.3390894871438
20
-1.04289405957661
30
0
41
1.04
10
30.3319576149834
20
-0.972702584758085
30
0
0
SPLINE
5
EC
100
AcDbEntity
8
1
62
256
6
ByLayer
370
13
48
1
60
0
100
AcDbSpline
70
4
71
3
72
9
73
5
40
0
40
0
40
0
40
0
40
0.417375730072298
40
1
40
1
40
1
40
1
41
1
10
29.8154830668959
20
0.969801633456285
30
0
41
1
10
29.807752752903
20
1.04638638542769
30
0
41
1
10
29.7891989544759
20
1.19810123380682
30
0
41
1
10
29.7706606083562
20
1.25237120484928
30
0
41
1
10
29.7597231846417
20
1.24898763870596
30
0
0
SPLINE
5
ED
100
AcDbEntity
8
1
62
256
6
ByLayer
370
13
48
1
60
0
100
AcDbSpline
70
4
71
3
72
10
73
6
40
0
40
0
40
0
40
0
40
0.0625716079541549
40
0.559282069189093
40
1
40
1
40
1
40
1
41
1
10
29.9916386460648
20
-1.21210543934578
30
0
41
1
10
29.9904758591182
20
-1.20765162477224
30
0
41
1
10
29.9800634811092
20
-1.16426850895985
30
0
41
1
10
29.9611109979704
20
-1.02927129952911
30
0
41
1
10
29.9438691452143
20
-0.831344516178717
30
0
41
1
10
29.9359331220514
20
-0.730110502386935
30
0
0
SPLINE
5
EE
100
AcDbEntity
8
1
62
256
6
ByLayer
370
13
48
1
60
0
100
AcDbSpline
70
4
71
3
72
9
73
5
40
0
40
0
40
0
40
0
40
0.974859766893703
40
1
40
1
40
1
40
1
41
1.04
10
30.2115992570872
20
0.725864396859804
30
0
41
1.04
10
30.1943381363693
20
0.946298323762562
30
0
41
1.04
10
30.1757114245327
20
1.13211944457028
30
0
41
1.04
10
30.1561966135663
20
1.20964351338527
30
0
41
1.04
10
30.1557054447936
20
1.2115236322759
30
0
0
SPLINE
5
EF
100
AcDbEntity
8
1
62
256
6
ByLayer
370
18
48
1
60
0
100
AcDbSpline
70
4
71
3
72
20
73
16
40
0
40
0
40
0
40
0
40
0.25
40
0.25
40
0.375
40
0.375
40
0.499999999999999
40
0.499999999999999
40
0.749999999999999
40
0.749999999999999
40
0.812499999999999
40
0.812499999999999
40
0.874999999999999
40
0.874999999999999
40
1
40
1
40
1
40
1
41
1
10
30.0381841360342
20
0.97434849267654
30
0
41
1
10
30.032676992066
20
1.05396649006261
30
0
41
1
10
30.0273091593682
20
1.12612957859062
30
0
41
1
10
30.0194609605155
20
1.22337668278843
30
0
41
1
10
30.0168713308875
20
1.25396591259755
30
0
41
1
10
30.0116989005023
20
1.31123024502156
30
0
41
1
10
30.0091557514989
20
1.3374596566199
30
0
41
1
10
30.0015342154768
20
1.40918517677537
30
0
41
1
10
29.996460330038
20
1.44778522959689
30
0
41
1
10
29.9897183254976
20
1.48428331944558
30
0
41
1
10
29.9883447913439
20
1.49100588688279
30
0
41
1
10
29.9855855468689
20
1.5031499735982
30
0
41
1
10
29.984202208026
20
1.50856857561115
30
0
41
1
10
29.9800576399334
20
1.52290246941715
30
0
41
1
10
29.9773034509332
20
1.52990057339764
30
0
41
1
10
29.9745797579148
20
1.53438277344532
30
0
0
SPLINE
5
F0
100
AcDbEntity
8
1
62
256
6
ByLayer
370
18
48
1
60
0
100
AcDbSpline
70
4
71
3
72
26
73
22
40
0
40
0
40
0
40
0
40
0.0625000000000002
40
0.0625000000000002
40
0.125000000000001
40
0.125000000000001
40
0.250000000000001
40
0.375000000000002
40
0.375000000000002
40
0.500000000000002
40
0.500000000000002
40
0.562500000000002
40
0.562500000000002
40
0.625000000000003
40
0.625000000000003
40
0.750000000000002
40
0.875000000000001
40
0.875000000000001
40
0.937500000000001
40
0.937500000000001
40
1
40
1
40
1
40
1
41
1
10
29.9341356788287
20
1.53751013427242
30
0
41
1
10
29.9354219502041
20
1.53596060591895
30
0
41
1
10
29.9367054868006
20
1.53377452722847
30
0
41
1
10
29.9392735200516
20
1.52810995183907
30
0
41
1
10
29.9405603172738
20
1.52462388317215
30
0
41
1
10
29.9444187259778
20
1.51223356961194
30
0
41
1
10
29.9495107581199
20
1.49074070729122
30
0
41
1
10
29.9546561571551
20
1.45963300989038
30
0
41
1
10
29.959923559118
20
1.42373862529794
30
0
41
1
10
29.9626315138644
20
1.40339870003808
30
0
41
1
10
29.9667737846692
20
1.3692060616377
30
0
41
1
10
29.9681708758171
20
1.35715650393618
30
0
41
1
10
29.9709578422555
20
1.33202512674293
30
0
41
1
10
29.9723481051408
20
1.31894382837334
30
0
41
1
10
29.976500858497
20
1.27818194865611
30
0
41
1
10
29.9819878283042
20
1.21979215773351
30
0
41
1
10
29.9873326746193
20
1.15344167341638
30
0
41
1
10
29.9912959912931
20
1.10065025648368
30
0
41
1
10
29.9926098016443
20
1.08254745064681
30
0
41
1
10
29.9952274024691
20
1.04531176589273
30
0
41
1
10
29.996532924589
20
1.02614956966798
30
0
41
1
10
29.9978224898588
20
1.00668273815557
30
0
0
SPLINE
5
F1
100
AcDbEntity
8
1
62
256
6
ByLayer
370
13
48
1
60
0
100
AcDbSpline
70
4
71
3
72
10
73
6
40
0
40
0
40
0
40
0
40
0.379892585909546
40
0.878852078795389
40
1
40
1
40
1
40
1
41
1.04
10
33.3829693199982
20
-1.24831131459208
30
0
41
1.04
10
33.3757968208428
20
-1.24414732292841
30
0
41
1.04
10
33.3592447152003
20
-1.19990396528422
30
0
41
1.04
10
33.3404416022538
20
-1.059767747328
30
0
41
1.04
10
33.3290360963227
20
-0.944118041310369
30
0
41
1.04
10
33.3268173190753
20
-0.920539636501817
30
0
0
SPLINE
5
F2
100
AcDbEntity
8
1
62
256
6
ByLayer
370
13
48
1
60
0
100
AcDbSpline
70
4
71
3
72
9
73
5
40
0
40
0
40
0
40
0
40
0.077282683955763
40
1
40
1
40
1
40
1
41
1
10
32.9868708172061
20
-1.19183054270872
30
0
41
1
10
32.9854395335739
20
-1.18512335127883
30
0
41
1
10
32.9669044333164
20
-1.09062705715962
30
0
41
1
10
32.9482349923871
20
-0.895707802496645
30
0
41
1
10
32.9307424287146
20
-0.66335766468714
30
0
0
SPLINE
5
F3
100
AcDbEntity
8
1
62
256
6
ByLayer
370
13
48
1
60
0
100
AcDbSpline
70
4
71
3
72
9
73
5
40
0
40
0
40
0
40
0
40
0.889555040450415
40
1
40
1
40
1
40
1
41
1
10
34.3963345923774
20
-0.158698835571641
30
0
41
1
10
34.3800148927037
20
0.0958411959468606
30
0
41
1
10
34.3614482477626
20
0.397134193255482
30
0
41
1
10
34.3422236262387
20
0.656105886231018
30
0
41
1
10
34.3400922567544
20
0.684087431717217
30
0
0
SPLINE
5
F4
100
AcDbEntity
8
1
62
256
6
ByLayer
370
13
48
1
60
0
100
AcDbSpline
70
4
71
3
72
9
73
5
40
0
40
0
40
0
40
0
40
0.364244045347323
40
1
40
1
40
1
40
1
41
1
10
33.3392686994949
20
0.695654811889568
30
0
41
1
10
33.3322142900108
20
0.787715995842916
30
0
41
1
10
33.3131198834404
20
1.01387954570009
30
0
41
1
10
33.2946964575214
20
1.15267190481703
30
0
41
1
10
33.2830906262521
20
1.20243554906989
30
0
0
SPLINE
5
F5
100
AcDbEntity
8
1
62
256
6
ByLayer
370
18
48
1
60
0
100
AcDbSpline
70
4
71
3
72
23
73
19
40
0
40
0
40
0
40
0
40
0.25
40
0.25
40
0.3125
40
0.3125
40
0.375
40
0.375
40
0.5
40
0.5
40
0.625
40
0.75
40
0.75
40
0.8125
40
0.8125
40
0.875
40
0.875
40
1
40
1
40
1
40
1
41
1
10
33.5753847217825
20
0.563053294807446
30
0
41
1
10
33.5722574482808
20
0.650420841732569
30
0
41
1
10
33.5692781956886
20
0.733303571935323
30
0
41
1
10
33.5657780817929
20
0.831111366928326
30
0
41
1
10
33.5650889478577
20
0.850380854008904
30
0
41
1
10
33.5637381124412
20
0.888320798344836
30
0
41
1
10
33.5630761849114
20
0.907009181529304
30
0
41
1
10
33.5611620623206
20
0.961526903160291
30
0
41
1
10
33.5599851584313
20
0.996014925232544
30
0
41
1
10
33.5577355020045
20
1.06147610057076
30
0
41
1
10
33.5555665346917
20
1.12345044479579
30
0
41
1
10
33.5533127592569
20
1.17868096133768
30
0
41
1
10
33.5515441060182
20
1.21752388370379
30
0
41
1
10
33.5509426469054
20
1.23002225394165
30
0
41
1
10
33.5497243151593
20
1.25393376596992
30
0
41
1
10
33.5491062254063
20
1.26537411142246
30
0
41
1
10
33.547231962301
20
1.29814160428168
30
0
41
1
10
33.5459585042366
20
1.31791092896935
30
0
41
1
10
33.5446915483058
20
1.33554793537059
30
0
0
SPLINE
5
F6
100
AcDbEntity
8
1
62
256
6
ByLayer
370
13
48
1
60
0
100
AcDbSpline
70
4
71
3
72
9
73
5
40
0
40
0
40
0
40
0
40
0.398225511219516
40
1
40
1
40
1
40
1
41
1.04
10
33.7353745440061
20
0.39486341567529
30
0
41
1.04
10
33.7282444874422
20
0.500894941862084
30
0
41
1.04
10
33.7100869793868
20
0.758618401344901
30
0
41
1.04
10
33.6910893093118
20
0.972587896827958
30
0
41
1.04
10
33.6791961161665
20
1.06926768103995
30
0
0
SPLINE
5
F7
100
AcDbEntity
8
1
62
256
6
ByLayer
370
13
48
1
60
0
100
AcDbSpline
70
4
71
3
72
10
73
6
40
0
40
0
40
0
40
0
40
0.420534951174612
40
0.926470878960021
40
1
40
1
40
1
40
1
41
1.04
10
29.8591749557462
20
-1.17961083148491
30
0
41
1.04
10
29.851258117131
20
-1.13847032554342
30
0
41
1.04
10
29.8336510820468
20
-1.00861957055332
30
0
41
1.04
10
29.8152055362789
20
-0.792058763895708
30
0
41
1.04
10
29.804828333926
20
-0.654142488274582
30
0
41
1.04
10
29.8035163024098
20
-0.636460113648404
30
0
0
SPLINE
5
F8
100
AcDbEntity
8
1
62
256
6
ByLayer
370
13
48
1
60
0
100
AcDbSpline
70
4
71
3
72
9
73
5
40
0
40
0
40
0
40
0
40
0.113632559022488
40
1
40
1
40
1
40
1
41
1
10
30.3440380227428
20
0.631720183239707
30
0
41
1
10
30.3420304237311
20
0.658892946913056
30
0
41
1
10
30.3242561773228
20
0.894138038440531
30
0
41
1
10
30.3055107998021
20
1.08848605954381
30
0
41
1
10
30.2881742220473
20
1.17902772382968
30
0
0
SPLINE
5
F9
100
AcDbEntity
8
1
62
256
6
ByLayer
370
13
48
1
60
0
100
AcDbSpline
70
4
71
3
72
9
73
5
40
0
40
0
40
0
40
0
40
0.621340442138131
40
1
40
1
40
1
40
1
41
1
10
29.4631142151583
20
-1.02819655072361
30
0
41
1
10
29.451711852884
20
-0.925850102520002
30
0
41
1
10
29.4329822763075
20
-0.706726878676534
30
0
41
1
10
29.4143974546859
20
-0.434995096776618
30
0
41
1
10
29.407347242049
20
-0.328029505178989
30
0
0
SPLINE
5
FA
100
AcDbEntity
8
1
62
256
6
ByLayer
370
13
48
1
60
0
100
AcDbSpline
70
4
71
3
72
9
73
5
40
0
40
0
40
0
40
0
40
0.757431544049276
40
1
40
1
40
1
40
1
41
1.04
10
34.2638961383623
20
-0.0465225008354946
30
0
41
1.04
10
34.2500536721939
20
0.170986880090168
30
0
41
1.04
10
34.2315457605137
20
0.464381209502398
30
0
41
1.04
10
34.2123903905866
20
0.716773738080598
30
0
41
1.04
10
34.2077049696319
20
0.774500135844747
30
0
0
SPLINE
5
FB
100
AcDbEntity
8
1
62
256
6
ByLayer
370
13
48
1
60
0
100
AcDbSpline
70
4
71
3
72
10
73
6
40
0
40
0
40
0
40
0
40
0.663779255413272
40
0.915501787550009
40
1
40
1
40
1
40
1
41
1.04
10
30.740148607118
20
0.322244653509812
30
0
41
1.04
10
30.7276571862824
20
0.511641061035124
30
0
41
1.04
10
30.7105881648633
20
0.754762240025232
30
0
41
1.04
10
30.692005481956
20
0.954753166819126
30
0
41
1.04
10
30.6858140065042
20
1.0123222651385
30
0
41
1.04
10
30.6842614925685
20
1.02617219204427
30
0
0
SPLINE
5
FC
100
AcDbEntity
8
1
62
256
6
ByLayer
370
13
48
1
60
0
100
AcDbSpline
70
4
71
3
72
9
73
5
40
0
40
0
40
0
40
0
40
0.938993454215092
40
1
40
1
40
1
40
1
41
1.04
10
32.8544339453886
20
-1.15333675393815
30
0
41
1.04
10
32.8370639892641
20
-1.0480360741133
30
0
41
1.04
10
32.8184294787528
20
-0.844376972871157
30
0
41
1.04
10
32.7994708055871
20
-0.581979967376912
30
0
41
1.04
10
32.7983130220738
20
-0.565770744875958
30
0
0
SPLINE
5
FD
100
AcDbEntity
8
1
62
256
6
ByLayer
370
13
48
1
60
0
100
AcDbSpline
70
4
71
3
72
10
73
6
40
0
40
0
40
0
40
0
40
0.134296090586164
40
0.883764651968827
40
1
40
1
40
1
40
1
41
1
10
32.4582842302808
20
-0.983205770284314
30
0
41
1
10
32.455811659085
20
-0.959145681818796
30
0
41
1
10
32.4395231881334
20
-0.791354827663639
30
0
41
1
10
32.4209654555926
20
-0.536380246012158
30
0
41
1
10
32.4044351266693
20
-0.283966240621737
30
0
41
1
10
32.4022120595571
20
-0.249713243125711
30
0
0
SPLINE
5
FE
100
AcDbEntity
8
1
62
256
6
ByLayer
370
18
48
1
60
0
100
AcDbSpline
70
4
71
3
72
22
73
18
40
0
40
0
40
0
40
0
40
0.249999999999999
40
0.249999999999999
40
0.312499999999999
40
0.312499999999999
40
0.374999999999999
40
0.374999999999999
40
0.499999999999999
40
0.499999999999999
40
0.749999999999999
40
0.749999999999999
40
0.812499999999999
40
0.812499999999999
40
0.875
40
0.875
40
1
40
1
40
1
40
1
41
1
10
34.1840246231718
20
-0.0148532489706952
30
0
41
1
10
34.1802652271564
20
0.0690183722111612
30
0
41
1
10
34.1768916786297
20
0.151906032382357
30
0
41
1
10
34.1728799432637
20
0.254307330741909
30
0
41
1
10
34.1720879335402
20
0.274726581982066
30
0
41
1
10
34.1705181679795
20
0.315441176348088
30
0
41
1
10
34.1697388792442
20
0.335776661622759
30
0
41
1
10
34.1674349251831
20
0.396027650157407
30
0
41
1
10
34.1659377893561
20
0.435337524231244
30
0
41
1
10
34.161501961414
20
0.550749224753702
30
0
41
1
10
34.1585948238511
20
0.624355607671788
30
0
41
1
10
34.1549924823909
20
0.712003501453751
30
0
41
1
10
34.1542764284741
20
0.729355035705822
30
0
41
1
10
34.1528785197409
20
0.763319214697844
30
0
41
1
10
34.1521960901102
20
0.779946009670084
30
0
41
1
10
34.150207825279
20
0.828770197505378
30
0
41
1
10
34.1489644184749
20
0.859910864900371
30
0
41
1
10
34.1478051692757
20
0.889652256374262
30
0
0
SPLINE
5
FF
100
AcDbEntity
8
1
62
256
6
ByLayer
370
18
48
1
60
0
100
AcDbSpline
70
4
71
3
72
21
73
17
40
0
40
0
40
0
40
0
40
0.125000000000001
40
0.250000000000002
40
0.250000000000002
40
0.312500000000003
40
0.312500000000003
40
0.375000000000004
40
0.500000000000004
40
0.625000000000003
40
0.625000000000003
40
0.687500000000003
40
0.687500000000003
40
0.750000000000003
40
0.750000000000003
40
1
40
1
40
1
40
1
41
1
10
33.8985991677005
20
1.09051867332664
30
0
41
1
10
33.9022934325568
20
1.06331516612803
30
0
41
1
10
33.9096686192256
20
1.00555958245056
30
0
41
1
10
33.9169753276267
20
0.941079582175917
30
0
41
1
10
33.9223897882711
20
0.890057003513164
30
0
41
1
10
33.9241886304649
20
0.872557778751258
30
0
41
1
10
33.9277491076518
20
0.836902834354873
30
0
41
1
10
33.9330274568257
20
0.782506455609337
30
0
41
1
10
33.9416112822583
20
0.687390780206499
30
0
41
1
10
33.9483261612314
20
0.606672699780091
30
0
41
1
10
33.953329465762
20
0.544397560882572
30
0
41
1
10
33.9549917369208
20
0.52334924914561
30
0
41
1
10
33.9583092315908
20
0.480666029102849
30
0
41
1
10
33.9599685553055
20
0.458976095537452
30
0
41
1
10
33.9681825526931
20
0.350013956325995
30
0
41
1
10
33.9745239041581
20
0.260878624268258
30
0
41
1
10
33.9807135048467
20
0.169811225408836
30
0
0
SPLINE
5
100
100
AcDbEntity
8
1
62
256
6
ByLayer
370
13
48
1
60
0
100
AcDbSpline
70
4
71
3
72
9
73
5
40
0
40
0
40
0
40
0
40
0.533809732772317
40
1
40
1
40
1
40
1
41
1
10
33.8678248543034
20
0.286700666523274
30
0
41
1
10
33.8582302742779
20
0.433254768580582
30
0
41
1
10
33.8399485012192
20
0.7001383274945
30
0
41
1
10
33.8208036570058
20
0.921551700532348
30
0
41
1
10
33.8116151234326
20
1.00703544090248
30
0
0
SPLINE
5
101
100
AcDbEntity
8
1
62
256
6
ByLayer
370
13
48
1
60
0
100
AcDbSpline
70
4
71
3
72
9
73
5
40
0
40
0
40
0
40
0
40
0.558503507525551
40
1
40
1
40
1
40
1
41
1.04
10
31.7973176917159
20
-0.55126300602562
30
0
41
1.04
10
31.787107569592
20
-0.407287291777218
30
0
41
1.04
10
31.7686392024615
20
-0.12323420992958
30
0
41
1.04
10
31.7496727040292
20
0.177364919806203
30
0
41
1.04
10
31.7413134354187
20
0.304918698605815
30
0
0
SPLINE
5
102
100
AcDbEntity
8
1
62
256
6
ByLayer
370
13
48
1
60
0
100
AcDbSpline
70
4
71
3
72
9
73
5
40
0
40
0
40
0
40
0
40
0.995570781187163
40
1
40
1
40
1
40
1
41
1
10
31.4011655329385
20
-0.233634914893059
30
0
41
1
10
31.3829328308826
20
0.0475657866103631
30
0
41
1
10
31.3642890122809
20
0.355243381765746
30
0
41
1
10
31.3452779353189
20
0.614927373153137
30
0
41
1
10
31.3451937239343
20
0.61607662275307
30
0
0
SPLINE
5
103
100
AcDbEntity
8
1
62
256
6
ByLayer
370
13
48
1
60
0
100
AcDbSpline
70
4
71
3
72
9
73
5
40
0
40
0
40
0
40
0
40
0.801177066905734
40
1
40
1
40
1
40
1
41
1
10
30.8725849655369
20
0.212704120447285
30
0
41
1
10
30.8574978416861
20
0.445802234745486
30
0
41
1
10
30.8389069730523
20
0.719319302809026
30
0
41
1
10
30.8203831173062
20
0.921239040054559
30
0
41
1
10
30.8167161363797
20
0.95812829371917
30
0
0
SPLINE
5
104
100
AcDbEntity
8
1
62
256
6
ByLayer
370
13
48
1
60
0
100
AcDbSpline
70
4
71
3
72
9
73
5
40
0
40
0
40
0
40
0
40
0.861689528678332
40
1
40
1
40
1
40
1
41
1.04
10
31.2687269156624
20
-0.122379993092773
30
0
41
1.04
10
31.2529493831191
20
0.124397107804724
30
0
41
1.04
10
31.2343524940437
20
0.424194783871648
30
0
41
1.04
10
31.2153921954101
20
0.677086223421187
30
0
41
1.04
10
31.2127640364154
20
0.710983185818802
30
0
0
SPLINE
5
105
100
AcDbEntity
8
1
62
256
6
ByLayer
370
18
48
1
60
0
100
AcDbSpline
70
4
71
3
72
26
73
22
40
0
40
0
40
0
40
0
40
0.0625000000000003
40
0.0625000000000003
40
0.125000000000001
40
0.125000000000001
40
0.250000000000001
40
0.250000000000001
40
0.375000000000001
40
0.375000000000001
40
0.437500000000001
40
0.437500000000001
40
0.500000000000001
40
0.500000000000001
40
0.750000000000001
40
0.750000000000001
40
0.875
40
0.875
40
0.9375
40
0.9375
40
1
40
1
40
1
40
1
41
1
10
29.1569501529516
20
-1.11659696199752
30
0
41
1
10
29.1556260575733
20
-1.09890768307326
30
0
41
1
10
29.1543062381514
20
-1.08064168000217
30
0
41
1
10
29.1516960989436
20
-1.04331776097459
30
0
41
1
10
29.1504070777984
20
-1.02428300457387
30
0
41
1
10
29.1465726850515
20
-0.966082460995153
30
0
41
1
10
29.1440614393924
20
-0.925822962530134
30
0
41
1
10
29.1390106859295
20
-0.842438004806183
30
0
41
1
10
29.1364634866098
20
-0.799312842651688
30
0
41
1
10
29.1325256558235
20
-0.732451992388036
30
0
41
1
10
29.1311972329714
20
-0.70980204638775
30
0
41
1
10
29.128513190557
20
-0.663762998374864
30
0
41
1
10
29.1271545592584
20
-0.640320755108064
30
0
41
1
10
29.1203749215167
20
-0.522483321976097
30
0
41
1
10
29.1149620183315
20
-0.425484400892685
30
0
41
1
10
29.1069196056434
20
-0.275997285418214
30
0
41
1
10
29.1042492939029
20
-0.225498650844287
30
0
41
1
10
29.1002454939266
20
-0.148714970484832
30
0
41
1
10
29.0989121407825
20
-0.12296810036878
30
0
41
1
10
29.0962714540561
20
-0.0717074300589502
30
0
41
1
10
29.0949603650512
20
-0.0461219101055121
30
0
41
1
10
29.0936558459325
20
-0.0205806168503386
30
0
0
SPLINE
5
106
100
AcDbEntity
8
1
62
256
6
ByLayer
370
13
48
1
60
0
100
AcDbSpline
70
4
71
3
72
9
73
5
40
0
40
0
40
0
40
0
40
0.484375734310116
40
1
40
1
40
1
40
1
41
1.04
10
29.3306644698685
20
-0.959778421622778
30
0
41
1.04
10
29.3217259310695
20
-0.869642390734117
30
0
41
1.04
10
29.3030593662965
20
-0.644921440429049
30
0
41
1.04
10
29.2845368954833
20
-0.367291012055987
30
0
41
1.04
10
29.2749401952132
20
-0.218765167955608
30
0
0
SPLINE
5
107
100
AcDbEntity
8
1
62
256
6
ByLayer
370
13
48
1
60
0
100
AcDbSpline
70
4
71
3
72
9
73
5
40
0
40
0
40
0
40
0
40
0.693791255645516
40
1
40
1
40
1
40
1
41
1
10
31.9297319171373
20
-0.649583010953762
30
0
41
1
10
31.917043955437
20
-0.47903096716152
30
0
41
1
10
31.8985496125285
20
-0.195253220347581
30
0
41
1
10
31.8795519556438
20
0.104601628680513
30
0
41
1
10
31.8737252854439
20
0.195089530390476
30
0
0
SPLINE
5
108
100
AcDbEntity
8
1
62
256
6
ByLayer
370
18
48
1
60
0
100
AcDbSpline
70
4
71
3
72
22
73
18
40
0
40
0
40
0
40
0
40
0.25
40
0.25
40
0.375
40
0.375
40
0.4375
40
0.4375
40
0.5
40
0.5
40
0.750000000000002
40
0.750000000000002
40
0.812500000000002
40
0.812500000000002
40
0.875000000000001
40
0.875000000000001
40
1
40
1
40
1
40
1
41
1
10
30.9907274609709
20
1.09721148134815
30
0
41
1
10
30.9960048977629
20
1.02479637603494
30
0
41
1
10
31.0014045744099
20
0.946190130350857
30
0
41
1
10
31.009569734493
20
0.819287300893791
30
0
41
1
10
31.0122954354883
20
0.775475853469118
30
0
41
1
10
31.0163792176049
20
0.7074263864111
30
0
41
1
10
31.0177423207531
20
0.684309950753743
30
0
41
1
10
31.0204385817216
20
0.637796464823623
30
0
41
1
10
31.0217750599414
20
0.614345631687769
30
0
41
1
10
31.0284065771386
20
0.496138159351062
30
0
41
1
10
31.0335359808586
20
0.398548780972419
30
0
41
1
10
31.0399802387835
20
0.272777605818845
30
0
41
1
10
31.0412715231475
20
0.247432445522008
30
0
41
1
10
31.043868496992
20
0.196353087648561
30
0
41
1
10
31.0451718140942
20
0.170666039574456
30
0
41
1
10
31.0490752315654
20
0.0938768138459238
30
0
41
1
10
31.0516882524008
20
0.0427786070382865
30
0
41
1
10
31.0543313757295
20
-0.0082262430841809
30
0
0
SPLINE
5
109
100
AcDbEntity
8
1
62
256
6
ByLayer
370
13
48
1
60
0
100
AcDbSpline
70
4
71
3
72
9
73
5
40
0
40
0
40
0
40
0
40
0.750271637305026
40
1
40
1
40
1
40
1
41
1.04
10
32.3258610095802
20
-0.909861948424207
30
0
41
1.04
10
32.3120929899709
20
-0.761373051006423
30
0
41
1.04
10
32.2936341366443
20
-0.508589666588767
30
0
41
1.04
10
32.2745617651676
20
-0.213400653165781
30
0
41
1.04
10
32.269807305473
20
-0.139076902671675
30
0
0
SPLINE
5
10A
100
AcDbEntity
8
1
62
256
6
ByLayer
370
18
48
1
60
0
100
AcDbSpline
70
4
71
3
72
8
73
4
40
0
40
0
40
0
40
0
40
1
40
1
40
1
40
1
41
1
10
34.2890866313132
20
1.22628936230927
30
0
41
1
10
34.2662464993232
20
1.18013788296199
30
0
41
1
10
34.2432846567248
20
1.13361565546802
30
0
41
1
10
34.2201381862409
20
1.08673814712279
30
0
0
SPLINE
5
10B
100
AcDbEntity
8
1
62
256
6
ByLayer
370
18
48
1
60
0
100
AcDbSpline
70
4
71
3
72
26
73
22
40
0
40
0
40
0
40
0
40
0.124999999999979
40
0.124999999999979
40
0.249999999999958
40
0.249999999999958
40
0.374999999999937
40
0.374999999999937
40
0.499999999999917
40
0.499999999999917
40
0.624999999999896
40
0.624999999999896
40
0.749999999999875
40
0.749999999999875
40
0.812499999999906
40
0.812499999999906
40
0.874999999999937
40
0.874999999999937
40
0.937499999999969
40
0.937499999999969
40
1
40
1
40
1
40
1
41
1
10
34.2201381862391
20
1.08673814712057
30
0
41
1
10
34.2165684545765
20
1.0795085297197
30
0
41
1
10
34.2124308162627
20
1.07283093023176
30
0
41
1
10
34.2032736949008
20
1.06032505664098
30
0
41
1
10
34.1982074293128
20
1.05447065558195
30
0
41
1
10
34.1876133971691
20
1.0439113753356
30
0
41
1
10
34.1820550810608
20
1.03915594007896
30
0
41
1
10
34.1704486291371
20
1.03065199138138
30
0
41
1
10
34.1643429674297
20
1.02688106517653
30
0
41
1
10
34.1520429625802
20
1.02067291398717
30
0
41
1
10
34.1458210630239
20
1.01820124500196
30
0
41
1
10
34.1332436524705
20
1.01468663358213
30
0
41
1
10
34.1268015330974
20
1.01364118121532
30
0
41
1
10
34.1174519678282
20
1.0135273926943
30
0
41
1
10
34.1143844357553
20
1.01372767302837
30
0
41
1
10
34.1083660290791
20
1.01467776385917
30
0
41
1
10
34.1053938070908
20
1.01543765145544
30
0
41
1
10
34.0997654733049
20
1.01756433071719
30
0
41
1
10
34.0970952545914
20
1.01892796625046
30
0
41
1
10
34.0920913451037
20
1.02235644570979
30
0
41
1
10
34.0897563699254
20
1.02443257313229
30
0
41
1
10
34.0876994970752
20
1.02685767871623
30
0
0
SPLINE
5
10C
100
AcDbEntity
8
1
62
256
6
ByLayer
370
18
48
1
60
0
100
AcDbSpline
70
4
71
3
72
8
73
4
40
0
40
0
40
0
40
0
40
1
40
1
40
1
40
1
41
1
10
34.0876994970721
20
1.02685767872208
30
0
41
1
10
34.0517222282426
20
1.06927579686069
30
0
41
1
10
34.0159955966141
20
1.10836522148068
30
0
41
1
10
33.9806458975641
20
1.14398947572784
30
0
0
SPLINE
5
10D
100
AcDbEntity
8
1
62
256
6
ByLayer
370
18
48
1
60
0
100
AcDbSpline
70
4
71
3
72
8
73
4
40
0
40
0
40
0
40
0
40
1
40
1
40
1
40
1
41
1
10
33.9806458975641
20
1.14398947572786
30
0
41
1
10
33.9287167150393
20
1.12474895925874
30
0
41
1
10
33.8771415271339
20
1.1029220836401
30
0
41
1
10
33.8257516469073
20
1.07857693409687
30
0
0
SPLINE
5
10E
100
AcDbEntity
8
1
62
256
6
ByLayer
370
18
48
1
60
0
100
AcDbSpline
70
4
71
3
72
8
73
4
40
0
40
0
40
0
40
0
40
1
40
1
40
1
40
1
41
1
10
33.8257516469072
20
1.0785769340969
30
0
41
1
10
33.8129368166552
20
1.05144730781387
30
0
41
1
10
33.800064296986
20
1.02433960786951
30
0
41
1
10
33.7871443710075
20
0.997302675474685
30
0
0
SPLINE
5
10F
100
AcDbEntity
8
1
62
256
6
ByLayer
370
18
48
1
60
0
100
AcDbSpline
70
4
71
3
72
10
73
6
40
0
40
0
40
0
40
0
40
0.417832905870172
40
0.417832905870172
40
1
40
1
40
1
40
1
41
1
10
30.1482058855663
20
-1.49327929490639
30
0
41
1
10
30.126707653278
20
-1.45617146264303
30
0
41
1
10
30.1050872293201
20
-1.41815604489446
30
0
41
1
10
30.0529675835712
20
-1.32503407191106
30
0
41
1
10
30.0224522564231
20
-1.26931966166819
30
0
41
1
10
29.9916386460648
20
-1.21210543934578
30
0
0
SPLINE
5
110
100
AcDbEntity
8
1
62
256
6
ByLayer
370
18
48
1
60
0
100
AcDbSpline
70
4
71
3
72
26
73
22
40
0
40
0
40
0
40
0
40
0.125
40
0.125
40
0.25
40
0.25
40
0.375
40
0.375
40
0.5
40
0.5
40
0.625
40
0.625
40
0.75
40
0.75
40
0.8125
40
0.8125
40
0.875
40
0.875
40
0.9375
40
0.9375
40
1
40
1
40
1
40
1
41
1
10
29.991638646063
20
-1.21210543934282
30
0
41
1
10
29.9880602615486
20
-1.20546115181074
30
0
41
1
10
29.9839121958104
20
-1.19950393048009
30
0
41
1
10
29.974734693944
20
-1.18863847782299
30
0
41
1
10
29.9696583336619
20
-1.18371366227578
30
0
41
1
10
29.9590487944018
20
-1.17513300128522
30
0
41
1
10
29.9534846319697
20
-1.17143163852168
30
0
41
1
10
29.9418714491731
20
-1.16516262707097
30
0
41
1
10
29.9357654168556
20
-1.16258425221639
30
0
41
1
10
29.9234686492075
20
-1.15882146231806
30
0
41
1
10
29.9172501469967
20
-1.15760755503467
30
0
41
1
10
29.9046830511059
20
-1.15669726947368
30
0
41
1
10
29.8982486023418
20
-1.15701707044909
30
0
41
1
10
29.8889096546409
20
-1.15895745152088
30
0
41
1
10
29.8858455125293
20
-1.15984409846604
30
0
41
1
10
29.8798334858915
20
-1.1621720567083
30
0
41
1
10
29.8768641298669
20
-1.16362872944549
30
0
41
1
10
29.8712394675051
20
-1.16711606903039
30
0
41
1
10
29.8685705651325
20
-1.16914626512696
30
0
41
1
10
29.8635683092401
20
-1.17387612794693
30
0
41
1
10
29.8612328841172
20
-1.17658881313824
30
0
41
1
10
29.859174955749
20
-1.17961083147921
30
0
0
SPLINE
5
111
100
AcDbEntity
8
1
62
256
6
ByLayer
370
18
48
1
60
0
100
AcDbSpline
70
4
71
3
72
10
73
6
40
0
40
0
40
0
40
0
40
0.5
40
0.5
40
1
40
1
40
1
40
1
41
1
10
29.8591749557461
20
-1.17961083148492
30
0
41
1
10
29.8298199657959
20
-1.22271792861565
30
0
41
1
10
29.8006395206334
20
-1.26427579684972
30
0
41
1
10
29.7427340844387
20
-1.3439582862116
30
0
41
1
10
29.7140566622039
20
-1.38201656704771
30
0
41
1
10
29.6856197347341
20
-1.4182784999914
30
0
0
SPLINE
5
112
100
AcDbEntity
8
1
62
256
6
ByLayer
370
18
48
1
60
0
100
AcDbSpline
70
4
71
3
72
10
73
6
40
0
40
0
40
0
40
0
40
0.5
40
0.5
40
1
40
1
40
1
40
1
41
1
10
29.6447459086511
20
-1.40104806579632
30
0
41
1
10
29.6149332176416
20
-1.34009759815965
30
0
41
1
10
29.5849219246704
20
-1.27844364126761
30
0
41
1
10
29.5243257132465
20
-1.15384693746907
30
0
41
1
10
29.4938743046632
20
-1.0911744845919
30
0
41
1
10
29.4631142151582
20
-1.02819655072361
30
0
0
SPLINE
5
113
100
AcDbEntity
8
1
62
256
6
ByLayer
370
18
48
1
60
0
100
AcDbSpline
70
4
71
3
72
26
73
22
40
0
40
0
40
0
40
0
40
0.125000000000001
40
0.125000000000001
40
0.250000000000001
40
0.250000000000001
40
0.375000000000002
40
0.375000000000002
40
0.500000000000001
40
0.500000000000001
40
0.625000000000001
40
0.625000000000001
40
0.750000000000001
40
0.750000000000001
40
0.8125
40
0.8125
40
0.875
40
0.875
40
0.9375
40
0.9375
40
1
40
1
40
1
40
1
41
1
10
29.4631142151564
20
-1.02819655072113
30
0
41
1
10
29.4595392458795
20
-1.02087719039775
30
0
41
1
10
29.4553949442033
20
-1.01405873702441
30
0
41
1
10
29.4462244664706
20
-1.00119236076759
30
0
41
1
10
29.4411514167455
20
-0.995115736185909
30
0
41
1
10
29.4305469456752
20
-0.984055273033221
30
0
41
1
10
29.4249845955141
20
-0.979019490013741
30
0
41
1
10
29.4133731092671
20
-0.96989434359844
30
0
41
1
10
29.4072669858537
20
-0.965779374109133
30
0
41
1
10
29.3949696191074
20
-0.95883696693366
30
0
41
1
10
29.388750168165
20
-0.955973772367372
30
0
41
1
10
29.3761799814852
20
-0.951616261089868
30
0
41
1
10
29.3697435490725
20
-0.950113140167986
30
0
41
1
10
29.3604035281077
20
-0.949280297849754
30
0
41
1
10
29.357338936001
20
-0.949235335233027
30
0
41
1
10
29.3513257868412
20
-0.949681950818018
30
0
41
1
10
29.3483559710492
20
-0.950181513909428
30
0
41
1
10
29.3427309499277
20
-0.951787644297411
30
0
41
1
10
29.3400617101565
20
-0.952890095737672
30
0
41
1
10
29.3350584585802
20
-0.955794597387552
30
0
41
1
10
29.3327227461897
20
-0.957607606226162
30
0
41
1
10
29.3306644698715
20
-0.959778421617159
30
0
0
SPLINE
5
114
100
AcDbEntity
8
1
62
256
6
ByLayer
370
18
48
1
60
0
100
AcDbSpline
70
4
71
3
72
10
73
6
40
0
40
0
40
0
40
0
40
0.5
40
0.5
40
1
40
1
40
1
40
1
41
1
10
29.3306644698685
20
-0.959778421622786
30
0
41
1
10
29.3012785748522
20
-0.990771030649654
30
0
41
1
10
29.2720713904829
20
-1.01936422921997
30
0
41
1
10
29.2141151060746
20
-1.07166657383115
30
0
41
1
10
29.185411710578
20
-1.09534452361933
30
0
41
1
10
29.1569501529515
20
-1.1165969619976
30
0
0
SPLINE
5
115
100
AcDbEntity
8
1
62
256
6
ByLayer
370
18
48
1
60
0
100
AcDbSpline
70
4
71
3
72
8
73
4
40
0
40
0
40
0
40
0
40
1
40
1
40
1
40
1
41
1
10
29.1163344292825
20
-1.08690484778026
30
0
41
1
10
29.1298794002497
20
-1.09694409381891
30
0
41
1
10
29.1434173119984
20
-1.10684184419867
30
0
41
1
10
29.1569501529515
20
-1.11659696199754
30
0
0
SPLINE
5
116
100
AcDbEntity
8
1
62
256
6
ByLayer
370
18
48
1
60
0
100
AcDbSpline
70
4
71
3
72
8
73
4
40
0
40
0
40
0
40
0
40
1
40
1
40
1
40
1
41
1
10
28.2901876069907
20
-1.20963531858004
30
0
41
1
10
28.3219724406749
20
-1.22711964145807
30
0
41
1
10
28.3533373104688
20
-1.24372341875068
30
0
41
1
10
28.3843430951992
20
-1.25942612042522
30
0
0
SPLINE
5
117
100
AcDbEntity
8
1
62
256
6
ByLayer
370
18
48
1
60
0
100
AcDbSpline
70
4
71
3
72
8
73
4
40
0
40
0
40
0
40
0
40
1
40
1
40
1
40
1
41
1
10
28.3843430952018
20
-1.25942612040873
30
0
41
1
10
28.3875800974546
20
-1.25390759527025
30
0
41
1
10
28.3908210984466
20
-1.24836998708261
30
0
41
1
10
28.3940662774402
20
-1.24281328831287
30
0
0
SPLINE
5
118
100
AcDbEntity
8
1
62
256
6
ByLayer
370
18
48
1
60
0
100
AcDbSpline
70
4
71
3
72
26
73
22
40
0
40
0
40
0
40
0
40
0.125
40
0.125
40
0.25
40
0.25
40
0.375
40
0.375
40
0.5
40
0.5
40
0.625
40
0.625
40
0.75
40
0.75
40
0.8125
40
0.8125
40
0.875
40
0.875
40
0.9375
40
0.9375
40
1
40
1
40
1
40
1
41
1
10
28.3940662774419
20
-1.24281328831
30
0
41
1
10
28.3977218114751
20
-1.23655394129068
30
0
41
1
10
28.4019701002518
20
-1.23109253134555
30
0
41
1
10
28.4113645608771
20
-1.22136252097306
30
0
41
1
10
28.4165648871138
20
-1.21708173121007
30
0
41
1
10
28.4273920047468
20
-1.20988680638271
30
0
41
1
10
28.4330519782332
20
-1.20692824803521
30
0
41
1
10
28.4448216337554
20
-1.20222030236806
30
0
41
1
10
28.4509759715402
20
-1.20047328467769
30
0
41
1
10
28.4632966661603
20
-1.19837249357565
30
0
41
1
10
28.4695063763564
20
-1.1979908790172
30
0
41
1
10
28.4820069203804
20
-1.19872828499339
30
0
41
1
10
28.4883488702511
20
-1.19987301997415
30
0
41
1
10
28.4974747291098
20
-1.2029187088267
30
0
41
1
10
28.5004664818489
20
-1.2041556951406
30
0
41
1
10
28.5063316968529
20
-1.20714029381969
30
0
41
1
10
28.5092206443796
20
-1.20890226373126
30
0
41
1
10
28.5146886497877
20
-1.21292218572393
30
0
41
1
10
28.5172855107562
20
-1.21518509677597
30
0
41
1
10
28.5221598056302
20
-1.22030038922961
30
0
41
1
10
28.5244452159802
20
-1.2231706056435
30
0
41
1
10
28.5264728877162
20
-1.22631315594975
30
0
0
SPLINE
5
119
100
AcDbEntity
8
1
62
256
6
ByLayer
370
18
48
1
60
0
100
AcDbSpline
70
4
71
3
72
8
73
4
40
0
40
0
40
0
40
0
40
1
40
1
40
1
40
1
41
1
10
28.5264728877184
20
-1.22631315595333
30
0
41
1
10
28.5564933815192
20
-1.27283987441601
30
0
41
1
10
28.5862676434833
20
-1.31799342728587
30
0
41
1
10
28.6157832779737
20
-1.36164634708112
30
0
0
SPLINE
5
11A
100
AcDbEntity
8
1
62
256
6
ByLayer
370
18
48
1
60
0
100
AcDbSpline
70
4
71
3
72
8
73
4
40
0
40
0
40
0
40
0
40
1
40
1
40
1
40
1
41
1
10
28.6157832779737
20
-1.36164634708112
30
0
41
1
10
28.6688579173563
20
-1.38127024095772
30
0
41
1
10
28.721265023981
20
-1.39781766272276
30
0
41
1
10
28.7732692203875
20
-1.4111367913678
30
0
0
SPLINE
5
11B
100
AcDbEntity
8
1
62
256
6
ByLayer
370
18
48
1
60
0
100
AcDbSpline
70
4
71
3
72
10
73
6
40
0
40
0
40
0
40
0
40
0.5
40
0.5
40
1
40
1
40
1
40
1
41
1
10
28.7732692203918
20
-1.41113679135188
30
0
41
1
10
28.7977575078497
20
-1.36364697683217
30
0
41
1
10
28.8224613384577
20
-1.31545150196797
30
0
41
1
10
28.8722387522957
20
-1.21811322953627
30
0
41
1
10
28.8972903818676
20
-1.16901385391083
30
0
41
1
10
28.9225851073793
20
-1.11951486750425
30
0
0
SPLINE
5
11C
100
AcDbEntity
8
1
62
256
6
ByLayer
370
18
48
1
60
0
100
AcDbSpline
70
4
71
3
72
26
73
22
40
0
40
0
40
0
40
0
40
0.125
40
0.125
40
0.250000000000001
40
0.250000000000001
40
0.375000000000001
40
0.375000000000001
40
0.500000000000001
40
0.500000000000001
40
0.625000000000001
40
0.625000000000001
40
0.750000000000002
40
0.750000000000002
40
0.812500000000001
40
0.812500000000001
40
0.875000000000001
40
0.875000000000001
40
0.9375
40
0.9375
40
1
40
1
40
1
40
1
41
1
10
28.9225851073809
20
-1.11951486750169
30
0
41
1
10
28.9262440488718
20
-1.11235472279083
30
0
41
1
10
28.9304965306686
20
-1.10581692536283
30
0
41
1
10
28.9398991142783
20
-1.09367466859354
30
0
41
1
10
28.9451034888424
20
-1.0880432643373
30
0
41
1
10
28.9559365043425
20
-1.07800908293109
30
0
41
1
10
28.961598490193
20
-1.07355329601825
30
0
41
1
10
28.9733697311618
20
-1.06569583786612
30
0
41
1
10
28.9795233710256
20
-1.06228411547031
30
0
41
1
10
28.9918412258624
20
-1.05679667947069
30
0
41
1
10
28.9980488063223
20
-1.05468203424584
30
0
41
1
10
29.0105442179151
20
-1.05185166104823
30
0
41
1
10
29.0168829409095
20
-1.051145790286
30
0
41
1
10
29.0260047554435
20
-1.05143974684665
30
0
41
1
10
29.0289952564759
20
-1.05175949455986
30
0
41
1
10
29.0348581557298
20
-1.05290857259521
30
0
41
1
10
29.0377460666659
20
-1.05374697072349
30
0
41
1
10
29.0432123849113
20
-1.05597207646585
30
0
41
1
10
29.0458085340227
20
-1.05735841684179
30
0
41
1
10
29.050681598625
20
-1.06076903220946
30
0
41
1
10
29.0529666076106
20
-1.06280776300736
30
0
41
1
10
29.0549941090896
20
-1.0651728575302
30
0
0
SPLINE
5
11D
100
AcDbEntity
8
1
62
256
6
ByLayer
370
18
48
1
60
0
100
AcDbSpline
70
4
71
3
72
10
73
6
40
0
40
0
40
0
40
0
40
0.5
40
0.5
40
1
40
1
40
1
40
1
41
1
10
29.0549941090917
20
-1.0651728575333
30
0
41
1
10
29.0845631688709
20
-1.09966537064196
30
0
41
1
10
29.1139011779737
20
-1.13198435209162
30
0
41
1
10
29.1720576656255
20
-1.19203093965049
30
0
41
1
10
29.2008265215748
20
-1.21971630929207
30
0
41
1
10
29.2293515826771
20
-1.24515942933985
30
0
0
SPLINE
5
11E
100
AcDbEntity
8
1
62
256
6
ByLayer
370
18
48
1
60
0
100
AcDbSpline
70
4
71
3
72
8
73
4
40
0
40
0
40
0
40
0
40
1
40
1
40
1
40
1
41
1
10
29.2698597547222
20
-1.21965563351856
30
0
41
1
10
29.2563492599116
20
-1.22831052583709
30
0
41
1
10
29.2428482571198
20
-1.23681287800898
30
0
41
1
10
29.2293515826771
20
-1.24515942933988
30
0
0
SPLINE
5
11F
100
AcDbEntity
8
1
62
256
6
ByLayer
370
18
48
1
60
0
100
AcDbSpline
70
4
71
3
72
10
73
6
40
0
40
0
40
0
40
0
40
0.711918396590839
40
0.711918396590839
40
1
40
1
40
1
40
1
41
1
10
29.2698597547214
20
-1.21965563350838
30
0
41
1
10
29.2994392661368
20
-1.15801036071326
30
0
41
1
10
29.3292885266727
20
-1.0965535509402
30
0
41
1
10
29.3717557352776
20
-1.01062114230186
30
0
41
1
10
29.3840300784418
20
-0.985956188850224
30
0
41
1
10
29.3963529272715
20
-0.961386259782813
30
0
0
SPLINE
5
120
100
AcDbEntity
8
1
62
256
6
ByLayer
370
18
48
1
60
0
100
AcDbSpline
70
4
71
3
72
10
73
6
40
0
40
0
40
0
40
0
40
0.5
40
0.5
40
1
40
1
40
1
40
1
41
1
10
32.7545875862596
20
1.24500344825446
30
0
41
1
10
32.7842122039355
20
1.2956679255355
30
0
41
1
10
32.8135897532061
20
1.34576766826646
30
0
41
1
10
32.8718237451672
20
1.44440651936355
30
0
41
1
10
32.9006294113502
20
1.49285887290492
30
0
41
1
10
32.929179236928
20
1.54034666785782
30
0
0
SPLINE
5
121
100
AcDbEntity
8
1
62
256
6
ByLayer
370
18
48
1
60
0
100
AcDbSpline
70
4
71
3
72
10
73
6
40
0
40
0
40
0
40
0
40
0.0877734212606681
40
0.0877734212606681
40
1
40
1
40
1
40
1
41
1
10
33.0508331315356
20
1.40361843952871
30
0
41
1
10
33.0537236137885
20
1.39864028060018
30
0
41
1
10
33.0566172751725
20
1.39364661705738
30
0
41
1
10
33.089622370913
20
1.3365772302717
30
0
41
1
10
33.1199598092643
20
1.28306382326636
30
0
41
1
10
33.150692864849
20
1.22810407612369
30
0
0
SPLINE
5
122
100
AcDbEntity
8
1
62
256
6
ByLayer
370
18
48
1
60
0
100
AcDbSpline
70
4
71
3
72
26
73
22
40
0
40
0
40
0
40
0
40
0.125
40
0.125
40
0.25
40
0.25
40
0.375
40
0.375
40
0.5
40
0.5
40
0.625
40
0.625
40
0.75
40
0.75
40
0.8125
40
0.8125
40
0.875
40
0.875
40
0.9375
40
0.9375
40
1
40
1
40
1
40
1
41
1
10
33.1506928648507
20
1.22810407612084
30
0
41
1
10
33.1543683788968
20
1.22153117542118
30
0
41
1
10
33.1586426150494
20
1.21573887607303
30
0
41
1
10
33.1680927399826
20
1.20531430685443
30
0
41
1
10
33.1733247859336
20
1.20066587589139
30
0
41
1
10
33.1842067712285
20
1.19273463306547
30
0
41
1
10
33.1898904547834
20
1.1894040866255
30
0
41
1
10
33.2016978306725
20
1.18393689062376
30
0
41
1
10
33.2078623119936
20
1.1818015745576
30
0
41
1
10
33.2201873622076
20
1.17892530358361
30
0
41
1
10
33.2263940112202
20
1.17815336468277
30
0
41
1
10
33.2388767004199
20
1.17809563112743
30
0
41
1
10
33.2451918828046
20
1.17883155819868
30
0
41
1
10
33.2542685025271
20
1.18126323520866
30
0
41
1
10
33.2572433813959
20
1.18229497551121
30
0
41
1
10
33.2630739922303
20
1.184866573368
30
0
41
1
10
33.2659438896684
20
1.18641895105949
30
0
41
1
10
33.2713752232995
20
1.19002723657596
30
0
41
1
10
33.273954876549
20
1.19208740028171
30
0
41
1
10
33.2787978934469
20
1.19680300428129
30
0
41
1
10
33.2810705710546
20
1.19947643816667
30
0
41
1
10
33.2830906270411
20
1.20243554567551
30
0
0
SPLINE
5
123
100
AcDbEntity
8
1
62
256
6
ByLayer
370
18
48
1
60
0
100
AcDbSpline
70
4
71
3
72
8
73
4
40
0
40
0
40
0
40
0
40
1
40
1
40
1
40
1
41
1
10
33.2830906270431
20
1.20243554567861
30
0
41
1
10
33.3318070325035
20
1.27379845946916
30
0
41
1
10
33.3798880513174
20
1.34095594160127
30
0
41
1
10
33.4271413990415
20
1.4031144097163
30
0
0
SPLINE
5
124
100
AcDbEntity
8
1
62
256
6
ByLayer
370
18
48
1
60
0
100
AcDbSpline
70
4
71
3
72
10
73
6
40
0
40
0
40
0
40
0
40
0.5
40
0.5
40
1
40
1
40
1
40
1
41
1
10
33.4271413990416
20
1.4031144097163
30
0
41
1
10
33.446617326325
20
1.39259654749426
30
0
41
1
10
33.4661553907117
20
1.38169842799627
30
0
41
1
10
33.5053767705519
20
1.35914749295443
30
0
41
1
10
33.5250585237033
20
1.34749415510549
30
0
41
1
10
33.5446915483058
20
1.33554793537059
30
0
0
SPLINE
5
125
100
AcDbEntity
8
1
62
256
6
ByLayer
370
18
48
1
60
0
100
AcDbSpline
70
4
71
3
72
10
73
6
40
0
40
0
40
0
40
0
40
0.5
40
0.5
40
1
40
1
40
1
40
1
41
1
10
33.5446915483058
20
1.33554793537059
30
0
41
1
10
33.5667762940722
20
1.29167195481065
30
0
41
1
10
33.5890486056035
20
1.247413633511
30
0
41
1
10
33.6338726366086
20
1.15858124707512
30
0
41
1
10
33.6564293848335
20
1.11399683384562
30
0
41
1
10
33.6791961155295
20
1.06926768621756
30
0
0
SPLINE
5
126
100
AcDbEntity
8
1
62
256
6
ByLayer
370
18
48
1
60
0
100
AcDbSpline
70
4
71
3
72
26
73
22
40
0
40
0
40
0
40
0
40
0.12500000000002
40
0.12500000000002
40
0.25000000000004
40
0.25000000000004
40
0.37500000000006
40
0.37500000000006
40
0.50000000000008
40
0.50000000000008
40
0.6250000000001
40
0.6250000000001
40
0.75000000000012
40
0.75000000000012
40
0.81250000000009
40
0.81250000000009
40
0.87500000000006
40
0.87500000000006
40
0.93750000000003
40
0.93750000000003
40
1
40
1
40
1
40
1
41
1
10
33.6791961155312
20
1.06926768621514
30
0
41
1
10
33.6828786668251
20
1.06203268253162
30
0
41
1
10
33.6871608425973
20
1.05537528283429
30
0
41
1
10
33.6966257009432
20
1.04292152279424
30
0
41
1
10
33.7018645786275
20
1.03709465542781
30
0
41
1
10
33.7127566528891
20
1.02662363713247
30
0
41
1
10
33.7184439884578
20
1.02192461668943
30
0
41
1
10
33.7302554905524
20
1.01352651094635
30
0
41
1
10
33.7364200912743
20
1.00981752402492
30
0
41
1
10
33.7487432918104
20
1.00369089304414
30
0
41
1
10
33.7549479558522
20
1.00123169136506
30
0
41
1
10
33.7674244501047
20
0.997647582529993
30
0
41
1
10
33.773735243595
20
0.996531239164597
30
0
41
1
10
33.7828057338447
20
0.996162013057898
30
0
41
1
10
33.7857785510373
20
0.996252076004851
30
0
41
1
10
33.7916049812489
20
0.996920596629167
30
0
41
1
10
33.7944731703698
20
0.99750631157886
30
0
41
1
10
33.7999021854161
20
0.999214368340262
30
0
41
1
10
33.8024808193412
20
1.00033530077786
30
0
41
1
10
33.8073220788491
20
1.00319758548287
30
0
41
1
10
33.8095945452774
20
1.00495264301679
30
0
41
1
10
33.8116151246324
20
1.00703542972036
30
0
0
SPLINE
5
127
100
AcDbEntity
8
1
62
256
6
ByLayer
370
18
48
1
60
0
100
AcDbSpline
70
4
71
3
72
8
73
4
40
0
40
0
40
0
40
0
40
1
40
1
40
1
40
1
41
1
10
33.8116151246343
20
1.00703542972272
30
0
41
1
10
33.8408539579751
20
1.03717443573132
30
0
41
1
10
33.8698556948049
20
1.06503210804345
30
0
41
1
10
33.8985991677005
20
1.09051867332664
30
0
0
SPLINE
5
128
100
AcDbEntity
8
1
62
256
6
ByLayer
370
18
48
1
60
0
100
AcDbSpline
70
4
71
3
72
12
73
8
40
0
40
0
40
0
40
0
40
0.5
40
0.5
40
0.75
40
0.75
40
1
40
1
40
1
40
1
41
1
10
33.8985991677005
20
1.09051867332664
30
0
41
1
10
33.9396396979149
20
1.05913728662841
30
0
41
1
10
33.9808352401753
20
1.02667012769246
30
0
41
1
10
34.0432121957153
20
0.976500099456786
30
0
41
1
10
34.0640855941062
20
0.95952543295445
30
0
41
1
10
34.1058595745461
20
0.924996105268093
30
0
41
1
10
34.1267667870086
20
0.907442940013851
30
0
41
1
10
34.1478051692757
20
0.889652256374177
30
0
0
SPLINE
5
129
100
AcDbEntity
8
1
62
256
6
ByLayer
370
18
48
1
60
0
100
AcDbSpline
70
4
71
3
72
8
73
4
40
0
40
0
40
0
40
0
40
1
40
1
40
1
40
1
41
1
10
34.1478051692757
20
0.889652256374148
30
0
41
1
10
34.1676245438507
20
0.850873772070543
30
0
41
1
10
34.1875788756749
20
0.812482528316195
30
0
41
1
10
34.2077049696321
20
0.774500135842118
30
0
0
SPLINE
5
12A
100
AcDbEntity
8
1
62
256
6
ByLayer
370
18
48
1
60
0
100
AcDbSpline
70
4
71
3
72
26
73
22
40
0
40
0
40
0
40
0
40
0.125
40
0.125
40
0.249999999999999
40
0.249999999999999
40
0.374999999999999
40
0.374999999999999
40
0.499999999999998
40
0.499999999999998
40
0.624999999999998
40
0.624999999999998
40
0.749999999999997
40
0.749999999999997
40
0.812499999999998
40
0.812499999999998
40
0.874999999999998
40
0.874999999999998
40
0.937499999999999
40
0.937499999999999
40
1
40
1
40
1
40
1
41
1
10
34.2077049696338
20
0.774500135840412
30
0
41
1
10
34.2113924551828
20
0.767541034703157
30
0
41
1
10
34.2156816442278
20
0.760880433910955
30
0
41
1
10
34.2251635984701
20
0.748011239691067
30
0
41
1
10
34.2304135376043
20
0.741760655327539
30
0
41
1
10
34.241326456481
20
0.73011177095961
30
0
41
1
10
34.2470235183375
20
0.724658747401065
30
0
41
1
10
34.2588521257307
20
0.714435355634123
30
0
41
1
10
34.2650222447064
20
0.709646791777288
30
0
41
1
10
34.2773495306923
20
0.701097622089151
30
0
41
1
10
34.2835541113319
20
0.697289342251878
30
0
41
1
10
34.2960253528545
20
0.690686862420733
30
0
41
1
10
34.3023240929492
20
0.687890450318349
30
0
41
1
10
34.3113722939747
20
0.68480834697084
30
0
41
1
10
34.3143374218806
20
0.683958248065835
30
0
41
1
10
34.3201480761178
20
0.682662966381628
30
0
41
1
10
34.3230070422788
20
0.682218956283975
30
0
41
1
10
34.328417414427
20
0.681828202485406
30
0
41
1
10
34.3309872146707
20
0.681874876846365
30
0
41
1
10
34.3358122049677
20
0.682530639733955
30
0
41
1
10
34.3380772467276
20
0.683146887121495
30
0
41
1
10
34.3400922567525
20
0.684087431715824
30
0
0
SPLINE
5
12B
100
AcDbEntity
8
1
62
256
6
ByLayer
370
18
48
1
60
0
100
AcDbSpline
70
4
71
3
72
8
73
4
40
0
40
0
40
0
40
0
40
1
40
1
40
1
40
1
41
1
10
34.3400922567544
20
0.684087431717217
30
0
41
1
10
34.350185127946
20
0.688798473015282
30
0
41
1
10
34.3602466197763
20
0.693177602303365
30
0
41
1
10
34.370280866642
20
0.69722951452934
30
0
0
SPLINE
5
12C
100
AcDbEntity
8
1
62
256
6
ByLayer
370
18
48
1
60
0
100
AcDbSpline
70
4
71
3
72
18
73
14
40
0
40
0
40
0
40
0
40
0.249973211630052
40
0.249973211630052
40
0.499982141086702
40
0.499982141086702
40
0.624986605815026
40
0.624986605815026
40
0.749991070543351
40
0.749991070543351
40
0.874995535271675
40
0.874995535271675
40
1
40
1
40
1
40
1
41
1
10
33.4534136734648
20
-1.21326844662605
30
0
41
1
10
33.4472646457703
20
-1.21290051378881
30
0
41
1
10
33.4410447145511
20
-1.21318648738867
30
0
41
1
10
33.42847257551
20
-1.21525614094034
30
0
41
1
10
33.4220347210752
20
-1.2170760888537
30
0
41
1
10
33.4126952758533
20
-1.22115639382397
30
0
41
1
10
33.4096309731931
20
-1.22273909237822
30
0
41
1
10
33.4036185803128
20
-1.22642044915781
30
0
41
1
10
33.4006494974211
20
-1.22853892973447
30
0
41
1
10
33.3950271868067
20
-1.23326392360929
30
0
41
1
10
33.3923593858258
20
-1.23587391285855
30
0
41
1
10
33.3873591044999
20
-1.24167247005619
30
0
41
1
10
33.3850255032818
20
-1.24487314667476
30
0
41
1
10
33.3829693199996
20
-1.24831131458998
30
0
0
SPLINE
5
12D
100
AcDbEntity
8
1
62
256
6
ByLayer
370
18
48
1
60
0
100
AcDbSpline
70
4
71
3
72
10
73
6
40
0
40
0
40
0
40
0
40
0.5
40
0.5
40
1
40
1
40
1
40
1
41
1
10
33.3829693199964
20
-1.24831131459155
30
0
41
1
10
33.3536279494527
20
-1.29737336060398
30
0
41
1
10
33.3244628518436
20
-1.34572487467628
30
0
41
1
10
33.2665814063747
20
-1.44059817919111
30
0
41
1
10
33.2379093353608
20
-1.48704811310324
30
0
41
1
10
33.2094733693484
20
-1.53242094805387
30
0
0
SPLINE
5
12E
100
AcDbEntity
8
1
62
256
6
ByLayer
370
18
48
1
60
0
100
AcDbSpline
70
4
71
3
72
10
73
6
40
0
40
0
40
0
40
0
40
0.5
40
0.5
40
1
40
1
40
1
40
1
41
1
10
33.1691481561313
20
-1.52756908516628
30
0
41
1
10
33.1392882378664
20
-1.47467666470857
30
0
41
1
10
33.1092091372668
20
-1.42019521470266
30
0
41
1
10
33.0483879295368
20
-1.30803534713044
30
0
41
1
10
33.0177815718973
20
-1.25060843973154
30
0
41
1
10
32.9868708172064
20
-1.19183054270962
30
0
0
SPLINE
5
12F
100
AcDbEntity
8
1
62
256
6
ByLayer
370
18
48
1
60
0
100
AcDbSpline
70
4
71
3
72
26
73
22
40
0
40
0
40
0
40
0
40
0.125
40
0.125
40
0.25
40
0.25
40
0.375
40
0.375
40
0.5
40
0.5
40
0.625
40
0.625
40
0.75
40
0.75
40
0.8125
40
0.8125
40
0.875
40
0.875
40
0.9375
40
0.9375
40
1
40
1
40
1
40
1
41
1
10
32.9868708172042
20
-1.19183054270553
30
0
41
1
10
32.9832924979611
20
-1.18502624167644
30
0
41
1
10
32.9791440329603
20
-1.17888464085934
30
0
41
1
10
32.9699644626781
20
-1.16761474132116
30
0
41
1
10
32.964886037507
20
-1.16246738404379
30
0
41
1
10
32.9542716233474
20
-1.15342453043473
30
0
41
1
10
32.9487049174548
20
-1.14948227523948
30
0
41
1
10
32.9370870122648
20
-1.1427111799008
30
0
41
1
10
32.9309788567987
20
-1.13986925718527
30
0
41
1
10
32.9186797092798
20
-1.13557289522072
30
0
41
1
10
32.9124607115318
20
-1.13408765679284
30
0
41
1
10
32.8998947356574
20
-1.13262189535993
30
0
41
1
10
32.8934623275149
20
-1.13265381470984
30
0
41
1
10
32.8841304916124
20
-1.1341655816189
30
0
41
1
10
32.8810689658255
20
-1.13490979845818
30
0
41
1
10
32.8750626668424
20
-1.13695373309139
30
0
41
1
10
32.8720966535033
20
-1.13826768868225
30
0
41
1
10
32.8664795478284
20
-1.14147822460802
30
0
41
1
10
32.8638144946328
20
-1.14337393543568
30
0
41
1
10
32.858819861746
20
-1.14784393946525
30
0
41
1
10
32.8564883885369
20
-1.15043087655258
30
0
41
1
10
32.8544339453915
20
-1.15333675393293
30
0
0
SPLINE
5
130
100
AcDbEntity
8
1
62
256
6
ByLayer
370
18
48
1
60
0
100
AcDbSpline
70
4
71
3
72
10
73
6
40
0
40
0
40
0
40
0
40
0.5
40
0.5
40
1
40
1
40
1
40
1
41
1
10
32.8544339453883
20
-1.15333675393811
30
0
41
1
10
32.8251746227077
20
-1.19472217954808
30
0
41
1
10
32.7960872865188
20
-1.23438404704865
30
0
41
1
10
32.7383460920597
20
-1.31004565499634
30
0
41
1
10
32.7097356067137
20
-1.34599442897886
30
0
41
1
10
32.6813524288036
20
-1.38004544194931
30
0
0
SPLINE
5
131
100
AcDbEntity
8
1
62
256
6
ByLayer
370
18
48
1
60
0
100
AcDbSpline
70
4
71
3
72
10
73
6
40
0
40
0
40
0
40
0
40
0.5
40
0.5
40
1
40
1
40
1
40
1
41
1
10
32.6398854388053
20
-1.36022447247595
30
0
41
1
10
32.610115789324
20
-1.29817616270887
30
0
41
1
10
32.5801538773616
20
-1.2356145969533
30
0
41
1
10
32.5195792364283
20
-1.10962043295223
30
0
41
1
10
32.489096835354
20
-1.04646339896829
30
0
41
1
10
32.4582842302809
20
-0.983205770286133
30
0
0
SPLINE
5
132
100
AcDbEntity
8
1
62
256
6
ByLayer
370
18
48
1
60
0
100
AcDbSpline
70
4
71
3
72
26
73
22
40
0
40
0
40
0
40
0
40
0.125
40
0.125
40
0.25
40
0.25
40
0.375
40
0.375
40
0.5
40
0.5
40
0.625
40
0.625
40
0.75
40
0.75
40
0.8125
40
0.8125
40
0.875
40
0.875
40
0.9375
40
0.9375
40
1
40
1
40
1
40
1
41
1
10
32.4582842302788
20
-0.983205770281728
30
0
41
1
10
32.4547123345285
20
-0.975872743602991
30
0
41
1
10
32.4505712654898
20
-0.969002815343316
30
0
41
1
10
32.4414059206489
20
-0.955977798738161
30
0
41
1
10
32.4363345613332
20
-0.949792044037366
30
0
41
1
10
32.4257314469755
20
-0.938470726458519
30
0
41
1
10
32.4201690391496
20
-0.933283051109413
30
0
41
1
10
32.4085561447556
20
-0.923812113461963
30
0
41
1
10
32.4024486892588
20
-0.919501216658745
30
0
41
1
10
32.3901492881009
20
-0.912134293191457
30
0
41
1
10
32.3839287482676
20
-0.90904168618934
30
0
41
1
10
32.3713564588687
20
-0.904184063295588
30
0
41
1
10
32.3649192461936
20
-0.902406561976903
30
0
41
1
10
32.355581523473
20
-0.901138057643323
30
0
41
1
10
32.352517778506
20
-0.900943677431286
30
0
41
1
10
32.3465064598288
20
-0.901081608687036
30
0
41
1
10
32.343537961141
20
-0.901420649344573
30
0
41
1
10
32.3379168579264
20
-0.902702812006794
30
0
41
1
10
32.3352495883053
20
-0.903641356709585
30
0
41
1
10
32.3302502029076
20
-0.906213622306097
30
0
41
1
10
32.3279169765518
20
-0.907857553646778
30
0
41
1
10
32.3258610095833
20
-0.90986194841858
30
0
0
SPLINE
5
133
100
AcDbEntity
8
1
62
256
6
ByLayer
370
18
48
1
60
0
100
AcDbSpline
70
4
71
3
72
10
73
6
40
0
40
0
40
0
40
0
40
0.5
40
0.5
40
1
40
1
40
1
40
1
41
1
10
32.3258610095803
20
-0.909861948424265
30
0
41
1
10
32.2965178594316
20
-0.938469050419343
30
0
41
1
10
32.2673508570611
20
-0.964570960206032
30
0
41
1
10
32.2094650518407
20
-1.0117436028722
30
0
41
1
10
32.1807912383154
20
-1.03278481915854
30
0
41
1
10
32.1523531327825
20
-1.05133982881546
30
0
0
SPLINE
5
134
100
AcDbEntity
8
1
62
256
6
ByLayer
370
18
48
1
60
0
100
AcDbSpline
70
4
71
3
72
10
73
6
40
0
40
0
40
0
40
0
40
0.5
40
0.5
40
1
40
1
40
1
40
1
41
1
10
32.1116330894257
20
-1.01979541439656
30
0
41
1
10
32.0818167216015
20
-0.956507746843215
30
0
41
1
10
32.0518061569755
20
-0.893870720840823
30
0
41
1
10
31.9911333701086
20
-0.770122125605241
30
0
41
1
10
31.9606017830363
20
-0.709285542904979
30
0
41
1
10
31.9297319171374
20
-0.649583010956292
30
0
0
SPLINE
5
135
100
AcDbEntity
8
1
62
256
6
ByLayer
370
18
48
1
60
0
100
AcDbSpline
70
4
71
3
72
26
73
22
40
0
40
0
40
0
40
0
40
0.125
40
0.125
40
0.25
40
0.25
40
0.375
40
0.375
40
0.5
40
0.5
40
0.625
40
0.625
40
0.75
40
0.75
40
0.8125
40
0.8125
40
0.875
40
0.875
40
0.9375
40
0.9375
40
1
40
1
40
1
40
1
41
1
10
31.9297319171353
20
-0.649583010952085
30
0
41
1
10
31.9261580223309
20
-0.642671073938118
30
0
41
1
10
31.9220143650717
20
-0.635969100543576
30
0
41
1
10
31.9128429756701
20
-0.622896419916202
30
0
41
1
10
31.9077678666134
20
-0.61648726364632
30
0
41
1
10
31.8971573857588
20
-0.604386806374578
30
0
41
1
10
31.8915913786289
20
-0.598644820246705
30
0
41
1
10
31.8799717595621
20
-0.587741804801453
30
0
41
1
10
31.8738614821592
20
-0.582542620726969
30
0
41
1
10
31.8615593551638
20
-0.573103316972293
30
0
41
1
10
31.8553381562649
20
-0.568825414956677
30
0
41
1
10
31.8427666351161
20
-0.561246145319814
30
0
41
1
10
31.8363316961389
20
-0.557909589444506
30
0
41
1
10
31.8270026783018
20
-0.554052977910459
30
0
41
1
10
31.8239420045013
20
-0.552953746771209
30
0
41
1
10
31.8179370992156
20
-0.551183295447288
30
0
41
1
10
31.8149722278555
20
-0.550510620466298
30
0
41
1
10
31.8093586385255
20
-0.5497111777469
30
0
41
1
10
31.8066949337303
20
-0.549576376751901
30
0
41
1
10
31.8017020829479
20
-0.549925821463972
30
0
41
1
10
31.7993716527649
20
-0.550417244737247
30
0
41
1
10
31.7973176917189
20
-0.551263006021088
30
0
0
SPLINE
5
136
100
AcDbEntity
8
1
62
256
6
ByLayer
370
18
48
1
60
0
100
AcDbSpline
70
4
71
3
72
10
73
6
40
0
40
0
40
0
40
0
40
0.5
40
0.5
40
1
40
1
40
1
40
1
41
1
10
31.7973176917159
20
-0.551263006025607
30
0
41
1
10
31.767999527932
20
-0.563335371227168
30
0
41
1
10
31.7388612352606
20
-0.572427852511595
30
0
41
1
10
31.6810351822415
20
-0.584892382507718
30
0
41
1
10
31.652391609584
20
-0.588264975994434
30
0
41
1
10
31.6239836051401
20
-0.588902248274223
30
0
0
SPLINE
5
137
100
AcDbEntity
8
1
62
256
6
ByLayer
370
18
48
1
60
0
100
AcDbSpline
70
4
71
3
72
10
73
6
40
0
40
0
40
0
40
0
40
0.5
40
0.5
40
1
40
1
40
1
40
1
41
1
10
31.5829268146538
20
-0.548994439740056
30
0
41
1
10
31.5531038666427
20
-0.492695327824464
30
0
41
1
10
31.5230838724475
20
-0.438118513931414
30
0
41
1
10
31.4624415507986
20
-0.332679320765663
30
0
41
1
10
31.4319517068588
20
-0.282047554873088
30
0
41
1
10
31.4011655329386
20
-0.233634914896044
30
0
0
SPLINE
5
138
100
AcDbEntity
8
1
62
256
6
ByLayer
370
18
48
1
60
0
100
AcDbSpline
70
4
71
3
72
26
73
22
40
0
40
0
40
0
40
0
40
0.125
40
0.125
40
0.250000000000001
40
0.250000000000001
40
0.375000000000001
40
0.375000000000001
40
0.500000000000001
40
0.500000000000001
40
0.625000000000002
40
0.625000000000002
40
0.750000000000002
40
0.750000000000002
40
0.812500000000001
40
0.812500000000001
40
0.875000000000001
40
0.875000000000001
40
0.9375
40
0.9375
40
1
40
1
40
1
40
1
41
1
10
31.4011655329364
20
-0.233634914892519
30
0
41
1
10
31.3975924669863
20
-0.228016108349863
30
0
41
1
10
31.393450454433
20
-0.222324804450835
30
0
41
1
10
31.3842845628827
20
-0.210844206495267
30
0
41
1
10
31.3792137756406
20
-0.205014109069168
30
0
41
1
10
31.3686125184967
20
-0.193643231231533
30
0
41
1
10
31.3630513932028
20
-0.188059627196964
30
0
41
1
10
31.3514416714883
20
-0.177072020422315
30
0
41
1
10
31.3453356552263
20
-0.171622871453081
30
0
41
1
10
31.3330367685431
20
-0.161260101262883
30
0
41
1
10
31.3268164826753
20
-0.156314325154426
30
0
41
1
10
31.3142449575709
20
-0.14692381359967
30
0
41
1
10
31.3078074050437
20
-0.142423421901384
30
0
41
1
10
31.2984641629989
20
-0.136424517192609
30
0
41
1
10
31.2953988015657
20
-0.134546502552297
30
0
41
1
10
31.2893847930294
20
-0.131067924191058
30
0
41
1
10
31.2864146354294
20
-0.129457342039018
30
0
41
1
10
31.2807891893127
20
-0.126657622768306
30
0
41
1
10
31.2781202621928
20
-0.125458559730902
30
0
41
1
10
31.2731185426095
20
-0.123529132625578
30
0
41
1
10
31.2707838780981
20
-0.122801782896204
30
0
41
1
10
31.2687269156638
20
-0.122379993089794
30
0
0
SPLINE
5
139
100
AcDbEntity
8
1
62
256
6
ByLayer
370
18
48
1
60
0
100
AcDbSpline
70
4
71
3
72
10
73
6
40
0
40
0
40
0
40
0
40
0.5
40
0.5
40
1
40
1
40
1
40
1
41
1
10
31.2687269156624
20
-0.12237999309275
30
0
41
1
10
31.2393928284229
20
-0.116364900756821
30
0
41
1
10
31.2102325366195
20
-0.107265289823715
30
0
41
1
10
31.1523535944078
20
-0.0833154394566691
30
0
41
1
10
31.1236796115136
20
-0.0684964634972403
30
0
41
1
10
31.095237586115
20
-0.0510208784523059
30
0
0
SPLINE
5
13A
100
AcDbEntity
8
1
62
256
6
ByLayer
370
18
48
1
60
0
100
AcDbSpline
70
4
71
3
72
10
73
6
40
0
40
0
40
0
40
0
40
0.5
40
0.5
40
1
40
1
40
1
40
1
41
1
10
31.0543313757297
20
-0.0082262430842093
30
0
41
1
10
31.0245154527982
20
0.0340397522511182
30
0
41
1
10
30.9945082219852
20
0.0737149789813145
30
0
41
1
10
30.9338831119159
20
0.14760314532154
30
0
41
1
10
30.9033969734031
20
0.181666159619397
30
0
41
1
10
30.8725849655371
20
0.212704120444357
30
0
0
SPLINE
5
13B
100
AcDbEntity
8
1
62
256
6
ByLayer
370
18
48
1
60
0
100
AcDbSpline
70
4
71
3
72
26
73
22
40
0
40
0
40
0
40
0
40
0.125
40
0.125
40
0.25
40
0.25
40
0.375000000000001
40
0.375000000000001
40
0.500000000000001
40
0.500000000000001
40
0.625000000000001
40
0.625000000000001
40
0.750000000000001
40
0.750000000000001
40
0.812500000000001
40
0.812500000000001
40
0.875
40
0.875
40
0.9375
40
0.9375
40
1
40
1
40
1
40
1
41
1
10
30.8725849655349
20
0.212704120446546
30
0
41
1
10
30.8690125991049
20
0.216302684025521
30
0
41
1
10
30.8648711309768
20
0.220245266348058
30
0
41
1
10
30.8557049183657
20
0.22864268829116
30
0
41
1
10
30.8506330525248
20
0.233135967341553
30
0
41
1
10
30.8400283697015
20
0.24229506571092
30
0
41
1
10
30.8344649426959
20
0.246990353744479
30
0
41
1
10
30.8228496657271
20
0.256623071410871
30
0
41
1
10
30.8167407699517
20
0.261605555738839
30
0
41
1
10
30.8044387053285
20
0.271522010195241
30
0
41
1
10
30.798217014816
20
0.27648067231695
30
0
41
1
10
30.7856430482677
20
0.286436936847821
30
0
41
1
10
30.7792052452149
20
0.291501294960767
30
0
41
1
10
30.7698670699716
20
0.298835263320598
30
0
41
1
10
30.7668033141159
20
0.301239537946429
30
0
41
1
10
30.7607922816507
20
0.305958759343696
30
0
41
1
10
30.7578239794226
20
0.308290292088344
30
0
41
1
10
30.7522031657134
20
0.312712320489737
30
0
41
1
10
30.7495361885992
20
0.314814183847716
30
0
41
1
10
30.7445375890434
20
0.318763183762172
30
0
41
1
10
30.7422045220028
20
0.32061164727611
30
0
41
1
10
30.7401486071203
20
0.322244653524393
30
0
0
SPLINE
5
13C
100
AcDbEntity
8
1
62
256
6
ByLayer
370
18
48
1
60
0
100
AcDbSpline
70
4
71
3
72
10
73
6
40
0
40
0
40
0
40
0
40
0.5
40
0.5
40
1
40
1
40
1
40
1
41
1
10
30.7401486071171
20
0.322244653523796
30
0
41
1
10
30.7107804792673
20
0.345571658298439
30
0
41
1
10
30.6815901747718
20
0.371675905294381
30
0
41
1
10
30.6236606597844
20
0.428893365837695
30
0
41
1
10
30.5949663639494
20
0.459948136853825
30
0
41
1
10
30.5665078013705
20
0.493234331616009
30
0
0
SPLINE
5
13D
100
AcDbEntity
8
1
62
256
6
ByLayer
370
18
48
1
60
0
100
AcDbSpline
70
4
71
3
72
10
73
6
40
0
40
0
40
0
40
0
40
0.5
40
0.5
40
1
40
1
40
1
40
1
41
1
10
30.5258416636805
20
0.533332399900132
30
0
41
1
10
30.4960222828764
20
0.556125463640711
30
0
41
1
10
30.46599967041
20
0.57582571955902
30
0
41
1
10
30.4053426755758
20
0.608782042347144
30
0
41
1
10
30.3748413868895
20
0.621973126605866
30
0
41
1
10
30.3440380227434
20
0.631720183230698
30
0
0
SPLINE
5
13E
100
AcDbEntity
8
1
62
256
6
ByLayer
370
18
48
1
60
0
100
AcDbSpline
70
4
71
3
72
26
73
22
40
0
40
0
40
0
40
0
40
0.125
40
0.125
40
0.250000000000001
40
0.250000000000001
40
0.375000000000001
40
0.375000000000001
40
0.500000000000001
40
0.500000000000001
40
0.625000000000001
40
0.625000000000001
40
0.750000000000002
40
0.750000000000002
40
0.812500000000001
40
0.812500000000001
40
0.875000000000001
40
0.875000000000001
40
0.9375
40
0.9375
40
1
40
1
40
1
40
1
41
1
10
30.3440380227411
20
0.631720183231465
30
0
41
1
10
30.3404627086536
20
0.632851513845338
30
0
41
1
10
30.336318138736
20
0.634556901632578
30
0
41
1
10
30.3271471650733
20
0.638830668514743
30
0
41
1
10
30.3220736912334
20
0.641430150822316
30
0
41
1
10
30.3114678547914
20
0.647240781603557
30
0
41
1
10
30.3059047782954
20
0.650464433931489
30
0
41
1
10
30.2942916577964
20
0.657542202539332
30
0
41
1
10
30.2881843786646
20
0.661436134513707
30
0
41
1
10
30.2758842159799
20
0.669667693576173
30
0
41
1
10
30.2696636573315
20
0.674018149877583
30
0
41
1
10
30.2570929330864
20
0.683289612012686
30
0
41
1
10
30.2506568512707
20
0.688280970783666
30
0
41
1
10
30.2413180251011
20
0.696031870709163
30
0
41
1
10
30.2382542471038
20
0.698660920414852
30
0
41
1
10
30.2322436843695
20
0.704027972734309
30
0
41
1
10
30.2292754342268
20
0.706787704563737
30
0
41
1
10
30.223653714331
20
0.71227789220697
30
0
41
1
10
30.2209866444737
20
0.71501848359506
30
0
41
1
10
30.2159885232218
20
0.720489444245032
30
0
41
1
10
30.2136552504765
20
0.723226317300202
30
0
41
1
10
30.2115992570901
20
0.72586439685827
30
0
0
SPLINE
5
13F
100
AcDbEntity
8
1
62
256
6
ByLayer
370
18
48
1
60
0
100
AcDbSpline
70
4
71
3
72
10
73
6
40
0
40
0
40
0
40
0
40
0.5
40
0.5
40
1
40
1
40
1
40
1
41
1
10
30.2115992570872
20
0.725864396859805
30
0
41
1
10
30.1822781464304
20
0.763486805164206
30
0
41
1
10
30.1531311214746
20
0.803222081861463
30
0
41
1
10
30.0952761244751
20
0.886292193962248
30
0
41
1
10
30.0666137859761
20
0.929557810203107
30
0
41
1
10
30.0381841360342
20
0.97434849267654
30
0
0
SPLINE
5
140
100
AcDbEntity
8
1
62
256
6
ByLayer
370
18
48
1
60
0
100
AcDbSpline
70
4
71
3
72
8
73
4
40
0
40
0
40
0
40
0
40
1
40
1
40
1
40
1
41
1
10
29.9978224898529
20
1.00668273815563
30
0
41
1
10
30.011273736196
20
0.99602999815059
30
0
41
1
10
30.0247265597607
20
0.98525115931011
30
0
41
1
10
30.0381841360342
20
0.97434849267654
30
0
0
SPLINE
5
141
100
AcDbEntity
8
1
62
256
6
ByLayer
370
18
48
1
60
0
100
AcDbSpline
70
4
71
3
72
10
73
6
40
0
40
0
40
0
40
0
40
0.5
40
0.5
40
1
40
1
40
1
40
1
41
1
10
29.9978224898539
20
1.00668273815072
30
0
41
1
10
29.9679620034164
20
1.00708264799019
30
0
41
1
10
29.9378818651548
20
1.00426722080997
30
0
41
1
10
29.877054622377
20
0.992023258069395
30
0
41
1
10
29.8464413012996
20
0.982630378468883
30
0
41
1
10
29.8154830668961
20
0.969801633454381
30
0
0
SPLINE
5
142
100
AcDbEntity
8
1
62
256
6
ByLayer
370
18
48
1
60
0
100
AcDbSpline
70
4
71
3
72
26
73
22
40
0
40
0
40
0
40
0
40
0.125
40
0.125
40
0.249999999999999
40
0.249999999999999
40
0.374999999999999
40
0.374999999999999
40
0.499999999999998
40
0.499999999999998
40
0.624999999999998
40
0.624999999999998
40
0.749999999999997
40
0.749999999999997
40
0.812499999999998
40
0.812499999999998
40
0.874999999999998
40
0.874999999999998
40
0.937499999999999
40
0.937499999999999
40
1
40
1
40
1
40
1
41
1
10
29.8154830668939
20
0.969801633453443
30
0
41
1
10
29.8119032185556
20
0.968318184465659
30
0
41
1
10
29.8077527062193
20
0.967566648164734
30
0
41
1
10
29.7985671742347
20
0.967170696572595
30
0
41
1
10
29.7934843707755
20
0.967546331834484
30
0
41
1
10
29.7828600295274
20
0.969276246164497
30
0
41
1
10
29.777287765708
20
0.970624317687083
30
0
41
1
10
29.7656572766593
20
0.974266193258586
30
0
41
1
10
29.75954283334
20
0.976589207515843
30
0
41
1
10
29.7472363818691
20
0.98211603061884
30
0
41
1
10
29.741014152471
20
0.985320831195196
30
0
41
1
10
29.7284436645799
20
0.992763186137665
30
0
41
1
10
29.7220120105757
20
0.997064704994273
30
0
41
1
10
29.7126937035476
20
1.00425819896955
30
0
41
1
10
29.7096367817485
20
1.00678108567172
30
0
41
1
10
29.703639788184
20
1.01211901243809
30
0
41
1
10
29.7006793250989
20
1.01495693209793
30
0
41
1
10
29.6950745727283
20
1.02081288002887
30
0
41
1
10
29.6924151292828
20
1.02384085042581
30
0
41
1
10
29.6874302767046
20
1.03013053021101
30
0
41
1
10
29.6851029654251
20
1.03340195177199
30
0
41
1
10
29.6830510962375
20
1.03670344787267
30
0
0
SPLINE
5
143
100
AcDbEntity
8
1
62
256
6
ByLayer
370
18
48
1
60
0
100
AcDbSpline
70
4
71
3
72
10
73
6
40
0
40
0
40
0
40
0
40
0.5
40
0.5
40
1
40
1
40
1
40
1
41
1
10
29.6830510962362
20
1.03670344787341
30
0
41
1
10
29.6537430369646
20
1.08386066627463
30
0
41
1
10
29.6246198115919
20
1.13220482628884
30
0
41
1
10
29.5668309951046
20
1.23065656770953
30
0
41
1
10
29.5382101305182
20
1.28068200396243
30
0
41
1
10
29.509825239362
20
1.33132155591696
30
0
0
SPLINE
5
144
100
AcDbEntity
8
1
62
256
6
ByLayer
370
18
48
1
60
0
100
AcDbSpline
70
4
71
3
72
10
73
6
40
0
40
0
40
0
40
0
40
0.5
40
0.5
40
1
40
1
40
1
40
1
41
1
10
29.4691601455588
20
1.35219761008648
30
0
41
1
10
29.4392991631251
20
1.33018696578574
30
0
41
1
10
29.409223108012
20
1.30525217832815
30
0
41
1
10
29.3484252561735
20
1.24941773968806
30
0
41
1
10
29.3178360430807
20
1.2186431271885
30
0
41
1
10
29.2869281238709
20
1.18491551415013
30
0
0
SPLINE
5
145
100
AcDbEntity
8
1
62
256
6
ByLayer
370
18
48
1
60
0
100
AcDbSpline
70
4
71
3
72
26
73
22
40
0
40
0
40
0
40
0
40
0.125
40
0.125
40
0.249999999999999
40
0.249999999999999
40
0.374999999999999
40
0.374999999999999
40
0.499999999999998
40
0.499999999999998
40
0.624999999999998
40
0.624999999999998
40
0.749999999999998
40
0.749999999999998
40
0.812499999999998
40
0.812499999999998
40
0.874999999999999
40
0.874999999999999
40
0.937499999999999
40
0.937499999999999
40
1
40
1
40
1
40
1
41
1
10
29.2869281238686
20
1.18491551414763
30
0
41
1
10
29.2833470448204
20
1.18100773738792
30
0
41
1
10
29.2791953330948
20
1.17789724896696
30
0
41
1
10
29.2700088904115
20
1.17288555592285
30
0
41
1
10
29.2649265259915
20
1.17099049554057
30
0
41
1
10
29.2543050059405
20
1.16841823276539
30
0
41
1
10
29.2487350103099
20
1.16771695894636
30
0
41
1
10
29.2371104768209
20
1.16744963014071
30
0
41
1
10
29.2309995180937
20
1.16789892398361
30
0
41
1
10
29.2186980777296
20
1.17000221955234
30
0
41
1
10
29.2124781318197
20
1.17164355837298
30
0
41
1
10
29.1999107960536
20
1.17628612898869
30
0
41
1
10
29.1934790912116
20
1.17933823179027
30
0
41
1
10
29.1841563164781
20
1.18505454166061
30
0
41
1
10
29.1810978859695
20
1.18714888709465
30
0
41
1
10
29.1750980359688
20
1.19177634095451
30
0
41
1
10
29.1721358524048
20
1.19433173814809
30
0
41
1
10
29.1665272590428
20
1.19981363994393
30
0
41
1
10
29.1638662431045
20
1.20274656190887
30
0
41
1
10
29.1588790339887
20
1.20906073816971
30
0
41
1
10
29.1565505874812
20
1.21245457627575
30
0
41
1
10
29.1544980039326
20
1.21600310232702
30
0
0
SPLINE
5
146
100
AcDbEntity
8
1
62
256
6
ByLayer
370
18
48
1
60
0
100
AcDbSpline
70
4
71
3
72
10
73
6
40
0
40
0
40
0
40
0
40
0.5
40
0.5
40
1
40
1
40
1
40
1
41
1
10
29.1544980039296
20
1.21600310233177
30
0
41
1
10
29.1252320511226
20
1.26659836118966
30
0
41
1
10
29.0961470670241
20
1.31729935006567
30
0
41
1
10
29.038426583897
20
1.4183882093501
30
0
41
1
10
29.009834878282
20
1.46869457371241
30
0
41
1
10
28.981471725577
20
1.5186251232536
30
0
0
SPLINE
5
147
100
AcDbEntity
8
1
62
256
6
ByLayer
370
18
48
1
60
0
100
AcDbSpline
70
4
71
3
72
10
73
6
40
0
40
0
40
0
40
0
40
0.5
40
0.5
40
1
40
1
40
1
40
1
41
1
10
28.9404255619131
20
1.52521866268643
30
0
41
1
10
28.9105630686516
20
1.48372757130778
30
0
41
1
10
28.880492178757
20
1.43996348355068
30
0
41
1
10
28.8197422665525
20
1.34782942014246
30
0
41
1
10
28.7891964480326
20
1.29966229348449
30
0
41
1
10
28.7583647375819
20
1.24934295765939
30
0
0
SPLINE
5
148
100
AcDbEntity
8
1
62
256
6
ByLayer
370
18
48
1
60
0
100
AcDbSpline
70
4
71
3
72
26
73
22
40
0
40
0
40
0
40
0
40
0.125
40
0.125
40
0.25
40
0.25
40
0.375
40
0.375
40
0.5
40
0.5
40
0.625
40
0.625
40
0.75
40
0.75
40
0.8125
40
0.8125
40
0.875
40
0.875
40
0.9375
40
0.9375
40
1
40
1
40
1
40
1
41
1
10
28.7583647375796
20
1.24934295765564
30
0
41
1
10
28.7547840712406
20
1.24349907973473
30
0
41
1
10
28.7506330118679
20
1.23841230099305
30
0
41
1
10
28.7414490016036
20
1.22939035042819
30
0
41
1
10
28.7363688241069
20
1.22544659145882
30
0
41
1
10
28.7257520447104
20
1.21885668035605
30
0
41
1
10
28.7201845545322
20
1.21617165902739
30
0
41
1
10
28.7085654776699
20
1.2119792532595
30
0
41
1
10
28.7024568743711
20
1.21047082462707
30
0
41
1
10
28.6901568406595
20
1.20882874807128
30
0
41
1
10
28.6839374870364
20
1.20867086863254
30
0
41
1
10
28.6713712208546
20
1.20986985793718
30
0
41
1
10
28.6649387985913
20
1.21125701560882
30
0
41
1
10
28.655606784872
20
1.21473120083749
30
0
41
1
10
28.6525453234238
20
1.21611858799886
30
0
41
1
10
28.6465394639639
20
1.21942423658947
30
0
41
1
10
28.6435736083764
20
1.22136130350688
30
0
41
1
10
28.6379561135494
20
1.22575360592566
30
0
41
1
10
28.6352910104019
20
1.22821056388349
30
0
41
1
10
28.6302964718981
20
1.23373339367646
30
0
41
1
10
28.6279643806564
20
1.23681319493971
30
0
41
1
10
28.6259090648475
20
1.24015428342162
30
0
0
SPLINE
5
149
100
AcDbEntity
8
1
62
256
6
ByLayer
370
18
48
1
60
0
100
AcDbSpline
70
4
71
3
72
8
73
4
40
0
40
0
40
0
40
0
40
1
40
1
40
1
40
1
41
1
10
28.6259090648451
20
1.24015428342614
30
0
41
1
10
28.603018121462
20
1.27736543460665
30
0
41
1
10
28.5802292568386
20
1.3139781297661
30
0
41
1
10
28.5575816070657
20
1.34987587440986
30
0
0
SPLINE
5
14A
100
AcDbEntity
8
1
62
256
6
ByLayer
370
18
48
1
60
0
100
AcDbSpline
70
4
71
3
72
10
73
6
40
0
40
0
40
0
40
0
40
0.5
40
0.5
40
1
40
1
40
1
40
1
41
1
10
28.5575816070657
20
1.34987587440983
30
0
41
1
10
28.5138804057511
20
1.31798149283441
30
0
41
1
10
28.4698743182696
20
1.28380823083435
30
0
41
1
10
28.3808927097948
20
1.2110644597864
30
0
41
1
10
28.3359112025567
20
1.17249070448926
30
0
41
1
10
28.2901876069907
20
1.1317505293338
30
0
0
SPLINE
5
14B
100
AcDbEntity
8
1
62
256
6
ByLayer
370
18
48
1
60
0
100
AcDbSpline
70
4
71
3
72
12
73
8
40
0
40
0
40
0
40
0
40
0.250000000000012
40
0.250000000000012
40
0.500000000000024
40
0.500000000000024
40
1
40
1
40
1
40
1
41
1
10
28.2901876069907
20
1.1317505293338
30
0
41
1
10
28.2714386918178
20
1.11504506077503
30
0
41
1
10
28.2521298731563
20
1.09925886631521
30
0
41
1
10
28.21242852045
20
1.06949413440208
30
0
41
1
10
28.1920058617642
20
1.05552292866065
30
0
41
1
10
28.129180233452
20
1.01645965098834
30
0
41
1
10
28.0852888620673
20
0.994199645308726
30
0
41
1
10
28.0401876069951
20
0.975990024846254
30
0
0
SPLINE
5
14C
100
AcDbEntity
8
1
62
256
6
ByLayer
370
18
48
1
60
0
100
AcDbSpline
70
4
71
3
72
8
73
4
40
0
40
0
40
0
40
0
40
1
40
1
40
1
40
1
41
1
10
28.6435103296668
20
0.386446761770003
30
0
41
1
10
28.6774254569219
20
0.33043597689138
30
0
41
1
10
28.7117209688757
20
0.277079655021311
30
0
41
1
10
28.7464168419058
20
0.226803896725215
30
0
0
SPLINE
5
14D
100
AcDbEntity
8
1
62
256
6
ByLayer
370
18
48
1
60
0
100
AcDbSpline
70
4
71
3
72
26
73
22
40
0
40
0
40
0
40
0
40
0.12500000000002
40
0.12500000000002
40
0.250000000000041
40
0.250000000000041
40
0.375000000000061
40
0.375000000000061
40
0.500000000000081
40
0.500000000000081
40
0.625000000000102
40
0.625000000000102
40
0.750000000000122
40
0.750000000000122
40
0.812500000000091
40
0.812500000000091
40
0.875000000000061
40
0.875000000000061
40
0.93750000000003
40
0.93750000000003
40
1
40
1
40
1
40
1
41
1
10
28.7464168419058
20
0.226803896725187
30
0
41
1
10
28.7500781615475
20
0.221498492789095
30
0
41
1
10
28.754333307413
20
0.216070025747882
30
0
41
1
10
28.7637413830856
20
0.205041443961562
30
0
41
1
10
28.7689486287558
20
0.199395162011967
30
0
41
1
10
28.7797866290143
20
0.188344806729162
30
0
41
1
10
28.7854508107924
20
0.18289720062532
30
0
41
1
10
28.7972256265761
20
0.172129576949203
30
0
41
1
10
28.8033804730053
20
0.166776745158955
30
0
41
1
10
28.8156996880749
20
0.156553536117059
30
0
41
1
10
28.8219075378576
20
0.15163989280444
30
0
41
1
10
28.834402604147
20
0.142222501393547
30
0
41
1
10
28.8407403054327
20
0.13768764358781
30
0
41
1
10
28.8498600603235
20
0.131558837365503
30
0
41
1
10
28.8528498218029
20
0.129617244075149
30
0
41
1
10
28.8587111176473
20
0.125964206420804
30
0
41
1
10
28.8615981474716
20
0.12424483484881
30
0
41
1
10
28.8670627307762
20
0.121174754375375
30
0
41
1
10
28.8696580071077
20
0.119811827457028
30
0
41
1
10
28.8745293383993
20
0.117486932639565
30
0
41
1
10
28.8768135896501
20
0.116523537805932
30
0
41
1
10
28.8788405224942
20
0.115831274195131
30
0
0
SPLINE
5
14E
100
AcDbEntity
8
1
62
256
6
ByLayer
370
18
48
1
60
0
100
AcDbSpline
70
4
71
3
72
10
73
6
40
0
40
0
40
0
40
0
40
0.5
40
0.5
40
1
40
1
40
1
40
1
41
1
10
28.8788405224968
20
0.115831274195244
30
0
41
1
10
28.9083385367645
20
0.105756741177373
30
0
41
1
10
28.9376106643486
20
0.0927887340905329
30
0
41
1
10
28.9956653712749
20
0.0613991737320987
30
0
41
1
10
29.02440015724
20
0.0430069342194486
30
0
41
1
10
29.0528885746478
20
0.0220245861700334
30
0
0
SPLINE
5
14F
100
AcDbEntity
8
1
62
256
6
ByLayer
370
18
48
1
60
0
100
AcDbSpline
70
4
71
3
72
10
73
6
40
0
40
0
40
0
40
0
40
0.5
40
0.5
40
1
40
1
40
1
40
1
41
1
10
29.0936558459363
20
-0.0205806168505944
30
0
41
1
10
29.1232920769529
20
-0.0590909905510273
30
0
41
1
10
29.1531543582493
20
-0.0950366465141883
30
0
41
1
10
29.2136120347963
20
-0.161389623240268
30
0
41
1
10
29.2440790203862
20
-0.191629252882564
30
0
41
1
10
29.2749401952132
20
-0.21876516795561
30
0
0
SPLINE
5
150
100
AcDbEntity
8
1
62
256
6
ByLayer
370
18
48
1
60
0
100
AcDbSpline
70
4
71
3
72
26
73
22
40
0
40
0
40
0
40
0
40
0.12500000000002
40
0.12500000000002
40
0.250000000000041
40
0.250000000000041
40
0.375000000000061
40
0.375000000000061
40
0.500000000000082
40
0.500000000000082
40
0.625000000000102
40
0.625000000000102
40
0.750000000000123
40
0.750000000000123
40
0.812500000000092
40
0.812500000000092
40
0.875000000000061
40
0.875000000000061
40
0.937500000000031
40
0.937500000000031
40
1
40
1
40
1
40
1
41
1
10
29.2749401952132
20
-0.21876516795561
30
0
41
1
10
29.2786031019563
20
-0.221985924354385
30
0
41
1
10
29.2828598631863
20
-0.225629893789403
30
0
41
1
10
29.2922710114494
20
-0.233535020879117
30
0
41
1
10
29.2974800170236
20
-0.237840014244995
30
0
41
1
10
29.3083214112074
20
-0.246698121904785
30
0
41
1
10
29.3139872003841
20
-0.251280136212216
30
0
41
1
10
29.3257653871969
20
-0.260752617312676
30
0
41
1
10
29.3319216234147
20
-0.265677775136027
30
0
41
1
10
29.3442423229904
20
-0.275533412726929
30
0
41
1
10
29.3504506906705
20
-0.280499049116628
30
0
41
1
10
29.3629457763595
20
-0.290551300493547
30
0
41
1
10
29.3692814125179
20
-0.295678321184653
30
0
41
1
10
29.3783954918501
20
-0.303153152559446
30
0
41
1
10
29.3813831584337
20
-0.305620460039279
30
0
41
1
10
29.3872397830693
20
-0.310502655351911
30
0
41
1
10
29.3901240526939
20
-0.312930880234347
30
0
41
1
10
29.3955828133144
20
-0.317586108604814
30
0
41
1
10
29.3981751089928
20
-0.319827670035892
30
0
41
1
10
29.4030405443824
20
-0.324110675349289
30
0
41
1
10
29.4053221563761
20
-0.326160452391292
30
0
41
1
10
29.4073472420464
20
-0.328029505177483
30
0
0
SPLINE
5
151
100
AcDbEntity
8
1
62
256
6
ByLayer
370
18
48
1
60
0
100
AcDbSpline
70
4
71
3
72
10
73
6
40
0
40
0
40
0
40
0
40
0.5
40
0.5
40
1
40
1
40
1
40
1
41
1
10
29.407347242049
20
-0.328029505179018
30
0
41
1
10
29.4368509141312
20
-0.355259918843444
30
0
41
1
10
29.4661256342125
20
-0.385021178149714
30
0
41
1
10
29.5241748724218
20
-0.449195182204392
30
0
41
1
10
29.5528999053815
20
-0.483553320365843
30
0
41
1
10
29.5813729612428
20
-0.520052364547666
30
0
0
SPLINE
5
152
100
AcDbEntity
8
1
62
256
6
ByLayer
370
18
48
1
60
0
100
AcDbSpline
70
4
71
3
72
10
73
6
40
0
40
0
40
0
40
0
40
0.5
40
0.5
40
1
40
1
40
1
40
1
41
1
10
29.6224951974725
20
-0.560317775349404
30
0
41
1
10
29.6521174152755
20
-0.579313540908544
30
0
41
1
10
29.6819604085701
20
-0.595278806735649
30
0
41
1
10
29.7423362850183
20
-0.620833496863725
30
0
41
1
10
29.7727348299068
20
-0.630375516764644
30
0
41
1
10
29.8035163024102
20
-0.636460113655204
30
0
0
SPLINE
5
153
100
AcDbEntity
8
1
62
256
6
ByLayer
370
18
48
1
60
0
100
AcDbSpline
70
4
71
3
72
26
73
22
40
0
40
0
40
0
40
0
40
0.12500000000002
40
0.12500000000002
40
0.250000000000041
40
0.250000000000041
40
0.375000000000061
40
0.375000000000061
40
0.500000000000081
40
0.500000000000081
40
0.625000000000102
40
0.625000000000102
40
0.750000000000122
40
0.750000000000122
40
0.812500000000092
40
0.812500000000092
40
0.875000000000061
40
0.875000000000061
40
0.937500000000031
40
0.937500000000031
40
1
40
1
40
1
40
1
41
1
10
29.8035163024072
20
-0.636460113648866
30
0
41
1
10
29.8071771683917
20
-0.637183759789735
30
0
41
1
10
29.8114308124079
20
-0.638576595975593
30
0
41
1
10
29.820834151716
20
-0.64234522457545
30
0
41
1
10
29.8260381829859
20
-0.644756523951116
30
0
41
1
10
29.8368708221605
20
-0.650285793524631
30
0
41
1
10
29.8425328523137
20
-0.653414231180079
30
0
41
1
10
29.8543059824852
20
-0.660376006032095
30
0
41
1
10
29.8604617047643
20
-0.664242454079101
30
0
41
1
10
29.8727845907955
20
-0.672470942663068
30
0
41
1
10
29.8789950214962
20
-0.676854775072798
30
0
41
1
10
29.8914953777144
20
-0.686261556422807
30
0
41
1
10
29.8978366544796
20
-0.691332145352902
30
0
41
1
10
29.9069592708124
20
-0.699211161396818
30
0
41
1
10
29.909949529327
20
-0.701893519575208
30
0
41
1
10
29.9158107074123
20
-0.707390414421468
30
0
41
1
10
29.9186975632787
20
-0.7102227071355
30
0
41
1
10
29.9241613371747
20
-0.715879571136355
30
0
41
1
10
29.926755591228
20
-0.718718657441769
30
0
41
1
10
29.9316239598354
20
-0.724421757263713
30
0
41
1
10
29.9339069075474
20
-0.727300221779586
30
0
41
1
10
29.9359331220472
20
-0.730110502381677
30
0
0
SPLINE
5
154
100
AcDbEntity
8
1
62
256
6
ByLayer
370
18
48
1
60
0
100
AcDbSpline
70
4
71
3
72
10
73
6
40
0
40
0
40
0
40
0
40
0.5
40
0.5
40
1
40
1
40
1
40
1
41
1
10
29.9359331220514
20
-0.730110502386935
30
0
41
1
10
29.96547798124
20
-0.771088071488634
30
0
41
1
10
29.9947882802233
20
-0.813962573047263
30
0
41
1
10
30.0529009516236
20
-0.902935674812795
30
0
41
1
10
30.0816555934913
20
-0.948951251763305
30
0
41
1
10
30.1101632426876
20
-0.996311562456725
30
0
0
SPLINE
5
155
100
AcDbEntity
8
1
62
256
6
ByLayer
370
18
48
1
60
0
100
AcDbSpline
70
4
71
3
72
10
73
6
40
0
40
0
40
0
40
0
40
0.5
40
0.5
40
1
40
1
40
1
40
1
41
1
10
30.1509930685639
20
-1.02843145654063
30
0
41
1
10
30.1805897659348
20
-1.02542079732933
30
0
41
1
10
30.21041455431
20
-1.0193235120714
30
0
41
1
10
30.2707591203633
20
-1.00082459855238
30
0
41
1
10
30.3011542207931
20
-0.988441627574332
30
0
41
1
10
30.3319576149834
20
-0.972702584758082
30
0
0
SPLINE
5
156
100
AcDbEntity
8
1
62
256
6
ByLayer
370
18
48
1
60
0
100
AcDbSpline
70
4
71
3
72
26
73
22
40
0
40
0
40
0
40
0
40
0.125
40
0.125
40
0.25
40
0.25
40
0.375
40
0.375
40
0.5
40
0.5
40
0.625
40
0.625
40
0.75
40
0.75
40
0.8125
40
0.8125
40
0.875
40
0.875
40
0.9375
40
0.9375
40
1
40
1
40
1
40
1
41
1
10
30.3319576149834
20
-0.972702584758082
30
0
41
1
10
30.3356231824122
20
-0.970829657303227
30
0
41
1
10
30.3398836734391
20
-0.969789519230034
30
0
41
1
10
30.3493035026781
20
-0.968939848077156
30
0
41
1
10
30.3545177329634
20
-0.969153425113007
30
0
41
1
10
30.3653686220675
20
-0.970664408662401
30
0
41
1
10
30.371038826018
20
-0.971952720716843
30
0
41
1
10
30.3828247677664
20
-0.975549461701263
30
0
41
1
10
30.3889835300323
20
-0.977883982463908
30
0
41
1
10
30.4013064097564
20
-0.98347733759212
30
0
41
1
10
30.4075150860841
20
-0.986742960238843
30
0
41
1
10
30.4200088286272
20
-0.994350548810559
30
0
41
1
10
30.4263403247036
20
-0.998736404008724
30
0
41
1
10
30.4354463161433
20
-1.0060354747186
30
0
41
1
10
30.4384312342118
20
-1.00859731003629
30
0
41
1
10
30.4442823035981
20
-1.01401976734366
30
0
41
1
10
30.4471634785969
20
-1.01689896024121
30
0
41
1
10
30.4526164326344
20
-1.02284071353489
30
0
41
1
10
30.4552061287106
20
-1.02591703824399
30
0
41
1
10
30.4600671375345
20
-1.03231514939233
30
0
41
1
10
30.4623471694565
20
-1.03565514588891
30
0
41
1
10
30.4643716478758
20
-1.03904753274802
30
0
0
SPLINE
5
157
100
AcDbEntity
8
1
62
256
6
ByLayer
370
18
48
1
60
0
100
AcDbSpline
70
4
71
3
72
10
73
6
40
0
40
0
40
0
40
0
40
0.5
40
0.5
40
1
40
1
40
1
40
1
41
1
10
30.4643716478783
20
-1.03904753275182
30
0
41
1
10
30.4939354833513
20
-1.08858718998783
30
0
41
1
10
30.5232627674171
20
-1.13907240078058
30
0
41
1
10
30.5814089930213
20
-1.24139037953168
30
0
41
1
10
30.6101795038508
20
-1.29313373653406
30
0
41
1
10
30.6387002676605
20
-1.34531379601225
30
0
0
SPLINE
5
158
100
AcDbEntity
8
1
62
256
6
ByLayer
370
18
48
1
60
0
100
AcDbSpline
70
4
71
3
72
10
73
6
40
0
40
0
40
0
40
0
40
0.5
40
0.5
40
1
40
1
40
1
40
1
41
1
10
30.6797366058786
20
-1.36564940691321
30
0
41
1
10
30.7093368298178
20
-1.3411682548913
30
0
41
1
10
30.7391532605513
20
-1.31394226871586
30
0
41
1
10
30.7994511720424
20
-1.25389813349363
30
0
41
1
10
30.8297947709336
20
-1.22121885023321
30
0
41
1
10
30.8605217508276
20
-1.18577702581717
30
0
0
SPLINE
5
159
100
AcDbEntity
8
1
62
256
6
ByLayer
370
18
48
1
60
0
100
AcDbSpline
70
4
71
3
72
26
73
22
40
0
40
0
40
0
40
0
40
0.125
40
0.125
40
0.250000000000001
40
0.250000000000001
40
0.375000000000001
40
0.375000000000001
40
0.500000000000002
40
0.500000000000002
40
0.625000000000002
40
0.625000000000002
40
0.750000000000002
40
0.750000000000002
40
0.812500000000002
40
0.812500000000002
40
0.875000000000001
40
0.875000000000001
40
0.937500000000001
40
0.937500000000001
40
1
40
1
40
1
40
1
41
1
10
30.8605217508276
20
-1.18577702581717
30
0
41
1
10
30.8641847927128
20
-1.18155191525514
30
0
41
1
10
30.8684412713058
20
-1.17821364740141
30
0
41
1
10
30.8778508517449
20
-1.17284986648565
30
0
41
1
10
30.8830583202942
20
-1.17083179033924
30
0
41
1
10
30.8938976814417
20
-1.16810786666937
30
0
41
1
10
30.8995634582243
20
-1.16737433403711
30
0
41
1
10
30.9113440449881
20
-1.16710461063025
30
0
41
1
10
30.917502568044
20
-1.16758512848841
30
0
41
1
10
30.9298280148482
20
-1.16978139965499
30
0
41
1
10
30.9360390554713
20
-1.17148701877301
30
0
41
1
10
30.9485381557217
20
-1.17627496680291
30
0
41
1
10
30.9548747425905
20
-1.1793963534416
30
0
41
1
10
30.963987915458
20
-1.18515978415246
30
0
41
1
10
30.9669749336601
20
-1.18726633162004
30
0
41
1
10
30.9728296706113
20
-1.19190699849469
30
0
41
1
10
30.9757131604676
20
-1.1944595168693
30
0
41
1
10
30.98117131858
20
-1.19991856952924
30
0
41
1
10
30.9837633095232
20
-1.20283506452284
30
0
41
1
10
30.9886284226091
20
-1.2091029595984
30
0
41
1
10
30.9909107611689
20
-1.21247475555327
30
0
41
1
10
30.992937534986
20
-1.21601365254935
30
0
0
SPLINE
5
15A
100
AcDbEntity
8
1
62
256
6
ByLayer
370
18
48
1
60
0
100
AcDbSpline
70
4
71
3
72
10
73
6
40
0
40
0
40
0
40
0
40
0.5
40
0.5
40
1
40
1
40
1
40
1
41
1
10
30.9929375349902
20
-1.21601365255651
30
0
41
1
10
31.022569147562
20
-1.26775263983731
30
0
41
1
10
31.0519569109561
20
-1.31938490305941
30
0
41
1
10
31.1102153230984
20
-1.4219723458219
30
0
41
1
10
31.139037653288
20
-1.47284175320309
30
0
41
1
10
31.1676088106321
20
-1.5231816335918
30
0
0
SPLINE
5
15B
100
AcDbEntity
8
1
62
256
6
ByLayer
370
18
48
1
60
0
100
AcDbSpline
70
4
71
3
72
10
73
6
40
0
40
0
40
0
40
0
40
0.5
40
0.5
40
1
40
1
40
1
40
1
41
1
10
31.2077494268817
20
-1.5288426125131
30
0
41
1
10
31.2373684435273
20
-1.48598622138195
30
0
41
1
10
31.2672288718937
20
-1.44110875503651
30
0
41
1
10
31.3276642338556
20
-1.34731759636071
30
0
41
1
10
31.3581147874413
20
-1.29859285843921
30
0
41
1
10
31.3889540559106
20
-1.24799350349997
30
0
0
SPLINE
5
15C
100
AcDbEntity
8
1
62
256
6
ByLayer
370
18
48
1
60
0
100
AcDbSpline
70
4
71
3
72
26
73
22
40
0
40
0
40
0
40
0
40
0.125
40
0.125
40
0.25
40
0.25
40
0.375
40
0.375
40
0.5
40
0.5
40
0.625
40
0.625
40
0.75
40
0.75
40
0.8125
40
0.8125
40
0.875
40
0.875
40
0.9375
40
0.9375
40
1
40
1
40
1
40
1
41
1
10
31.3889540559106
20
-1.24799350349997
30
0
41
1
10
31.3926302164551
20
-1.24196186392376
30
0
41
1
10
31.396903782347
20
-1.23676758756235
30
0
41
1
10
31.4063502183561
20
-1.22762188561364
30
0
41
1
10
31.4115784750723
20
-1.22366163063632
30
0
41
1
10
31.4224519278223
20
-1.21713002075586
30
0
41
1
10
31.4281311896799
20
-1.21451567908181
30
0
41
1
10
31.4399298325267
20
-1.21051515910438
30
0
41
1
10
31.4460908068916
20
-1.2091347936408
30
0
41
1
10
31.4584121861387
20
-1.20775598818554
30
0
41
1
10
31.4646179349453
20
-1.20773242403698
30
0
41
1
10
31.4771016770404
20
-1.20917757281896
30
0
41
1
10
31.4834226032394
20
-1.21067333198883
30
0
41
1
10
31.4925114649822
20
-1.21420641655308
30
0
41
1
10
31.495490677358
20
-1.21560057278896
30
0
41
1
10
31.5013303657971
20
-1.218886949515
30
0
41
1
10
31.5042056632935
20
-1.22079385165458
30
0
41
1
10
31.5096481202105
20
-1.22508024925691
30
0
41
1
10
31.5122331205502
20
-1.22746586205361
30
0
41
1
10
31.5170859840469
20
-1.2328011139445
30
0
41
1
10
31.5193631346843
20
-1.23577005387554
30
0
41
1
10
31.5213863614711
20
-1.23899691476402
30
0
0
SPLINE
5
15D
100
AcDbEntity
8
1
62
256
6
ByLayer
370
18
48
1
60
0
100
AcDbSpline
70
4
71
3
72
10
73
6
40
0
40
0
40
0
40
0
40
0.5
40
0.5
40
1
40
1
40
1
40
1
41
1
10
31.5213863614736
20
-1.23899691476834
30
0
41
1
10
31.5509562192357
20
-1.28615812187147
30
0
41
1
10
31.5802853601049
20
-1.33218568084911
30
0
41
1
10
31.638431986676
20
-1.42162549084168
30
0
41
1
10
31.6671994182903
20
-1.46495983918709
30
0
41
1
10
31.6957162836595
20
-1.5068414977236
30
0
0
SPLINE
5
15E
100
AcDbEntity
8
1
62
256
6
ByLayer
370
18
48
1
60
0
100
AcDbSpline
70
4
71
3
72
8
73
4
40
0
40
0
40
0
40
0
40
1
40
1
40
1
40
1
41
1
10
31.7364361561832
20
-1.49745804884427
30
0
41
1
10
31.7228553500211
20
-1.50077908121565
30
0
41
1
10
31.7092828321922
20
-1.5039067241407
30
0
41
1
10
31.6957162836595
20
-1.50684149772371
30
0
0
SPLINE
5
15F
100
AcDbEntity
8
1
62
256
6
ByLayer
370
18
48
1
60
0
100
AcDbSpline
70
4
71
3
72
10
73
6
40
0
40
0
40
0
40
0
40
0.5
40
0.5
40
1
40
1
40
1
40
1
41
1
10
31.7364361561829
20
-1.49745804883304
30
0
41
1
10
31.7660298137039
20
-1.44199207364596
30
0
41
1
10
31.7958683127164
20
-1.38544685074262
30
0
41
1
10
31.8562599079614
20
-1.27027240273813
30
0
41
1
10
31.886685113983
20
-1.21188755347828
30
0
41
1
10
31.917465896758
20
-1.15272900422406
30
0
0
SPLINE
5
160
100
AcDbEntity
8
1
62
256
6
ByLayer
370
18
48
1
60
0
100
AcDbSpline
70
4
71
3
72
26
73
22
40
0
40
0
40
0
40
0
40
0.125000000000001
40
0.125000000000001
40
0.250000000000001
40
0.250000000000001
40
0.375000000000001
40
0.375000000000001
40
0.500000000000001
40
0.500000000000001
40
0.625000000000002
40
0.625000000000002
40
0.750000000000002
40
0.750000000000002
40
0.812500000000001
40
0.812500000000001
40
0.875000000000001
40
0.875000000000001
40
0.9375
40
0.9375
40
1
40
1
40
1
40
1
41
1
10
31.917465896758
20
-1.15272900422406
30
0
41
1
10
31.9211474741412
20
-1.14565326549103
30
0
41
1
10
31.9254277666184
20
-1.13925128168711
30
0
41
1
10
31.9348869485094
20
-1.12744953608683
30
0
41
1
10
31.9401211657841
20
-1.12202557770695
30
0
41
1
10
31.9510021675078
20
-1.11245401732688
30
0
41
1
10
31.9566833886012
20
-1.1082534282223
30
0
41
1
10
31.9684816080795
20
-1.10094574400873
30
0
41
1
10
31.9746402891834
20
-1.09783242866115
30
0
41
1
10
31.986956277033
20
-1.09295680086299
30
0
41
1
10
31.9931584274873
20
-1.09115724055772
30
0
41
1
10
32.0056340179586
20
-1.08897692815174
30
0
41
1
10
32.0119520284242
20
-1.0886096634803
30
0
41
1
10
32.0210394777407
20
-1.08940209134505
30
0
41
1
10
32.0240183957533
20
-1.08988730471049
30
0
41
1
10
32.029857761031
20
-1.09136539677962
30
0
41
1
10
32.0327335385342
20
-1.09236816733022
30
0
41
1
10
32.0381779935779
20
-1.09491033914205
30
0
41
1
10
32.0407640614932
20
-1.09645030781505
30
0
41
1
10
32.0456190250728
20
-1.10015590010457
30
0
41
1
10
32.047897501895
20
-1.10233745720382
30
0
41
1
10
32.0499220619718
20
-1.10483703456214
30
0
0
SPLINE
5
161
100
AcDbEntity
8
1
62
256
6
ByLayer
370
18
48
1
60
0
100
AcDbSpline
70
4
71
3
72
10
73
6
40
0
40
0
40
0
40
0
40
0.5
40
0.5
40
1
40
1
40
1
40
1
41
1
10
32.0499220619742
20
-1.10483703456544
30
0
41
1
10
32.0794646371439
20
-1.14131110755508
30
0
41
1
10
32.1087751551842
20
-1.17577464447677
30
0
41
1
10
32.166902308264
20
-1.24049205435694
30
0
41
1
10
32.1956692291094
20
-1.27068880802861
30
0
41
1
10
32.2241911757547
20
-1.29870499490048
30
0
0
SPLINE
5
162
100
AcDbEntity
8
1
62
256
6
ByLayer
370
18
48
1
60
0
100
AcDbSpline
70
4
71
3
72
8
73
4
40
0
40
0
40
0
40
0
40
1
40
1
40
1
40
1
41
1
10
32.2651277845787
20
-1.27527886350001
30
0
41
1
10
32.2514740821252
20
-1.28325844125734
30
0
41
1
10
32.2378290919071
20
-1.29106715268617
30
0
41
1
10
32.2241911757545
20
-1.29870499490053
30
0
0
SPLINE
5
163
100
AcDbEntity
8
1
62
256
6
ByLayer
370
18
48
1
60
0
100
AcDbSpline
70
4
71
3
72
10
73
6
40
0
40
0
40
0
40
0
40
0.551164141381367
40
0.551164141381367
40
1
40
1
40
1
40
1
41
1
10
32.2651277845783
20
-1.27527886348668
30
0
41
1
10
32.2947002299652
20
-1.21415132182665
30
0
41
1
10
32.3245131256784
20
-1.15303457951978
30
0
41
1
10
32.3792436467264
20
-1.0423163738771
30
0
41
1
10
32.4039586842645
20
-0.992852680560759
30
0
41
1
10
32.4288952550109
20
-0.943658658407003
30
0
0
SPLINE
5
164
100
AcDbEntity
8
1
62
256
6
ByLayer
370
18
48
1
60
0
100
AcDbSpline
70
4
71
3
72
8
73
4
40
0
40
0
40
0
40
0
40
1
40
1
40
1
40
1
41
1
10
34.2638961383625
20
-0.0465225008394441
30
0
41
1
10
34.2371156155074
20
-0.0384410429734032
30
0
41
1
10
34.2104760612634
20
-0.0278457074653886
30
0
41
1
10
34.1840246231718
20
-0.0148532489706952
30
0
0
SPLINE
5
165
100
AcDbEntity
8
1
62
256
6
ByLayer
370
18
48
1
60
0
100
AcDbSpline
70
4
71
3
72
8
73
4
40
0
40
0
40
0
40
0
40
1
40
1
40
1
40
1
41
1
10
34.1840246231716
20
-0.0148532489707236
30
0
41
1
10
34.115440749267
20
0.0454180133352509
30
0
41
1
10
34.0477736002315
20
0.107082927563937
30
0
41
1
10
33.9807135048467
20
0.169811225408836
30
0
0
SPLINE
5
166
100
AcDbEntity
8
1
62
256
6
ByLayer
370
18
48
1
60
0
100
AcDbSpline
70
4
71
3
72
10
73
6
40
0
40
0
40
0
40
0
40
0.5
40
0.5
40
1
40
1
40
1
40
1
41
1
10
33.9807135048467
20
0.169811225408836
30
0
41
1
10
33.9620928407306
20
0.191517718198611
30
0
41
1
10
33.9433563052961
20
0.212169926903471
30
0
41
1
10
33.9057391155685
20
0.251156849327487
30
0
41
1
10
33.8868419735871
20
0.269515034292169
30
0
41
1
10
33.8678248543035
20
0.286700666520574
30
0
0
SPLINE
5
167
100
AcDbEntity
8
1
62
256
6
ByLayer
370
18
48
1
60
0
100
AcDbSpline
70
4
71
3
72
26
73
22
40
0
40
0
40
0
40
0
40
0.125
40
0.125
40
0.25
40
0.25
40
0.375
40
0.375
40
0.5
40
0.5
40
0.625
40
0.625
40
0.75
40
0.75
40
0.8125
40
0.8125
40
0.875
40
0.875
40
0.9375
40
0.9375
40
1
40
1
40
1
40
1
41
1
10
33.8678248543016
20
0.286700666522393
30
0
41
1
10
33.8642486938242
20
0.289932416706847
30
0
41
1
10
33.8601033712101
20
0.293550182819104
30
0
41
1
10
33.8509309947722
20
0.301362187280347
30
0
41
1
10
33.8458569514261
20
0.305593984522602
30
0
41
1
10
33.835250592349
20
0.314304480023139
30
0
41
1
10
33.8296874688166
20
0.318810303910993
30
0
41
1
10
33.8180748746107
20
0.328130114028568
30
0
41
1
10
33.8119683249668
20
0.332988782573182
30
0
41
1
10
33.7996701821041
20
0.342737115447591
30
0
41
1
10
33.7934505734591
20
0.347649544833672
30
0
41
1
10
33.7808804735938
20
0.35759872197616
30
0
41
1
10
33.7744441556505
20
0.362703676464037
30
0
41
1
10
33.7651043588039
20
0.370181589533786
30
0
41
1
10
33.7620399412554
20
0.372647100178426
30
0
41
1
10
33.7560273851606
20
0.377519457115426
30
0
41
1
10
33.753058010147
20
0.379943985976667
30
0
41
1
10
33.7474344448792
20
0.384583459985379
30
0
41
1
10
33.7447661358452
20
0.386809540873685
30
0
41
1
10
33.7397651799242
20
0.391043263602086
30
0
41
1
10
33.7374310459758
20
0.393052973016637
30
0
41
1
10
33.7353745439348
20
0.394863416783096
30
0
0
SPLINE
5
168
100
AcDbEntity
8
1
62
256
6
ByLayer
370
18
48
1
60
0
100
AcDbSpline
70
4
71
3
72
10
73
6
40
0
40
0
40
0
40
0
40
0.5
40
0.5
40
1
40
1
40
1
40
1
41
1
10
33.7353745439316
20
0.394863416782783
30
0
41
1
10
33.7083551120823
20
0.418650002447009
30
0
41
1
10
33.6814798721723
20
0.444680804320768
30
0
41
1
10
33.6281114740958
20
0.50089481172202
30
0
41
1
10
33.6016373025554
20
0.531054784845537
30
0
41
1
10
33.5753847217825
20
0.563053294807418
30
0
0
SPLINE
5
169
100
AcDbEntity
8
1
62
256
6
ByLayer
370
18
48
1
60
0
100
AcDbSpline
70
4
71
3
72
10
73
6
40
0
40
0
40
0
40
0
40
0.5
40
0.5
40
1
40
1
40
1
40
1
41
1
10
33.5155121343576
20
0.622467212489425
30
0
41
1
10
33.4865891809129
20
0.640802501880557
30
0
41
1
10
33.4574535313728
20
0.656146649259199
30
0
41
1
10
33.3986521120856
20
0.680640054661808
30
0
41
1
10
33.3690976734869
20
0.68975230078658
30
0
41
1
10
33.3392686994947
20
0.695654811892808
30
0
0
SPLINE
5
16A
100
AcDbEntity
8
1
62
256
6
ByLayer
370
18
48
1
60
0
100
AcDbSpline
70
4
71
3
72
26
73
22
40
0
40
0
40
0
40
0
40
0.12499999999998
40
0.12499999999998
40
0.249999999999959
40
0.249999999999959
40
0.374999999999938
40
0.374999999999938
40
0.499999999999918
40
0.499999999999918
40
0.624999999999897
40
0.624999999999897
40
0.749999999999877
40
0.749999999999877
40
0.812499999999908
40
0.812499999999908
40
0.874999999999938
40
0.874999999999938
40
0.937499999999969
40
0.937499999999969
40
1
40
1
40
1
40
1
41
1
10
33.3392686994925
20
0.695654811893263
30
0
41
1
10
33.3356927036297
20
0.696362424408107
30
0
41
1
10
33.3315474717763
20
0.697675261208673
30
0
41
1
10
33.322375608099
20
0.701213113828175
30
0
41
1
10
33.3173021621344
20
0.703467547576963
30
0
41
1
10
33.3066973972977
20
0.708655610018326
30
0
41
1
10
33.3011351819263
20
0.711598868508048
30
0
41
1
10
33.2895247229439
20
0.718175147811195
30
0
41
1
10
33.2834192868035
20
0.721846590199192
30
0
41
1
10
33.2711224552661
20
0.729710752268034
30
0
41
1
10
33.2649034547209
20
0.733914224415713
30
0
41
1
10
33.2523344680809
20
0.742973447267275
30
0
41
1
10
33.2458983659261
20
0.747899422316578
30
0
41
1
10
33.2365562243543
20
0.755636304485023
30
0
41
1
10
33.2334910229963
20
0.758274277716225
30
0
41
1
10
33.2274768883495
20
0.763690539631
30
0
41
1
10
33.2245065142643
20
0.766491074516182
30
0
41
1
10
33.2188804006014
20
0.772097297423414
30
0
41
1
10
33.2162108972845
20
0.774913072287745
30
0
41
1
10
33.2112077384103
20
0.780574580129155
30
0
41
1
10
33.2088724678089
20
0.783426806786508
30
0
41
1
10
33.2068150708076
20
0.786199798340192
30
0
0
SPLINE
5
16B
100
AcDbEntity
8
1
62
256
6
ByLayer
370
18
48
1
60
0
100
AcDbSpline
70
4
71
3
72
10
73
6
40
0
40
0
40
0
40
0
40
0.5
40
0.5
40
1
40
1
40
1
40
1
41
1
10
33.2068150708062
20
0.786199798339794
30
0
41
1
10
33.1775520772092
20
0.82564091448441
30
0
41
1
10
33.1484599765914
20
0.867024914042247
30
0
41
1
10
33.0907160006961
20
0.953129302184237
30
0
41
1
10
33.0621097528761
20
0.997777975011758
30
0
41
1
10
33.0337369239201
20
1.04381933181617
30
0
0
SPLINE
5
16C
100
AcDbEntity
8
1
62
256
6
ByLayer
370
18
48
1
60
0
100
AcDbSpline
70
4
71
3
72
8
73
4
40
0
40
0
40
0
40
0
40
1
40
1
40
1
40
1
41
1
10
32.9925765305625
20
1.07509357398794
30
0
41
1
10
33.0063034603264
20
1.06480617802453
30
0
41
1
10
33.0200221756443
20
1.05438041259373
30
0
41
1
10
33.0337369239202
20
1.04381933181583
30
0
0
SPLINE
5
16D
100
AcDbEntity
8
1
62
256
6
ByLayer
370
18
48
1
60
0
100
AcDbSpline
70
4
71
3
72
10
73
6
40
0
40
0
40
0
40
0
40
0.5
40
0.5
40
1
40
1
40
1
40
1
41
1
10
32.9925765305639
20
1.07509357397839
30
0
41
1
10
32.9627798669495
20
1.07174230722782
30
0
41
1
10
32.9327688313038
20
1.06511497916824
30
0
41
1
10
32.8720808568698
20
1.04528912461552
30
0
41
1
10
32.8415373183436
20
1.03214403870317
30
0
41
1
10
32.8106709647226
20
1.01570298657111
30
0
0
SPLINE
5
16E
100
AcDbEntity
8
1
62
256
6
ByLayer
370
18
48
1
60
0
100
AcDbSpline
70
4
71
3
72
26
73
22
40
0
40
0
40
0
40
0
40
0.125000000000021
40
0.125000000000021
40
0.250000000000041
40
0.250000000000041
40
0.375000000000062
40
0.375000000000062
40
0.500000000000082
40
0.500000000000082
40
0.625000000000103
40
0.625000000000103
40
0.750000000000124
40
0.750000000000124
40
0.812500000000093
40
0.812500000000093
40
0.875000000000062
40
0.875000000000062
40
0.937500000000031
40
0.937500000000031
40
1
40
1
40
1
40
1
41
1
10
32.8106709647202
20
1.01570298657
30
0
41
1
10
32.8070940639711
20
1.01379774008723
30
0
41
1
10
32.8029474444568
20
1.01264043253883
30
0
41
1
10
32.7937716700026
20
1.01145927680582
30
0
41
1
10
32.7886953676767
20
1.01145319649493
30
0
41
1
10
32.7780849499339
20
1.01246789826055
30
0
41
1
10
32.7725199253749
20
1.01347946938256
30
0
41
1
10
32.7609040064781
20
1.0164875439751
30
0
41
1
10
32.7547964696215
20
1.01851118430426
30
0
41
1
10
32.7424989033937
20
1.02350158339522
30
0
41
1
10
32.7362799527369
20
1.02646656428899
30
0
41
1
10
32.7237119804421
20
1.03349243855976
30
0
41
1
10
32.7172779854011
20
1.03761604994119
30
0
41
1
10
32.7079456438751
20
1.04462253650908
30
0
41
1
10
32.7048835973699
20
1.0470952047047
30
0
41
1
10
32.6988755179316
20
1.05236091662812
30
0
41
1
10
32.6959086091371
20
1.05517728858985
30
0
41
1
10
32.6902901726694
20
1.06102605514869
30
0
41
1
10
32.6876240177679
20
1.0640673900206
30
0
41
1
10
32.6826265036593
20
1.07042377656194
30
0
41
1
10
32.6802937828939
20
1.07374840873032
30
0
41
1
10
32.6782380619958
20
1.07712411527018
30
0
0
SPLINE
5
16F
100
AcDbEntity
8
1
62
256
6
ByLayer
370
18
48
1
60
0
100
AcDbSpline
70
4
71
3
72
10
73
6
40
0
40
0
40
0
40
0
40
0.5
40
0.5
40
1
40
1
40
1
40
1
41
1
10
32.6782380619944
20
1.0771241152712
30
0
41
1
10
32.648946010472
20
1.12522469643076
30
0
41
1
10
32.6198296590365
20
1.17432479591505
30
0
41
1
10
32.5620411432086
20
1.27396518201323
30
0
41
1
10
32.5334139867049
20
1.32442191071436
30
0
41
1
10
32.5050216482562
20
1.37534268605131
30
0
0
SPLINE
5
170
100
AcDbEntity
8
1
62
256
6
ByLayer
370
18
48
1
60
0
100
AcDbSpline
70
4
71
3
72
10
73
6
40
0
40
0
40
0
40
0
40
0.5
40
0.5
40
1
40
1
40
1
40
1
41
1
10
32.4640977230199
20
1.3940953432278
30
0
41
1
10
32.43429581403
20
1.36851324986048
30
0
41
1
10
32.4042717233363
20
1.34003498830344
30
0
41
1
10
32.3435550795047
20
1.27727432749259
30
0
41
1
10
32.3129949896024
20
1.24313283163929
30
0
41
1
10
32.2821047306933
20
1.20619069814253
30
0
0
SPLINE
5
171
100
AcDbEntity
8
1
62
256
6
ByLayer
370
18
48
1
60
0
100
AcDbSpline
70
4
71
3
72
26
73
22
40
0
40
0
40
0
40
0
40
0.125000000000001
40
0.125000000000001
40
0.250000000000001
40
0.250000000000001
40
0.375000000000001
40
0.375000000000001
40
0.500000000000002
40
0.500000000000002
40
0.625000000000002
40
0.625000000000002
40
0.750000000000003
40
0.750000000000003
40
0.812500000000002
40
0.812500000000002
40
0.875000000000001
40
0.875000000000001
40
0.937500000000001
40
0.937500000000001
40
1
40
1
40
1
40
1
41
1
10
32.2821047306912
20
1.20619069813949
30
0
41
1
10
32.2785284341876
20
1.20191375040673
30
0
41
1
10
32.2743823369443
20
1.19843022410933
30
0
41
1
10
32.2652070366906
20
1.19267036365775
30
0
41
1
10
32.2601305816855
20
1.19039759020393
30
0
41
1
10
32.2495191449441
20
1.18709412244044
30
0
41
1
10
32.2439533270944
20
1.18603655780117
30
0
41
1
10
32.2323353080813
20
1.18507520295313
30
0
41
1
10
32.2262265284257
20
1.18518406094424
30
0
41
1
10
32.2139273514541
20
1.18664893445407
30
0
41
1
10
32.2077077044142
20
1.18799001987577
30
0
41
1
10
32.1951388668323
20
1.19207320311085
30
0
41
1
10
32.1887049927304
20
1.19486314417315
30
0
41
1
10
32.1793752937772
20
1.20024306099543
30
0
41
1
10
32.1763142053522
20
1.20223430569334
30
0
41
1
10
32.1703081130976
20
1.20667646900213
30
0
41
1
10
32.1673423775183
20
1.20914920164438
30
0
41
1
10
32.1617264880884
20
1.21449508256222
30
0
41
1
10
32.1590615022616
20
1.21737420988669
30
0
41
1
10
32.1540659918599
20
1.22361464246126
30
0
41
1
10
32.1517341376051
20
1.22698765181841
30
0
41
1
10
32.1496789615401
20
1.23053515840706
30
0
0
SPLINE
5
172
100
AcDbEntity
8
1
62
256
6
ByLayer
370
18
48
1
60
0
100
AcDbSpline
70
4
71
3
72
10
73
6
40
0
40
0
40
0
40
0
40
0.5
40
0.5
40
1
40
1
40
1
40
1
41
1
10
32.1496789615371
20
1.23053515841224
30
0
41
1
10
32.1203451528275
20
1.28116920454724
30
0
41
1
10
32.0911913011927
20
1.33173052505845
30
0
41
1
10
32.0333393615547
20
1.43221797766014
30
0
41
1
10
32.0046864229034
20
1.48206342362064
30
0
41
1
10
31.9762744513984
20
1.53138138984767
30
0
0
SPLINE
5
173
100
AcDbEntity
8
1
62
256
6
ByLayer
370
18
48
1
60
0
100
AcDbSpline
70
4
71
3
72
10
73
6
40
0
40
0
40
0
40
0
40
0.5
40
0.5
40
1
40
1
40
1
40
1
41
1
10
31.9355158247376
20
1.53539047382299
30
0
41
1
10
31.9057121086728
20
1.49100281468421
30
0
41
1
10
31.8756834087515
20
1.44444276196322
30
0
41
1
10
31.8149719855441
20
1.34703328259241
30
0
41
1
10
31.7844246358062
20
1.29640253459351
30
0
41
1
10
31.7535655724293
20
1.24383451919482
30
0
0
SPLINE
5
174
100
AcDbEntity
8
1
62
256
6
ByLayer
370
18
48
1
60
0
100
AcDbSpline
70
4
71
3
72
26
73
22
40
0
40
0
40
0
40
0
40
0.12500000000002
40
0.12500000000002
40
0.250000000000041
40
0.250000000000041
40
0.375000000000061
40
0.375000000000061
40
0.500000000000081
40
0.500000000000081
40
0.625000000000102
40
0.625000000000102
40
0.750000000000122
40
0.750000000000122
40
0.812500000000092
40
0.812500000000092
40
0.875000000000061
40
0.875000000000061
40
0.937500000000031
40
0.937500000000031
40
1
40
1
40
1
40
1
41
1
10
31.7535655724271
20
1.2438345191911
30
0
41
1
10
31.7499862920889
20
1.23773726142238
30
0
41
1
10
31.7458368319753
20
1.23238026921788
30
0
41
1
10
31.7366553767425
20
1.22279520971426
30
0
41
1
10
31.7315761641946
20
1.21855623348597
30
0
41
1
10
31.7209607437554
20
1.21137630676407
30
0
41
1
10
31.7153935832051
20
1.20839429930555
30
0
41
1
10
31.7037743972495
20
1.20360328270709
30
0
41
1
10
31.6976657336577
20
1.201790764017
30
0
41
1
10
31.6853666145796
20
1.19955398723667
30
0
41
1
10
31.6791473554414
20
1.19910365788334
30
0
41
1
10
31.666579934677
20
1.19972651101898
30
0
41
1
10
31.6601468370157
20
1.20082642700075
30
0
41
1
10
31.650815894153
20
1.20389340062482
30
0
41
1
10
31.6477544281697
20
1.20514897906773
30
0
41
1
10
31.6417477402308
20
1.20820020930793
30
0
41
1
10
31.6387815379335
20
1.21001359629773
30
0
41
1
10
31.6331641844164
20
1.21417524796385
30
0
41
1
10
31.6304986389991
20
1.21652525545406
30
0
41
1
10
31.6255024121267
20
1.22185450928393
30
0
41
1
10
31.6231700504729
20
1.22484656134185
30
0
41
1
10
31.6211145539353
20
1.22811437219136
30
0
0
SPLINE
5
175
100
AcDbEntity
8
1
62
256
6
ByLayer
370
18
48
1
60
0
100
AcDbSpline
70
4
71
3
72
10
73
6
40
0
40
0
40
0
40
0
40
0.5
40
0.5
40
1
40
1
40
1
40
1
41
1
10
31.6211145539322
20
1.22811437219727
30
0
41
1
10
31.591840773103
20
1.27465357908488
30
0
41
1
10
31.5627420483669
20
1.32005454907841
30
0
41
1
10
31.5049872964801
20
1.40821593158967
30
0
41
1
10
31.4763762442307
20
1.45090921690587
30
0
41
1
10
31.4479986730259
20
1.49213610590036
30
0
0
SPLINE
5
176
100
AcDbEntity
8
1
62
256
6
ByLayer
370
18
48
1
60
0
100
AcDbSpline
70
4
71
3
72
8
73
4
40
0
40
0
40
0
40
0
40
1
40
1
40
1
40
1
41
1
10
31.4069648833835
20
1.48089052775785
30
0
41
1
10
31.4206471123901
20
1.48483285082244
30
0
41
1
10
31.4343236851251
20
1.48858160318599
30
0
41
1
10
31.447998673026
20
1.49213610590039
30
0
0
SPLINE
5
177
100
AcDbEntity
8
1
62
256
6
ByLayer
370
18
48
1
60
0
100
AcDbSpline
70
4
71
3
72
10
73
6
40
0
40
0
40
0
40
0
40
0.5
40
0.5
40
1
40
1
40
1
40
1
41
1
10
31.4069648833841
20
1.480890527751
30
0
41
1
10
31.3771549567981
20
1.42326519509365
30
0
41
1
10
31.3471297941032
20
1.36447124990818
30
0
41
1
10
31.2864216835457
20
1.24464581775334
30
0
41
1
10
31.2558733144404
20
1.18387851722693
30
0
41
1
10
31.2250132484832
20
1.12229559438535
30
0
0
SPLINE
5
178
100
AcDbEntity
8
1
62
256
6
ByLayer
370
18
48
1
60
0
100
AcDbSpline
70
4
71
3
72
26
73
22
40
0
40
0
40
0
40
0
40
0.125
40
0.125
40
0.250000000000001
40
0.250000000000001
40
0.375000000000001
40
0.375000000000001
40
0.500000000000001
40
0.500000000000001
40
0.625000000000001
40
0.625000000000001
40
0.750000000000002
40
0.750000000000002
40
0.812500000000001
40
0.812500000000001
40
0.875000000000001
40
0.875000000000001
40
0.9375
40
0.9375
40
1
40
1
40
1
40
1
41
1
10
31.225013248481
20
1.12229559438091
30
0
41
1
10
31.2214341143177
20
1.11515323949092
30
0
41
1
10
31.2172845186321
20
1.10860132988927
30
0
41
1
10
31.2081024392337
20
1.09640249615762
30
0
41
1
10
31.2030226820347
20
1.09073140553704
30
0
41
1
10
31.1924062891965
20
1.08057819979976
30
0
41
1
10
31.186838695161
20
1.07604602513493
30
0
41
1
10
31.1752189588439
20
1.0680257188821
30
0
41
1
10
31.1691102913851
20
1.0645184782334
30
0
41
1
10
31.1568120042178
20
1.05885828631887
30
0
41
1
10
31.1505933722136
20
1.0566713067264
30
0
41
1
10
31.138027603522
20
1.05375060149331
30
0
41
1
10
31.1315957827732
20
1.05301925261998
30
0
41
1
10
31.1222676091449
20
1.05337904557155
30
0
41
1
10
31.1192070202918
20
1.05373771737291
30
0
41
1
10
31.1132019407751
20
1.05500642264459
30
0
41
1
10
31.1102365553169
20
1.05592765544392
30
0
41
1
10
31.1046207053021
20
1.05836992498979
30
0
41
1
10
31.1019557383945
20
1.05988868466756
30
0
41
1
10
31.0969602993152
20
1.06362193872417
30
0
41
1
10
31.0946281719554
20
1.06584819428284
30
0
41
1
10
31.0925727036264
20
1.06841615409414
30
0
0
SPLINE
5
179
100
AcDbEntity
8
1
62
256
6
ByLayer
370
18
48
1
60
0
100
AcDbSpline
70
4
71
3
72
10
73
6
40
0
40
0
40
0
40
0
40
0.5
40
0.5
40
1
40
1
40
1
40
1
41
1
10
31.0925727036234
20
1.06841615409991
30
0
41
1
10
31.0632785162184
20
1.10501428354883
30
0
41
1
10
31.0341612142374
20
1.13955203708616
30
0
41
1
10
30.9763718065682
20
1.20434874283669
30
0
41
1
10
30.9477438383481
20
1.23456521697071
30
0
41
1
10
30.9193514582041
20
1.26258907493784
30
0
0
SPLINE
5
17A
100
AcDbEntity
8
1
62
256
6
ByLayer
370
18
48
1
60
0
100
AcDbSpline
70
4
71
3
72
8
73
4
40
0
40
0
40
0
40
0
40
1
40
1
40
1
40
1
41
1
10
30.8784222497513
20
1.23756900999808
30
0
41
1
10
30.892068183377
20
1.24607303021685
30
0
41
1
10
30.905710541863
20
1.25441332956819
30
0
41
1
10
30.9193514582044
20
1.26258907493789
30
0
0
SPLINE
5
17B
100
AcDbEntity
8
1
62
256
6
ByLayer
370
18
48
1
60
0
100
AcDbSpline
70
4
71
3
72
10
73
6
40
0
40
0
40
0
40
0
40
0.692130236665765
40
0.692130236665765
40
1
40
1
40
1
40
1
41
1
10
30.8784222497526
20
1.23756900998487
30
0
41
1
10
30.8486025687853
20
1.17413830287694
30
0
41
1
10
30.8185657023499
20
1.1106941717878
30
0
41
1
10
30.7746980347587
20
1.01912090218661
30
0
41
1
10
30.7611553893801
20
0.990995750323492
30
0
41
1
10
30.7475659855015
20
0.96294325578495
30
0
0
SPLINE
5
17C
100
AcDbEntity
8
1
62
256
6
ByLayer
370
18
48
1
60
0
100
AcDbSpline
70
4
71
3
72
10
73
6
40
0
40
0
40
0
40
0
40
0.5
40
0.5
40
1
40
1
40
1
40
1
41
1
10
29.7597231846417
20
1.24898763870596
30
0
41
1
10
29.789289806158
20
1.29876880317789
30
0
41
1
10
29.818615641632
20
1.34781952871901
30
0
41
1
10
29.8767854548332
20
1.44415510441135
30
0
41
1
10
29.9055837610637
20
1.49136599349293
30
0
41
1
10
29.9341356788287
20
1.53751013427242
30
0
0
SPLINE
5
17D
100
AcDbEntity
8
1
62
256
6
ByLayer
370
18
48
1
60
0
100
AcDbSpline
70
4
71
3
72
10
73
6
40
0
40
0
40
0
40
0
40
0.5
40
0.5
40
1
40
1
40
1
40
1
41
1
10
29.9745797579217
20
1.53438277343349
30
0
41
1
10
30.0042072270285
20
1.48348412988108
30
0
41
1
10
30.0340751738212
20
1.43106515361416
30
0
41
1
10
30.0945062993777
20
1.32320630317056
30
0
41
1
10
30.1249397443945
20
1.26799905916843
30
0
41
1
10
30.1557054447936
20
1.21152363227591
30
0
0
SPLINE
5
17E
100
AcDbEntity
8
1
62
256
6
ByLayer
370
18
48
1
60
0
100
AcDbSpline
70
4
71
3
72
26
73
22
40
0
40
0
40
0
40
0
40
0.125
40
0.125
40
0.25
40
0.25
40
0.375
40
0.375
40
0.5
40
0.5
40
0.624999999999999
40
0.624999999999999
40
0.749999999999999
40
0.749999999999999
40
0.812499999999999
40
0.812499999999999
40
0.875
40
0.875
40
0.9375
40
0.9375
40
1
40
1
40
1
40
1
41
1
10
30.1557054447936
20
1.21152363227591
30
0
41
1
10
30.1593800298683
20
1.20477833611776
30
0
41
1
10
30.1636516866924
20
1.19878207494469
30
0
41
1
10
30.1730931887087
20
1.18790421808012
30
0
41
1
10
30.1783176973848
20
1.18300460708761
30
0
41
1
10
30.1891835729952
20
1.17454336284172
30
0
41
1
10
30.1948590929138
20
1.17093242476778
30
0
41
1
10
30.2066496037264
20
1.16487444261602
30
0
41
1
10
30.2128076854714
20
1.16242527620713
30
0
41
1
10
30.2251265777696
20
1.15891085280728
30
0
41
1
10
30.2313312416697
20
1.1578130079674
30
0
41
1
10
30.2438129246839
20
1.15708818335716
30
0
41
1
10
30.250138398009
20
1.15748031862515
30
0
41
1
10
30.2592395673388
20
1.15941589199491
30
0
41
1
10
30.2622230861425
20
1.16028443945882
30
0
41
1
10
30.2680719289037
20
1.1625355565161
30
0
41
1
10
30.2709531257205
20
1.16393051833737
30
0
41
1
10
30.2764085366023
20
1.16724352508993
30
0
41
1
10
30.2789998418899
20
1.16916405080821
30
0
41
1
10
30.283864574346
20
1.1736205261443
30
0
41
1
10
30.2861471933268
20
1.17617404577715
30
0
41
1
10
30.2881742220448
20
1.17902772382558
30
0
0
SPLINE
5
17F
100
AcDbEntity
8
1
62
256
6
ByLayer
370
18
48
1
60
0
100
AcDbSpline
70
4
71
3
72
10
73
6
40
0
40
0
40
0
40
0
40
0.5
40
0.5
40
1
40
1
40
1
40
1
41
1
10
30.2881742220473
20
1.17902772382939
30
0
41
1
10
30.3176718851852
20
1.22055492718971
30
0
41
1
10
30.3469412382023
20
1.26039263003147
30
0
41
1
10
30.4050021037374
20
1.33649808388788
30
0
41
1
10
30.4337449981509
20
1.37269762808256
30
0
41
1
10
30.4622520536471
20
1.40701946643719
30
0
0
SPLINE
5
180
100
AcDbEntity
8
1
62
256
6
ByLayer
370
18
48
1
60
0
100
AcDbSpline
70
4
71
3
72
10
73
6
40
0
40
0
40
0
40
0
40
0.5
40
0.5
40
1
40
1
40
1
40
1
41
1
10
30.5030805434014
20
1.3891630672945
30
0
41
1
10
30.5326967433507
20
1.32937859455444
30
0
41
1
10
30.5625653574076
20
1.26912934033157
30
0
41
1
10
30.6230144797248
20
1.14783184761021
30
0
41
1
10
30.6534648169593
20
1.08704419426746
30
0
41
1
10
30.6842614925685
20
1.02617219204427
30
0
0
SPLINE
5
181
100
AcDbEntity
8
1
62
256
6
ByLayer
370
18
48
1
60
0
100
AcDbSpline
70
4
71
3
72
26
73
22
40
0
40
0
40
0
40
0
40
0.125000000000001
40
0.125000000000001
40
0.250000000000001
40
0.250000000000001
40
0.375000000000002
40
0.375000000000002
40
0.500000000000001
40
0.500000000000001
40
0.625000000000001
40
0.625000000000001
40
0.750000000000001
40
0.750000000000001
40
0.812500000000001
40
0.812500000000001
40
0.875
40
0.875
40
0.9375
40
0.9375
40
1
40
1
40
1
40
1
41
1
10
30.6842614925685
20
1.02617219204427
30
0
41
1
10
30.6879398315465
20
1.01890167163961
30
0
41
1
10
30.6922162851036
20
1.0121637891252
30
0
41
1
10
30.7016685560464
20
0.999484963964818
30
0
41
1
10
30.7068994847786
20
0.993512026967039
30
0
41
1
10
30.717776766702
20
0.982699237193003
30
0
41
1
10
30.7234574475489
20
0.977803870882781
30
0
41
1
10
30.7352569643205
20
0.968964934454675
30
0
41
1
10
30.7414175353243
20
0.965008459204711
30
0
41
1
10
30.7537374235741
20
0.958352783462061
30
0
41
1
10
30.7599417286498
20
0.955611069122568
30
0
41
1
10
30.7724210478942
20
0.951421873737274
30
0
41
1
10
30.7787402293887
20
0.949978964353534
30
0
41
1
10
30.7878286697241
20
0.949109872490624
30
0
41
1
10
30.7908078761982
20
0.949030917745944
30
0
41
1
10
30.7966479885175
20
0.949356610838521
30
0
41
1
10
30.7995240651139
20
0.949767574536935
30
0
41
1
10
30.8049691898366
20
0.951132169499033
30
0
41
1
10
30.8075557804164
20
0.952083288811252
30
0
41
1
10
30.8124122106892
20
0.954612109955491
30
0
41
1
10
30.8146913257239
20
0.956202538253393
30
0
41
1
10
30.8167161363773
20
0.958128293716442
30
0
0
SPLINE
5
182
100
AcDbEntity
8
1
62
256
6
ByLayer
370
18
48
1
60
0
100
AcDbSpline
70
4
71
3
72
10
73
6
40
0
40
0
40
0
40
0
40
0.5
40
0.5
40
1
40
1
40
1
40
1
41
1
10
30.8167161363797
20
0.958128293719284
30
0
41
1
10
30.8462195567166
20
0.986188385565924
30
0
41
1
10
30.8754746792463
20
1.01173167859605
30
0
41
1
10
30.9335115040243
20
1.05812640720239
30
0
41
1
10
30.9622419996469
20
1.07890700233494
30
0
41
1
10
30.9907274609708
20
1.09721148134815
30
0
0
SPLINE
5
183
100
AcDbEntity
8
1
62
256
6
ByLayer
370
18
48
1
60
0
100
AcDbSpline
70
4
71
3
72
8
73
4
40
0
40
0
40
0
40
0
40
1
40
1
40
1
40
1
41
1
10
31.0318658368512
20
1.06664156716951
30
0
41
1
10
31.0181466049589
20
1.07697285981314
30
0
41
1
10
31.0044349013651
20
1.08716353156279
30
0
41
1
10
30.9907274609708
20
1.09721148134818
30
0
0
SPLINE
5
184
100
AcDbEntity
8
1
62
256
6
ByLayer
370
18
48
1
60
0
100
AcDbSpline
70
4
71
3
72
10
73
6
40
0
40
0
40
0
40
0
40
0.5
40
0.5
40
1
40
1
40
1
40
1
41
1
10
31.0318658368503
20
1.06664156715735
30
0
41
1
10
31.0614302402149
20
1.00578865040049
30
0
41
1
10
31.0912428027457
20
0.945593332093864
30
0
41
1
10
31.1515932507868
20
0.82671888083658
30
0
41
1
10
31.1820029673227
20
0.768304652246741
30
0
41
1
10
31.2127640364154
20
0.710983185818804
30
0
0
SPLINE
5
185
100
AcDbEntity
8
1
62
256
6
ByLayer
370
18
48
1
60
0
100
AcDbSpline
70
4
71
3
72
26
73
22
40
0
40
0
40
0
40
0
40
0.12500000000002
40
0.12500000000002
40
0.250000000000041
40
0.250000000000041
40
0.375000000000061
40
0.375000000000061
40
0.500000000000081
40
0.500000000000081
40
0.625000000000102
40
0.625000000000102
40
0.750000000000122
40
0.750000000000122
40
0.812500000000091
40
0.812500000000091
40
0.875000000000061
40
0.875000000000061
40
0.93750000000003
40
0.93750000000003
40
1
40
1
40
1
40
1
41
1
10
31.2127640364154
20
0.710983185818804
30
0
41
1
10
31.2164411958096
20
0.704131012765259
30
0
41
1
10
31.2207172298686
20
0.697523791748154
30
0
41
1
10
31.2301703616058
20
0.684682287449732
30
0
41
1
10
31.2354030759659
20
0.678405658814995
30
0
41
1
10
31.2462843569994
20
0.666629668478492
30
0
41
1
10
31.2519668845036
20
0.661076205075688
30
0
41
1
10
31.2637693722097
20
0.650582724932576
30
0
41
1
10
31.2699306616264
20
0.645620297856453
30
0
41
1
10
31.2822503145749
20
0.636662300878925
30
0
41
1
10
31.2884540300728
20
0.632619774572333
30
0
41
1
10
31.3009314710957
20
0.625484420769567
30
0
41
1
10
31.3072474346234
20
0.622381867418341
30
0
41
1
10
31.3163300948522
20
0.618808658420164
30
0
41
1
10
31.3193074088626
20
0.617789068264869
30
0
41
1
10
31.3251438298381
20
0.616142345666333
30
0
41
1
10
31.3280175883137
20
0.615515070039038
30
0
41
1
10
31.3334576551677
20
0.614755777992571
30
0
41
1
10
31.3360418868851
20
0.614616193235122
30
0
41
1
10
31.3408939791289
20
0.614896578397577
30
0
41
1
10
31.3431708642008
20
0.615322816502101
30
0
41
1
10
31.3451937239319
20
0.616076622751393
30
0
0
SPLINE
5
186
100
AcDbEntity
8
1
62
256
6
ByLayer
370
18
48
1
60
0
100
AcDbSpline
70
4
71
3
72
10
73
6
40
0
40
0
40
0
40
0
40
0.5
40
0.5
40
1
40
1
40
1
40
1
41
1
10
31.3451937239344
20
0.616076622753042
30
0
41
1
10
31.3747200334536
20
0.627079420575427
30
0
41
1
10
31.4040098174894
20
0.635148787464203
30
0
41
1
10
31.4620923588975
20
0.645624927438661
30
0
41
1
10
31.4908387054598
20
0.648043556240026
30
0
41
1
10
31.5193523059738
20
0.647801957234975
30
0
0
SPLINE
5
187
100
AcDbEntity
8
1
62
256
6
ByLayer
370
18
48
1
60
0
100
AcDbSpline
70
4
71
3
72
10
73
6
40
0
40
0
40
0
40
0
40
0.5
40
0.5
40
1
40
1
40
1
40
1
41
1
10
31.5605291770716
20
0.608536553642125
30
0
41
1
10
31.5900688470894
20
0.554270409974322
30
0
41
1
10
31.619855981954
20
0.501730323800132
30
0
41
1
10
31.6801608513511
20
0.400255832937688
30
0
41
1
10
31.7105479699837
20
0.35152898644472
30
0
41
1
10
31.7413134354187
20
0.304918698605832
30
0
0
SPLINE
5
188
100
AcDbEntity
8
1
62
256
6
ByLayer
370
18
48
1
60
0
100
AcDbSpline
70
4
71
3
72
26
73
22
40
0
40
0
40
0
40
0
40
0.12499999999998
40
0.12499999999998
40
0.249999999999959
40
0.249999999999959
40
0.374999999999938
40
0.374999999999938
40
0.499999999999918
40
0.499999999999918
40
0.624999999999898
40
0.624999999999898
40
0.749999999999878
40
0.749999999999878
40
0.812499999999908
40
0.812499999999908
40
0.874999999999939
40
0.874999999999939
40
0.937499999999969
40
0.937499999999969
40
1
40
1
40
1
40
1
41
1
10
31.7413134354187
20
0.304918698605803
30
0
41
1
10
31.7449880045534
20
0.299351653784157
30
0
41
1
10
31.7492605991691
20
0.293708816094352
30
0
41
1
10
31.7587065868313
20
0.282322011312289
30
0
41
1
10
31.7639355668616
20
0.276531154514572
30
0
41
1
10
31.7748111300926
20
0.265270730526424
30
0
41
1
10
31.7804917364478
20
0.259755238682288
30
0
41
1
10
31.792293330802
20
0.248921482348635
30
0
41
1
10
31.7984553136838
20
0.243574141112987
30
0
41
1
10
31.8107770426113
20
0.233436387066405
30
0
41
1
10
31.816982622605
20
0.228600101096049
30
0
41
1
10
31.8294653007951
20
0.219414708934437
30
0
41
1
10
31.8357829926255
20
0.215043463759031
30
0
41
1
10
31.8448662381612
20
0.209218780723887
30
0
41
1
10
31.8478436658886
20
0.207388040151102
30
0
41
1
10
31.8536801281054
20
0.203978394632827
30
0
41
1
10
31.8565534386107
20
0.202393152877136
30
0
41
1
10
31.86199203045
20
0.199608161355087
30
0
41
1
10
31.8645755175185
20
0.198396509111603
30
0
41
1
10
31.8694262895729
20
0.196394290825964
30
0
41
1
10
31.8717025917502
20
0.195602833349682
30
0
41
1
10
31.8737252854414
20
0.195089530390277
30
0
0
SPLINE
5
189
100
AcDbEntity
8
1
62
256
6
ByLayer
370
18
48
1
60
0
100
AcDbSpline
70
4
71
3
72
10
73
6
40
0
40
0
40
0
40
0
40
0.5
40
0.5
40
1
40
1
40
1
40
1
41
1
10
31.8737252854438
20
0.195089530390476
30
0
41
1
10
31.903366951429
20
0.187567306470413
30
0
41
1
10
31.9327557871663
20
0.177030384527001
30
0
41
1
10
31.9909868503556
20
0.150221217960791
30
0
41
1
10
32.0197843899775
20
0.13401933085953
30
0
41
1
10
32.0483398824468
20
0.115291950474955
30
0
0
SPLINE
5
18A
100
AcDbEntity
8
1
62
256
6
ByLayer
370
18
48
1
60
0
100
AcDbSpline
70
4
71
3
72
10
73
6
40
0
40
0
40
0
40
0
40
0.5
40
0.5
40
1
40
1
40
1
40
1
41
1
10
32.0890107766513
20
0.0728581957142183
30
0
41
1
10
32.1185410883779
20
0.0322457682788695
30
0
41
1
10
32.1483237312052
20
-0.0057955869291391
30
0
41
1
10
32.2086345705554
20
-0.0766339123908324
30
0
41
1
10
32.2390318155354
20
-0.109286372249642
30
0
41
1
10
32.2698073054729
20
-0.13907690267061
30
0
0
SPLINE
5
18B
100
AcDbEntity
8
1
62
256
6
ByLayer
370
18
48
1
60
0
100
AcDbSpline
70
4
71
3
72
26
73
22
40
0
40
0
40
0
40
0
40
0.12500000000002
40
0.12500000000002
40
0.25000000000004
40
0.25000000000004
40
0.37500000000006
40
0.37500000000006
40
0.50000000000008
40
0.50000000000008
40
0.6250000000001
40
0.6250000000001
40
0.750000000000121
40
0.750000000000121
40
0.81250000000009
40
0.81250000000009
40
0.87500000000006
40
0.87500000000006
40
0.93750000000003
40
0.93750000000003
40
1
40
1
40
1
40
1
41
1
10
32.2698073054729
20
-0.139076902670638
30
0
41
1
10
32.2734866125997
20
-0.142638454772907
30
0
41
1
10
32.2777657058369
20
-0.146586428314237
30
0
41
1
10
32.2872265633761
20
-0.155044569908995
30
0
41
1
10
32.2924645560985
20
-0.159600579307551
30
0
41
1
10
32.3033565100583
20
-0.168888991955924
30
0
41
1
10
32.3090445376126
20
-0.173653251801085
30
0
41
1
10
32.3208585661576
20
-0.183428216476983
30
0
41
1
10
32.32702434719
20
-0.188470318462038
30
0
41
1
10
32.3393487523953
20
-0.19848309947173
30
0
41
1
10
32.3455540459938
20
-0.203492754265369
30
0
41
1
10
32.3580323816016
20
-0.213554519815688
30
0
41
1
10
32.3643418795315
20
-0.218636135184909
30
0
41
1
10
32.3734101663071
20
-0.225971267079899
30
0
41
1
10
32.3763824418645
20
-0.22838088859416
30
0
41
1
10
32.3822083483735
20
-0.233121809463228
30
0
41
1
10
32.3850756351633
20
-0.235464469772381
30
0
41
1
10
32.3905023446206
20
-0.239923162723755
30
0
41
1
10
32.3930802408486
20
-0.24205413809716
30
0
41
1
10
32.3979208042724
20
-0.246086894022085
30
0
41
1
10
32.4001926004074
20
-0.247996676512258
30
0
41
1
10
32.4022120595531
20
-0.249713243122926
30
0
0
SPLINE
5
18C
100
AcDbEntity
8
1
62
256
6
ByLayer
370
18
48
1
60
0
100
AcDbSpline
70
4
71
3
72
10
73
6
40
0
40
0
40
0
40
0
40
0.5
40
0.5
40
1
40
1
40
1
40
1
41
1
10
32.4022120595571
20
-0.249713243125711
30
0
41
1
10
32.4318036452386
20
-0.274866476875332
30
0
41
1
10
32.4611410096498
20
-0.302733618392068
30
0
41
1
10
32.5192724074584
20
-0.36347313017302
30
0
41
1
10
32.5480185170189
20
-0.396264986886564
30
0
41
1
10
32.5765397512
20
-0.431130007963276
30
0
0
SPLINE
5
18D
100
AcDbEntity
8
1
62
256
6
ByLayer
370
18
48
1
60
0
100
AcDbSpline
70
4
71
3
72
10
73
6
40
0
40
0
40
0
40
0
40
0.5
40
0.5
40
1
40
1
40
1
40
1
41
1
10
32.6175412660938
20
-0.472147670749507
30
0
41
1
10
32.6470757064392
20
-0.493991113719517
30
0
41
1
10
32.6768817259413
20
-0.512730206952398
30
0
41
1
10
32.7372049379646
20
-0.544020107370187
30
0
41
1
10
32.7675874480876
20
-0.556520009226972
30
0
41
1
10
32.7983130220739
20
-0.565770744875977
30
0
0
SPLINE
5
18E
100
AcDbEntity
8
1
62
256
6
ByLayer
370
18
48
1
60
0
100
AcDbSpline
70
4
71
3
72
26
73
22
40
0
40
0
40
0
40
0
40
0.125
40
0.125
40
0.25
40
0.25
40
0.375
40
0.375
40
0.5
40
0.5
40
0.625
40
0.625
40
0.75
40
0.75
40
0.8125
40
0.8125
40
0.875
40
0.875
40
0.9375
40
0.9375
40
1
40
1
40
1
40
1
41
1
10
32.7983130220738
20
-0.565770744875948
30
0
41
1
10
32.8019956193558
20
-0.566879486863058
30
0
41
1
10
32.8062784537124
20
-0.568638951918302
30
0
41
1
10
32.8157452252203
20
-0.573111478197035
30
0
41
1
10
32.8209852608381
20
-0.575863030900734
30
0
41
1
10
32.8318786796905
20
-0.582018753893465
30
0
41
1
10
32.8375662505195
20
-0.58543673834393
30
0
41
1
10
32.8493765708976
20
-0.59293024586654
30
0
41
1
10
32.8555399003181
20
-0.597037144426196
30
0
41
1
10
32.8678604454684
20
-0.605673828535942
30
0
41
1
10
32.8740634273405
20
-0.610229611537505
30
0
41
1
10
32.8865366290451
20
-0.619904228633857
30
0
41
1
10
32.8928468202507
20
-0.625061772155789
30
0
41
1
10
32.9019186511155
20
-0.632990533016169
30
0
41
1
10
32.904892151158
20
-0.635677206702098
30
0
41
1
10
32.9107205315516
20
-0.641154177267396
30
0
41
1
10
32.9135899849963
20
-0.643960612225328
30
0
41
1
10
32.9190218893716
20
-0.649533922501917
30
0
41
1
10
32.9216021868017
20
-0.652316117747006
30
0
41
1
10
32.9264470024752
20
-0.657870074826235
30
0
41
1
10
32.9287210295162
20
-0.66065627972867
30
0
41
1
10
32.930742428713
20
-0.663357664694985
30
0
0
SPLINE
5
18F
100
AcDbEntity
8
1
62
256
6
ByLayer
370
18
48
1
60
0
100
AcDbSpline
70
4
71
3
72
10
73
6
40
0
40
0
40
0
40
0
40
0.5
40
0.5
40
1
40
1
40
1
40
1
41
1
10
32.9307424287153
20
-0.663357664697543
30
0
41
1
10
32.9603546018305
20
-0.702931183578784
30
0
41
1
10
32.9897242907568
20
-0.744532497798787
30
0
41
1
10
33.0479375258855
20
-0.831279959426354
30
0
41
1
10
33.0767293782007
20
-0.876341470460005
30
0
41
1
10
33.1052778332843
20
-0.922855329805287
30
0
0
SPLINE
5
190
100
AcDbEntity
8
1
62
256
6
ByLayer
370
18
48
1
60
0
100
AcDbSpline
70
4
71
3
72
10
73
6
40
0
40
0
40
0
40
0
40
0.5
40
0.5
40
1
40
1
40
1
40
1
41
1
10
33.1458265625015
20
-0.956522246816604
30
0
41
1
10
33.1753903507051
20
-0.956940783870436
30
0
41
1
10
33.2052233750276
20
-0.954155687785516
30
0
41
1
10
33.2656191577989
20
-0.942144351068663
30
0
41
1
10
33.2960468176251
20
-0.93295175053504
30
0
41
1
10
33.3268173190753
20
-0.920539636501815
30
0
0
SPLINE
5
191
100
AcDbEntity
8
1
62
256
6
ByLayer
370
18
48
1
60
0
100
AcDbSpline
70
4
71
3
72
26
73
22
40
0
40
0
40
0
40
0
40
0.125000000000021
40
0.125000000000021
40
0.250000000000042
40
0.250000000000042
40
0.375000000000062
40
0.375000000000062
40
0.500000000000083
40
0.500000000000083
40
0.625000000000104
40
0.625000000000104
40
0.750000000000124
40
0.750000000000124
40
0.812500000000094
40
0.812500000000094
40
0.875000000000063
40
0.875000000000063
40
0.937500000000032
40
0.937500000000032
40
1
40
1
40
1
40
1
41
1
10
33.3268173190753
20
-0.920539636501815
30
0
41
1
10
33.3305048703684
20
-0.919052162947708
30
0
41
1
10
33.3347941556065
20
-0.918398625733715
30
0
41
1
10
33.344275176326
20
-0.918318204026775
30
0
41
1
10
33.349523536303
20
-0.918917911652613
30
0
41
1
10
33.3604316974335
20
-0.921166243825041
30
0
41
1
10
33.3661257617611
20
-0.922808760843537
30
0
41
1
10
33.3779468268934
20
-0.927081432532844
30
0
41
1
10
33.3841133272359
20
-0.929737912271435
30
0
41
1
10
33.3964359913249
20
-0.935912095822886
30
0
41
1
10
33.4026386646971
20
-0.939440693232484
30
0
41
1
10
33.4151083679233
20
-0.947509246713082
30
0
41
1
10
33.421411706484
20
-0.952086950724009
30
0
41
1
10
33.4304712106884
20
-0.959595879444748
30
0
41
1
10
33.4334405049045
20
-0.962215879961377
30
0
41
1
10
33.4392603235647
20
-0.967727391852435
30
0
41
1
10
33.4421248850991
20
-0.970636503311994
30
0
41
1
10
33.4475471160244
20
-0.976605063210002
30
0
41
1
10
33.4501228877597
20
-0.979679102660697
30
0
41
1
10
33.4549594671054
20
-0.986036045658437
30
0
41
1
10
33.4572298801885
20
-0.989337749051145
30
0
41
1
10
33.4592487574721
20
-0.992674043083781
30
0
0
SPLINE
5
192
100
AcDbEntity
8
1
62
256
6
ByLayer
370
18
48
1
60
0
100
AcDbSpline
70
4
71
3
72
8
73
4
40
0
40
0
40
0
40
0
40
1
40
1
40
1
40
1
41
1
10
33.4592487574743
20
-0.992674043087163
30
0
41
1
10
33.5012887024086
20
-1.06214712031573
30
0
41
1
10
33.5428673639528
20
-1.13390786875269
30
0
41
1
10
33.5838238351374
20
-1.20696673488388
30
0
0
SPLINE
5
193
100
AcDbEntity
8
1
62
256
6
ByLayer
370
18
48
1
60
0
100
AcDbSpline
70
4
71
3
72
8
73
4
40
0
40
0
40
0
40
0
40
1
40
1
40
1
40
1
41
1
10
33.5838238351375
20
-1.20696673488385
30
0
41
1
10
33.6378051591217
20
-1.22898331569206
30
0
41
1
10
33.6917387718838
20
-1.24774051593971
30
0
41
1
10
33.746038273726
20
-1.26317128306513
30
0
0
SPLINE
5
194
100
AcDbEntity
8
1
62
256
6
ByLayer
370
18
48
1
60
0
100
AcDbSpline
70
4
71
3
72
10
73
6
40
0
40
0
40
0
40
0
40
0.5
40
0.5
40
1
40
1
40
1
40
1
41
1
10
33.746038273726
20
-1.26317128306513
30
0
41
1
10
33.7640461270503
20
-1.24774697949283
30
0
41
1
10
33.7821811789705
20
-1.2312764575895
30
0
41
1
10
33.8186227596042
20
-1.1963688342444
30
0
41
1
10
33.8369460001671
20
-1.17791787674653
30
0
41
1
10
33.8553964661648
20
-1.15846931224479
30
0
0
SPLINE
5
195
100
AcDbEntity
8
1
62
256
6
ByLayer
370
18
48
1
60
0
100
AcDbSpline
70
4
71
3
72
26
73
22
40
0
40
0
40
0
40
0
40
0.125
40
0.125
40
0.25
40
0.25
40
0.375
40
0.375
40
0.5
40
0.5
40
0.625
40
0.625
40
0.75
40
0.75
40
0.8125
40
0.8125
40
0.875
40
0.875
40
0.9375
40
0.9375
40
1
40
1
40
1
40
1
41
1
10
33.8553964661648
20
-1.15846931224479
30
0
41
1
10
33.8590866806693
20
-1.15457947147857
30
0
41
1
10
33.8633792734528
20
-1.15160069778705
30
0
41
1
10
33.8728671842028
20
-1.14698650057844
30
0
41
1
10
33.8781193688311
20
-1.14536219206161
30
0
41
1
10
33.8890335312329
20
-1.14342566281584
30
0
41
1
10
33.8947299315946
20
-1.14308814114528
30
0
41
1
10
33.9065533127263
20
-1.1436053679457
30
0
41
1
10
33.9127190560605
20
-1.14447863354431
30
0
41
1
10
33.9250380289877
20
-1.14741442933379
30
0
41
1
10
33.9312381718964
20
-1.14947101560222
30
0
41
1
10
33.943702478156
20
-1.15491361321773
30
0
41
1
10
33.9500009404096
20
-1.15833346394356
30
0
41
1
10
33.9590536622911
20
-1.16447250289954
30
0
41
1
10
33.9620208889508
20
-1.16669392762356
30
0
41
1
10
33.9678369735524
20
-1.17154104572552
30
0
41
1
10
33.9706994182487
20
-1.17418367467474
30
0
41
1
10
33.976117547415
20
-1.17978900703864
30
0
41
1
10
33.9786915927073
20
-1.18276372105217
30
0
41
1
10
33.9835252857957
20
-1.18911364615991
30
0
41
1
10
33.9857944392601
20
-1.1925093593234
30
0
41
1
10
33.9878124201445
20
-1.19605351705189
30
0
0
SPLINE
5
196
100
AcDbEntity
8
1
62
256
6
ByLayer
370
18
48
1
60
0
100
AcDbSpline
70
4
71
3
72
8
73
4
40
0
40
0
40
0
40
0
40
1
40
1
40
1
40
1
41
1
10
33.9878124201467
20
-1.19605351705567
30
0
41
1
10
34.0105985704505
20
-1.23607258330881
30
0
41
1
10
34.0332508775673
20
-1.27612774041825
30
0
41
1
10
34.0557414629905
20
-1.31609154355624
30
0
0
SPLINE
5
197
100
AcDbEntity
8
1
62
256
6
ByLayer
370
18
48
1
60
0
100
AcDbSpline
70
4
71
3
72
12
73
8
40
0
40
0
40
0
40
0
40
0.25
40
0.25
40
0.5
40
0.5
40
1
40
1
40
1
40
1
41
1
10
34.0557414629903
20
-1.31609154355627
30
0
41
1
10
34.0799903173589
20
-1.31751537764643
30
0
41
1
10
34.1042588532699
20
-1.31835737987976
30
0
41
1
10
34.1530094557095
20
-1.31874639190605
30
0
41
1
10
34.1775861286502
20
-1.31826245435241
30
0
41
1
10
34.2512256078662
20
-1.31477262481897
30
0
41
1
10
34.3003286807161
20
-1.30977722572203
30
0
41
1
10
34.3494997995895
20
-1.30230159455669
30
0
0
SPLINE
5
198
100
AcDbEntity
8
1
62
256
6
ByLayer
370
13
48
1
60
0
100
AcDbSpline
70
4
71
3
72
8
73
4
40
0
40
0
40
0
40
0
40
1
40
1
40
1
40
1
41
1.04
10
34.3946979063651
20
-1.2410304696521
30
0
41
1.04
10
34.3910544744863
20
-1.24736392054981
30
0
41
1.04
10
34.3874634870835
20
-1.24980522366625
30
0
41
1.04
10
34.383923868347
20
-1.24859506847477
30
0
0
SPLINE
5
199
100
AcDbEntity
8
1
62
256
6
ByLayer
370
18
48
1
60
0
100
AcDbSpline
70
4
71
3
72
8
73
4
40
0
40
0
40
0
40
0
40
1
40
1
40
1
40
1
41
1
10
31.9762744513985
20
1.53138138984755
30
0
41
1
10
31.9735410145557
20
1.53735594723497
30
0
41
1
10
31.9708519887329
20
1.54033164087093
30
0
41
1
10
31.9681296151253
20
1.54036624890381
30
0
0
SPLINE
5
19A
100
AcDbEntity
8
1
62
256
6
ByLayer
370
18
48
1
60
0
100
AcDbSpline
70
4
71
3
72
8
73
4
40
0
40
0
40
0
40
0
40
1
40
1
40
1
40
1
41
1
10
31.2172895727571
20
-1.54036515666422
30
0
41
1
10
31.2140414739909
20
-1.54037875560391
30
0
41
1
10
31.2108729203665
20
-1.53650797353333
30
0
41
1
10
31.2077494268776
20
-1.52884261252021
30
0
0
SPLINE
5
19B
100
AcDbEntity
8
1
62
256
6
ByLayer
370
18
48
1
60
0
100
AcDbSpline
70
4
71
3
72
8
73
4
40
0
40
0
40
0
40
0
40
1
40
1
40
1
40
1
41
1
10
28.9287844211222
20
1.54036078066494
30
0
41
1
10
28.932626160876
20
1.54037983694698
30
0
41
1
10
28.936534706632
20
1.53532388727766
30
0
41
1
10
28.9404255619131
20
1.52521866268646
30
0
0
SPLINE
5
19C
100
AcDbEntity
8
1
62
256
6
ByLayer
370
18
48
1
60
0
100
AcDbSpline
70
4
71
3
72
10
73
6
40
0
40
0
40
0
40
0
40
0.670512087443365
40
0.670512087443365
40
1
40
1
40
1
40
1
41
1
10
31.1676088106321
20
-1.52318163359183
30
0
41
1
10
31.1701358823806
20
-1.53077733522554
30
0
41
1
10
31.1726112337492
20
-1.53588583130102
30
0
41
1
10
31.1763671182983
20
-1.5397001106297
30
0
41
1
10
31.1776220036816
20
-1.54033878435985
30
0
41
1
10
31.178889309595
20
-1.54034758083242
30
0
0
SPLINE
5
19D
100
AcDbEntity
8
1
62
256
6
ByLayer
370
18
48
1
60
0
100
AcDbSpline
70
4
71
3
72
12
73
8
40
0
40
0
40
0
40
0
40
0.591756583334329
40
0.591756583334329
40
0.887634875001495
40
0.887634875001495
40
1
40
1
40
1
40
1
41
1
10
28.9814717255771
20
1.5186251232536
30
0
41
1
10
28.9788519726881
20
1.52715450332388
30
0
41
1
10
28.976187848194
20
1.53318786929069
30
0
41
1
10
28.9721419648737
20
1.53846004552062
30
0
41
1
10
28.9707848346484
20
1.53958663845228
30
0
41
1
10
28.9689004679943
20
1.54025687688673
30
0
41
1
10
28.968379963202
20
1.54034853973903
30
0
41
1
10
28.9678584374538
20
1.54034706662171
30
0
0
SPLINE
5
19E
100
AcDbEntity
8
1
62
256
6
ByLayer
370
18
48
1
60
0
100
AcDbSpline
70
4
71
3
72
12
73
8
40
0
40
0
40
0
40
0
40
0.169432576938901
40
0.169432576938901
40
0.446288384625934
40
0.446288384625934
40
1
40
1
40
1
40
1
41
1
10
34.3563434977387
20
-1.30687597360054
30
0
41
1
10
34.3559085751254
20
-1.30768102828066
30
0
41
1
10
34.3554816168592
20
-1.30830859969481
30
0
41
1
10
34.3543776993766
20
-1.30948755709545
30
0
41
1
10
34.3537150673661
20
-1.30973470583763
30
0
41
1
10
34.3518020013578
20
-1.30902198293447
30
0
41
1
10
34.350622086339
20
-1.30661858738367
30
0
41
1
10
34.3494997995882
20
-1.30230159455709
30
0
0
SPLINE
5
19F
100
AcDbEntity
8
1
62
256
6
ByLayer
370
18
48
1
60
0
100
AcDbSpline
70
4
71
3
72
15
73
11
40
0
40
0
40
0
40
0
40
0.0899550121048325
40
0.317466259078625
40
0.317466259078625
40
0.431221882565521
40
0.431221882565521
40
0.544977506052417
40
0.544977506052417
40
1
40
1
40
1
40
1
41
1
10
32.4289299757563
20
1.54034862891129
30
0
41
1
10
32.4300197161983
20
1.540344011548
30
0
41
1
10
32.4338781779507
20
1.53892470690445
30
0
41
1
10
32.437748702358
20
1.53255249654788
30
0
41
1
10
32.4418883255787
20
1.52176596807655
30
0
41
1
10
32.4432642614205
20
1.51751018533273
30
0
41
1
10
32.4459778610014
20
1.50778072073243
30
0
41
1
10
32.447319476518
20
1.5022978010787
30
0
41
1
10
32.45395762709
20
1.4718421390919
30
0
41
1
10
32.4590224168916
20
1.43783516920683
30
0
41
1
10
32.4640977230234
20
1.39409534323383
30
0
0
SPLINE
5
1A0
100
AcDbEntity
8
1
62
256
6
ByLayer
370
18
48
1
60
0
100
AcDbSpline
70
4
71
3
72
15
73
11
40
0
40
0
40
0
40
0
40
0.42667575313361
40
0.42667575313361
40
0.533344691417013
40
0.533344691417013
40
0.640013629700415
40
0.640013629700415
40
0.85335150626722
40
1
40
1
40
1
40
1
41
1
10
32.505021648256
20
1.37534268605145
30
0
41
1
10
32.4998328477067
20
1.42139363134603
30
0
41
1
10
32.4945808651507
20
1.45823061095672
30
0
41
1
10
32.4878458920517
20
1.49238448077011
30
0
41
1
10
32.4864911436088
20
1.49860751294679
30
0
41
1
10
32.4837944054587
20
1.50971302114266
30
0
41
1
10
32.4824485802063
20
1.51461599634581
30
0
41
1
10
32.4784170140802
20
1.52740732283007
30
0
41
1
10
32.4738949784199
20
1.53749025375987
30
0
41
1
10
32.4693847365743
20
1.54038043520265
30
0
41
1
10
32.46754863411
20
1.54034796311015
30
0
0
SPLINE
5
1A1
100
AcDbEntity
8
1
62
256
6
ByLayer
370
18
48
1
60
0
100
AcDbSpline
70
4
71
3
72
18
73
14
40
0
40
0
40
0
40
0
40
0.0638475241302991
40
0.0638475241302991
40
0.167864465893599
40
0.167864465893599
40
0.583932232946799
40
0.583932232946799
40
0.791966116473399
40
0.791966116473399
40
0.8959830582367
40
0.8959830582367
40
1
40
1
40
1
40
1
41
1
10
30.7178268506855
20
-1.54034715386288
30
0
41
1
10
30.7169799239964
20
-1.54033335487406
30
0
41
1
10
30.7161268127084
20
-1.54007794931027
30
0
41
1
10
30.713870446955
20
-1.53876406336954
30
0
41
1
10
30.7124594491029
20
-1.53729502162312
30
0
41
1
10
30.7054796795447
20
-1.52677753512555
30
0
41
1
10
30.7001581006553
20
-1.50830151239265
30
0
41
1
10
30.6925338297922
20
-1.465842199864
30
0
41
1
10
30.6900328806215
20
-1.44921356246485
30
0
41
1
10
30.6861944859012
20
-1.42043572843636
30
0
41
1
10
30.6849063709794
20
-1.4102278070466
30
0
41
1
10
30.6823281881485
20
-1.38875798928865
30
0
41
1
10
30.6810351450646
20
-1.37747398167923
30
0
41
1
10
30.6797366058718
20
-1.36564940692332
30
0
0
SPLINE
5
1A2
100
AcDbEntity
8
1
62
256
6
ByLayer
370
18
48
1
60
0
100
AcDbSpline
70
4
71
3
72
19
73
15
40
0
40
0
40
0
40
0
40
0.098164255338263
40
0.098164255338263
40
0.196328510676526
40
0.196328510676526
40
0.392657021353054
40
0.588985532029581
40
0.588985532029581
40
0.687149787367845
40
0.687149787367845
40
0.785314042706109
40
0.785314042706109
40
1
40
1
40
1
40
1
41
1
10
30.6387002676605
20
-1.34531379601228
30
0
41
1
10
30.6399982165287
20
-1.35786564899945
30
0
41
1
10
30.6413009716067
20
-1.36991160325226
30
0
41
1
10
30.6438974384126
20
-1.39269623181519
30
0
41
1
10
30.6451951833714
20
-1.40347004579203
30
0
41
1
10
30.6491061644596
20
-1.433967464944
30
0
41
1
10
30.6543577685537
20
-1.46977571264728
30
0
41
1
10
30.6596623916607
20
-1.495991437691
30
0
41
1
10
30.6636604307134
20
-1.51199201708027
30
0
41
1
10
30.6649964736175
20
-1.51671421878206
30
0
41
1
10
30.6676768961248
20
-1.52491097119167
30
0
41
1
10
30.669017417157
20
-1.52837030767245
30
0
41
1
10
30.6732611895291
20
-1.53729783789416
30
0
41
1
10
30.6761408869818
20
-1.54035308265077
30
0
41
1
10
30.6790238204447
20
-1.54036614410293
30
0
0
SPLINE
5
1A3
100
AcDbEntity
8
1
62
256
6
ByLayer
370
18
48
1
60
0
100
AcDbSpline
70
4
71
3
72
20
73
16
40
0
40
0
40
0
40
0
40
0.094740085030606
40
0.094740085030606
40
0.189480170061212
40
0.189480170061212
40
0.378960340122425
40
0.378960340122425
40
0.757920680244851
40
0.757920680244851
40
0.852660765275457
40
0.852660765275457
40
0.947400850306063
40
0.947400850306063
40
1
40
1
40
1
40
1
41
1
10
29.509825239362
20
1.33132155591696
30
0
41
1
10
29.508560766544
20
1.34418571154501
30
0
41
1
10
29.5072909966065
20
1.35653023113383
30
0
41
1
10
29.5047272364451
20
1.38016073823567
30
0
41
1
10
29.5034307915801
20
1.39146345198768
30
0
41
1
10
29.4995251870041
20
1.42340733498329
30
0
41
1
10
29.4968759052306
20
1.44221117439082
30
0
41
1
10
29.4888362193371
20
1.49135313082928
30
0
41
1
10
29.4833804335727
20
1.51449457813612
30
0
41
1
10
29.4765479647471
20
1.53098196106853
30
0
41
1
10
29.4751822588747
20
1.53364198968586
30
0
41
1
10
29.4724773202348
20
1.53765089947245
30
0
41
1
10
29.4711344370188
20
1.53900920866974
30
0
41
1
10
29.4690590313323
20
1.54013255208659
30
0
41
1
10
29.468320747362
20
1.5403378895287
30
0
41
1
10
29.4675847497751
20
1.54034804352966
30
0
0
SPLINE
5
1A4
100
AcDbEntity
8
1
62
256
6
ByLayer
370
18
48
1
60
0
100
AcDbSpline
70
4
71
3
72
20
73
16
40
0
40
0
40
0
40
0
40
0.0006907945516357
40
0.0006907945516357
40
0.100621715096472
40
0.100621715096472
40
0.200552635641309
40
0.200552635641309
40
0.600276317820654
40
0.600276317820654
40
0.70020723836549
40
0.70020723836549
40
0.800138158910326
40
0.800138158910326
40
1
40
1
40
1
40
1
41
1
10
29.4289808595158
20
1.54034755268941
30
0
41
1
10
29.4289898139688
20
1.54034748169826
30
0
41
1
10
29.4289987689219
20
1.54034737989687
30
0
41
1
10
29.4303032280542
20
1.54032806310963
30
0
41
1
10
29.4316092475651
20
1.53965769977012
30
0
41
1
10
29.4342176446493
20
1.5370381898291
30
0
41
1
10
29.4355237027981
20
1.53509040890032
30
0
41
1
10
29.4420822254801
20
1.52221483404281
30
0
41
1
10
29.4474915915691
20
1.50197011427198
30
0
41
1
10
29.4543284425212
20
1.46414367667563
30
0
41
1
10
29.4556982619797
20
1.45594652552279
30
0
41
1
10
29.4584402951833
20
1.43826204758997
30
0
41
1
10
29.4598065680833
20
1.42881042174443
30
0
41
1
10
29.4638659899358
20
1.39882656218231
30
0
41
1
10
29.4665292396959
20
1.37660385669869
30
0
41
1
10
29.4691601455643
20
1.35219761009472
30
0
0
SPLINE
5
1A5
100
AcDbEntity
8
1
62
256
6
ByLayer
370
18
48
1
60
0
100
AcDbSpline
70
4
71
3
72
23
73
19
40
0
40
0
40
0
40
0
40
0.125000000000001
40
0.125000000000001
40
0.250000000000001
40
0.250000000000001
40
0.500000000000002
40
0.500000000000002
40
0.562500000000002
40
0.562500000000002
40
0.625000000000002
40
0.625000000000002
40
0.750000000000001
40
0.875000000000001
40
0.875000000000001
40
0.9375
40
0.9375
40
1
40
1
40
1
40
1
41
1
10
33.0337369239204
20
1.04381933181583
30
0
41
1
10
33.031060490208
20
1.08144192773261
30
0
41
1
10
33.0283730049369
20
1.11746833070748
30
0
41
1
10
33.0229329217045
20
1.18621194765313
30
0
41
1
10
33.0202245003726
20
1.21836284358116
30
0
41
1
10
33.0121364456406
20
1.30828876189992
30
0
41
1
10
33.0067957416252
20
1.35964544526337
30
0
41
1
10
33.0001363987548
20
1.41290208744866
30
0
41
1
10
32.9988016386956
20
1.42302473651952
30
0
41
1
10
32.9961463196657
20
1.4420230725226
30
0
41
1
10
32.9948288513766
20
1.45087989098693
30
0
41
1
10
32.9909001771813
20
1.47556138049552
30
0
41
1
10
32.9857260431965
20
1.50344207228048
30
0
41
1
10
32.9805874982727
20
1.52143731076464
30
0
41
1
10
32.976699474654
20
1.53118005635684
30
0
41
1
10
32.9753976385522
20
1.53380088620304
30
0
41
1
10
32.972772486138
20
1.53776692194185
30
0
41
1
10
32.9714458005371
20
1.53911159657866
30
0
41
1
10
32.970116502114
20
1.53979966336303
30
0
0
SPLINE
5
1A6
100
AcDbEntity
8
1
62
256
6
ByLayer
370
18
48
1
60
0
100
AcDbSpline
70
4
71
3
72
40
73
36
40
0
40
0
40
0
40
0
40
0.042596713488651
40
0.042596713488651
40
0.188226059929515
40
0.188226059929515
40
0.224633396539728
40
0.224633396539728
40
0.261040733149941
40
0.261040733149941
40
0.333855406370367
40
0.333855406370367
40
0.406670079590792
40
0.406670079590792
40
0.443077416201005
40
0.443077416201005
40
0.479484752811218
40
0.479484752811218
40
0.552299426031658
40
0.552299426031658
40
0.625114099252098
40
0.625114099252098
40
0.697928772472538
40
0.697928772472538
40
0.770743445692978
40
0.770743445692978
40
0.843558118913418
40
0.843558118913418
40
0.879965455523631
40
0.879965455523631
40
0.916372792133845
40
0.916372792133845
40
0.989187465354283
40
0.989187465354283
40
1
40
1
40
1
40
1
41
1
10
21.1221336637246
20
-1.14354581820871
30
0
41
1
10
21.1050157241565
20
-1.14352345448097
30
0
41
1
10
21.0877336665753
20
-1.1433482237093
30
0
41
1
10
21.0105846137573
20
-1.1419901580974
30
0
41
1
10
20.9488261689596
20
-1.13939684282511
30
0
41
1
10
20.8682940970699
20
-1.13544198602162
30
0
41
1
10
20.8520033820021
20
-1.13461496181983
30
0
41
1
10
20.8193217103311
20
-1.13293684641633
30
0
41
1
10
20.8029026597505
20
-1.13208442794402
30
0
41
1
10
20.7533994851702
20
-1.12953838826613
30
0
41
1
10
20.720072419818
20
-1.12785469398676
30
0
41
1
10
20.6526739790582
20
-1.124792405216
30
0
41
1
10
20.6186048584646
20
-1.12341323006365
30
0
41
1
10
20.5668816925063
20
-1.12175049088134
30
0
41
1
10
20.5495366280597
20
-1.12126410097349
30
0
41
1
10
20.5146152115876
20
-1.12046144320985
30
0
41
1
10
20.4969749133004
20
-1.12014455147769
30
0
41
1
10
20.4442236638192
20
-1.11951508492797
30
0
41
1
10
20.4093210000823
20
-1.11956361826941
30
0
41
1
10
20.3399568919286
20
-1.12043740778091
30
0
41
1
10
20.3054885417204
20
-1.12124659517542
30
0
41
1
10
20.2368377604944
20
-1.1232740145492
30
0
41
1
10
20.2026352245882
20
-1.12446319711671
30
0
41
1
10
20.1346096952166
20
-1.12726884117566
30
0
41
1
10
20.1006475805445
20
-1.12888167737151
30
0
41
1
10
20.0344823195351
20
-1.13230092710865
30
0
41
1
10
20.0021564539545
20
-1.1341136001237
30
0
41
1
10
19.9550277247655
20
-1.13675744481552
30
0
41
1
10
19.9395456883894
20
-1.13762510774873
30
0
41
1
10
19.9091047389754
20
-1.13927715334844
30
0
41
1
10
19.8941084399281
20
-1.14006325926832
30
0
41
1
10
19.8507700883928
20
-1.14214954170302
30
0
41
1
10
19.8238458953221
20
-1.14320719511809
30
0
41
1
10
19.7958813859285
20
-1.1435233346557
30
0
41
1
10
19.7923196831024
20
-1.14354623081567
30
0
41
1
10
19.7888230042641
20
-1.14354925371779
30
0
0
SPLINE
5
1A7
100
AcDbEntity
8
1
62
256
6
ByLayer
370
18
48
1
60
0
100
AcDbSpline
70
4
71
3
72
8
73
4
40
0
40
0
40
0
40
0
40
1
40
1
40
1
40
1
41
1
10
20.4966078702408
20
1.14355050574821
30
0
41
1
10
20.5041791218285
20
1.14355080597696
30
0
41
1
10
20.5117454102334
20
1.14347846458153
30
0
41
1
10
20.5193064794519
20
1.14333318534114
30
0
0
SPLINE
5
1A8
100
AcDbEntity
8
1
62
256
6
ByLayer
370
18
48
1
60
0
100
AcDbSpline
70
4
71
3
72
22
73
18
40
0
40
0
40
0
40
0
40
0.125000000000002
40
0.125000000000002
40
0.187500000000002
40
0.187500000000002
40
0.250000000000003
40
0.250000000000003
40
0.500000000000002
40
0.500000000000002
40
0.562500000000002
40
0.562500000000002
40
0.625000000000001
40
0.625000000000001
40
0.75
40
0.75
40
1
40
1
40
1
40
1
41
1
10
30.2145489162528
20
-1.53901972897276
30
0
41
1
10
30.2119214873447
20
-1.53690225347799
30
0
41
1
10
30.2092939291622
20
-1.53225760420324
30
0
41
1
10
30.2053325268658
20
-1.52141702640353
30
0
41
1
10
30.2040071248712
20
-1.51715145512958
30
0
41
1
10
30.2013498038511
20
-1.50731984384856
30
0
41
1
10
30.2000262629722
20
-1.50178630551676
30
0
41
1
10
30.193418626236
20
-1.47109496848344
30
0
41
1
10
30.1881518614767
20
-1.43695481775219
30
0
41
1
10
30.1813802995113
20
-1.38241469822557
30
0
41
1
10
30.1800204460081
20
-1.3709078542621
30
0
41
1
10
30.1772960063399
20
-1.34667668421684
30
0
41
1
10
30.1759275773635
20
-1.33391393077758
30
0
41
1
10
30.1718523576639
20
-1.29407682222299
30
0
41
1
10
30.1691801959402
20
-1.26550709209391
30
0
41
1
10
30.1612793273218
20
-1.17394783125926
30
0
41
1
10
30.1561808885382
20
-1.10516466272224
30
0
41
1
10
30.1509930685551
20
-1.02843145655299
30
0
0
SPLINE
5
1A9
100
AcDbEntity
8
1
62
256
6
ByLayer
370
18
48
1
60
0
100
AcDbSpline
70
4
71
3
72
21
73
17
40
0
40
0
40
0
40
0
40
0.250000000000001
40
0.250000000000001
40
0.3125
40
0.3125
40
0.375
40
0.375
40
0.5
40
0.625
40
0.625
40
0.6875
40
0.6875
40
0.75
40
0.75
40
1
40
1
40
1
40
1
41
1
10
30.1101632426877
20
-0.996311562456697
30
0
41
1
10
30.1154124347148
20
-1.07433580181467
30
0
41
1
10
30.1204977516138
20
-1.14525412795135
30
0
41
1
10
30.127138291651
20
-1.22487537118835
30
0
41
1
10
30.1284870046223
20
-1.24036427006701
30
0
41
1
10
30.1312109025072
20
-1.27032287088804
30
0
41
1
10
30.1325760631502
20
-1.28470971155795
30
0
41
1
10
30.1366589932839
20
-1.32613057856611
30
0
41
1
10
30.1420637186079
20
-1.37672803162235
30
0
41
1
10
30.1473041270731
20
-1.41824183369877
30
0
41
1
10
30.1512095406691
20
-1.44593311879925
30
0
41
1
10
30.1525078957247
20
-1.4545884981014
30
0
41
1
10
30.1551130182882
20
-1.4707297030379
30
0
41
1
10
30.1564248105734
20
-1.47823402646046
30
0
41
1
10
30.1629862124115
20
-1.51248267190067
30
0
41
1
10
30.1682250988777
20
-1.52956056128431
30
0
41
1
10
30.1735171343584
20
-1.53664096313045
30
0
0
SPLINE
5
1AA
100
AcDbEntity
8
1
62
256
6
ByLayer
370
18
48
1
60
0
100
AcDbSpline
70
4
71
3
72
22
73
18
40
0
40
0
40
0
40
0
40
0.250000000000001
40
0.250000000000001
40
0.312500000000001
40
0.312500000000001
40
0.375
40
0.375
40
0.500000000000001
40
0.500000000000001
40
0.750000000000002
40
0.750000000000002
40
0.812500000000001
40
0.812500000000001
40
0.875000000000001
40
0.875000000000001
40
1
40
1
40
1
40
1
41
1
10
33.2094733693484
20
-1.53242094805387
30
0
41
1
10
33.2042405638398
20
-1.52199648744934
30
0
41
1
10
33.1991650312417
20
-1.50154031620809
30
0
41
1
10
33.1926183230064
20
-1.46358072537734
30
0
41
1
10
33.1912982155309
20
-1.45536362347863
30
0
41
1
10
33.1886444798823
20
-1.43765908449032
30
0
41
1
10
33.1873074140362
20
-1.42814501561969
30
0
41
1
10
33.1833082037734
20
-1.39785280659612
30
0
41
1
10
33.1806711552555
20
-1.37542705851007
30
0
41
1
10
33.1728205801547
20
-1.30166977205545
30
0
41
1
10
33.1676688325392
20
-1.24392083123107
30
0
41
1
10
33.160869184898
20
-1.16075279774341
30
0
41
1
10
33.1594924442352
20
-1.14352091384049
30
0
41
1
10
33.1567451589943
20
-1.10829667794781
30
0
41
1
10
33.15537211151
20
-1.0902754711706
30
0
41
1
10
33.1512612614385
20
-1.03500639614987
30
0
41
1
10
33.1485323519238
20
-0.996556001526017
30
0
41
1
10
33.1458265624939
20
-0.956522246825017
30
0
0
SPLINE
5
1AB
100
AcDbEntity
8
1
62
256
6
ByLayer
370
18
48
1
60
0
100
AcDbSpline
70
4
71
3
72
26
73
22
40
0
40
0
40
0
40
0
40
0.125
40
0.125
40
0.1875
40
0.1875
40
0.25
40
0.25
40
0.499999999999999
40
0.499999999999999
40
0.562499999999999
40
0.562499999999999
40
0.624999999999999
40
0.624999999999999
40
0.749999999999999
40
0.749999999999999
40
0.874999999999999
40
0.874999999999999
40
0.937499999999999
40
0.937499999999999
40
1
40
1
40
1
40
1
41
1
10
33.1052778332844
20
-0.922855329805316
30
0
41
1
10
33.1079838874315
20
-0.963807217832482
30
0
41
1
10
33.1106973379258
20
-1.00336905063409
30
0
41
1
10
33.1147685079474
20
-1.06055347010559
30
0
41
1
10
33.1161175437505
20
-1.07913613649629
30
0
41
1
10
33.1187911107739
20
-1.1152310593688
30
0
41
1
10
33.1201171858775
20
-1.1327650297813
30
0
41
1
10
33.1267008825412
20
-1.21790425539592
30
0
41
1
10
33.1318005081822
20
-1.27799286036168
30
0
41
1
10
33.1382457763901
20
-1.3429003768554
30
0
41
1
10
33.1395422718717
20
-1.35539168328947
30
0
41
1
10
33.142144168085
20
-1.37920547313468
30
0
41
1
10
33.1434447505577
20
-1.39048629641457
30
0
41
1
10
33.1473652200244
20
-1.42248837159326
30
0
41
1
10
33.1500129717825
20
-1.44137352055105
30
0
41
1
10
33.15542608877
20
-1.47433347497542
30
0
41
1
10
33.1581734559075
20
-1.48840861087103
30
0
41
1
10
33.1622962447094
20
-1.50587332812447
30
0
41
1
10
33.16367112607
20
-1.51108577179687
30
0
41
1
10
33.1664164184821
20
-1.52027141290097
30
0
41
1
10
33.167790544436
20
-1.52425205937354
30
0
41
1
10
33.1691481561365
20
-1.52756908517523
30
0
0
SPLINE
5
1AC
100
AcDbEntity
8
1
62
256
6
ByLayer
370
18
48
1
60
0
100
AcDbSpline
70
4
71
3
72
22
73
18
40
0
40
0
40
0
40
0
40
0.125
40
0.125
40
0.1875
40
0.1875
40
0.250000000000001
40
0.250000000000001
40
0.5
40
0.5
40
0.625
40
0.625
40
0.75
40
0.75
40
0.875
40
0.875
40
1
40
1
40
1
40
1
41
1
10
28.3068106178734
20
-0.21171105759376
30
0
41
1
10
28.3058609849777
20
-0.17906948435791
30
0
41
1
10
28.3049515610171
20
-0.146135757104048
30
0
41
1
10
28.3036288622465
20
-0.0962835888510654
30
0
41
1
10
28.3031934845935
20
-0.0795552592936417
30
0
41
1
10
28.3023469137088
20
-0.0462111544248387
30
0
41
1
10
28.3019352270144
20
-0.029577440660546
30
0
41
1
10
28.2999452845517
20
0.0534033752468588
30
0
41
1
10
28.2985713025099
20
0.119190775839371
30
0
41
1
10
28.2970506644481
20
0.217006684307307
30
0
41
1
10
28.2966339402241
20
0.249467079239537
30
0
41
1
10
28.2960232008168
20
0.314095135275437
30
0
41
1
10
28.2958292610797
20
0.346356695569
30
0
41
1
10
28.2957198262496
20
0.40965316373132
30
0
41
1
10
28.2958011511582
20
0.440783730984663
30
0
41
1
10
28.2963154079714
20
0.502040390733413
30
0
41
1
10
28.2967201918901
20
0.532160304638523
30
0
41
1
10
28.2974716388762
20
0.561812463076478
30
0
0
SPLINE
5
1AD
100
AcDbEntity
8
1
62
256
6
ByLayer
370
13
48
1
60
0
100
AcDbSpline
70
4
71
3
72
9
73
5
40
0
40
0
40
0
40
0
40
0.269351858489667
40
1
40
1
40
1
40
1
41
1
10
28.4059801049923
20
-0.307318829842245
30
0
41
1
10
28.401659959059
20
-0.241406180267973
30
0
41
1
10
28.3856921500744
20
0.0073070510248101
30
0
41
1
10
28.3698673006467
20
0.259219424633812
30
0
41
1
10
28.3583430664638
20
0.429017640029258
30
0
0
SPLINE
5
1AE
100
AcDbEntity
8
1
62
256
6
ByLayer
370
18
48
1
60
0
100
AcDbSpline
70
4
71
3
72
22
73
18
40
0
40
0
40
0
40
0
40
0.25
40
0.25
40
0.3125
40
0.3125
40
0.375000000000001
40
0.375000000000001
40
0.5
40
0.5
40
0.75
40
0.75
40
0.8125
40
0.8125
40
0.875
40
0.875
40
1
40
1
40
1
40
1
41
1
10
34.7425790625649
20
0.363893382310891
30
0
41
1
10
34.7379770463044
20
0.30198658338179
30
0
41
1
10
34.7337334620598
20
0.238369529549544
30
0
41
1
10
34.7287881650146
20
0.156720045552078
30
0
41
1
10
34.7278177619352
20
0.140282808934586
30
0
41
1
10
34.7259147502482
20
0.10719010029419
30
0
41
1
10
34.7249805710625
20
0.0905040509619823
30
0
41
1
10
34.72226145069
20
0.04057045063945
30
0
41
1
10
34.7205521997723
20
0.0073261241623754
30
0
41
1
10
34.7157458413067
20
-0.0922761743639455
30
0
41
1
10
34.71296766684
20
-0.158504446130848
30
0
41
1
10
34.710132848137
20
-0.241070422913253
30
0
41
1
10
34.7095978888771
20
-0.25757257074585
30
0
41
1
10
34.7085945719311
20
-0.290554364557948
30
0
41
1
10
34.7081265659323
20
-0.30703004746195
30
0
41
1
10
34.7068379405479
20
-0.355920650918705
30
0
41
1
10
34.7061276192277
20
-0.387969571513054
30
0
41
1
10
34.7055603715114
20
-0.419487631008366
30
0
0
SPLINE
5
1AF
100
AcDbEntity
8
1
62
256
6
ByLayer
370
18
48
1
60
0
100
AcDbSpline
70
4
71
3
72
18
73
14
40
0
40
0
40
0
40
0
40
0.250000000000002
40
0.250000000000002
40
0.375000000000002
40
0.375000000000002
40
0.500000000000003
40
0.500000000000003
40
0.750000000000001
40
0.750000000000001
40
0.875000000000001
40
0.875000000000001
40
1
40
1
40
1
40
1
41
1
10
34.370280866642
20
0.69722951452934
30
0
41
1
10
34.3768608708551
20
0.630099902469141
30
0
41
1
10
34.3832798885495
20
0.55936595559092
30
0
41
1
10
34.3928884991063
20
0.448048786702202
30
0
41
1
10
34.3960786924351
20
0.410067835970779
30
0
41
1
10
34.4024412769821
20
0.33231839102362
30
0
41
1
10
34.4055705853121
20
0.293072601144502
30
0
41
1
10
34.414783111452
20
0.174618732370902
30
0
41
1
10
34.4207025122856
20
0.0945438347748109
30
0
41
1
10
34.4292685667132
20
-0.0272587937162712
30
0
41
1
10
34.4320817402804
20
-0.0682980547950081
30
0
41
1
10
34.4375290111925
20
-0.14965605155362
30
0
41
1
10
34.440171283612
20
-0.190087462481955
30
0
41
1
10
34.44274821404
20
-0.230268223161232
30
0
0
SPLINE
5
1B0
100
AcDbEntity
8
1
62
256
6
ByLayer
370
18
48
1
60
0
100
AcDbSpline
70
4
71
3
72
22
73
18
40
0
40
0
40
0
40
0
40
0.250000000000001
40
0.250000000000001
40
0.312500000000001
40
0.312500000000001
40
0.375000000000001
40
0.375000000000001
40
0.5
40
0.5
40
0.624999999999999
40
0.624999999999999
40
0.687499999999999
40
0.687499999999999
40
0.749999999999998
40
0.749999999999998
40
1
40
1
40
1
40
1
41
1
10
33.4271413990416
20
1.4031144097163
30
0
41
1
10
33.4346680148631
20
1.37229928534657
30
0
41
1
10
33.4419786463234
20
1.33182770423892
30
0
41
1
10
33.4512490006988
20
1.26944616701678
30
0
41
1
10
33.4531114698797
20
1.25637710179373
30
0
41
1
10
33.4568641399877
20
1.22903740611758
30
0
41
1
10
33.4587448609719
20
1.21483450263145
30
0
41
1
10
33.4643823821369
20
1.17085829418062
30
0
41
1
10
33.4681493150647
20
1.13964095035979
30
0
41
1
10
33.4756870095935
20
1.07343198167905
30
0
41
1
10
33.4794546221569
20
1.03844143400727
30
0
41
1
10
33.4850442721093
20
0.982988872839684
30
0
41
1
10
33.4868954201887
20
0.964006448253429
30
0
41
1
10
33.4905780004319
20
0.925025572773222
30
0
41
1
10
33.4924142762845
20
0.904976352393334
30
0
41
1
10
33.5015105379376
20
0.802819355488964
30
0
41
1
10
33.5085329997937
20
0.715410475901223
30
0
41
1
10
33.5155121343575
20
0.622467212489141
30
0
0
SPLINE
5
1B1
100
AcDbEntity
8
1
62
256
6
ByLayer
370
18
48
1
60
0
100
AcDbSpline
70
4
71
3
72
18
73
14
40
0
40
0
40
0
40
0
40
0.249999999999999
40
0.249999999999999
40
0.312499999999999
40
0.312499999999999
40
0.375
40
0.375
40
0.5
40
0.5
40
0.75
40
0.75
40
1
40
1
40
1
40
1
41
1
10
29.6856197347342
20
-1.41827849999129
30
0
41
1
10
29.6803209682973
20
-1.37833112719267
30
0
41
1
10
29.6752848135446
20
-1.32943093849451
30
0
41
1
10
29.6688231686248
20
-1.25706977704584
30
0
41
1
10
29.6675168532392
20
-1.24203077226079
30
0
41
1
10
29.6648648195119
20
-1.21079680931007
30
0
41
1
10
29.6635247285199
20
-1.19463336814297
30
0
41
1
10
29.6595132191143
20
-1.14494780211047
30
0
41
1
10
29.6568389110178
20
-1.11007645345811
30
0
41
1
10
29.6488782259342
20
-1.00034128677984
30
0
41
1
10
29.6436917945466
20
-0.920397578464218
30
0
41
1
10
29.6331011379342
20
-0.746428786195622
30
0
41
1
10
29.627833662248
20
-0.655339845544688
30
0
41
1
10
29.6224951974725
20
-0.560317775349318
30
0
0
SPLINE
5
1B2
100
AcDbEntity
8
1
62
256
6
ByLayer
370
18
48
1
60
0
100
AcDbSpline
70
4
71
3
72
23
73
19
40
0
40
0
40
0
40
0
40
0.125
40
0.125
40
0.1875
40
0.1875
40
0.25
40
0.25
40
0.500000000000002
40
0.500000000000002
40
0.562500000000002
40
0.562500000000002
40
0.625000000000002
40
0.625000000000002
40
0.750000000000001
40
0.875000000000001
40
0.875000000000001
40
1
40
1
40
1
40
1
41
1
10
29.5813729612428
20
-0.520052364547638
30
0
41
1
10
29.5839405454805
20
-0.568056414110998
30
0
41
1
10
29.586521769785
20
-0.615298064497381
30
0
41
1
10
29.5904754635243
20
-0.68498365283466
30
0
41
1
10
29.5918109409559
20
-0.708078368663791
30
0
41
1
10
29.5944961834937
20
-0.753441138088505
30
0
41
1
10
29.5958480918553
20
-0.775729890328137
30
0
41
1
10
29.6026614562274
20
-0.885246894339957
30
0
41
1
10
29.6082132894676
20
-0.966755230224692
30
0
41
1
10
29.6149464900485
20
-1.06102323238449
30
0
41
1
10
29.61628505404
20
-1.07949230479934
30
0
41
1
10
29.6189469357068
20
-1.11564672047663
30
0
41
1
10
29.6202713519759
20
-1.13334457450935
30
0
41
1
10
29.6241850906024
20
-1.18466350595801
30
0
41
1
10
29.6292712369434
20
-1.24877663380022
30
0
41
1
10
29.6342796303978
20
-1.30448225022195
30
0
41
1
10
29.6394090186724
20
-1.35596623915257
30
0
41
1
10
29.6420485275574
20
-1.37959757181412
30
0
41
1
10
29.6447459086515
20
-1.40104806579666
30
0
0
SPLINE
5
1B3
100
AcDbEntity
8
1
62
256
6
ByLayer
370
18
48
1
60
0
100
AcDbSpline
70
4
71
3
72
21
73
17
40
0
40
0
40
0
40
0
40
0.249999999999998
40
0.249999999999998
40
0.312499999999998
40
0.312499999999998
40
0.374999999999997
40
0.374999999999997
40
0.499999999999997
40
0.624999999999998
40
0.624999999999998
40
0.687499999999998
40
0.687499999999998
40
0.749999999999998
40
0.749999999999998
40
1
40
1
40
1
40
1
41
1
10
30.4622520536471
20
1.40701946643731
30
0
41
1
10
30.4677395200307
20
1.36547202385191
30
0
41
1
10
30.4732660285385
20
1.31490877394103
30
0
41
1
10
30.4800799215399
20
1.2400133085182
30
0
41
1
10
30.4814341147444
20
1.22449266335468
30
0
41
1
10
30.4841067692724
20
1.19260831703667
30
0
41
1
10
30.485428221249
20
1.17621194937556
30
0
41
1
10
30.489353495659
20
1.12568102487162
30
0
41
1
10
30.4944807109024
20
1.05473456723894
30
0
41
1
10
30.4995127715791
20
0.976706137961429
30
0
41
1
10
30.5033372954458
20
0.915474776408274
30
0
41
1
10
30.5046224571531
20
0.894592483730122
30
0
41
1
10
30.507226058222
20
0.851984708779639
30
0
41
1
10
30.5085347284762
20
0.830401927063093
30
0
41
1
10
30.515108143959
20
0.72112295906328
30
0
41
1
10
30.5204608807215
20
0.629371810452625
30
0
41
1
10
30.525841663684
20
0.533332399902889
30
0
0
SPLINE
5
1B4
100
AcDbEntity
8
1
62
256
6
ByLayer
370
18
48
1
60
0
100
AcDbSpline
70
4
71
3
72
22
73
18
40
0
40
0
40
0
40
0
40
0.124999999999999
40
0.124999999999999
40
0.187499999999999
40
0.187499999999999
40
0.249999999999999
40
0.249999999999999
40
0.499999999999998
40
0.499999999999998
40
0.624999999999998
40
0.624999999999998
40
0.687499999999998
40
0.687499999999998
40
0.749999999999999
40
0.749999999999999
40
1
40
1
40
1
40
1
41
1
10
30.5665078013705
20
0.493234331615952
30
0
41
1
10
30.5638569927299
20
0.541555170567193
30
0
41
1
10
30.5612376975087
20
0.589035306942549
30
0
41
1
10
30.5573347878232
20
0.658979606054061
30
0
41
1
10
30.5560379607784
20
0.682081324338185
30
0
41
1
10
30.5534464672673
20
0.72785119696772
30
0
41
1
10
30.55214811743
20
0.750582685411842
30
0
41
1
10
30.5456974082539
20
0.862167048138872
30
0
41
1
10
30.5406774628245
20
0.944928649158982
30
0
41
1
10
30.5328034988639
20
1.05959225035187
30
0
41
1
10
30.5301243944193
20
1.09622215319476
30
0
41
1
10
30.5260585340271
20
1.14871118425171
30
0
41
1
10
30.5246927744739
20
1.16581858161371
30
0
41
1
10
30.5219725897065
20
1.19883123109693
30
0
41
1
10
30.5206138672585
20
1.21478379944389
30
0
41
1
10
30.5138242657594
20
1.29182543502034
30
0
41
1
10
30.5084245126313
20
1.34483177745597
30
0
41
1
10
30.5030805433949
20
1.38916306730405
30
0
0
SPLINE
5
1B5
100
AcDbEntity
8
1
62
256
6
ByLayer
370
18
48
1
60
0
100
AcDbSpline
70
4
71
3
72
24
73
20
40
0
40
0
40
0
40
0
40
0.0624999999999998
40
0.0624999999999998
40
0.125
40
0.125
40
0.249999999999999
40
0.249999999999999
40
0.499999999999999
40
0.499999999999999
40
0.624999999999999
40
0.624999999999999
40
0.75
40
0.75
40
0.875
40
0.875
40
0.9375
40
0.9375
40
1
40
1
40
1
40
1
41
1
10
32.6813524288036
20
-1.38004544194931
30
0
41
1
10
32.67999316149
20
-1.368657973729
30
0
41
1
10
32.6786260740713
20
-1.35666796031992
30
0
41
1
10
32.6758809348524
20
-1.33145904906601
30
0
41
1
10
32.6745039763816
20
-1.31824607357524
30
0
41
1
10
32.6704076787958
20
-1.27721197439158
30
0
41
1
10
32.6677083360877
20
-1.24786069049762
30
0
41
1
10
32.6597031080668
20
-1.15396797124689
30
0
41
1
10
32.6545030393077
20
-1.08364578957679
30
0
41
1
10
32.6466571824926
20
-0.966108910623547
30
0
41
1
10
32.6440698373532
20
-0.925494273225866
30
0
41
1
10
32.638890081767
20
-0.841727957285173
30
0
41
1
10
32.6362944568906
20
-0.798537724766817
30
0
41
1
10
32.6310104726856
20
-0.709564279685424
30
0
41
1
10
32.6283291351002
20
-0.663780912708887
30
0
41
1
10
32.6242827564794
20
-0.593113885280218
30
0
41
1
10
32.6229266594567
20
-0.569172953815155
30
0
41
1
10
32.6202216490363
20
-0.520856846007518
30
0
41
1
10
32.6188774310482
20
-0.496566881808036
30
0
41
1
10
32.6175412660869
20
-0.472147670752264
30
0
0
SPLINE
5
1B6
100
AcDbEntity
8
1
62
256
6
ByLayer
370
18
48
1
60
0
100
AcDbSpline
70
4
71
3
72
22
73
18
40
0
40
0
40
0
40
0
40
0.249999999999999
40
0.249999999999999
40
0.374999999999999
40
0.374999999999999
40
0.437499999999999
40
0.437499999999999
40
0.499999999999999
40
0.499999999999999
40
0.75
40
0.75
40
0.8125
40
0.8125
40
0.875
40
0.875
40
1
40
1
40
1
40
1
41
1
10
32.5765397512
20
-0.431130007963304
30
0
41
1
10
32.5817333870173
20
-0.530322738284582
30
0
41
1
10
32.5870595772063
20
-0.6250496851398
30
0
41
1
10
32.5951416591216
20
-0.760680603895082
30
0
41
1
10
32.5978509789979
20
-0.804806173645375
30
0
41
1
10
32.6019304882437
20
-0.869322906755343
30
0
41
1
10
32.6032964742479
20
-0.890601693438327
30
0
41
1
10
32.6060063646673
20
-0.932170195627066
30
0
41
1
10
32.6073523757926
20
-0.95249500159764
30
0
41
1
10
32.6140408459149
20
-1.05186331401856
30
0
41
1
10
32.6192526155414
20
-1.12420615340582
30
0
41
1
10
32.6257235097794
20
-1.20567301695419
30
0
41
1
10
32.6270157805467
20
-1.22151414905801
30
0
41
1
10
32.6296030919206
20
-1.25227414444174
30
0
41
1
10
32.630898027661
20
-1.26718785474242
30
0
41
1
10
32.6347564708586
20
-1.31003886411446
30
0
41
1
10
32.6373075806325
20
-1.33627057009119
30
0
41
1
10
32.6398854388053
20
-1.36022447247581
30
0
0
SPLINE
5
1B7
100
AcDbEntity
8
1
62
256
6
ByLayer
370
18
48
1
60
0
100
AcDbSpline
70
4
71
3
72
80
73
76
40
0
40
0
40
0
40
0
40
0.0625000000000096
40
0.0625000000000096
40
0.125000000000019
40
0.125000000000019
40
0.187500000000029
40
0.187500000000029
40
0.203125000000028
40
0.203125000000028
40
0.218750000000028
40
0.218750000000028
40
0.250000000000027
40
0.250000000000027
40
0.281250000000026
40
0.281250000000026
40
0.296875000000026
40
0.296875000000026
40
0.312500000000025
40
0.312500000000025
40
0.343750000000024
40
0.343750000000024
40
0.375000000000023
40
0.375000000000023
40
0.406250000000023
40
0.406250000000023
40
0.437500000000022
40
0.437500000000022
40
0.468750000000021
40
0.468750000000021
40
0.484375000000018
40
0.484375000000018
40
0.500000000000015
40
0.500000000000015
40
0.531250000000008
40
0.531250000000008
40
0.546875000000005
40
0.546875000000005
40
0.562500000000002
40
0.562500000000002
40
0.570312500000002
40
0.570312500000002
40
0.578125000000002
40
0.578125000000002
40
0.593750000000004
40
0.593750000000004
40
0.601562500000005
40
0.601562500000005
40
0.609375000000006
40
0.609375000000006
40
0.617187500000007
40
0.617187500000007
40
0.625000000000009
40
0.625000000000009
40
0.64062500000001
40
0.64062500000001
40
0.656250000000011
40
0.656250000000011
40
0.671875000000012
40
0.671875000000012
40
0.687500000000013
40
0.687500000000013
40
0.718750000000012
40
0.718750000000012
40
0.734375000000011
40
0.734375000000011
40
0.75000000000001
40
0.75000000000001
40
0.812500000000008
40
0.812500000000008
40
0.875000000000005
40
0.875000000000005
40
0.937500000000003
40
0.937500000000003
40
1
40
1
40
1
40
1
41
1
10
21.4077164239353
20
0.381353168945253
30
0
41
1
10
21.3542448869166
20
0.424183419942778
30
0
41
1
10
21.2997241617439
20
0.46414340951128
30
0
41
1
10
21.1875821706194
20
0.537604317764135
30
0
41
1
10
21.1299641103545
20
0.571109547156567
30
0
41
1
10
21.0105846137573
20
0.631027973514222
30
0
41
1
10
20.9488261689597
20
0.657445949284408
30
0
41
1
10
20.8682940970699
20
0.685599568620376
30
0
41
1
10
20.8520033820021
20
0.690991105609641
30
0
41
1
10
20.8193217103311
20
0.70119610867809
30
0
41
1
10
20.8029026597505
20
0.70602009041454
30
0
41
1
10
20.7533994851702
20
0.719650103232823
30
0
41
1
10
20.720072419818
20
0.727624010831818
30
0
41
1
10
20.6526739790582
20
0.741198578680383
30
0
41
1
10
20.6186048584646
20
0.74680664881717
30
0
41
1
10
20.5668816925063
20
0.753341054654953
30
0
41
1
10
20.5495366280597
20
0.755203730612777
30
0
41
1
10
20.5146152115877
20
0.758239919664192
30
0
41
1
10
20.4969749133004
20
0.759415942608854
30
0
41
1
10
20.4442236638192
20
0.76174185878412
30
0
41
1
10
20.4093210000823
20
0.761564965897804
30
0
41
1
10
20.3399568919286
20
0.758330983422894
30
0
41
1
10
20.3054885417204
20
0.755316388682786
30
0
41
1
10
20.2368377604944
20
0.74735846886
30
0
41
1
10
20.2026352245882
20
0.742550576210533
30
0
41
1
10
20.1346096952166
20
0.730298048112928
30
0
41
1
10
20.1006475805445
20
0.722860673998213
30
0
41
1
10
20.0344823195351
20
0.705068364492121
30
0
41
1
10
20.0021564539546
20
0.694704354837938
30
0
41
1
10
19.9550277247656
20
0.676361976113924
30
0
41
1
10
19.9395456883894
20
0.669779382703439
30
0
41
1
10
19.9091047389754
20
0.655505571222392
30
0
41
1
10
19.8941084399281
20
0.647788719795614
30
0
41
1
10
19.8507700883929
20
0.623020207102599
30
0
41
1
10
19.8238458953221
20
0.604299682382788
30
0
41
1
10
19.7873226154251
20
0.571607075316365
30
0
41
1
10
19.7757598921035
20
0.559866519102854
30
0
41
1
10
19.7547031088719
20
0.535157388350939
30
0
41
1
10
19.7451620620385
20
0.522124416133266
30
0
41
1
10
19.7321910320832
20
0.501589431770498
30
0
41
1
10
19.7281148791009
20
0.494566445947413
30
0
41
1
10
19.72059163015
20
0.480076318167903
30
0
41
1
10
19.7171662117566
20
0.472640816634225
30
0
41
1
10
19.708199942711
20
0.449988911051264
30
0
41
1
10
19.7039176414975
20
0.434318968501941
30
0
41
1
10
19.7005560849123
20
0.409787479187344
30
0
41
1
10
19.6999583444717
20
0.401485347499573
30
0
41
1
10
19.6997992818203
20
0.384976071221104
30
0
41
1
10
19.7002481065555
20
0.376720193051909
30
0
41
1
10
19.7019659959906
20
0.360192968185203
30
0
41
1
10
19.7032371812244
20
0.351921739909045
30
0
41
1
10
19.7064998677218
20
0.335358707449672
30
0
41
1
10
19.7084897783261
20
0.327089267172766
30
0
41
1
10
19.715288427128
20
0.302624336654645
30
0
41
1
10
19.7209415546046
20
0.286633100469032
30
0
41
1
10
19.7338836828747
20
0.255089179626367
30
0
41
1
10
19.7411785308667
20
0.239538461085118
30
0
41
1
10
19.75705255121
20
0.208760987917316
30
0
41
1
10
19.7656122347103
20
0.19358478770539
30
0
41
1
10
19.7835048135373
20
0.163886651889669
30
0
41
1
10
19.792869790792
20
0.149308607675721
30
0
41
1
10
19.8219471147206
20
0.106201868269267
30
0
41
1
10
19.842623421154
20
0.0782879611719807
30
0
41
1
10
19.8749248891849
20
0.037211376447857
30
0
41
1
10
19.8859113200733
20
0.0236548001753079
30
0
41
1
10
19.9082552472103
20
-0.0032330408110681
30
0
41
1
10
19.9196310380439
20
-0.0165847309221192
30
0
41
1
10
19.9770533878606
20
-0.0825760777176185
30
0
41
1
10
20.0246102273462
20
-0.13294910021429
30
0
41
1
10
20.1212343125985
20
-0.23085112478563
30
0
41
1
10
20.1703772019124
20
-0.278300355012078
30
0
41
1
10
20.2694388534221
20
-0.371146437896982
30
0
41
1
10
20.3193502821002
20
-0.416547730373168
30
0
41
1
10
20.4195943254628
20
-0.505605405723287
30
0
41
1
10
20.4695633489141
20
-0.548928307362843
30
0
41
1
10
20.519306479452
20
-0.590950584693758
30
0
0
SPLINE
5
1B8
100
AcDbEntity
8
1
62
256
6
ByLayer
370
18
48
1
60
0
100
AcDbSpline
70
4
71
3
72
8
73
4
40
0
40
0
40
0
40
0
40
1
40
1
40
1
40
1
41
1
10
28.3449755294954
20
0.544102897549237
30
0
41
1
10
28.3498091354784
20
0.506912311862123
30
0
41
1
10
28.3542023736936
20
0.468454200905228
30
0
41
1
10
28.3583430664638
20
0.429017640029173
30
0
0
SPLINE
5
1B9
100
AcDbEntity
8
1
62
256
6
ByLayer
370
18
48
1
60
0
100
AcDbSpline
70
4
71
3
72
16
73
12
40
0
40
0
40
0
40
0
40
0.25
40
0.25
40
0.375
40
0.375
40
0.500000000000001
40
0.500000000000001
40
0.750000000000001
40
0.750000000000001
40
1
40
1
40
1
40
1
41
1
10
28.3583430664638
20
0.429017640029372
30
0
41
1
10
28.3648190764165
20
0.36733917825751
30
0
41
1
10
28.3712315407711
20
0.304317358792758
30
0
41
1
10
28.3807500222774
20
0.207839656310369
30
0
41
1
10
28.3839076773195
20
0.175355018430935
30
0
41
1
10
28.390209088928
20
0.109732175056024
30
0
41
1
10
28.3933573170045
20
0.0765464488526106
30
0
41
1
10
28.4027940971349
20
-0.0237103268965768
30
0
41
1
10
28.4089586406139
20
-0.0901645973382301
30
0
41
1
10
28.4212926913232
20
-0.222322582535781
30
0
41
1
10
28.4274303138946
20
-0.288027880410937
30
0
41
1
10
28.4335667755078
20
-0.35334506794112
30
0
0
SPLINE
5
1BA
100
AcDbEntity
8
1
62
256
6
ByLayer
370
18
48
1
60
0
100
AcDbSpline
70
4
71
3
72
22
73
18
40
0
40
0
40
0
40
0
40
0.125000000000001
40
0.125000000000001
40
0.187500000000001
40
0.187500000000001
40
0.250000000000001
40
0.250000000000001
40
0.500000000000001
40
0.500000000000001
40
0.625000000000002
40
0.625000000000002
40
0.687500000000001
40
0.687500000000001
40
0.750000000000001
40
0.750000000000001
40
1
40
1
40
1
40
1
41
1
10
28.6883207949492
20
-0.661412559546051
30
0
41
1
10
28.686493849438
20
-0.62127274565313
30
0
41
1
10
28.6846761964201
20
-0.580214503406296
30
0
41
1
10
28.6819333297431
20
-0.517221944388467
30
0
41
1
10
28.6810161823247
20
-0.495989823264438
30
0
41
1
10
28.6791694999517
20
-0.453046646265278
30
0
41
1
10
28.678237647829
20
-0.431294604262973
30
0
41
1
10
28.6735871816004
20
-0.322447437214947
30
0
41
1
10
28.6698722729413
20
-0.234345027826805
30
0
41
1
10
28.6642728767989
20
-0.100697918468143
30
0
41
1
10
28.6624009921898
20
-0.0558982811494388
30
0
41
1
10
28.6595724157347
20
0.0116870570906826
30
0
41
1
10
28.6586235134689
20
0.0343400781363528
30
0
41
1
10
28.6567296169296
20
0.079451269263501
30
0
41
1
10
28.6557855467601
20
0.101887489130718
30
0
41
1
10
28.6510724565297
20
0.213481811981438
30
0
41
1
10
28.6473243735796
20
0.300895066411385
30
0
41
1
10
28.643510329667
20
0.386446761769946
30
0
0
SPLINE
5
1BB
100
AcDbEntity
8
1
62
256
6
ByLayer
370
13
48
1
60
0
100
AcDbSpline
70
4
71
3
72
9
73
5
40
0
40
0
40
0
40
0
40
0.291653589264489
40
1
40
1
40
1
40
1
41
1.04
10
28.8020996297762
20
-0.617845657582149
30
0
41
1.04
10
28.7967178321045
20
-0.544466660850718
30
0
41
1.04
10
28.7782533543721
20
-0.278374794254323
30
0
41
1.04
10
28.7598055986361
20
0.0202761820368927
30
0
41
1.04
10
28.7464168419058
20
0.226803896725186
30
0
0
SPLINE
5
1BC
100
AcDbEntity
8
1
62
256
6
ByLayer
370
13
48
1
60
0
100
AcDbSpline
70
4
71
3
72
9
73
5
40
0
40
0
40
0
40
0
40
0.428231882251657
40
1
40
1
40
1
40
1
41
1
10
28.9345502346122
20
-0.713041678915687
30
0
41
1
10
28.9266290956564
20
-0.610905275692517
30
0
41
1
10
28.9081027517486
20
-0.347682885405476
30
0
41
1
10
28.8895932618811
20
-0.0522555647108334
30
0
41
1
10
28.8788405224968
20
0.115831274195244
30
0
0
SPLINE
5
1BD
100
AcDbEntity
8
1
62
256
6
ByLayer
370
18
48
1
60
0
100
AcDbSpline
70
4
71
3
72
25
73
21
40
0
40
0
40
0
40
0
40
0.0625000000000005
40
0.0625000000000005
40
0.125000000000001
40
0.125000000000001
40
0.250000000000001
40
0.375000000000001
40
0.375000000000001
40
0.437500000000001
40
0.437500000000001
40
0.500000000000001
40
0.500000000000001
40
0.75
40
0.75
40
0.8125
40
0.8125
40
0.875000000000001
40
0.875000000000001
40
1
40
1
40
1
40
1
41
1
10
29.0528885746478
20
0.0220245861701187
30
0
41
1
10
29.0542192326298
20
-0.0037338042243391
30
0
41
1
10
29.0555540595569
20
-0.0295952423017809
30
0
41
1
10
29.0582058249946
20
-0.0809511791618149
30
0
41
1
10
29.0595265620176
20
-0.106519249071624
30
0
41
1
10
29.0634795937139
20
-0.182898835252587
30
0
41
1
10
29.0687251678343
20
-0.283874205758053
30
0
41
1
10
29.0740027596914
20
-0.383135361572641
30
0
41
1
10
29.078014341157
20
-0.456923979950858
30
0
41
1
10
29.0793615757853
20
-0.481410388994419
30
0
41
1
10
29.0820752419386
20
-0.530159047814863
30
0
41
1
10
29.0834337316231
20
-0.55429011478347
30
0
41
1
10
29.0901922417352
20
-0.673195874422674
30
0
41
1
10
29.095503219729
20
-0.763342308117387
30
0
41
1
10
29.1020457096529
20
-0.869890498476536
30
0
41
1
10
29.1033506001836
20
-0.890890484419089
30
0
41
1
10
29.1059587533976
20
-0.932261545040689
30
0
41
1
10
29.1072641868142
20
-0.952665971753589
30
0
41
1
10
29.1111753169785
20
-1.01269203337824
30
0
41
1
10
29.1137500014456
20
-1.05074745638163
30
0
41
1
10
29.1163344292825
20
-1.08690484778026
30
0
0
SPLINE
5
1BE
100
AcDbEntity
8
1
62
256
6
ByLayer
370
18
48
1
60
0
100
AcDbSpline
70
4
71
3
72
21
73
17
40
0
40
0
40
0
40
0
40
0.25
40
0.25
40
0.3125
40
0.3125
40
0.374999999999999
40
0.374999999999999
40
0.499999999999999
40
0.624999999999999
40
0.624999999999999
40
0.687499999999999
40
0.687499999999999
40
0.749999999999999
40
0.749999999999999
40
1
40
1
40
1
40
1
41
1
10
32.0483398824468
20
0.115291950475097
30
0
41
1
10
32.0533454450339
20
0.0133966943242001
30
0
41
1
10
32.058277209548
20
-0.0888138800921467
30
0
41
1
10
32.0649553317569
20
-0.216953917695548
30
0
41
1
10
32.0663073881659
20
-0.242569047359865
30
0
41
1
10
32.0690118377478
20
-0.293264568070185
30
0
41
1
10
32.0703678876862
20
-0.318415641159362
30
0
41
1
10
32.0744403573862
20
-0.393288617932114
30
0
41
1
10
32.0798808096726
20
-0.491574791214589
30
0
41
1
10
32.0852906866201
20
-0.586804505985072
30
0
41
1
10
32.0893339905277
20
-0.657057359660229
30
0
41
1
10
32.0906795955494
20
-0.680279702375998
30
0
41
1
10
32.0933686424676
20
-0.726325206657606
30
0
41
1
10
32.0947019858953
20
-0.748975125008457
30
0
41
1
10
32.1013138732896
20
-0.860221777499447
30
0
41
1
10
32.1064206524342
20
-0.943057638634144
30
0
41
1
10
32.1116330894289
20
-1.01979541439985
30
0
0
SPLINE
5
1BF
100
AcDbEntity
8
1
62
256
6
ByLayer
370
18
48
1
60
0
100
AcDbSpline
70
4
71
3
72
26
73
22
40
0
40
0
40
0
40
0
40
0.0624999999999999
40
0.0624999999999999
40
0.125
40
0.125
40
0.25
40
0.25
40
0.499999999999999
40
0.499999999999999
40
0.562499999999999
40
0.562499999999999
40
0.624999999999999
40
0.624999999999999
40
0.749999999999999
40
0.749999999999999
40
0.874999999999999
40
0.874999999999999
40
0.9375
40
0.9375
40
1
40
1
40
1
40
1
41
1
10
31.095237586115
20
-0.0510208784523059
30
0
41
1
10
31.0938681413567
20
-0.0254403567007273
30
0
41
1
10
31.0925002942966
20
0.0002254434702991
30
0
41
1
10
31.0897696779601
20
0.0517309545830926
30
0
41
1
10
31.0884061312146
20
0.0775863966866552
30
0
41
1
10
31.0843683478727
20
0.154540927715942
30
0
41
1
10
31.081732317601
20
0.205320472845358
30
0
41
1
10
31.0739427283826
20
0.35612667706593
30
0
41
1
10
31.0689196236527
20
0.454636753050437
30
0
41
1
10
31.0624959439048
20
0.575126088855882
30
0
41
1
10
31.06120808282
20
0.598992826900542
30
0
41
1
10
31.0586310533806
20
0.645962329507142
30
0
41
1
10
31.0573393207839
20
0.669113201080563
30
0
41
1
10
31.0534365610233
20
0.737578519916894
30
0
41
1
10
31.0507851384347
20
0.781907489110495
30
0
41
1
10
31.0454181868448
20
0.867959369483117
30
0
41
1
10
31.0427099433663
20
0.909682690009646
30
0
41
1
10
31.0386378968622
20
0.970272195404135
30
0
41
1
10
31.0372770528139
20
0.99015702507748
30
0
41
1
10
31.0345577960085
20
1.02915378873277
30
0
41
1
10
31.0332078044859
20
1.04814566749982
30
0
41
1
10
31.0318658368411
20
1.06664156716929
30
0
0
SPLINE
5
1C0
100
AcDbEntity
8
1
62
256
6
ByLayer
370
18
48
1
60
0
100
AcDbSpline
70
4
71
3
72
22
73
18
40
0
40
0
40
0
40
0
40
0.25
40
0.25
40
0.3125
40
0.3125
40
0.375
40
0.375
40
0.500000000000001
40
0.500000000000001
40
0.750000000000001
40
0.750000000000001
40
0.812500000000001
40
0.812500000000001
40
0.875000000000001
40
0.875000000000001
40
1
40
1
40
1
40
1
41
1
10
31.6239836051401
20
-0.588902248274195
30
0
41
1
10
31.6188013932133
20
-0.493885971966847
30
0
41
1
10
31.613749441319
20
-0.396136642802276
30
0
41
1
10
31.607222259885
20
-0.270601109182479
30
0
41
1
10
31.6059057305261
20
-0.24532502866191
30
0
41
1
10
31.6032394060628
20
-0.194430379046452
30
0
41
1
10
31.6018870929183
20
-0.168764652671399
30
0
41
1
10
31.5977799016301
20
-0.0915612335706157
30
0
41
1
10
31.5949872778905
20
-0.0402769677540675
30
0
41
1
10
31.586630019944
20
0.113049913997969
30
0
41
1
10
31.5811315524875
20
0.214574202242659
30
0
41
1
10
31.574515970629
20
0.34060117436772
30
0
41
1
10
31.5731994426769
20
0.365832593421601
30
0
41
1
10
31.570603889294
20
0.415748555060986
30
0
41
1
10
31.5693240216284
20
0.440448028396816
30
0
41
1
10
31.5655204129145
20
0.513784535285623
30
0
41
1
10
31.5630345693313
20
0.561661573934458
30
0
41
1
10
31.5605291770717
20
0.608536553642097
30
0
0
SPLINE
5
1C1
100
AcDbEntity
8
1
62
256
6
ByLayer
370
18
48
1
60
0
100
AcDbSpline
70
4
71
3
72
24
73
20
40
0
40
0
40
0
40
0
40
0.125
40
0.125
40
0.25
40
0.25
40
0.499999999999999
40
0.499999999999999
40
0.5625
40
0.5625
40
0.625
40
0.625
40
0.75
40
0.75
40
0.875
40
0.875
40
0.9375
40
0.9375
40
1
40
1
40
1
40
1
41
1
10
31.5193523059738
20
0.647801957235004
30
0
41
1
10
31.5220783620554
20
0.601444435249761
30
0
41
1
10
31.5248421762255
20
0.553843381292467
30
0
41
1
10
31.5303974421114
20
0.456169212273608
30
0
41
1
10
31.5331430418771
20
0.406895023938688
30
0
41
1
10
31.5412576310278
20
0.257805171271485
30
0
41
1
10
31.5464878896661
20
0.156733521166245
30
0
41
1
10
31.552934379086
20
0.0282620153402888
30
0
41
1
10
31.5542238429291
20
0.0023911484906591
30
0
41
1
10
31.5567876026861
20
-0.0492120379419418
30
0
41
1
10
31.5580598595615
20
-0.0749021029719188
30
0
41
1
10
31.5618652779399
20
-0.151643393489536
30
0
41
1
10
31.5643860899876
20
-0.202366556784682
30
0
41
1
10
31.5695112586689
20
-0.302946391196258
30
0
41
1
10
31.5721275250972
20
-0.352802470735128
30
0
41
1
10
31.576129336802
20
-0.426927862105657
30
0
41
1
10
31.5774754350724
20
-0.451526375144311
30
0
41
1
10
31.5801893519219
20
-0.500499749375592
30
0
41
1
10
31.5815603833197
20
-0.524930213566961
30
0
41
1
10
31.5829268146537
20
-0.54899443974
30
0
0
SPLINE
5
1C2
100
AcDbEntity
8
1
62
256
6
ByLayer
370
18
48
1
60
0
100
AcDbSpline
70
4
71
3
72
22
73
18
40
0
40
0
40
0
40
0
40
0.124999999999999
40
0.124999999999999
40
0.187499999999999
40
0.187499999999999
40
0.249999999999999
40
0.249999999999999
40
0.499999999999998
40
0.499999999999998
40
0.624999999999998
40
0.624999999999998
40
0.687499999999998
40
0.687499999999998
40
0.749999999999998
40
0.749999999999998
40
1
40
1
40
1
40
1
41
1
10
32.1523531327825
20
-1.05133982881546
30
0
41
1
10
32.1497295027742
20
-1.01404217489352
30
0
41
1
10
32.1471283816033
20
-0.975034585657227
30
0
41
1
10
32.1432282404686
20
-0.913928377049331
30
0
41
1
10
32.1419283232916
20
-0.893126387807968
30
0
41
1
10
32.1393218493124
20
-0.850641055235656
30
0
41
1
10
32.1380118296879
20
-0.828898378092987
30
0
41
1
10
32.1314903971469
20
-0.719033152799312
30
0
41
1
10
32.1263346792034
20
-0.627059954805105
30
0
41
1
10
32.1183177755854
20
-0.483170614584111
30
0
41
1
10
32.1155861036758
20
-0.434212543047664
30
0
41
1
10
32.111431383015
20
-0.359235269890576
30
0
41
1
10
32.1100405210229
20
-0.333981208044918
30
0
41
1
10
32.1072922154011
20
-0.283528412585156
30
0
41
1
10
32.1059307719806
20
-0.25825838033748
30
0
41
1
10
32.099201074393
20
-0.13169285376361
30
0
41
1
10
32.0941349811401
20
-0.0297538645423003
30
0
41
1
10
32.0890107766514
20
0.0728581957142183
30
0
0
SPLINE
5
1C3
100
AcDbEntity
8
1
62
256
6
ByLayer
370
18
48
1
60
0
100
AcDbSpline
70
4
71
3
72
26
73
22
40
0
40
0
40
0
40
0
40
0.124999999999999
40
0.124999999999999
40
0.156249999999999
40
0.156249999999999
40
0.187499999999999
40
0.187499999999999
40
0.249999999999998
40
0.249999999999998
40
0.499999999999999
40
0.499999999999999
40
0.749999999999999
40
0.749999999999999
40
0.874999999999999
40
0.874999999999999
40
0.9375
40
0.9375
40
0.96875
40
0.96875
40
1
40
1
40
1
40
1
41
1
10
35.2
20
0.748478058828795
30
0
41
1
10
35.2
20
0.713719960128969
30
0
41
1
10
35.2
20
0.680643552987618
30
0
41
1
10
35.2
20
0.641386298088293
30
0
41
1
10
35.2
20
0.633637767130779
30
0
41
1
10
35.2
20
0.618371789847743
30
0
41
1
10
35.2
20
0.61089246423515
30
0
41
1
10
35.2
20
0.588737441384239
30
0
41
1
10
35.2
20
0.574159917088366
30
0
41
1
10
35.2
20
0.501731990317779
30
0
41
1
10
35.2
20
0.44550157387107
30
0
41
1
10
35.2
20
0.336683032595289
30
0
41
1
10
35.2
20
0.284050146815872
30
0
41
1
10
35.2
20
0.207760857026216
30
0
41
1
10
35.2000000000001
20
0.182777660147309
30
0
41
1
10
35.2
20
0.145985973283814
30
0
41
1
10
35.2
20
0.133841156978548
30
0
41
1
10
35.2
20
0.115755728726157
30
0
41
1
10
35.2
20
0.109791526516318
30
0
41
1
10
35.2
20
0.0982322829065367
30
0
41
1
10
35.2000000000001
20
0.0926135822775791
30
0
41
1
10
35.2000000000001
20
0.0871600876867831
30
0
0
SPLINE
5
1C4
100
AcDbEntity
8
1
62
256
6
ByLayer
370
18
48
1
60
0
100
AcDbSpline
70
4
71
3
72
20
73
16
40
0
40
0
40
0
40
0
40
0.0624999999999964
40
0.0624999999999964
40
0.124999999999993
40
0.124999999999993
40
0.249999999999986
40
0.249999999999986
40
0.499999999999991
40
0.499999999999991
40
0.749999999999996
40
0.749999999999996
40
0.874999999999998
40
0.874999999999998
40
1
40
1
40
1
40
1
41
1
10
34.7332200395081
20
1.21367356692011
30
0
41
1
10
34.7436083046025
20
1.2044036746581
30
0
41
1
10
34.7540597025515
20
1.19499108747897
30
0
41
1
10
34.7749427963755
20
1.17610394360071
30
0
41
1
10
34.7853341957083
20
1.16668683280579
30
0
41
1
10
34.8163675071172
20
1.13847655319017
30
0
41
1
10
34.8368887349363
20
1.11969673910213
30
0
41
1
10
34.8979178116128
20
1.06329763132479
30
0
41
1
10
34.9379203716056
20
1.02558837217686
30
0
41
1
10
35.0163506422514
20
0.949112969882464
30
0
41
1
10
35.0547904460256
20
0.91035154730281
30
0
41
1
10
35.1107935348808
20
0.850831880669915
30
0
41
1
10
35.1291832165048
20
0.830760561764549
30
0
41
1
10
35.1652329648256
20
0.790047187801463
30
0
41
1
10
35.1829081997055
20
0.769388735139358
30
0
41
1
10
35.1999999999948
20
0.748478058826805
30
0
0
SPLINE
5
1C5
100
AcDbEntity
8
1
62
256
6
ByLayer
370
18
48
1
60
0
100
AcDbSpline
70
4
71
3
72
22
73
18
40
0
40
0
40
0
40
0
40
0.125
40
0.125
40
0.250000000000001
40
0.250000000000001
40
0.375000000000001
40
0.375000000000001
40
0.500000000000001
40
0.500000000000001
40
0.625000000000001
40
0.625000000000001
40
0.750000000000001
40
0.750000000000001
40
0.875
40
0.875
40
1
40
1
40
1
40
1
41
1
10
34.7332200395081
20
1.21367356692005
30
0
41
1
10
34.7291693209713
20
1.20960689225234
30
0
41
1
10
34.7248018330767
20
1.2059367711885
30
0
41
1
10
34.7157605814938
20
1.19952205232803
30
0
41
1
10
34.7110540693399
20
1.19674338119091
30
0
41
1
10
34.7012892775532
20
1.1920184472763
30
0
41
1
10
34.6961902832613
20
1.19006171269049
30
0
41
1
10
34.685832494346
20
1.18711365582732
30
0
41
1
10
34.6806004447128
20
1.18612083088408
30
0
41
1
10
34.6700405156416
20
1.18516155004241
30
0
41
1
10
34.6647126909983
20
1.18519208972188
30
0
41
1
10
34.6539606708208
20
1.18649833017261
30
0
41
1
10
34.6485952539633
20
1.18777849358833
30
0
41
1
10
34.6382676326818
20
1.19179081753694
30
0
41
1
10
34.6331965033374
20
1.19457889582168
30
0
41
1
10
34.6239881879799
20
1.20179901187365
30
0
41
1
10
34.6197575207478
20
1.2063006551551
30
0
41
1
10
34.616279635789
20
1.21168628513951
30
0
0
SPLINE
5
1C6
100
AcDbEntity
8
1
62
256
6
ByLayer
370
18
48
1
60
0
100
AcDbSpline
70
4
71
3
72
8
73
4
40
0
40
0
40
0
40
0
40
1
40
1
40
1
40
1
41
1
10
34.6162796357859
20
1.21168628514533
30
0
41
1
10
34.6088979347326
20
1.22311711480444
30
0
41
1
10
34.601528813126
20
1.2344614603787
30
0
41
1
10
34.5941711505873
20
1.24571979461473
30
0
0
SPLINE
5
1C7
100
AcDbEntity
8
1
62
256
6
ByLayer
370
18
48
1
60
0
100
AcDbSpline
70
4
71
3
72
8
73
4
40
0
40
0
40
0
40
0
40
1
40
1
40
1
40
1
41
1
10
34.5941711505873
20
1.24571979461473
30
0
41
1
10
34.491635493497
20
1.2492104419313
30
0
41
1
10
34.3904252128822
20
1.24286938336863
30
0
41
1
10
34.2890866313132
20
1.22628936230927
30
0
0
SPLINE
5
1C8
100
AcDbEntity
8
1
62
256
6
ByLayer
370
18
48
1
60
0
100
AcDbSpline
70
4
71
3
72
10
73
6
40
0
40
0
40
0
40
0
40
0.5
40
0.5
40
1
40
1
40
1
40
1
41
1
10
30.3878066414295
20
-1.24927804399363
30
0
41
1
10
30.3585033323512
20
-1.29895592905598
30
0
41
1
10
30.3293767018871
20
-1.34809907527901
30
0
41
1
10
30.2715734943712
20
-1.44486613084709
30
0
41
1
10
30.2429438388061
20
-1.49240898249857
30
0
41
1
10
30.2145489162527
20
-1.5390197289729
30
0
0
SPLINE
5
1C9
100
AcDbEntity
8
1
62
256
6
ByLayer
370
18
48
1
60
0
100
AcDbSpline
70
4
71
3
72
8
73
4
40
0
40
0
40
0
40
0
40
1
40
1
40
1
40
1
41
1
10
30.1735171343584
20
-1.53664096313045
30
0
41
1
10
30.1871768320871
20
-1.53763122660118
30
0
41
1
10
30.200853514427
20
-1.53842482799354
30
0
41
1
10
30.2145489162527
20
-1.53901972897276
30
0
0
SPLINE
5
1CA
100
AcDbEntity
8
1
62
256
6
ByLayer
370
18
48
1
60
0
100
AcDbSpline
70
4
71
3
72
8
73
4
40
0
40
0
40
0
40
0
40
1
40
1
40
1
40
1
41
1
10
29.6447459086508
20
-1.40104806579666
30
0
41
1
10
29.658387357574
20
-1.40697877456509
30
0
41
1
10
29.6720109539261
20
-1.41272224045014
30
0
41
1
10
29.6856197347341
20
-1.41827849999129
30
0
0
SPLINE
5
1CB
100
AcDbEntity
8
1
62
256
6
ByLayer
370
18
48
1
60
0
100
AcDbSpline
70
4
71
3
72
10
73
6
40
0
40
0
40
0
40
0
40
0.5
40
0.5
40
1
40
1
40
1
40
1
41
1
10
29.1163344292825
20
-1.08690484778026
30
0
41
1
10
29.0865378690251
20
-1.02339128522675
30
0
41
1
10
29.056531860048
20
-0.960354407062226
30
0
41
1
10
28.9958859609461
20
-0.835413486300894
30
0
41
1
10
28.9653766118509
20
-0.77377235734906
30
0
41
1
10
28.9345502346122
20
-0.713041678915886
30
0
0
SPLINE
5
1CC
100
AcDbEntity
8
1
62
256
6
ByLayer
370
18
48
1
60
0
100
AcDbSpline
70
4
71
3
72
26
73
22
40
0
40
0
40
0
40
0
40
0.125
40
0.125
40
0.249999999999999
40
0.249999999999999
40
0.374999999999999
40
0.374999999999999
40
0.499999999999998
40
0.499999999999998
40
0.624999999999998
40
0.624999999999998
40
0.749999999999997
40
0.749999999999997
40
0.812499999999998
40
0.812499999999998
40
0.874999999999998
40
0.874999999999998
40
0.937499999999999
40
0.937499999999999
40
1
40
1
40
1
40
1
41
1
10
28.9345502346105
20
-0.713041678914379
30
0
41
1
10
28.9309710129776
20
-0.705990297030752
30
0
41
1
10
28.9268215668965
20
-0.699193726053892
30
0
41
1
10
28.9176401607759
20
-0.685998871807328
30
0
41
1
10
28.912560960332
20
-0.67956332517798
30
0
41
1
10
28.9019455939561
20
-0.667472674133734
30
0
41
1
10
28.8963784345858
20
-0.661765817547831
30
0
41
1
10
28.8847589889442
20
-0.650991860674822
30
0
41
1
10
28.8786501553004
20
-0.645888047748855
30
0
41
1
10
28.8663509793699
20
-0.636696348143431
30
0
41
1
10
28.8601315807439
20
-0.632570740877043
30
0
41
1
10
28.8475637087534
20
-0.625363259003279
30
0
41
1
10
28.8411304954595
20
-0.622249452372188
30
0
41
1
10
28.8318004696009
20
-0.618778459196108
30
0
41
1
10
28.828739284095
20
-0.61781656681444
30
0
41
1
10
28.8227331024143
20
-0.616341207183638
30
0
41
1
10
28.8197671671766
20
-0.615827512814406
30
0
41
1
10
28.8141502016594
20
-0.61536083432739
30
0
41
1
10
28.811484748553
20
-0.615400389850493
30
0
41
1
10
28.8064884568806
20
-0.616116933518612
30
0
41
1
10
28.8041557393925
20
-0.616801778417624
30
0
41
1
10
28.802099629779
20
-0.617845657578329
30
0
0
SPLINE
5
1CD
100
AcDbEntity
8
1
62
256
6
ByLayer
370
18
48
1
60
0
100
AcDbSpline
70
4
71
3
72
8
73
4
40
0
40
0
40
0
40
0
40
1
40
1
40
1
40
1
41
1
10
28.8020996297761
20
-0.617845657582762
30
0
41
1
10
28.7638298690935
20
-0.637275071957333
30
0
41
1
10
28.7258463452071
20
-0.651765165218848
30
0
41
1
10
28.6883207949492
20
-0.661412559546022
30
0
0
SPLINE
5
1CE
100
AcDbEntity
8
1
62
256
6
ByLayer
370
18
48
1
60
0
100
AcDbSpline
70
4
71
3
72
8
73
4
40
0
40
0
40
0
40
0
40
1
40
1
40
1
40
1
41
1
10
28.6883207949492
20
-0.661412559546022
30
0
41
1
10
28.6050564613739
20
-0.556697669865173
30
0
41
1
10
28.5205923286749
20
-0.453632640864157
30
0
41
1
10
28.4335667755078
20
-0.35334506794112
30
0
0
SPLINE
5
1CF
100
AcDbEntity
8
1
62
256
6
ByLayer
370
18
48
1
60
0
100
AcDbSpline
70
4
71
3
72
8
73
4
40
0
40
0
40
0
40
0
40
1
40
1
40
1
40
1
41
1
10
28.4335667755078
20
-0.35334506794112
30
0
41
1
10
28.4243969653653
20
-0.337824960817017
30
0
41
1
10
28.4152026943415
20
-0.322481452463961
30
0
41
1
10
28.4059801049923
20
-0.307318829842245
30
0
0
SPLINE
5
1D0
100
AcDbEntity
8
1
62
256
6
ByLayer
370
18
48
1
60
0
100
AcDbSpline
70
4
71
3
72
18
73
14
40
0
40
0
40
0
40
0
40
0.249999999999999
40
0.249999999999999
40
0.499999999999998
40
0.499999999999998
40
0.624999999999998
40
0.624999999999998
40
0.749999999999999
40
0.749999999999999
40
0.874999999999999
40
0.874999999999999
40
1
40
1
40
1
40
1
41
1
10
28.4059801049923
20
-0.307318829842245
30
0
41
1
10
28.4006326529152
20
-0.298527221026688
30
0
41
1
10
28.3940396861847
20
-0.289679947621579
30
0
41
1
10
28.3790232239026
20
-0.271931176771261
30
0
41
1
10
28.3708763885558
20
-0.263374337313991
30
0
41
1
10
28.3578715427292
20
-0.250962232977543
30
0
41
1
10
28.3533696983717
20
-0.246868283841536
30
0
41
1
10
28.3442417554874
20
-0.238957702880469
30
0
41
1
10
28.3396372446628
20
-0.235156725194571
30
0
41
1
10
28.3303547248066
20
-0.227864671473753
30
0
41
1
10
28.3256767578309
20
-0.224373193211164
30
0
41
1
10
28.3162488266273
20
-0.217733052480298
30
0
41
1
10
28.3114604107524
20
-0.214562514286627
30
0
41
1
10
28.3068106178735
20
-0.211711057593561
30
0
0
SPLINE
5
1D1
100
AcDbEntity
8
1
62
256
6
ByLayer
370
18
48
1
60
0
100
AcDbSpline
70
4
71
3
72
8
73
4
40
0
40
0
40
0
40
0
40
1
40
1
40
1
40
1
41
1
10
28.3068106178734
20
-0.211711057593789
30
0
41
1
10
28.3012765466915
20
-0.205734332636865
30
0
41
1
10
28.2957356909817
20
-0.199779088812107
30
0
41
1
10
28.2901876069907
20
-0.193845740170303
30
0
0
SPLINE
5
1D2
100
AcDbEntity
8
1
62
256
6
ByLayer
370
18
48
1
60
0
100
AcDbSpline
70
4
71
3
72
12
73
8
40
0
40
0
40
0
40
0
40
0.25
40
0.25
40
0.5
40
0.5
40
1
40
1
40
1
40
1
41
1
10
28.2901876069907
20
-0.193845740170275
30
0
41
1
10
28.2714386918178
20
-0.173794881070449
30
0
41
1
10
28.2521298731557
20
-0.154186945049673
30
0
41
1
10
28.2124285204496
20
-0.115819551087043
30
0
41
1
10
28.1920058617642
20
-0.0970970188973297
30
0
41
1
10
28.129180233452
20
-0.0420705850846161
30
0
41
1
10
28.0852888620673
20
-0.0068234024674894
30
0
41
1
10
28.0401876069951
20
0.0281082286119556
30
0
0
SPLINE
5
1D3
100
AcDbEntity
8
1
62
256
6
ByLayer
370
18
48
1
60
0
100
AcDbSpline
70
4
71
3
72
49
73
45
40
0
40
0
40
0
40
0
40
0.123103452042405
40
0.123103452042405
40
0.184655178063607
40
0.184655178063607
40
0.215431041074208
40
0.215431041074208
40
0.230818972579509
40
0.230818972579509
40
0.24620690408481
40
0.24620690408481
40
0.307758630106012
40
0.307758630106012
40
0.369310356127215
40
0.369310356127215
40
0.430862082148417
40
0.430862082148417
40
0.461637945159016
40
0.477025876664316
40
0.477025876664316
40
0.492413808169615
40
0.492413808169615
40
0.553965534190822
40
0.553965534190822
40
0.615517260212028
40
0.615517260212028
40
0.677068986233234
40
0.677068986233234
40
0.707844849243839
40
0.707844849243839
40
0.738620712254444
40
0.738620712254444
40
0.800172438275654
40
0.800172438275654
40
0.861724164296864
40
0.861724164296864
40
0.923275890318074
40
0.923275890318074
40
0.954051753328679
40
0.954051753328679
40
0.984827616339284
40
0.984827616339284
40
1
40
1
40
1
40
1
41
1
10
28.0401876069907
20
0.0281082286143715
30
0
41
1
10
27.9005814905291
20
0.13623536052873
30
0
41
1
10
27.7633663022974
20
0.242874706963079
30
0
41
1
10
27.5571176299218
20
0.395647586032993
30
0
41
1
10
27.4882535989757
20
0.445325969091272
30
0
41
1
10
27.3846621008503
20
0.517809056942781
30
0
41
1
10
27.3500784308221
20
0.541625369071085
30
0
41
1
10
27.298070554518
20
0.576763356121972
30
0
41
1
10
27.2807121454907
20
0.588377809456688
30
0
41
1
10
27.2459405975866
20
0.611397437215288
30
0
41
1
10
27.2285061474889
20
0.622816311625911
30
0
41
1
10
27.1414843275283
20
0.679156801239543
30
0
41
1
10
27.0723949261138
20
0.721812567312583
30
0
41
1
10
26.9343205342335
20
0.801526357189573
30
0
41
1
10
26.8655356010368
20
0.838791711798081
30
0
41
1
10
26.7280457718957
20
0.907759921494346
30
0
41
1
10
26.659335302897
20
0.939452476646125
30
0
41
1
10
26.5558121398748
20
0.982339772444845
30
0
41
1
10
26.5039338596167
20
1.00261918676063
30
0
41
1
10
26.4517763249792
20
1.02106442039454
30
0
41
1
10
26.4169286286319
20
1.03294297159701
30
0
41
1
10
26.3994588031103
20
1.0386747075963
30
0
41
1
10
26.3123593843297
20
1.06616335592244
30
0
41
1
10
26.2432214945252
20
1.08456401135138
30
0
41
1
10
26.1054528214573
20
1.11407541309833
30
0
41
1
10
26.0368384901405
20
1.1251844019861
30
0
41
1
10
25.8993346753029
20
1.13995380930211
30
0
41
1
10
25.8304293299379
20
1.14363050551907
30
0
41
1
10
25.7267050085783
20
1.14350774933453
30
0
41
1
10
25.6920727044257
20
1.14252388799767
30
0
41
1
10
25.6226106134677
20
1.13863595961416
30
0
41
1
10
25.587704827762
20
1.13572057827602
30
0
41
1
10
25.4834683573171
20
1.12416214514909
30
0
41
1
10
25.4144166428827
20
1.11271723609383
30
0
41
1
10
25.2765643957833
20
1.08275921511901
30
0
41
1
10
25.2077923424386
20
1.06424530839587
30
0
41
1
10
25.0703040609336
20
1.02026917545709
30
0
41
1
10
25.0015370467468
20
0.994823788236147
30
0
41
1
10
24.8978764520425
20
0.951669682016558
30
0
41
1
10
24.8632388439415
20
0.936452817234738
30
0
41
1
10
24.7936760093299
20
0.904423622879449
30
0
41
1
10
24.7587058795018
20
0.887596101771635
30
0
41
1
10
24.7068027324068
20
0.861502599656092
30
0
41
1
10
24.6896930344612
20
0.852721199149215
30
0
41
1
10
24.6726083540128
20
0.843779002313539
30
0
0
SPLINE
5
1D4
100
AcDbEntity
8
1
62
256
6
ByLayer
370
18
48
1
60
0
100
AcDbSpline
70
4
71
3
72
80
73
76
40
0
40
0
40
0
40
0
40
0.0242615636734579
40
0.0242615636734579
40
0.0506328727633643
40
0.0506328727633643
40
0.0770041818532707
40
0.0770041818532707
40
0.103375490943177
40
0.103375490943177
40
0.129746800033084
40
0.129746800033084
40
0.15611810912299
40
0.15611810912299
40
0.182489418212896
40
0.182489418212896
40
0.208860727302803
40
0.208860727302803
40
0.235232036392709
40
0.235232036392709
40
0.261603345482616
40
0.261603345482616
40
0.287974654572522
40
0.287974654572522
40
0.314345963662429
40
0.314345963662429
40
0.367088581842241
40
0.367088581842241
40
0.380274236387194
40
0.380274236387194
40
0.393459890932146
40
0.393459890932146
40
0.419831200022051
40
0.419831200022051
40
0.472573818201859
40
0.472573818201859
40
0.498945127291762
40
0.498945127291762
40
0.525316436381666
40
0.525316436381666
40
0.55168774547157
40
0.55168774547157
40
0.56487340001652
40
0.56487340001652
40
0.57805905456147
40
0.57805905456147
40
0.63080167274128
40
0.63080167274128
40
0.657172981831187
40
0.657172981831187
40
0.683544290921093
40
0.683544290921093
40
0.736286909100909
40
0.736286909100909
40
0.749472563645863
40
0.749472563645863
40
0.762658218190817
40
0.762658218190817
40
0.789029527280725
40
0.789029527280725
40
0.815400836370633
40
0.815400836370633
40
0.841772145460541
40
0.841772145460541
40
0.868143454550449
40
0.868143454550449
40
0.894514763640357
40
0.894514763640357
40
0.920886072730265
40
0.920886072730265
40
0.93407172727522
40
0.93407172727522
40
0.947257381820175
40
0.947257381820175
40
1
40
1
40
1
40
1
41
1
10
23.5821952828973
20
1.14354992288426
30
0
41
1
10
23.6182831840653
20
1.14354574479267
30
0
41
1
10
23.6544467522538
20
1.14250545327502
30
0
41
1
10
23.7302020551432
20
1.13814022825642
30
0
41
1
10
23.7695463781299
20
1.13464744264593
30
0
41
1
10
23.8480999248406
20
1.12531641857296
30
0
41
1
10
23.8873033053395
20
1.11947832953842
30
0
41
1
10
23.9655596133913
20
1.10549618508316
30
0
41
1
10
24.0045943842418
20
1.09734458745203
30
0
41
1
10
24.0825901345963
20
1.07876219862041
30
0
41
1
10
24.1215949508738
20
1.06835242317141
30
0
41
1
10
24.1995244607966
20
1.0452412544966
30
0
41
1
10
24.2384312085852
20
1.03252399130878
30
0
41
1
10
24.3164603986899
20
1.00491738669325
30
0
41
1
10
24.355614350673
20
0.990051664309505
30
0
41
1
10
24.4342418712506
20
0.958221326173685
30
0
41
1
10
24.4737509842991
20
0.941227569804454
30
0
41
1
10
24.5528951287533
20
0.905197720402043
30
0
41
1
10
24.5923072924697
20
0.886268968958461
30
0
41
1
10
24.6708183926331
20
0.846611480155218
30
0
41
1
10
24.7098973689177
20
0.825863953073053
30
0
41
1
10
24.7878317180275
20
0.782646129991946
30
0
41
1
10
24.8266909267797
20
0.760176070268329
30
0
41
1
10
24.9046355739294
20
0.713968011051691
30
0
41
1
10
24.9436800186226
20
0.690194906594257
30
0
41
1
10
25.0608646948013
20
0.616719362613594
30
0
41
1
10
25.1391347679032
20
0.564948987143907
30
0
41
1
10
25.2373088583901
20
0.496798290360999
30
0
41
1
10
25.2569560364345
20
0.482989888322976
30
0
41
1
10
25.2963111403026
20
0.455053824244374
30
0
41
1
10
25.3160448635315
20
0.440907503256483
30
0
41
1
10
25.3752017230994
20
0.39821076072522
30
0
41
1
10
25.4145349226112
20
0.369467188658661
30
0
41
1
10
25.5322594517927
20
0.282461407026148
30
0
41
1
10
25.6104198577286
20
0.223481587948669
30
0
41
1
10
25.7274431854055
20
0.133907285465369
30
0
41
1
10
25.7664001349494
20
0.103845836112555
30
0
41
1
10
25.8442261484409
20
0.0433299823234279
30
0
41
1
10
25.8831220647907
20
0.0129099834629187
30
0
41
1
10
25.9612304893836
20
-0.0477947386359574
30
0
41
1
10
26.0004263280842
20
-0.0781008169084032
30
0
41
1
10
26.0594637398618
20
-0.123449434503982
30
0
41
1
10
26.0791825455236
20
-0.138548493751102
30
0
41
1
10
26.1186976977693
20
-0.168715237336244
30
0
41
1
10
26.1385212355133
20
-0.183803506135945
30
0
41
1
10
26.237409858556
20
-0.258875759093712
30
0
41
1
10
26.3157654902558
20
-0.317801780651251
30
0
41
1
10
26.4326200383292
20
-0.40393899524355
30
0
41
1
10
26.4715236136435
20
-0.432193010136871
30
0
41
1
10
26.5494866083109
20
-0.487496821931245
30
0
41
1
10
26.5885049447837
20
-0.514597400408576
30
0
41
1
10
26.7057219670634
20
-0.594197061344175
30
0
41
1
10
26.7841120350932
20
-0.644972831543953
30
0
41
1
10
26.8823415837849
20
-0.705559772633706
30
0
41
1
10
26.9020010557181
20
-0.717530478231339
30
0
41
1
10
26.9413683760692
20
-0.741151172804507
30
0
41
1
10
26.961101876808
20
-0.752815764779854
30
0
41
1
10
27.0201242193284
20
-0.78712122457074
30
0
41
1
10
27.059289298318
20
-0.809096723283204
30
0
41
1
10
27.1377009106266
20
-0.850902553417313
30
0
41
1
10
27.1768931932617
20
-0.870791256827403
30
0
41
1
10
27.2551013872959
20
-0.908711202388275
30
0
41
1
10
27.2941351895213
20
-0.926724145236193
30
0
41
1
10
27.3721489162992
20
-0.960791840919569
30
0
41
1
10
27.4111342334741
20
-0.976843572688182
30
0
41
1
10
27.4890825957153
20
-1.00695111213688
30
0
41
1
10
27.5279940894317
20
-1.02103562624529
30
0
41
1
10
27.6060503169133
20
-1.04701492784378
30
0
41
1
10
27.6452450959447
20
-1.05888676323724
30
0
41
1
10
27.7042871311381
20
-1.0750190108528
30
0
41
1
10
27.7240101299146
20
-1.08011654520877
30
0
41
1
10
27.7635417098754
20
-1.0897480690891
30
0
41
1
10
27.7833635935934
20
-1.09428453023347
30
0
41
1
10
27.8823406751524
20
-1.11547596795668
30
0
41
1
10
27.9612507363973
20
-1.12775129478985
30
0
41
1
10
28.0401876069905
20
-1.13517342444274
30
0
0
SPLINE
5
1D5
100
AcDbEntity
8
1
62
256
6
ByLayer
370
18
48
1
60
0
100
AcDbSpline
70
4
71
3
72
12
73
8
40
0
40
0
40
0
40
0
40
0.499999999999975
40
0.499999999999975
40
0.749999999999987
40
0.749999999999987
40
1
40
1
40
1
40
1
41
1
10
28.0401876069907
20
-1.13517342444308
30
0
41
1
10
28.0827993898486
20
-1.13918004612364
30
0
41
1
10
28.1251484387462
20
-1.14700474805474
30
0
41
1
10
28.187800808803
20
-1.16513379344085
30
0
41
1
10
28.2085348605874
20
-1.17225162043027
30
0
41
1
10
28.2496541159676
20
-1.18896015634519
30
0
41
1
10
28.270073997901
20
-1.19857114756496
30
0
41
1
10
28.2901876069907
20
-1.20963531858007
30
0
0
SPLINE
5
1D6
100
AcDbEntity
8
1
62
256
6
ByLayer
370
18
48
1
60
0
100
AcDbSpline
70
4
71
3
72
8
73
4
40
0
40
0
40
0
40
0
40
1
40
1
40
1
40
1
41
1
10
32.9701165021138
20
1.53979966336303
30
0
41
1
10
32.9564599252295
20
1.54018128421964
30
0
41
1
10
32.9428146508406
20
1.54036296974539
30
0
41
1
10
32.9291792369278
20
1.5403466678581
30
0
0
SPLINE
5
1D7
100
AcDbEntity
8
1
62
256
6
ByLayer
370
18
48
1
60
0
100
AcDbSpline
70
4
71
3
72
12
73
8
40
0
40
0
40
0
40
0
40
0.5
40
0.5
40
0.75
40
0.75
40
1
40
1
40
1
40
1
41
1
10
34.370280866642
20
0.69722951452934
30
0
41
1
10
34.4317650774082
20
0.643013659106657
30
0
41
1
10
34.4934221434662
20
0.587993624140665
30
0
41
1
10
34.5863912183995
20
0.504545592458072
30
0
41
1
10
34.6174511587815
20
0.476566162966208
30
0
41
1
10
34.6797670477774
20
0.420335537858108
30
0
41
1
10
34.7110589582004
20
0.392118197283253
30
0
41
1
10
34.7425790625882
20
0.363893382307737
30
0
0
SPLINE
5
1D8
100
AcDbEntity
8
1
62
256
6
ByLayer
370
18
48
1
60
0
100
AcDbSpline
70
4
71
3
72
26
73
22
40
0
40
0
40
0
40
0
40
0.125000000000012
40
0.125000000000012
40
0.250000000000024
40
0.250000000000024
40
0.375000000000037
40
0.375000000000037
40
0.437500000000032
40
0.437500000000032
40
0.500000000000029
40
0.500000000000029
40
0.750000000000014
40
0.750000000000014
40
0.81250000000001
40
0.81250000000001
40
0.875000000000007
40
0.875000000000007
40
0.937500000000003
40
0.937500000000003
40
1
40
1
40
1
40
1
41
1
10
35.2000000000002
20
0.0871600876866125
30
0
41
1
10
35.1800226617229
20
0.0823234454993269
30
0
41
1
10
35.159516186929
20
0.0809070934210467
30
0
41
1
10
35.1178036840413
20
0.0833580531787845
30
0
41
1
10
35.0972116748743
20
0.0872259114532312
30
0
41
1
10
35.0564386776081
20
0.0991170935984655
30
0
41
1
10
35.0362508294965
20
0.107149912795393
30
0
41
1
10
35.0061576935834
20
0.12197187513965
30
0
41
1
10
34.9961664469418
20
0.127377693050846
30
0
41
1
10
34.9764902962716
20
0.138914252851237
30
0
41
1
10
34.9667704708017
20
0.145061643880155
30
0
41
1
10
34.918681782691
20
0.177554844136978
30
0
41
1
10
34.8818237310871
20
0.209115274772415
30
0
41
1
10
34.8368378364266
20
0.254281883897448
30
0
41
1
10
34.8278997075665
20
0.263604584935337
30
0
41
1
10
34.810296079628
20
0.282617318052615
30
0
41
1
10
34.8016075731902
20
0.292331185125278
30
0
41
1
10
34.7844398860813
20
0.312160422578074
30
0
41
1
10
34.7759637310509
20
0.322280317327312
30
0
41
1
10
34.759190609602
20
0.342888829907452
30
0
41
1
10
34.7508786448464
20
0.35335540590691
30
0
41
1
10
34.7425790625815
20
0.363893382307907
30
0
0
SPLINE
5
1D9
100
AcDbEntity
8
1
62
256
6
ByLayer
370
18
48
1
60
0
100
AcDbSpline
70
4
71
3
72
8
73
4
40
0
40
0
40
0
40
0
40
1
40
1
40
1
40
1
41
1
10
33.1691481561302
20
-1.52756908517523
30
0
41
1
10
33.1825870509849
20
-1.52937772146211
30
0
41
1
10
33.1960278889282
20
-1.53099513582848
30
0
41
1
10
33.2094733693484
20
-1.53242094805387
30
0
0
SPLINE
5
1DA
100
AcDbEntity
8
1
62
256
6
ByLayer
370
18
48
1
60
0
100
AcDbSpline
70
4
71
3
72
8
73
4
40
0
40
0
40
0
40
0
40
1
40
1
40
1
40
1
41
1
10
32.6398854388053
20
-1.36022447247581
30
0
41
1
10
32.653705486974
20
-1.36701169879302
30
0
41
1
10
32.6675270165504
20
-1.37361908441872
30
0
41
1
10
32.6813524288036
20
-1.38004544194934
30
0
0
SPLINE
5
1DB
100
AcDbEntity
8
1
62
256
6
ByLayer
370
18
48
1
60
0
100
AcDbSpline
70
4
71
3
72
8
73
4
40
0
40
0
40
0
40
0
40
1
40
1
40
1
40
1
41
1
10
32.111633089425
20
-1.01979541440076
30
0
41
1
10
32.1252036528241
20
-1.03044119478133
30
0
41
1
10
32.1387760330369
20
-1.04095670650776
30
0
41
1
10
32.1523531327825
20
-1.05133982881543
30
0
0
SPLINE
5
1DC
100
AcDbEntity
8
1
62
256
6
ByLayer
370
18
48
1
60
0
100
AcDbSpline
70
4
71
3
72
8
73
4
40
0
40
0
40
0
40
0
40
1
40
1
40
1
40
1
41
1
10
31.5829268146538
20
-0.54899443974
30
0
41
1
10
31.596610131393
20
-0.562368803287484
30
0
41
1
10
31.6102949353604
20
-0.575672130063396
30
0
41
1
10
31.6239836051401
20
-0.588902248274223
30
0
0
SPLINE
5
1DD
100
AcDbEntity
8
1
62
256
6
ByLayer
370
18
48
1
60
0
100
AcDbSpline
70
4
71
3
72
8
73
4
40
0
40
0
40
0
40
0
40
1
40
1
40
1
40
1
41
1
10
31.0543313757297
20
-0.0082262430841809
30
0
41
1
10
31.0679649348081
20
-0.0224924437748655
30
0
41
1
10
31.0815992963863
20
-0.036758322072842
30
0
41
1
10
31.0952375861151
20
-0.0510208784523059
30
0
0
SPLINE
5
1DE
100
AcDbEntity
8
1
62
256
6
ByLayer
370
18
48
1
60
0
100
AcDbSpline
70
4
71
3
72
8
73
4
40
0
40
0
40
0
40
0
40
1
40
1
40
1
40
1
41
1
10
30.5258416636798
20
0.533332399901639
30
0
41
1
10
30.5393946976959
20
0.520033427143346
30
0
41
1
10
30.5529492678656
20
0.506666687308183
30
0
41
1
10
30.5665078013705
20
0.493234331616009
30
0
0
SPLINE
5
1DF
100
AcDbEntity
8
1
62
256
6
ByLayer
370
18
48
1
60
0
100
AcDbSpline
70
4
71
3
72
8
73
4
40
0
40
0
40
0
40
0
40
1
40
1
40
1
40
1
41
1
10
29.4691601455577
20
1.35219761009424
30
0
41
1
10
29.4827130372259
20
1.34541039487345
30
0
41
1
10
29.4962673258232
20
1.33845140518233
30
0
41
1
10
29.509825239362
20
1.33132155591693
30
0
0
SPLINE
5
1E0
100
AcDbEntity
8
1
62
256
6
ByLayer
370
18
48
1
60
0
100
AcDbSpline
70
4
71
3
72
8
73
4
40
0
40
0
40
0
40
0
40
1
40
1
40
1
40
1
41
1
10
28.9404255619131
20
1.52521866268646
30
0
41
1
10
28.9541111260872
20
1.52321740267183
30
0
41
1
10
28.9677922420665
20
1.52101931556336
30
0
41
1
10
28.981471725577
20
1.5186251232536
30
0
0
SPLINE
5
1E1
100
AcDbEntity
8
1
62
256
6
ByLayer
370
18
48
1
60
0
100
AcDbSpline
70
4
71
3
72
8
73
4
40
0
40
0
40
0
40
0
40
1
40
1
40
1
40
1
41
1
10
28.0401876069907
20
0.975990024854411
30
0
41
1
10
27.9485710953179
20
0.938999881166154
30
0
41
1
10
27.857984270459
20
0.896611428504229
30
0
41
1
10
27.7676711561708
20
0.849566605516287
30
0
0
SPLINE
5
1E2
100
AcDbEntity
8
1
62
256
6
ByLayer
370
18
48
1
60
0
100
AcDbSpline
70
4
71
3
72
45
73
41
40
0
40
0
40
0
40
0
40
0.0422162107456401
40
0.0422162107456401
40
0.0790540487938857
40
0.0790540487938857
40
0.0974729678180083
40
0.0974729678180083
40
0.115891886842131
40
0.189567562938626
40
0.189567562938626
40
0.263243239035121
40
0.263243239035121
40
0.336918915131617
40
0.336918915131617
40
0.373756753179867
40
0.373756753179867
40
0.392175672203989
40
0.392175672203989
40
0.410594591228112
40
0.410594591228112
40
0.557945943421075
40
0.557945943421075
40
0.631621619517558
40
0.631621619517558
40
0.668459457565803
40
0.668459457565803
40
0.705297295614047
40
0.705297295614047
40
0.778972971710535
40
0.778972971710535
40
0.852648647807023
40
0.852648647807023
40
0.926324323903512
40
0.926324323903512
40
0.944743242927633
40
0.944743242927633
40
0.963162161951754
40
0.963162161951754
40
1
40
1
40
1
40
1
41
1
10
24.222056529255
20
-1.14355347375522
30
0
41
1
10
24.1825429771951
20
-1.14356116584355
30
0
41
1
10
24.1429591369588
20
-1.14233661170272
30
0
41
1
10
24.0687063802928
20
-1.13771258801793
30
0
41
1
10
24.0340319684015
20
-1.13460730613554
30
0
41
1
10
23.9818419245394
20
-1.12850619984337
30
0
41
1
10
23.9643973687934
20
-1.12622880985367
30
0
41
1
10
23.9295954664881
20
-1.12121205151007
30
0
41
1
10
23.8427475838513
20
-1.10751181065811
30
0
41
1
10
23.7565706197536
20
-1.08809028066449
30
0
41
1
10
23.6187774079358
20
-1.05019836024491
30
0
41
1
10
23.5499909289687
20
-1.02782749349905
30
0
41
1
10
23.4124083316116
20
-0.976350974255325
30
0
41
1
10
23.3435857063143
20
-0.947249681564188
30
0
41
1
10
23.2397825563693
20
-0.898806518540255
30
0
41
1
10
23.2050746584614
20
-0.881870286371196
30
0
41
1
10
23.1527919379547
20
-0.855318039128207
30
0
41
1
10
23.1353369133358
20
-0.84627755768895
30
0
41
1
10
23.1005241997297
20
-0.827900345437683
30
0
41
1
10
23.0831457696299
20
-0.818553157102684
30
0
41
1
10
22.9269809068036
20
-0.733021336341409
30
0
41
1
10
22.79001596883
20
-0.646853777562086
30
0
41
1
10
22.5835727479545
20
-0.506576477550453
30
0
41
1
10
22.5145635037227
20
-0.458020443946396
30
0
41
1
10
22.4105802203819
20
-0.382640915435616
30
0
41
1
10
22.3758362425812
20
-0.357092498086303
30
0
41
1
10
22.3061312847414
20
-0.305204381666471
30
0
41
1
10
22.2714188334342
20
-0.279061382282009
30
0
41
1
10
22.1675435966502
20
-0.200241549867059
30
0
41
1
10
22.0986517850745
20
-0.147162390368692
30
0
41
1
10
21.960925919225
20
-0.0407996311367356
30
0
41
1
10
21.8921671349797
20
0.0125818183574324
30
0
41
1
10
21.7545304877867
20
0.119318745068568
30
0
41
1
10
21.6856362093794
20
0.172652971460565
30
0
41
1
10
21.5989962933677
20
0.238721851595784
30
0
41
1
10
21.5816410044362
20
0.251904108074285
30
0
41
1
10
21.5468614599128
20
0.278186849680083
30
0
41
1
10
21.5294159269197
20
0.291302156183406
30
0
41
1
10
21.4771266375032
20
0.330373535328192
30
0
41
1
10
21.4423666688736
20
0.356044992755386
30
0
41
1
10
21.4077139988228
20
0.381359674237075
30
0
0
SPLINE
5
1E3
100
AcDbEntity
8
1
62
256
6
ByLayer
370
18
48
1
60
0
100
AcDbSpline
70
4
71
3
72
28
73
24
40
0
40
0
40
0
40
0
40
0.17442000767071
40
0.17442000767071
40
0.263183467596436
40
0.263183467596436
40
0.351946927522163
40
0.351946927522163
40
0.440710387447891
40
0.440710387447891
40
0.529473847373618
40
0.529473847373618
40
0.618237307299346
40
0.618237307299346
40
0.707000767225073
40
0.707000767225073
40
0.795764227150801
40
0.795764227150801
40
0.884527687076528
40
0.884527687076528
40
0.973291147002256
40
0.973291147002256
40
1
40
1
40
1
40
1
41
1
10
21.4077164255994
20
0.381353168067676
30
0
41
1
10
21.3769153761837
20
0.397596299283066
30
0
41
1
10
21.3306857932127
20
0.396447899189752
30
0
41
1
10
21.2420456135477
20
0.362874867332778
30
0
41
1
10
21.2089564133498
20
0.346091525675177
30
0
41
1
10
21.1387855736065
20
0.301734863152603
30
0
41
1
10
21.1004486829174
20
0.273234620880629
30
0
41
1
10
21.0243287018775
20
0.206987962651652
30
0
41
1
10
20.9856292914864
20
0.168155327381783
30
0
41
1
10
20.910585110492
20
0.0895331910325012
30
0
41
1
10
20.8742102770479
20
0.048916930279745
30
0
41
1
10
20.8036939220589
20
-0.0348563488594209
30
0
41
1
10
20.7694424086928
20
-0.0781534797129098
30
0
41
1
10
20.7056921295828
20
-0.163855901575886
30
0
41
1
10
20.6758432578255
20
-0.206674566613572
30
0
41
1
10
20.6199513434942
20
-0.292250767497251
30
0
41
1
10
20.5933578069964
20
-0.33488173529733
30
0
41
1
10
20.553192887949
20
-0.41431930004677
30
0
41
1
10
20.5387887079531
20
-0.45139176755012
30
0
41
1
10
20.5208452393202
20
-0.516643786079186
30
0
41
1
10
20.5170526519483
20
-0.545675974730869
30
0
41
1
10
20.5176918275192
20
-0.577502752982326
30
0
41
1
10
20.5183336023003
20
-0.584383127842699
30
0
41
1
10
20.519305231169
20
-0.590942159495427
30
0
0
SPLINE
5
1E4
100
AcDbEntity
8
1
62
256
6
ByLayer
370
18
48
1
60
0
100
AcDbSpline
70
4
71
3
72
44
73
40
40
0
40
0
40
0
40
0
40
0.090171324398007
40
0.090171324398007
40
0.135256986597008
40
0.135256986597008
40
0.180342648796009
40
0.180342648796009
40
0.270513973194006
40
0.270513973194006
40
0.293056804293506
40
0.293056804293506
40
0.315599635393007
40
0.315599635393007
40
0.360685297592008
40
0.360685297592008
40
0.405770959791009
40
0.405770959791009
40
0.45085662199001
40
0.45085662199001
40
0.541027946388012
40
0.541027946388012
40
0.586113608587012
40
0.586113608587012
40
0.631199270786013
40
0.631199270786013
40
0.676284932985014
40
0.676284932985014
40
0.721370595184015
40
0.721370595184015
40
0.766456257383016
40
0.766456257383016
40
0.811541919582017
40
0.811541919582017
40
0.901713243980024
40
0.901713243980024
40
0.991884568378031
40
0.991884568378031
40
1
40
1
40
1
40
1
41
1
10
20.5190856589356
20
-0.591135657543219
30
0
41
1
10
20.5976981019671
20
-0.643261091940417
30
0
41
1
10
20.6758739740318
20
-0.692490334094458
30
0
41
1
10
20.7929901445252
20
-0.761584204665041
30
0
41
1
10
20.8319681641125
20
-0.78385955522748
30
0
41
1
10
20.909832532688
20
-0.826851509498198
30
0
41
1
10
20.9487728937964
20
-0.847515794737888
30
0
41
1
10
21.0659358484353
20
-0.906729307633412
30
0
41
1
10
21.1444185690613
20
-0.942585103136992
30
0
41
1
10
21.2432726877806
20
-0.982545748567333
30
0
41
1
10
21.2630579770872
20
-0.990285404292621
30
0
41
1
10
21.3024925974551
20
-1.00519565128499
30
0
41
1
10
21.3221663716941
20
-1.01237566471295
30
0
41
1
10
21.3810674874046
20
-1.03308877500436
30
0
41
1
10
21.4201551308554
20
-1.04580431244966
30
0
41
1
10
21.4982081987526
20
-1.06893817166446
30
0
41
1
10
21.5371758848523
20
-1.07935673371134
30
0
41
1
10
21.6151517188989
20
-1.09786215311516
30
0
41
1
10
21.6541568604205
20
-1.10595224286942
30
0
41
1
10
21.7712744015294
20
-1.12674561895821
30
0
41
1
10
21.8494717644194
20
-1.13599422281786
30
0
41
1
10
21.9671213144625
20
-1.14269855826191
30
0
41
1
10
22.006363151592
20
-1.14373351563768
30
0
41
1
10
22.085170010884
20
-1.14331310604257
30
0
41
1
10
22.124541736909
20
-1.14185800107342
30
0
41
1
10
22.2031983982472
20
-1.13657837168088
30
0
41
1
10
22.2424762141122
20
-1.13275450447807
30
0
41
1
10
22.3207767068262
20
-1.12274887351955
30
0
41
1
10
22.3598246870371
20
-1.11656705644165
30
0
41
1
10
22.4378889044695
20
-1.10190150703332
30
0
41
1
10
22.4768646719569
20
-1.09340730953457
30
0
41
1
10
22.5547303139757
20
-1.07407807724104
30
0
41
1
10
22.593653115673
20
-1.06325300408489
30
0
41
1
10
22.7107750186993
20
-1.02746133812545
30
0
41
1
10
22.7893720603964
20
-0.999238025242732
30
0
41
1
10
22.9477093321637
20
-0.933915978086503
30
0
41
1
10
23.0260824333994
20
-0.897243162067866
30
0
41
1
10
23.1111533520497
20
-0.853444752224192
30
0
41
1
10
23.1181750059283
20
-0.849799844613983
30
0
41
1
10
23.1251946703899
20
-0.8461269853386
30
0
0
SPLINE
5
1E5
100
AcDbEntity
8
1
62
256
6
ByLayer
370
18
48
1
60
0
100
AcDbSpline
70
4
71
3
72
30
73
26
40
0
40
0
40
0
40
0
40
0.139192794333614
40
0.139192794333614
40
0.182233154616935
40
0.182233154616935
40
0.225273514900255
40
0.225273514900255
40
0.311354235466896
40
0.311354235466896
40
0.397434956033536
40
0.397434956033536
40
0.483515676600177
40
0.483515676600177
40
0.569596397166817
40
0.569596397166817
40
0.655677117733457
40
0.655677117733457
40
0.741757838300098
40
0.741757838300098
40
0.784798198583413
40
0.784798198583413
40
0.827838558866729
40
0.827838558866729
40
1
40
1
40
1
40
1
41
1
10
26.6724976708424
20
1.14355241758139
30
0
41
1
10
26.7357522165558
20
1.14357806448612
30
0
41
1
10
26.7991606790859
20
1.1404935799668
30
0
41
1
10
26.882341583785
20
1.13226251878544
30
0
41
1
10
26.9020010557181
20
1.13001021130506
30
0
41
1
10
26.9413683760692
20
1.12488156000214
30
0
41
1
10
26.961101876808
20
1.12200060064708
30
0
41
1
10
27.0201242193284
20
1.11246186483905
30
0
41
1
10
27.059289298318
20
1.10490137073378
30
0
41
1
10
27.1377009106266
20
1.0876039037563
30
0
41
1
10
27.1768931932618
20
1.07785582530079
30
0
41
1
10
27.255101387296
20
1.05614138309662
30
0
41
1
10
27.2941351895213
20
1.04417969506898
30
0
41
1
10
27.3721489162992
20
1.01809622768406
30
0
41
1
10
27.4111342334741
20
1.00397851680441
30
0
41
1
10
27.4890825957153
20
0.973585500415822
30
0
41
1
10
27.5279940894317
20
0.957271116692226
30
0
41
1
10
27.6060503169133
20
0.922623527807019
30
0
41
1
10
27.6452450959448
20
0.904333498873427
30
0
41
1
10
27.7042871311382
20
0.875450224182913
30
0
41
1
10
27.7240101299146
20
0.865581335498206
30
0
41
1
10
27.7635417098754
20
0.845358538867998
30
0
41
1
10
27.7833635935934
20
0.834997246145633
30
0
41
1
10
27.8823406751524
20
0.78214204924663
30
0
41
1
10
27.9612507363973
20
0.736337998973681
30
0
41
1
10
28.0401876069906
20
0.687235883566444
30
0
0
SPLINE
5
1E6
100
AcDbEntity
8
1
62
256
6
ByLayer
370
18
48
1
60
0
100
AcDbSpline
70
4
71
3
72
12
73
8
40
0
40
0
40
0
40
0
40
0.499999999999975
40
0.499999999999975
40
0.749999999999987
40
0.749999999999987
40
1
40
1
40
1
40
1
41
1
10
28.0401876069907
20
0.687235883566501
30
0
41
1
10
28.0827993898487
20
0.660729529009075
30
0
41
1
10
28.1251484387463
20
0.637156272042148
30
0
41
1
10
28.1878008088031
20
0.606201659753935
30
0
41
1
10
28.2085348605875
20
0.596620010011094
30
0
41
1
10
28.2496541159678
20
0.579147163326638
30
0
41
1
10
28.2700739979013
20
0.571313792277863
30
0
41
1
10
28.290187606991
20
0.564355212313899
30
0
0
SPLINE
5
1E7
100
AcDbEntity
8
1
62
256
6
ByLayer
370
18
48
1
60
0
100
AcDbSpline
70
4
71
3
72
8
73
4
40
0
40
0
40
0
40
0
40
1
40
1
40
1
40
1
41
1
10
28.2901876069909
20
0.5643552123137
30
0
41
1
10
28.2926177469401
20
0.563514471943108
30
0
41
1
10
28.2950457558039
20
0.56266689530662
30
0
41
1
10
28.2974716388897
20
0.561812463076109
30
0
0
SPLINE
5
1E8
100
AcDbEntity
8
1
62
256
6
ByLayer
370
18
48
1
60
0
100
AcDbSpline
70
4
71
3
72
14
73
10
40
0
40
0
40
0
40
0
40
0.25
40
0.25
40
0.5
40
0.5
40
0.75
40
0.75
40
1
40
1
40
1
40
1
41
1
10
28.2974716388897
20
0.561812463076109
30
0
41
1
10
28.3017167310001
20
0.559169471415146
30
0
41
1
10
28.3059450881479
20
0.556752505150683
30
0
41
1
10
28.3143551577529
20
0.552419257585854
30
0
41
1
10
28.3185727342784
20
0.550489344073981
30
0
41
1
10
28.3267224960181
20
0.547323780893123
30
0
41
1
10
28.3306574502182
20
0.546080102851391
30
0
41
1
10
28.3381834767576
20
0.54440765794422
30
0
41
1
10
28.3417750703332
20
0.543989855397882
30
0
41
1
10
28.3449755294957
20
0.544102897545116
30
0
0
SPLINE
5
1E9
100
AcDbEntity
8
1
62
256
6
ByLayer
370
18
48
1
60
0
100
AcDbSpline
70
4
71
3
72
10
73
6
40
0
40
0
40
0
40
0
40
0.5
40
0.5
40
1
40
1
40
1
40
1
41
1
10
28.3449755294953
20
0.544102897549209
30
0
41
1
10
28.3962397323609
20
0.523929187645024
30
0
41
1
10
28.4466258029801
20
0.500692278853592
30
0
41
1
10
28.5460272017278
20
0.4481608747721
30
0
41
1
10
28.5949631965123
20
0.4187143016199
30
0
41
1
10
28.6435103296669
20
0.386446761769633
30
0
0
SPLINE
5
1EA
100
AcDbEntity
8
1
62
256
6
ByLayer
370
18
48
1
60
0
100
AcDbSpline
70
4
71
3
72
8
73
4
40
0
40
0
40
0
40
0
40
1
40
1
40
1
40
1
41
1
10
29.0936558459366
20
-0.0205806168499691
30
0
41
1
10
29.0800693113711
20
-0.00636794253532
30
0
41
1
10
29.0664799971494
20
0.0078335641668161
30
0
41
1
10
29.0528885746478
20
0.0220245861700903
30
0
0
SPLINE
5
1EB
100
AcDbEntity
8
1
62
256
6
ByLayer
370
18
48
1
60
0
100
AcDbSpline
70
4
71
3
72
8
73
4
40
0
40
0
40
0
40
0
40
1
40
1
40
1
40
1
41
1
10
29.6224951974725
20
-0.560317775349347
30
0
41
1
10
29.6087850363011
20
-0.546950301503102
30
0
41
1
10
29.5950788284657
20
-0.533527281922147
30
0
41
1
10
29.5813729612428
20
-0.520052364547638
30
0
0
SPLINE
5
1EC
100
AcDbEntity
8
1
62
256
6
ByLayer
370
18
48
1
60
0
100
AcDbSpline
70
4
71
3
72
8
73
4
40
0
40
0
40
0
40
0
40
1
40
1
40
1
40
1
41
1
10
30.1509930685643
20
-1.02843145654938
30
0
41
1
10
30.1373770508974
20
-1.0178439952262
30
0
41
1
10
30.1237671917033
20
-1.00713708583339
30
0
41
1
10
30.1101632426876
20
-0.996311562456697
30
0
0
SPLINE
5
1ED
100
AcDbEntity
8
1
62
256
6
ByLayer
370
18
48
1
60
0
100
AcDbSpline
70
4
71
3
72
8
73
4
40
0
40
0
40
0
40
0
40
1
40
1
40
1
40
1
41
1
10
30.6797366058789
20
-1.36564940692287
30
0
41
1
10
30.6660534008864
20
-1.35903847861903
30
0
41
1
10
30.6523747205476
20
-1.35225954226715
30
0
41
1
10
30.6387002676603
20
-1.34531379601231
30
0
0
SPLINE
5
1EE
100
AcDbEntity
8
1
62
256
6
ByLayer
370
18
48
1
60
0
100
AcDbSpline
70
4
71
3
72
8
73
4
40
0
40
0
40
0
40
0
40
1
40
1
40
1
40
1
41
1
10
31.2077494268818
20
-1.52884261252001
30
0
41
1
10
31.1943614081292
20
-1.52714154527769
30
0
41
1
10
31.180980351223
20
-1.52525438079257
30
0
41
1
10
31.1676088106321
20
-1.52318163359183
30
0
0
SPLINE
5
1EF
100
AcDbEntity
8
1
62
256
6
ByLayer
370
18
48
1
60
0
100
AcDbSpline
70
4
71
3
72
16
73
12
40
0
40
0
40
0
40
0
40
0.484319261196135
40
0.484319261196135
40
0.742159630598068
40
0.742159630598068
40
0.871079815299034
40
0.871079815299034
40
0.935539907649517
40
0.935539907649517
40
1
40
1
40
1
40
1
41
1
10
35.2
20
-0.569398371490394
30
0
41
1
10
35.2
20
-0.586075106797864
30
0
41
1
10
35.2
20
-0.604896031586208
30
0
41
1
10
35.2
20
-0.637017095008218
30
0
41
1
10
35.2
20
-0.648787699134999
30
0
41
1
10
35.2
20
-0.667378435121009
30
0
41
1
10
35.2
20
-0.673738310041898
30
0
41
1
10
35.2
20
-0.683458474486343
30
0
41
1
10
35.2
20
-0.686786482322901
30
0
41
1
10
35.2
20
-0.693947679624586
30
0
41
1
10
35.2
20
-0.697748490833874
30
0
41
1
10
35.2
20
-0.70177537148993
30
0
0
SPLINE
5
1F0
100
AcDbEntity
8
1
62
256
6
ByLayer
370
18
48
1
60
0
100
AcDbSpline
70
4
71
3
72
18
73
14
40
0
40
0
40
0
40
0
40
0.062500000000003
40
0.062500000000003
40
0.125000000000006
40
0.125000000000006
40
0.250000000000012
40
0.250000000000012
40
0.500000000000009
40
0.500000000000009
40
0.750000000000004
40
0.750000000000004
40
1
40
1
40
1
40
1
41
1
10
34.7055603715233
20
-0.419487630998816
30
0
41
1
10
34.7164575468083
20
-0.421709674969378
30
0
41
1
10
34.7273979690693
20
-0.423696101757855
30
0
41
1
10
34.7493740313548
20
-0.427191857525457
30
0
41
1
10
34.7604345993585
20
-0.428622347469087
30
0
41
1
10
34.7934511636904
20
-0.433215958605587
30
0
41
1
10
34.8152365353139
20
-0.436682241171525
30
0
41
1
10
34.880059219817
20
-0.447506122206704
30
0
41
1
10
34.9225099193357
20
-0.455475707546668
30
0
41
1
10
35.0056838023105
20
-0.471616968462854
30
0
41
1
10
35.0464218325124
20
-0.479781762218437
30
0
41
1
10
35.1254649313356
20
-0.495725641110027
30
0
41
1
10
35.1638264673078
20
-0.503455441955026
30
0
41
1
10
35.2000000000001
20
-0.511184991739981
30
0
0
SPLINE
5
1F1
100
AcDbEntity
8
1
62
256
6
ByLayer
370
18
48
1
60
0
100
AcDbSpline
70
4
71
3
72
10
73
6
40
0
40
0
40
0
40
0
40
0.5
40
0.5
40
1
40
1
40
1
40
1
41
1
10
34.7055603715278
20
-0.41948763100703
30
0
41
1
10
34.6612789878055
20
-0.390442509115388
30
0
41
1
10
34.6172657323539
20
-0.360151313939639
30
0
41
1
10
34.5297267783704
20
-0.297028487897649
30
0
41
1
10
34.4861828050289
20
-0.264220579043581
30
0
41
1
10
34.44274821404
20
-0.23026822316109
30
0
0
SPLINE
5
1F2
100
AcDbEntity
8
1
62
256
6
ByLayer
370
18
48
1
60
0
100
AcDbSpline
70
4
71
3
72
8
73
4
40
0
40
0
40
0
40
0
40
1
40
1
40
1
40
1
41
1
10
34.44274821404
20
-0.230268223161119
30
0
41
1
10
34.4273409057466
20
-0.205822715498186
30
0
41
1
10
34.4118764811144
20
-0.181959160628225
30
0
41
1
10
34.3963345923774
20
-0.15869883557167
30
0
0
SPLINE
5
1F3
100
AcDbEntity
8
1
62
256
6
ByLayer
370
18
48
1
60
0
100
AcDbSpline
70
4
71
3
72
26
73
22
40
0
40
0
40
0
40
0
40
0.125
40
0.125
40
0.25
40
0.25
40
0.375
40
0.375
40
0.5
40
0.5
40
0.625
40
0.625
40
0.75
40
0.75
40
0.8125
40
0.8125
40
0.875
40
0.875
40
0.9375
40
0.9375
40
1
40
1
40
1
40
1
41
1
10
34.3963345923774
20
-0.15869883557167
30
0
41
1
10
34.3927643577872
20
-0.153355545672838
30
0
41
1
10
34.388626380965
20
-0.147893383416431
30
0
41
1
10
34.3794697194921
20
-0.136800051789521
30
0
41
1
10
34.3744045045592
20
-0.13112838546283
30
0
41
1
10
34.3638138819321
20
-0.119999267037684
30
0
41
1
10
34.3582577488122
20
-0.114500665701286
30
0
41
1
10
34.3466565818236
20
-0.10361414179576
30
0
41
1
10
34.3405539267837
20
-0.0981803899714748
30
0
41
1
10
34.3282587323805
20
-0.0877731062696512
30
0
41
1
10
34.3220392389811
20
-0.0827685459243526
30
0
41
1
10
34.309465921317
20
-0.0731779623408784
30
0
41
1
10
34.3030251974419
20
-0.0685333304116114
30
0
41
1
10
34.2936727430887
20
-0.0622459207433508
30
0
41
1
10
34.2906039972535
20
-0.0602601408754708
30
0
41
1
10
34.2845826088358
20
-0.056539155746691
30
0
41
1
10
34.2816083872039
20
-0.0547926665334728
30
0
41
1
10
34.2759749962295
20
-0.0516972916594796
30
0
41
1
10
34.2733021159178
20
-0.0503381902207991
30
0
41
1
10
34.2682928576629
20
-0.0480601872620809
30
0
41
1
10
34.2659551957297
20
-0.0471438548495371
30
0
41
1
10
34.2638961383658
20
-0.046522500836943
30
0
0
SPLINE
5
1F4
100
AcDbEntity
8
1
62
256
6
ByLayer
370
18
48
1
60
0
100
AcDbSpline
70
4
71
3
72
8
73
4
40
0
40
0
40
0
40
0
40
1
40
1
40
1
40
1
41
1
10
33.5753847217825
20
0.563053294807418
30
0
41
1
10
33.5553433087571
20
0.582928454228863
30
0
41
1
10
33.5353892987729
20
0.602736247917733
30
0
41
1
10
33.5155121343577
20
0.622467212489141
30
0
0
SPLINE
5
1F5
100
AcDbEntity
8
1
62
256
6
ByLayer
370
18
48
1
60
0
100
AcDbSpline
70
4
71
3
72
8
73
4
40
0
40
0
40
0
40
0
40
1
40
1
40
1
40
1
41
1
10
32.4640977230193
20
1.39409534323309
30
0
41
1
10
32.4777444575928
20
1.38802189082077
30
0
41
1
10
32.4913846922441
20
1.38177048287838
30
0
41
1
10
32.5050216482567
20
1.37534268605148
30
0
0
SPLINE
5
1F6
100
AcDbEntity
8
1
62
256
6
ByLayer
370
18
48
1
60
0
100
AcDbSpline
70
4
71
3
72
8
73
4
40
0
40
0
40
0
40
0
40
1
40
1
40
1
40
1
41
1
10
31.935515824737
20
1.53539047382895
30
0
41
1
10
31.9491081249712
20
1.5342501040227
30
0
41
1
10
31.962692900576
20
1.53291354759162
30
0
41
1
10
31.9762744513986
20
1.53138138984755
30
0
0
SPLINE
5
1F7
100
AcDbEntity
8
1
62
256
6
ByLayer
370
18
48
1
60
0
100
AcDbSpline
70
4
71
3
72
80
73
76
40
0
40
0
40
0
40
0
40
0.0072481840478453
40
0.0072481840478453
40
0.0163084534421608
40
0.0163084534421608
40
0.0525495310194228
40
0.0525495310194228
40
0.0887906085966847
40
0.0887906085966847
40
0.125031686173947
40
0.125031686173947
40
0.143152224962579
40
0.152212494356894
40
0.152212494356894
40
0.161272763751209
40
0.161272763751209
40
0.197513841328475
40
0.197513841328475
40
0.233754918905741
40
0.233754918905741
40
0.269995996483008
40
0.269995996483008
40
0.288116535271641
40
0.288116535271641
40
0.306237074060275
40
0.306237074060275
40
0.342478151637543
40
0.342478151637543
40
0.378719229214812
40
0.378719229214812
40
0.41496030679208
40
0.41496030679208
40
0.433080845580714
40
0.433080845580714
40
0.451201384369347
40
0.451201384369347
40
0.487442461946613
40
0.487442461946613
40
0.523683539523879
40
0.523683539523879
40
0.559924617101146
40
0.559924617101146
40
0.57804515588978
40
0.57804515588978
40
0.587105425284097
40
0.587105425284097
40
0.596165694678414
40
0.632406772255686
40
0.632406772255686
40
0.668647849832956
40
0.668647849832956
40
0.704888927410227
40
0.704888927410227
40
0.723009466198862
40
0.723009466198862
40
0.73206973559318
40
0.73206973559318
40
0.741130004987498
40
0.741130004987498
40
0.813612160142033
40
0.813612160142033
40
0.849853237719299
40
0.849853237719299
40
0.867973776507933
40
0.867973776507933
40
0.886094315296566
40
0.886094315296566
40
0.922335392873834
40
0.922335392873834
40
0.958576470451103
40
0.958576470451103
40
0.994817548028372
40
0.994817548028372
40
1
40
1
40
1
40
1
41
1
10
27.3050020239504
20
-1.14354995079444
30
0
41
1
10
27.2911259756957
20
-1.14354677596691
30
0
41
1
10
27.277234930317
20
-1.14339102577543
30
0
41
1
10
27.2459405975866
20
-1.14269448424361
30
0
41
1
10
27.2285061474889
20
-1.1420659297533
30
0
41
1
10
27.1414843275283
20
-1.13772597232665
30
0
41
1
10
27.0723949261138
20
-1.13042649483614
30
0
41
1
10
26.9343205342335
20
-1.10863888534695
30
0
41
1
10
26.8655356010368
20
-1.09411129183675
30
0
41
1
10
26.7280457718957
20
-1.05794826402499
30
0
41
1
10
26.659335302897
20
-1.0363082454432
30
0
41
1
10
26.5558121398748
20
-0.998690565048321
30
0
41
1
10
26.5039338596167
20
-0.978594115463466
30
0
41
1
10
26.4517763249791
20
-0.956612138242519
30
0
41
1
10
26.4169286286319
20
-0.941545983060848
30
0
41
1
10
26.3994588031103
20
-0.933803807872209
30
0
41
1
10
26.3123593843297
20
-0.894237238610316
30
0
41
1
10
26.2432214945252
20
-0.859651272062564
30
0
41
1
10
26.1054528214572
20
-0.785203332210074
30
0
41
1
10
26.0368384901405
20
-0.745321385636657
30
0
41
1
10
25.8993346753029
20
-0.661075166260787
30
0
41
1
10
25.8304293299379
20
-0.616739543124993
30
0
41
1
10
25.7267050085783
20
-0.547024443866547
30
0
41
1
10
25.6920727044258
20
-0.523244637212002
30
0
41
1
10
25.6226106134677
20
-0.474674430950444
30
0
41
1
10
25.587704827762
20
-0.449827562836162
30
0
41
1
10
25.4834683573171
20
-0.374556829856345
30
0
41
1
10
25.4144166428827
20
-0.323295498356345
30
0
41
1
10
25.2765643957832
20
-0.21943626636218
30
0
41
1
10
25.2077923424386
20
-0.166803507961873
30
0
41
1
10
25.0703040609336
20
-0.0604572109930928
30
0
41
1
10
25.0015370467468
20
-0.0068080807465094
30
0
41
1
10
24.8978764520425
20
0.0737700587928884
30
0
41
1
10
24.8632388439415
20
0.100648156313156
30
0
41
1
10
24.7936760093299
20
0.154286014268052
30
0
41
1
10
24.7587058795017
20
0.181065075827519
30
0
41
1
10
24.6544126195495
20
0.260526874595541
30
0
41
1
10
24.5853615369433
20
0.312544654581927
30
0
41
1
10
24.4476791955668
20
0.414041224030655
30
0
41
1
10
24.3790493386875
20
0.463519376033133
30
0
41
1
10
24.2415006465491
20
0.559094058701277
30
0
41
1
10
24.172507933778
20
0.605113498283288
30
0
41
1
10
24.0687063802928
20
0.671467233045945
30
0
41
1
10
24.0340319684015
20
0.69311332492947
30
0
41
1
10
23.9818419245394
20
0.724790871377593
30
0
41
1
10
23.9643973687934
20
0.735229807867796
30
0
41
1
10
23.9295954664881
20
0.755746648638421
30
0
41
1
10
23.8427475838513
20
0.806174822248551
30
0
41
1
10
23.7565706197536
20
0.852205732297904
30
0
41
1
10
23.6187774079358
20
0.919726659781645
30
0
41
1
10
23.5499909289687
20
0.950489677130378
30
0
41
1
10
23.4124083316116
20
1.00583815874435
30
0
41
1
10
23.3435857063143
20
1.03039441175005
30
0
41
1
10
23.2397825563693
20
1.06212958620719
30
0
41
1
10
23.2050746584615
20
1.0718522836122
30
0
41
1
10
23.1527919379547
20
1.08510879920948
30
0
41
1
10
23.1353369133358
20
1.08930474707134
30
0
41
1
10
23.1005241997297
20
1.09721596231154
30
0
41
1
10
23.0831457696299
20
1.10093662601605
30
0
41
1
10
22.9269809068037
20
1.13232369425873
30
0
41
1
10
22.79001596883
20
1.14533295654661
30
0
41
1
10
22.5835727479545
20
1.14236432019237
30
0
41
1
10
22.5145635037227
20
1.13764262100975
30
0
41
1
10
22.4105802203819
20
1.12486846492104
30
0
41
1
10
22.3758362425812
20
1.11965978652518
30
0
41
1
10
22.3061312847414
20
1.1073108865267
30
0
41
1
10
22.2714188334341
20
1.10021681184241
30
0
41
1
10
22.1675435966502
20
1.07627890297007
30
0
41
1
10
22.0986517850748
20
1.05677649299466
30
0
41
1
10
21.9609259192253
20
1.01119097068883
30
0
41
1
10
21.8921671349797
20
0.985074058156641
30
0
41
1
10
21.7545304877868
20
0.926365730027072
30
0
41
1
10
21.6856362093794
20
0.893777176326068
30
0
41
1
10
21.606412712487
20
0.853046436749224
30
0
41
1
10
21.5964922144825
20
0.847888729118438
30
0
41
1
10
21.5865614392912
20
0.842670030233194
30
0
0
SPLINE
5
1F8
100
AcDbEntity
8
1
62
256
6
ByLayer
370
18
48
1
60
0
100
AcDbSpline
70
4
71
3
72
94
73
90
40
0
40
0
40
0
40
0
40
0.0412150159099215
40
0.0412150159099215
40
0.0618225238648823
40
0.0618225238648823
40
0.082430031819843
40
0.082430031819843
40
0.123645047729765
40
0.123645047729765
40
0.133948801707245
40
0.133948801707245
40
0.144252555684725
40
0.144252555684725
40
0.164860063639686
40
0.164860063639686
40
0.185467571594647
40
0.185467571594647
40
0.206075079549608
40
0.206075079549608
40
0.247290095459532
40
0.247290095459532
40
0.267897603414495
40
0.267897603414495
40
0.288505111369458
40
0.288505111369458
40
0.309112619324421
40
0.309112619324421
40
0.329720127279384
40
0.329720127279384
40
0.350327635234348
40
0.350327635234348
40
0.370935143189311
40
0.370935143189311
40
0.412150159099237
40
0.412150159099237
40
0.453365175009163
40
0.453365175009163
40
0.473972682964127
40
0.473972682964127
40
0.494580190919092
40
0.494580190919092
40
0.535795206829018
40
0.535795206829018
40
0.556402714783981
40
0.556402714783981
40
0.577010222738944
40
0.577010222738944
40
0.597617730693907
40
0.597617730693907
40
0.61822523864887
40
0.61822523864887
40
0.638832746603834
40
0.638832746603834
40
0.659440254558797
40
0.659440254558797
40
0.68004776251376
40
0.68004776251376
40
0.700655270468723
40
0.700655270468723
40
0.721262778423686
40
0.721262778423686
40
0.741870286378649
40
0.741870286378649
40
0.762477794333612
40
0.762477794333612
40
0.783085302288575
40
0.783085302288575
40
0.824300318198499
40
0.824300318198499
40
0.83460407217598
40
0.83460407217598
40
0.844907826153461
40
0.844907826153461
40
0.865515334108423
40
0.865515334108423
40
0.906730350018347
40
0.906730350018347
40
0.927337857973309
40
0.927337857973309
40
0.947945365928271
40
0.947945365928271
40
0.968552873883233
40
0.968552873883233
40
0.978856627860715
40
0.978856627860715
40
0.989160381838197
40
0.989160381838197
40
1
40
1
40
1
40
1
41
1
10
20.5190856589356
20
1.14332895530475
30
0
41
1
10
20.5976981019671
20
1.14213175048104
30
0
41
1
10
20.6758739740318
20
1.13608873943602
30
0
41
1
10
20.7929901445251
20
1.12001777308433
30
0
41
1
10
20.8319681641125
20
1.11348413367182
30
0
41
1
10
20.909832532688
20
1.09804607026555
30
0
41
1
10
20.9487728937964
20
1.08915659564391
30
0
41
1
10
21.0659358484353
20
1.05909759335248
30
0
41
1
10
21.1444185690613
20
1.03452444252215
30
0
41
1
10
21.2432726877806
20
0.998133658441361
30
0
41
1
10
21.2630579770872
20
0.990577516865613
30
0
41
1
10
21.3024925974551
20
0.974975660728461
30
0
41
1
10
21.3221663716941
20
0.966921529499359
30
0
41
1
10
21.3810674874046
20
0.942010543425198
30
0
41
1
10
21.4201551308554
20
0.924389133252191
30
0
41
1
10
21.4982081987525
20
0.887314911293259
30
0
41
1
10
21.5371758848523
20
0.86786492737437
30
0
41
1
10
21.6151517188989
20
0.827298921376411
30
0
41
1
10
21.6541568604205
20
0.806181750267484
30
0
41
1
10
21.7712744015294
20
0.740394925069126
30
0
41
1
10
21.8494717644194
20
0.693286172359421
30
0
41
1
10
21.9671213144625
20
0.617769573624059
30
0
41
1
10
22.0063631515919
20
0.591745359125213
30
0
41
1
10
22.085170010884
20
0.538245760632066
30
0
41
1
10
22.1245417369089
20
0.511001092900386
30
0
41
1
10
22.2031983982472
20
0.455980108533197
30
0
41
1
10
22.2424762141122
20
0.428122164853562
30
0
41
1
10
22.3207767068263
20
0.371531686022735
30
0
41
1
10
22.359824687037
20
0.342829048447413
30
0
41
1
10
22.4378889044695
20
0.284826857369126
30
0
41
1
10
22.4768646719568
20
0.255476922342353
30
0
41
1
10
22.5547303139757
20
0.196106668377922
30
0
41
1
10
22.593653115673
20
0.166127692700087
30
0
41
1
10
22.7107750186993
20
0.0758026909912246
30
0
41
1
10
22.7893720603963
20
0.0151356389258694
30
0
41
1
10
22.9477093321637
20
-0.107003962754618
30
0
41
1
10
23.0260824333993
20
-0.167624214280295
30
0
41
1
10
23.1431524901356
20
-0.256852946647911
30
0
41
1
10
23.1820968216052
20
-0.286316804061272
30
0
41
1
10
23.2600232116681
20
-0.344445475117197
30
0
41
1
10
23.2990278030713
20
-0.373083112677904
30
0
41
1
10
23.4161406027757
20
-0.457757740387592
30
0
41
1
10
23.4943580562422
20
-0.512549591189753
30
0
41
1
10
23.611994763018
20
-0.592055986830161
30
0
41
1
10
23.6512902178855
20
-0.618108456127089
30
0
41
1
10
23.7302020551432
20
-0.668896617436104
30
0
41
1
10
23.7695463781299
20
-0.693432441297489
30
0
41
1
10
23.8480999248406
20
-0.740757176572743
30
0
41
1
10
23.8873033053395
20
-0.763553248933761
30
0
41
1
10
23.9655596133913
20
-0.807449127499041
30
0
41
1
10
24.0045943842418
20
-0.828564666066484
30
0
41
1
10
24.0825901345963
20
-0.869028921876662
30
0
41
1
10
24.1215949508738
20
-0.888341940339672
30
0
41
1
10
24.1995244607966
20
-0.925198667409148
30
0
41
1
10
24.2384312085852
20
-0.942751073927099
30
0
41
1
10
24.3164603986899
20
-0.975827537693476
30
0
41
1
10
24.355614350673
20
-0.991332866119194
30
0
41
1
10
24.4342418712506
20
-1.02024956670911
30
0
41
1
10
24.4737509842992
20
-1.03368297868343
30
0
41
1
10
24.5528951287533
20
-1.05835601933299
30
0
41
1
10
24.5923072924697
20
-1.06952715107065
30
0
41
1
10
24.6708183926331
20
-1.089570730915
30
0
41
1
10
24.7098973689177
20
-1.09844964238772
30
0
41
1
10
24.7878317180275
20
-1.11386835654497
30
0
41
1
10
24.8266909267797
20
-1.12040153569703
30
0
41
1
10
24.9046355739294
20
-1.1310331524592
30
0
41
1
10
24.9436800186226
20
-1.13515042152539
30
0
41
1
10
25.0608646948013
20
-1.14397015449356
30
0
41
1
10
25.1391347679033
20
-1.14513808478472
30
0
41
1
10
25.2373088583901
20
-1.14050202505948
30
0
41
1
10
25.2569560364345
20
-1.1392679949991
30
0
41
1
10
25.2963111403026
20
-1.13617997449384
30
0
41
1
10
25.3160448635315
20
-1.13432292678203
30
0
41
1
10
25.3752017230994
20
-1.12784487202637
30
0
41
1
10
25.4145349226112
20
-1.12233299686147
30
0
41
1
10
25.5322594517928
20
-1.10232923047659
30
0
41
1
10
25.6104198577286
20
-1.08439307209503
30
0
41
1
10
25.7274431854054
20
-1.05083077448873
30
0
41
1
10
25.7664001349495
20
-1.03852389893598
30
0
41
1
10
25.844226148441
20
-1.01164546986072
30
0
41
1
10
25.8831220647907
20
-0.997084115708788
30
0
41
1
10
25.9612304893837
20
-0.965929791981381
30
0
41
1
10
26.0004263280843
20
-0.949330517846732
30
0
41
1
10
26.0594637398618
20
-0.922918901737035
30
0
41
1
10
26.0791825455236
20
-0.913862038404631
30
0
41
1
10
26.1186976977693
20
-0.895236734006971
30
0
41
1
10
26.1385212355133
20
-0.885654639435984
30
0
41
1
10
26.1791052588101
20
-0.865539074827751
30
0
41
1
10
26.1998593157887
20
-0.854981340520112
30
0
41
1
10
26.2205666371151
20
-0.844184199653853
30
0
0
SPLINE
5
1F9
100
AcDbEntity
8
1
62
256
6
ByLayer
370
18
48
1
60
0
100
AcDbSpline
70
4
71
3
72
8
73
4
40
0
40
0
40
0
40
0
40
1
40
1
40
1
40
1
41
1
10
29.9745797579224
20
1.53438277344546
30
0
41
1
10
29.9610975100101
20
1.53561697362764
30
0
41
1
10
29.9476154102035
20
1.53665920558302
30
0
41
1
10
29.9341356788287
20
1.53751013427242
30
0
0
SPLINE
5
1FA
100
AcDbEntity
8
1
62
256
6
ByLayer
370
18
48
1
60
0
100
AcDbSpline
70
4
71
3
72
8
73
4
40
0
40
0
40
0
40
0
40
1
40
1
40
1
40
1
41
1
10
30.5030805434021
20
1.38916306730525
30
0
41
1
10
30.4894641453429
20
1.39529352066816
30
0
41
1
10
30.4758548734746
20
1.40124571844785
30
0
41
1
10
30.462252053647
20
1.40701946643728
30
0
0
SPLINE
5
1FB
100
AcDbEntity
8
1
62
256
6
ByLayer
370
18
48
1
60
0
100
AcDbSpline
70
4
71
3
72
8
73
4
40
0
40
0
40
0
40
0
40
1
40
1
40
1
40
1
41
1
10
31.5605291770716
20
0.60853655364204
30
0
41
1
10
31.5467934335314
20
0.621704789445886
30
0
41
1
10
31.5330680068241
20
0.634793453303672
30
0
41
1
10
31.5193523059737
20
0.647801957235004
30
0
0
SPLINE
5
1FC
100
AcDbEntity
8
1
62
256
6
ByLayer
370
18
48
1
60
0
100
AcDbSpline
70
4
71
3
72
8
73
4
40
0
40
0
40
0
40
0
40
1
40
1
40
1
40
1
41
1
10
32.0890107766513
20
0.0728581957141898
30
0
41
1
10
32.0754412360329
20
0.0870102437960441
30
0
41
1
10
32.0618843654829
20
0.101154930887191
30
0
41
1
10
32.0483398824467
20
0.115291950475012
30
0
0
SPLINE
5
1FD
100
AcDbEntity
8
1
62
256
6
ByLayer
370
18
48
1
60
0
100
AcDbSpline
70
4
71
3
72
8
73
4
40
0
40
0
40
0
40
0
40
1
40
1
40
1
40
1
41
1
10
32.6175412660945
20
-0.472147670752037
30
0
41
1
10
32.603855315585
20
-0.458543329785414
30
0
41
1
10
32.5901872635503
20
-0.444871656845805
30
0
41
1
10
32.5765397512
20
-0.431130007963304
30
0
0
SPLINE
5
1FE
100
AcDbEntity
8
1
62
256
6
ByLayer
370
18
48
1
60
0
100
AcDbSpline
70
4
71
3
72
8
73
4
40
0
40
0
40
0
40
0
40
1
40
1
40
1
40
1
41
1
10
33.1458265625021
20
-0.956522246823653
30
0
41
1
10
33.1322950031576
20
-0.945424746562992
30
0
41
1
10
33.1187807494646
20
-0.934201032191879
30
0
41
1
10
33.1052778332844
20
-0.922855329805316
30
0
0
SPLINE
5
1FF
100
AcDbEntity
8
1
62
256
6
ByLayer
370
18
48
1
60
0
100
AcDbSpline
70
4
71
3
72
8
73
4
40
0
40
0
40
0
40
0
40
1
40
1
40
1
40
1
41
1
10
34.3494997995888
20
-1.3023015945557
30
0
41
1
10
34.360926701545
20
-1.2846770760992
30
0
41
1
10
34.3723986757779
20
-1.26677457834975
30
0
41
1
10
34.3839238683469
20
-1.24859506847477
30
0
0
SPLINE
5
200
100
AcDbEntity
8
1
62
256
6
ByLayer
370
18
48
1
60
0
100
AcDbSpline
70
4
71
3
72
26
73
22
40
0
40
0
40
0
40
0
40
0.125
40
0.125
40
0.249999999999999
40
0.249999999999999
40
0.374999999999999
40
0.374999999999999
40
0.499999999999999
40
0.499999999999999
40
0.624999999999998
40
0.624999999999998
40
0.749999999999998
40
0.749999999999998
40
0.812499999999999
40
0.812499999999999
40
0.874999999999999
40
0.874999999999999
40
0.937499999999999
40
0.937499999999999
40
1
40
1
40
1
40
1
41
1
10
34.3839238683469
20
-1.24859506847477
30
0
41
1
10
34.3876028150721
20
-1.24279200289442
30
0
41
1
10
34.3918825208941
20
-1.23785001069155
30
0
41
1
10
34.4013454043927
20
-1.22924245341639
30
0
41
1
10
34.4065854369042
20
-1.22557025099377
30
0
41
1
10
34.4174809202457
20
-1.21962724342725
30
0
41
1
10
34.4231702022551
20
-1.21731529392829
30
0
41
1
10
34.4349856986979
20
-1.21393372189951
30
0
41
1
10
34.4411512433047
20
-1.21287263999261
30
0
41
1
10
34.4534727122502
20
-1.21212245113577
30
0
41
1
10
34.4596756837666
20
-1.21241058951423
30
0
41
1
10
34.4721477930773
20
-1.21447169677643
30
0
41
1
10
34.478450853017
20
-1.21627174682573
30
0
41
1
10
34.4875077418962
20
-1.2202252375194
30
0
41
1
10
34.4904761103672
20
-1.2217546903411
30
0
41
1
10
34.4962940053071
20
-1.22530033189886
30
0
41
1
10
34.4991568446521
20
-1.22733086276185
30
0
41
1
10
34.504574813498
20
-1.23184214516229
30
0
41
1
10
34.5071485422538
20
-1.23433060411171
30
0
41
1
10
34.5119814894068
20
-1.23984899573151
30
0
41
1
10
34.5142500566635
20
-1.24289843568388
30
0
41
1
10
34.5162675536178
20
-1.24619117830227
30
0
0
SPLINE
5
201
100
AcDbEntity
8
1
62
256
6
ByLayer
370
18
48
1
60
0
100
AcDbSpline
70
4
71
3
72
8
73
4
40
0
40
0
40
0
40
0
40
1
40
1
40
1
40
1
41
1
10
34.5162675536178
20
-1.2461911783023
30
0
41
1
10
34.520050849424
20
-1.2523658688327
30
0
41
1
10
34.5238296459515
20
-1.25852345437551
30
0
41
1
10
34.5276041366893
20
-1.26466390087779
30
0
0
SPLINE
5
202
100
AcDbEntity
8
1
62
256
6
ByLayer
370
18
48
1
60
0
100
AcDbSpline
70
4
71
3
72
10
73
6
40
0
40
0
40
0
40
0
40
0.5
40
0.5
40
1
40
1
40
1
40
1
41
1
10
34.5276041366893
20
-1.26466390087779
30
0
41
1
10
34.563178088721
20
-1.25509295598212
30
0
41
1
10
34.598849601997
20
-1.24429835568037
30
0
41
1
10
34.6704146367494
20
-1.22028239648239
30
0
41
1
10
34.7063432983467
20
-1.20705063114039
30
0
41
1
10
34.7425790625842
20
-1.19260039838346
30
0
0
SPLINE
5
203
100
AcDbEntity
8
1
62
256
6
ByLayer
370
18
48
1
60
0
100
AcDbSpline
70
4
71
3
72
31
73
27
40
0
40
0
40
0
40
0
40
0.0312499999999947
40
0.0312499999999947
40
0.0624999999999895
40
0.125
40
0.125
40
0.18750000000001
40
0.18750000000001
40
0.25000000000002
40
0.25000000000002
40
0.37500000000002
40
0.37500000000002
40
0.500000000000021
40
0.500000000000021
40
0.562500000000021
40
0.562500000000021
40
0.625000000000021
40
0.625000000000021
40
0.750000000000019
40
0.750000000000019
40
0.875000000000018
40
0.875000000000018
40
0.937500000000009
40
0.937500000000009
40
1
40
1
40
1
40
1
41
1
10
35.2
20
-0.701775371489902
30
0
41
1
10
35.1949505526938
20
-0.705687147099127
30
0
41
1
10
35.1898396810479
20
-0.709734868730607
30
0
41
1
10
35.1796340974926
20
-0.717981783100669
30
0
41
1
10
35.1642954356574
20
-0.730621710337346
30
0
41
1
10
35.1488864355341
20
-0.744003978980345
30
0
41
1
10
35.1282949518404
20
-0.762428195481874
30
0
41
1
10
35.117975868527
20
-0.771931607713555
30
0
41
1
10
35.0972931212523
20
-0.791475933533007
30
0
41
1
10
35.0868983296945
20
-0.801548615783787
30
0
41
1
10
35.0561150162406
20
-0.832032409133433
30
0
41
1
10
35.0359850049775
20
-0.852832879695484
30
0
41
1
10
34.9962883907943
20
-0.895149412782558
30
0
41
1
10
34.9767226436171
20
-0.916666639450398
30
0
41
1
10
34.9476658614306
20
-0.949345356851921
30
0
41
1
10
34.9380138913146
20
-0.960324119534505
30
0
41
1
10
34.91901193598
20
-0.982140365339859
30
0
41
1
10
34.9096349827818
20
-0.993008132667967
30
0
41
1
10
34.8818263203377
20
-1.02547552464441
30
0
41
1
10
34.8637140177249
20
-1.04693936445497
30
0
41
1
10
34.8281384120714
20
-1.08942692173719
30
0
41
1
10
34.810673260691
20
-1.11045162935665
30
0
41
1
10
34.7848678475206
20
-1.14159377687165
30
0
41
1
10
34.7763343922542
20
-1.1519078383111
30
0
41
1
10
34.7593786381025
20
-1.17239395973365
30
0
41
1
10
34.7509620771788
20
-1.18254809590206
30
0
41
1
10
34.7425790625826
20
-1.1926003983707
30
0
0
SPLINE
5
204
100
AcDbEntity
8
SK1
62
256
6
ByLayer
370
18
48
1
60
0
100
AcDbSpline
70
4
71
3
72
22
73
18
40
0
40
0
40
0
40
0
40
0.124981924817898
40
0.124981924817898
40
0.249963849635796
40
0.249963849635796
40
0.499927699271591
40
0.499927699271591
40
0.624909624089489
40
0.624909624089489
40
0.687400586498438
40
0.687400586498438
40
0.749891548907387
40
0.749891548907387
40
0.999855398543183
40
0.999855398543183
40
1
40
1
40
1
40
1
41
1
10
-20
20
1.34999999999997
30
0
41
1
10
-20.0227233080499
20
1.34999999999997
30
0
41
1
10
-20.0448914469382
20
1.34999999999997
30
0
41
1
10
-20.0877266864706
20
1.34999999999997
30
0
41
1
10
-20.1083284459351
20
1.34999999999997
30
0
41
1
10
-20.167230967575
20
1.34999999999997
30
0
41
1
10
-20.202663797918
20
1.34999999999997
30
0
41
1
10
-20.2476748963658
20
1.34999999999997
30
0
41
1
10
-20.2613137295386
20
1.34999999999997
30
0
41
1
10
-20.279347296802
20
1.34999999999997
30
0
41
1
10
-20.284953806971
20
1.34999999999997
30
0
41
1
10
-20.2952881054335
20
1.34999999999997
30
0
41
1
10
-20.3000257521431
20
1.34999999999997
30
0
41
1
10
-20.3212026648993
20
1.34999999999997
30
0
41
1
10
-20.3299903883143
20
1.34999999999997
30
0
41
1
10
-20.3299989989658
20
1.34999999999997
30
0
41
1
10
-20.3300010003429
20
1.34999999999997
30
0
41
1
10
-20.32999900132
20
1.34999999999997
30
0
0
SPLINE
5
205
100
AcDbEntity
8
SK1
62
256
6
ByLayer
370
18
48
1
60
0
100
AcDbSpline
70
4
71
3
72
22
73
18
40
0
40
0
40
0
40
0
40
0.0001456859361099
40
0.0001456859361099
40
0.250109264452083
40
0.250109264452083
40
0.312600159081076
40
0.312600159081076
40
0.375091053710069
40
0.375091053710069
40
0.500072842968055
40
0.500072842968055
40
0.750036421484028
40
0.750036421484028
40
0.875018210742014
40
0.875018210742014
40
1
40
1
40
1
40
1
41
1
10
-20.3299990013351
20
-1.35000000000002
30
0
41
1
10
-20.3300010003823
20
-1.35000000000002
30
0
41
1
10
-20.3299989990295
20
-1.35000000000002
30
0
41
1
10
-20.3299903883143
20
-1.35000000000002
30
0
41
1
10
-20.3212026648993
20
-1.35000000000002
30
0
41
1
10
-20.3000257521431
20
-1.35000000000002
30
0
41
1
10
-20.2952881054335
20
-1.35000000000002
30
0
41
1
10
-20.284953806971
20
-1.35000000000002
30
0
41
1
10
-20.279347296802
20
-1.35000000000002
30
0
41
1
10
-20.2613137295386
20
-1.35000000000002
30
0
41
1
10
-20.2476748963658
20
-1.35000000000002
30
0
41
1
10
-20.2026637979179
20
-1.35000000000002
30
0
41
1
10
-20.167230967575
20
-1.35000000000002
30
0
41
1
10
-20.1083284459351
20
-1.35000000000002
30
0
41
1
10
-20.0877266864706
20
-1.35000000000002
30
0
41
1
10
-20.0448914469382
20
-1.35000000000002
30
0
41
1
10
-20.0227233080499
20
-1.35000000000002
30
0
41
1
10
-20
20
-1.35000000000002
30
0
0
SPLINE
5
206
100
AcDbEntity
8
SK1
62
256
6
ByLayer
370
18
48
1
60
0
100
AcDbSpline
70
4
71
3
72
32
73
28
40
0
40
0
40
0
40
0
40
0.0625000000000001
40
0.0625000000000001
40
0.125
40
0.125
40
0.25
40
0.25
40
0.375
40
0.375
40
0.4375
40
0.4375
40
0.5
40
0.5
40
0.625000000000001
40
0.625000000000001
40
0.656250000000001
40
0.656250000000001
40
0.687500000000001
40
0.687500000000001
40
0.75
40
0.75
40
0.875
40
0.875
40
0.9375
40
0.9375
40
1
40
1
40
1
40
1
41
1
10
-20
20
-0.999949998749969
30
0
41
1
10
-20.0226089992037
20
-0.961964980789418
30
0
41
1
10
-20.0446414325945
20
-0.923556954209289
30
0
41
1
10
-20.0873065833473
20
-0.845713972410636
30
0
41
1
10
-20.1079538208723
20
-0.80625143015169
30
0
41
1
10
-20.167235889623
20
-0.686151565538751
30
0
41
1
10
-20.2027721025258
20
-0.604757310331763
30
0
41
1
10
-20.262764019981
20
-0.438277271124207
30
0
41
1
10
-20.2872132552966
20
-0.353189331863888
30
0
41
1
10
-20.312577717807
20
-0.221789640917564
30
0
41
1
10
-20.3191405381361
20
-0.177169266100549
30
0
41
1
10
-20.3278289032073
20
-0.0884146419300009
30
0
41
1
10
-20.3300047939188
20
-0.0441017000041199
30
0
41
1
10
-20.3299903883143
20
0.0886429108702202
30
0
41
1
10
-20.3212026648993
20
0.176878721756935
30
0
41
1
10
-20.3000257521431
20
0.286870907411526
30
0
41
1
10
-20.2952881054335
20
0.308824177666793
30
0
41
1
10
-20.284953806971
20
0.352277195461767
30
0
41
1
10
-20.279347296802
20
0.373830967874341
30
0
41
1
10
-20.2613137295386
20
0.4380149817747
30
0
41
1
10
-20.2476748963658
20
0.48016880871964
30
0
41
1
10
-20.2026637979179
20
0.605020481841706
30
0
41
1
10
-20.167230967575
20
0.686121900852925
30
0
41
1
10
-20.1083284459351
20
0.80551210617773
30
0
41
1
10
-20.0877266864706
20
0.844928431198611
30
0
41
1
10
-20.0448914469382
20
0.923119563851714
30
0
41
1
10
-20.0227233080499
20
0.96177293232509
30
0
41
1
10
-20
20
0.999949998749941
30
0
0
SPLINE
5
207
100
AcDbEntity
8
1
62
256
6
ByLayer
370
18
48
1
60
0
100
AcDbSpline
70
4
71
2
72
6
73
3
40
0
40
0
40
0
40
1
40
1
40
1
41
1
10
34.3597571529802
20
-1.30101579665583
30
0
41
1
10
34.3772508709042
20
-1.27096394262446
30
0
41
1
10
34.394752170897
20
-1.24093585948498
30
0
0
SPLINE
5
208
100
AcDbEntity
8
1
62
256
6
ByLayer
370
18
48
1
60
0
100
AcDbSpline
70
4
71
1
72
4
73
2
40
0
40
0
40
1
40
1
41
1
10
34.0910352819699
20
-1.37716406500778
30
0
41
1
10
34.3538731479994
20
-1.30942008508606
30
0
0
SPLINE
5
209
100
AcDbEntity
8
1
62
256
6
ByLayer
370
18
48
1
60
0
100
AcDbSpline
70
4
71
2
72
6
73
3
40
0
40
0
40
0
40
1
40
1
40
1
41
1
10
34.0026653816215
20
-1.24250374115556
30
0
41
1
10
34.0360052134202
20
-1.29984795066224
30
0
41
1
10
34.0693282749635
20
-1.35724952431801
30
0
0
SPLINE
5
20A
100
AcDbEntity
8
1
62
256
6
ByLayer
370
18
48
1
60
0
100
AcDbSpline
70
4
71
1
72
4
73
2
40
0
40
0
40
1
40
1
41
1
10
33.0509946200788
20
1.40335019721525
30
0
41
1
10
32.9734630542052
20
1.53694641276124
30
0
0
SPLINE
5
20B
100
AcDbEntity
8
1
62
256
6
ByLayer
370
18
48
1
60
0
100
AcDbSpline
70
4
71
1
72
4
73
2
40
0
40
0
40
1
40
1
41
1
10
30.1476933542746
20
-1.49241512908986
30
0
41
1
10
30.1733332223402
20
-1.53663390843985
30
0
0
SPLINE
5
20C
100
AcDbEntity
8
1
62
256
6
ByLayer
370
18
48
1
60
0
100
AcDbSpline
70
4
71
2
72
6
73
3
40
0
40
0
40
0
40
1
40
1
40
1
41
1
10
31.9219657386261
20
1.53389711846171
30
0
41
1
10
31.8369433622539
20
1.38728537001884
30
0
41
1
10
31.7518517352102
20
1.24099277383655
30
0
0
SPLINE
5
20D
100
AcDbEntity
8
1
62
256
6
ByLayer
370
18
48
1
60
0
100
AcDbSpline
70
4
71
2
72
6
73
3
40
0
40
0
40
0
40
1
40
1
40
1
41
1
10
31.2233430284723
20
-1.53615698233679
30
0
41
1
10
31.3086990987078
20
-1.38911333817296
30
0
41
1
10
31.3941770914463
20
-1.24234078286713
30
0
0
SPLINE
5
20E
100
AcDbEntity
8
1
62
256
6
ByLayer
370
18
48
1
60
0
100
AcDbSpline
70
4
71
2
72
6
73
3
40
0
40
0
40
0
40
1
40
1
40
1
41
1
10
28.923681055165
20
1.53780453708688
30
0
41
1
10
28.8385679611447
20
1.3908332739347
30
0
41
1
10
28.7533443391575
20
1.24405237172888
30
0
0
SPLINE
5
20F
100
AcDbEntity
8
1
62
256
6
ByLayer
370
18
48
1
60
0
100
AcDbSpline
70
4
71
2
72
6
73
3
40
0
40
0
40
0
40
1
40
1
40
1
41
1
10
32.1443616544017
20
1.24239913084642
30
0
41
1
10
32.0585349548295
20
1.38989259712525
30
0
41
1
10
31.9729601660868
20
1.5375004407604
30
0
0
SPLINE
5
210
100
AcDbEntity
8
1
62
256
6
ByLayer
370
18
48
1
60
0
100
AcDbSpline
70
4
71
2
72
6
73
3
40
0
40
0
40
0
40
1
40
1
40
1
41
1
10
31.00600798064
20
-1.24684543453398
30
0
41
1
10
31.0910234973142
20
-1.39349007326669
30
0
41
1
10
31.1759781549349
20
-1.54024946998695
30
0
0
SPLINE
5
211
100
AcDbEntity
8
1
62
256
6
ByLayer
370
18
48
1
60
0
100
AcDbSpline
70
4
71
3
72
11
73
7
40
0
40
0
40
0
40
0
40
0.245244956105458
40
0.498589265388243
40
0.752620098547005
40
1
40
1
40
1
40
1
41
1
10
32.2525356221748
20
1.24276337624738
30
0
41
1
10
32.2480019945964
20
1.2343687952293
30
0
41
1
10
32.2350040754264
20
1.22155465832211
30
0
41
1
10
32.1978071141053
20
1.20966705663315
30
0
41
1
10
32.1606606225075
20
1.22229829939025
30
0
41
1
10
32.1477150205392
20
1.2355641967799
30
0
41
1
10
32.1432319064253
20
1.24421608880192
30
0
0
SPLINE
5
212
100
AcDbEntity
8
1
62
256
6
ByLayer
370
18
48
1
60
0
100
AcDbSpline
70
4
71
3
72
11
73
7
40
0
40
0
40
0
40
0
40
0.246538960133401
40
0.499329160537807
40
0.752397343353376
40
1
40
1
40
1
40
1
41
1
10
30.8946870478218
20
-1.24241451552709
30
0
41
1
10
30.8990347169092
20
-1.23429345744552
30
0
41
1
10
30.9116997860582
20
-1.22186863922016
30
0
41
1
10
30.9485617667514
20
-1.2096887956308
30
0
41
1
10
30.9854027276972
20
-1.22144287564464
30
0
41
1
10
30.9980220383541
20
-1.23351389376242
30
0
41
1
10
31.0023319172931
20
-1.24146915380763
30
0
0
SPLINE
5
213
100
AcDbEntity
8
1
62
256
6
ByLayer
370
18
48
1
60
0
100
AcDbSpline
70
4
71
3
72
11
73
7
40
0
40
0
40
0
40
0
40
0.245770008600589
40
0.498063093638583
40
0.75141018707832
40
1
40
1
40
1
40
1
41
1
10
29.25266006095
20
1.24223562067698
30
0
41
1
10
29.2483153705116
20
1.23411777424562
30
0
41
1
10
29.2356708981376
20
1.22170652434164
30
0
41
1
10
29.1987832864843
20
1.20962824810414
30
0
41
1
10
29.1620087671626
20
1.22156851698441
30
0
41
1
10
29.1494298079887
20
1.23363723762188
30
0
41
1
10
29.1451524734888
20
1.24159436044377
30
0
0
SPLINE
5
214
100
AcDbEntity
8
1
62
256
6
ByLayer
370
18
48
1
60
0
100
AcDbSpline
70
4
71
3
72
11
73
7
40
0
40
0
40
0
40
0
40
0.2483550612608
40
0.501260872760871
40
0.753523278551538
40
1
40
1
40
1
40
1
41
1
10
33.8944778869771
20
-1.24179892867389
30
0
41
1
10
33.8987206680202
20
-1.23376840516045
30
0
41
1
10
33.911229327128
20
-1.22152838043672
30
0
41
1
10
33.9479675203472
20
-1.20923915343039
30
0
41
1
10
33.9847645637106
20
-1.22089719520122
30
0
41
1
10
33.9973187761422
20
-1.23280161592086
30
0
41
1
10
34.0016072334557
20
-1.2406462917719
30
0
0
SPLINE
5
215
100
AcDbEntity
8
1
62
256
6
ByLayer
370
18
48
1
60
0
100
AcDbSpline
70
4
71
2
72
6
73
3
40
0
40
0
40
0
40
1
40
1
40
1
41
1
10
32.4235376727576
20
1.53758692379961
30
0
41
1
10
32.3380587683102
20
1.38998816398754
30
0
41
1
10
32.2524108883525
20
1.24254828899498
30
0
0
SPLINE
5
216
100
AcDbEntity
8
1
62
256
6
ByLayer
370
18
48
1
60
0
100
AcDbSpline
70
4
71
2
72
6
73
3
40
0
40
0
40
0
40
1
40
1
40
1
41
1
10
33.7690529057833
20
-1.45746926435189
30
0
41
1
10
33.8318751807113
20
-1.3492820174759
30
0
41
1
10
33.8947785561185
20
-1.24127360912681
30
0
0
SPLINE
5
217
100
AcDbEntity
8
1
62
256
6
ByLayer
370
18
48
1
60
0
100
AcDbSpline
70
4
71
2
72
6
73
3
40
0
40
0
40
0
40
1
40
1
40
1
41
1
10
32.6445059272318
20
1.24225595797407
30
0
41
1
10
32.5590288422496
20
1.38906110944868
30
0
41
1
10
32.4737295282869
20
1.53608174936755
30
0
0
SPLINE
5
218
100
AcDbEntity
8
1
62
256
6
ByLayer
370
18
48
1
60
0
100
AcDbSpline
70
4
71
2
72
6
73
3
40
0
40
0
40
0
40
1
40
1
40
1
41
1
10
30.7240385642881
20
-1.53606035062199
30
0
41
1
10
30.8097390957399
20
-1.38822181539217
30
0
41
1
10
30.8956710136445
20
-1.24062080676296
30
0
0
SPLINE
5
219
100
AcDbEntity
8
1
62
256
6
ByLayer
370
18
48
1
60
0
100
AcDbSpline
70
4
71
3
72
11
73
7
40
0
40
0
40
0
40
0
40
0.243686151397992
40
0.499588757527727
40
0.755792917934771
40
1
40
1
40
1
40
1
41
1
10
32.75715463628
20
1.24771927980947
30
0
41
1
10
32.7521998326277
20
1.23785434735865
30
0
41
1
10
32.7384254259159
20
1.222378228872
30
0
41
1
10
32.7005906266206
20
1.20864851468073
30
0
41
1
10
32.6627996308233
20
1.2201161239384
30
0
41
1
10
32.6490198895337
20
1.23393193943409
30
0
41
1
10
32.6440668361303
20
1.24296953549643
30
0
0
SPLINE
5
21A
100
AcDbEntity
8
1
62
256
6
ByLayer
370
18
48
1
60
0
100
AcDbSpline
70
4
71
2
72
6
73
3
40
0
40
0
40
0
40
1
40
1
40
1
41
1
10
29.4226710993519
20
1.53513762600983
30
0
41
1
10
29.3372625624874
20
1.38766218769288
30
0
41
1
10
29.2516455873967
20
1.24038757533904
30
0
0
SPLINE
5
21B
100
AcDbEntity
8
1
62
256
6
ByLayer
370
18
48
1
60
0
100
AcDbSpline
70
4
71
2
72
6
73
3
40
0
40
0
40
0
40
1
40
1
40
1
41
1
10
29.645455249982
20
1.2405094649225
30
0
41
1
10
29.559304450361
20
1.3884503390199
30
0
41
1
10
29.4735343552374
20
1.53628167788867
30
0
0
SPLINE
5
21C
100
AcDbEntity
8
1
62
256
6
ByLayer
370
18
48
1
60
0
100
AcDbSpline
70
4
71
3
72
13
73
9
40
0
40
0
40
0
40
0
40
0.240927430632329
40
0.369224102926675
40
0.500168430633553
40
0.631065346654928
40
0.759244121216739
40
1
40
1
40
1
40
1
41
1
10
30.3875095351349
20
-1.24937969865695
30
0
41
1
10
30.392578527787
20
-1.23918428304654
30
0
41
1
10
30.403507629894
20
-1.22671017709914
30
0
41
1
10
30.4259177750321
20
-1.2151463731351
30
0
41
1
10
30.445347518613
20
-1.21160962358104
30
0
41
1
10
30.4647776760078
20
-1.21365691523468
30
0
41
1
10
30.4871920354777
20
-1.22327305024044
30
0
41
1
10
30.4981106078186
20
-1.23417400954085
30
0
41
1
10
30.5031707464166
20
-1.24329664393832
30
0
0
SPLINE
5
21D
100
AcDbEntity
8
1
62
256
6
ByLayer
370
18
48
1
60
0
100
AcDbSpline
70
4
71
3
72
13
73
9
40
0
40
0
40
0
40
0
40
0.240253249529103
40
0.36839948365267
40
0.499370048548351
40
0.630449497041293
40
0.758894493264437
40
1
40
1
40
1
40
1
41
1
10
29.7601253018675
20
1.24909628327842
30
0
41
1
10
29.7550356984625
20
1.23882807313282
30
0
41
1
10
29.74408821785
20
1.22625242336872
30
0
41
1
10
29.7216592507518
20
1.21460180712865
30
0
41
1
10
29.7022122551146
20
1.21100188425282
30
0
41
1
10
29.6827662003458
20
1.21299143970663
30
0
41
1
10
29.6603373115595
20
1.22252890928488
30
0
41
1
10
29.6493870844157
20
1.2333963339168
30
0
41
1
10
29.644302373808
20
1.24250173988369
30
0
0
SPLINE
5
21E
100
AcDbEntity
8
1
62
256
6
ByLayer
370
18
48
1
60
0
100
AcDbSpline
70
4
71
2
72
6
73
3
40
0
40
0
40
0
40
1
40
1
40
1
41
1
10
33.5026887826714
20
-1.24211899970081
30
0
41
1
10
33.5758404258492
20
-1.36793264473729
30
0
41
1
10
33.6487038234753
20
-1.49349014923584
30
0
0
SPLINE
5
21F
100
AcDbEntity
8
1
62
256
6
ByLayer
370
18
48
1
60
0
100
AcDbSpline
70
4
71
1
72
4
73
2
40
0
40
0
40
1
40
1
41
1
10
33.6560692126237
20
-1.48939128697899
30
0
41
1
10
33.7786506639913
20
-1.45779476789943
30
0
0
SPLINE
5
220
100
AcDbEntity
8
1
62
256
6
ByLayer
370
18
48
1
60
0
100
AcDbSpline
70
4
71
2
72
6
73
3
40
0
40
0
40
0
40
1
40
1
40
1
41
1
10
33.4532777890835
20
-1.21718398695518
30
0
41
1
10
33.4889864066143
20
-1.21227714190587
30
0
41
1
10
33.5013101187651
20
-1.2396449830463
30
0
0
SPLINE
5
221
100
AcDbEntity
8
1
62
256
6
ByLayer
370
18
48
1
60
0
100
AcDbSpline
70
4
71
3
72
8
73
4
40
0
40
0
40
0
40
0
40
1
40
1
40
1
40
1
41
1
10
28.8170533782053
20
0.137564918149451
30
0
41
1
10
28.8341903934213
20
0.126780161715317
30
0
41
1
10
28.8513911632996
20
0.115722496008232
30
0
41
1
10
28.8686570460329
20
0.104455096957622
30
0
0
SPLINE
5
222
100
AcDbEntity
8
1
62
256
6
ByLayer
370
18
48
1
60
0
100
AcDbSpline
70
4
71
1
72
4
73
2
40
0
40
0
40
1
40
1
41
1
10
28.8686570460329
20
0.104455096957622
30
0
41
1
10
28.8811714167002
20
0.0965516640527539
30
0
0
SPLINE
5
223
100
AcDbEntity
8
1
62
256
6
ByLayer
370
18
48
1
60
0
100
AcDbSpline
70
4
71
3
72
8
73
4
40
0
40
0
40
0
40
0
40
1
40
1
40
1
40
1
41
1
10
34.4064835243933
20
-0.122471724480675
30
0
41
1
10
34.3564110430322
20
-0.0931050918497363
30
0
41
1
10
34.3062431498698
20
-0.062830706293056
30
0
41
1
10
34.2561525203596
20
-0.0314800595782856
30
0
0
SPLINE
5
224
100
AcDbEntity
8
1
62
256
6
ByLayer
370
18
48
1
60
0
100
AcDbSpline
70
4
71
2
72
6
73
3
40
0
40
0
40
0
40
1
40
1
40
1
41
1
10
29.1414337481715
20
1.24691793869636
30
0
41
1
10
29.0562706183835
20
1.39361032681009
30
0
41
1
10
28.9711623442772
20
1.54046815121796
30
0
0
SPLINE
5
225
100
AcDbEntity
8
1
62
256
6
ByLayer
370
18
48
1
60
0
100
AcDbSpline
70
4
71
2
72
6
73
3
40
0
40
0
40
0
40
1
40
1
40
1
41
1
10
34.3962429794737
20
-1.23811703973206
30
0
41
1
10
34.4013252997701
20
-1.22533794879052
30
0
41
1
10
34.4142086463766
20
-1.2201909643785
30
0
0
SPLINE
5
226
100
AcDbEntity
8
1
62
256
6
ByLayer
370
18
48
1
60
0
100
AcDbSpline
70
4
71
2
72
6
73
3
40
0
40
0
40
0
40
1
40
1
40
1
41
1
10
34.4277511245895
20
-1.21706682011478
30
0
41
1
10
34.4328672238434
20
-1.21656171306512
30
0
41
1
10
34.4387350473623
20
-1.21679205279429
30
0
0
SPLINE
5
227
100
AcDbEntity
8
1
62
256
6
ByLayer
370
18
48
1
60
0
100
AcDbSpline
70
4
71
2
72
6
73
3
40
0
40
0
40
0
40
1
40
1
40
1
41
1
10
30.5024781771818
20
-1.24215228133232
30
0
41
1
10
30.5879456073033
20
-1.38922569032474
30
0
41
1
10
30.6732175426541
20
-1.53642005181672
30
0
0
LINE
5
7F
100
AcDbEntity
8
80
62
256
6
ByLayer
370
18
48
1
60
0
100
AcDbLine
10
0
20
0
30
0
11
-5
21
0
31
0
39
0
210
0
220
0
230
1
0
LINE
5
80
100
AcDbEntity
8
81
62
256
6
ByLayer
370
18
48
1
60
0
100
AcDbLine
10
35.2
20
0
30
0
11
40.2
21
0
31
0
39
0
210
0
220
0
230
1
0
LINE
5
81
100
AcDbEntity
8
4
62
256
6
ByLayer
370
18
48
0.05
60
0
100
AcDbLine
10
0
20
0
30
0
11
35.2
21
0
31
0
39
0
210
0
220
0
230
1
0
LINE
5
83
100
AcDbEntity
8
SK4
62
256
6
ByLayer
370
18
48
0.05
60
0
100
AcDbLine
10
-21
20
0
30
0
11
35.2
21
0
31
0
39
0
210
0
220
0
230
1
0
LINE
5
85
100
AcDbEntity
8
1
62
256
6
ByLayer
370
18
48
1
60
0
100
AcDbLine
10
0
20
1.75
30
0
11
0
21
-1.75
31
0
39
0
210
0
220
0
230
1
0
LINE
5
86
100
AcDbEntity
8
1
62
256
6
ByLayer
370
18
48
1
60
0
100
AcDbLine
10
31.396616
20
-1.237907
30
0
11
31.393978
21
-1.242653
31
0
39
0
210
0
220
0
230
1
0
LINE
5
87
100
AcDbEntity
8
1
62
256
6
ByLayer
370
13
48
1
60
0
100
AcDbLine
10
31.393978
20
-1.242653
30
0
11
31.388954
21
-1.247994
31
0
39
0
210
0
220
0
230
1
0
LINE
5
88
100
AcDbEntity
8
1
62
256
6
ByLayer
370
13
48
1
60
0
100
AcDbLine
10
28.758365
20
1.249343
30
0
11
28.753424
21
1.244176
31
0
39
0
210
0
220
0
230
1
0
LINE
5
89
100
AcDbEntity
8
1
62
256
6
ByLayer
370
18
48
1
60
0
100
AcDbLine
10
34.083426
20
-1.376233
30
0
11
34.088842
21
-1.377717
31
0
39
0
210
0
220
0
230
1
0
LINE
5
8A
100
AcDbEntity
8
1
62
256
6
ByLayer
370
18
48
1
60
0
100
AcDbLine
10
31.006014
20
-1.246852
30
0
11
31.003827
21
-1.243975
31
0
39
0
210
0
220
0
230
1
0
LINE
5
8B
100
AcDbEntity
8
1
62
256
6
ByLayer
370
18
48
1
60
0
100
AcDbLine
10
29.143606
20
1.244143
30
0
11
29.141431
21
1.246921
31
0
39
0
210
0
220
0
230
1
0
LINE
5
8C
100
AcDbEntity
8
1
62
256
6
ByLayer
370
18
48
1
60
0
100
AcDbLine
10
32.644605
20
1.242089
30
0
11
32.642411
21
1.245321
31
0
39
0
210
0
220
0
230
1
0
LINE
5
8D
100
AcDbEntity
8
1
62
256
6
ByLayer
370
18
48
1
60
0
100
AcDbLine
10
33.651728
20
-1.48992
30
0
11
33.655182
21
-1.489621
31
0
39
0
210
0
220
0
230
1
0
LINE
5
8E
100
AcDbEntity
8
1
62
256
6
ByLayer
370
18
48
1
60
0
100
AcDbLine
10
31.929203
20
1.540347
30
0
11
31.935516
21
1.53539
31
0
39
0
210
0
220
0
230
1
0
LINE
5
8F
100
AcDbEntity
8
1
62
256
6
ByLayer
370
13
48
1
60
0
100
AcDbLine
10
28.040188
20
-1.14355
30
0
11
28.040188
21
-1.135173
31
0
39
0
210
0
220
0
230
1
0
LINE
5
90
100
AcDbEntity
8
1
62
256
6
ByLayer
370
13
48
1
60
0
100
AcDbLine
10
17.043744
20
-1.14355
30
0
11
17.043744
21
1.14355
31
0
39
0
210
0
220
0
230
1
0
LINE
5
91
100
AcDbEntity
8
1
62
256
6
ByLayer
370
13
48
1
60
0
100
AcDbLine
10
28.040188
20
0.028108
30
0
11
28.040188
21
0.687236
31
0
39
0
210
0
220
0
230
1
0
LINE
5
92
100
AcDbEntity
8
1
62
256
6
ByLayer
370
13
48
1
60
0
100
AcDbLine
10
28.290188
20
0.564355
30
0
11
28.290188
21
-0.193846
31
0
39
0
210
0
220
0
230
1
0
LINE
5
93
100
AcDbEntity
8
1
62
256
6
ByLayer
370
18
48
1
60
0
100
AcDbLine
10
35.2
20
0.08716
30
0
11
35.2
21
-0.511185
31
0
39
0
210
0
220
0
230
1
0
LINE
5
94
100
AcDbEntity
8
1
62
256
6
ByLayer
370
18
48
1
60
0
100
AcDbLine
10
35.2
20
-0.511185
30
0
11
35.2
21
-0.505441
31
0
39
0
210
0
220
0
230
1
0
LINE
5
95
100
AcDbEntity
8
1
62
256
6
ByLayer
370
13
48
1
60
0
100
AcDbLine
10
16.95692
20
1.151146
30
0
11
16.95692
21
-1.151146
31
0
39
0
210
0
220
0
230
1
0
LINE
5
96
100
AcDbEntity
8
1
62
256
6
ByLayer
370
18
48
1
60
0
100
AcDbLine
10
13.560651
20
1.75
30
0
11
13.560651
21
-1.75
31
0
39
0
210
0
220
0
230
1
0
LINE
5
97
100
AcDbEntity
8
SK1
62
256
6
ByLayer
370
18
48
1
60
0
100
AcDbLine
10
-21
20
0.68
30
0
11
-21
21
-0.68
31
0
39
0
210
0
220
0
230
1
0
LINE
5
99
100
AcDbEntity
8
SK1
62
256
6
ByLayer
370
18
48
1
60
0
100
AcDbLine
10
-15
20
0.99995
30
0
11
-15
21
-0.99995
31
0
39
0
210
0
220
0
230
1
0
LINE
5
9A
100
AcDbEntity
8
SK1
62
256
6
ByLayer
370
18
48
1
60
0
100
AcDbLine
10
-14.67
20
1.68
30
0
11
-15
21
1.35
31
0
39
0
210
0
220
0
230
1
0
LINE
5
9B
100
AcDbEntity
8
SK1
62
256
6
ByLayer
370
18
48
1
60
0
100
AcDbLine
10
-20
20
1.35
30
0
11
-15
21
1.35
31
0
39
0
210
0
220
0
230
1
0
LINE
5
9C
100
AcDbEntity
8
SK1
62
256
6
ByLayer
370
18
48
1
60
0
100
AcDbLine
10
-20
20
0.99995
30
0
11
-20
21
1.35
31
0
39
0
210
0
220
0
230
1
0
LINE
5
9D
100
AcDbEntity
8
SK1
62
256
6
ByLayer
370
18
48
1
60
0
100
AcDbLine
10
-15
20
0.99995
30
0
11
-20
21
0.99995
31
0
39
0
210
0
220
0
230
1
0
LINE
5
9E
100
AcDbEntity
8
SK1
62
256
6
ByLayer
370
18
48
1
60
0
100
AcDbLine
10
-20
20
-0.99995
30
0
11
-15
21
-0.99995
31
0
39
0
210
0
220
0
230
1
0
LINE
5
9F
100
AcDbEntity
8
SK1
62
256
6
ByLayer
370
18
48
1
60
0
100
AcDbLine
10
-20
20
-1.35
30
0
11
-20
21
-0.99995
31
0
39
0
210
0
220
0
230
1
0
LINE
5
A0
100
AcDbEntity
8
SK1
62
256
6
ByLayer
370
18
48
1
60
0
100
AcDbLine
10
-15
20
-1.35
30
0
11
-20
21
-1.35
31
0
39
0
210
0
220
0
230
1
0
LINE
5
A1
100
AcDbEntity
8
SK1
62
256
6
ByLayer
370
18
48
1
60
0
100
AcDbLine
10
-15
20
-1.35
30
0
11
-14.67
21
-1.68
31
0
39
0
210
0
220
0
230
1
0
LINE
5
A2
100
AcDbEntity
8
SK1
62
256
6
ByLayer
370
18
48
1
60
0
100
AcDbLine
10
0
20
1.75
30
0
11
0
21
-1.75
31
0
39
0
210
0
220
0
230
1
0
LINE
5
A3
100
AcDbEntity
8
SK1
62
256
6
ByLayer
370
18
48
1
60
0
100
AcDbLine
10
-14.4
20
1.68
30
0
11
-14.4
21
-1.68
31
0
39
0
210
0
220
0
230
1
0
LINE
5
A4
100
AcDbEntity
8
SK1
62
256
6
ByLayer
370
18
48
1
60
0
100
AcDbLine
10
-14.33
20
-1.75
30
0
11
-14.33
21
1.75
31
0
39
0
210
0
220
0
230
1
0
LINE
5
A5
100
AcDbEntity
8
1
62
256
6
ByLayer
370
18
48
1
60
0
100
AcDbLine
10
13.560651
20
1.75
30
0
11
0
21
1.75
31
0
39
0
210
0
220
0
230
1
0
LINE
5
A6
100
AcDbEntity
8
1
62
256
6
ByLayer
370
18
48
1
60
0
100
AcDbLine
10
0
20
-1.75
30
0
11
13.560651
21
-1.75
31
0
39
0
210
0
220
0
230
1
0
LINE
5
A7
100
AcDbEntity
8
1
62
256
6
ByLayer
370
18
48
1
60
0
100
AcDbLine
10
31.733446
20
1.220456
30
0
11
31.732781
21
1.220201
31
0
39
0
210
0
220
0
230
1
0
LINE
5
A8
100
AcDbEntity
8
1
62
256
6
ByLayer
370
18
48
1
60
0
100
AcDbLine
10
33.762919
20
-1.468033
30
0
11
33.767144
21
-1.460756
31
0
39
0
210
0
220
0
230
1
0
LINE
5
A9
100
AcDbEntity
8
1
62
256
6
ByLayer
370
18
48
1
60
0
100
AcDbLine
10
35.2
20
0.765
30
0
11
35.009997
21
0.955003
31
0
39
0
210
0
220
0
230
1
0
LINE
5
AA
100
AcDbEntity
8
1
62
256
6
ByLayer
370
18
48
1
60
0
100
AcDbLine
10
31.967792
20
1.540348
30
0
11
31.929164
21
1.540348
31
0
39
0
210
0
220
0
230
1
0
LINE
5
AB
100
AcDbEntity
8
1
62
256
6
ByLayer
370
18
48
1
60
0
100
AcDbLine
10
31.178954
20
-1.540348
30
0
11
31.217407
21
-1.540348
31
0
39
0
210
0
220
0
230
1
0
LINE
5
AC
100
AcDbEntity
8
1
62
256
6
ByLayer
370
18
48
1
60
0
100
AcDbLine
10
28.967845
20
1.540348
30
0
11
28.928965
21
1.540348
31
0
39
0
210
0
220
0
230
1
0
LINE
5
AD
100
AcDbEntity
8
1
62
256
6
ByLayer
370
18
48
1
60
0
100
AcDbLine
10
32.467652
20
1.540348
30
0
11
32.429128
21
1.540348
31
0
39
0
210
0
220
0
230
1
0
LINE
5
AE
100
AcDbEntity
8
1
62
256
6
ByLayer
370
18
48
1
60
0
100
AcDbLine
10
30.679095
20
-1.540348
30
0
11
30.717706
21
-1.540348
31
0
39
0
210
0
220
0
230
1
0
LINE
5
AF
100
AcDbEntity
8
1
62
256
6
ByLayer
370
18
48
1
60
0
100
AcDbLine
10
29.467704
20
1.540348
30
0
11
29.428951
21
1.540348
31
0
39
0
210
0
220
0
230
1
0
LINE
5
B0
100
AcDbEntity
8
1
62
256
6
ByLayer
370
18
48
1
60
0
100
AcDbLine
10
17.043744
20
-1.14355
30
0
11
19.789841
21
-1.14355
31
0
39
0
210
0
220
0
230
1
0
LINE
5
B1
100
AcDbEntity
8
1
62
256
6
ByLayer
370
18
48
1
60
0
100
AcDbLine
10
21.120616
20
-1.14355
30
0
11
22.035725
21
-1.14355
31
0
39
0
210
0
220
0
230
1
0
LINE
5
B2
100
AcDbEntity
8
1
62
256
6
ByLayer
370
18
48
1
60
0
100
AcDbLine
10
24.221839
20
-1.14355
30
0
11
25.127105
21
-1.14355
31
0
39
0
210
0
220
0
230
1
0
LINE
5
B3
100
AcDbEntity
8
1
62
256
6
ByLayer
370
18
48
1
60
0
100
AcDbLine
10
27.305318
20
-1.14355
30
0
11
28.040188
21
-1.14355
31
0
39
0
210
0
220
0
230
1
0
LINE
5
B4
100
AcDbEntity
8
1
62
256
6
ByLayer
370
18
48
1
60
0
100
AcDbLine
10
26.672624
20
1.14355
30
0
11
25.763522
21
1.14355
31
0
39
0
210
0
220
0
230
1
0
LINE
5
B5
100
AcDbEntity
8
1
62
256
6
ByLayer
370
18
48
1
60
0
100
AcDbLine
10
23.581693
20
1.14355
30
0
11
22.679798
21
1.14355
31
0
39
0
210
0
220
0
230
1
0
LINE
5
B6
100
AcDbEntity
8
1
62
256
6
ByLayer
370
18
48
1
60
0
100
AcDbLine
10
20.496544
20
1.14355
30
0
11
17.043744
21
1.14355
31
0
39
0
210
0
220
0
230
1
0
LINE
5
B7
100
AcDbEntity
8
1
62
256
6
ByLayer
370
18
48
1
60
0
100
AcDbLine
10
16.95692
20
1.151146
30
0
11
13.560651
21
1.75
31
0
39
0
210
0
220
0
230
1
0
LINE
5
B8
100
AcDbEntity
8
1
62
256
6
ByLayer
370
18
48
1
60
0
100
AcDbLine
10
13.560651
20
-1.75
30
0
11
16.95692
21
-1.151146
31
0
39
0
210
0
220
0
230
1
0
LINE
5
B9
100
AcDbEntity
8
SK1
62
256
6
ByLayer
370
18
48
1
60
0
100
AcDbLine
10
-21
20
-0.68
30
0
11
-20.33
21
-1.35
31
0
39
0
210
0
220
0
230
1
0
LINE
5
BA
100
AcDbEntity
8
SK1
62
256
6
ByLayer
370
18
48
1
60
0
100
AcDbLine
10
-20.33
20
1.35
30
0
11
-21
21
0.68
31
0
39
0
210
0
220
0
230
1
0
LINE
5
BB
100
AcDbEntity
8
SK1
62
256
6
ByLayer
370
18
48
1
60
0
100
AcDbLine
10
-14.4
20
1.68
30
0
11
-14.67
21
1.68
31
0
39
0
210
0
220
0
230
1
0
LINE
5
BC
100
AcDbEntity
8
SK1
62
256
6
ByLayer
370
18
48
1
60
0
100
AcDbLine
10
-14.67
20
-1.68
30
0
11
-14.4
21
-1.68
31
0
39
0
210
0
220
0
230
1
0
LINE
5
BD
100
AcDbEntity
8
SK1
62
256
6
ByLayer
370
18
48
1
60
0
100
AcDbLine
10
0
20
1.75
30
0
11
-14.33
21
1.75
31
0
39
0
210
0
220
0
230
1
0
LINE
5
BE
100
AcDbEntity
8
SK1
62
256
6
ByLayer
370
18
48
1
60
0
100
AcDbLine
10
-14.33
20
-1.75
30
0
11
0
21
-1.75
31
0
39
0
210
0
220
0
230
1
0
LINE
5
BF
100
AcDbEntity
8
SK1
62
256
6
ByLayer
370
18
48
1
60
0
100
AcDbLine
10
-14.4
20
-1.68
30
0
11
-14.33
21
-1.75
31
0
39
0
210
0
220
0
230
1
0
LINE
5
C0
100
AcDbEntity
8
SK1
62
256
6
ByLayer
370
18
48
1
60
0
100
AcDbLine
10
-14.33
20
1.75
30
0
11
-14.4
21
1.68
31
0
39
0
210
0
220
0
230
1
0
LINE
5
C1
100
AcDbEntity
8
SK2
62
256
6
ByLayer
370
18
48
1
60
0
100
AcDbLine
10
7.615326
20
18.049084
30
0
11
7.615326
21
-9.25
31
0
39
0
210
0
220
0
230
1
0
LINE
5
C3
100
AcDbEntity
8
1
62
256
6
ByLayer
370
18
48
1
60
1
100
AcDbLine
10
7.615326
20
1.75
30
0
11
7.154542
21
5.249998
31
0
39
0
210
0
220
0
230
1
0
LINE
5
C4
100
AcDbEntity
8
1
62
256
6
ByLayer
370
18
48
1
60
1
100
AcDbLine
10
7.154542
20
5.249998
30
0
11
8.076109
21
5.250002
31
0
39
0
210
0
220
0
230
1
0
LINE
5
C5
100
AcDbEntity
8
1
62
256
6
ByLayer
370
18
48
1
60
1
100
AcDbLine
10
8.076109
20
5.250002
30
0
11
7.615326
21
1.75
31
0
39
0
210
0
220
0
230
1
0
LINE
5
C6
100
AcDbEntity
8
1
62
256
6
ByLayer
370
18
48
1
60
1
100
AcDbLine
10
7.615326
20
-1.75
30
0
11
8.076109
21
-5.249998
31
0
39
0
210
0
220
0
230
1
0
LINE
5
C7
100
AcDbEntity
8
1
62
256
6
ByLayer
370
18
48
1
60
1
100
AcDbLine
10
8.076109
20
-5.249998
30
0
11
7.154542
21
-5.250002
31
0
39
0
210
0
220
0
230
1
0
LINE
5
C8
100
AcDbEntity
8
1
62
256
6
ByLayer
370
18
48
1
60
1
100
AcDbLine
10
7.154542
20
-5.250002
30
0
11
7.615326
21
-1.75
31
0
39
0
210
0
220
0
230
1
0
LINE
5
C9
100
AcDbEntity
8
2
62
256
6
ByLayer
370
18
48
1
60
0
100
AcDbLine
10
35
20
-39.040348
30
0
11
-21
21
-39.040348
31
0
39
0
210
0
220
0
230
1
0
LINE
5
CB
100
AcDbEntity
8
2
62
256
6
ByLayer
370
18
48
1
60
0
100
AcDbLine
10
-21
20
-2.2675
30
0
11
-21
21
-41.040348
31
0
39
0
210
0
220
0
230
1
0
LINE
5
CC
100
AcDbEntity
8
2
62
256
6
ByLayer
370
18
48
1
60
0
100
AcDbLine
10
35
20
-3.127848
30
0
11
35
21
-41.040348
31
0
39
0
210
0
220
0
230
1
0
LINE
5
CD
100
AcDbEntity
8
1
62
256
6
ByLayer
370
18
48
1
60
1
100
AcDbLine
10
-21
20
-39.040348
30
0
11
-17.500002
21
-38.579564
31
0
39
0
210
0
220
0
230
1
0
LINE
5
CE
100
AcDbEntity
8
1
62
256
6
ByLayer
370
18
48
1
60
1
100
AcDbLine
10
-17.500002
20
-38.579564
30
0
11
-17.499998
21
-39.501131
31
0
39
0
210
0
220
0
230
1
0
LINE
5
CF
100
AcDbEntity
8
1
62
256
6
ByLayer
370
18
48
1
60
1
100
AcDbLine
10
-17.499998
20
-39.501131
30
0
11
-21
21
-39.040348
31
0
39
0
210
0
220
0
230
1
0
LINE
5
D0
100
AcDbEntity
8
1
62
256
6
ByLayer
370
18
48
1
60
1
100
AcDbLine
10
35
20
-39.040348
30
0
11
31.500002
21
-39.501131
31
0
39
0
210
0
220
0
230
1
0
LINE
5
D1
100
AcDbEntity
8
1
62
256
6
ByLayer
370
18
48
1
60
1
100
AcDbLine
10
31.500002
20
-39.501131
30
0
11
31.499998
21
-38.579564
31
0
39
0
210
0
220
0
230
1
0
LINE
5
D2
100
AcDbEntity
8
1
62
256
6
ByLayer
370
18
48
1
60
1
100
AcDbLine
10
31.499998
20
-38.579564
30
0
11
35
21
-39.040348
31
0
39
0
210
0
220
0
230
1
0
LINE
5
22C
100
AcDbEntity
8
1
62
256
6
ByLayer
370
18
48
1
60
1
100
AcDbLine
10
7.615326
20
1.75
30
0
11
7.154542
21
5.249998
31
0
39
0
210
0
220
0
230
1
0
LINE
5
22D
100
AcDbEntity
8
1
62
256
6
ByLayer
370
18
48
1
60
1
100
AcDbLine
10
7.154542
20
5.249998
30
0
11
8.076109
21
5.250002
31
0
39
0
210
0
220
0
230
1
0
LINE
5
22E
100
AcDbEntity
8
1
62
256
6
ByLayer
370
18
48
1
60
1
100
AcDbLine
10
8.076109
20
5.250002
30
0
11
7.615326
21
1.75
31
0
39
0
210
0
220
0
230
1
0
LINE
5
230
100
AcDbEntity
8
1
62
256
6
ByLayer
370
18
48
1
60
1
100
AcDbLine
10
7.615326
20
-1.75
30
0
11
8.076109
21
-5.249998
31
0
39
0
210
0
220
0
230
1
0
LINE
5
231
100
AcDbEntity
8
1
62
256
6
ByLayer
370
18
48
1
60
1
100
AcDbLine
10
8.076109
20
-5.249998
30
0
11
7.154542
21
-5.250002
31
0
39
0
210
0
220
0
230
1
0
LINE
5
232
100
AcDbEntity
8
1
62
256
6
ByLayer
370
18
48
1
60
1
100
AcDbLine
10
7.154542
20
-5.250002
30
0
11
7.615326
21
-1.75
31
0
39
0
210
0
220
0
230
1
0
LINE
5
235
100
AcDbEntity
8
1
62
256
6
ByLayer
370
18
48
1
60
1
100
AcDbLine
10
-21
20
-39.040348
30
0
11
-17.500002
21
-38.579564
31
0
39
0
210
0
220
0
230
1
0
LINE
5
236
100
AcDbEntity
8
1
62
256
6
ByLayer
370
18
48
1
60
1
100
AcDbLine
10
-17.500002
20
-38.579564
30
0
11
-17.499998
21
-39.501131
31
0
39
0
210
0
220
0
230
1
0
LINE
5
237
100
AcDbEntity
8
1
62
256
6
ByLayer
370
18
48
1
60
1
100
AcDbLine
10
-17.499998
20
-39.501131
30
0
11
-21
21
-39.040348
31
0
39
0
210
0
220
0
230
1
0
LINE
5
239
100
AcDbEntity
8
1
62
256
6
ByLayer
370
18
48
1
60
1
100
AcDbLine
10
35
20
-39.040348
30
0
11
31.500002
21
-39.501131
31
0
39
0
210
0
220
0
230
1
0
LINE
5
23A
100
AcDbEntity
8
1
62
256
6
ByLayer
370
18
48
1
60
1
100
AcDbLine
10
31.500002
20
-39.501131
30
0
11
31.499998
21
-38.579564
31
0
39
0
210
0
220
0
230
1
0
LINE
5
23B
100
AcDbEntity
8
1
62
256
6
ByLayer
370
18
48
1
60
1
100
AcDbLine
10
31.499998
20
-38.579564
30
0
11
35
21
-39.040348
31
0
39
0
210
0
220
0
230
1
0
MTEXT
5
228
100
AcDbEntity
8
SK2
62
256
6
ByLayer
370
18
48
1
60
0
100
AcDbMText
10
6.274211
20
7.408437
30
0
210
0
220
0
230
1
1
%%c
40
3
41
0
44
1.084337
50
90
71
7
72
5
7
iso_b_vert
0
MTEXT
5
22B
100
AcDbEntity
8
SK2
62
256
6
ByLayer
370
18
48
1
60
0
100
AcDbMText
10
6.274211
20
13.385
30
0
210
0
220
0
230
1
1
\W0.7121;3.5
40
3
41
0
44
1.084337
50
90
71
7
72
5
7
iso_b_vert
0
MTEXT
5
234
100
AcDbEntity
8
2
62
256
6
ByLayer
370
18
48
1
60
0
100
AcDbMText
10
5.367172
20
-38.155233
30
0
210
0
220
0
230
1
1
\W0.6740;56
40
3
41
0
44
1.084337
50
0
71
7
72
5
7
iso_b_vert
0
MTEXT
5
23D
100
AcDbEntity
8
SK6
62
256
6
ByLayer
370
18
48
1
60
0
100
AcDbMText
10
-12.836638
20
-82.114886
30
0
210
0
220
0
230
1
1
\W0.7426;T300-XM100DA-M3     C145
40
3
41
0
44
1.084337
50
0
71
7
72
5
7
iso_b_vert
0
HATCH
5
22F
100
AcDbEntity
8
SK2
62
256
6
ByLayer
370
13
48
1
60
0
100
AcDbHatch
10
0
20
0
30
0
210
0
220
0
230
1
2
ANSI31
70
0
71
0
91
1
92
5
93
3
72
1
10
7.6153255702464
20
1.75
11
7.15454182869362
21
5.24999830744682
72
1
10
7.15454182869362
20
5.24999830744682
11
8.07610931179917
21
5.25000169255318
72
1
10
8.07610931179917
20
5.25000169255318
11
7.6153255702464
21
1.75
97
0
75
0
76
1
52
0
41
0.0062
77
0
78
1
53
45
43
0
44
0
45
-0.0139193969876572
46
0.0139193969876572
79
0
47
0
98
1
10
0
20
0
0
HATCH
5
233
100
AcDbEntity
8
SK2
62
256
6
ByLayer
370
13
48
1
60
0
100
AcDbHatch
10
0
20
0
30
0
210
0
220
0
230
1
2
ANSI31
70
0
71
0
91
1
92
5
93
3
72
1
10
7.6153255702464
20
-1.75
11
8.07610931179917
21
-5.24999830744682
72
1
10
8.07610931179917
20
-5.24999830744682
11
7.15454182869362
21
-5.25000169255318
72
1
10
7.15454182869362
20
-5.25000169255318
11
7.6153255702464
21
-1.75
97
0
75
0
76
1
52
0
41
0.0062
77
0
78
1
53
45
43
0
44
0
45
-0.0139193969876572
46
0.0139193969876572
79
0
47
0
98
1
10
0
20
0
0
HATCH
5
238
100
AcDbEntity
8
2
62
256
6
ByLayer
370
13
48
1
60
0
100
AcDbHatch
10
0
20
0
30
0
210
0
220
0
230
1
2
ANSI31
70
0
71
0
91
1
92
5
93
3
72
1
10
-21
20
-39.0403476742858
11
-17.5000016925532
21
-38.579563932733
72
1
10
-17.5000016925532
20
-38.579563932733
11
-17.4999983074468
21
-39.5011314158386
72
1
10
-17.4999983074468
20
-39.5011314158386
11
-21
21
-39.0403476742858
97
0
75
0
76
1
52
0
41
0.0062
77
0
78
1
53
45
43
0
44
0
45
-0.0139193969876572
46
0.0139193969876572
79
0
47
0
98
1
10
0
20
0
0
HATCH
5
23C
100
AcDbEntity
8
2
62
256
6
ByLayer
370
13
48
1
60
0
100
AcDbHatch
10
0
20
0
30
0
210
0
220
0
230
1
2
ANSI31
70
0
71
0
91
1
92
5
93
3
72
1
10
35
20
-39.0403476742858
11
31.5000016925532
21
-39.5011314158386
72
1
10
31.5000016925532
20
-39.5011314158386
11
31.4999983074468
21
-38.579563932733
72
1
10
31.4999983074468
20
-38.579563932733
11
35
21
-39.0403476742858
97
0
75
0
76
1
52
0
41
0.0062
77
0
78
1
53
45
43
0
44
0
45
-0.0139193969876572
46
0.0139193969876572
79
0
47
0
98
1
10
0
20
0
0
DIMENSION
5
240
100
AcDbEntity
8
2
62
256
6
ByLayer
370
18
48
1
60
0
100
AcDbDimension
2
_U0
10
53.844652
20
-1.540348
30
0
11
53.844652
21
18.611776
31
0
70
32
71
1
72
1
41
1
210
0
220
0
230
1
3
Standard
100
AcDbAlignedDimension
13
35
23
1.540348
33
0
14
35
24
-1.540348
34
0
50
90
100
AcDbRotatedDimension
1001
ACAD
1000
DSTYLE
1002
{
1070
   371
1070
    13
1070
   372
1070
    13
1070
     3
1000

1070
   170
1070
     0
1070
   144
1040
1.0
1070
   277
1070
     2
1070
   284
1070
     8
1070
   278
1070
    46
1070
   146
1040
1.166667
1070
   345
1005
16
1070
   347
1005
16
1070
   346
1005
16
1070
   344
1005
0
1070
   343
1005
0
1070
   172
1070
     1
1070
    76
1070
     0
1070
    75
1070
     0
1070
   282
1070
     0
1070
   281
1070
     0
1070
    71
1070
     0
1070
    74
1070
     0
1070
   279
1070
     0
1070
   173
1070
     1
1070
   340
1005
229
1070
   271
1070
     3
1070
   272
1070
     3
1070
    77
1070
     1
1070
    73
1070
     0
1070
   171
1070
     3
1070
   274
1070
     4
1070
   177
1070
     2
1070
   176
1070
     2
1070
   178
1070
     2
1070
    78
1070
     8
1070
    48
1040
-0.1
1070
    41
1040
3.5
1070
   147
1040
1.5
1070
    42
1040
1.5875
1070
    44
1040
2.0
1070
   140
1040
3.0
1002
}
1001
ACAD_DSTYLE_DIM_LINETYPE
1070
   380
1005
16
1001
ACAD_DSTYLE_DIM_EXT1_LINETYPE
1070
   381
1005
16
1001
ACAD_DSTYLE_DIM_EXT2_LINETYPE
1070
   382
1005
16
0
DIMENSION
5
25B
100
AcDbEntity
8
SK2
62
256
6
ByLayer
370
18
48
1
60
0
100
AcDbDimension
2
_U1
10
33.62
20
10.6
30
0
11
34.31
21
10.6
31
0
70
32
71
1
72
1
41
1
210
0
220
0
230
1
3
Standard
100
AcDbAlignedDimension
13
35
23
1.540348
33
0
14
33.62
24
0
34
0
50
0
100
AcDbRotatedDimension
1001
ACAD
1000
DSTYLE
1002
{
1070
   371
1070
    13
1070
   372
1070
    13
1070
   170
1070
     0
1070
   144
1040
1.0
1070
   277
1070
     2
1070
   284
1070
     8
1070
   278
1070
    46
1070
   146
1040
1.166667
1070
   345
1005
16
1070
   347
1005
16
1070
   346
1005
16
1070
   344
1005
0
1070
   343
1005
0
1070
   172
1070
     1
1070
    76
1070
     0
1070
    75
1070
     0
1070
   282
1070
     0
1070
   281
1070
     0
1070
    71
1070
     0
1070
    74
1070
     0
1070
   279
1070
     0
1070
   173
1070
     1
1070
   340
1005
229
1070
   271
1070
     3
1070
   272
1070
     3
1070
    77
1070
     1
1070
    73
1070
     1
1070
   171
1070
     3
1070
   274
1070
     4
1070
   177
1070
     2
1070
   176
1070
     2
1070
   178
1070
     2
1070
    78
1070
     8
1070
    48
1040
-0.1
1070
    41
1040
3.5
1070
   147
1040
1.5
1070
    42
1040
1.5875
1070
    44
1040
2.0
1070
   140
1040
3.0
1002
}
1001
ACAD_DSTYLE_DIM_LINETYPE
1070
   380
1005
16
1001
ACAD_DSTYLE_DIM_EXT1_LINETYPE
1070
   381
1005
16
1001
ACAD_DSTYLE_DIM_EXT2_LINETYPE
1070
   382
1005
16
0
DIMENSION
5
275
100
AcDbEntity
8
SK2
62
256
6
ByLayer
370
18
48
1
60
0
100
AcDbDimension
2
_U2
10
29
20
-8.540348
30
0
11
47.428571
21
-8.540348
31
0
70
32
71
1
72
1
41
1
210
0
220
0
230
1
3
Standard
100
AcDbAlignedDimension
13
35
23
-1.540348
33
0
14
29
24
-1.540348
34
0
50
0
100
AcDbRotatedDimension
1001
ACAD
1000
DSTYLE
1002
{
1070
   371
1070
    13
1070
   372
1070
    13
1070
   170
1070
     0
1070
   144
1040
1.0
1070
   277
1070
     2
1070
   284
1070
     8
1070
   278
1070
    46
1070
   146
1040
0.833333
1070
   345
1005
16
1070
   347
1005
16
1070
   346
1005
16
1070
   344
1005
0
1070
   343
1005
0
1070
   172
1070
     1
1070
    76
1070
     0
1070
    75
1070
     0
1070
   282
1070
     0
1070
   281
1070
     0
1070
    47
1040
0.5
1070
    72
1070
     0
1070
    71
1070
     1
1070
    74
1070
     0
1070
   279
1070
     0
1070
   173
1070
     1
1070
   340
1005
229
1070
   271
1070
     1
1070
   272
1070
     3
1070
    77
1070
     1
1070
    73
1070
     1
1070
   171
1070
     3
1070
   274
1070
     4
1070
   177
1070
     2
1070
   176
1070
     2
1070
   178
1070
     2
1070
    78
1070
     8
1070
    48
1040
0.5
1070
    41
1040
3.5
1070
   147
1040
1.5
1070
    42
1040
1.5875
1070
    44
1040
2.0
1070
   140
1040
3.0
1002
}
1001
ACAD_DSTYLE_DIM_LINETYPE
1070
   380
1005
16
1001
ACAD_DSTYLE_DIM_EXT1_LINETYPE
1070
   381
1005
16
1001
ACAD_DSTYLE_DIM_EXT2_LINETYPE
1070
   382
1005
16
0
DIMENSION
5
290
100
AcDbEntity
8
SK2
62
256
6
ByLayer
370
18
48
1
60
0
100
AcDbDimension
2
_U3
10
17
20
-31.040348
30
0
11
26
21
-31.040348
31
0
70
32
71
1
72
1
41
1
210
0
220
0
230
1
3
Standard
100
AcDbAlignedDimension
13
35
23
-1.540348
33
0
14
17
24
-1.14355
34
0
50
0
100
AcDbRotatedDimension
1001
ACAD
1000
DSTYLE
1002
{
1070
   371
1070
    13
1070
   372
1070
    13
1070
   170
1070
     0
1070
   144
1040
1.0
1070
   277
1070
     2
1070
   284
1070
     8
1070
   278
1070
    46
1070
   146
1040
1.166667
1070
   345
1005
16
1070
   347
1005
16
1070
   346
1005
16
1070
   344
1005
0
1070
   343
1005
0
1070
   172
1070
     1
1070
    76
1070
     0
1070
    75
1070
     0
1070
   282
1070
     0
1070
   281
1070
     0
1070
    71
1070
     0
1070
    74
1070
     0
1070
   279
1070
     0
1070
   173
1070
     1
1070
   340
1005
229
1070
   271
1070
     1
1070
   272
1070
     3
1070
    77
1070
     1
1070
    73
1070
     1
1070
   171
1070
     3
1070
   274
1070
     4
1070
   177
1070
     2
1070
   176
1070
     2
1070
   178
1070
     2
1070
    78
1070
     8
1070
    48
1040
-0.1
1070
    41
1040
3.5
1070
   147
1040
1.5
1070
    42
1040
1.5875
1070
    44
1040
2.0
1070
   140
1040
3.0
1002
}
1001
ACAD_DSTYLE_DIM_LINETYPE
1070
   380
1005
16
1001
ACAD_DSTYLE_DIM_EXT1_LINETYPE
1070
   381
1005
16
1001
ACAD_DSTYLE_DIM_EXT2_LINETYPE
1070
   382
1005
16
0
DIMENSION
5
2A8
100
AcDbEntity
8
2
62
256
6
ByLayer
370
18
48
1
60
0
100
AcDbDimension
2
_U4
10
19.7
20
-20.040348
30
0
11
27.35
21
-20.040348
31
0
70
32
71
1
72
1
41
1
210
0
220
0
230
1
3
Standard
100
AcDbAlignedDimension
13
35
23
-1.540348
33
0
14
19.7
24
0
34
0
50
0
100
AcDbRotatedDimension
1001
ACAD
1000
DSTYLE
1002
{
1070
   371
1070
    13
1070
   372
1070
    13
1070
   170
1070
     0
1070
   144
1040
1.0
1070
   277
1070
     2
1070
   284
1070
     8
1070
   278
1070
    46
1070
   146
1040
1.166667
1070
   345
1005
16
1070
   347
1005
16
1070
   346
1005
16
1070
   344
1005
0
1070
   343
1005
0
1070
   172
1070
     1
1070
    76
1070
     0
1070
    75
1070
     0
1070
   282
1070
     0
1070
   281
1070
     0
1070
    71
1070
     0
1070
    74
1070
     0
1070
   279
1070
     0
1070
   173
1070
     1
1070
   340
1005
229
1070
   271
1070
     1
1070
   272
1070
     3
1070
    77
1070
     1
1070
    73
1070
     1
1070
   171
1070
     3
1070
   274
1070
     4
1070
   177
1070
     2
1070
   176
1070
     2
1070
   178
1070
     2
1070
    78
1070
     8
1070
    48
1040
-0.1
1070
    41
1040
3.5
1070
   147
1040
1.5
1070
    42
1040
1.5875
1070
    44
1040
2.0
1070
   140
1040
3.0
1002
}
1001
ACAD_DSTYLE_DIM_LINETYPE
1070
   380
1005
16
1001
ACAD_DSTYLE_DIM_EXT1_LINETYPE
1070
   381
1005
16
1001
ACAD_DSTYLE_DIM_EXT2_LINETYPE
1070
   382
1005
16
0
ENDSEC
0
SECTION
2
OBJECTS
0
DICTIONARY
5
331
330
0
100
AcDbDictionary
280
0
281
1
3
ACAD_GROUP
350
332
3
ACAD_MLINESTYLE
350
333
0
DICTIONARY
5
332
330
0
100
AcDbDictionary
280
0
281
1
0
DICTIONARY
5
333
330
0
100
AcDbDictionary
280
0
281
1
3
Standard
350
18
0
MLINESTYLE
5
18
330
333
100
AcDbMlineStyle
2
Standard
70
0
3

62
256
51
90
52
90
71
2
49
-0.5
62
256
6
ByLayer
49
0.5
62
256
6
ByLayer
0
RASTERVARIABLES
5
31f
330

100
AcDbRasterVariables
90
0
70
1
71
1
72
1
0
ENDSEC
0
EOF
