  0
SECTION
  2
HEADER
  9
$ACADVER
  1
AC1015
  9
$ACADMAINTVER
 70
     6
  9
$DWGCODEPAGE
  3
ANSI_1252
  9
$INSBASE
 10
0.0
 20
0.0
 30
0.0
  9
$EXTMIN
 10
1.000000000000000E+20
 20
1.000000000000000E+20
 30
1.000000000000000E+20
  9
$EXTMAX
 10
-1.000000000000000E+20
 20
-1.000000000000000E+20
 30
-1.000000000000000E+20
  9
$LIMMIN
 10
-170.0
 20
-170.0
  9
$LIMMAX
 10
519.0
 20
260.0
  9
$ORTHOMODE
 70
     0
  9
$REGENMODE
 70
     1
  9
$FILLMODE
 70
     1
  9
$QTEXTMODE
 70
     0
  9
$MIRRTEXT
 70
     0
  9
$LTSCALE
 40
1.0
  9
$ATTMODE
 70
     1
  9
$TEXTSIZE
 40
3.5
  9
$TRACEWID
 40
1.0
  9
$TEXTSTYLE
  7
SIMPLEX
  9
$CLAYER
  8
1
  9
$CELTYPE
  6
BYLAYER
  9
$CECOLOR
 62
   256
  9
$CELTSCALE
 40
1.0
  9
$DISPSILH
 70
     0
  9
$DIMSCALE
 40
1.0
  9
$DIMASZ
 40
2.5
  9
$DIMEXO
 40
0.0
  9
$DIMDLI
 40
3.75
  9
$DIMRND
 40
0.0
  9
$DIMDLE
 40
0.0
  9
$DIMEXE
 40
1.25
  9
$DIMTP
 40
0.0
  9
$DIMTM
 40
0.0
  9
$DIMTXT
 40
3.5
  9
$DIMCEN
 40
0.0
  9
$DIMTSZ
 40
0.0
  9
$DIMTOL
 70
     0
  9
$DIMLIM
 70
     0
  9
$DIMTIH
 70
     0
  9
$DIMTOH
 70
     0
  9
$DIMSE1
 70
     0
  9
$DIMSE2
 70
     0
  9
$DIMTAD
 70
     1
  9
$DIMZIN
 70
     8
  9
$DIMBLK
  1

  9
$DIMASO
 70
     1
  9
$DIMSHO
 70
     1
  9
$DIMPOST
  1

  9
$DIMAPOST
  1

  9
$DIMALT
 70
     0
  9
$DIMALTD
 70
     3
  9
$DIMALTF
 40
0.039370078
  9
$DIMLFAC
 40
1.0
  9
$DIMTOFL
 70
     0
  9
$DIMTVP
 40
0.0
  9
$DIMTIX
 70
     0
  9
$DIMSOXD
 70
     0
  9
$DIMSAH
 70
     0
  9
$DIMBLK1
  1

  9
$DIMBLK2
  1

  9
$DIMSTYLE
  2
STANDARD
  9
$DIMCLRD
 70
     0
  9
$DIMCLRE
 70
     0
  9
$DIMCLRT
 70
     0
  9
$DIMTFAC
 40
1.0
  9
$DIMGAP
 40
0.625
  9
$DIMJUST
 70
     0
  9
$DIMSD1
 70
     0
  9
$DIMSD2
 70
     0
  9
$DIMTOLJ
 70
     0
  9
$DIMTZIN
 70
     8
  9
$DIMALTZ
 70
     0
  9
$DIMALTTZ
 70
     0
  9
$DIMUPT
 70
     0
  9
$DIMDEC
 70
     2
  9
$DIMTDEC
 70
     2
  9
$DIMALTU
 70
     2
  9
$DIMALTTD
 70
     3
  9
$DIMTXSTY
  7
SIMPLEX
  9
$DIMAUNIT
 70
     0
  9
$DIMADEC
 70
     2
  9
$DIMALTRND
 40
0.0
  9
$DIMAZIN
 70
     2
  9
$DIMDSEP
 70
    46
  9
$DIMATFIT
 70
     3
  9
$DIMFRAC
 70
     0
  9
$DIMLDRBLK
  1

  9
$DIMLUNIT
 70
     2
  9
$DIMLWD
 70
    -2
  9
$DIMLWE
 70
    -2
  9
$DIMTMOVE
 70
     0
  9
$LUNITS
 70
     2
  9
$LUPREC
 70
     4
  9
$SKETCHINC
 40
1.0
  9
$FILLETRAD
 40
0.0
  9
$AUNITS
 70
     0
  9
$AUPREC
 70
     0
  9
$MENU
  1
c:\tdm21\cad\caduti13\tdm13
  9
$ELEVATION
 40
0.0
  9
$PELEVATION
 40
0.0
  9
$THICKNESS
 40
0.0
  9
$LIMCHECK
 70
     0
  9
$CHAMFERA
 40
0.0
  9
$CHAMFERB
 40
0.0
  9
$CHAMFERC
 40
0.0
  9
$CHAMFERD
 40
0.0
  9
$SKPOLY
 70
     0
  9
$TDCREATE
 40
2454957.593642639
  9
$TDUCREATE
 40
2454957.510309306
  9
$TDUPDATE
 40
2456813.707554687
  9
$TDUUPDATE
 40
2456813.624221354
  9
$TDINDWG
 40
0.0009643519
  9
$TDUSRTIMER
 40
0.0009475231
  9
$USRTIMER
 70
     1
  9
$ANGBASE
 50
0.0
  9
$ANGDIR
 70
     0
  9
$PDMODE
 70
     1
  9
$PDSIZE
 40
0.0
  9
$PLINEWID
 40
0.0
  9
$SPLFRAME
 70
     0
  9
$SPLINETYPE
 70
     6
  9
$SPLINESEGS
 70
     8
  9
$HANDSEED
  5
6E2
  9
$SURFTAB1
 70
     6
  9
$SURFTAB2
 70
     6
  9
$SURFTYPE
 70
     6
  9
$SURFU
 70
     6
  9
$SURFV
 70
     6
  9
$UCSBASE
  2

  9
$UCSNAME
  2

  9
$UCSORG
 10
0.0
 20
0.0
 30
0.0
  9
$UCSXDIR
 10
1.0
 20
0.0
 30
0.0
  9
$UCSYDIR
 10
0.0
 20
1.0
 30
0.0
  9
$UCSORTHOREF
  2

  9
$UCSORTHOVIEW
 70
     0
  9
$UCSORGTOP
 10
0.0
 20
0.0
 30
0.0
  9
$UCSORGBOTTOM
 10
0.0
 20
0.0
 30
0.0
  9
$UCSORGLEFT
 10
0.0
 20
0.0
 30
0.0
  9
$UCSORGRIGHT
 10
0.0
 20
0.0
 30
0.0
  9
$UCSORGFRONT
 10
0.0
 20
0.0
 30
0.0
  9
$UCSORGBACK
 10
0.0
 20
0.0
 30
0.0
  9
$PUCSBASE
  2

  9
$PUCSNAME
  2

  9
$PUCSORG
 10
0.0
 20
0.0
 30
0.0
  9
$PUCSXDIR
 10
1.0
 20
0.0
 30
0.0
  9
$PUCSYDIR
 10
0.0
 20
1.0
 30
0.0
  9
$PUCSORTHOREF
  2

  9
$PUCSORTHOVIEW
 70
     0
  9
$PUCSORGTOP
 10
0.0
 20
0.0
 30
0.0
  9
$PUCSORGBOTTOM
 10
0.0
 20
0.0
 30
0.0
  9
$PUCSORGLEFT
 10
0.0
 20
0.0
 30
0.0
  9
$PUCSORGRIGHT
 10
0.0
 20
0.0
 30
0.0
  9
$PUCSORGFRONT
 10
0.0
 20
0.0
 30
0.0
  9
$PUCSORGBACK
 10
0.0
 20
0.0
 30
0.0
  9
$USERI1
 70
     0
  9
$USERI2
 70
     0
  9
$USERI3
 70
     0
  9
$USERI4
 70
     0
  9
$USERI5
 70
     0
  9
$USERR1
 40
0.0
  9
$USERR2
 40
0.0
  9
$USERR3
 40
0.0
  9
$USERR4
 40
0.0
  9
$USERR5
 40
0.0
  9
$WORLDVIEW
 70
     1
  9
$SHADEDGE
 70
     3
  9
$SHADEDIF
 70
    70
  9
$TILEMODE
 70
     1
  9
$MAXACTVP
 70
    64
  9
$PINSBASE
 10
0.0
 20
0.0
 30
0.0
  9
$PLIMCHECK
 70
     0
  9
$PEXTMIN
 10
0.0
 20
0.0
 30
0.0
  9
$PEXTMAX
 10
0.0
 20
0.0
 30
0.0
  9
$PLIMMIN
 10
0.0
 20
0.0
  9
$PLIMMAX
 10
12.0
 20
9.0
  9
$UNITMODE
 70
     0
  9
$VISRETAIN
 70
     0
  9
$PLINEGEN
 70
     0
  9
$PSLTSCALE
 70
     1
  9
$TREEDEPTH
 70
  3020
  9
$CMLSTYLE
  2
STANDARD
  9
$CMLJUST
 70
     0
  9
$CMLSCALE
 40
20.0
  9
$PROXYGRAPHICS
 70
     1
  9
$MEASUREMENT
 70
     1
  9
$CELWEIGHT
370
    -1
  9
$ENDCAPS
280
     0
  9
$JOINSTYLE
280
     0
  9
$LWDISPLAY
290
     0
  9
$INSUNITS
 70
     4
  9
$HYPERLINKBASE
  1

  9
$STYLESHEET
  1
MONOCHROME.CTB
  9
$XEDIT
290
     1
  9
$CEPSNTYPE
380
     0
  9
$PSTYLEMODE
290
     1
  9
$FINGERPRINTGUID
  2
{46B44192-1510-48B1-B61B-CBE2ADA013A7}
  9
$VERSIONGUID
  2
{6160D478-9A74-4C97-9D8A-D4A65CE74B12}
  9
$EXTNAMES
290
     1
  9
$PSVPSCALE
 40
0.0
  9
$OLESTARTUP
290
     0
  0
ENDSEC
  0
SECTION
  2
CLASSES
  0
CLASS
  1
ACDBDICTIONARYWDFLT
  2
AcDbDictionaryWithDefault
  3
ObjectDBX Classes
 90
        0
280
     0
281
     0
  0
CLASS
  1
ACDBPLACEHOLDER
  2
AcDbPlaceHolder
  3
ObjectDBX Classes
 90
        0
280
     0
281
     0
  0
CLASS
  1
LAYOUT
  2
AcDbLayout
  3
ObjectDBX Classes
 90
        0
280
     0
281
     0
  0
CLASS
  1
DICTIONARYVAR
  2
AcDbDictionaryVar
  3
ObjectDBX Classes
 90
        0
280
     0
281
     0
  0
CLASS
  1
TABLESTYLE
  2
AcDbTableStyle
  3
ObjectDBX Classes
 90
     4095
280
     0
281
     0
  0
CLASS
  1
SCALE
  2
AcDbScale
  3
ObjectDBX Classes
 90
     1153
280
     0
281
     0
  0
CLASS
  1
MATERIAL
  2
AcDbMaterial
  3
ObjectDBX Classes
 90
     1153
280
     0
281
     0
  0
CLASS
  1
VISUALSTYLE
  2
AcDbVisualStyle
  3
ObjectDBX Classes
 90
     4095
280
     0
281
     0
  0
ENDSEC
  0
SECTION
  2
TABLES
  0
TABLE
  2
VPORT
  5
8
330
0
100
AcDbSymbolTable
 70
     1
  0
VPORT
  5
39A
330
8
100
AcDbSymbolTableRecord
100
AcDbViewportTableRecord
  2
*Active
 70
     0
 10
0.0
 20
0.0
 11
1.0
 21
1.0
 12
218.9201881351169
 22
109.7549380673833
 13
0.0
 23
0.0
 14
5.0
 24
5.0
 15
5.0
 25
5.0
 16
0.0
 26
0.0
 36
1.0
 17
0.0
 27
0.0
 37
0.0
 40
564.6711112651689
 41
1.066073697585768
 42
50.0
 43
0.0
 44
0.0
 50
0.0
 51
0.0
 71
     0
 72
  2000
 73
     1
 74
     1
 75
     0
 76
     0
 77
     0
 78
     0
281
     0
 65
     1
110
0.0
120
0.0
130
0.0
111
1.0
121
0.0
131
0.0
112
0.0
122
1.0
132
0.0
 79
     0
146
0.0
  0
ENDTAB
  0
TABLE
  2
LTYPE
  5
5
330
0
100
AcDbSymbolTable
 70
     3
  0
LTYPE
  5
12
330
5
100
AcDbSymbolTableRecord
100
AcDbLinetypeTableRecord
  2
BYBLOCK
 70
     0
  3

 72
    65
 73
     0
 40
0.0
  0
LTYPE
  5
13
330
5
100
AcDbSymbolTableRecord
100
AcDbLinetypeTableRecord
  2
BYLAYER
 70
     0
  3

 72
    65
 73
     0
 40
0.0
  0
LTYPE
  5
14
330
5
100
AcDbSymbolTableRecord
100
AcDbLinetypeTableRecord
  2
CONTINUOUS
 70
     0
  3
Solid line
 72
    65
 73
     0
 40
0.0
  0
LTYPE
  5
20
330
5
100
AcDbSymbolTableRecord
100
AcDbLinetypeTableRecord
  2
HIDDEN
 70
     0
  3
Hidden __ __ __ __ __ __ __ __ __ __ __ __ __ _
 72
    65
 73
     2
 40
9.524999999999997
 49
6.349999999999998
 74
     0
 49
-3.174999999999998
 74
     0
  0
LTYPE
  5
351
330
5
100
AcDbSymbolTableRecord
100
AcDbLinetypeTableRecord
  2
CENTER
 70
     0
  3
Dash dot __ . __ . __ . __ . __ . __ . __ . __
 72
    65
 73
     4
 40
25.4
 49
12.7
 74
     0
 49
-6.349999999999998
 74
     0
 49
0.0
 74
     0
 49
-6.349999999999998
 74
     0
  0
ENDTAB
  0
TABLE
  2
LAYER
  5
2
330
0
100
AcDbSymbolTable
 70
    16
  0
LAYER
  5
F
330
2
100
AcDbSymbolTableRecord
100
AcDbLayerTableRecord
  2
0
 70
     0
 62
     7
  6
CONTINUOUS
370
    -3
390
300
  0
LAYER
  5
23
330
2
100
AcDbSymbolTableRecord
100
AcDbLayerTableRecord
  2
1
 70
     0
 62
     4
  6
CONTINUOUS
370
    -3
390
300
  0
LAYER
  5
24
330
2
100
AcDbSymbolTableRecord
100
AcDbLayerTableRecord
  2
SK1
 70
     0
 62
     4
  6
CONTINUOUS
370
    -3
390
300
  0
LAYER
  5
25
330
2
100
AcDbSymbolTableRecord
100
AcDbLayerTableRecord
  2
2
 70
     0
 62
     7
  6
CONTINUOUS
370
    -3
390
300
  0
LAYER
  5
26
330
2
100
AcDbSymbolTableRecord
100
AcDbLayerTableRecord
  2
2L
 70
     0
 62
     7
  6
CONTINUOUS
370
    -3
390
300
  0
LAYER
  5
27
330
2
100
AcDbSymbolTableRecord
100
AcDbLayerTableRecord
  2
SK2
 70
     0
 62
     7
  6
CONTINUOUS
370
    -3
390
300
  0
LAYER
  5
28
330
2
100
AcDbSymbolTableRecord
100
AcDbLayerTableRecord
  2
3
 70
     0
 62
     1
  6
HIDDEN
370
    -3
390
300
  0
LAYER
  5
29
330
2
100
AcDbSymbolTableRecord
100
AcDbLayerTableRecord
  2
SK3
 70
     0
 62
     1
  6
HIDDEN
370
    -3
390
300
  0
LAYER
  5
2A
330
2
100
AcDbSymbolTableRecord
100
AcDbLayerTableRecord
  2
4
 70
     0
 62
     2
  6
CENTER
370
    -3
390
300
  0
LAYER
  5
2B
330
2
100
AcDbSymbolTableRecord
100
AcDbLayerTableRecord
  2
SK4
 70
     0
 62
     2
  6
CENTER
370
    -3
390
300
  0
LAYER
  5
2C
330
2
100
AcDbSymbolTableRecord
100
AcDbLayerTableRecord
  2
5
 70
     0
 62
    -7
  6
CONTINUOUS
370
    -3
390
300
  0
LAYER
  5
2D
330
2
100
AcDbSymbolTableRecord
100
AcDbLayerTableRecord
  2
6
 70
     0
 62
     5
  6
CONTINUOUS
370
    -3
390
300
  0
LAYER
  5
2E
330
2
100
AcDbSymbolTableRecord
100
AcDbLayerTableRecord
  2
SK6
 70
     0
 62
     5
  6
CONTINUOUS
370
    -3
390
300
  0
LAYER
  5
2F
330
2
100
AcDbSymbolTableRecord
100
AcDbLayerTableRecord
  2
DEFPOINTS
 70
     0
 62
     7
  6
CONTINUOUS
290
     0
370
    -3
390
300
  0
LAYER
  5
375
330
2
100
AcDbSymbolTableRecord
100
AcDbLayerTableRecord
  2
CUT
 70
     0
 62
     1
  6
CONTINUOUS
370
    -3
390
300
  0
LAYER
  5
376
330
2
100
AcDbSymbolTableRecord
100
AcDbLayerTableRecord
  2
NOCUT
 70
     0
 62
     7
  6
CONTINUOUS
370
    -3
390
300
  0
ENDTAB
  0
TABLE
  2
STYLE
  5
3
330
0
100
AcDbSymbolTable
 70
     4
  0
STYLE
  5
10
330
3
100
AcDbSymbolTableRecord
100
AcDbTextStyleTableRecord
  2
STANDARD
 70
     0
 40
0.0
 41
1.0
 50
0.0
 71
     0
 42
5.0
  3
txt
  4

  0
STYLE
  5
1D
330
3
100
AcDbSymbolTableRecord
100
AcDbTextStyleTableRecord
  2
TXT
 70
     0
 40
8.0
 41
1.0
 50
0.0
 71
     0
 42
8.0
  3
txt
  4

  0
STYLE
  5
1E
330
3
100
AcDbSymbolTableRecord
100
AcDbTextStyleTableRecord
  2
SIMPLEX
 70
     0
 40
0.0
 41
1.0
 50
0.0
 71
     0
 42
3.5
  3
simplex
  4

  0
STYLE
  5
34C
330
3
100
AcDbSymbolTableRecord
100
AcDbTextStyleTableRecord
  2

 70
     1
 40
0.0
 41
1.0
 50
0.0
 71
     0
 42
2.5
  3
ltypeshp.shx
  4

  0
ENDTAB
  0
TABLE
  2
VIEW
  5
6
330
0
100
AcDbSymbolTable
 70
     0
  0
ENDTAB
  0
TABLE
  2
UCS
  5
7
330
0
100
AcDbSymbolTable
 70
     0
  0
ENDTAB
  0
TABLE
  2
APPID
  5
9
330
0
100
AcDbSymbolTable
 70
     1
  0
APPID
  5
11
330
9
100
AcDbSymbolTableRecord
100
AcDbRegAppTableRecord
  2
ACAD
 70
     0
  0
ENDTAB
  0
TABLE
  2
DIMSTYLE
  5
A
330
0
100
AcDbSymbolTable
 70
     1
100
AcDbDimStyleTable
  0
DIMSTYLE
105
3F
102
{ACAD_REACTORS
330
673
330
681
330
68E
330
69C
330
6AA
102
}
330
A
100
AcDbSymbolTableRecord
100
AcDbDimStyleTableRecord
  2
STANDARD
 70
     0
 41
2.5
 42
0.0
 43
3.75
 44
1.25
 73
     0
 74
     0
 77
     1
 78
     8
 79
     2
140
3.5
141
0.0
143
0.039370078
147
0.625
171
     3
178
     0
179
     2
271
     2
272
     2
274
     3
283
     0
284
     8
340
1E
  0
ENDTAB
  0
TABLE
  2
BLOCK_RECORD
  5
1
330
0
100
AcDbSymbolTable
 70
     5
  0
BLOCK_RECORD
  5
18
330
1
100
AcDbSymbolTableRecord
100
AcDbBlockTableRecord
  2
*MODEL_SPACE
340
303
  0
BLOCK_RECORD
  5
338
330
1
100
AcDbSymbolTableRecord
100
AcDbBlockTableRecord
  2
*Paper_Space
340
33B
  0
BLOCK_RECORD
  5
674
330
1
100
AcDbSymbolTableRecord
100
AcDbBlockTableRecord
  2
*D0
340
0
  0
BLOCK_RECORD
  5
682
330
1
100
AcDbSymbolTableRecord
100
AcDbBlockTableRecord
  2
*D1
340
0
  0
BLOCK_RECORD
  5
68F
330
1
100
AcDbSymbolTableRecord
100
AcDbBlockTableRecord
  2
*D2
340
0
  0
BLOCK_RECORD
  5
69D
330
1
100
AcDbSymbolTableRecord
100
AcDbBlockTableRecord
  2
*D3
340
0
  0
BLOCK_RECORD
  5
6AB
330
1
100
AcDbSymbolTableRecord
100
AcDbBlockTableRecord
  2
*D4
340
0
  0
ENDTAB
  0
ENDSEC
  0
SECTION
  2
BLOCKS
  0
BLOCK
  5
32
330
18
100
AcDbEntity
  8
0
100
AcDbBlockBegin
  2
*MODEL_SPACE
 70
     0
 10
0.0
 20
0.0
 30
0.0
  3
*MODEL_SPACE
  1

  0
ENDBLK
  5
33
330
18
100
AcDbEntity
  8
0
100
AcDbBlockEnd
  0
BLOCK
  5
339
330
338
100
AcDbEntity
 67
     1
  8
0
100
AcDbBlockBegin
  2
*Paper_Space
 70
     0
 10
0.0
 20
0.0
 30
0.0
  3
*Paper_Space
  1

  0
ENDBLK
  5
33A
330
338
100
AcDbEntity
 67
     1
  8
0
100
AcDbBlockEnd
  0
BLOCK
  5
675
330
674
100
AcDbEntity
  8
0
100
AcDbBlockBegin
  2
*D0
 70
     1
 10
0.0
 20
0.0
 30
0.0
  3
*D0
  1

  0
LINE
  5
677
330
674
100
AcDbEntity
  8
2
 62
     0
370
    -2
100
AcDbLine
 10
25.0
 20
1.0
 30
0.0
 11
41.25
 21
1.000000000000057
 31
0.0
  0
LINE
  5
678
330
674
100
AcDbEntity
  8
2
 62
     0
370
    -2
100
AcDbLine
 10
25.0
 20
-1.0
 30
0.0
 11
41.25000000000001
 21
-0.9999999999999433
 31
0.0
  0
LINE
  5
679
330
674
100
AcDbEntity
  8
2
 62
     0
370
    -2
100
AcDbLine
 10
40.00000000000001
 20
-3.499999999999948
 30
0.0
 11
40.00000000000005
 21
-13.36799999999994
 31
0.0
  0
LINE
  5
67A
330
674
100
AcDbEntity
  8
2
 62
     0
370
    -2
100
AcDbLine
 10
39.99999999999999
 20
3.500000000000052
 30
0.0
 11
39.99999999999999
 21
6.000000000000052
 31
0.0
  0
SOLID
  5
67B
330
674
100
AcDbEntity
  8
2
 62
     0
100
AcDbTrace
 10
39.58333333333333
 20
3.500000000000051
 30
0.0
 11
40.41666666666666
 21
3.500000000000054
 31
0.0
 12
40.0
 22
1.000000000000052
 32
0.0
 13
40.0
 23
1.000000000000052
 33
0.0
  0
SOLID
  5
67C
330
674
100
AcDbEntity
  8
2
 62
     0
100
AcDbTrace
 10
40.41666666666668
 20
-3.499999999999946
 30
0.0
 11
39.58333333333335
 21
-3.499999999999949
 31
0.0
 12
40.00000000000001
 22
-0.9999999999999476
 32
0.0
 13
40.00000000000001
 23
-0.9999999999999476
 33
0.0
  0
MTEXT
  5
67D
330
674
100
AcDbEntity
  8
2
 62
     0
100
AcDbMText
 10
37.60925000000004
 20
-9.683999999999953
 30
0.0
 40
3.5
 41
0.0
 71
     5
 72
     1
  1
M2
  7
SIMPLEX
 11
-3.552713678800501E-15
 21
1.0
 31
0.0
 73
     1
 44
1.0
  0
POINT
  5
67E
330
674
100
AcDbEntity
  8
DEFPOINTS
 62
     0
100
AcDbPoint
 10
25.0
 20
1.0
 30
0.0
  0
POINT
  5
67F
330
674
100
AcDbEntity
  8
DEFPOINTS
 62
     0
100
AcDbPoint
 10
25.0
 20
-1.0
 30
0.0
  0
POINT
  5
680
330
674
100
AcDbEntity
  8
DEFPOINTS
 62
     0
100
AcDbPoint
 10
40.00000000000001
 20
-0.9999999999999476
 30
0.0
  0
ENDBLK
  5
676
330
674
100
AcDbEntity
  8
0
100
AcDbBlockEnd
  0
BLOCK
  5
683
330
682
100
AcDbEntity
  8
0
100
AcDbBlockBegin
  2
*D1
 70
     1
 10
0.0
 20
0.0
 30
0.0
  3
*D1
  1

  0
LINE
  5
685
330
682
100
AcDbEntity
  8
2
 62
     0
370
    -2
100
AcDbLine
 10
0.0
 20
0.0
 30
0.0
 11
0.0
 21
76.25
 31
0.0
  0
LINE
  5
686
330
682
100
AcDbEntity
  8
2
 62
     0
370
    -2
100
AcDbLine
 10
25.0
 20
0.0
 30
0.0
 11
25.0
 21
76.25
 31
0.0
  0
LINE
  5
687
330
682
100
AcDbEntity
  8
2
 62
     0
370
    -2
100
AcDbLine
 10
2.5
 20
75.0
 30
0.0
 11
22.5
 21
75.0
 31
0.0
  0
SOLID
  5
688
330
682
100
AcDbEntity
  8
2
 62
     0
100
AcDbTrace
 10
2.5
 20
75.41666666666667
 30
0.0
 11
2.5
 21
74.58333333333333
 31
0.0
 12
0.0
 22
75.0
 32
0.0
 13
0.0
 23
75.0
 33
0.0
  0
SOLID
  5
689
330
682
100
AcDbEntity
  8
2
 62
     0
100
AcDbTrace
 10
22.5
 20
74.58333333333333
 30
0.0
 11
22.5
 21
75.41666666666667
 31
0.0
 12
25.0
 22
75.0
 32
0.0
 13
25.0
 23
75.0
 33
0.0
  0
MTEXT
  5
68A
330
682
100
AcDbEntity
  8
2
 62
     0
100
AcDbMText
 10
12.5
 20
77.39075
 30
0.0
 40
3.5
 41
0.0
 71
     5
 72
     1
  1
25
  7
SIMPLEX
 73
     1
 44
1.0
  0
POINT
  5
68B
330
682
100
AcDbEntity
  8
DEFPOINTS
 62
     0
100
AcDbPoint
 10
0.0
 20
0.0
 30
0.0
  0
POINT
  5
68C
330
682
100
AcDbEntity
  8
DEFPOINTS
 62
     0
100
AcDbPoint
 10
25.0
 20
0.0
 30
0.0
  0
POINT
  5
68D
330
682
100
AcDbEntity
  8
DEFPOINTS
 62
     0
100
AcDbPoint
 10
25.0
 20
75.0
 30
0.0
  0
ENDBLK
  5
684
330
682
100
AcDbEntity
  8
0
100
AcDbBlockEnd
  0
BLOCK
  5
690
330
68F
100
AcDbEntity
  8
0
100
AcDbBlockBegin
  2
*D2
 70
     1
 10
0.0
 20
0.0
 30
0.0
  3
*D2
  1

  0
LINE
  5
692
330
68F
100
AcDbEntity
  8
SK2
 62
     0
370
    -2
100
AcDbLine
 10
-15.01
 20
1.4
 30
0.0
 11
-36.26000000000714
 21
1.399999999891552
 31
0.0
  0
LINE
  5
693
330
68F
100
AcDbEntity
  8
SK2
 62
     0
370
    -2
100
AcDbLine
 10
-15.01
 20
-1.4
 30
0.0
 11
-36.25999999999285
 21
-1.400000000108447
 31
0.0
  0
LINE
  5
694
330
68F
100
AcDbEntity
  8
SK2
 62
     0
370
    -2
100
AcDbLine
 10
-35.00999999998009
 20
-3.900000000102068
 30
0.0
 11
-35.00999999990533
 21
-18.54900000010207
 31
0.0
  0
LINE
  5
695
330
68F
100
AcDbEntity
  8
SK2
 62
     0
370
    -2
100
AcDbLine
 10
-35.0100000000199
 20
3.899999999897932
 30
0.0
 11
-35.01000000003266
 21
6.399999999897932
 31
0.0
  0
SOLID
  5
696
330
68F
100
AcDbEntity
  8
SK2
 62
     0
100
AcDbTrace
 10
-35.42666666668656
 20
3.899999999895805
 30
0.0
 11
-34.59333333335324
 21
3.899999999900058
 31
0.0
 12
-35.01000000000714
 22
1.399999999897932
 32
0.0
 13
-35.01000000000714
 23
1.399999999897932
 33
0.0
  0
SOLID
  5
697
330
68F
100
AcDbEntity
  8
SK2
 62
     0
100
AcDbTrace
 10
-34.59333333331342
 20
-3.900000000099942
 30
0.0
 11
-35.42666666664675
 21
-3.900000000104194
 31
0.0
 12
-35.00999999999285
 22
-1.400000000102068
 32
0.0
 13
-35.00999999999285
 23
-1.400000000102068
 33
0.0
  0
MTEXT
  5
698
330
68F
100
AcDbEntity
  8
SK2
 62
     0
100
AcDbMText
 10
-37.40774999993634
 20
-12.4745000001143
 30
0.0
 40
3.5
 41
0.0
 71
     5
 72
     1
  1
%%c2.8
  7
SIMPLEX
 11
-5.103219434334149E-12
 21
1.0
 31
0.0
 73
     1
 44
1.0
  0
POINT
  5
699
330
68F
100
AcDbEntity
  8
DEFPOINTS
 62
     0
100
AcDbPoint
 10
-15.01
 20
1.4
 30
0.0
  0
POINT
  5
69A
330
68F
100
AcDbEntity
  8
DEFPOINTS
 62
     0
100
AcDbPoint
 10
-15.01
 20
-1.4
 30
0.0
  0
POINT
  5
69B
330
68F
100
AcDbEntity
  8
DEFPOINTS
 62
     0
100
AcDbPoint
 10
-35.00999999999285
 20
-1.400000000102068
 30
0.0
  0
ENDBLK
  5
691
330
68F
100
AcDbEntity
  8
0
100
AcDbBlockEnd
  0
BLOCK
  5
69E
330
69D
100
AcDbEntity
  8
0
100
AcDbBlockBegin
  2
*D3
 70
     1
 10
0.0
 20
0.0
 30
0.0
  3
*D3
  1

  0
LINE
  5
6A0
330
69D
100
AcDbEntity
  8
2
 62
     0
370
    -2
100
AcDbLine
 10
20.558327044
 20
0.745
 30
0.0
 11
20.558327044
 21
61.25
 31
0.0
  0
LINE
  5
6A1
330
69D
100
AcDbEntity
  8
2
 62
     0
370
    -2
100
AcDbLine
 10
25.0
 20
1.0
 30
0.0
 11
25.0
 21
61.25
 31
0.0
  0
LINE
  5
6A2
330
69D
100
AcDbEntity
  8
2
 62
     0
370
    -2
100
AcDbLine
 10
27.5
 20
60.0
 30
0.0
 11
41.9845
 21
60.0
 31
0.0
  0
LINE
  5
6A3
330
69D
100
AcDbEntity
  8
2
 62
     0
370
    -2
100
AcDbLine
 10
18.058327044
 20
60.0
 30
0.0
 11
15.558327044
 21
60.0
 31
0.0
  0
SOLID
  5
6A4
330
69D
100
AcDbEntity
  8
2
 62
     0
100
AcDbTrace
 10
18.058327044
 20
59.58333333333334
 30
0.0
 11
18.058327044
 21
60.41666666666666
 31
0.0
 12
20.558327044
 22
60.0
 32
0.0
 13
20.558327044
 23
60.0
 33
0.0
  0
SOLID
  5
6A5
330
69D
100
AcDbEntity
  8
2
 62
     0
100
AcDbTrace
 10
27.5
 20
60.41666666666666
 30
0.0
 11
27.5
 21
59.58333333333334
 31
0.0
 12
25.0
 22
60.0
 32
0.0
 13
25.0
 23
60.0
 33
0.0
  0
MTEXT
  5
6A6
330
69D
100
AcDbEntity
  8
2
 62
     0
100
AcDbMText
 10
35.99225
 20
62.438
 30
0.0
 40
3.5
 41
0.0
 71
     5
 72
     1
  1
4.44
  7
SIMPLEX
 73
     1
 44
1.0
  0
POINT
  5
6A7
330
69D
100
AcDbEntity
  8
DEFPOINTS
 62
     0
100
AcDbPoint
 10
20.558327044
 20
0.745
 30
0.0
  0
POINT
  5
6A8
330
69D
100
AcDbEntity
  8
DEFPOINTS
 62
     0
100
AcDbPoint
 10
25.0
 20
1.0
 30
0.0
  0
POINT
  5
6A9
330
69D
100
AcDbEntity
  8
DEFPOINTS
 62
     0
100
AcDbPoint
 10
25.0
 20
60.0
 30
0.0
  0
ENDBLK
  5
69F
330
69D
100
AcDbEntity
  8
0
100
AcDbBlockEnd
  0
BLOCK
  5
6AC
330
6AB
100
AcDbEntity
  8
0
100
AcDbBlockBegin
  2
*D4
 70
     1
 10
0.0
 20
0.0
 30
0.0
  3
*D4
  1

  0
LINE
  5
6AE
330
6AB
100
AcDbEntity
  8
SK2
 62
     0
370
    -2
100
AcDbLine
 10
-20.01
 20
1.0
 30
0.0
 11
-20.01
 21
91.25
 31
0.0
  0
LINE
  5
6AF
330
6AB
100
AcDbEntity
  8
SK2
 62
     0
370
    -2
100
AcDbLine
 10
25.79
 20
1.0
 30
0.0
 11
25.79
 21
91.25
 31
0.0
  0
LINE
  5
6B0
330
6AB
100
AcDbEntity
  8
SK2
 62
     0
370
    -2
100
AcDbLine
 10
-17.51
 20
90.0
 30
0.0
 11
23.29
 21
90.0
 31
0.0
  0
SOLID
  5
6B1
330
6AB
100
AcDbEntity
  8
SK2
 62
     0
100
AcDbTrace
 10
-17.51
 20
90.41666666666667
 30
0.0
 11
-17.51
 21
89.58333333333333
 31
0.0
 12
-20.01
 22
90.0
 32
0.0
 13
-20.01
 23
90.0
 33
0.0
  0
SOLID
  5
6B2
330
6AB
100
AcDbEntity
  8
SK2
 62
     0
100
AcDbTrace
 10
23.29
 20
89.58333333333333
 30
0.0
 11
23.29
 21
90.41666666666667
 31
0.0
 12
25.79
 22
90.0
 32
0.0
 13
25.79
 23
90.0
 33
0.0
  0
MTEXT
  5
6B3
330
6AB
100
AcDbEntity
  8
SK2
 62
     0
100
AcDbMText
 10
2.890000000000001
 20
92.438
 30
0.0
 40
3.5
 41
0.0
 71
     5
 72
     1
  1
45.8
  7
SIMPLEX
 73
     1
 44
1.0
  0
POINT
  5
6B4
330
6AB
100
AcDbEntity
  8
DEFPOINTS
 62
     0
100
AcDbPoint
 10
-20.01
 20
1.0
 30
0.0
  0
POINT
  5
6B5
330
6AB
100
AcDbEntity
  8
DEFPOINTS
 62
     0
100
AcDbPoint
 10
25.79
 20
1.0
 30
0.0
  0
POINT
  5
6B6
330
6AB
100
AcDbEntity
  8
DEFPOINTS
 62
     0
100
AcDbPoint
 10
25.79
 20
90.0
 30
0.0
  0
ENDBLK
  5
6AD
330
6AB
100
AcDbEntity
  8
0
100
AcDbBlockEnd
  0
ENDSEC
  0
SECTION
  2
ENTITIES
  0
LINE
  5
3D6
330
18
100
AcDbEntity
  8
SK4
100
AcDbLine
 10
-22.01
 20
0.0
 30
0.0
 11
11.0
 21
0.0
 31
0.0
  0
LINE
  5
3D7
330
18
100
AcDbEntity
  8
4
100
AcDbLine
 10
9.0
 20
0.0
 30
0.0
 11
27.79
 21
0.0
 31
0.0
  0
LINE
  5
3D8
330
18
100
AcDbEntity
  8
SK4
100
AcDbLine
 10
9.0
 20
0.0
 30
0.0
 11
27.79
 21
0.0
 31
0.0
  0
LINE
  5
3D9
330
18
100
AcDbEntity
  8
1
100
AcDbLine
 10
11.0
 20
1.4
 30
0.0
 11
-0.0000000000000009
 21
1.4
 31
0.0
  0
LINE
  5
3DA
330
18
100
AcDbEntity
  8
1
100
AcDbLine
 10
11.0
 20
1.4
 30
0.0
 11
11.0
 21
1.398608129387938
 31
0.0
  0
LINE
  5
3DB
330
18
100
AcDbEntity
  8
1
100
AcDbLine
 10
11.0
 20
1.398608129387938
 30
0.0
 11
11.0
 21
1.274382742859455
 31
0.0
  0
LINE
  5
3DC
330
18
100
AcDbEntity
  8
1
100
AcDbLine
 10
11.0
 20
1.274382742859455
 30
0.0
 11
11.0
 21
-1.4
 31
0.0
  0
LINE
  5
3DD
330
18
100
AcDbEntity
  8
1
100
AcDbLine
 10
11.0
 20
1.4
 30
0.0
 11
14.71468959
 21
0.745
 31
0.0
  0
LINE
  5
3DE
330
18
100
AcDbEntity
  8
1
100
AcDbLine
 10
14.71468959
 20
0.745
 30
0.0
 11
17.0
 21
0.745
 31
0.0
  0
LINE
  5
3DF
330
18
100
AcDbEntity
  8
1
100
AcDbLine
 10
14.71468959
 20
0.745
 30
0.0
 11
14.71468959
 21
0.7442593259957241
 31
0.0
  0
LINE
  5
3E0
330
18
100
AcDbEntity
  8
1
100
AcDbLine
 10
14.71468959
 20
0.7442593259957241
 30
0.0
 11
14.71468959
 21
0.6781536738787812
 31
0.0
  0
LINE
  5
3E1
330
18
100
AcDbEntity
  8
1
100
AcDbLine
 10
14.71468959
 20
0.6781536738787812
 30
0.0
 11
14.71468959
 21
-0.745
 31
0.0
  0
ARC
  5
3E2
330
18
100
AcDbEntity
  8
1
100
AcDbCircle
 10
17.34991237647979
 20
-0.6952550640817747
 30
0.0
 40
1.440341268654358
100
AcDbArc
 50
90.19501934073882
 51
104.0597760975798
  0
LINE
  5
3E3
330
18
100
AcDbEntity
  8
1
100
AcDbLine
 10
19.46034916721965
 20
0.745
 30
0.0
 11
20.22130677934065
 21
0.745
 31
0.0
  0
LINE
  5
3E4
330
18
100
AcDbEntity
  8
1
100
AcDbLine
 10
17.34501011875373
 20
0.745
 30
0.0
 11
18.10596767487797
 21
0.745
 31
0.0
  0
LINE
  5
3E5
330
18
100
AcDbEntity
  8
1
100
AcDbLine
 10
17.0
 20
0.7449999999999999
 30
0.0
 11
17.0
 21
0.7449274778867232
 31
0.0
  0
LINE
  5
3E6
330
18
100
AcDbEntity
  8
1
100
AcDbLine
 10
17.0
 20
0.7449274778867232
 30
0.0
 11
17.0
 21
0.7223094693852767
 31
0.0
  0
LINE
  5
3E7
330
18
100
AcDbEntity
  8
1
100
AcDbLine
 10
17.0
 20
0.7223094693852767
 30
0.0
 11
17.0
 21
0.4029153617899966
 31
0.0
  0
ARC
  5
3E8
330
18
100
AcDbEntity
  8
1
100
AcDbCircle
 10
14.02567294526351
 20
-4.355054406899724
 30
0.0
 40
5.611166151854614
100
AcDbArc
 50
54.30364590658986
 51
57.98945648193052
  0
ARC
  5
3E9
330
18
100
AcDbEntity
  8
1
100
AcDbCircle
 10
20.21673926110449
 20
-0.6919849729376404
 30
0.0
 40
1.437063070798203
100
AcDbArc
 50
76.24941676954073
 51
89.81788352600266
  0
LINE
  5
3EA
330
18
100
AcDbEntity
  8
1
100
AcDbLine
 10
20.558327044
 20
-0.5632696193297753
 30
0.0
 11
20.41542291730789
 21
-0.4888807158434385
 31
0.0
  0
LINE
  5
3EB
330
18
100
AcDbEntity
  8
1
100
AcDbLine
 10
20.41542291730789
 20
-0.4888807158434385
 30
0.0
 11
20.27252154737002
 21
-0.4047228348237005
 31
0.0
  0
LINE
  5
3EC
330
18
100
AcDbEntity
  8
1
100
AcDbLine
 10
20.27252154737002
 20
-0.4047228348237005
 30
0.0
 11
20.12962237447536
 21
-0.3124779517391444
 31
0.0
  0
LINE
  5
3ED
330
18
100
AcDbEntity
  8
1
100
AcDbLine
 10
20.12962237447536
 20
-0.3124779517391444
 30
0.0
 11
19.84382745495162
 21
-0.1112256329879911
 31
0.0
  0
LINE
  5
3EE
330
18
100
AcDbEntity
  8
1
100
AcDbLine
 10
19.84382745495162
 20
-0.1112256329879911
 30
0.0
 11
19.41514788375387
 21
0.2019996797906778
 31
0.0
  0
LINE
  5
3EF
330
18
100
AcDbEntity
  8
1
100
AcDbLine
 10
20.558327044
 20
-0.4262900136036747
 30
0.0
 11
20.558327044
 21
0.3464612266653145
 31
0.0
  0
LINE
  5
3F0
330
18
100
AcDbEntity
  8
1
100
AcDbLine
 10
20.558327044
 20
0.3464612266653161
 30
0.0
 11
20.42107370736764
 21
0.432618614906327
 31
0.0
  0
LINE
  5
3F1
330
18
100
AcDbEntity
  8
1
100
AcDbLine
 10
20.42107370736764
 20
0.432618614906327
 30
0.0
 11
20.28382515043089
 21
0.5107961112257022
 31
0.0
  0
LINE
  5
3F2
330
18
100
AcDbEntity
  8
1
100
AcDbLine
 10
20.28382515043089
 20
0.5107961112257022
 30
0.0
 11
20.14657952587212
 21
0.5795543525243261
 31
0.0
  0
LINE
  5
3F3
330
18
100
AcDbEntity
  8
1
100
AcDbLine
 10
20.14657952587212
 20
0.5795543525243261
 30
0.0
 11
20.00933512633356
 21
0.6376273169715071
 31
0.0
  0
LINE
  5
3F4
330
18
100
AcDbEntity
  8
1
100
AcDbLine
 10
20.00933512633356
 20
0.6376273169715071
 30
0.0
 11
19.94070572044379
 21
0.6623180981473313
 31
0.0
  0
LINE
  5
3F5
330
18
100
AcDbEntity
  8
1
100
AcDbLine
 10
19.94070572044379
 20
0.6623180981473313
 30
0.0
 11
19.87209030430595
 21
0.6839452875212687
 31
0.0
  0
LINE
  5
3F6
330
18
100
AcDbEntity
  8
1
100
AcDbLine
 10
19.87209030430595
 20
0.6839452875212687
 30
0.0
 11
19.80345658963757
 21
0.7024231896154087
 31
0.0
  0
LINE
  5
3F7
330
18
100
AcDbEntity
  8
1
100
AcDbLine
 10
19.80345658963757
 20
0.7024231896154087
 30
0.0
 11
19.73484346984509
 21
0.7176543959606045
 31
0.0
  0
LINE
  5
3F8
330
18
100
AcDbEntity
  8
1
100
AcDbLine
 10
19.73484346984509
 20
0.7176543959606045
 30
0.0
 11
19.66621066773808
 21
0.7295767094509947
 31
0.0
  0
LINE
  5
3F9
330
18
100
AcDbEntity
  8
1
100
AcDbLine
 10
19.66621066773808
 20
0.7295767094509947
 30
0.0
 11
19.597593214682
 21
0.7381323475373229
 31
0.0
  0
LINE
  5
3FA
330
18
100
AcDbEntity
  8
1
100
AcDbLine
 10
19.597593214682
 20
0.7381323475373229
 30
0.0
 11
19.52896912846466
 21
0.7432797506939636
 31
0.0
  0
LINE
  5
3FB
330
18
100
AcDbEntity
  8
1
100
AcDbLine
 10
19.52896912846466
 20
0.7432797506939636
 30
0.0
 11
19.46034916721965
 21
0.7449999999999999
 31
0.0
  0
LINE
  5
3FC
330
18
100
AcDbEntity
  8
1
100
AcDbLine
 10
17.0
 20
-0.1348460670397974
 30
0.0
 11
17.0
 21
-0.7441483463990467
 31
0.0
  0
LINE
  5
3FD
330
18
100
AcDbEntity
  8
1
100
AcDbLine
 10
17.0
 20
-0.7441483463990468
 30
0.0
 11
17.0469112479108
 21
-0.7449992967820416
 31
0.0
  0
LINE
  5
3FE
330
18
100
AcDbEntity
  8
1
100
AcDbLine
 10
17.0469112479108
 20
-0.7449992967820416
 30
0.0
 11
17.04829896872966
 21
-0.7449999999619796
 31
0.0
  0
LINE
  5
3FF
330
18
100
AcDbEntity
  8
1
100
AcDbLine
 10
17.0
 20
-0.1348460670397966
 30
0.0
 11
17.35067304692146
 21
-0.3761111582037761
 31
0.0
  0
LINE
  5
400
330
18
100
AcDbEntity
  8
1
100
AcDbLine
 10
17.35067304692146
 20
-0.3761111582037761
 30
0.0
 11
17.52601294716726
 21
-0.4815401868969106
 31
0.0
  0
LINE
  5
401
330
18
100
AcDbEntity
  8
1
100
AcDbLine
 10
17.52601294716726
 20
-0.4815401868969106
 30
0.0
 11
17.61369207712205
 21
-0.5290138573806348
 31
0.0
  0
LINE
  5
402
330
18
100
AcDbEntity
  8
1
100
AcDbLine
 10
17.61369207712205
 20
-0.5290138573806348
 30
0.0
 11
17.70135416176131
 21
-0.5724934292789053
 31
0.0
  0
LINE
  5
403
330
18
100
AcDbEntity
  8
1
100
AcDbLine
 10
17.70135416176131
 20
-0.5724934292789053
 30
0.0
 11
17.78902765770809
 21
-0.6116703804604043
 31
0.0
  0
LINE
  5
404
330
18
100
AcDbEntity
  8
1
100
AcDbLine
 10
17.78902765770809
 20
-0.6116703804604043
 30
0.0
 11
17.87669588799755
 21
-0.6462361210607326
 31
0.0
  0
LINE
  5
405
330
18
100
AcDbEntity
  8
1
100
AcDbLine
 10
17.87669588799755
 20
-0.6462361210607326
 30
0.0
 11
17.96436128198048
 21
-0.6759383677922762
 31
0.0
  0
LINE
  5
406
330
18
100
AcDbEntity
  8
1
100
AcDbLine
 10
17.96436128198048
 20
-0.6759383677922762
 30
0.0
 11
18.05203733414605
 21
-0.7005510396389889
 31
0.0
  0
LINE
  5
407
330
18
100
AcDbEntity
  8
1
100
AcDbLine
 10
18.05203733414605
 20
-0.7005510396389889
 30
0.0
 11
18.13969777687236
 21
-0.7198873753585271
 31
0.0
  0
LINE
  5
408
330
18
100
AcDbEntity
  8
1
100
AcDbLine
 10
18.13969777687236
 20
-0.7198873753585271
 30
0.0
 11
18.22737757866091
 21
-0.7338053142002858
 31
0.0
  0
LINE
  5
409
330
18
100
AcDbEntity
  8
1
100
AcDbLine
 10
18.22737757866091
 20
-0.7338053142002858
 30
0.0
 11
18.31503182460569
 21
-0.7421961690338614
 31
0.0
  0
LINE
  5
40A
330
18
100
AcDbEntity
  8
1
100
AcDbLine
 10
18.31503182460569
 20
-0.7421961690338614
 30
0.0
 11
18.4026796496284
 21
-0.7449999998843122
 31
0.0
  0
LINE
  5
40B
330
18
100
AcDbEntity
  8
1
100
AcDbLine
 10
20.558327044
 20
0.7039075319132543
 30
0.0
 11
20.55832704400001
 21
0.3464612266653161
 31
0.0
  0
LINE
  5
40C
330
18
100
AcDbEntity
  8
1
100
AcDbLine
 10
20.558327044
 20
-0.5632696193297755
 30
0.0
 11
20.558327044
 21
-0.4262900136036748
 31
0.0
  0
LINE
  5
40D
330
18
100
AcDbEntity
  8
1
100
AcDbLine
 10
20.558327044
 20
-0.5632696193297753
 30
0.0
 11
20.558327044
 21
-0.7449999985357968
 31
0.0
  0
LINE
  5
40E
330
18
100
AcDbEntity
  8
1
100
AcDbLine
 10
0.0
 20
-1.4
 30
0.0
 11
11.0
 21
-1.4
 31
0.0
  0
LINE
  5
40F
330
18
100
AcDbEntity
  8
1
100
AcDbLine
 10
11.0
 20
-1.4
 30
0.0
 11
14.71468959
 21
-0.745
 31
0.0
  0
LINE
  5
410
330
18
100
AcDbEntity
  8
1
100
AcDbLine
 10
17.04829896872966
 20
-0.7449999999619796
 30
0.0
 11
17.13293969868796
 21
-0.7423835570327876
 31
0.0
  0
LINE
  5
411
330
18
100
AcDbEntity
  8
1
100
AcDbLine
 10
17.13293969868796
 20
-0.7423835570327876
 30
0.0
 11
17.21759570306775
 21
-0.7345582904469392
 31
0.0
  0
LINE
  5
412
330
18
100
AcDbEntity
  8
1
100
AcDbLine
 10
17.21759570306775
 20
-0.7345582904469392
 30
0.0
 11
17.30224240929129
 21
-0.7215734952615388
 31
0.0
  0
LINE
  5
413
330
18
100
AcDbEntity
  8
1
100
AcDbLine
 10
17.30224240929129
 20
-0.7215734952615388
 30
0.0
 11
17.38689350629015
 21
-0.7035261463811251
 31
0.0
  0
LINE
  5
414
330
18
100
AcDbEntity
  8
1
100
AcDbLine
 10
17.38689350629015
 20
-0.7035261463811251
 30
0.0
 11
17.4715451111194
 21
-0.6805357912561828
 31
0.0
  0
LINE
  5
415
330
18
100
AcDbEntity
  8
1
100
AcDbLine
 10
17.4715451111194
 20
-0.6805357912561828
 30
0.0
 11
17.55619132616313
 21
-0.6527731029517679
 31
0.0
  0
LINE
  5
416
330
18
100
AcDbEntity
  8
1
100
AcDbLine
 10
17.55619132616313
 20
-0.6527731029517679
 30
0.0
 11
17.64084753108329
 21
-0.6204208644102436
 31
0.0
  0
LINE
  5
417
330
18
100
AcDbEntity
  8
1
100
AcDbLine
 10
17.64084753108329
 20
-0.6204208644102436
 30
0.0
 11
17.72549019317572
 21
-0.5837213611088989
 31
0.0
  0
LINE
  5
418
330
18
100
AcDbEntity
  8
1
100
AcDbLine
 10
14.71468959
 20
-0.745
 30
0.0
 11
17.04829896872967
 21
-0.7449999999999999
 31
0.0
  0
LINE
  5
419
330
18
100
AcDbEntity
  8
1
100
AcDbLine
 10
19.16363722689115
 20
-0.7449999999260934
 30
0.0
 11
19.24827839744117
 21
-0.7423835520629518
 31
0.0
  0
LINE
  5
41A
330
18
100
AcDbEntity
  8
1
100
AcDbLine
 10
19.24827839744117
 20
-0.7423835520629518
 30
0.0
 11
19.33293410701831
 21
-0.7345583742992312
 31
0.0
  0
LINE
  5
41B
330
18
100
AcDbEntity
  8
1
100
AcDbLine
 10
19.33293410701831
 20
-0.7345583742992312
 30
0.0
 11
19.41758102651634
 21
-0.721573583575157
 31
0.0
  0
LINE
  5
41C
330
18
100
AcDbEntity
  8
1
100
AcDbLine
 10
19.41758102651634
 20
-0.721573583575157
 30
0.0
 11
19.50223169393369
 21
-0.7035263636729262
 31
0.0
  0
LINE
  5
41D
330
18
100
AcDbEntity
  8
1
100
AcDbLine
 10
19.50223169393369
 20
-0.7035263636729262
 30
0.0
 11
19.58688347844921
 21
-0.680535959611447
 31
0.0
  0
LINE
  5
41E
330
18
100
AcDbEntity
  8
1
100
AcDbLine
 10
19.58688347844921
 20
-0.680535959611447
 30
0.0
 11
19.67152941176605
 21
-0.6527734471722876
 31
0.0
  0
LINE
  5
41F
330
18
100
AcDbEntity
  8
1
100
AcDbLine
 10
19.67152941176605
 20
-0.6527734471722876
 30
0.0
 11
19.75618579393818
 21
-0.6204212480660779
 31
0.0
  0
LINE
  5
420
330
18
100
AcDbEntity
  8
1
100
AcDbLine
 10
19.75618579393818
 20
-0.6204212480660779
 30
0.0
 11
19.84082813911518
 21
-0.5837218331932741
 31
0.0
  0
LINE
  5
421
330
18
100
AcDbEntity
  8
1
100
AcDbLine
 10
18.4026796496284
 20
-0.745
 30
0.0
 11
19.16363722689114
 21
-0.745
 31
0.0
  0
LINE
  5
422
330
18
100
AcDbEntity
  8
1
100
AcDbLine
 10
20.51801868746352
 20
-0.7449999994185563
 30
0.0
 11
20.42232151675696
 21
-0.7416563486741979
 31
0.0
  0
LINE
  5
423
330
18
100
AcDbEntity
  8
1
100
AcDbLine
 10
20.42232151675696
 20
-0.7416563486741979
 30
0.0
 11
20.32662639320851
 21
-0.7316633991925545
 31
0.0
  0
LINE
  5
424
330
18
100
AcDbEntity
  8
1
100
AcDbLine
 10
20.32662639320851
 20
-0.7316633991925545
 30
0.0
 11
20.23091576642374
 21
-0.7151014298919373
 31
0.0
  0
LINE
  5
425
330
18
100
AcDbEntity
  8
1
100
AcDbLine
 10
20.23091576642374
 20
-0.7151014298919373
 30
0.0
 11
20.13522482856594
 21
-0.6921286286277963
 31
0.0
  0
LINE
  5
426
330
18
100
AcDbEntity
  8
1
100
AcDbLine
 10
20.13522482856594
 20
-0.6921286286277963
 30
0.0
 11
20.03951672894805
 21
-0.6629434583564027
 31
0.0
  0
LINE
  5
427
330
18
100
AcDbEntity
  8
1
100
AcDbLine
 10
20.03951672894805
 20
-0.6629434583564027
 30
0.0
 11
19.94381856286043
 21
-0.6278108556212408
 31
0.0
  0
LINE
  5
428
330
18
100
AcDbEntity
  8
1
100
AcDbLine
 10
19.94381856286043
 20
-0.6278108556212408
 30
0.0
 11
19.84812399381049
 21
-0.5870507230352825
 31
0.0
  0
LINE
  5
429
330
18
100
AcDbEntity
  8
1
100
AcDbLine
 10
19.84812399381049
 20
-0.5870507230352825
 30
0.0
 11
19.75241344481048
 21
-0.5410145382633362
 31
0.0
  0
LINE
  5
42A
330
18
100
AcDbEntity
  8
1
100
AcDbLine
 10
19.75241344481048
 20
-0.5410145382633362
 30
0.0
 11
19.65672250219677
 21
-0.4901349593162418
 31
0.0
  0
LINE
  5
42B
330
18
100
AcDbEntity
  8
1
100
AcDbLine
 10
19.65672250219677
 20
-0.4901349593162418
 30
0.0
 11
19.465316512271
 21
-0.375667632948956
 31
0.0
  0
LINE
  5
42C
330
18
100
AcDbEntity
  8
1
100
AcDbLine
 10
19.465316512271
 20
-0.375667632948956
 30
0.0
 11
19.27391221539089
 21
-0.2477504569271023
 31
0.0
  0
LINE
  5
42D
330
18
100
AcDbEntity
  8
1
100
AcDbLine
 10
19.27391221539089
 20
-0.2477504569271023
 30
0.0
 11
18.98683412632219
 21
-0.0407847270793388
 31
0.0
  0
LINE
  5
42E
330
18
100
AcDbEntity
  8
1
100
AcDbLine
 10
20.51801868746352
 20
-0.745
 30
0.0
 11
20.558327044
 21
-0.745
 31
0.0
  0
LINE
  5
42F
330
18
100
AcDbEntity
  8
1
100
AcDbLine
 10
17.29980899057206
 20
0.2019999362200243
 30
0.0
 11
17.7652365612205
 21
-0.1379489668733907
 31
0.0
  0
LINE
  5
430
330
18
100
AcDbEntity
  8
1
100
AcDbLine
 10
17.7652365612205
 20
-0.1379489668733907
 30
0.0
 11
17.99797198791488
 21
-0.301515344231478
 31
0.0
  0
LINE
  5
431
330
18
100
AcDbEntity
  8
1
100
AcDbLine
 10
17.99797198791488
 20
-0.301515344231478
 30
0.0
 11
18.23071395858636
 21
-0.4491478671630796
 31
0.0
  0
LINE
  5
432
330
18
100
AcDbEntity
  8
1
100
AcDbLine
 10
18.23071395858636
 20
-0.4491478671630796
 30
0.0
 11
18.34708270689367
 21
-0.5145002372482335
 31
0.0
  0
LINE
  5
433
330
18
100
AcDbEntity
  8
1
100
AcDbLine
 10
18.34708270689367
 20
-0.5145002372482335
 30
0.0
 11
18.46344393688576
 21
-0.5730275766744287
 31
0.0
  0
LINE
  5
434
330
18
100
AcDbEntity
  8
1
100
AcDbLine
 10
18.46344393688576
 20
-0.5730275766744287
 30
0.0
 11
18.57981078479801
 21
-0.623960973154876
 31
0.0
  0
LINE
  5
435
330
18
100
AcDbEntity
  8
1
100
AcDbLine
 10
18.57981078479801
 20
-0.623960973154876
 30
0.0
 11
18.69618862080815
 21
-0.666623178864117
 31
0.0
  0
LINE
  5
436
330
18
100
AcDbEntity
  8
1
100
AcDbLine
 10
18.69618862080815
 20
-0.666623178864117
 30
0.0
 11
18.75436217427341
 21
-0.6846649799803342
 31
0.0
  0
LINE
  5
437
330
18
100
AcDbEntity
  8
1
100
AcDbLine
 10
18.75436217427341
 20
-0.6846649799803342
 30
0.0
 11
18.81255415564947
 21
-0.7004402498290124
 31
0.0
  0
LINE
  5
438
330
18
100
AcDbEntity
  8
1
100
AcDbLine
 10
18.81255415564947
 20
-0.7004402498290124
 30
0.0
 11
18.870737842862
 21
-0.7138917791809094
 31
0.0
  0
LINE
  5
439
330
18
100
AcDbEntity
  8
1
100
AcDbLine
 10
18.870737842862
 20
-0.7138917791809094
 30
0.0
 11
18.9289154393467
 21
-0.7249706356130281
 31
0.0
  0
LINE
  5
43A
330
18
100
AcDbEntity
  8
1
100
AcDbLine
 10
18.9289154393467
 20
-0.7249706356130281
 30
0.0
 11
18.98710848360128
 21
-0.7336482657692566
 31
0.0
  0
LINE
  5
43B
330
18
100
AcDbEntity
  8
1
100
AcDbLine
 10
18.98710848360128
 20
-0.7336482657692566
 30
0.0
 11
19.04528467698882
 21
-0.7398908825967923
 31
0.0
  0
LINE
  5
43C
330
18
100
AcDbEntity
  8
1
100
AcDbLine
 10
19.04528467698882
 20
-0.7398908825967923
 30
0.0
 11
19.10345938924193
 21
-0.7436776812574022
 31
0.0
  0
LINE
  5
43D
330
18
100
AcDbEntity
  8
1
100
AcDbLine
 10
19.10345938924193
 20
-0.7436776812574022
 30
0.0
 11
19.16162746765978
 21
-0.7449985250620734
 31
0.0
  0
LINE
  5
43E
330
18
100
AcDbEntity
  8
1
100
AcDbLine
 10
19.16162746765978
 20
-0.7449985250620734
 30
0.0
 11
19.16363722689115
 21
-0.7449999999260934
 31
0.0
  0
LINE
  5
43F
330
18
100
AcDbEntity
  8
1
100
AcDbLine
 10
18.98683412632219
 20
-0.0407847270793388
 30
0.0
 11
18.57639755601294
 21
0.2565786266709477
 31
0.0
  0
LINE
  5
440
330
18
100
AcDbEntity
  8
1
100
AcDbLine
 10
18.57639755601294
 20
0.2565786266709477
 30
0.0
 11
18.37116168811704
 21
0.3924480413743631
 31
0.0
  0
LINE
  5
441
330
18
100
AcDbEntity
  8
1
100
AcDbLine
 10
18.37116168811704
 20
0.3924480413743631
 30
0.0
 11
18.16592309122092
 21
0.512170713120726
 31
0.0
  0
LINE
  5
442
330
18
100
AcDbEntity
  8
1
100
AcDbLine
 10
18.16592309122092
 20
0.512170713120726
 30
0.0
 11
18.06331560897766
 21
0.5643982124881032
 31
0.0
  0
LINE
  5
443
330
18
100
AcDbEntity
  8
1
100
AcDbLine
 10
18.06331560897766
 20
0.5643982124881032
 30
0.0
 11
17.96069870872433
 21
0.6108115294208061
 31
0.0
  0
LINE
  5
444
330
18
100
AcDbEntity
  8
1
100
AcDbLine
 10
17.96069870872433
 20
0.6108115294208061
 30
0.0
 11
17.85807651269079
 21
0.65092433219049
 31
0.0
  0
LINE
  5
445
330
18
100
AcDbEntity
  8
1
100
AcDbLine
 10
17.85807651269079
 20
0.65092433219049
 30
0.0
 11
17.75546962612684
 21
0.6843195167212835
 31
0.0
  0
LINE
  5
446
330
18
100
AcDbEntity
  8
1
100
AcDbLine
 10
17.75546962612684
 20
0.6843195167212835
 30
0.0
 11
17.65284883964422
 21
0.7106627551051686
 31
0.0
  0
LINE
  5
447
330
18
100
AcDbEntity
  8
1
100
AcDbLine
 10
17.65284883964422
 20
0.7106627551051686
 30
0.0
 11
17.60154663077702
 21
0.7210959621846668
 31
0.0
  0
LINE
  5
448
330
18
100
AcDbEntity
  8
1
100
AcDbLine
 10
17.60154663077702
 20
0.7210959621846668
 30
0.0
 11
17.55023071192161
 21
0.7296722571963884
 31
0.0
  0
LINE
  5
449
330
18
100
AcDbEntity
  8
1
100
AcDbLine
 10
17.55023071192161
 20
0.7296722571963884
 30
0.0
 11
17.49892429240345
 21
0.7363661841036634
 31
0.0
  0
LINE
  5
44A
330
18
100
AcDbEntity
  8
1
100
AcDbLine
 10
17.49892429240345
 20
0.7363661841036634
 30
0.0
 11
17.4476246017843
 21
0.7411572128911711
 31
0.0
  0
LINE
  5
44B
330
18
100
AcDbEntity
  8
1
100
AcDbLine
 10
17.4476246017843
 20
0.7411572128911711
 30
0.0
 11
17.39631230709682
 21
0.7440379120441338
 31
0.0
  0
LINE
  5
44C
330
18
100
AcDbEntity
  8
1
100
AcDbLine
 10
17.39631230709682
 20
0.7440379120441338
 30
0.0
 11
17.34501011875372
 21
0.745
 31
0.0
  0
LINE
  5
44D
330
18
100
AcDbEntity
  8
1
100
AcDbLine
 10
19.41514788375387
 20
0.2019996797906778
 30
0.0
 11
19.25149814738041
 21
0.3150360388025724
 31
0.0
  0
LINE
  5
44E
330
18
100
AcDbEntity
  8
1
100
AcDbLine
 10
19.25149814738041
 20
0.3150360388025724
 30
0.0
 11
19.0878486077034
 21
0.4198194998583987
 31
0.0
  0
LINE
  5
44F
330
18
100
AcDbEntity
  8
1
100
AcDbLine
 10
19.0878486077034
 20
0.4198194998583987
 30
0.0
 11
18.92419940119608
 21
0.5136053021793769
 31
0.0
  0
LINE
  5
450
330
18
100
AcDbEntity
  8
1
100
AcDbLine
 10
18.92419940119608
 20
0.5136053021793769
 30
0.0
 11
18.84238540032522
 21
0.555587662937196
 31
0.0
  0
LINE
  5
451
330
18
100
AcDbEntity
  8
1
100
AcDbLine
 10
18.84238540032522
 20
0.555587662937196
 30
0.0
 11
18.76055045636374
 21
0.5939365652138118
 31
0.0
  0
LINE
  5
452
330
18
100
AcDbEntity
  8
1
100
AcDbLine
 10
18.76055045636374
 20
0.5939365652138118
 30
0.0
 11
18.67873610876826
 21
0.6283792441652835
 31
0.0
  0
LINE
  5
453
330
18
100
AcDbEntity
  8
1
100
AcDbLine
 10
18.67873610876826
 20
0.6283792441652835
 30
0.0
 11
18.59690191661419
 21
0.6587090903407053
 31
0.0
  0
LINE
  5
454
330
18
100
AcDbEntity
  8
1
100
AcDbLine
 10
18.59690191661419
 20
0.6587090903407053
 30
0.0
 11
18.51508666186891
 21
0.6847096825268476
 31
0.0
  0
LINE
  5
455
330
18
100
AcDbEntity
  8
1
100
AcDbLine
 10
18.51508666186891
 20
0.6847096825268476
 30
0.0
 11
18.43325373268948
 21
0.7062261180123723
 31
0.0
  0
LINE
  5
456
330
18
100
AcDbEntity
  8
1
100
AcDbLine
 10
18.43325373268948
 20
0.7062261180123723
 30
0.0
 11
18.35143734426473
 21
0.7231035176480926
 31
0.0
  0
LINE
  5
457
330
18
100
AcDbEntity
  8
1
100
AcDbLine
 10
18.35143734426473
 20
0.7231035176480926
 30
0.0
 11
18.26960604825451
 21
0.7352430590123771
 31
0.0
  0
LINE
  5
458
330
18
100
AcDbEntity
  8
1
100
AcDbLine
 10
18.26960604825451
 20
0.7352430590123771
 30
0.0
 11
18.18778967707591
 21
0.7425551312457662
 31
0.0
  0
LINE
  5
459
330
18
100
AcDbEntity
  8
1
100
AcDbLine
 10
18.18778967707591
 20
0.7425551312457662
 30
0.0
 11
18.10596767487797
 21
0.7450000000000001
 31
0.0
  0
LINE
  5
45A
330
18
100
AcDbEntity
  8
1
100
AcDbLine
 10
18.78315836364687
 20
0.5837210335469358
 30
0.0
 11
18.8677988782964
 21
0.6204213680618014
 31
0.0
  0
LINE
  5
45B
330
18
100
AcDbEntity
  8
1
100
AcDbLine
 10
18.8677988782964
 20
0.6204213680618014
 30
0.0
 11
18.95245971450776
 21
0.6527734583201489
 31
0.0
  0
LINE
  5
45C
330
18
100
AcDbEntity
  8
1
100
AcDbLine
 10
18.95245971450776
 20
0.6527734583201489
 30
0.0
 11
19.03709942052084
 21
0.6805356443286265
 31
0.0
  0
LINE
  5
45D
330
18
100
AcDbEntity
  8
1
100
AcDbLine
 10
19.03709942052084
 20
0.6805356443286265
 30
0.0
 11
19.12176013426989
 21
0.7035269571996174
 31
0.0
  0
LINE
  5
45E
330
18
100
AcDbEntity
  8
1
100
AcDbLine
 10
19.12176013426989
 20
0.7035269571996174
 30
0.0
 11
19.20640064511358
 21
0.7215731152501111
 31
0.0
  0
LINE
  5
45F
330
18
100
AcDbEntity
  8
1
100
AcDbLine
 10
19.20640064511358
 20
0.7215731152501111
 30
0.0
 11
19.29105939512413
 21
0.7345589668864025
 31
0.0
  0
LINE
  5
460
330
18
100
AcDbEntity
  8
1
100
AcDbLine
 10
19.29105939512413
 20
0.7345589668864025
 30
0.0
 11
19.37570075014911
 21
0.7423835012845583
 31
0.0
  0
LINE
  5
461
330
18
100
AcDbEntity
  8
1
100
AcDbLine
 10
19.37570075014911
 20
0.7423835012845583
 30
0.0
 11
19.46034916721964
 21
0.7449999999999998
 31
0.0
  0
LINE
  5
462
330
18
100
AcDbEntity
  8
1
 62
     1
100
AcDbLine
 10
21.58845298923242
 20
1.0
 30
0.0
 11
21.61154701076759
 21
1.0
 31
0.0
  0
LINE
  5
463
330
18
100
AcDbEntity
  8
1
 62
     1
100
AcDbLine
 10
25.0
 20
-0.6975635529384443
 30
0.0
 11
25.0
 21
-0.79
 31
0.0
  0
LINE
  5
464
330
18
100
AcDbEntity
  8
1
 62
     1
100
AcDbLine
 10
25.0
 20
-0.5796046461778146
 30
0.0
 11
25.0
 21
-0.6975635529384443
 31
0.0
  0
LINE
  5
465
330
18
100
AcDbEntity
  8
1
 62
     1
100
AcDbLine
 10
24.73859229265859
 20
-0.9136387804993114
 30
0.0
 11
24.7343184543171
 21
-0.906236278799935
 31
0.0
  0
LINE
  5
466
330
18
100
AcDbEntity
  8
1
 62
     1
100
AcDbLine
 10
22.78845298923242
 20
-1.000000000000008
 30
0.0
 11
22.63180963037282
 21
-0.7286858702872372
 31
0.0
  0
LINE
  5
467
330
18
100
AcDbEntity
  8
1
 62
     1
100
AcDbLine
 10
21.18845298923241
 20
-0.9999999999999966
 30
0.0
 11
21.0
 21
-0.6735899999999999
 31
0.0
  0
LINE
  5
468
330
18
100
AcDbEntity
  8
1
 62
     1
100
AcDbLine
 10
21.0
 20
-0.6735899999999999
 30
0.0
 11
20.85866027454502
 21
-0.9183974714743051
 31
0.0
  0
ARC
  5
469
330
18
100
AcDbEntity
  8
1
 62
     1
100
AcDbCircle
 10
127.2295215093071
 20
56.80369918022132
 30
0.0
 40
117.6254426369571
100
AcDbArc
 50
209.2482426554675
 51
209.3816911613035
  0
LINE
  5
46A
330
18
100
AcDbEntity
  8
1
 62
     1
100
AcDbLine
 10
24.73859229265859
 20
-0.6918042931200938
 30
0.0
 11
24.73859229265859
 21
-0.9136387804993151
 31
0.0
  0
ARC
  5
46B
330
18
100
AcDbEntity
  8
1
 62
     1
100
AcDbCircle
 10
14.8744505201577
 20
-5.234779145973527
 30
0.0
 40
10.8599675443865
100
AcDbArc
 50
24.72864651325029
 51
26.42186335324518
  0
LINE
  5
46C
330
18
100
AcDbEntity
  8
1
 62
     1
100
AcDbLine
 10
24.90754338495488
 20
-0.703581300636944
 30
0.0
 11
24.90754338495487
 21
-0.8337294800889112
 31
0.0
  0
LINE
  5
46D
330
18
100
AcDbEntity
  8
1
 62
     1
100
AcDbLine
 10
25.0
 20
-0.6735899999999999
 30
0.0
 11
24.90754338495488
 21
-0.8337294800889115
 31
0.0
  0
ARC
  5
46E
330
18
100
AcDbEntity
  8
1
 62
     1
100
AcDbCircle
 10
19.44647851542243
 20
-6.546696255180728
 30
0.0
 40
9.105319322158774
100
AcDbArc
 50
53.1468699609412
 51
54.46401581020995
  0
LINE
  5
46F
330
18
100
AcDbEntity
  8
1
 62
     1
100
AcDbLine
 10
24.73859229265859
 20
0.862726082673326
 30
0.0
 11
24.73859229265859
 21
0.4521199351484926
 31
0.0
  0
LINE
  5
470
330
18
100
AcDbEntity
  8
1
 62
     1
100
AcDbLine
 10
24.90754338495488
 20
0.2970565897413761
 30
0.0
 11
24.73859229265859
 21
0.4521199351484867
 31
0.0
  0
LINE
  5
471
330
18
100
AcDbEntity
  8
1
 62
     1
100
AcDbLine
 10
24.90754338495488
 20
0.7391646937474162
 30
0.0
 11
24.90754338495487
 21
0.2970565897413687
 31
0.0
  0
LINE
  5
472
330
18
100
AcDbEntity
  8
1
 62
     1
100
AcDbLine
 10
24.41154701076759
 20
0.9995151543274672
 30
0.0
 11
24.41154701076759
 21
0.928823111508223
 31
0.0
  0
LINE
  5
473
330
18
100
AcDbEntity
  8
1
 62
     1
100
AcDbLine
 10
24.41154701076759
 20
0.928823111508223
 30
0.0
 11
24.4115470107676
 21
0.728547575477724
 31
0.0
  0
LINE
  5
474
330
18
100
AcDbEntity
  8
1
 62
     1
100
AcDbLine
 10
23.98845298923242
 20
1.0
 30
0.0
 11
24.01154701076759
 21
1.0
 31
0.0
  0
LINE
  5
475
330
18
100
AcDbEntity
  8
1
 62
     1
100
AcDbLine
 10
21.21154701076759
 20
-0.9999902449004332
 30
0.0
 11
21.2070858951485
 21
-0.999999999426465
 31
0.0
  0
LINE
  5
476
330
18
100
AcDbEntity
  8
1
 62
     1
100
AcDbLine
 10
21.18845298923242
 20
-0.9998298320703556
 30
0.0
 11
21.18845298923241
 21
-0.9999999999974643
 31
0.0
  0
ARC
  5
477
330
18
100
AcDbEntity
  8
1
 62
     1
100
AcDbCircle
 10
19.27574827286236
 20
-1.552783722573565
 30
0.0
 40
3.82973217466485
100
AcDbArc
 50
29.77188473734031
 51
35.03457822726534
  0
LINE
  5
478
330
18
100
AcDbEntity
  8
1
 62
     1
100
AcDbLine
 10
22.6
 20
0.3488675501242291
 30
0.0
 11
22.6
 21
0.6557362617651512
 31
0.0
  0
LINE
  5
479
330
18
100
AcDbEntity
  8
1
 62
     1
100
AcDbLine
 10
22.4115470107676
 20
0.9894569802381309
 30
0.0
 11
22.6
 21
0.6557362617651582
 31
0.0
  0
LINE
  5
47A
330
18
100
AcDbEntity
  8
1
 62
     1
100
AcDbLine
 10
22.41154701076758
 20
0.9894569802381183
 30
0.0
 11
22.41154701076758
 21
0.6457477100873459
 31
0.0
  0
LINE
  5
47B
330
18
100
AcDbEntity
  8
1
 62
     1
100
AcDbLine
 10
23.4
 20
-0.1651201923049093
 30
0.0
 11
23.41302131544444
 21
-0.1756495916160048
 31
0.0
  0
LINE
  5
47C
330
18
100
AcDbEntity
  8
1
 62
     1
100
AcDbLine
 10
23.41302131544444
 20
-0.1756495916160048
 30
0.0
 11
23.42591391379223
 21
-0.1874498819248864
 31
0.0
  0
LINE
  5
47D
330
18
100
AcDbEntity
  8
1
 62
     1
100
AcDbLine
 10
23.42591391379223
 20
-0.1874498819248864
 30
0.0
 11
23.4386540771082
 21
-0.2004338541019598
 31
0.0
  0
LINE
  5
47E
330
18
100
AcDbEntity
  8
1
 62
     1
100
AcDbLine
 10
23.4386540771082
 20
-0.2004338541019598
 30
0.0
 11
23.45123958578922
 21
-0.2145327103435895
 31
0.0
  0
LINE
  5
47F
330
18
100
AcDbEntity
  8
1
 62
     1
100
AcDbLine
 10
23.45123958578922
 20
-0.2145327103435895
 30
0.0
 11
23.46365227997333
 21
-0.2296624707484196
 31
0.0
  0
LINE
  5
480
330
18
100
AcDbEntity
  8
1
 62
     1
100
AcDbLine
 10
23.46365227997333
 20
-0.2296624707484196
 30
0.0
 11
23.48795740646424
 21
-0.2627614611567776
 31
0.0
  0
LINE
  5
481
330
18
100
AcDbEntity
  8
1
 62
     1
100
AcDbLine
 10
23.48795740646424
 20
-0.2627614611567776
 30
0.0
 11
23.51154389140844
 21
-0.2992135114205565
 31
0.0
  0
LINE
  5
482
330
18
100
AcDbEntity
  8
1
 62
     1
100
AcDbLine
 10
23.51154389140844
 20
-0.2992135114205565
 30
0.0
 11
23.53440612998181
 21
-0.3385520267992064
 31
0.0
  0
LINE
  5
483
330
18
100
AcDbEntity
  8
1
 62
     1
100
AcDbLine
 10
23.53440612998181
 20
-0.3385520267992064
 30
0.0
 11
23.55655009623108
 21
-0.3803544881146048
 31
0.0
  0
LINE
  5
484
330
18
100
AcDbEntity
  8
1
 62
     1
100
AcDbLine
 10
23.55655009623108
 20
-0.3803544881146048
 30
0.0
 11
23.58845298923241
 21
-0.4468590962912892
 31
0.0
  0
LINE
  5
485
330
18
100
AcDbEntity
  8
1
 62
     1
100
AcDbLine
 10
23.4
 20
0.350907602014744
 30
0.0
 11
23.41191982956316
 21
0.3490576066792987
 31
0.0
  0
LINE
  5
486
330
18
100
AcDbEntity
  8
1
 62
     1
100
AcDbLine
 10
23.41191982956316
 20
0.3490576066792987
 30
0.0
 11
23.4238323240686
 21
0.3466513439542986
 31
0.0
  0
LINE
  5
487
330
18
100
AcDbEntity
  8
1
 62
     1
100
AcDbLine
 10
23.4238323240686
 20
0.3466513439542986
 30
0.0
 11
23.4357322305156
 21
0.343693502895512
 31
0.0
  0
LINE
  5
488
330
18
100
AcDbEntity
  8
1
 62
     1
100
AcDbLine
 10
23.4357322305156
 20
0.343693502895512
 30
0.0
 11
23.44761696599401
 21
0.3401881620714561
 31
0.0
  0
LINE
  5
489
330
18
100
AcDbEntity
  8
1
 62
     1
100
AcDbLine
 10
23.44761696599401
 20
0.3401881620714561
 30
0.0
 11
23.4594866521205
 21
0.336139440537813
 31
0.0
  0
LINE
  5
48A
330
18
100
AcDbEntity
  8
1
 62
     1
100
AcDbLine
 10
23.4594866521205
 20
0.336139440537813
 30
0.0
 11
23.47133701313379
 21
0.3315529723920131
 31
0.0
  0
LINE
  5
48B
330
18
100
AcDbEntity
  8
1
 62
     1
100
AcDbLine
 10
23.47133701313379
 20
0.3315529723920131
 30
0.0
 11
23.48316530022376
 21
0.3264337973716451
 31
0.0
  0
LINE
  5
48C
330
18
100
AcDbEntity
  8
1
 62
     1
100
AcDbLine
 10
23.48316530022376
 20
0.3264337973716451
 30
0.0
 11
23.49497263308983
 21
0.320785992741206
 31
0.0
  0
LINE
  5
48D
330
18
100
AcDbEntity
  8
1
 62
     1
100
AcDbLine
 10
23.49497263308983
 20
0.320785992741206
 30
0.0
 11
23.50675564168671
 21
0.3146159280829437
 31
0.0
  0
LINE
  5
48E
330
18
100
AcDbEntity
  8
1
 62
     1
100
AcDbLine
 10
23.50675564168671
 20
0.3146159280829437
 30
0.0
 11
23.53024341155181
 21
0.3007297485246465
 31
0.0
  0
LINE
  5
48F
330
18
100
AcDbEntity
  8
1
 62
     1
100
AcDbLine
 10
23.53024341155181
 20
0.3007297485246465
 30
0.0
 11
23.55362444342134
 21
0.2848184503177046
 31
0.0
  0
LINE
  5
490
330
18
100
AcDbEntity
  8
1
 62
     1
100
AcDbLine
 10
23.55362444342134
 20
0.2848184503177046
 30
0.0
 11
23.57107579265154
 21
0.271591515810832
 31
0.0
  0
LINE
  5
491
330
18
100
AcDbEntity
  8
1
 62
     1
100
AcDbLine
 10
23.57107579265154
 20
0.271591515810832
 30
0.0
 11
23.58845298923242
 21
0.2572783415731993
 31
0.0
  0
ARC
  5
492
330
18
100
AcDbEntity
  8
1
 62
     1
100
AcDbCircle
 10
23.02372612711954
 20
-0.8312681335256006
 30
0.0
 40
0.7648004668036575
100
AcDbArc
 50
60.54005327108569
 51
75.78257643790948
  0
LINE
  5
493
330
18
100
AcDbEntity
  8
1
 62
     1
100
AcDbLine
 10
23.4
 20
-0.1651201923049101
 30
0.0
 11
23.4
 21
0.3509076020147526
 31
0.0
  0
ARC
  5
494
330
18
100
AcDbEntity
  8
1
 62
     1
100
AcDbCircle
 10
24.56170381571409
 20
1.45020738275961
 30
0.0
 40
1.599813502212704
100
AcDbArc
 50
212.4453601402495
 51
223.419029341208
  0
LINE
  5
495
330
18
100
AcDbEntity
  8
1
 62
     1
100
AcDbLine
 10
23.2115470107676
 20
0.5918716789026371
 30
0.0
 11
23.21154701076759
 21
-0.0899552437364927
 31
0.0
  0
ARC
  5
496
330
18
100
AcDbEntity
  8
1
 62
     1
100
AcDbCircle
 10
-38.38175103597361
 20
40.12316698344998
 30
0.0
 40
75.03740709306823
100
AcDbArc
 50
326.8064651344612
 51
327.0705704288978
  0
LINE
  5
497
330
18
100
AcDbEntity
  8
1
 62
     1
100
AcDbLine
 10
24.6
 20
-0.6674595000724693
 30
0.0
 11
24.6
 21
-0.4023479418890994
 31
0.0
  0
ARC
  5
498
330
18
100
AcDbEntity
  8
1
 62
     1
100
AcDbCircle
 10
24.20435984492061
 20
-0.0113448921458663
 30
0.0
 40
0.5555828280631212
100
AcDbArc
 50
291.9006514354606
 51
315.3377433198885
  0
LINE
  5
499
330
18
100
AcDbEntity
  8
1
 62
     1
100
AcDbLine
 10
24.41154701076759
 20
-0.5267222244320734
 30
0.0
 11
24.41154701076759
 21
-0.957497036355392
 31
0.0
  0
ARC
  5
49A
330
18
100
AcDbEntity
  8
1
 62
     1
100
AcDbCircle
 10
22.98324486825454
 20
-0.0518465711618855
 30
0.0
 40
0.15242319352484
100
AcDbArc
 50
47.57758514482901
 51
83.68605910658322
  0
LINE
  5
49B
330
18
100
AcDbEntity
  8
1
 62
     1
100
AcDbLine
 10
23.18845298923242
 20
0.6101455850338519
 30
0.0
 11
23.18845298923242
 21
-0.0671610265432687
 31
0.0
  0
ARC
  5
49C
330
18
100
AcDbEntity
  8
1
 62
     1
100
AcDbCircle
 10
23.19832018655675
 20
0.2773127977352558
 30
0.0
 40
0.3334773630722411
100
AcDbArc
 50
91.69809959943898
 51
126.4772685503238
  0
LINE
  5
49D
330
18
100
AcDbEntity
  8
1
 62
     1
100
AcDbLine
 10
23.0
 20
0.0995817017732251
 30
0.0
 11
23.0
 21
0.5455496473104051
 31
0.0
  0
LINE
  5
49E
330
18
100
AcDbEntity
  8
1
 62
     1
100
AcDbLine
 10
22.81154701076758
 20
0.3012111330341111
 30
0.0
 11
22.82505027341512
 21
0.2889766691201217
 31
0.0
  0
LINE
  5
49F
330
18
100
AcDbEntity
  8
1
 62
     1
100
AcDbLine
 10
22.82505027341512
 20
0.2889766691201217
 30
0.0
 11
22.82578223734425
 21
0.2883020217406318
 31
0.0
  0
ARC
  5
4A0
330
18
100
AcDbEntity
  8
1
 62
     1
100
AcDbCircle
 10
26.50155424454686
 20
2.873732351183008
 30
0.0
 40
4.205121251248231
100
AcDbArc
 50
208.6583251133983
 51
213.6199251349516
  0
LINE
  5
4A1
330
18
100
AcDbEntity
  8
1
 62
     1
100
AcDbLine
 10
22.81154701076759
 20
0.8569994833668877
 30
0.0
 11
22.81154701076759
 21
0.3012111330340893
 31
0.0
  0
ARC
  5
4A2
330
18
100
AcDbEntity
  8
1
 62
     1
100
AcDbCircle
 10
24.01353858130931
 20
-1.362021349344521
 30
0.0
 40
0.9810272149857537
100
AcDbArc
 50
102.5688636242492
 51
114.1915329524546
  0
LINE
  5
4A3
330
18
100
AcDbEntity
  8
1
 62
     1
100
AcDbLine
 10
23.61154701076758
 20
0.2351173994456438
 30
0.0
 11
23.64582622787094
 21
0.2020000025213727
 31
0.0
  0
LINE
  5
4A4
330
18
100
AcDbEntity
  8
1
 62
     1
100
AcDbLine
 10
23.8
 20
-0.4042601221163192
 30
0.0
 11
23.82591390859791
 21
-0.4405052006060201
 31
0.0
  0
LINE
  5
4A5
330
18
100
AcDbEntity
  8
1
 62
     1
100
AcDbLine
 10
23.82591390859791
 20
-0.4405052006060201
 30
0.0
 11
23.85123958136435
 21
-0.480127828332461
 31
0.0
  0
LINE
  5
4A6
330
18
100
AcDbEntity
  8
1
 62
     1
100
AcDbLine
 10
23.85123958136435
 20
-0.480127828332461
 30
0.0
 11
23.87589555701337
 21
-0.5224760569320054
 31
0.0
  0
LINE
  5
4A7
330
18
100
AcDbEntity
  8
1
 62
     1
100
AcDbLine
 10
23.87589555701337
 20
-0.5224760569320054
 30
0.0
 11
23.92306518090102
 21
-0.6131349915557168
 31
0.0
  0
LINE
  5
4A8
330
18
100
AcDbEntity
  8
1
 62
     1
100
AcDbLine
 10
23.92306518090102
 20
-0.6131349915557168
 30
0.0
 11
23.98845298923241
 21
-0.7573797469485918
 31
0.0
  0
LINE
  5
4A9
330
18
100
AcDbEntity
  8
1
 62
     1
100
AcDbLine
 10
23.98845298923241
 20
-0.1354176018421514
 30
0.0
 11
23.98845298923241
 21
-0.757379747324089
 31
0.0
  0
ARC
  5
4AA
330
18
100
AcDbEntity
  8
1
 62
     1
100
AcDbCircle
 10
22.98166121930615
 20
-0.7375169519111916
 30
0.0
 40
1.172454841840771
100
AcDbArc
 50
30.88101119399488
 51
45.72990986729788
  0
LINE
  5
4AB
330
18
100
AcDbEntity
  8
1
 62
     1
100
AcDbLine
 10
23.79999999999999
 20
-0.4042601221163123
 30
0.0
 11
23.8
 21
0.1019422070759168
 31
0.0
  0
ARC
  5
4AC
330
18
100
AcDbEntity
  8
1
 62
     1
100
AcDbCircle
 10
27.49727101494167
 20
-4.02590073387267
 30
0.0
 40
4.768431534753793
100
AcDbArc
 50
133.7441083211886
 51
136.9710042856605
  0
LINE
  5
4AD
330
18
100
AcDbEntity
  8
1
 62
     1
100
AcDbLine
 10
24.2
 20
-0.580817380745145
 30
0.0
 11
24.2
 21
-0.1628046140611256
 31
0.0
  0
ARC
  5
4AE
330
18
100
AcDbEntity
  8
1
 62
     1
100
AcDbCircle
 10
24.11279917204585
 20
0.1216020778430554
 30
0.0
 40
0.2974018371265723
100
AcDbArc
 50
250.0954783339077
 51
287.0458592506593
  0
LINE
  5
4AF
330
18
100
AcDbEntity
  8
1
 62
     1
100
AcDbLine
 10
24.01154701076759
 20
-0.1580349759734598
 30
0.0
 11
24.0115470107676
 21
-0.7721109671136497
 31
0.0
  0
ARC
  5
4B0
330
18
100
AcDbEntity
  8
1
 62
     1
100
AcDbCircle
 10
20.837785812077
 20
-2.520093461797153
 30
0.0
 40
3.88151888222432
100
AcDbArc
 50
23.84605810768307
 51
29.97572092712917
  0
LINE
  5
4B1
330
18
100
AcDbEntity
  8
1
 62
     1
100
AcDbLine
 10
24.38845298923242
 20
-0.5071497769722041
 30
0.0
 11
24.38845298923241
 21
-0.9506519417247897
 31
0.0
  0
ARC
  5
4B2
330
18
100
AcDbEntity
  8
1
 62
     1
100
AcDbCircle
 10
21.08696749648777
 20
-2.08689870710655
 30
0.0
 40
3.65971010334966
100
AcDbArc
 50
25.57094703900385
 51
31.71926163391405
  0
LINE
  5
4B3
330
18
100
AcDbEntity
  8
1
 62
     1
100
AcDbLine
 10
22.6
 20
0.3488675501242233
 30
0.0
 11
22.60646475613408
 21
0.3526287227998759
 31
0.0
  0
LINE
  5
4B4
330
18
100
AcDbEntity
  8
1
 62
     1
100
AcDbLine
 10
22.60646475613408
 20
0.3526287227998759
 30
0.0
 11
22.61290238927242
 21
0.3560616801172858
 31
0.0
  0
LINE
  5
4B5
330
18
100
AcDbEntity
  8
1
 62
     1
100
AcDbLine
 10
22.61290238927242
 20
0.3560616801172858
 30
0.0
 11
22.61930851159423
 21
0.3591688626093235
 31
0.0
  0
LINE
  5
4B6
330
18
100
AcDbEntity
  8
1
 62
     1
100
AcDbLine
 10
22.61930851159423
 20
0.3591688626093235
 30
0.0
 11
22.62567873527872
 21
0.3619527108088592
 31
0.0
  0
LINE
  5
4B7
330
18
100
AcDbEntity
  8
1
 62
     1
100
AcDbLine
 10
22.62567873527872
 20
0.3619527108088592
 30
0.0
 11
22.63200993037592
 21
0.3644161786970274
 31
0.0
  0
LINE
  5
4B8
330
18
100
AcDbEntity
  8
1
 62
     1
100
AcDbLine
 10
22.63200993037592
 20
0.3644161786970274
 30
0.0
 11
22.63830541684878
 21
0.366564949619434
 31
0.0
  0
LINE
  5
4B9
330
18
100
AcDbEntity
  8
1
 62
     1
100
AcDbLine
 10
22.63830541684878
 20
0.366564949619434
 30
0.0
 11
22.64456333345575
 21
0.3684027384171733
 31
0.0
  0
LINE
  5
4BA
330
18
100
AcDbEntity
  8
1
 62
     1
100
AcDbLine
 10
22.64456333345575
 20
0.3684027384171733
 30
0.0
 11
22.65078074786604
 21
0.3699328327011904
 31
0.0
  0
LINE
  5
4BB
330
18
100
AcDbEntity
  8
1
 62
     1
100
AcDbLine
 10
22.65078074786604
 20
0.3699328327011904
 30
0.0
 11
22.65695473083177
 21
0.3711585206731803
 31
0.0
  0
LINE
  5
4BC
330
18
100
AcDbEntity
  8
1
 62
     1
100
AcDbLine
 10
22.65695473083177
 20
0.3711585206731803
 30
0.0
 11
22.66308657185229
 21
0.3720839556763366
 31
0.0
  0
LINE
  5
4BD
330
18
100
AcDbEntity
  8
1
 62
     1
100
AcDbLine
 10
22.66308657185229
 20
0.3720839556763366
 30
0.0
 11
22.66917775079576
 21
0.3727135420574727
 31
0.0
  0
LINE
  5
4BE
330
18
100
AcDbEntity
  8
1
 62
     1
100
AcDbLine
 10
22.66917775079576
 20
0.3727135420574727
 30
0.0
 11
22.67522626080689
 21
0.3730510666856567
 31
0.0
  0
LINE
  5
4BF
330
18
100
AcDbEntity
  8
1
 62
     1
100
AcDbLine
 10
22.67522626080689
 20
0.3730510666856567
 30
0.0
 11
22.68123009503037
 21
0.3731003164299558
 31
0.0
  0
LINE
  5
4C0
330
18
100
AcDbEntity
  8
1
 62
     1
100
AcDbLine
 10
22.68123009503037
 20
0.3731003164299558
 30
0.0
 11
22.68718821744214
 21
0.3728650649163633
 31
0.0
  0
LINE
  5
4C1
330
18
100
AcDbEntity
  8
1
 62
     1
100
AcDbLine
 10
22.68718821744214
 20
0.3728650649163633
 30
0.0
 11
22.69310376207495
 21
0.3723491420666021
 31
0.0
  0
LINE
  5
4C2
330
18
100
AcDbEntity
  8
1
 62
     1
100
AcDbLine
 10
22.69310376207495
 20
0.3723491420666021
 30
0.0
 11
22.69897597995922
 21
0.3715565924923582
 31
0.0
  0
LINE
  5
4C3
330
18
100
AcDbEntity
  8
1
 62
     1
100
AcDbLine
 10
22.69897597995922
 20
0.3715565924923582
 30
0.0
 11
22.70480346211139
 21
0.3704914796658521
 31
0.0
  0
LINE
  5
4C4
330
18
100
AcDbEntity
  8
1
 62
     1
100
AcDbLine
 10
22.70480346211139
 20
0.3704914796658521
 30
0.0
 11
22.71058481001039
 21
0.3691578645914509
 31
0.0
  0
LINE
  5
4C5
330
18
100
AcDbEntity
  8
1
 62
     1
100
AcDbLine
 10
22.71058481001039
 20
0.3691578645914509
 30
0.0
 11
22.71632174911964
 21
0.3675591131192424
 31
0.0
  0
LINE
  5
4C6
330
18
100
AcDbEntity
  8
1
 62
     1
100
AcDbLine
 10
22.71632174911964
 20
0.3675591131192424
 30
0.0
 11
22.72201561892581
 21
0.3656988299144023
 31
0.0
  0
LINE
  5
4C7
330
18
100
AcDbEntity
  8
1
 62
     1
100
AcDbLine
 10
22.72201561892581
 20
0.3656988299144023
 30
0.0
 11
22.72766540159234
 21
0.3635812082667323
 31
0.0
  0
LINE
  5
4C8
330
18
100
AcDbEntity
  8
1
 62
     1
100
AcDbLine
 10
22.72766540159234
 20
0.3635812082667323
 30
0.0
 11
22.73327007928266
 21
0.3612104414660341
 31
0.0
  0
LINE
  5
4C9
330
18
100
AcDbEntity
  8
1
 62
     1
100
AcDbLine
 10
22.73327007928266
 20
0.3612104414660341
 30
0.0
 11
22.73882943870932
 21
0.3585903628777355
 31
0.0
  0
LINE
  5
4CA
330
18
100
AcDbEntity
  8
1
 62
     1
100
AcDbLine
 10
22.73882943870932
 20
0.3585903628777355
 30
0.0
 11
22.74434611061093
 21
0.3557235968232997
 31
0.0
  0
LINE
  5
4CB
330
18
100
AcDbEntity
  8
1
 62
     1
100
AcDbLine
 10
22.74434611061093
 20
0.3557235968232997
 30
0.0
 11
22.74981974588734
 21
0.3526141848033916
 31
0.0
  0
LINE
  5
4CC
330
18
100
AcDbEntity
  8
1
 62
     1
100
AcDbLine
 10
22.74981974588734
 20
0.3526141848033916
 30
0.0
 11
22.75524958537726
 21
0.3492663562013949
 31
0.0
  0
LINE
  5
4CD
330
18
100
AcDbEntity
  8
1
 62
     1
100
AcDbLine
 10
22.75524958537726
 20
0.3492663562013949
 30
0.0
 11
22.76597759289112
 21
0.3418704736828776
 31
0.0
  0
LINE
  5
4CE
330
18
100
AcDbEntity
  8
1
 62
     1
100
AcDbLine
 10
22.76597759289112
 20
0.3418704736828776
 30
0.0
 11
22.77653818441719
 21
0.3335604113920806
 31
0.0
  0
LINE
  5
4CF
330
18
100
AcDbEntity
  8
1
 62
     1
100
AcDbLine
 10
22.77653818441719
 20
0.3335604113920806
 30
0.0
 11
22.78692855278982
 21
0.3243685805545376
 31
0.0
  0
LINE
  5
4D0
330
18
100
AcDbEntity
  8
1
 62
     1
100
AcDbLine
 10
22.78845298923242
 20
0.8685573751439045
 30
0.0
 11
22.78845298923241
 21
0.3229453842016922
 31
0.0
  0
LINE
  5
4D1
330
18
100
AcDbEntity
  8
1
 62
     1
100
AcDbLine
 10
22.78845298923241
 20
0.3229453842016922
 30
0.0
 11
22.78845298923242
 21
0.3229340000838191
 31
0.0
  0
ARC
  5
4D2
330
18
100
AcDbEntity
  8
1
 62
     1
100
AcDbCircle
 10
23.57868223001945
 20
-0.0177032935445587
 30
0.0
 40
1.187901228725924
100
AcDbArc
 50
131.7216089512445
 51
145.4678094188182
  0
LINE
  5
4D3
330
18
100
AcDbEntity
  8
1
 62
     1
100
AcDbLine
 10
22.2
 20
0.5441458911472727
 30
0.0
 11
22.22591390893023
 21
0.5734269286865228
 31
0.0
  0
LINE
  5
4D4
330
18
100
AcDbEntity
  8
1
 62
     1
100
AcDbLine
 10
22.22591390893023
 20
0.5734269286865228
 30
0.0
 11
22.23865407267429
 21
0.5864917978136731
 31
0.0
  0
LINE
  5
4D5
330
18
100
AcDbEntity
  8
1
 62
     1
100
AcDbLine
 10
22.23865407267429
 20
0.5864917978136731
 30
0.0
 11
22.25123958190837
 21
0.598510054757758
 31
0.0
  0
LINE
  5
4D6
330
18
100
AcDbEntity
  8
1
 62
     1
100
AcDbLine
 10
22.25123958190837
 20
0.598510054757758
 30
0.0
 11
22.26365227738986
 21
0.6094732555544083
 31
0.0
  0
LINE
  5
4D7
330
18
100
AcDbEntity
  8
1
 62
     1
100
AcDbLine
 10
22.26365227738986
 20
0.6094732555544083
 30
0.0
 11
22.27589555743421
 21
0.6193935640529413
 31
0.0
  0
LINE
  5
4D8
330
18
100
AcDbEntity
  8
1
 62
     1
100
AcDbLine
 10
22.27589555743421
 20
0.6193935640529413
 30
0.0
 11
22.28795739750809
 21
0.6282704504513856
 31
0.0
  0
LINE
  5
4D9
330
18
100
AcDbEntity
  8
1
 62
     1
100
AcDbLine
 10
22.28795739750809
 20
0.6282704504513856
 30
0.0
 11
22.29984211827869
 21
0.6361161869946169
 31
0.0
  0
LINE
  5
4DA
330
18
100
AcDbEntity
  8
1
 62
     1
100
AcDbLine
 10
22.29984211827869
 20
0.6361161869946169
 30
0.0
 11
22.31154386969913
 21
0.6429375394588086
 31
0.0
  0
LINE
  5
4DB
330
18
100
AcDbEntity
  8
1
 62
     1
100
AcDbLine
 10
22.31154386969913
 20
0.6429375394588086
 30
0.0
 11
22.32306518243345
 21
0.6487459599852943
 31
0.0
  0
LINE
  5
4DC
330
18
100
AcDbEntity
  8
1
 62
     1
100
AcDbLine
 10
22.32306518243345
 20
0.6487459599852943
 30
0.0
 11
22.33440611056316
 21
0.6535536450792641
 31
0.0
  0
LINE
  5
4DD
330
18
100
AcDbEntity
  8
1
 62
     1
100
AcDbLine
 10
22.33440611056316
 20
0.6535536450792641
 30
0.0
 11
22.34000780685408
 21
0.655585262977048
 31
0.0
  0
LINE
  5
4DE
330
18
100
AcDbEntity
  8
1
 62
     1
100
AcDbLine
 10
22.34000780685408
 20
0.655585262977048
 30
0.0
 11
22.34556616466162
 21
0.6573718019516511
 31
0.0
  0
LINE
  5
4DF
330
18
100
AcDbEntity
  8
1
 62
     1
100
AcDbLine
 10
22.34556616466162
 20
0.6573718019516511
 30
0.0
 11
22.35108051683403
 21
0.6589147468089129
 31
0.0
  0
LINE
  5
4E0
330
18
100
AcDbEntity
  8
1
 62
     1
100
AcDbLine
 10
22.35108051683403
 20
0.6589147468089129
 30
0.0
 11
22.35655008358699
 21
0.6602155396173073
 31
0.0
  0
LINE
  5
4E1
330
18
100
AcDbEntity
  8
1
 62
     1
100
AcDbLine
 10
22.35655008358699
 20
0.6602155396173073
 30
0.0
 11
22.36197435456964
 21
0.6612756709873815
 31
0.0
  0
LINE
  5
4E2
330
18
100
AcDbEntity
  8
1
 62
     1
100
AcDbLine
 10
22.36197435456964
 20
0.6612756709873815
 30
0.0
 11
22.36735591601871
 21
0.6620972885691169
 31
0.0
  0
LINE
  5
4E3
330
18
100
AcDbEntity
  8
1
 62
     1
100
AcDbLine
 10
22.36735591601871
 20
0.6620972885691169
 30
0.0
 11
22.37269514801194
 21
0.6626823491885823
 31
0.0
  0
LINE
  5
4E4
330
18
100
AcDbEntity
  8
1
 62
     1
100
AcDbLine
 10
22.37269514801194
 20
0.6626823491885823
 30
0.0
 11
22.37799146274691
 21
0.6630326589385136
 31
0.0
  0
LINE
  5
4E5
330
18
100
AcDbEntity
  8
1
 62
     1
100
AcDbLine
 10
22.37799146274691
 20
0.6630326589385136
 30
0.0
 11
22.3832442724212
 21
0.6631500239116481
 31
0.0
  0
LINE
  5
4E6
330
18
100
AcDbEntity
  8
1
 62
     1
100
AcDbLine
 10
22.3832442724212
 20
0.6631500239116481
 30
0.0
 11
22.38845298923241
 21
0.6630362502007221
 31
0.0
  0
LINE
  5
4E7
330
18
100
AcDbEntity
  8
1
 62
     1
100
AcDbLine
 10
22.38845298923242
 20
0.9925095706394489
 30
0.0
 11
22.38845298923241
 21
0.6630362502006949
 31
0.0
  0
ARC
  5
4E8
330
18
100
AcDbEntity
  8
1
 62
     1
100
AcDbCircle
 10
15.97738288705334
 20
-2.62124326509438
 30
0.0
 40
6.981547688700464
100
AcDbArc
 50
26.96202962712498
 51
30.19711540137908
  0
LINE
  5
4E9
330
18
100
AcDbEntity
  8
1
 62
     1
100
AcDbLine
 10
22.20000000000001
 20
0.5441458911472729
 30
0.0
 11
22.2
 21
0.6735899999999999
 31
0.0
  0
LINE
  5
4EA
330
18
100
AcDbEntity
  8
1
 62
     1
100
AcDbLine
 10
21.8
 20
0.6551861257655851
 30
0.0
 11
21.85123958548768
 21
0.7343319620444133
 31
0.0
  0
LINE
  5
4EB
330
18
100
AcDbEntity
  8
1
 62
     1
100
AcDbLine
 10
21.85123958548768
 20
0.7343319620444133
 30
0.0
 11
21.8998421310739
 21
0.8023406491088276
 31
0.0
  0
LINE
  5
4EC
330
18
100
AcDbEntity
  8
1
 62
     1
100
AcDbLine
 10
21.8998421310739
 20
0.8023406491088276
 30
0.0
 11
21.92306519733421
 21
0.8317348892148686
 31
0.0
  0
LINE
  5
4ED
330
18
100
AcDbEntity
  8
1
 62
     1
100
AcDbLine
 10
21.92306519733421
 20
0.8317348892148686
 30
0.0
 11
21.94556617026491
 21
0.8579237022033328
 31
0.0
  0
LINE
  5
4EE
330
18
100
AcDbEntity
  8
1
 62
     1
100
AcDbLine
 10
21.94556617026491
 20
0.8579237022033328
 30
0.0
 11
21.96735592148772
 21
0.8808524380486168
 31
0.0
  0
LINE
  5
4EF
330
18
100
AcDbEntity
  8
1
 62
     1
100
AcDbLine
 10
21.96735592148772
 20
0.8808524380486168
 30
0.0
 11
21.98845298923241
 21
0.9004952856468014
 31
0.0
  0
LINE
  5
4F0
330
18
100
AcDbEntity
  8
1
 62
     1
100
AcDbLine
 10
21.98845298923241
 20
1.0
 30
0.0
 11
21.98845298923241
 21
0.9999786122554316
 31
0.0
  0
LINE
  5
4F1
330
18
100
AcDbEntity
  8
1
 62
     1
100
AcDbLine
 10
21.98845298923241
 20
0.9999786122554316
 30
0.0
 11
21.98845298923242
 21
0.9935627689434061
 31
0.0
  0
LINE
  5
4F2
330
18
100
AcDbEntity
  8
1
 62
     1
100
AcDbLine
 10
21.98845298923242
 20
0.9935627689434061
 30
0.0
 11
21.98845298923241
 21
0.9004952855757263
 31
0.0
  0
ARC
  5
4F3
330
18
100
AcDbEntity
  8
1
 62
     1
100
AcDbCircle
 10
10.97638484804571
 20
-5.095884634627477
 30
0.0
 40
12.25682937556368
100
AcDbArc
 50
27.98370673969082
 51
29.8086349085827
  0
LINE
  5
4F4
330
18
100
AcDbEntity
  8
1
 62
     1
100
AcDbLine
 10
21.8
 20
0.6551861257655818
 30
0.0
 11
21.8
 21
0.6735899999999999
 31
0.0
  0
LINE
  5
4F5
330
18
100
AcDbEntity
  8
1
 62
     1
100
AcDbLine
 10
21.61154701076759
 20
1.0
 30
0.0
 11
21.61154701076759
 21
0.9970588531861481
 31
0.0
  0
ARC
  5
4F6
330
18
100
AcDbEntity
  8
1
 62
     1
100
AcDbCircle
 10
243.0640768280565
 20
-122.735715129294
 30
0.0
 40
253.6978980189185
100
AcDbArc
 50
150.8243806229041
 51
150.8952894116773
  0
LINE
  5
4F7
330
18
100
AcDbEntity
  8
1
 62
     1
100
AcDbLine
 10
21.58845298923241
 20
1.0
 30
0.0
 11
21.58845298923241
 21
0.9985504645692451
 31
0.0
  0
ARC
  5
4F8
330
18
100
AcDbEntity
  8
1
 62
     1
100
AcDbCircle
 10
-121.4794205846253
 20
-93.89980631322848
 30
0.0
 40
171.3390715774155
100
AcDbArc
 50
33.4985441638069
 51
33.61270140265486
  0
ARC
  5
4F9
330
18
100
AcDbEntity
  8
1
 62
     1
100
AcDbCircle
 10
17.88572119865046
 20
2.381991845880094
 30
0.0
 40
3.602431659212511
100
AcDbArc
 50
329.8282650800855
 51
336.4431083820911
  0
ARC
  5
4FA
330
18
100
AcDbEntity
  8
1
 62
     1
100
AcDbCircle
 10
25.44790343269333
 20
5.374321178732068
 30
0.0
 40
6.545959847947683
100
AcDbArc
 50
225.5823460429252
 51
227.1971927203228
  0
ARC
  5
4FB
330
18
100
AcDbEntity
  8
1
 62
     1
100
AcDbCircle
 10
24.19648328313627
 20
2.792848325232485
 30
0.0
 40
4.947030695551412
100
AcDbArc
 50
224.7427419285146
 51
227.5680295788723
  0
LINE
  5
4FC
330
18
100
AcDbEntity
  8
1
 62
     1
100
AcDbLine
 10
20.55866030952121
 20
-0.5636114557315345
 30
0.0
 11
20.558327044
 21
-0.5632696193297753
 31
0.0
  0
LINE
  5
4FD
330
18
100
AcDbEntity
  8
1
 62
     1
100
AcDbLine
 10
20.55866030950192
 20
-0.5636114557568258
 30
0.0
 11
20.55866030950192
 21
-0.7451924109272116
 31
0.0
  0
ARC
  5
4FE
330
18
100
AcDbEntity
  8
1
 62
     1
100
AcDbCircle
 10
26.2626721842439
 20
-0.3724151062591404
 30
0.0
 40
1.961876282714244
100
AcDbArc
 50
140.978082293827
 51
147.9385291111506
  0
LINE
  5
4FF
330
18
100
AcDbEntity
  8
1
 62
     1
100
AcDbLine
 10
24.60000000000001
 20
0.4122534910146022
 30
0.0
 11
24.6
 21
0.669019796316759
 31
0.0
  0
ARC
  5
500
330
18
100
AcDbEntity
  8
1
 62
     1
100
AcDbCircle
 10
24.7108850542438
 20
0.2910841525531878
 30
0.0
 40
0.1640714578143105
100
AcDbArc
 50
80.23747965271087
 51
132.4624020502099
  0
LINE
  5
501
330
18
100
AcDbEntity
  8
1
 62
     1
100
AcDbLine
 10
25.0
 20
0.669918534267063
 30
0.0
 11
25.0
 21
0.2151106834959863
 31
0.0
  0
ARC
  5
502
330
18
100
AcDbEntity
  8
1
 62
     1
100
AcDbCircle
 10
22.92356548875407
 20
-1.300054021007692
 30
0.0
 40
2.546945273671636
100
AcDbArc
 50
35.38630978634012
 51
38.83421222673619
  0
LINE
  5
503
330
18
100
AcDbEntity
  8
1
 62
     1
100
AcDbLine
 10
21.58845298923241
 20
0.1454894276961398
 30
0.0
 11
21.58845298923242
 21
-0.5458877550806407
 31
0.0
  0
LINE
  5
504
330
18
100
AcDbEntity
  8
1
 62
     1
100
AcDbLine
 10
21.18845298923242
 20
0.5158908409418534
 30
0.0
 11
21.18845298923241
 21
-0.1804153742339248
 31
0.0
  0
LINE
  5
505
330
18
100
AcDbEntity
  8
1
 62
     1
100
AcDbLine
 10
24.01154701076759
 20
1.0
 30
0.0
 11
24.01154701076759
 21
0.9999860947425954
 31
0.0
  0
LINE
  5
506
330
18
100
AcDbEntity
  8
1
 62
     1
100
AcDbLine
 10
24.01154701076759
 20
0.9999860947425954
 30
0.0
 11
24.01154701076759
 21
0.9958457773321553
 31
0.0
  0
LINE
  5
507
330
18
100
AcDbEntity
  8
1
 62
     1
100
AcDbLine
 10
24.01154701076759
 20
0.9958457773321553
 30
0.0
 11
24.01154701076759
 21
0.9364040011773519
 31
0.0
  0
ARC
  5
508
330
18
100
AcDbEntity
  8
1
 62
     1
100
AcDbCircle
 10
16.94680227617786
 20
-3.090645704236013
 30
0.0
 40
8.131877957074593
100
AcDbArc
 50
26.87945744810855
 51
29.68402902377785
  0
LINE
  5
509
330
18
100
AcDbEntity
  8
1
 62
     1
100
AcDbLine
 10
24.2
 20
0.5858422594591994
 30
0.0
 11
24.2
 21
0.6735899999999999
 31
0.0
  0
ARC
  5
50A
330
18
100
AcDbEntity
  8
1
 62
     1
100
AcDbCircle
 10
8.84603964381049
 20
8.68141762821761
 30
0.0
 40
16.62393064875835
100
AcDbArc
 50
331.1027392997144
 51
332.4730263962941
  0
ARC
  5
50B
330
18
100
AcDbEntity
  8
1
 62
     1
100
AcDbCircle
 10
46.94182013270643
 20
17.98523693873516
 30
0.0
 40
29.23658880861093
100
AcDbArc
 50
215.7410819096938
 51
216.3694031956539
  0
ARC
  5
50C
330
18
100
AcDbEntity
  8
1
 62
     1
100
AcDbCircle
 10
144.6436292949018
 20
69.29186861776073
 30
0.0
 40
138.2736207829107
100
AcDbArc
 50
209.5967662584675
 51
209.75441132538
  0
ARC
  5
50D
330
18
100
AcDbEntity
  8
1
 62
     1
100
AcDbCircle
 10
20.53004515273109
 20
-1.798720942113008
 30
0.0
 40
4.631756064588236
100
AcDbArc
 50
28.51271117434448
 51
33.06838622188475
  0
ARC
  5
50E
330
18
100
AcDbEntity
  8
1
 62
     1
100
AcDbCircle
 10
20.41055763886246
 20
2.065712781901378
 30
0.0
 40
3.013012234136844
100
AcDbArc
 50
329.9755178249187
 51
337.193996133796
  0
LINE
  5
50F
330
18
100
AcDbEntity
  8
1
 62
     1
100
AcDbLine
 10
23.61154701076759
 20
0.9992976255014057
 30
0.0
 11
23.68265641785795
 21
0.8768349515999851
 31
0.0
  0
LINE
  5
510
330
18
100
AcDbEntity
  8
1
 62
     1
100
AcDbLine
 10
23.68265641785795
 20
0.8768349515999851
 30
0.0
 11
23.68265776649083
 21
0.8768326156999131
 31
0.0
  0
LINE
  5
511
330
18
100
AcDbEntity
  8
1
 62
     1
100
AcDbLine
 10
23.8
 20
0.6687379599678044
 30
0.0
 11
23.8
 21
0.6735899999999999
 31
0.0
  0
LINE
  5
512
330
18
100
AcDbEntity
  8
1
 62
     1
100
AcDbLine
 10
23.8
 20
0.6687379599678069
 30
0.0
 11
23.89984213263154
 21
0.8278699431583849
 31
0.0
  0
LINE
  5
513
330
18
100
AcDbEntity
  8
1
 62
     1
100
AcDbLine
 10
23.89984213263154
 20
0.8278699431583849
 30
0.0
 11
23.94556619167708
 21
0.8919599090000911
 31
0.0
  0
LINE
  5
514
330
18
100
AcDbEntity
  8
1
 62
     1
100
AcDbLine
 10
23.94556619167708
 20
0.8919599090000911
 30
0.0
 11
23.96735594508467
 21
0.9195919925598905
 31
0.0
  0
LINE
  5
515
330
18
100
AcDbEntity
  8
1
 62
     1
100
AcDbLine
 10
23.96735594508467
 20
0.9195919925598905
 30
0.0
 11
23.98845298923241
 21
0.9441825252250341
 31
0.0
  0
LINE
  5
516
330
18
100
AcDbEntity
  8
1
 62
     1
100
AcDbLine
 10
23.98845298923242
 20
1.0
 30
0.0
 11
23.98845298923242
 21
0.9999877348243092
 31
0.0
  0
LINE
  5
517
330
18
100
AcDbEntity
  8
1
 62
     1
100
AcDbLine
 10
23.98845298923242
 20
0.9999877348243092
 30
0.0
 11
23.98845298923242
 21
0.996342762611044
 31
0.0
  0
LINE
  5
518
330
18
100
AcDbEntity
  8
1
 62
     1
100
AcDbLine
 10
23.98845298923242
 20
0.996342762611044
 30
0.0
 11
23.98845298923242
 21
0.9441825252250255
 31
0.0
  0
LINE
  5
519
330
18
100
AcDbEntity
  8
1
 62
     1
100
AcDbLine
 10
24.2
 20
0.5858422594592108
 30
0.0
 11
24.22591390628137
 21
0.6190184462494276
 31
0.0
  0
LINE
  5
51A
330
18
100
AcDbEntity
  8
1
 62
     1
100
AcDbLine
 10
24.22591390628137
 20
0.6190184462494276
 30
0.0
 11
24.25123957377665
 21
0.6484153456513593
 31
0.0
  0
LINE
  5
51B
330
18
100
AcDbEntity
  8
1
 62
     1
100
AcDbLine
 10
24.25123957377665
 20
0.6484153456513593
 30
0.0
 11
24.27589555221026
 21
0.6739570205216565
 31
0.0
  0
LINE
  5
51C
330
18
100
AcDbEntity
  8
1
 62
     1
100
AcDbLine
 10
24.27589555221026
 20
0.6739570205216565
 30
0.0
 11
24.28795739355469
 21
0.6852710600199057
 31
0.0
  0
LINE
  5
51D
330
18
100
AcDbEntity
  8
1
 62
     1
100
AcDbLine
 10
24.28795739355469
 20
0.6852710600199057
 30
0.0
 11
24.29984211231123
 21
0.6956167530484754
 31
0.0
  0
LINE
  5
51E
330
18
100
AcDbEntity
  8
1
 62
     1
100
AcDbLine
 10
24.29984211231123
 20
0.6956167530484754
 30
0.0
 11
24.31154386108111
 21
0.7049928783065613
 31
0.0
  0
LINE
  5
51F
330
18
100
AcDbEntity
  8
1
 62
     1
100
AcDbLine
 10
24.31154386108111
 20
0.7049928783065613
 30
0.0
 11
24.32306516649452
 21
0.7134049282059199
 31
0.0
  0
LINE
  5
520
330
18
100
AcDbEntity
  8
1
 62
     1
100
AcDbLine
 10
24.32306516649452
 20
0.7134049282059199
 30
0.0
 11
24.33440609337085
 21
0.7208588296949641
 31
0.0
  0
LINE
  5
521
330
18
100
AcDbEntity
  8
1
 62
     1
100
AcDbLine
 10
24.33440609337085
 20
0.7208588296949641
 30
0.0
 11
24.34556614728306
 21
0.7273596088460798
 31
0.0
  0
LINE
  5
522
330
18
100
AcDbEntity
  8
1
 62
     1
100
AcDbLine
 10
24.34556614728306
 20
0.7273596088460798
 30
0.0
 11
24.35655007673725
 21
0.732917680703078
 31
0.0
  0
LINE
  5
523
330
18
100
AcDbEntity
  8
1
 62
     1
100
AcDbLine
 10
24.35655007673725
 20
0.732917680703078
 30
0.0
 11
24.36735591654077
 21
0.7375393460642055
 31
0.0
  0
LINE
  5
524
330
18
100
AcDbEntity
  8
1
 62
     1
100
AcDbLine
 10
24.36735591654077
 20
0.7375393460642055
 30
0.0
 11
24.37269514949434
 21
0.7395030436692485
 31
0.0
  0
LINE
  5
525
330
18
100
AcDbEntity
  8
1
 62
     1
100
AcDbLine
 10
24.37269514949434
 20
0.7395030436692485
 30
0.0
 11
24.37799146463158
 21
0.7412367929814675
 31
0.0
  0
LINE
  5
526
330
18
100
AcDbEntity
  8
1
 62
     1
100
AcDbLine
 10
24.37799146463158
 20
0.7412367929814675
 30
0.0
 11
24.38324427389633
 21
0.7427416022280569
 31
0.0
  0
LINE
  5
527
330
18
100
AcDbEntity
  8
1
 62
     1
100
AcDbLine
 10
24.38324427389633
 20
0.7427416022280569
 30
0.0
 11
24.38845298923241
 21
0.7440184796362106
 31
0.0
  0
LINE
  5
528
330
18
100
AcDbEntity
  8
1
 62
     1
100
AcDbLine
 10
24.38845298923241
 20
0.9999657564566244
 30
0.0
 11
24.38845298923241
 21
0.9958139408426618
 31
0.0
  0
LINE
  5
529
330
18
100
AcDbEntity
  8
1
 62
     1
100
AcDbLine
 10
24.38845298923241
 20
0.9958139408426618
 30
0.0
 11
24.38845298923242
 21
0.7440184796362134
 31
0.0
  0
ARC
  5
52A
330
18
100
AcDbEntity
  8
1
 62
     1
100
AcDbCircle
 10
20.72754127581028
 20
0.0869173112128675
 30
0.0
 40
0.6385769470136917
100
AcDbArc
 50
78.15115745584185
 51
94.02840598597437
  0
LINE
  5
52B
330
18
100
AcDbEntity
  8
1
 62
     1
100
AcDbLine
 10
20.68267940989834
 20
0.7239332269027094
 30
0.0
 11
20.68267940989834
 21
0.2878419101495846
 31
0.0
  0
LINE
  5
52C
330
18
100
AcDbEntity
  8
1
 62
     1
100
AcDbLine
 10
20.85866027454502
 20
0.1547100883534951
 30
0.0
 11
20.83386987083494
 21
0.177058542635508
 31
0.0
  0
LINE
  5
52D
330
18
100
AcDbEntity
  8
1
 62
     1
100
AcDbLine
 10
20.83386987083494
 20
0.177058542635508
 30
0.0
 11
20.83385807331131
 21
0.1770688981711778
 31
0.0
  0
LINE
  5
52E
330
18
100
AcDbEntity
  8
1
 62
     1
100
AcDbLine
 10
20.85866027454502
 20
0.7118865887222857
 30
0.0
 11
20.85866027454501
 21
0.1547100883534952
 31
0.0
  0
LINE
  5
52F
330
18
100
AcDbEntity
  8
1
 62
     1
100
AcDbLine
 10
20.5586603095219
 20
0.7039909859753424
 30
0.0
 11
20.558327044
 21
0.7039075319132824
 31
0.0
  0
LINE
  5
530
330
18
100
AcDbEntity
  8
1
 62
     1
100
AcDbLine
 10
20.55866030952271
 20
0.3463423205290733
 30
0.0
 11
20.558327044
 21
0.3464612266653161
 31
0.0
  0
ARC
  5
531
330
18
100
AcDbEntity
  8
1
 62
     1
100
AcDbCircle
 10
22.20346250848634
 20
-0.1879540048315674
 30
0.0
 40
0.5735301972776098
100
AcDbArc
 50
225.2979484949421
 51
241.1573086958588
  0
ARC
  5
532
330
18
100
AcDbEntity
  8
1
 62
     1
100
AcDbCircle
 10
27.02342495340325
 20
-3.835893270802145
 30
0.0
 40
6.146979161984699
100
AcDbArc
 50
148.1873410713405
 51
151.6916773753419
  0
ARC
  5
533
330
18
100
AcDbEntity
  8
1
 62
     1
100
AcDbCircle
 10
23.04393066086816
 20
0.3255022429429226
 30
0.0
 40
1.92223928954526
100
AcDbArc
 50
211.2197961699624
 51
220.7711820622068
  0
ARC
  5
534
330
18
100
AcDbEntity
  8
1
 62
     1
100
AcDbCircle
 10
-189.640187064246
 20
119.8709420974832
 30
0.0
 40
243.0395949674779
100
AcDbArc
 50
330.176472965988
 51
330.2658803383122
  0
ARC
  5
535
330
18
100
AcDbEntity
  8
1
 62
     1
100
AcDbCircle
 10
27.73254596494154
 20
2.673925084526376
 30
0.0
 40
7.504920675912817
100
AcDbArc
 50
206.2230063222397
 51
209.3091959429458
  0
ARC
  5
536
330
18
100
AcDbEntity
  8
1
 62
     1
100
AcDbCircle
 10
17.01204429272974
 20
1.809184382304903
 30
0.0
 40
4.681109633927255
100
AcDbArc
 50
325.2587239494482
 51
328.4204903418603
  0
LINE
  5
537
330
18
100
AcDbEntity
  8
1
 62
     1
100
AcDbLine
 10
20.85866027454501
 20
-0.858440608091075
 30
0.0
 11
20.85866027454502
 21
-0.9183974714742985
 31
0.0
  0
LINE
  5
538
330
18
100
AcDbEntity
  8
1
 62
     1
100
AcDbLine
 10
21.0
 20
-0.6735899999999999
 30
0.0
 11
21.0
 21
-0.6735830679427158
 31
0.0
  0
LINE
  5
539
330
18
100
AcDbEntity
  8
1
 62
     1
100
AcDbLine
 10
21.0
 20
-0.6735830679427158
 30
0.0
 11
21.0
 21
-0.6715281635160997
 31
0.0
  0
LINE
  5
53A
330
18
100
AcDbEntity
  8
1
 62
     1
100
AcDbLine
 10
21.0
 20
-0.6715281635160997
 30
0.0
 11
21.0
 21
-0.642256803932828
 31
0.0
  0
LINE
  5
53B
330
18
100
AcDbEntity
  8
1
 62
     1
100
AcDbLine
 10
20.6
 20
-0.6735899999999999
 30
0.0
 11
20.55866030950192
 21
-0.745192410927207
 31
0.0
  0
LINE
  5
53C
330
18
100
AcDbEntity
  8
1
 62
     1
100
AcDbLine
 10
20.6
 20
-0.6735899999999999
 30
0.0
 11
20.6
 21
-0.6735565938827206
 31
0.0
  0
LINE
  5
53D
330
18
100
AcDbEntity
  8
1
 62
     1
100
AcDbLine
 10
20.6
 20
-0.6735565938827206
 30
0.0
 11
20.6
 21
-0.663343669694964
 31
0.0
  0
LINE
  5
53E
330
18
100
AcDbEntity
  8
1
 62
     1
100
AcDbLine
 10
20.6
 20
-0.663343669694964
 30
0.0
 11
20.6
 21
-0.5142130994433987
 31
0.0
  0
LINE
  5
53F
330
18
100
AcDbEntity
  8
1
 62
     1
100
AcDbLine
 10
20.68267940989834
 20
-0.8167948719144139
 30
0.0
 11
20.6
 21
-0.6735899999999999
 31
0.0
  0
LINE
  5
540
330
18
100
AcDbEntity
  8
1
 62
     1
100
AcDbLine
 10
20.68267940989834
 20
-0.6895424204471056
 30
0.0
 11
20.68267940989834
 21
-0.8167948719144028
 31
0.0
  0
LINE
  5
541
330
18
100
AcDbEntity
  8
1
 62
     1
100
AcDbLine
 10
25.38906554099554
 20
0.4009344590044583
 30
0.0
 11
25.38397696137621
 21
0.4058089096357204
 31
0.0
  0
LINE
  5
542
330
18
100
AcDbEntity
  8
1
 62
     1
100
AcDbLine
 10
25.38397696137621
 20
0.4058089096357204
 30
0.0
 11
25.37850260024567
 21
0.4106602434755743
 31
0.0
  0
LINE
  5
543
330
18
100
AcDbEntity
  8
1
 62
     1
100
AcDbLine
 10
25.37850260024567
 20
0.4106602434755743
 30
0.0
 11
25.3665706850996
 21
0.4202324077835489
 31
0.0
  0
LINE
  5
544
330
18
100
AcDbEntity
  8
1
 62
     1
100
AcDbLine
 10
25.3665706850996
 20
0.4202324077835489
 30
0.0
 11
25.3535510270499
 21
0.4295691089886933
 31
0.0
  0
LINE
  5
545
330
18
100
AcDbEntity
  8
1
 62
     1
100
AcDbLine
 10
25.3535510270499
 20
0.4295691089886933
 30
0.0
 11
25.33965748299057
 21
0.4386209604060189
 31
0.0
  0
LINE
  5
546
330
18
100
AcDbEntity
  8
1
 62
     1
100
AcDbLine
 10
25.33965748299057
 20
0.4386209604060189
 30
0.0
 11
25.32505370818696
 21
0.4473586925087853
 31
0.0
  0
LINE
  5
547
330
18
100
AcDbEntity
  8
1
 62
     1
100
AcDbLine
 10
25.32505370818696
 20
0.4473586925087853
 30
0.0
 11
25.29418594884284
 21
0.4638367939900384
 31
0.0
  0
LINE
  5
548
330
18
100
AcDbEntity
  8
1
 62
     1
100
AcDbLine
 10
25.29418594884284
 20
0.4638367939900384
 30
0.0
 11
25.26166088403715
 21
0.4789509332494039
 31
0.0
  0
LINE
  5
549
330
18
100
AcDbEntity
  8
1
 62
     1
100
AcDbLine
 10
25.26166088403715
 20
0.4789509332494039
 30
0.0
 11
25.22793225680442
 21
0.4927052293233004
 31
0.0
  0
LINE
  5
54A
330
18
100
AcDbEntity
  8
1
 62
     1
100
AcDbLine
 10
25.22793225680442
 20
0.4927052293233004
 30
0.0
 11
25.19330058661777
 21
0.5051280122469943
 31
0.0
  0
LINE
  5
54B
330
18
100
AcDbEntity
  8
1
 62
     1
100
AcDbLine
 10
25.19330058661777
 20
0.5051280122469943
 30
0.0
 11
25.1400940366853
 21
0.5213548989313372
 31
0.0
  0
LINE
  5
54C
330
18
100
AcDbEntity
  8
1
 62
     1
100
AcDbLine
 10
25.38906554099554
 20
0.400934459004458
 30
0.0
 11
25.79
 21
0.0000000000000001
 31
0.0
  0
LINE
  5
54D
330
18
100
AcDbEntity
  8
1
 62
     1
100
AcDbLine
 10
25.18925304108239
 20
0.4739893783491385
 30
0.0
 11
25.21281687950843
 21
0.4526419855762929
 31
0.0
  0
LINE
  5
54E
330
18
100
AcDbEntity
  8
1
 62
     1
100
AcDbLine
 10
25.21281687950843
 20
0.4526419855762929
 30
0.0
 11
25.23653645433557
 21
0.4326127562542709
 31
0.0
  0
LINE
  5
54F
330
18
100
AcDbEntity
  8
1
 62
     1
100
AcDbLine
 10
25.23653645433557
 20
0.4326127562542709
 30
0.0
 11
25.26032681411412
 21
0.4141196162787306
 31
0.0
  0
LINE
  5
550
330
18
100
AcDbEntity
  8
1
 62
     1
100
AcDbLine
 10
25.26032681411412
 20
0.4141196162787306
 30
0.0
 11
25.28400454786233
 21
0.3974520523704618
 31
0.0
  0
LINE
  5
551
330
18
100
AcDbEntity
  8
1
 62
     1
100
AcDbLine
 10
25.28400454786233
 20
0.3974520523704618
 30
0.0
 11
25.30735244365476
 21
0.382910521968902
 31
0.0
  0
LINE
  5
552
330
18
100
AcDbEntity
  8
1
 62
     1
100
AcDbLine
 10
25.30735244365476
 20
0.382910521968902
 30
0.0
 11
25.31880328941147
 21
0.3765461834409561
 31
0.0
  0
LINE
  5
553
330
18
100
AcDbEntity
  8
1
 62
     1
100
AcDbLine
 10
25.31880328941147
 20
0.3765461834409561
 30
0.0
 11
25.33002312221256
 21
0.3708571546836743
 31
0.0
  0
LINE
  5
554
330
18
100
AcDbEntity
  8
1
 62
     1
100
AcDbLine
 10
25.33002312221256
 20
0.3708571546836743
 30
0.0
 11
25.34095414818878
 21
0.3658903839697534
 31
0.0
  0
LINE
  5
555
330
18
100
AcDbEntity
  8
1
 62
     1
100
AcDbLine
 10
25.34095414818878
 20
0.3658903839697534
 30
0.0
 11
25.3514927625343
 21
0.3617082656790969
 31
0.0
  0
LINE
  5
556
330
18
100
AcDbEntity
  8
1
 62
     1
100
AcDbLine
 10
25.3514927625343
 20
0.3617082656790969
 30
0.0
 11
25.36155083849081
 21
0.3583637177550588
 31
0.0
  0
LINE
  5
557
330
18
100
AcDbEntity
  8
1
 62
     1
100
AcDbLine
 10
25.36155083849081
 20
0.3583637177550588
 30
0.0
 11
25.36635918111412
 21
0.3570217210936961
 31
0.0
  0
LINE
  5
558
330
18
100
AcDbEntity
  8
1
 62
     1
100
AcDbLine
 10
25.36635918111412
 20
0.3570217210936961
 30
0.0
 11
25.37099400339469
 21
0.3559095585624405
 31
0.0
  0
ARC
  5
559
330
18
100
AcDbEntity
  8
1
 62
     1
100
AcDbCircle
 10
24.88792081881203
 20
0.2341999734823477
 30
0.0
 40
0.9379830181460621
100
AcDbArc
 50
260.8392812505177
 51
271.1987082846817
  0
LINE
  5
55A
330
18
100
AcDbEntity
  8
1
 62
     1
100
AcDbLine
 10
23.61154701076759
 20
0.235117399445645
 30
0.0
 11
23.61154701076759
 21
-0.4671958968502328
 31
0.0
  0
LINE
  5
55B
330
18
100
AcDbEntity
  8
1
 62
     1
100
AcDbLine
 10
23.58845298923242
 20
0.2572783415732025
 30
0.0
 11
23.58845298923242
 21
-0.4468590962912842
 31
0.0
  0
LINE
  5
55C
330
18
100
AcDbEntity
  8
1
 62
     1
100
AcDbLine
 10
22.01154701076759
 20
1.0
 30
0.0
 11
22.01154701076759
 21
0.9999765095376589
 31
0.0
  0
LINE
  5
55D
330
18
100
AcDbEntity
  8
1
 62
     1
100
AcDbLine
 10
22.01154701076759
 20
0.9999765095376589
 30
0.0
 11
22.01154701076759
 21
0.9929171237583965
 31
0.0
  0
LINE
  5
55E
330
18
100
AcDbEntity
  8
1
 62
     1
100
AcDbLine
 10
22.01154701076759
 20
0.9929171237583965
 30
0.0
 11
22.01154701076759
 21
0.8903174291715743
 31
0.0
  0
LINE
  5
55F
330
18
100
AcDbEntity
  8
1
 62
     1
100
AcDbLine
 10
21.98845298923241
 20
1.0
 30
0.0
 11
22.01154701076759
 21
1.0
 31
0.0
  0
ARC
  5
560
330
18
100
AcDbEntity
  8
1
 62
     1
100
AcDbCircle
 10
17.85884874096426
 20
-2.700649303927722
 30
0.0
 40
4.991931240238841
100
AcDbArc
 50
24.85859381709411
 51
29.58312080358429
  0
LINE
  5
561
330
18
100
AcDbEntity
  8
1
 62
     1
100
AcDbLine
 10
22.2
 20
-0.6159065578567482
 30
0.0
 11
22.2
 21
-0.2362234814625498
 31
0.0
  0
ARC
  5
562
330
18
100
AcDbEntity
  8
1
 62
     1
100
AcDbCircle
 10
17.15186580200213
 20
-3.451554968721219
 30
0.0
 40
5.790142842871565
100
AcDbArc
 50
25.26795547611032
 51
29.32388352744461
  0
LINE
  5
563
330
18
100
AcDbEntity
  8
1
 62
     1
100
AcDbLine
 10
22.38845298923242
 20
-0.6020544268210869
 30
0.0
 11
22.38845298923242
 21
-0.9798137352889785
 31
0.0
  0
ARC
  5
564
330
18
100
AcDbEntity
  8
1
 62
     1
100
AcDbCircle
 10
3.389515404093803
 20
-9.70176203605352
 30
0.0
 40
21.31736199702855
100
AcDbArc
 50
24.49434012454051
 51
25.68812089705746
  0
LINE
  5
565
330
18
100
AcDbEntity
  8
1
 62
     1
100
AcDbLine
 10
22.6
 20
-0.6734439858070842
 30
0.0
 11
22.6
 21
-0.6592429753795592
 31
0.0
  0
LINE
  5
566
330
18
100
AcDbEntity
  8
1
 62
     1
100
AcDbLine
 10
22.6
 20
-0.6592429753795592
 30
0.0
 11
22.6
 21
-0.4612850800670515
 31
0.0
  0
LINE
  5
567
330
18
100
AcDbEntity
  8
1
 62
     1
100
AcDbLine
 10
22.78845298923242
 20
-0.8634710273944792
 30
0.0
 11
22.78845298923242
 21
-1.0
 31
0.0
  0
LINE
  5
568
330
18
100
AcDbEntity
  8
1
 62
     1
100
AcDbLine
 10
24.01154701076759
 20
-0.7761250204741764
 30
0.0
 11
24.01771814085501
 21
-0.7654023001151494
 31
0.0
  0
ARC
  5
569
330
18
100
AcDbEntity
  8
1
 62
     1
100
AcDbCircle
 10
22.00832487539971
 20
0.046074724785735
 30
0.0
 40
0.7788499731177294
100
AcDbArc
 50
301.1836772437205
 51
319.3870013413627
  0
LINE
  5
56A
330
18
100
AcDbEntity
  8
1
 62
     1
100
AcDbLine
 10
22.41154701076759
 20
-0.6201524240134084
 30
0.0
 11
22.41154701076758
 21
-0.9841282850191856
 31
0.0
  0
ARC
  5
56B
330
18
100
AcDbEntity
  8
1
 62
     1
100
AcDbCircle
 10
1.06121645533656
 20
12.20036679411643
 30
0.0
 40
25.09313568674591
100
AcDbArc
 50
328.3033760327453
 51
329.1330825601258
  0
LINE
  5
56C
330
18
100
AcDbEntity
  8
1
 62
     1
100
AcDbLine
 10
23.4
 20
-0.6733900491468267
 30
0.0
 11
23.41377034597138
 21
-0.6974409277397264
 31
0.0
  0
LINE
  5
56D
330
18
100
AcDbEntity
  8
1
 62
     1
100
AcDbLine
 10
23.4
 20
-0.6735899999970203
 30
0.0
 11
23.4
 21
-0.6735899991471023
 31
0.0
  0
LINE
  5
56E
330
18
100
AcDbEntity
  8
1
 62
     1
100
AcDbLine
 10
23.4
 20
-0.6735899991471023
 30
0.0
 11
23.4
 21
-0.6735897801048537
 31
0.0
  0
LINE
  5
56F
330
18
100
AcDbEntity
  8
1
 62
     1
100
AcDbLine
 10
23.4
 20
-0.6735897801048537
 30
0.0
 11
23.4
 21
-0.6735740664585309
 31
0.0
  0
LINE
  5
570
330
18
100
AcDbEntity
  8
1
 62
     1
100
AcDbLine
 10
23.4
 20
-0.6735740664585309
 30
0.0
 11
23.4
 21
-0.6733900491468265
 31
0.0
  0
ARC
  5
571
330
18
100
AcDbEntity
  8
1
 62
     1
100
AcDbCircle
 10
25.78147629098926
 20
0.6516775223445243
 30
0.0
 40
2.725053084112012
100
AcDbArc
 50
209.6744831032231
 51
216.4059771030549
  0
LINE
  5
572
330
18
100
AcDbEntity
  8
1
 62
     1
100
AcDbLine
 10
23.41377034597138
 20
-0.6974409277397282
 30
0.0
 11
23.4
 21
-0.6735899999999999
 31
0.0
  0
ARC
  5
573
330
18
100
AcDbEntity
  8
1
 62
     1
100
AcDbCircle
 10
7.990086212151567
 20
8.162893549497417
 30
0.0
 40
17.76349844323246
100
AcDbArc
 50
328.9698711207974
 51
330.1693718349278
  0
LINE
  5
574
330
18
100
AcDbEntity
  8
1
 62
     1
100
AcDbLine
 10
23.21154701076759
 20
-0.9939802053656466
 30
0.0
 11
23.21154701076759
 21
-1.0
 31
0.0
  0
LINE
  5
575
330
18
100
AcDbEntity
  8
1
 62
     1
100
AcDbLine
 10
23.4
 20
-0.6735899999999999
 30
0.0
 11
23.2115470107676
 21
-0.9999999999999962
 31
0.0
  0
ARC
  5
576
330
18
100
AcDbEntity
  8
1
 62
     1
100
AcDbCircle
 10
34.12756515501849
 20
4.718214785927003
 30
0.0
 40
12.33955738099079
100
AcDbArc
 50
205.607181101425
 51
207.5613223542025
  0
LINE
  5
577
330
18
100
AcDbEntity
  8
1
 62
     1
100
AcDbLine
 10
23.18845298923242
 20
-1.000000000000009
 30
0.0
 11
23.0
 21
-0.6735899999999999
 31
0.0
  0
LINE
  5
578
330
18
100
AcDbEntity
  8
1
 62
     1
100
AcDbLine
 10
23.18845298923242
 20
-0.991215469952
 30
0.0
 11
23.18845298923242
 21
-1.0
 31
0.0
  0
ARC
  5
579
330
18
100
AcDbEntity
  8
1
 62
     1
100
AcDbCircle
 10
20.65363049915123
 20
0.8857151711692961
 30
0.0
 40
2.784990504036313
100
AcDbArc
 50
320.7914066807704
 51
327.3985213670103
  0
LINE
  5
57A
330
18
100
AcDbEntity
  8
1
 62
     1
100
AcDbLine
 10
22.81154701076759
 20
-0.8747775857802205
 30
0.0
 11
22.81154701076759
 21
-1.0
 31
0.0
  0
LINE
  5
57B
330
18
100
AcDbEntity
  8
1
 62
     1
100
AcDbLine
 10
23.0
 20
-0.6735899999999999
 30
0.0
 11
22.81154701076759
 21
-1.000000000000002
 31
0.0
  0
LINE
  5
57C
330
18
100
AcDbEntity
  8
1
 62
     1
100
AcDbLine
 10
23.0
 20
-0.6735899999999999
 30
0.0
 11
23.0
 21
-0.6735773289745434
 31
0.0
  0
LINE
  5
57D
330
18
100
AcDbEntity
  8
1
 62
     1
100
AcDbLine
 10
23.0
 20
-0.6735773289745434
 30
0.0
 11
23.0
 21
-0.6697852884602387
 31
0.0
  0
LINE
  5
57E
330
18
100
AcDbEntity
  8
1
 62
     1
100
AcDbLine
 10
23.0
 20
-0.6697852884602387
 30
0.0
 11
23.0
 21
-0.6149360470786336
 31
0.0
  0
ARC
  5
57F
330
18
100
AcDbEntity
  8
1
 62
     1
100
AcDbCircle
 10
31.50018750756059
 20
-5.217649357949484
 30
0.0
 40
8.964580878548741
100
AcDbArc
 50
149.2009966769244
 51
151.6395204258262
  0
ARC
  5
580
330
18
100
AcDbEntity
  8
1
 62
     1
100
AcDbCircle
 10
24.36423598557
 20
-0.1680903872299907
 30
0.0
 40
0.7275483839222382
100
AcDbArc
 50
219.1589878892388
 51
238.8717582620551
  0
ARC
  5
581
330
18
100
AcDbEntity
  8
1
 62
     1
100
AcDbCircle
 10
22.05331975252544
 20
0.0392984321523439
 30
0.0
 40
0.3117001300545275
100
AcDbArc
 50
262.2966312261084
 51
298.0296026380724
  0
LINE
  5
582
330
18
100
AcDbEntity
  8
1
 62
     1
100
AcDbLine
 10
22.01154701076759
 20
-0.2695226772357586
 30
0.0
 11
22.01154701076759
 21
-0.8394950640198461
 31
0.0
  0
ARC
  5
583
330
18
100
AcDbEntity
  8
1
 62
     1
100
AcDbCircle
 10
28.99184532734636
 20
-6.544827423583834
 30
0.0
 40
9.015338802970916
100
AcDbArc
 50
138.8807646132838
 51
140.73922459499
  0
ARC
  5
584
330
18
100
AcDbEntity
  8
1
 62
     1
100
AcDbCircle
 10
20.53485502839173
 20
-1.046314799690518
 30
0.0
 40
1.658159630808302
100
AcDbArc
 50
28.79266193709122
 51
40.2684081087576
  0
LINE
  5
585
330
18
100
AcDbEntity
  8
1
 62
     1
100
AcDbLine
 10
21.8
 20
-0.4630219059267058
 30
0.0
 11
21.8
 21
0.0254074382276162
 31
0.0
  0
LINE
  5
586
330
18
100
AcDbEntity
  8
1
 62
     1
100
AcDbLine
 10
21.8
 20
-0.4630219059267058
 30
0.0
 11
21.82591391152464
 21
-0.5023125320656243
 31
0.0
  0
LINE
  5
587
330
18
100
AcDbEntity
  8
1
 62
     1
100
AcDbLine
 10
21.82591391152464
 20
-0.5023125320656243
 30
0.0
 11
21.85123957958845
 21
-0.5444752071404484
 31
0.0
  0
LINE
  5
588
330
18
100
AcDbEntity
  8
1
 62
     1
100
AcDbLine
 10
21.85123957958845
 20
-0.5444752071404484
 30
0.0
 11
21.89984211613244
 21
-0.634913743032056
 31
0.0
  0
LINE
  5
589
330
18
100
AcDbEntity
  8
1
 62
     1
100
AcDbLine
 10
21.89984211613244
 20
-0.634913743032056
 30
0.0
 11
21.94556614269437
 21
-0.7301099096043215
 31
0.0
  0
LINE
  5
58A
330
18
100
AcDbEntity
  8
1
 62
     1
100
AcDbLine
 10
21.94556614269437
 20
-0.7301099096043215
 30
0.0
 11
21.98845298923241
 21
-0.8268524494787581
 31
0.0
  0
LINE
  5
58B
330
18
100
AcDbEntity
  8
1
 62
     1
100
AcDbLine
 10
21.98845298923242
 20
-0.2474349737439419
 30
0.0
 11
21.98845298923242
 21
-0.8268524494787312
 31
0.0
  0
ARC
  5
58C
330
18
100
AcDbEntity
  8
1
 62
     1
100
AcDbCircle
 10
21.90062215735033
 20
0.44767245309084
 30
0.0
 40
0.4347144398411716
100
AcDbArc
 50
228.3342143679799
 51
256.5968618362755
  0
LINE
  5
58D
330
18
100
AcDbEntity
  8
1
 62
     1
100
AcDbLine
 10
21.61154701076759
 20
0.1228312805409014
 30
0.0
 11
21.61154701076759
 21
-0.5649013518502197
 31
0.0
  0
ARC
  5
58E
330
18
100
AcDbEntity
  8
1
 62
     1
100
AcDbCircle
 10
22.37406377805601
 20
-1.754516478210644
 30
0.0
 40
1.413070415846577
100
AcDbArc
 50
113.9649410278859
 51
122.6589658329599
  0
ARC
  5
58F
330
18
100
AcDbEntity
  8
1
 62
     1
100
AcDbCircle
 10
21.24831216185671
 20
-0.1044704680779481
 30
0.0
 40
0.4162612349214864
100
AcDbArc
 50
47.36345198692842
 51
68.62580555211616
  0
LINE
  5
590
330
18
100
AcDbEntity
  8
1
 62
     1
100
AcDbLine
 10
21.40000000000001
 20
-0.2384577413588535
 30
0.0
 11
21.4
 21
0.2831050200671559
 31
0.0
  0
LINE
  5
591
330
18
100
AcDbEntity
  8
1
 62
     1
100
AcDbLine
 10
21.4
 20
-0.2384577413588534
 30
0.0
 11
21.41302131393518
 21
-0.2512637835810526
 31
0.0
  0
LINE
  5
592
330
18
100
AcDbEntity
  8
1
 62
     1
100
AcDbLine
 10
21.41302131393518
 20
-0.2512637835810526
 30
0.0
 11
21.42591390889651
 21
-0.2652628954102654
 31
0.0
  0
LINE
  5
593
330
18
100
AcDbEntity
  8
1
 62
     1
100
AcDbLine
 10
21.42591390889651
 20
-0.2652628954102654
 30
0.0
 11
21.4386540684279
 21
-0.2803626495290442
 31
0.0
  0
LINE
  5
594
330
18
100
AcDbEntity
  8
1
 62
     1
100
AcDbLine
 10
21.4386540684279
 20
-0.2803626495290442
 30
0.0
 11
21.45123957422558
 21
-0.2964925927729883
 31
0.0
  0
LINE
  5
595
330
18
100
AcDbEntity
  8
1
 62
     1
100
AcDbLine
 10
21.45123957422558
 20
-0.2964925927729883
 30
0.0
 11
21.47589555095646
 21
-0.3315185705401306
 31
0.0
  0
LINE
  5
596
330
18
100
AcDbEntity
  8
1
 62
     1
100
AcDbLine
 10
21.47589555095646
 20
-0.3315185705401306
 30
0.0
 11
21.49984211671428
 21
-0.3697793633966175
 31
0.0
  0
LINE
  5
597
330
18
100
AcDbEntity
  8
1
 62
     1
100
AcDbLine
 10
21.49984211671428
 20
-0.3697793633966175
 30
0.0
 11
21.52306517047325
 21
-0.4107730717433344
 31
0.0
  0
LINE
  5
598
330
18
100
AcDbEntity
  8
1
 62
     1
100
AcDbLine
 10
21.52306517047325
 20
-0.4107730717433344
 30
0.0
 11
21.54556614169304
 21
-0.454050130559557
 31
0.0
  0
LINE
  5
599
330
18
100
AcDbEntity
  8
1
 62
     1
100
AcDbLine
 10
21.54556614169304
 20
-0.454050130559557
 30
0.0
 11
21.58845298923242
 21
-0.5458877550806415
 31
0.0
  0
ARC
  5
59A
330
18
100
AcDbEntity
  8
1
 62
     1
100
AcDbCircle
 10
22.19726903912624
 20
1.174683305810007
 30
0.0
 40
1.196575607213105
100
AcDbArc
 50
214.5412492420774
 51
228.1962128713344
  0
LINE
  5
59B
330
18
100
AcDbEntity
  8
1
 62
     1
100
AcDbLine
 10
21.21154701076759
 20
0.4961699423524689
 30
0.0
 11
21.21154701076759
 21
-0.2028564736626698
 31
0.0
  0
ARC
  5
59C
330
18
100
AcDbEntity
  8
1
 62
     1
100
AcDbCircle
 10
21.17749189744524
 20
-0.8933154317655992
 30
0.0
 40
0.6913603368446062
100
AcDbArc
 50
71.23322280048014
 51
87.17632119069205
  0
ARC
  5
59D
330
18
100
AcDbEntity
  8
1
 62
     1
100
AcDbCircle
 10
21.12024344871715
 20
0.2488044073420439
 30
0.0
 40
0.2757313163775886
100
AcDbArc
 50
75.6738041120246
 51
115.851023679972
  0
ARC
  5
59E
330
18
100
AcDbEntity
  8
1
 62
     1
100
AcDbCircle
 10
20.95275184233471
 20
-0.1354658995757224
 30
0.0
 40
0.1654030902475486
100
AcDbArc
 50
51.04243916433113
 51
73.39967198824367
  0
ARC
  5
59F
330
18
100
AcDbEntity
  8
1
 62
     1
100
AcDbCircle
 10
23.29658355146892
 20
2.15949480412606
 30
0.0
 40
2.83529847654264
100
AcDbArc
 50
210.7013084384418
 51
215.901144039311
  0
LINE
  5
5A0
330
18
100
AcDbEntity
  8
1
 62
     1
100
AcDbLine
 10
20.85866027454502
 20
0.1547100883534963
 30
0.0
 11
20.88309915914848
 21
0.1343683043823671
 31
0.0
  0
LINE
  5
5A1
330
18
100
AcDbEntity
  8
1
 62
     1
100
AcDbLine
 10
20.88309915914848
 20
0.1343683043823671
 30
0.0
 11
20.88386810478936
 21
0.1337106952760994
 31
0.0
  0
LINE
  5
5A2
330
18
100
AcDbEntity
  8
1
 62
     1
100
AcDbLine
 10
20.88386810478937
 20
0.1337106952760994
 30
0.0
 11
20.88387801683308
 21
0.1337022115791084
 31
0.0
  0
LINE
  5
5A3
330
18
100
AcDbEntity
  8
1
 62
     1
100
AcDbLine
 10
21.0
 20
0.0230215800525427
 30
0.0
 11
21.0
 21
0.4969756778238774
 31
0.0
  0
LINE
  5
5A4
330
18
100
AcDbEntity
  8
1
 62
     1
100
AcDbLine
 10
20.55866030950191
 20
0.7039909860080558
 30
0.0
 11
20.55866030950192
 21
0.3463423205458108
 31
0.0
  0
LINE
  5
5A5
330
18
100
AcDbEntity
  8
1
 62
     1
100
AcDbLine
 10
20.55866030950191
 20
0.3463423205767582
 30
0.0
 11
20.6
 21
0.280936940847491
 31
0.0
  0
LINE
  5
5A6
330
18
100
AcDbEntity
  8
1
 62
     1
100
AcDbLine
 10
20.6
 20
0.2809369408474917
 30
0.0
 11
20.6
 21
0.6339105867827916
 31
0.0
  0
LINE
  5
5A7
330
18
100
AcDbEntity
  8
1
 62
     1
100
AcDbLine
 10
24.41154701076759
 20
-0.9574970363553921
 30
0.0
 11
24.38845298923242
 21
-0.9506519417247923
 31
0.0
  0
LINE
  5
5A8
330
18
100
AcDbEntity
  8
1
 62
     1
100
AcDbLine
 10
24.01154701076759
 20
-0.7721109671136501
 30
0.0
 11
23.98845298923246
 21
-0.7573797432751453
 31
0.0
  0
LINE
  5
5A9
330
18
100
AcDbEntity
  8
1
 62
     1
100
AcDbLine
 10
23.6115470107676
 20
-0.4671958968502405
 30
0.0
 11
23.58845298923241
 21
-0.4468590962912826
 31
0.0
  0
LINE
  5
5AA
330
18
100
AcDbEntity
  8
1
 62
     1
100
AcDbLine
 10
23.2115470107676
 20
-0.0899552437364802
 30
0.0
 11
23.18845298923242
 21
-0.0671610265432317
 31
0.0
  0
LINE
  5
5AB
330
18
100
AcDbEntity
  8
1
 62
     1
100
AcDbLine
 10
22.81154701076758
 20
0.3012111330340929
 30
0.0
 11
22.78845298923241
 21
0.3229340000838326
 31
0.0
  0
LINE
  5
5AC
330
18
100
AcDbEntity
  8
1
 62
     1
100
AcDbLine
 10
22.41154701076754
 20
0.6457477060492312
 30
0.0
 11
22.38845298923241
 21
0.6630362502007002
 31
0.0
  0
LINE
  5
5AD
330
18
100
AcDbEntity
  8
1
 62
     1
100
AcDbLine
 10
22.01154701076758
 20
0.8903174291715769
 30
0.0
 11
21.98845298923242
 21
0.9004952830811206
 31
0.0
  0
LINE
  5
5AE
330
18
100
AcDbEntity
  8
1
 62
     1
100
AcDbLine
 10
21.61154701076758
 20
0.9970588531861502
 30
0.0
 11
21.58845298923242
 21
0.9985504645692443
 31
0.0
  0
LINE
  5
5AF
330
18
100
AcDbEntity
  8
1
 62
     1
100
AcDbLine
 10
21.21154701076759
 20
0.9494476577881108
 30
0.0
 11
21.18845298923241
 21
0.9420220563048812
 31
0.0
  0
LINE
  5
5B0
330
18
100
AcDbEntity
  8
1
 62
     1
100
AcDbLine
 10
20.55866030950192
 20
0.7039909860217668
 30
0.0
 11
20.6
 21
0.6339105867828896
 31
0.0
  0
ARC
  5
5B1
330
18
100
AcDbEntity
  8
1
 62
     1
100
AcDbCircle
 10
21.40072924844701
 20
-0.0178837617689637
 30
0.0
 40
1.032465342310293
100
AcDbArc
 50
134.0672867719187
 51
140.8543788205322
  0
LINE
  5
5B2
330
18
100
AcDbEntity
  8
1
 62
     1
100
AcDbLine
 10
21.21154701076759
 20
0.4961699423524641
 30
0.0
 11
21.18845298923242
 21
0.5158908409418468
 31
0.0
  0
LINE
  5
5B3
330
18
100
AcDbEntity
  8
1
 62
     1
100
AcDbLine
 10
21.61154701076759
 20
0.1228312805408926
 30
0.0
 11
21.58845298923241
 21
0.1454894273270515
 31
0.0
  0
LINE
  5
5B4
330
18
100
AcDbEntity
  8
1
 62
     1
100
AcDbLine
 10
22.01154701076758
 20
-0.269522677235754
 30
0.0
 11
21.98845298923241
 21
-0.2474349737439419
 31
0.0
  0
LINE
  5
5B5
330
18
100
AcDbEntity
  8
1
 62
     1
100
AcDbLine
 10
22.41154701076759
 20
-0.6201524240134139
 30
0.0
 11
22.38845298923242
 21
-0.6020544268210897
 31
0.0
  0
LINE
  5
5B6
330
18
100
AcDbEntity
  8
1
 62
     1
100
AcDbLine
 10
22.81154701076759
 20
-0.8747775857802227
 30
0.0
 11
22.78845298923242
 21
-0.8634710273944792
 31
0.0
  0
LINE
  5
5B7
330
18
100
AcDbEntity
  8
1
 62
     1
100
AcDbLine
 10
23.21154701076759
 20
-0.9939802053656475
 30
0.0
 11
23.18845298923241
 21
-0.9912154699519994
 31
0.0
  0
LINE
  5
5B8
330
18
100
AcDbEntity
  8
1
 62
     1
100
AcDbLine
 10
23.61154701076759
 20
-0.9593067952706736
 30
0.0
 11
23.58845298923242
 21
-0.9655118559771293
 31
0.0
  0
LINE
  5
5B9
330
18
100
AcDbEntity
  8
1
 62
     1
100
AcDbLine
 10
24.01154701076759
 20
-0.7761250204741672
 30
0.0
 11
23.9884529892324
 21
-0.7903393066075733
 31
0.0
  0
LINE
  5
5BA
330
18
100
AcDbEntity
  8
1
 62
     1
100
AcDbLine
 10
20.558327044
 20
-0.4262900136036747
 30
0.0
 11
20.558327044
 21
0.3464612266653145
 31
0.0
  0
LINE
  5
5BB
330
18
100
AcDbEntity
  8
1
 62
     1
100
AcDbLine
 10
22.6
 20
-0.6734439858070842
 30
0.0
 11
22.63180963037281
 21
-0.7286858702872396
 31
0.0
  0
LINE
  5
5BC
330
18
100
AcDbEntity
  8
1
 62
     1
100
AcDbLine
 10
22.41154701076759
 20
-0.9841282850191863
 30
0.0
 11
22.38845298923241
 21
-0.9798137352889775
 31
0.0
  0
LINE
  5
5BD
330
18
100
AcDbEntity
  8
1
 62
     1
100
AcDbLine
 10
22.01154701076759
 20
-0.8394950640198442
 30
0.0
 11
21.98845298923241
 21
-0.8268524494787299
 31
0.0
  0
LINE
  5
5BE
330
18
100
AcDbEntity
  8
1
 62
     1
100
AcDbLine
 10
21.61154701076758
 20
-0.5649013518502166
 30
0.0
 11
21.58845298923242
 21
-0.5458877550806405
 31
0.0
  0
LINE
  5
5BF
330
18
100
AcDbEntity
  8
1
 62
     1
100
AcDbLine
 10
21.21154701076759
 20
-0.2028564736626661
 30
0.0
 11
21.18845298923242
 21
-0.1804153742339092
 31
0.0
  0
ARC
  5
5C0
330
18
100
AcDbEntity
  8
1
 62
     1
100
AcDbCircle
 10
20.65169511647704
 20
0.1612487505997534
 30
0.0
 40
0.1303615633787105
100
AcDbArc
 50
76.24694919661665
 51
113.3602368360418
  0
LINE
  5
5C1
330
18
100
AcDbEntity
  8
1
 62
     1
100
AcDbLine
 10
20.55866030950192
 20
-0.5636114557304072
 30
0.0
 11
20.6
 21
-0.5142130994433987
 31
0.0
  0
LINE
  5
5C2
330
18
100
AcDbEntity
  8
1
 62
     1
100
AcDbLine
 10
20.6
 20
-0.5142130994433987
 30
0.0
 11
20.68267940989834
 21
-0.6895424204471202
 31
0.0
  0
LINE
  5
5C3
330
18
100
AcDbEntity
  8
1
 62
     1
100
AcDbLine
 10
21.61154701076758
 20
-0.9208831250483915
 30
0.0
 11
21.58845298923241
 21
-0.9295554397067642
 31
0.0
  0
LINE
  5
5C4
330
18
100
AcDbEntity
  8
1
 62
     1
100
AcDbLine
 10
24.41154701076759
 20
0.9995151543274743
 30
0.0
 11
24.38845298923241
 21
0.999965753470551
 31
0.0
  0
ARC
  5
5C5
330
18
100
AcDbEntity
  8
1
 62
     1
100
AcDbCircle
 10
28.8358664651146
 20
3.021425142307943
 30
0.0
 40
4.54317065633488
100
AcDbArc
 50
210.1555489949471
 51
212.40099498581
  0
ARC
  5
5C6
330
18
100
AcDbEntity
  8
1
 62
     1
100
AcDbCircle
 10
27.18768762313837
 20
2.591398254130548
 30
0.0
 40
2.911581545952405
100
AcDbArc
 50
221.29333548818
 51
226.6557547147086
  0
LINE
  5
5C7
330
18
100
AcDbEntity
  8
1
 62
     1
100
AcDbLine
 10
25.1892530410824
 20
-0.5566401699743369
 30
0.0
 11
25.24264485735191
 21
-0.5096556860698939
 31
0.0
  0
LINE
  5
5C8
330
18
100
AcDbEntity
  8
1
 62
     1
100
AcDbLine
 10
25.24264485735191
 20
-0.5096556860698939
 30
0.0
 11
25.29605636221686
 21
-0.4576941588595581
 31
0.0
  0
LINE
  5
5C9
330
18
100
AcDbEntity
  8
1
 62
     1
100
AcDbLine
 10
25.29605636221686
 20
-0.4576941588595581
 30
0.0
 11
25.32201570150822
 21
-0.4300555423276008
 31
0.0
  0
LINE
  5
5CA
330
18
100
AcDbEntity
  8
1
 62
     1
100
AcDbLine
 10
25.32201570150822
 20
-0.4300555423276008
 30
0.0
 11
25.34670908884377
 21
-0.4014594122471669
 31
0.0
  0
LINE
  5
5CB
330
18
100
AcDbEntity
  8
1
 62
     1
100
AcDbLine
 10
25.34670908884377
 20
-0.4014594122471669
 30
0.0
 11
25.35828404686486
 21
-0.3868635936236823
 31
0.0
  0
LINE
  5
5CC
330
18
100
AcDbEntity
  8
1
 62
     1
100
AcDbLine
 10
25.35828404686486
 20
-0.3868635936236823
 30
0.0
 11
25.36914016971951
 21
-0.3721071561290711
 31
0.0
  0
LINE
  5
5CD
330
18
100
AcDbEntity
  8
1
 62
     1
100
AcDbLine
 10
25.36914016971951
 20
-0.3721071561290711
 30
0.0
 11
25.37906553821245
 21
-0.3572682852117142
 31
0.0
  0
LINE
  5
5CE
330
18
100
AcDbEntity
  8
1
 62
     1
100
AcDbLine
 10
25.37906553821245
 20
-0.3572682852117142
 30
0.0
 11
25.38785757953343
 21
-0.3424046068673437
 31
0.0
  0
LINE
  5
5CF
330
18
100
AcDbEntity
  8
1
 62
     1
100
AcDbLine
 10
25.38785757953343
 20
-0.3424046068673437
 30
0.0
 11
25.39176268816654
 21
-0.3349866077156844
 31
0.0
  0
LINE
  5
5D0
330
18
100
AcDbEntity
  8
1
 62
     1
100
AcDbLine
 10
25.39176268816654
 20
-0.3349866077156844
 30
0.0
 11
25.3953046432471
 21
-0.327599861719324
 31
0.0
  0
LINE
  5
5D1
330
18
100
AcDbEntity
  8
1
 62
     1
100
AcDbLine
 10
25.3953046432471
 20
-0.327599861719324
 30
0.0
 11
25.39846027154901
 21
-0.3202552627157528
 31
0.0
  0
LINE
  5
5D2
330
18
100
AcDbEntity
  8
1
 62
     1
100
AcDbLine
 10
25.39846027154901
 20
-0.3202552627157528
 30
0.0
 11
25.4012156564076
 21
-0.3129601869531197
 31
0.0
  0
LINE
  5
5D3
330
18
100
AcDbEntity
  8
1
 62
     1
100
AcDbLine
 10
25.4012156564076
 20
-0.3129601869531197
 30
0.0
 11
25.40355320844319
 21
-0.3057367842925659
 31
0.0
  0
LINE
  5
5D4
330
18
100
AcDbEntity
  8
1
 62
     1
100
AcDbLine
 10
25.40355320844319
 20
-0.3057367842925659
 30
0.0
 11
25.40546522806496
 21
-0.2985890684315071
 31
0.0
  0
LINE
  5
5D5
330
18
100
AcDbEntity
  8
1
 62
     1
100
AcDbLine
 10
25.40546522806496
 20
-0.2985890684315071
 30
0.0
 11
25.40695187012021
 21
-0.2915268299591864
 31
0.0
  0
LINE
  5
5D6
330
18
100
AcDbEntity
  8
1
 62
     1
100
AcDbLine
 10
25.40695187012021
 20
-0.2915268299591864
 30
0.0
 11
25.40801287440087
 21
-0.2845652785419756
 31
0.0
  0
LINE
  5
5D7
330
18
100
AcDbEntity
  8
1
 62
     1
100
AcDbLine
 10
25.40801287440087
 20
-0.2845652785419756
 30
0.0
 11
25.4086575522066
 21
-0.2777014714876654
 31
0.0
  0
LINE
  5
5D8
330
18
100
AcDbEntity
  8
1
 62
     1
100
AcDbLine
 10
25.4086575522066
 20
-0.2777014714876654
 30
0.0
 11
25.40889957861582
 21
-0.2709423307244018
 31
0.0
  0
LINE
  5
5D9
330
18
100
AcDbEntity
  8
1
 62
     1
100
AcDbLine
 10
25.40889957861582
 20
-0.2709423307244018
 30
0.0
 11
25.40875318539084
 21
-0.264292670354801
 31
0.0
  0
LINE
  5
5DA
330
18
100
AcDbEntity
  8
1
 62
     1
100
AcDbLine
 10
25.40875318539084
 20
-0.264292670354801
 30
0.0
 11
25.40823765565403
 21
-0.257745508762273
 31
0.0
  0
LINE
  5
5DB
330
18
100
AcDbEntity
  8
1
 62
     1
100
AcDbLine
 10
25.40823765565403
 20
-0.257745508762273
 30
0.0
 11
25.40737375410491
 21
-0.2513030957116309
 31
0.0
  0
LINE
  5
5DC
330
18
100
AcDbEntity
  8
1
 62
     1
100
AcDbLine
 10
25.40737375410491
 20
-0.2513030957116309
 30
0.0
 11
25.40618197558644
 21
-0.2449615109732932
 31
0.0
  0
LINE
  5
5DD
330
18
100
AcDbEntity
  8
1
 62
     1
100
AcDbLine
 10
25.40618197558644
 20
-0.2449615109732932
 30
0.0
 11
25.4046835047568
 21
-0.2387137300841826
 31
0.0
  0
LINE
  5
5DE
330
18
100
AcDbEntity
  8
1
 62
     1
100
AcDbLine
 10
25.4046835047568
 20
-0.2387137300841826
 30
0.0
 11
25.40290006892482
 21
-0.2325578275177222
 31
0.0
  0
LINE
  5
5DF
330
18
100
AcDbEntity
  8
1
 62
     1
100
AcDbLine
 10
25.40290006892482
 20
-0.2325578275177222
 30
0.0
 11
25.40085141283499
 21
-0.2264852149578401
 31
0.0
  0
LINE
  5
5E0
330
18
100
AcDbEntity
  8
1
 62
     1
100
AcDbLine
 10
25.40085141283499
 20
-0.2264852149578401
 30
0.0
 11
25.39855596109859
 21
-0.220489689721029
 31
0.0
  0
LINE
  5
5E1
330
18
100
AcDbEntity
  8
1
 62
     1
100
AcDbLine
 10
25.39855596109859
 20
-0.220489689721029
 30
0.0
 11
25.3960323281336
 21
-0.2145673910958924
 31
0.0
  0
LINE
  5
5E2
330
18
100
AcDbEntity
  8
1
 62
     1
100
AcDbLine
 10
25.3960323281336
 20
-0.2145673910958924
 30
0.0
 11
25.39037185465808
 21
-0.2029227463784303
 31
0.0
  0
LINE
  5
5E3
330
18
100
AcDbEntity
  8
1
 62
     1
100
AcDbLine
 10
25.39037185465808
 20
-0.2029227463784303
 30
0.0
 11
25.38398803817734
 21
-0.1915004155764206
 31
0.0
  0
LINE
  5
5E4
330
18
100
AcDbEntity
  8
1
 62
     1
100
AcDbLine
 10
25.38398803817734
 20
-0.1915004155764206
 30
0.0
 11
25.3769867770546
 21
-0.1802642122981621
 31
0.0
  0
LINE
  5
5E5
330
18
100
AcDbEntity
  8
1
 62
     1
100
AcDbLine
 10
25.3769867770546
 20
-0.1802642122981621
 30
0.0
 11
25.36945270376194
 21
-0.1691751649987178
 31
0.0
  0
LINE
  5
5E6
330
18
100
AcDbEntity
  8
1
 62
     1
100
AcDbLine
 10
25.36945270376194
 20
-0.1691751649987178
 30
0.0
 11
25.35306761413407
 21
-0.1473243088803976
 31
0.0
  0
LINE
  5
5E7
330
18
100
AcDbEntity
  8
1
 62
     1
100
AcDbLine
 10
25.35306761413407
 20
-0.1473243088803976
 30
0.0
 11
25.33528324338048
 21
-0.1257496364640673
 31
0.0
  0
LINE
  5
5E8
330
18
100
AcDbEntity
  8
1
 62
     1
100
AcDbLine
 10
25.33528324338048
 20
-0.1257496364640673
 30
0.0
 11
25.29670518723967
 21
-0.0828931643395068
 31
0.0
  0
LINE
  5
5E9
330
18
100
AcDbEntity
  8
1
 62
     1
100
AcDbLine
 10
25.29670518723967
 20
-0.0828931643395068
 30
0.0
 11
25.0
 21
0.2151106834959864
 31
0.0
  0
LINE
  5
5EA
330
18
100
AcDbEntity
  8
1
 62
     1
100
AcDbLine
 10
25.0
 20
0.1748445900693771
 30
0.0
 11
25.0
 21
0.2151106834959862
 31
0.0
  0
LINE
  5
5EB
330
18
100
AcDbEntity
  8
1
 62
     1
100
AcDbLine
 10
24.41154701076759
 20
0.728547575477724
 30
0.0
 11
24.38845298923241
 21
0.7440184796362106
 31
0.0
  0
LINE
  5
5EC
330
18
100
AcDbEntity
  8
1
 62
     1
100
AcDbLine
 10
24.01154701076759
 20
0.9364040011773536
 30
0.0
 11
23.98845298923242
 21
0.944182525225024
 31
0.0
  0
LINE
  5
5ED
330
18
100
AcDbEntity
  8
1
 62
     1
100
AcDbLine
 10
23.61154701076758
 20
0.9992976255014021
 30
0.0
 11
23.58845298923241
 21
0.9981796440128856
 31
0.0
  0
LINE
  5
5EE
330
18
100
AcDbEntity
  8
1
 62
     1
100
AcDbLine
 10
23.21154701076759
 20
0.9074919931069098
 30
0.0
 11
23.18845298923242
 21
0.89765056100227
 31
0.0
  0
LINE
  5
5EF
330
18
100
AcDbEntity
  8
1
 62
     1
100
AcDbLine
 10
22.41154701076759
 20
0.9894569802381183
 30
0.0
 11
22.38845298923242
 21
0.9925095706394499
 31
0.0
  0
LINE
  5
5F0
330
18
100
AcDbEntity
  8
1
 62
     1
100
AcDbLine
 10
22.81154701076759
 20
0.8569994833668861
 30
0.0
 11
22.78845298923241
 21
0.8685573751439126
 31
0.0
  0
LINE
  5
5F1
330
18
100
AcDbEntity
  8
1
 62
     1
100
AcDbLine
 10
23.21154701076759
 20
0.5918716789026399
 30
0.0
 11
23.18845298923242
 21
0.6101455850338547
 31
0.0
  0
LINE
  5
5F2
330
18
100
AcDbEntity
  8
1
 62
     1
100
AcDbLine
 10
23.61154701076759
 20
0.2351173994456399
 30
0.0
 11
23.58845298923242
 21
0.2572783415731936
 31
0.0
  0
LINE
  5
5F3
330
18
100
AcDbEntity
  8
1
 62
     1
100
AcDbLine
 10
24.01154701076759
 20
-0.1580349759734545
 30
0.0
 11
23.98845298923241
 21
-0.1354176018421455
 31
0.0
  0
LINE
  5
5F4
330
18
100
AcDbEntity
  8
1
 62
     1
100
AcDbLine
 10
24.4115470107676
 20
-0.5267222244320495
 30
0.0
 11
24.38845298923242
 21
-0.5071497769722036
 31
0.0
  0
ARC
  5
5F5
330
18
100
AcDbEntity
  8
1
 62
     1
100
AcDbCircle
 10
23.02694931885929
 20
0.7947319818168372
 30
0.0
 40
2.404496060313536
100
AcDbArc
 50
321.4548479238816
 51
325.1406997976219
  0
ARC
  5
5F6
330
18
100
AcDbEntity
  8
1
 62
     1
100
AcDbCircle
 10
23.94583121932204
 20
0.9132955798915051
 30
0.0
 40
1.925279803155153
100
AcDbArc
 50
303.2012975230804
 51
310.2279534704294
  0
LINE
  5
5F7
330
18
100
AcDbEntity
  8
1
 62
     1
100
AcDbLine
 10
20.558327044
 20
0.7039075319132543
 30
0.0
 11
20.55832704400001
 21
0.3464612266653161
 31
0.0
  0
LINE
  5
5F8
330
18
100
AcDbEntity
  8
1
 62
     1
100
AcDbLine
 10
20.558327044
 20
-0.5632696193297753
 30
0.0
 11
20.558327044
 21
-0.7449999985357968
 31
0.0
  0
LINE
  5
5F9
330
18
100
AcDbEntity
  8
1
 62
     1
100
AcDbLine
 10
20.558327044
 20
-0.5632696193297755
 30
0.0
 11
20.558327044
 21
-0.4262900136036748
 31
0.0
  0
LINE
  5
5FA
330
18
100
AcDbEntity
  8
1
 62
     1
100
AcDbLine
 10
21.2070858951485
 20
-0.999999999426465
 30
0.0
 11
21.20705250501288
 21
-0.9999999988804564
 31
0.0
  0
LINE
  5
5FB
330
18
100
AcDbEntity
  8
1
 62
     1
100
AcDbLine
 10
21.20705250501289
 20
-0.9999999988804569
 30
0.0
 11
21.20703707250204
 21
-0.9999999982588025
 31
0.0
  0
LINE
  5
5FC
330
18
100
AcDbEntity
  8
1
 62
     1
100
AcDbLine
 10
21.20703707250205
 20
-0.9999999982588028
 30
0.0
 11
21.18845298923242
 21
-0.9998298320703559
 31
0.0
  0
LINE
  5
5FD
330
18
100
AcDbEntity
  8
1
 62
     1
100
AcDbLine
 10
21.18845298923241
 20
-1.0
 30
0.0
 11
21.20708589514851
 21
-1.0
 31
0.0
  0
ARC
  5
5FE
330
18
100
AcDbEntity
  8
1
 62
     1
100
AcDbCircle
 10
25.38626874500821
 20
-0.9261057010868035
 30
0.0
 40
3.559235518867618
100
AcDbArc
 50
147.3805781150806
 51
150.0692912116894
  0
LINE
  5
5FF
330
18
100
AcDbEntity
  8
1
 62
     1
100
AcDbLine
 10
22.30172646369901
 20
0.8497853214498698
 30
0.0
 11
22.2
 21
0.6735899999999999
 31
0.0
  0
LINE
  5
600
330
18
100
AcDbEntity
  8
1
 62
     1
100
AcDbLine
 10
22.2
 20
0.6735899999999999
 30
0.0
 11
22.01154701076759
 21
0.9999999999999994
 31
0.0
  0
LINE
  5
601
330
18
100
AcDbEntity
  8
1
 62
     1
100
AcDbLine
 10
21.98845298923241
 20
1.000000000000002
 30
0.0
 11
21.8
 21
0.6735899999999999
 31
0.0
  0
LINE
  5
602
330
18
100
AcDbEntity
  8
1
 62
     1
100
AcDbLine
 10
21.8
 20
0.6735899999999999
 30
0.0
 11
21.61154701076759
 21
0.9999999999999993
 31
0.0
  0
LINE
  5
603
330
18
100
AcDbEntity
  8
1
 62
     1
100
AcDbLine
 10
21.55316499386857
 20
0.9388794266661262
 30
0.0
 11
21.58845298923242
 21
0.998550464569244
 31
0.0
  0
LINE
  5
604
330
18
100
AcDbEntity
  8
1
 62
     1
100
AcDbLine
 10
21.58845298923242
 20
0.9999999999999991
 30
0.0
 11
21.55316499345118
 21
0.9388794269071082
 31
0.0
  0
LINE
  5
605
330
18
100
AcDbEntity
  8
1
 62
     1
100
AcDbLine
 10
20.68267940989833
 20
-0.8167948719144029
 30
0.0
 11
20.85866027454502
 21
-0.9183974714742984
 31
0.0
  0
LINE
  5
606
330
18
100
AcDbEntity
  8
1
 62
     1
100
AcDbLine
 10
20.558327044
 20
-0.745
 30
0.0
 11
20.55866030950192
 21
-0.7451924109272118
 31
0.0
  0
LINE
  5
607
330
18
100
AcDbEntity
  8
1
 62
     1
100
AcDbLine
 10
23.18845298923242
 20
-1.0
 30
0.0
 11
23.21154701076759
 21
-1.0
 31
0.0
  0
LINE
  5
608
330
18
100
AcDbEntity
  8
1
 62
     1
100
AcDbLine
 10
22.78845298923242
 20
-1.0
 30
0.0
 11
22.81154701076759
 21
-1.0
 31
0.0
  0
LINE
  5
609
330
18
100
AcDbEntity
  8
1
 62
     1
100
AcDbLine
 10
24.20000000000001
 20
0.67359
 30
0.0
 11
24.01154701076759
 21
0.9999999999999979
 31
0.0
  0
LINE
  5
60A
330
18
100
AcDbEntity
  8
1
 62
     1
100
AcDbLine
 10
23.68265776649083
 20
0.8768326156999131
 30
0.0
 11
23.68313010720191
 21
0.8760144527341196
 31
0.0
  0
LINE
  5
60B
330
18
100
AcDbEntity
  8
1
 62
     1
100
AcDbLine
 10
23.68313010720191
 20
0.8760144527341196
 30
0.0
 11
23.8
 21
0.6687379599678069
 31
0.0
  0
LINE
  5
60C
330
18
100
AcDbEntity
  8
1
 62
     1
100
AcDbLine
 10
23.8
 20
0.6735899999999999
 30
0.0
 11
23.68265776642573
 21
0.8768326156623227
 31
0.0
  0
LINE
  5
60D
330
18
100
AcDbEntity
  8
1
 62
     1
100
AcDbLine
 10
23.98845298923241
 20
1.000000000000008
 30
0.0
 11
23.8
 21
0.6735899999999999
 31
0.0
  0
LINE
  5
60E
330
18
100
AcDbEntity
  8
1
 62
     1
100
AcDbLine
 10
24.38232850748926
 20
0.9893920910979042
 30
0.0
 11
24.38845298923241
 21
0.9999657564552793
 31
0.0
  0
LINE
  5
60F
330
18
100
AcDbEntity
  8
1
 62
     1
100
AcDbLine
 10
24.38232850735984
 20
0.9893920911726205
 30
0.0
 11
24.2
 21
0.67359
 31
0.0
  0
LINE
  5
610
330
18
100
AcDbEntity
  8
1
 62
     1
100
AcDbLine
 10
25.0
 20
-0.79
 30
0.0
 11
25.79
 21
0.0000000000000001
 31
0.0
  0
LINE
  5
611
330
18
100
AcDbEntity
  8
1
 62
     1
100
AcDbLine
 10
24.73859229265859
 20
-0.9136387804993151
 30
0.0
 11
24.90754338495487
 21
-0.8337294800889111
 31
0.0
  0
ARC
  5
612
330
18
100
AcDbEntity
  8
1
 62
     1
100
AcDbCircle
 10
22.79234664030086
 20
-0.2757504273951983
 30
0.0
 40
0.4471094829268295
100
AcDbArc
 50
27.77126790472983
 51
48.87538277552714
  0
ARC
  5
613
330
18
100
AcDbEntity
  8
1
 62
     1
100
AcDbCircle
 10
21.59741666926095
 20
-1.019185641927172
 30
0.0
 40
1.794019515005771
100
AcDbArc
 50
38.57753228687502
 51
46.78712704293219
  0
LINE
  5
614
330
18
100
AcDbEntity
  8
1
 62
     1
100
AcDbLine
 10
22.78692855278982
 20
0.3243685805545376
 30
0.0
 11
22.7869302406295
 21
0.324367004457251
 31
0.0
  0
LINE
  5
615
330
18
100
AcDbEntity
  8
1
 62
     1
100
AcDbLine
 10
22.7869302406295
 20
0.324367004457251
 30
0.0
 11
22.78845298923243
 21
0.3229340000838203
 31
0.0
  0
LINE
  5
616
330
18
100
AcDbEntity
  8
1
 62
     1
100
AcDbLine
 10
22.82578188943249
 20
0.288301644620695
 30
0.0
 11
22.82505027341373
 21
0.2889766691214042
 31
0.0
  0
ARC
  5
617
330
18
100
AcDbEntity
  8
1
 62
     1
100
AcDbCircle
 10
21.05138049177898
 20
-0.347069665844943
 30
0.0
 40
0.7287156469792236
100
AcDbArc
 50
42.52450972112369
 51
48.89272999319947
  0
LINE
  5
618
330
18
100
AcDbEntity
  8
1
 62
     1
100
AcDbLine
 10
25.37099400339469
 20
0.3559095585624405
 30
0.0
 11
25.37493286024939
 21
0.3551228700154138
 31
0.0
  0
LINE
  5
619
330
18
100
AcDbEntity
  8
1
 62
     1
100
AcDbLine
 10
25.37493286024939
 20
0.3551228700154138
 30
0.0
 11
25.37871458706248
 21
0.3545220933604717
 31
0.0
  0
LINE
  5
61A
330
18
100
AcDbEntity
  8
1
 62
     1
100
AcDbLine
 10
25.37871458706248
 20
0.3545220933604717
 30
0.0
 11
25.38232392681773
 21
0.3541092851993857
 31
0.0
  0
LINE
  5
61B
330
18
100
AcDbEntity
  8
1
 62
     1
100
AcDbLine
 10
25.38232392681773
 20
0.3541092851993857
 30
0.0
 11
25.38574528787572
 21
0.353886610227835
 31
0.0
  0
LINE
  5
61C
330
18
100
AcDbEntity
  8
1
 62
     1
100
AcDbLine
 10
25.38574528787572
 20
0.353886610227835
 30
0.0
 11
25.38896865830824
 21
0.3538549931171363
 31
0.0
  0
LINE
  5
61D
330
18
100
AcDbEntity
  8
1
 62
     1
100
AcDbLine
 10
25.38896865830824
 20
0.3538549931171363
 30
0.0
 11
25.39198226153995
 21
0.3540126108405793
 31
0.0
  0
LINE
  5
61E
330
18
100
AcDbEntity
  8
1
 62
     1
100
AcDbLine
 10
25.39198226153995
 20
0.3540126108405793
 30
0.0
 11
25.39340595983953
 21
0.3541616978028923
 31
0.0
  0
LINE
  5
61F
330
18
100
AcDbEntity
  8
1
 62
     1
100
AcDbLine
 10
25.39340595983953
 20
0.3541616978028923
 30
0.0
 11
25.39477188759977
 21
0.3543572715190868
 31
0.0
  0
LINE
  5
620
330
18
100
AcDbEntity
  8
1
 62
     1
100
AcDbLine
 10
25.39477188759977
 20
0.3543572715190868
 30
0.0
 11
25.39607844931619
 21
0.3545990837403383
 31
0.0
  0
LINE
  5
621
330
18
100
AcDbEntity
  8
1
 62
     1
100
AcDbLine
 10
25.39607844931619
 20
0.3545990837403383
 30
0.0
 11
25.397325463918
 21
0.3548868255522911
 31
0.0
  0
LINE
  5
622
330
18
100
AcDbEntity
  8
1
 62
     1
100
AcDbLine
 10
25.397325463918
 20
0.3548868255522911
 30
0.0
 11
25.39851209673838
 21
0.3552196445366095
 31
0.0
  0
LINE
  5
623
330
18
100
AcDbEntity
  8
1
 62
     1
100
AcDbLine
 10
25.39851209673838
 20
0.3552196445366095
 30
0.0
 11
25.39963727271635
 21
0.3555966158137238
 31
0.0
  0
LINE
  5
624
330
18
100
AcDbEntity
  8
1
 62
     1
100
AcDbLine
 10
25.39963727271635
 20
0.3555966158137238
 30
0.0
 11
25.40069991679102
 21
0.3560168145040641
 31
0.0
  0
LINE
  5
625
330
18
100
AcDbEntity
  8
1
 62
     1
100
AcDbLine
 10
25.40069991679102
 20
0.3560168145040641
 30
0.0
 11
25.40169895390143
 21
0.3564793157280606
 31
0.0
  0
LINE
  5
626
330
18
100
AcDbEntity
  8
1
 62
     1
100
AcDbLine
 10
25.40169895390143
 20
0.3564793157280606
 30
0.0
 11
25.40263330898664
 21
0.3569831946061432
 31
0.0
  0
LINE
  5
627
330
18
100
AcDbEntity
  8
1
 62
     1
100
AcDbLine
 10
25.40263330898664
 20
0.3569831946061432
 30
0.0
 11
25.40350208094113
 21
0.3575275958563206
 31
0.0
  0
LINE
  5
628
330
18
100
AcDbEntity
  8
1
 62
     1
100
AcDbLine
 10
25.40350208094113
 20
0.3575275958563206
 30
0.0
 11
25.40391199520099
 21
0.3578148137932014
 31
0.0
  0
LINE
  5
629
330
18
100
AcDbEntity
  8
1
 62
     1
100
AcDbLine
 10
25.40391199520099
 20
0.3578148137932014
 30
0.0
 11
25.40430562886063
 21
0.3581118401777992
 31
0.0
  0
LINE
  5
62A
330
18
100
AcDbEntity
  8
1
 62
     1
100
AcDbLine
 10
25.40430562886063
 20
0.3581118401777992
 30
0.0
 11
25.40468297317956
 21
0.3584184997324122
 31
0.0
  0
LINE
  5
62B
330
18
100
AcDbEntity
  8
1
 62
     1
100
AcDbLine
 10
25.40468297317956
 20
0.3584184997324122
 30
0.0
 11
25.40504401941736
 21
0.3587346171793392
 31
0.0
  0
LINE
  5
62C
330
18
100
AcDbEntity
  8
1
 62
     1
100
AcDbLine
 10
25.40504401941736
 20
0.3587346171793392
 30
0.0
 11
25.40538875883356
 21
0.3590600172408785
 31
0.0
  0
LINE
  5
62D
330
18
100
AcDbEntity
  8
1
 62
     1
100
AcDbLine
 10
25.40538875883356
 20
0.3590600172408785
 30
0.0
 11
25.4057171826877
 21
0.3593945246393287
 31
0.0
  0
LINE
  5
62E
330
18
100
AcDbEntity
  8
1
 62
     1
100
AcDbLine
 10
25.4057171826877
 20
0.3593945246393287
 30
0.0
 11
25.40602928223935
 21
0.3597379640969883
 31
0.0
  0
LINE
  5
62F
330
18
100
AcDbEntity
  8
1
 62
     1
100
AcDbLine
 10
25.40602928223935
 20
0.3597379640969883
 30
0.0
 11
25.40632504874804
 21
0.3600901603361558
 31
0.0
  0
LINE
  5
630
330
18
100
AcDbEntity
  8
1
 62
     1
100
AcDbLine
 10
25.40632504874804
 20
0.3600901603361558
 30
0.0
 11
25.40660447347332
 21
0.3604509380791296
 31
0.0
  0
LINE
  5
631
330
18
100
AcDbEntity
  8
1
 62
     1
100
AcDbLine
 10
25.40660447347332
 20
0.3604509380791296
 30
0.0
 11
25.40686754767474
 21
0.3608201220482083
 31
0.0
  0
LINE
  5
632
330
18
100
AcDbEntity
  8
1
 62
     1
100
AcDbLine
 10
25.40686754767474
 20
0.3608201220482083
 30
0.0
 11
25.40711426261183
 21
0.3611975369656904
 31
0.0
  0
LINE
  5
633
330
18
100
AcDbEntity
  8
1
 62
     1
100
AcDbLine
 10
25.40711426261183
 20
0.3611975369656904
 30
0.0
 11
25.40734460954417
 21
0.3615830075538745
 31
0.0
  0
LINE
  5
634
330
18
100
AcDbEntity
  8
1
 62
     1
100
AcDbLine
 10
25.40734460954417
 20
0.3615830075538745
 30
0.0
 11
25.4075585805335
 21
0.3619763594373376
 31
0.0
  0
LINE
  5
635
330
18
100
AcDbEntity
  8
1
 62
     1
100
AcDbLine
 10
25.4075585805335
 20
0.3619763594373376
 30
0.0
 11
25.4077562953573
 21
0.3623775349016135
 31
0.0
  0
LINE
  5
636
330
18
100
AcDbEntity
  8
1
 62
     1
100
AcDbLine
 10
25.4077562953573
 20
0.3623775349016135
 30
0.0
 11
25.40793791370314
 21
0.3627864312796239
 31
0.0
  0
LINE
  5
637
330
18
100
AcDbEntity
  8
1
 62
     1
100
AcDbLine
 10
25.40793791370314
 20
0.3627864312796239
 30
0.0
 11
25.40810353494863
 21
0.3632028595417688
 31
0.0
  0
LINE
  5
638
330
18
100
AcDbEntity
  8
1
 62
     1
100
AcDbLine
 10
25.40810353494863
 20
0.3632028595417688
 30
0.0
 11
25.40825325847139
 21
0.3636266306584468
 31
0.0
  0
LINE
  5
639
330
18
100
AcDbEntity
  8
1
 62
     1
100
AcDbLine
 10
25.40825325847139
 20
0.3636266306584468
 30
0.0
 11
25.408387183649
 21
0.364057555600058
 31
0.0
  0
LINE
  5
63A
330
18
100
AcDbEntity
  8
1
 62
     1
100
AcDbLine
 10
25.408387183649
 20
0.364057555600058
 30
0.0
 11
25.40850540985909
 21
0.3644954453370015
 31
0.0
  0
LINE
  5
63B
330
18
100
AcDbEntity
  8
1
 62
     1
100
AcDbLine
 10
25.40850540985909
 20
0.3644954453370015
 30
0.0
 11
25.40860803647926
 21
0.3649401108396768
 31
0.0
  0
LINE
  5
63C
330
18
100
AcDbEntity
  8
1
 62
     1
100
AcDbLine
 10
25.40860803647926
 20
0.3649401108396768
 30
0.0
 11
25.40869516288712
 21
0.3653913630784832
 31
0.0
  0
LINE
  5
63D
330
18
100
AcDbEntity
  8
1
 62
     1
100
AcDbLine
 10
25.40869516288712
 20
0.3653913630784832
 30
0.0
 11
25.40882331257633
 21
0.3663128716460874
 31
0.0
  0
LINE
  5
63E
330
18
100
AcDbEntity
  8
1
 62
     1
100
AcDbLine
 10
25.40882331257633
 20
0.3663128716460874
 30
0.0
 11
25.40889065394757
 21
0.3672584588030093
 31
0.0
  0
LINE
  5
63F
330
18
100
AcDbEntity
  8
1
 62
     1
100
AcDbLine
 10
25.40889065394757
 20
0.3672584588030093
 30
0.0
 11
25.40889798309437
 21
0.3682266163037798
 31
0.0
  0
LINE
  5
640
330
18
100
AcDbEntity
  8
1
 62
     1
100
AcDbLine
 10
25.40889798309437
 20
0.3682266163037798
 30
0.0
 11
25.40884632159384
 21
0.3692163813218612
 31
0.0
  0
LINE
  5
641
330
18
100
AcDbEntity
  8
1
 62
     1
100
AcDbLine
 10
25.40884632159384
 20
0.3692163813218612
 30
0.0
 11
25.40873694628498
 21
0.3702267674148493
 31
0.0
  0
LINE
  5
642
330
18
100
AcDbEntity
  8
1
 62
     1
100
AcDbLine
 10
25.40873694628498
 20
0.3702267674148493
 30
0.0
 11
25.40857109946694
 21
0.3712564597573135
 31
0.0
  0
LINE
  5
643
330
18
100
AcDbEntity
  8
1
 62
     1
100
AcDbLine
 10
25.40857109946694
 20
0.3712564597573135
 30
0.0
 11
25.40835002343882
 21
0.3723041435238239
 31
0.0
  0
LINE
  5
644
330
18
100
AcDbEntity
  8
1
 62
     1
100
AcDbLine
 10
25.40835002343882
 20
0.3723041435238239
 30
0.0
 11
25.40807496049977
 21
0.37336850388895
 31
0.0
  0
LINE
  5
645
330
18
100
AcDbEntity
  8
1
 62
     1
100
AcDbLine
 10
25.40807496049977
 20
0.37336850388895
 30
0.0
 11
25.40774715294894
 21
0.3744482260272619
 31
0.0
  0
LINE
  5
646
330
18
100
AcDbEntity
  8
1
 62
     1
100
AcDbLine
 10
25.40774715294894
 20
0.3744482260272619
 30
0.0
 11
25.40736784187841
 21
0.3755420028455932
 31
0.0
  0
LINE
  5
647
330
18
100
AcDbEntity
  8
1
 62
     1
100
AcDbLine
 10
25.40736784187841
 20
0.3755420028455932
 30
0.0
 11
25.40693820902429
 21
0.3766490714698336
 31
0.0
  0
LINE
  5
648
330
18
100
AcDbEntity
  8
1
 62
     1
100
AcDbLine
 10
25.40693820902429
 20
0.3766490714698336
 30
0.0
 11
25.40593306115004
 21
0.3788998386644195
 31
0.0
  0
LINE
  5
649
330
18
100
AcDbEntity
  8
1
 62
     1
100
AcDbLine
 10
25.40593306115004
 20
0.3788998386644195
 30
0.0
 11
25.40474214168609
 21
0.3811927973829939
 31
0.0
  0
LINE
  5
64A
330
18
100
AcDbEntity
  8
1
 62
     1
100
AcDbLine
 10
25.40474214168609
 20
0.3811927973829939
 30
0.0
 11
25.40337593229168
 21
0.3835199784043447
 31
0.0
  0
LINE
  5
64B
330
18
100
AcDbEntity
  8
1
 62
     1
100
AcDbLine
 10
25.40337593229168
 20
0.3835199784043447
 30
0.0
 11
25.40184407030164
 21
0.3858752329508009
 31
0.0
  0
LINE
  5
64C
330
18
100
AcDbEntity
  8
1
 62
     1
100
AcDbLine
 10
25.40184407030164
 20
0.3858752329508009
 30
0.0
 11
25.40015536383111
 21
0.3882539655052795
 31
0.0
  0
LINE
  5
64D
330
18
100
AcDbEntity
  8
1
 62
     1
100
AcDbLine
 10
25.40015536383111
 20
0.3882539655052795
 30
0.0
 11
25.39634339777193
 21
0.393061506658117
 31
0.0
  0
LINE
  5
64E
330
18
100
AcDbEntity
  8
1
 62
     1
100
AcDbLine
 10
25.39634339777193
 20
0.393061506658117
 30
0.0
 11
25.39286008865303
 21
0.3969940499983514
 31
0.0
  0
LINE
  5
64F
330
18
100
AcDbEntity
  8
1
 62
     1
100
AcDbLine
 10
25.39286008865303
 20
0.3969940499983514
 30
0.0
 11
25.38906554099554
 21
0.4009344590044583
 31
0.0
  0
LINE
  5
650
330
18
100
AcDbEntity
  8
1
 62
     1
100
AcDbLine
 10
21.05682641577516
 20
-0.0067496806434137
 30
0.0
 11
21.06575356105007
 21
-0.0139079295501546
 31
0.0
  0
LINE
  5
651
330
18
100
AcDbEntity
  8
1
 62
     1
100
AcDbLine
 10
21.06575356105007
 20
-0.0139079295501546
 30
0.0
 11
21.07458742636809
 21
-0.0216500396432576
 31
0.0
  0
LINE
  5
652
330
18
100
AcDbEntity
  8
1
 62
     1
100
AcDbLine
 10
21.07458742636809
 20
-0.0216500396432576
 30
0.0
 11
21.08332798067812
 21
-0.029955752545996
 31
0.0
  0
LINE
  5
653
330
18
100
AcDbEntity
  8
1
 62
     1
100
AcDbLine
 10
21.08332798067812
 20
-0.029955752545996
 30
0.0
 11
21.09197773587465
 21
-0.0388068608729699
 31
0.0
  0
LINE
  5
654
330
18
100
AcDbEntity
  8
1
 62
     1
100
AcDbLine
 10
21.09197773587465
 20
-0.0388068608729699
 30
0.0
 11
21.10899023970487
 21
-0.0580512506167791
 31
0.0
  0
LINE
  5
655
330
18
100
AcDbEntity
  8
1
 62
     1
100
AcDbLine
 10
21.10899023970487
 20
-0.0580512506167791
 30
0.0
 11
21.12562753917456
 21
-0.0792310654620034
 31
0.0
  0
LINE
  5
656
330
18
100
AcDbEntity
  8
1
 62
     1
100
AcDbLine
 10
21.12562753917456
 20
-0.0792310654620034
 30
0.0
 11
21.14188700796691
 21
-0.1021928043378317
 31
0.0
  0
LINE
  5
657
330
18
100
AcDbEntity
  8
1
 62
     1
100
AcDbLine
 10
21.14188700796691
 20
-0.1021928043378317
 30
0.0
 11
21.15777358787612
 21
-0.1267970167554056
 31
0.0
  0
LINE
  5
658
330
18
100
AcDbEntity
  8
1
 62
     1
100
AcDbLine
 10
21.15777358787612
 20
-0.1267970167554056
 30
0.0
 11
21.1884529892324
 21
-0.1804153742338966
 31
0.0
  0
ARC
  5
659
330
18
100
AcDbEntity
  8
1
 62
     1
100
AcDbCircle
 10
19.85553135933587
 20
-1.061139299479923
 30
0.0
 40
1.5764386028136
100
AcDbArc
 50
43.44992758947124
 51
49.28289346879409
  0
ARC
  5
65A
330
18
100
AcDbEntity
  8
1
 62
     1
100
AcDbCircle
 10
20.16006398955927
 20
-0.5827763767056414
 30
0.0
 40
1.015539819145716
100
AcDbArc
 50
48.43493769825097
 51
59.02441607488728
  0
LINE
  5
65B
330
18
100
AcDbEntity
  8
1
 62
     1
100
AcDbLine
 10
20.88387769151131
 20
0.1337018314750973
 30
0.0
 11
20.88386777579865
 21
0.1337103182028686
 31
0.0
  0
LINE
  5
65C
330
18
100
AcDbEntity
  8
1
 62
     1
100
AcDbLine
 10
20.88386777579865
 20
0.1337103182028686
 30
0.0
 11
20.88309915914919
 21
0.1343683043817667
 31
0.0
  0
LINE
  5
65D
330
18
100
AcDbEntity
  8
1
 62
     1
100
AcDbLine
 10
20.83387016810361
 20
0.1770588818407572
 30
0.0
 11
20.8338583709306
 21
0.1770692372308763
 31
0.0
  0
ARC
  5
65E
330
18
100
AcDbEntity
  8
1
 62
     1
100
AcDbCircle
 10
24.00195848332612
 20
0.5796022729568715
 30
0.0
 40
0.5189771171565261
100
AcDbArc
 50
226.6760698722234
 51
247.0809711299832
  0
LINE
  5
65F
330
18
100
AcDbEntity
  8
SK1
100
AcDbLine
 10
0.0000000000000018
 20
1.4
 30
0.0
 11
-15.01
 21
1.4
 31
0.0
  0
LINE
  5
660
330
18
100
AcDbEntity
  8
SK1
100
AcDbLine
 10
-19.87
 20
-1.05
 30
0.0
 11
-15.01
 21
-1.05
 31
0.0
  0
LINE
  5
661
330
18
100
AcDbEntity
  8
SK1
100
AcDbLine
 10
-15.01
 20
-1.05
 30
0.0
 11
-15.01
 21
-1.39999999365418
 31
0.0
  0
LINE
  5
662
330
18
100
AcDbEntity
  8
SK1
100
AcDbLine
 10
-19.87
 20
0.9260129588726065
 30
0.0
 11
-15.01
 21
0.9260129588726065
 31
0.0
  0
ARC
  5
663
330
18
100
AcDbEntity
  8
SK1
100
AcDbCircle
 10
-17.10034798410313
 20
-0.9220711300261376
 30
0.0
 40
3.329551639996567
100
AcDbArc
 50
146.2863164785027
 51
150.9139716090522
  0
LINE
  5
664
330
18
100
AcDbEntity
  8
SK1
100
AcDbLine
 10
-19.87
 20
1.05
 30
0.0
 11
-19.87
 21
0.9260129588726069
 31
0.0
  0
LINE
  5
665
330
18
100
AcDbEntity
  8
SK1
100
AcDbLine
 10
-20.01
 20
1.05
 30
0.0
 11
-19.87
 21
1.05
 31
0.0
  0
LINE
  5
666
330
18
100
AcDbEntity
  8
SK1
100
AcDbLine
 10
-15.01
 20
1.4
 30
0.0
 11
-15.01
 21
1.399926684987163
 31
0.0
  0
LINE
  5
667
330
18
100
AcDbEntity
  8
SK1
100
AcDbLine
 10
-15.01
 20
1.399926684987163
 30
0.0
 11
-15.01
 21
1.377480295181483
 31
0.0
  0
LINE
  5
668
330
18
100
AcDbEntity
  8
SK1
100
AcDbLine
 10
-15.01
 20
1.377480295181483
 30
0.0
 11
-15.01
 21
1.05
 31
0.0
  0
LINE
  5
669
330
18
100
AcDbEntity
  8
SK1
100
AcDbLine
 10
-19.87
 20
1.05
 30
0.0
 11
-15.00999999999999
 21
1.05
 31
0.0
  0
LINE
  5
66A
330
18
100
AcDbEntity
  8
SK1
100
AcDbLine
 10
-19.87
 20
-0.926012958872606
 30
0.0
 11
-19.87
 21
-1.05
 31
0.0
  0
LINE
  5
66B
330
18
100
AcDbEntity
  8
SK1
100
AcDbLine
 10
-20.01
 20
1.05
 30
0.0
 11
-20.00999999999999
 21
0.6964912059746345
 31
0.0
  0
LINE
  5
66C
330
18
100
AcDbEntity
  8
SK1
100
AcDbLine
 10
-20.01
 20
-0.6964912059746341
 30
0.0
 11
-20.01
 21
-1.05
 31
0.0
  0
ARC
  5
66D
330
18
100
AcDbEntity
  8
SK1
100
AcDbCircle
 10
-17.10034798410805
 20
0.9220711300231568
 30
0.0
 40
3.329551639990817
100
AcDbArc
 50
209.0860283909442
 51
213.7136835215017
  0
LINE
  5
66E
330
18
100
AcDbEntity
  8
SK1
100
AcDbLine
 10
-20.01
 20
-1.05
 30
0.0
 11
-19.87
 21
-1.05
 31
0.0
  0
LINE
  5
66F
330
18
100
AcDbEntity
  8
SK1
100
AcDbLine
 10
-15.01
 20
0.9260129588727052
 30
0.0
 11
-15.01
 21
-0.9260129588727062
 31
0.0
  0
LINE
  5
670
330
18
100
AcDbEntity
  8
SK1
100
AcDbLine
 10
-20.01
 20
0.6964912059746344
 30
0.0
 11
-20.01
 21
-0.696491205974634
 31
0.0
  0
LINE
  5
671
330
18
100
AcDbEntity
  8
SK1
100
AcDbLine
 10
-19.87
 20
-0.9260129588726062
 30
0.0
 11
-15.01
 21
-0.9260129588726062
 31
0.0
  0
LINE
  5
672
330
18
100
AcDbEntity
  8
SK1
100
AcDbLine
 10
-15.01
 20
-1.4
 30
0.0
 11
0.0000000000000022
 21
-1.4
 31
0.0
  0
DIMENSION
  5
673
330
18
100
AcDbEntity
  8
2
100
AcDbDimension
  2
*D0
 10
40.00000000000001
 20
-0.9999999999999476
 30
0.0
 11
37.60925000000004
 21
-9.683999999999953
 31
0.0
 70
    32
  1
M2
 71
     5
 42
2.0
  3
STANDARD
100
AcDbAlignedDimension
 13
25.0
 23
1.0
 33
0.0
 14
25.0
 24
-1.0
 34
0.0
 50
90.0000000000002
100
AcDbRotatedDimension
  0
DIMENSION
  5
681
330
18
100
AcDbEntity
  8
2
100
AcDbDimension
  2
*D1
 10
25.0
 20
75.0
 30
0.0
 11
12.5
 21
77.39075
 31
0.0
 70
    32
  1
<>
 71
     5
 42
25.0
  3
STANDARD
100
AcDbAlignedDimension
 13
0.0
 23
0.0
 33
0.0
 14
25.0
 24
0.0
 34
0.0
100
AcDbRotatedDimension
  0
DIMENSION
  5
68E
330
18
100
AcDbEntity
  8
SK2
100
AcDbDimension
  2
*D2
 10
-35.00999999999285
 20
-1.400000000102068
 30
0.0
 11
-37.40774999993634
 21
-12.4745000001143
 31
0.0
 70
    32
  1
%%c<>
 71
     5
 42
2.8
  3
STANDARD
100
AcDbAlignedDimension
 13
-15.01
 23
1.4
 33
0.0
 14
-15.01
 24
-1.4
 34
0.0
 50
90.0000000002924
100
AcDbRotatedDimension
  0
DIMENSION
  5
69C
330
18
100
AcDbEntity
  8
2
100
AcDbDimension
  2
*D3
 10
25.0
 20
60.0
 30
0.0
 11
35.99225
 21
62.438
 31
0.0
 70
    32
  1
<>
 71
     5
 42
4.441672955999998
  3
STANDARD
100
AcDbAlignedDimension
 13
20.558327044
 23
0.745
 33
0.0
 14
25.0
 24
1.0
 34
0.0
100
AcDbRotatedDimension
  0
DIMENSION
  5
6AA
330
18
100
AcDbEntity
  8
SK2
100
AcDbDimension
  2
*D4
 10
25.79
 20
90.0
 30
0.0
 11
2.890000000000001
 21
92.438
 31
0.0
 70
    32
  1
<>
 71
     5
 42
45.8
  3
STANDARD
100
AcDbAlignedDimension
 13
-20.01
 23
1.0
 33
0.0
 14
25.79
 24
1.0
 34
0.0
100
AcDbRotatedDimension
  0
ENDSEC
  0
SECTION
  2
OBJECTS
  0
DICTIONARY
  5
C
330
0
100
AcDbDictionary
281
     1
  3
ACAD_COLOR
350
387
  3
ACAD_GROUP
350
D
  3
ACAD_LAYOUT
350
301
  3
ACAD_MATERIAL
350
386
  3
ACAD_MLEADERSTYLE
350
6B7
  3
ACAD_MLINESTYLE
350
E
  3
ACAD_PLOTSETTINGS
350
302
  3
ACAD_PLOTSTYLENAME
350
2FF
  3
ACAD_SCALELIST
350
3A0
  3
ACAD_TABLESTYLE
350
388
  3
ACAD_VISUALSTYLE
350
3C5
  3
ACDBHEADERROUNDTRIPXREC
350
6B8
  3
AcDbVariableDictionary
350
357
  0
DICTIONARY
  5
387
102
{ACAD_REACTORS
330
C
102
}
330
C
100
AcDbDictionary
281
     1
  0
DICTIONARY
  5
D
102
{ACAD_REACTORS
330
C
102
}
330
C
100
AcDbDictionary
281
     1
  0
DICTIONARY
  5
301
102
{ACAD_REACTORS
330
C
102
}
330
C
100
AcDbDictionary
281
     1
  3
Layout1
350
33B
  3
Model
350
303
  0
DICTIONARY
  5
386
102
{ACAD_REACTORS
330
C
102
}
330
C
100
AcDbDictionary
281
     1
  3
ByBlock
350
3C3
  3
ByLayer
350
3C2
  3
Global
350
3C4
  0
DICTIONARY
  5
6B7
102
{ACAD_REACTORS
330
C
102
}
330
C
100
AcDbDictionary
281
     1
  0
DICTIONARY
  5
E
102
{ACAD_REACTORS
330
C
102
}
330
C
100
AcDbDictionary
281
     1
  3
STANDARD
350
1B
  0
DICTIONARY
  5
302
102
{ACAD_REACTORS
330
C
102
}
330
C
100
AcDbDictionary
281
     1
  0
ACDBDICTIONARYWDFLT
  5
2FF
102
{ACAD_REACTORS
330
C
102
}
330
C
100
AcDbDictionary
281
     1
  3
Normal
350
300
100
AcDbDictionaryWithDefault
340
300
  0
DICTIONARY
  5
3A0
102
{ACAD_REACTORS
330
C
102
}
330
C
100
AcDbDictionary
281
     1
  3
A0
350
3A1
  3
A1
350
3A2
  3
A2
350
3A3
  3
A3
350
3A4
  3
A4
350
3A5
  3
A5
350
3A6
  3
A6
350
3A7
  3
A7
350
3A8
  3
A8
350
3A9
  3
A9
350
3AA
  3
B0
350
3AB
  3
B1
350
3AC
  3
B2
350
3AD
  3
B3
350
3AE
  3
B4
350
3AF
  3
B5
350
3B0
  3
B6
350
3B1
  3
B7
350
3B2
  3
B8
350
3B3
  3
B9
350
3B4
  3
C0
350
3B5
  3
C1
350
3B6
  3
C2
350
3B7
  3
C3
350
3B8
  3
C4
350
3B9
  3
C5
350
3BA
  3
C6
350
3BB
  3
C7
350
3BC
  3
C8
350
3BD
  3
C9
350
3BE
  3
D0
350
3BF
  3
D1
350
3C0
  3
D2
350
3C1
  0
DICTIONARY
  5
388
102
{ACAD_REACTORS
330
C
102
}
330
C
100
AcDbDictionary
281
     1
  3
Standard
350
389
  0
DICTIONARY
  5
3C5
102
{ACAD_REACTORS
330
C
102
}
330
C
100
AcDbDictionary
281
     1
  3
2dWireframe
350
3CA
  3
3D Hidden
350
3CC
  3
3dWireframe
350
3CB
  3
Basic
350
3CD
  3
Brighten
350
3D1
  3
ColorChange
350
3D5
  3
Conceptual
350
3CF
  3
Dim
350
3D0
  3
Facepattern
350
3D4
  3
Flat
350
3C6
  3
FlatWithEdges
350
3C7
  3
Gouraud
350
3C8
  3
GouraudWithEdges
350
3C9
  3
Linepattern
350
3D3
  3
Realistic
350
3CE
  3
Thicken
350
3D2
  0
DICTIONARY
  5
6B8
102
{ACAD_REACTORS
330
C
102
}
330
C
100
AcDbDictionary
281
     1
  3
COLORDICT
350
6B9
  3
MATERIALDICT
350
6BA
  0
DICTIONARY
  5
357
102
{ACAD_REACTORS
330
C
102
}
330
C
100
AcDbDictionary
281
     1
  3
CANNOSCALE
350
6BB
  3
CTABLESTYLE
350
38D
  3
DIMASSOC
350
359
  3
HIDETEXT
350
358
  3
PROJECTNAME
350
38E
  0
LAYOUT
  5
33B
102
{ACAD_REACTORS
330
301
102
}
330
301
100
AcDbPlotSettings
  1

  2
Lexmark Optra PS2
  4

  6

 40
0.0
 41
0.0
 42
0.0
 43
0.0
 44
0.0
 45
0.0
 46
0.0
 47
0.0
 48
0.0
 49
0.0
140
0.0
141
0.0
142
1.0
143
1.0
 70
   688
 72
     0
 73
     0
 74
     5
  7
monochrome.ctb
 75
    16
147
1.0
148
0.0
149
0.0
100
AcDbLayout
  1
Layout1
 70
     1
 71
     1
 10
0.0
 20
0.0
 11
12.0
 21
9.0
 12
0.0
 22
0.0
 32
0.0
 14
0.0
 24
0.0
 34
0.0
 15
0.0
 25
0.0
 35
0.0
146
0.0
 13
0.0
 23
0.0
 33
0.0
 16
1.0
 26
0.0
 36
0.0
 17
0.0
 27
1.0
 37
0.0
 76
     0
330
338
  0
LAYOUT
  5
303
102
{ACAD_REACTORS
330
301
102
}
330
301
100
AcDbPlotSettings
  1

  2
Lexmark Optra Rx
  4
A4
  6

 40
6.805083274841307
 41
5.535083293914794
 42
6.974411010742187
 43
7.14373779296875
 44
209.9733276367186
 45
296.9259948730469
 46
0.0
 47
0.0
 48
0.0
 49
0.0
140
0.0
141
0.0
142
1.0
143
2.976565420630886
 70
 11952
 72
     1
 73
     1
 74
     0
  7
monochrome.ctb
 75
     0
147
0.335957675604539
148
204.1199660668592
149
172.3933209647495
100
AcDbLayout
  1
Model
 70
     1
 71
     0
 10
0.0
 20
0.0
 11
12.0
 21
9.0
 12
0.0
 22
0.0
 32
0.0
 14
0.0
 24
0.0
 34
0.0
 15
0.0
 25
0.0
 35
0.0
146
0.0
 13
0.0
 23
0.0
 33
0.0
 16
1.0
 26
0.0
 36
0.0
 17
0.0
 27
1.0
 37
0.0
 76
     0
330
18
331
39A
  0
MATERIAL
  5
3C3
102
{ACAD_REACTORS
330
386
102
}
102
{ACAD_XDICTIONARY
360
6BE
102
}
330
386
100
AcDbMaterial
  1
ByBlock
  0
MATERIAL
  5
3C2
102
{ACAD_REACTORS
330
386
102
}
102
{ACAD_XDICTIONARY
360
6BC
102
}
330
386
100
AcDbMaterial
  1
ByLayer
  0
MATERIAL
  5
3C4
102
{ACAD_REACTORS
330
386
102
}
102
{ACAD_XDICTIONARY
360
6C0
102
}
330
386
100
AcDbMaterial
  1
Global
  0
MLINESTYLE
  5
1B
102
{ACAD_REACTORS
330
E
102
}
330
E
100
AcDbMlineStyle
  2
STANDARD
 70
     0
  3

 62
     0
 51
90.0
 52
90.0
 71
     2
 49
0.5
 62
   256
  6
BYLAYER
 49
-0.5
 62
   256
  6
BYLAYER
  0
ACDBPLACEHOLDER
  5
300
102
{ACAD_REACTORS
330
2FF
102
}
330
2FF
  0
SCALE
  5
3A1
102
{ACAD_REACTORS
330
3A0
102
}
330
3A0
100
AcDbScale
 70
     0
300
1:1
140
1.0
141
1.0
290
     1
  0
SCALE
  5
3A2
102
{ACAD_REACTORS
330
3A0
102
}
330
3A0
100
AcDbScale
 70
     0
300
1:2
140
1.0
141
2.0
290
     0
  0
SCALE
  5
3A3
102
{ACAD_REACTORS
330
3A0
102
}
330
3A0
100
AcDbScale
 70
     0
300
1:4
140
1.0
141
4.0
290
     0
  0
SCALE
  5
3A4
102
{ACAD_REACTORS
330
3A0
102
}
330
3A0
100
AcDbScale
 70
     0
300
1:5
140
1.0
141
5.0
290
     0
  0
SCALE
  5
3A5
102
{ACAD_REACTORS
330
3A0
102
}
330
3A0
100
AcDbScale
 70
     0
300
1:8
140
1.0
141
8.0
290
     0
  0
SCALE
  5
3A6
102
{ACAD_REACTORS
330
3A0
102
}
330
3A0
100
AcDbScale
 70
     0
300
1:10
140
1.0
141
10.0
290
     0
  0
SCALE
  5
3A7
102
{ACAD_REACTORS
330
3A0
102
}
330
3A0
100
AcDbScale
 70
     0
300
1:16
140
1.0
141
16.0
290
     0
  0
SCALE
  5
3A8
102
{ACAD_REACTORS
330
3A0
102
}
330
3A0
100
AcDbScale
 70
     0
300
1:20
140
1.0
141
20.0
290
     0
  0
SCALE
  5
3A9
102
{ACAD_REACTORS
330
3A0
102
}
330
3A0
100
AcDbScale
 70
     0
300
1:30
140
1.0
141
30.0
290
     0
  0
SCALE
  5
3AA
102
{ACAD_REACTORS
330
3A0
102
}
330
3A0
100
AcDbScale
 70
     0
300
1:40
140
1.0
141
40.0
290
     0
  0
SCALE
  5
3AB
102
{ACAD_REACTORS
330
3A0
102
}
330
3A0
100
AcDbScale
 70
     0
300
1:50
140
1.0
141
50.0
290
     0
  0
SCALE
  5
3AC
102
{ACAD_REACTORS
330
3A0
102
}
330
3A0
100
AcDbScale
 70
     0
300
1:100
140
1.0
141
100.0
290
     0
  0
SCALE
  5
3AD
102
{ACAD_REACTORS
330
3A0
102
}
330
3A0
100
AcDbScale
 70
     0
300
2:1
140
2.0
141
1.0
290
     0
  0
SCALE
  5
3AE
102
{ACAD_REACTORS
330
3A0
102
}
330
3A0
100
AcDbScale
 70
     0
300
4:1
140
4.0
141
1.0
290
     0
  0
SCALE
  5
3AF
102
{ACAD_REACTORS
330
3A0
102
}
330
3A0
100
AcDbScale
 70
     0
300
8:1
140
8.0
141
1.0
290
     0
  0
SCALE
  5
3B0
102
{ACAD_REACTORS
330
3A0
102
}
330
3A0
100
AcDbScale
 70
     0
300
10:1
140
10.0
141
1.0
290
     0
  0
SCALE
  5
3B1
102
{ACAD_REACTORS
330
3A0
102
}
330
3A0
100
AcDbScale
 70
     0
300
100:1
140
100.0
141
1.0
290
     0
  0
SCALE
  5
3B2
102
{ACAD_REACTORS
330
3A0
102
}
330
3A0
100
AcDbScale
 70
     0
300
1/128" = 1'-0"
140
0.0078125
141
12.0
290
     0
  0
SCALE
  5
3B3
102
{ACAD_REACTORS
330
3A0
102
}
330
3A0
100
AcDbScale
 70
     0
300
1/64" = 1'-0"
140
0.015625
141
12.0
290
     0
  0
SCALE
  5
3B4
102
{ACAD_REACTORS
330
3A0
102
}
330
3A0
100
AcDbScale
 70
     0
300
1/32" = 1'-0"
140
0.03125
141
12.0
290
     0
  0
SCALE
  5
3B5
102
{ACAD_REACTORS
330
3A0
102
}
330
3A0
100
AcDbScale
 70
     0
300
1/16" = 1'-0"
140
0.0625
141
12.0
290
     0
  0
SCALE
  5
3B6
102
{ACAD_REACTORS
330
3A0
102
}
330
3A0
100
AcDbScale
 70
     0
300
3/32" = 1'-0"
140
0.09375
141
12.0
290
     0
  0
SCALE
  5
3B7
102
{ACAD_REACTORS
330
3A0
102
}
330
3A0
100
AcDbScale
 70
     0
300
1/8" = 1'-0"
140
0.125
141
12.0
290
     0
  0
SCALE
  5
3B8
102
{ACAD_REACTORS
330
3A0
102
}
330
3A0
100
AcDbScale
 70
     0
300
3/16" = 1'-0"
140
0.1875
141
12.0
290
     0
  0
SCALE
  5
3B9
102
{ACAD_REACTORS
330
3A0
102
}
330
3A0
100
AcDbScale
 70
     0
300
1/4" = 1'-0"
140
0.25
141
12.0
290
     0
  0
SCALE
  5
3BA
102
{ACAD_REACTORS
330
3A0
102
}
330
3A0
100
AcDbScale
 70
     0
300
3/8" = 1'-0"
140
0.375
141
12.0
290
     0
  0
SCALE
  5
3BB
102
{ACAD_REACTORS
330
3A0
102
}
330
3A0
100
AcDbScale
 70
     0
300
1/2" = 1'-0"
140
0.5
141
12.0
290
     0
  0
SCALE
  5
3BC
102
{ACAD_REACTORS
330
3A0
102
}
330
3A0
100
AcDbScale
 70
     0
300
3/4" = 1'-0"
140
0.75
141
12.0
290
     0
  0
SCALE
  5
3BD
102
{ACAD_REACTORS
330
3A0
102
}
330
3A0
100
AcDbScale
 70
     0
300
1" = 1'-0"
140
1.0
141
12.0
290
     0
  0
SCALE
  5
3BE
102
{ACAD_REACTORS
330
3A0
102
}
330
3A0
100
AcDbScale
 70
     0
300
1-1/2" = 1'-0"
140
1.5
141
12.0
290
     0
  0
SCALE
  5
3BF
102
{ACAD_REACTORS
330
3A0
102
}
330
3A0
100
AcDbScale
 70
     0
300
3" = 1'-0"
140
3.0
141
12.0
290
     0
  0
SCALE
  5
3C0
102
{ACAD_REACTORS
330
3A0
102
}
330
3A0
100
AcDbScale
 70
     0
300
6" = 1'-0"
140
6.0
141
12.0
290
     0
  0
SCALE
  5
3C1
102
{ACAD_REACTORS
330
3A0
102
}
330
3A0
100
AcDbScale
 70
     0
300
1'-0" = 1'-0"
140
12.0
141
12.0
290
     0
  0
TABLESTYLE
  5
389
102
{ACAD_REACTORS
330
388
102
}
330
388
100
AcDbTableStyle
  3
Standard
 70
     0
 71
     0
 40
1.5
 41
1.5
280
     0
281
     0
  7
STANDARD
140
4.5
170
     2
 62
     0
 63
   257
283
     0
274
    -2
284
     1
 64
     0
275
    -2
285
     1
 65
     0
276
    -2
286
     1
 66
     0
277
    -2
287
     1
 67
     0
278
    -2
288
     1
 68
     0
279
    -2
289
     1
 69
     0
  7
STANDARD
140
6.0
170
     5
 62
     0
 63
   257
283
     0
274
    -2
284
     1
 64
     0
275
    -2
285
     1
 65
     0
276
    -2
286
     1
 66
     0
277
    -2
287
     1
 67
     0
278
    -2
288
     1
 68
     0
279
    -2
289
     1
 69
     0
  7
STANDARD
140
4.5
170
     5
 62
     0
 63
   257
283
     0
274
    -2
284
     1
 64
     0
275
    -2
285
     1
 65
     0
276
    -2
286
     1
 66
     0
277
    -2
287
     1
 67
     0
278
    -2
288
     1
 68
     0
279
    -2
289
     1
 69
     0
  0
VISUALSTYLE
  5
3CA
102
{ACAD_REACTORS
330
3C5
102
}
102
{ACAD_XDICTIONARY
360
6CA
102
}
330
3C5
100
AcDbVisualStyle
  2
2dWireframe
 70
     4
 71
     0
 72
     2
 73
     0
 90
        0
 40
-0.6
 41
-30.0
 62
     5
 63
     7
 74
     1
 91
        4
 64
     7
 65
   257
 75
     1
175
     1
 42
1.0
 92
        0
 66
   257
 43
1.0
 76
     1
 77
     6
 78
     2
 67
     7
 79
     5
170
     0
171
     0
290
     0
174
     0
 93
        1
 44
0.0
173
     0
291
     0
 45
0.0
1001
ACAD
1000
AcDbSavedByObjectVersion
1070
     0
  0
VISUALSTYLE
  5
3CC
102
{ACAD_REACTORS
330
3C5
102
}
102
{ACAD_XDICTIONARY
360
6CE
102
}
330
3C5
100
AcDbVisualStyle
  2
3D Hidden
 70
     6
 71
     1
 72
     2
 73
     2
 90
        0
 40
-0.6
 41
-30.0
 62
     5
 63
     7
 74
     2
 91
        2
 64
     7
 65
   257
 75
     2
175
     1
 42
40.0
 92
        0
 66
   257
 43
1.0
 76
     1
 77
     6
 78
     2
 67
     7
 79
     3
170
     0
171
     0
290
     0
174
     0
 93
        1
 44
0.0
173
     0
291
     0
 45
0.0
1001
ACAD
1000
AcDbSavedByObjectVersion
1070
     0
  0
VISUALSTYLE
  5
3CB
102
{ACAD_REACTORS
330
3C5
102
}
102
{ACAD_XDICTIONARY
360
6CC
102
}
330
3C5
100
AcDbVisualStyle
  2
3dWireframe
 70
     5
 71
     0
 72
     2
 73
     0
 90
        0
 40
-0.6
 41
-30.0
 62
     5
 63
     7
 74
     1
 91
        4
 64
     7
 65
   257
 75
     1
175
     1
 42
1.0
 92
        0
 66
   257
 43
1.0
 76
     1
 77
     6
 78
     2
 67
     7
 79
     5
170
     0
171
     0
290
     0
174
     0
 93
        1
 44
0.0
173
     0
291
     0
 45
0.0
1001
ACAD
1000
AcDbSavedByObjectVersion
1070
     0
  0
VISUALSTYLE
  5
3CD
102
{ACAD_REACTORS
330
3C5
102
}
102
{ACAD_XDICTIONARY
360
6D0
102
}
330
3C5
100
AcDbVisualStyle
  2
Basic
 70
     7
 71
     1
 72
     0
 73
     1
 90
        0
 40
-0.6
 41
-30.0
 62
     5
 63
     7
 74
     0
 91
        4
 64
     7
 65
   257
 75
     1
175
     1
 42
1.0
 92
        8
 66
     7
 43
1.0
 76
     1
 77
     6
 78
     2
 67
     7
 79
     5
170
     0
171
     0
290
     0
174
     0
 93
        1
 44
0.0
173
     0
291
     1
 45
0.0
1001
ACAD
1000
AcDbSavedByObjectVersion
1070
     0
  0
VISUALSTYLE
  5
3D1
102
{ACAD_REACTORS
330
3C5
102
}
102
{ACAD_XDICTIONARY
360
6D8
102
}
330
3C5
100
AcDbVisualStyle
  2
Brighten
 70
    12
 71
     2
 72
     2
 73
     0
 90
        0
 40
-0.6
 41
-30.0
 62
     5
 63
     7
 74
     1
 91
        4
 64
     7
 65
   257
 75
     1
175
     1
 42
1.0
 92
        8
 66
     7
 43
1.0
 76
     1
 77
     6
 78
     2
 67
     7
 79
     5
170
     0
171
     0
290
     0
174
     0
 93
        1
 44
50.0
173
     0
291
     1
 45
0.0
1001
ACAD
1000
AcDbSavedByObjectVersion
1070
     0
  0
VISUALSTYLE
  5
3D5
102
{ACAD_REACTORS
330
3C5
102
}
102
{ACAD_XDICTIONARY
360
6E0
102
}
330
3C5
100
AcDbVisualStyle
  2
ColorChange
 70
    16
 71
     2
 72
     2
 73
     3
 90
        0
 40
-0.6
 41
-30.0
 62
     5
 63
     8
 74
     1
 91
        4
 64
     7
 65
   257
 75
     1
175
     1
 42
1.0
 92
        8
 66
     8
 43
1.0
 76
     1
 77
     6
 78
     2
 67
     7
 79
     5
170
     0
171
     0
290
     0
174
     0
 93
        1
 44
0.0
173
     0
291
     1
 45
0.0
1001
ACAD
1000
AcDbSavedByObjectVersion
1070
     0
  0
VISUALSTYLE
  5
3CF
102
{ACAD_REACTORS
330
3C5
102
}
102
{ACAD_XDICTIONARY
360
6D4
102
}
330
3C5
100
AcDbVisualStyle
  2
Conceptual
 70
     9
 71
     3
 72
     2
 73
     0
 90
        0
 40
-0.6
 41
-30.0
 62
     5
 63
     7
 74
     2
 91
        2
 64
     7
 65
   257
 75
     1
175
     1
 42
40.0
 92
        8
 66
     7
 43
1.0
 76
     1
 77
     6
 78
     2
 67
     7
 79
     3
170
     0
171
     0
290
     0
174
     0
 93
        1
 44
0.0
173
     0
291
     0
 45
0.0
1001
ACAD
1000
AcDbSavedByObjectVersion
1070
     0
  0
VISUALSTYLE
  5
3D0
102
{ACAD_REACTORS
330
3C5
102
}
102
{ACAD_XDICTIONARY
360
6D6
102
}
330
3C5
100
AcDbVisualStyle
  2
Dim
 70
    11
 71
     2
 72
     2
 73
     0
 90
        0
 40
-0.6
 41
-30.0
 62
     5
 63
     7
 74
     1
 91
        4
 64
     7
 65
   257
 75
     1
175
     1
 42
1.0
 92
        8
 66
     7
 43
1.0
 76
     1
 77
     6
 78
     2
 67
     7
 79
     5
170
     0
171
     0
290
     0
174
     0
 93
        1
 44
-50.0
173
     0
291
     1
 45
0.0
1001
ACAD
1000
AcDbSavedByObjectVersion
1070
     0
  0
VISUALSTYLE
  5
3D4
102
{ACAD_REACTORS
330
3C5
102
}
102
{ACAD_XDICTIONARY
360
6DE
102
}
330
3C5
100
AcDbVisualStyle
  2
Facepattern
 70
    15
 71
     2
 72
     2
 73
     0
 90
        0
 40
-0.6
 41
-30.0
 62
     5
 63
     7
 74
     1
 91
        4
 64
     7
 65
   257
 75
     1
175
     1
 42
1.0
 92
        8
 66
     7
 43
1.0
 76
     1
 77
     6
 78
     2
 67
     7
 79
     5
170
     0
171
     0
290
     0
174
     0
 93
        1
 44
0.0
173
     0
291
     1
 45
0.0
1001
ACAD
1000
AcDbSavedByObjectVersion
1070
     0
  0
VISUALSTYLE
  5
3C6
102
{ACAD_REACTORS
330
3C5
102
}
102
{ACAD_XDICTIONARY
360
6C2
102
}
330
3C5
100
AcDbVisualStyle
  2
Flat
 70
     0
 71
     2
 72
     1
 73
     1
 90
        2
 40
-0.6
 41
30.0
 62
     5
 63
     7
 74
     0
 91
        4
 64
     7
 65
   257
 75
     1
175
     1
 42
1.0
 92
        8
 66
     7
 43
1.0
 76
     1
 77
     6
 78
     2
 67
     7
 79
     5
170
     0
171
     0
290
     0
174
     0
 93
       13
 44
0.0
173
     0
291
     1
 45
0.0
1001
ACAD
1000
AcDbSavedByObjectVersion
1070
     0
  0
VISUALSTYLE
  5
3C7
102
{ACAD_REACTORS
330
3C5
102
}
102
{ACAD_XDICTIONARY
360
6C4
102
}
330
3C5
100
AcDbVisualStyle
  2
FlatWithEdges
 70
     1
 71
     2
 72
     1
 73
     1
 90
        2
 40
-0.6
 41
30.0
 62
     5
 63
     7
 74
     1
 91
        4
 64
     7
 65
   257
 75
     1
175
     1
 42
1.0
 92
        0
 66
   257
 43
1.0
 76
     1
 77
     6
 78
     2
 67
     7
 79
     5
170
     0
171
     0
290
     0
174
     0
 93
       13
 44
0.0
173
     0
291
     1
 45
0.0
1001
ACAD
1000
AcDbSavedByObjectVersion
1070
     0
  0
VISUALSTYLE
  5
3C8
102
{ACAD_REACTORS
330
3C5
102
}
102
{ACAD_XDICTIONARY
360
6C6
102
}
330
3C5
100
AcDbVisualStyle
  2
Gouraud
 70
     2
 71
     2
 72
     2
 73
     1
 90
        2
 40
-0.6
 41
30.0
 62
     5
 63
     7
 74
     0
 91
        4
 64
     7
 65
   257
 75
     1
175
     1
 42
1.0
 92
        0
 66
     7
 43
1.0
 76
     1
 77
     6
 78
     2
 67
     7
 79
     5
170
     0
171
     0
290
     0
174
     0
 93
       13
 44
0.0
173
     0
291
     1
 45
0.0
1001
ACAD
1000
AcDbSavedByObjectVersion
1070
     0
  0
VISUALSTYLE
  5
3C9
102
{ACAD_REACTORS
330
3C5
102
}
102
{ACAD_XDICTIONARY
360
6C8
102
}
330
3C5
100
AcDbVisualStyle
  2
GouraudWithEdges
 70
     3
 71
     2
 72
     2
 73
     1
 90
        2
 40
-0.6
 41
30.0
 62
     5
 63
     7
 74
     1
 91
        4
 64
     7
 65
   257
 75
     1
175
     1
 42
1.0
 92
        0
 66
   257
 43
1.0
 76
     1
 77
     6
 78
     2
 67
     7
 79
     5
170
     0
171
     0
290
     0
174
     0
 93
       13
 44
0.0
173
     0
291
     1
 45
0.0
1001
ACAD
1000
AcDbSavedByObjectVersion
1070
     0
  0
VISUALSTYLE
  5
3D3
102
{ACAD_REACTORS
330
3C5
102
}
102
{ACAD_XDICTIONARY
360
6DC
102
}
330
3C5
100
AcDbVisualStyle
  2
Linepattern
 70
    14
 71
     2
 72
     2
 73
     0
 90
        0
 40
-0.6
 41
-30.0
 62
     5
 63
     7
 74
     1
 91
        4
 64
     7
 65
   257
 75
     7
175
     7
 42
1.0
 92
        8
 66
     7
 43
1.0
 76
     1
 77
     6
 78
     2
 67
     7
 79
     5
170
     0
171
     0
290
     0
174
     0
 93
        1
 44
0.0
173
     0
291
     1
 45
0.0
1001
ACAD
1000
AcDbSavedByObjectVersion
1070
     0
  0
VISUALSTYLE
  5
3CE
102
{ACAD_REACTORS
330
3C5
102
}
102
{ACAD_XDICTIONARY
360
6D2
102
}
330
3C5
100
AcDbVisualStyle
  2
Realistic
 70
     8
 71
     2
 72
     2
 73
     0
 90
        0
 40
-0.6
 41
-30.0
 62
     5
 63
     7
 74
     1
 91
        0
 64
     7
 65
   257
 75
     1
175
     1
 42
1.0
 92
        8
 66
     8
 43
1.0
 76
     1
 77
     6
 78
     2
 67
     7
 79
     5
170
     0
171
     0
290
     0
174
     0
 93
       13
 44
0.0
173
     0
291
     0
 45
0.0
1001
ACAD
1000
AcDbSavedByObjectVersion
1070
     0
  0
VISUALSTYLE
  5
3D2
102
{ACAD_REACTORS
330
3C5
102
}
102
{ACAD_XDICTIONARY
360
6DA
102
}
330
3C5
100
AcDbVisualStyle
  2
Thicken
 70
    13
 71
     2
 72
     2
 73
     0
 90
        0
 40
-0.6
 41
-30.0
 62
     5
 63
     7
 74
     1
 91
        4
 64
     7
 65
   257
 75
     1
175
     1
 42
1.0
 92
       12
 66
     7
 43
1.0
 76
     1
 77
     6
 78
     2
 67
     7
 79
     5
170
     0
171
     0
290
     0
174
     0
 93
        1
 44
0.0
173
     0
291
     1
 45
0.0
1001
ACAD
1000
AcDbSavedByObjectVersion
1070
     0
  0
XRECORD
  5
6B9
102
{ACAD_REACTORS
330
6B8
102
}
330
6B8
100
AcDbXrecord
280
     1
340
387
  0
XRECORD
  5
6BA
102
{ACAD_REACTORS
330
6B8
102
}
330
6B8
100
AcDbXrecord
280
     1
340
386
  0
DICTIONARYVAR
  5
6BB
102
{ACAD_REACTORS
330
357
102
}
330
357
100
DictionaryVariables
280
     0
  1
1:1
  0
DICTIONARYVAR
  5
38D
102
{ACAD_REACTORS
330
357
102
}
330
357
100
DictionaryVariables
280
     0
  1
Standard
  0
DICTIONARYVAR
  5
359
102
{ACAD_REACTORS
330
357
102
}
330
357
100
DictionaryVariables
280
     0
  1
2
  0
DICTIONARYVAR
  5
358
102
{ACAD_REACTORS
330
357
102
}
330
357
100
DictionaryVariables
280
     0
  1
1
  0
DICTIONARYVAR
  5
38E
102
{ACAD_REACTORS
330
357
102
}
330
357
100
DictionaryVariables
280
     0
  1

  0
DICTIONARY
  5
6BE
330
3C3
100
AcDbDictionary
280
     1
281
     1
  3
ACAD_XREC_ROUNDTRIP
360
6BF
  0
DICTIONARY
  5
6BC
330
3C2
100
AcDbDictionary
280
     1
281
     1
  3
ACAD_XREC_ROUNDTRIP
360
6BD
  0
DICTIONARY
  5
6C0
330
3C4
100
AcDbDictionary
280
     1
281
     1
  3
ACAD_XREC_ROUNDTRIP
360
6C1
  0
DICTIONARY
  5
6CA
330
3CA
100
AcDbDictionary
280
     1
281
     1
  3
ACAD_XREC_ROUNDTRIP
360
6CB
  0
DICTIONARY
  5
6CE
330
3CC
100
AcDbDictionary
280
     1
281
     1
  3
ACAD_XREC_ROUNDTRIP
360
6CF
  0
DICTIONARY
  5
6CC
330
3CB
100
AcDbDictionary
280
     1
281
     1
  3
ACAD_XREC_ROUNDTRIP
360
6CD
  0
DICTIONARY
  5
6D0
330
3CD
100
AcDbDictionary
280
     1
281
     1
  3
ACAD_XREC_ROUNDTRIP
360
6D1
  0
DICTIONARY
  5
6D8
330
3D1
100
AcDbDictionary
280
     1
281
     1
  3
ACAD_XREC_ROUNDTRIP
360
6D9
  0
DICTIONARY
  5
6E0
330
3D5
100
AcDbDictionary
280
     1
281
     1
  3
ACAD_XREC_ROUNDTRIP
360
6E1
  0
DICTIONARY
  5
6D4
330
3CF
100
AcDbDictionary
280
     1
281
     1
  3
ACAD_XREC_ROUNDTRIP
360
6D5
  0
DICTIONARY
  5
6D6
330
3D0
100
AcDbDictionary
280
     1
281
     1
  3
ACAD_XREC_ROUNDTRIP
360
6D7
  0
DICTIONARY
  5
6DE
330
3D4
100
AcDbDictionary
280
     1
281
     1
  3
ACAD_XREC_ROUNDTRIP
360
6DF
  0
DICTIONARY
  5
6C2
330
3C6
100
AcDbDictionary
280
     1
281
     1
  3
ACAD_XREC_ROUNDTRIP
360
6C3
  0
DICTIONARY
  5
6C4
330
3C7
100
AcDbDictionary
280
     1
281
     1
  3
ACAD_XREC_ROUNDTRIP
360
6C5
  0
DICTIONARY
  5
6C6
330
3C8
100
AcDbDictionary
280
     1
281
     1
  3
ACAD_XREC_ROUNDTRIP
360
6C7
  0
DICTIONARY
  5
6C8
330
3C9
100
AcDbDictionary
280
     1
281
     1
  3
ACAD_XREC_ROUNDTRIP
360
6C9
  0
DICTIONARY
  5
6DC
330
3D3
100
AcDbDictionary
280
     1
281
     1
  3
ACAD_XREC_ROUNDTRIP
360
6DD
  0
DICTIONARY
  5
6D2
330
3CE
100
AcDbDictionary
280
     1
281
     1
  3
ACAD_XREC_ROUNDTRIP
360
6D3
  0
DICTIONARY
  5
6DA
330
3D2
100
AcDbDictionary
280
     1
281
     1
  3
ACAD_XREC_ROUNDTRIP
360
6DB
  0
XRECORD
  5
6BF
102
{ACAD_REACTORS
330
6BE
102
}
330
6BE
100
AcDbXrecord
280
     1
102
MATERIAL
148
0.0
149
0.0
149
0.0
 93
        0
 94
      127
282
     0
 72
     1
 77
     1
171
     1
175
     1
179
     1
273
     0
  0
XRECORD
  5
6BD
102
{ACAD_REACTORS
330
6BC
102
}
330
6BC
100
AcDbXrecord
280
     1
102
MATERIAL
148
0.0
149
0.0
149
0.0
 93
        0
 94
      127
282
     0
 72
     1
 77
     1
171
     1
175
     1
179
     1
273
     0
  0
XRECORD
  5
6C1
102
{ACAD_REACTORS
330
6C0
102
}
330
6C0
100
AcDbXrecord
280
     1
102
MATERIAL
148
0.0
149
0.0
149
0.0
 93
        0
 94
      127
282
     0
 72
     1
 77
     1
171
     1
175
     1
179
     1
273
     0
  0
XRECORD
  5
6CB
102
{ACAD_REACTORS
330
6CA
102
}
330
6CA
100
AcDbXrecord
280
     1
102
RTVSPropertyOp0
 70
     1
102
RTVSPropertyOp1
 70
     1
102
RTVSPropertyOp2
 70
     1
102
RTVSPropertyOp3
 70
     1
102
RTVSPropertyOp4
 70
     1
102
RTVSPropertyOp5
 70
     1
102
RTVSPropertyOp6
 70
     1
102
RTVSPropertyOp7
 70
     1
102
RTVSPropertyOp8
 70
     1
102
RTVSPropertyOp9
 70
     1
102
RTVSPropertyOp10
 70
     1
102
RTVSPropertyOp11
 70
     1
102
RTVSPropertyOp12
 70
     1
102
RTVSPropertyOp13
 70
     1
102
RTVSPropertyOp14
 70
     1
102
RTVSPropertyOp15
 70
     1
102
RTVSPropertyOp16
 70
     1
102
RTVSPropertyOp17
 70
     1
102
RTVSPropertyOp18
 70
     1
102
RTVSPropertyOp19
 70
     1
102
RTVSPropertyOp20
 70
     1
102
RTVSPropertyOp21
 70
     1
102
RTVSPropertyOp22
 70
     1
102
RTVSPropertyOp23
 70
     1
102
RTVSPropertyOp24
 70
     1
102
RTVSPropertyOp25
 70
     1
102
RTVSPropertyOp26
 70
     1
102
RTVSPropertyOp27
 70
     1
102
RTVSPropertyOp28
 70
     1
102
RTVSPropertyOp29
 70
     1
102
RTVSPropertyOp30
 70
     1
102
RTVSPropertyOp31
 70
     1
102
RTVSPropertyOp32
 70
     1
  0
XRECORD
  5
6CF
102
{ACAD_REACTORS
330
6CE
102
}
330
6CE
100
AcDbXrecord
280
     1
102
RTVSPropertyOp0
 70
     1
102
RTVSPropertyOp1
 70
     1
102
RTVSPropertyOp2
 70
     1
102
RTVSPropertyOp3
 70
     1
102
RTVSPropertyOp4
 70
     1
102
RTVSPropertyOp5
 70
     1
102
RTVSPropertyOp6
 70
     1
102
RTVSPropertyOp7
 70
     1
102
RTVSPropertyOp8
 70
     1
102
RTVSPropertyOp9
 70
     1
102
RTVSPropertyOp10
 70
     1
102
RTVSPropertyOp11
 70
     1
102
RTVSPropertyOp12
 70
     1
102
RTVSPropertyOp13
 70
     1
102
RTVSPropertyOp14
 70
     1
102
RTVSPropertyOp15
 70
     1
102
RTVSPropertyOp16
 70
     1
102
RTVSPropertyOp17
 70
     1
102
RTVSPropertyOp18
 70
     1
102
RTVSPropertyOp19
 70
     1
102
RTVSPropertyOp20
 70
     1
102
RTVSPropertyOp21
 70
     1
102
RTVSPropertyOp22
 70
     1
102
RTVSPropertyOp23
 70
     1
102
RTVSPropertyOp24
 70
     1
102
RTVSPropertyOp25
 70
     1
102
RTVSPropertyOp26
 70
     1
102
RTVSPropertyOp27
 70
     1
102
RTVSPropertyOp28
 70
     1
102
RTVSPropertyOp29
 70
     1
102
RTVSPropertyOp30
 70
     1
102
RTVSPropertyOp31
 70
     1
102
RTVSPropertyOp32
 70
     1
  0
XRECORD
  5
6CD
102
{ACAD_REACTORS
330
6CC
102
}
330
6CC
100
AcDbXrecord
280
     1
102
RTVSPropertyOp0
 70
     1
102
RTVSPropertyOp1
 70
     1
102
RTVSPropertyOp2
 70
     1
102
RTVSPropertyOp3
 70
     1
102
RTVSPropertyOp4
 70
     1
102
RTVSPropertyOp5
 70
     1
102
RTVSPropertyOp6
 70
     1
102
RTVSPropertyOp7
 70
     1
102
RTVSPropertyOp8
 70
     1
102
RTVSPropertyOp9
 70
     1
102
RTVSPropertyOp10
 70
     1
102
RTVSPropertyOp11
 70
     1
102
RTVSPropertyOp12
 70
     1
102
RTVSPropertyOp13
 70
     1
102
RTVSPropertyOp14
 70
     1
102
RTVSPropertyOp15
 70
     1
102
RTVSPropertyOp16
 70
     1
102
RTVSPropertyOp17
 70
     1
102
RTVSPropertyOp18
 70
     1
102
RTVSPropertyOp19
 70
     1
102
RTVSPropertyOp20
 70
     1
102
RTVSPropertyOp21
 70
     1
102
RTVSPropertyOp22
 70
     1
102
RTVSPropertyOp23
 70
     1
102
RTVSPropertyOp24
 70
     1
102
RTVSPropertyOp25
 70
     1
102
RTVSPropertyOp26
 70
     1
102
RTVSPropertyOp27
 70
     1
102
RTVSPropertyOp28
 70
     1
102
RTVSPropertyOp29
 70
     1
102
RTVSPropertyOp30
 70
     1
102
RTVSPropertyOp31
 70
     1
102
RTVSPropertyOp32
 70
     1
  0
XRECORD
  5
6D1
102
{ACAD_REACTORS
330
6D0
102
}
330
6D0
100
AcDbXrecord
280
     1
102
RTVSPropertyOp0
 70
     1
102
RTVSPropertyOp1
 70
     1
102
RTVSPropertyOp2
 70
     1
102
RTVSPropertyOp3
 70
     1
102
RTVSPropertyOp4
 70
     1
102
RTVSPropertyOp5
 70
     1
102
RTVSPropertyOp6
 70
     1
102
RTVSPropertyOp7
 70
     1
102
RTVSPropertyOp8
 70
     1
102
RTVSPropertyOp9
 70
     1
102
RTVSPropertyOp10
 70
     1
102
RTVSPropertyOp11
 70
     1
102
RTVSPropertyOp12
 70
     1
102
RTVSPropertyOp13
 70
     1
102
RTVSPropertyOp14
 70
     1
102
RTVSPropertyOp15
 70
     1
102
RTVSPropertyOp16
 70
     1
102
RTVSPropertyOp17
 70
     1
102
RTVSPropertyOp18
 70
     1
102
RTVSPropertyOp19
 70
     1
102
RTVSPropertyOp20
 70
     1
102
RTVSPropertyOp21
 70
     1
102
RTVSPropertyOp22
 70
     1
102
RTVSPropertyOp23
 70
     1
102
RTVSPropertyOp24
 70
     1
102
RTVSPropertyOp25
 70
     1
102
RTVSPropertyOp26
 70
     1
102
RTVSPropertyOp27
 70
     1
102
RTVSPropertyOp28
 70
     1
102
RTVSPropertyOp29
 70
     1
102
RTVSPropertyOp30
 70
     1
102
RTVSPropertyOp31
 70
     1
102
RTVSPropertyOp32
 70
     1
  0
XRECORD
  5
6D9
102
{ACAD_REACTORS
330
6D8
102
}
330
6D8
100
AcDbXrecord
280
     1
102
RTVSPropertyOp0
 70
     1
102
RTVSPropertyOp1
 70
     1
102
RTVSPropertyOp2
 70
     1
102
RTVSPropertyOp3
 70
     1
102
RTVSPropertyOp4
 70
     1
102
RTVSPropertyOp5
 70
     1
102
RTVSPropertyOp6
 70
     1
102
RTVSPropertyOp7
 70
     1
102
RTVSPropertyOp8
 70
     1
102
RTVSPropertyOp9
 70
     1
102
RTVSPropertyOp10
 70
     1
102
RTVSPropertyOp11
 70
     1
102
RTVSPropertyOp12
 70
     1
102
RTVSPropertyOp13
 70
     1
102
RTVSPropertyOp14
 70
     1
102
RTVSPropertyOp15
 70
     1
102
RTVSPropertyOp16
 70
     1
102
RTVSPropertyOp17
 70
     1
102
RTVSPropertyOp18
 70
     1
102
RTVSPropertyOp19
 70
     1
102
RTVSPropertyOp20
 70
     1
102
RTVSPropertyOp21
 70
     1
102
RTVSPropertyOp22
 70
     1
102
RTVSPropertyOp23
 70
     1
102
RTVSPropertyOp24
 70
     1
102
RTVSPropertyOp25
 70
     1
102
RTVSPropertyOp26
 70
     1
102
RTVSPropertyOp27
 70
     1
102
RTVSPropertyOp28
 70
     1
102
RTVSPropertyOp29
 70
     1
102
RTVSPropertyOp30
 70
     1
102
RTVSPropertyOp31
 70
     1
102
RTVSPropertyOp32
 70
     1
  0
XRECORD
  5
6E1
102
{ACAD_REACTORS
330
6E0
102
}
330
6E0
100
AcDbXrecord
280
     1
102
RTVSPropertyOp0
 70
     1
102
RTVSPropertyOp1
 70
     1
102
RTVSPropertyOp2
 70
     1
102
RTVSPropertyOp3
 70
     1
102
RTVSPropertyOp4
 70
     1
102
RTVSPropertyOp5
 70
     1
102
RTVSPropertyOp6
 70
     1
102
RTVSPropertyOp7
 70
     1
102
RTVSPropertyOp8
 70
     1
102
RTVSPropertyOp9
 70
     1
102
RTVSPropertyOp10
 70
     1
102
RTVSPropertyOp11
 70
     1
102
RTVSPropertyOp12
 70
     1
102
RTVSPropertyOp13
 70
     1
102
RTVSPropertyOp14
 70
     1
102
RTVSPropertyOp15
 70
     1
102
RTVSPropertyOp16
 70
     1
102
RTVSPropertyOp17
 70
     1
102
RTVSPropertyOp18
 70
     1
102
RTVSPropertyOp19
 70
     1
102
RTVSPropertyOp20
 70
     1
102
RTVSPropertyOp21
 70
     1
102
RTVSPropertyOp22
 70
     1
102
RTVSPropertyOp23
 70
     1
102
RTVSPropertyOp24
 70
     1
102
RTVSPropertyOp25
 70
     1
102
RTVSPropertyOp26
 70
     1
102
RTVSPropertyOp27
 70
     1
102
RTVSPropertyOp28
 70
     1
102
RTVSPropertyOp29
 70
     1
102
RTVSPropertyOp30
 70
     1
102
RTVSPropertyOp31
 70
     1
102
RTVSPropertyOp32
 70
     1
  0
XRECORD
  5
6D5
102
{ACAD_REACTORS
330
6D4
102
}
330
6D4
100
AcDbXrecord
280
     1
102
RTVSPropertyOp0
 70
     1
102
RTVSPropertyOp1
 70
     1
102
RTVSPropertyOp2
 70
     1
102
RTVSPropertyOp3
 70
     1
102
RTVSPropertyOp4
 70
     1
102
RTVSPropertyOp5
 70
     1
102
RTVSPropertyOp6
 70
     1
102
RTVSPropertyOp7
 70
     1
102
RTVSPropertyOp8
 70
     1
102
RTVSPropertyOp9
 70
     1
102
RTVSPropertyOp10
 70
     1
102
RTVSPropertyOp11
 70
     1
102
RTVSPropertyOp12
 70
     1
102
RTVSPropertyOp13
 70
     1
102
RTVSPropertyOp14
 70
     1
102
RTVSPropertyOp15
 70
     1
102
RTVSPropertyOp16
 70
     1
102
RTVSPropertyOp17
 70
     1
102
RTVSPropertyOp18
 70
     1
102
RTVSPropertyOp19
 70
     1
102
RTVSPropertyOp20
 70
     1
102
RTVSPropertyOp21
 70
     1
102
RTVSPropertyOp22
 70
     1
102
RTVSPropertyOp23
 70
     1
102
RTVSPropertyOp24
 70
     1
102
RTVSPropertyOp25
 70
     1
102
RTVSPropertyOp26
 70
     1
102
RTVSPropertyOp27
 70
     1
102
RTVSPropertyOp28
 70
     1
102
RTVSPropertyOp29
 70
     1
102
RTVSPropertyOp30
 70
     1
102
RTVSPropertyOp31
 70
     1
102
RTVSPropertyOp32
 70
     1
  0
XRECORD
  5
6D7
102
{ACAD_REACTORS
330
6D6
102
}
330
6D6
100
AcDbXrecord
280
     1
102
RTVSPropertyOp0
 70
     1
102
RTVSPropertyOp1
 70
     1
102
RTVSPropertyOp2
 70
     1
102
RTVSPropertyOp3
 70
     1
102
RTVSPropertyOp4
 70
     1
102
RTVSPropertyOp5
 70
     1
102
RTVSPropertyOp6
 70
     1
102
RTVSPropertyOp7
 70
     1
102
RTVSPropertyOp8
 70
     1
102
RTVSPropertyOp9
 70
     1
102
RTVSPropertyOp10
 70
     1
102
RTVSPropertyOp11
 70
     1
102
RTVSPropertyOp12
 70
     1
102
RTVSPropertyOp13
 70
     1
102
RTVSPropertyOp14
 70
     1
102
RTVSPropertyOp15
 70
     1
102
RTVSPropertyOp16
 70
     1
102
RTVSPropertyOp17
 70
     1
102
RTVSPropertyOp18
 70
     1
102
RTVSPropertyOp19
 70
     1
102
RTVSPropertyOp20
 70
     1
102
RTVSPropertyOp21
 70
     1
102
RTVSPropertyOp22
 70
     1
102
RTVSPropertyOp23
 70
     1
102
RTVSPropertyOp24
 70
     1
102
RTVSPropertyOp25
 70
     1
102
RTVSPropertyOp26
 70
     1
102
RTVSPropertyOp27
 70
     1
102
RTVSPropertyOp28
 70
     1
102
RTVSPropertyOp29
 70
     1
102
RTVSPropertyOp30
 70
     1
102
RTVSPropertyOp31
 70
     1
102
RTVSPropertyOp32
 70
     1
  0
XRECORD
  5
6DF
102
{ACAD_REACTORS
330
6DE
102
}
330
6DE
100
AcDbXrecord
280
     1
102
RTVSPropertyOp0
 70
     1
102
RTVSPropertyOp1
 70
     1
102
RTVSPropertyOp2
 70
     1
102
RTVSPropertyOp3
 70
     1
102
RTVSPropertyOp4
 70
     1
102
RTVSPropertyOp5
 70
     1
102
RTVSPropertyOp6
 70
     1
102
RTVSPropertyOp7
 70
     1
102
RTVSPropertyOp8
 70
     1
102
RTVSPropertyOp9
 70
     1
102
RTVSPropertyOp10
 70
     1
102
RTVSPropertyOp11
 70
     1
102
RTVSPropertyOp12
 70
     1
102
RTVSPropertyOp13
 70
     1
102
RTVSPropertyOp14
 70
     1
102
RTVSPropertyOp15
 70
     1
102
RTVSPropertyOp16
 70
     1
102
RTVSPropertyOp17
 70
     1
102
RTVSPropertyOp18
 70
     1
102
RTVSPropertyOp19
 70
     1
102
RTVSPropertyOp20
 70
     1
102
RTVSPropertyOp21
 70
     1
102
RTVSPropertyOp22
 70
     1
102
RTVSPropertyOp23
 70
     1
102
RTVSPropertyOp24
 70
     1
102
RTVSPropertyOp25
 70
     1
102
RTVSPropertyOp26
 70
     1
102
RTVSPropertyOp27
 70
     1
102
RTVSPropertyOp28
 70
     1
102
RTVSPropertyOp29
 70
     1
102
RTVSPropertyOp30
 70
     1
102
RTVSPropertyOp31
 70
     1
102
RTVSPropertyOp32
 70
     1
  0
XRECORD
  5
6C3
102
{ACAD_REACTORS
330
6C2
102
}
330
6C2
100
AcDbXrecord
280
     1
102
RTVSPropertyOp0
 70
     1
102
RTVSPropertyOp1
 70
     1
102
RTVSPropertyOp2
 70
     1
102
RTVSPropertyOp3
 70
     1
102
RTVSPropertyOp4
 70
     1
102
RTVSPropertyOp5
 70
     1
102
RTVSPropertyOp6
 70
     1
102
RTVSPropertyOp7
 70
     1
102
RTVSPropertyOp8
 70
     1
102
RTVSPropertyOp9
 70
     1
102
RTVSPropertyOp10
 70
     1
102
RTVSPropertyOp11
 70
     1
102
RTVSPropertyOp12
 70
     1
102
RTVSPropertyOp13
 70
     1
102
RTVSPropertyOp14
 70
     1
102
RTVSPropertyOp15
 70
     1
102
RTVSPropertyOp16
 70
     1
102
RTVSPropertyOp17
 70
     1
102
RTVSPropertyOp18
 70
     1
102
RTVSPropertyOp19
 70
     1
102
RTVSPropertyOp20
 70
     1
102
RTVSPropertyOp21
 70
     1
102
RTVSPropertyOp22
 70
     1
102
RTVSPropertyOp23
 70
     1
102
RTVSPropertyOp24
 70
     1
102
RTVSPropertyOp25
 70
     1
102
RTVSPropertyOp26
 70
     1
102
RTVSPropertyOp27
 70
     1
102
RTVSPropertyOp28
 70
     1
102
RTVSPropertyOp29
 70
     1
102
RTVSPropertyOp30
 70
     1
102
RTVSPropertyOp31
 70
     1
102
RTVSPropertyOp32
 70
     1
  0
XRECORD
  5
6C5
102
{ACAD_REACTORS
330
6C4
102
}
330
6C4
100
AcDbXrecord
280
     1
102
RTVSPropertyOp0
 70
     1
102
RTVSPropertyOp1
 70
     1
102
RTVSPropertyOp2
 70
     1
102
RTVSPropertyOp3
 70
     1
102
RTVSPropertyOp4
 70
     1
102
RTVSPropertyOp5
 70
     1
102
RTVSPropertyOp6
 70
     1
102
RTVSPropertyOp7
 70
     1
102
RTVSPropertyOp8
 70
     1
102
RTVSPropertyOp9
 70
     1
102
RTVSPropertyOp10
 70
     1
102
RTVSPropertyOp11
 70
     1
102
RTVSPropertyOp12
 70
     1
102
RTVSPropertyOp13
 70
     1
102
RTVSPropertyOp14
 70
     1
102
RTVSPropertyOp15
 70
     1
102
RTVSPropertyOp16
 70
     1
102
RTVSPropertyOp17
 70
     1
102
RTVSPropertyOp18
 70
     1
102
RTVSPropertyOp19
 70
     1
102
RTVSPropertyOp20
 70
     1
102
RTVSPropertyOp21
 70
     1
102
RTVSPropertyOp22
 70
     1
102
RTVSPropertyOp23
 70
     1
102
RTVSPropertyOp24
 70
     1
102
RTVSPropertyOp25
 70
     1
102
RTVSPropertyOp26
 70
     1
102
RTVSPropertyOp27
 70
     1
102
RTVSPropertyOp28
 70
     1
102
RTVSPropertyOp29
 70
     1
102
RTVSPropertyOp30
 70
     1
102
RTVSPropertyOp31
 70
     1
102
RTVSPropertyOp32
 70
     1
  0
XRECORD
  5
6C7
102
{ACAD_REACTORS
330
6C6
102
}
330
6C6
100
AcDbXrecord
280
     1
102
RTVSPropertyOp0
 70
     1
102
RTVSPropertyOp1
 70
     1
102
RTVSPropertyOp2
 70
     1
102
RTVSPropertyOp3
 70
     1
102
RTVSPropertyOp4
 70
     1
102
RTVSPropertyOp5
 70
     1
102
RTVSPropertyOp6
 70
     1
102
RTVSPropertyOp7
 70
     1
102
RTVSPropertyOp8
 70
     1
102
RTVSPropertyOp9
 70
     1
102
RTVSPropertyOp10
 70
     1
102
RTVSPropertyOp11
 70
     1
102
RTVSPropertyOp12
 70
     1
102
RTVSPropertyOp13
 70
     1
102
RTVSPropertyOp14
 70
     1
102
RTVSPropertyOp15
 70
     1
102
RTVSPropertyOp16
 70
     1
102
RTVSPropertyOp17
 70
     1
102
RTVSPropertyOp18
 70
     1
102
RTVSPropertyOp19
 70
     1
102
RTVSPropertyOp20
 70
     1
102
RTVSPropertyOp21
 70
     1
102
RTVSPropertyOp22
 70
     1
102
RTVSPropertyOp23
 70
     1
102
RTVSPropertyOp24
 70
     1
102
RTVSPropertyOp25
 70
     1
102
RTVSPropertyOp26
 70
     1
102
RTVSPropertyOp27
 70
     1
102
RTVSPropertyOp28
 70
     1
102
RTVSPropertyOp29
 70
     1
102
RTVSPropertyOp30
 70
     1
102
RTVSPropertyOp31
 70
     1
102
RTVSPropertyOp32
 70
     1
  0
XRECORD
  5
6C9
102
{ACAD_REACTORS
330
6C8
102
}
330
6C8
100
AcDbXrecord
280
     1
102
RTVSPropertyOp0
 70
     1
102
RTVSPropertyOp1
 70
     1
102
RTVSPropertyOp2
 70
     1
102
RTVSPropertyOp3
 70
     1
102
RTVSPropertyOp4
 70
     1
102
RTVSPropertyOp5
 70
     1
102
RTVSPropertyOp6
 70
     1
102
RTVSPropertyOp7
 70
     1
102
RTVSPropertyOp8
 70
     1
102
RTVSPropertyOp9
 70
     1
102
RTVSPropertyOp10
 70
     1
102
RTVSPropertyOp11
 70
     1
102
RTVSPropertyOp12
 70
     1
102
RTVSPropertyOp13
 70
     1
102
RTVSPropertyOp14
 70
     1
102
RTVSPropertyOp15
 70
     1
102
RTVSPropertyOp16
 70
     1
102
RTVSPropertyOp17
 70
     1
102
RTVSPropertyOp18
 70
     1
102
RTVSPropertyOp19
 70
     1
102
RTVSPropertyOp20
 70
     1
102
RTVSPropertyOp21
 70
     1
102
RTVSPropertyOp22
 70
     1
102
RTVSPropertyOp23
 70
     1
102
RTVSPropertyOp24
 70
     1
102
RTVSPropertyOp25
 70
     1
102
RTVSPropertyOp26
 70
     1
102
RTVSPropertyOp27
 70
     1
102
RTVSPropertyOp28
 70
     1
102
RTVSPropertyOp29
 70
     1
102
RTVSPropertyOp30
 70
     1
102
RTVSPropertyOp31
 70
     1
102
RTVSPropertyOp32
 70
     1
  0
XRECORD
  5
6DD
102
{ACAD_REACTORS
330
6DC
102
}
330
6DC
100
AcDbXrecord
280
     1
102
RTVSPropertyOp0
 70
     1
102
RTVSPropertyOp1
 70
     1
102
RTVSPropertyOp2
 70
     1
102
RTVSPropertyOp3
 70
     1
102
RTVSPropertyOp4
 70
     1
102
RTVSPropertyOp5
 70
     1
102
RTVSPropertyOp6
 70
     1
102
RTVSPropertyOp7
 70
     1
102
RTVSPropertyOp8
 70
     1
102
RTVSPropertyOp9
 70
     1
102
RTVSPropertyOp10
 70
     1
102
RTVSPropertyOp11
 70
     1
102
RTVSPropertyOp12
 70
     1
102
RTVSPropertyOp13
 70
     1
102
RTVSPropertyOp14
 70
     1
102
RTVSPropertyOp15
 70
     1
102
RTVSPropertyOp16
 70
     1
102
RTVSPropertyOp17
 70
     1
102
RTVSPropertyOp18
 70
     1
102
RTVSPropertyOp19
 70
     1
102
RTVSPropertyOp20
 70
     1
102
RTVSPropertyOp21
 70
     1
102
RTVSPropertyOp22
 70
     1
102
RTVSPropertyOp23
 70
     1
102
RTVSPropertyOp24
 70
     1
102
RTVSPropertyOp25
 70
     1
102
RTVSPropertyOp26
 70
     1
102
RTVSPropertyOp27
 70
     1
102
RTVSPropertyOp28
 70
     1
102
RTVSPropertyOp29
 70
     1
102
RTVSPropertyOp30
 70
     1
102
RTVSPropertyOp31
 70
     1
102
RTVSPropertyOp32
 70
     1
  0
XRECORD
  5
6D3
102
{ACAD_REACTORS
330
6D2
102
}
330
6D2
100
AcDbXrecord
280
     1
102
RTVSPropertyOp0
 70
     1
102
RTVSPropertyOp1
 70
     1
102
RTVSPropertyOp2
 70
     1
102
RTVSPropertyOp3
 70
     1
102
RTVSPropertyOp4
 70
     1
102
RTVSPropertyOp5
 70
     1
102
RTVSPropertyOp6
 70
     1
102
RTVSPropertyOp7
 70
     1
102
RTVSPropertyOp8
 70
     1
102
RTVSPropertyOp9
 70
     1
102
RTVSPropertyOp10
 70
     1
102
RTVSPropertyOp11
 70
     1
102
RTVSPropertyOp12
 70
     1
102
RTVSPropertyOp13
 70
     1
102
RTVSPropertyOp14
 70
     1
102
RTVSPropertyOp15
 70
     1
102
RTVSPropertyOp16
 70
     1
102
RTVSPropertyOp17
 70
     1
102
RTVSPropertyOp18
 70
     1
102
RTVSPropertyOp19
 70
     1
102
RTVSPropertyOp20
 70
     1
102
RTVSPropertyOp21
 70
     1
102
RTVSPropertyOp22
 70
     1
102
RTVSPropertyOp23
 70
     1
102
RTVSPropertyOp24
 70
     1
102
RTVSPropertyOp25
 70
     1
102
RTVSPropertyOp26
 70
     1
102
RTVSPropertyOp27
 70
     1
102
RTVSPropertyOp28
 70
     1
102
RTVSPropertyOp29
 70
     1
102
RTVSPropertyOp30
 70
     1
102
RTVSPropertyOp31
 70
     1
102
RTVSPropertyOp32
 70
     1
  0
XRECORD
  5
6DB
102
{ACAD_REACTORS
330
6DA
102
}
330
6DA
100
AcDbXrecord
280
     1
102
RTVSPropertyOp0
 70
     1
102
RTVSPropertyOp1
 70
     1
102
RTVSPropertyOp2
 70
     1
102
RTVSPropertyOp3
 70
     1
102
RTVSPropertyOp4
 70
     1
102
RTVSPropertyOp5
 70
     1
102
RTVSPropertyOp6
 70
     1
102
RTVSPropertyOp7
 70
     1
102
RTVSPropertyOp8
 70
     1
102
RTVSPropertyOp9
 70
     1
102
RTVSPropertyOp10
 70
     1
102
RTVSPropertyOp11
 70
     1
102
RTVSPropertyOp12
 70
     1
102
RTVSPropertyOp13
 70
     1
102
RTVSPropertyOp14
 70
     1
102
RTVSPropertyOp15
 70
     1
102
RTVSPropertyOp16
 70
     1
102
RTVSPropertyOp17
 70
     1
102
RTVSPropertyOp18
 70
     1
102
RTVSPropertyOp19
 70
     1
102
RTVSPropertyOp20
 70
     1
102
RTVSPropertyOp21
 70
     1
102
RTVSPropertyOp22
 70
     1
102
RTVSPropertyOp23
 70
     1
102
RTVSPropertyOp24
 70
     1
102
RTVSPropertyOp25
 70
     1
102
RTVSPropertyOp26
 70
     1
102
RTVSPropertyOp27
 70
     1
102
RTVSPropertyOp28
 70
     1
102
RTVSPropertyOp29
 70
     1
102
RTVSPropertyOp30
 70
     1
102
RTVSPropertyOp31
 70
     1
102
RTVSPropertyOp32
 70
     1
  0
ENDSEC
  0
EOF
