0
SECTION
2
HEADER
9
$ACADVER
1
AC1015
9
$DWGCODEPAGE
3
ANSI_1252
9
$HANDSEED
5
33b
9
$ANGBASE
50
0
9
$ANGDIR
70
0
9
$ATTMODE
70
1
9
$AUNITS
70
0
9
$AUPREC
70
0
9
$CECOLOR
62
256
9
$CELTSCALE
40
1
9
$CELTYPE
6
ByLayer
9
$CELWEIGHT
370
18
9
$CLAYER
8
0
9
$CMLJUST
70
0
9
$CMLSCALE
40
1
9
$CMLSTYLE
2
Standard
9
$DIMSTYLE
2
Standard
9
$TEXTSIZE
40
0.2
9
$TEXTSTYLE
7
Standard
9
$LUNITS
70
2
9
$LUPREC
70
4
9
$EXTNAMES
290
1
9
$INSUNITS
70
4
9
$LTSCALE
40
1
9
$LWDISPLAY
290
1
9
$PDMODE
70
0
9
$PDSIZE
40
0
9
$PLINEGEN
70
0
0
ENDSEC
0
SECTION
2
CLASSES
0
CLASS
1
RASTERVARIABLES
2
AcDbRasterVariables
3
ISM
90
0
280
0
281
0
0
ENDSEC
0
SECTION
2
TABLES
0
TABLE
2
VPORT
5
331
100
AcDbSymbolTable
0
VPORT
5
1
100
AcDbSymbolTableRecord
100
AcDbViewportTableRecord
2
*Active
70
0
10
0
20
0
11
1
21
1
12
-1
22
1
13
0
23
0
14
0.5
24
0.5
15
10
25
10
16
0
26
0
36
1
17
0
27
0
37
0
0
ENDTAB
0
TABLE
2
LTYPE
5
332
100
AcDbSymbolTable
0
LTYPE
5
14
100
AcDbSymbolTableRecord
100
AcDbLinetypeTableRecord
70
0
2
ByBlock
3

72
65
73
0
40
0
0
LTYPE
5
15
100
AcDbSymbolTableRecord
100
AcDbLinetypeTableRecord
70
0
2
ByLayer
3

72
65
73
0
40
0
0
LTYPE
5
16
100
AcDbSymbolTableRecord
100
AcDbLinetypeTableRecord
70
0
2
Continuous
3
Solid line
72
65
73
0
40
0
0
LTYPE
5
6E
100
AcDbSymbolTableRecord
100
AcDbLinetypeTableRecord
70
0
2
CENTER
3
____ _ ____ _ ____ _ ____
72
65
73
4
40
47.5
49
22
74
0
49
-8.5
74
0
49
8.5
74
0
49
-8.5
74
0
0
LTYPE
5
6F
100
AcDbSymbolTableRecord
100
AcDbLinetypeTableRecord
70
0
2
DASHED
3
__ __ __ __ __ __ __ __ __
72
65
73
2
40
25.72
49
12.86
74
0
49
-12.86
74
0
0
ENDTAB
0
TABLE
2
LAYER
5
333
100
AcDbSymbolTable
0
LAYER
5
10
100
AcDbSymbolTableRecord
100
AcDbLayerTableRecord
2
0
70
0
62
7
6
Continuous
290
1
370
-3
390
0
0
LAYER
5
71
100
AcDbSymbolTableRecord
100
AcDbLayerTableRecord
2
81
70
0
62
-3
6
Continuous
290
1
370
-3
390
0
0
LAYER
5
73
100
AcDbSymbolTableRecord
100
AcDbLayerTableRecord
2
80
70
0
62
-6
6
Continuous
290
1
370
-3
390
0
0
LAYER
5
75
100
AcDbSymbolTableRecord
100
AcDbLayerTableRecord
2
1
70
0
62
4
6
Continuous
290
1
370
-3
390
0
0
LAYER
5
81
100
AcDbSymbolTableRecord
100
AcDbLayerTableRecord
2
4
70
0
62
-2
6
CENTER
290
1
370
-3
390
0
0
LAYER
5
C4
100
AcDbSymbolTableRecord
100
AcDbLayerTableRecord
2
2
70
0
62
7
6
Continuous
290
1
370
-3
390
0
0
LAYER
5
241
100
AcDbSymbolTableRecord
100
AcDbLayerTableRecord
2
Defpoints
70
0
62
7
6
Continuous
290
0
370
-3
390
0
0
LAYER
5
31d
100
AcDbSymbolTableRecord
100
AcDbLayerTableRecord
2
SK4
70
0
62
2
6
CENTER
290
1
370
-3
390
0
0
LAYER
5
31e
100
AcDbSymbolTableRecord
100
AcDbLayerTableRecord
2
SK1
70
0
62
4
6
Continuous
290
1
370
-3
390
0
0
LAYER
5
31f
100
AcDbSymbolTableRecord
100
AcDbLayerTableRecord
2
SK2
70
0
62
7
6
Continuous
290
1
370
-3
390
0
0
LAYER
5
320
100
AcDbSymbolTableRecord
100
AcDbLayerTableRecord
2
SK6
70
0
62
5
6
Continuous
290
1
370
-3
390
0
0
ENDTAB
0
TABLE
2
STYLE
5
334
100
AcDbSymbolTable
0
STYLE
5
11
100
AcDbSymbolTableRecord
100
AcDbTextStyleTableRecord
2
Standard
3
txt
70
0
71
0
40
0
41
1
42
0
50
0
0
STYLE
5
227
100
AcDbSymbolTableRecord
100
AcDbTextStyleTableRecord
2
iso_b_vert
3
simplex.shx
70
0
71
0
40
0
41
1
42
0
50
0
0
STYLE
5
228
100
AcDbSymbolTableRecord
100
AcDbTextStyleTableRecord
2
DWGDirectTextStyle
3
simplex
70
0
71
0
40
0
41
1
42
0
50
0
0
ENDTAB
0
TABLE
2
DIMSTYLE
5
335
100
AcDbSymbolTable
100
AcDbDimStyleTable
0
DIMSTYLE
105
27
100
AcDbSymbolTableRecord
100
AcDbDimStyleTableRecord
2
Standard
70
0
3
<>
41
0.18
42
0.0625
44
0.18
140
0.18
147
0.09
73
0
74
0
77
1
271
2
275
0
278
52
280
0
340
11
0
ENDTAB
0
TABLE
2
VIEW
5
336
100
AcDbSymbolTable
0
ENDTAB
0
TABLE
2
UCS
5
337
100
AcDbSymbolTable
0
ENDTAB
0
TABLE
2
APPID
5
338
100
AcDbSymbolTable
0
APPID
5
12
100
AcDbSymbolTableRecord
100
AcDbRegAppTableRecord
2
ACAD
70
0
0
APPID
5
23D
100
AcDbSymbolTableRecord
100
AcDbRegAppTableRecord
2
ACAD_DSTYLE_DIMBREAK
70
0
0
APPID
5
2DC
100
AcDbSymbolTableRecord
100
AcDbRegAppTableRecord
2
ACAD_DSTYLE_DIM_LINETYPE
70
0
0
APPID
5
2DD
100
AcDbSymbolTableRecord
100
AcDbRegAppTableRecord
2
ACAD_DSTYLE_DIM_EXT1_LINETYPE
70
0
0
APPID
5
2DE
100
AcDbSymbolTableRecord
100
AcDbRegAppTableRecord
2
ACAD_DSTYLE_DIM_EXT2_LINETYPE
70
0
0
APPID
5
319
100
AcDbSymbolTableRecord
100
AcDbRegAppTableRecord
2
ACAD_MLEADERVER
70
0
0
ENDTAB
0
TABLE
2
BLOCK_RECORD
5
339
100
AcDbSymbolTable
0
BLOCK_RECORD
5
1F
100
AcDbSymbolTableRecord
100
AcDbBlockTableRecord
2
*Model_Space
340
0
70
0
0
BLOCK_RECORD
5
1B
100
AcDbSymbolTableRecord
100
AcDbBlockTableRecord
2
*Paper_Space
340
0
70
0
0
BLOCK_RECORD
5
23
100
AcDbSymbolTableRecord
100
AcDbBlockTableRecord
2
*Paper_Space0
340
0
70
0
0
BLOCK_RECORD
5
242
100
AcDbSymbolTableRecord
100
AcDbBlockTableRecord
2
*D1
340
0
70
0
0
BLOCK_RECORD
5
250
100
AcDbSymbolTableRecord
100
AcDbBlockTableRecord
2
_U0
340
0
70
0
0
BLOCK_RECORD
5
25C
100
AcDbSymbolTableRecord
100
AcDbBlockTableRecord
2
*D3
340
0
70
0
0
BLOCK_RECORD
5
269
100
AcDbSymbolTableRecord
100
AcDbBlockTableRecord
2
_U1
340
0
70
0
0
BLOCK_RECORD
5
276
100
AcDbSymbolTableRecord
100
AcDbBlockTableRecord
2
*D5
340
0
70
0
0
BLOCK_RECORD
5
284
100
AcDbSymbolTableRecord
100
AcDbBlockTableRecord
2
_U2
340
0
70
0
0
BLOCK_RECORD
5
291
100
AcDbSymbolTableRecord
100
AcDbBlockTableRecord
2
*D7
340
0
70
0
0
BLOCK_RECORD
5
29D
100
AcDbSymbolTableRecord
100
AcDbBlockTableRecord
2
_U3
340
0
70
0
0
BLOCK_RECORD
5
2A9
100
AcDbSymbolTableRecord
100
AcDbBlockTableRecord
2
*D9
340
0
70
0
0
BLOCK_RECORD
5
2B5
100
AcDbSymbolTableRecord
100
AcDbBlockTableRecord
2
_U4
340
0
70
0
0
ENDTAB
0
ENDSEC
0
SECTION
2
BLOCKS
0
BLOCK
5
20
100
AcDbEntity
8
0
100
AcDbBlockBegin
2
*Model_Space
70
0
10
0
20
0
30
0
3
*Model_Space
0
ENDBLK
5
21
100
AcDbEntity
8
0
100
AcDbBlockEnd
0
BLOCK
5
1C
100
AcDbEntity
8
0
100
AcDbBlockBegin
2
*Paper_Space
70
0
10
0
20
0
30
0
3
*Paper_Space
0
ENDBLK
5
1D
100
AcDbEntity
8
0
100
AcDbBlockEnd
0
BLOCK
5
24
100
AcDbEntity
8
0
100
AcDbBlockBegin
2
*Paper_Space0
70
0
10
0
20
0
30
0
3
*Paper_Space0
0
ENDBLK
5
25
100
AcDbEntity
8
0
100
AcDbBlockEnd
0
BLOCK
5
243
100
AcDbEntity
8
0
100
AcDbBlockBegin
2
*D1
70
1
10
0
20
0
30
0
3
*D1
0
LINE
5
245
100
AcDbEntity
8
0
62
256
6
ByLayer
370
-2
48
1
60
0
100
AcDbLine
10
58.7175
20
3.05706
30
0
11
77.66294
21
3.05706
31
0
39
0
210
0
220
0
230
1
0
LINE
5
246
100
AcDbEntity
8
0
62
256
6
ByLayer
370
-2
48
1
60
0
100
AcDbLine
10
58.7175
20
-3.05706
30
0
11
77.66294
21
-3.05706
31
0
39
0
210
0
220
0
230
1
0
LINE
5
247
100
AcDbEntity
8
0
62
256
6
ByLayer
370
-2
48
1
60
0
100
AcDbLine
10
75.66294
20
3.05706
30
0
11
75.66294
21
31.05706
31
0
39
0
210
0
220
0
230
1
0
LINE
5
248
100
AcDbEntity
8
0
62
256
6
ByLayer
370
-2
48
1
60
0
100
AcDbLine
10
75.66294
20
6.55706
30
0
11
75.66294
21
10.05706
31
0
39
0
210
0
220
0
230
1
0
LINE
5
249
100
AcDbEntity
8
0
62
256
6
ByLayer
370
-2
48
1
60
0
100
AcDbLine
10
75.66294
20
-6.55706
30
0
11
75.66294
21
-10.05706
31
0
39
0
210
0
220
0
230
1
0
SOLID
5
24A
100
AcDbEntity
8
0
62
256
6
ByLayer
370
-1
48
1
60
0
100
AcDbTrace
10
75.079606
20
6.55706
30
0
11
76.246273
21
6.55706
31
0
12
75.66294
22
3.05706
32
0
13
75.66294
23
3.05706
33
0
39
0
210
0
220
0
230
1
0
SOLID
5
24B
100
AcDbEntity
8
0
62
256
6
ByLayer
370
-1
48
1
60
0
100
AcDbTrace
10
76.246273
20
-6.55706
30
0
11
75.079606
21
-6.55706
31
0
12
75.66294
22
-3.05706
32
0
13
75.66294
23
-3.05706
33
0
39
0
210
0
220
0
230
1
0
MTEXT
5
24C
100
AcDbEntity
8
0
62
256
6
ByLayer
370
18
48
1
60
0
100
AcDbMText
10
69.66294
20
20.55706
30
0
210
0
220
0
230
1
1
\A1;6.114
40
3
41
0
44
1
50
90
71
5
72
5
7
iso_b_vert
0
POINT
5
24D
100
AcDbEntity
8
Defpoints
62
0
6
ByLayer
370
-1
48
1
60
0
100
AcDbPoint
10
57.13
20
3.05706
30
0
39
0
210
0
220
0
230
1
50
360
0
POINT
5
24E
100
AcDbEntity
8
Defpoints
62
0
6
ByLayer
370
-1
48
1
60
0
100
AcDbPoint
10
57.13
20
-3.05706
30
0
39
0
210
0
220
0
230
1
50
360
0
POINT
5
24F
100
AcDbEntity
8
Defpoints
62
0
6
ByLayer
370
-1
48
1
60
0
100
AcDbPoint
10
75.66294
20
-3.05706
30
0
39
0
210
0
220
0
230
1
50
360
0
ENDBLK
5
244
100
AcDbEntity
8
0
100
AcDbBlockEnd
0
BLOCK
5
257
100
AcDbEntity
8
0
100
AcDbBlockBegin
2
_U0
70
0
10
0
20
0
30
0
3
_U0
0
MTEXT
5
251
100
AcDbEntity
8
2
62
256
6
ByLayer
370
18
48
1
60
0
100
AcDbMText
10
75.071825
20
13.19206
30
0
210
0
220
0
230
1
1
\W0.7203;M6
40
3
41
0
44
1.084337
50
90
71
7
72
5
7
iso_b_vert
0
LINE
5
252
100
AcDbEntity
8
2
62
256
6
ByLayer
370
13
48
1
60
0
100
AcDbLine
10
58.7175
20
3.05706
30
0
11
77.66294
21
3.05706
31
0
39
0
210
0
220
0
230
1
0
LINE
5
253
100
AcDbEntity
8
2
62
256
6
ByLayer
370
13
48
1
60
0
100
AcDbLine
10
58.7175
20
-3.05706
30
0
11
77.66294
21
-3.05706
31
0
39
0
210
0
220
0
230
1
0
LINE
5
254
100
AcDbEntity
8
2
62
256
6
ByLayer
370
13
48
1
60
0
100
AcDbLine
10
75.66294
20
-10.55706
30
0
11
75.66294
21
17.31186
31
0
39
0
210
0
220
0
230
1
0
SOLID
5
255
100
AcDbEntity
8
2
62
256
6
ByLayer
370
18
48
1
60
0
100
AcDbTrace
10
75.66294
20
3.05706
30
0
11
75.202156
21
6.557059
31
0
12
76.123724
22
6.557062
32
0
13
76.123724
23
6.557062
33
0
39
0
210
0
220
0
230
1
0
SOLID
5
256
100
AcDbEntity
8
2
62
256
6
ByLayer
370
18
48
1
60
0
100
AcDbTrace
10
75.66294
20
-3.05706
30
0
11
76.123724
21
-6.557059
31
0
12
75.202156
22
-6.557062
32
0
13
75.202156
23
-6.557062
33
0
39
0
210
0
220
0
230
1
0
ENDBLK
5
258
100
AcDbEntity
8
0
100
AcDbBlockEnd
0
BLOCK
5
25D
100
AcDbEntity
8
0
100
AcDbBlockBegin
2
*D3
70
1
10
0
20
0
30
0
3
*D3
0
LINE
5
25F
100
AcDbEntity
8
0
62
256
6
ByLayer
370
-2
48
1
60
0
100
AcDbLine
10
57.13
20
4.64456
30
0
11
57.13
21
14.0885
31
0
39
0
210
0
220
0
230
1
0
LINE
5
260
100
AcDbEntity
8
0
62
256
6
ByLayer
370
-2
48
1
60
0
100
AcDbLine
10
54.38
20
1.5875
30
0
11
54.38
21
14.0885
31
0
39
0
210
0
220
0
230
1
0
LINE
5
261
100
AcDbEntity
8
0
62
256
6
ByLayer
370
-2
48
1
60
0
100
AcDbLine
10
60.63
20
12.0885
30
0
11
64.13
21
12.0885
31
0
39
0
210
0
220
0
230
1
0
LINE
5
262
100
AcDbEntity
8
0
62
256
6
ByLayer
370
-2
48
1
60
0
100
AcDbLine
10
50.88
20
12.0885
30
0
11
47.38
21
12.0885
31
0
39
0
210
0
220
0
230
1
0
SOLID
5
263
100
AcDbEntity
8
0
62
256
6
ByLayer
370
-1
48
1
60
0
100
AcDbTrace
10
60.63
20
12.671833
30
0
11
60.63
21
11.505167
31
0
12
57.13
22
12.0885
32
0
13
57.13
23
12.0885
33
0
39
0
210
0
220
0
230
1
0
SOLID
5
264
100
AcDbEntity
8
0
62
256
6
ByLayer
370
-1
48
1
60
0
100
AcDbTrace
10
50.88
20
11.505167
30
0
11
50.88
21
12.671833
31
0
12
54.38
22
12.0885
32
0
13
54.38
23
12.0885
33
0
39
0
210
0
220
0
230
1
0
MTEXT
5
265
100
AcDbEntity
8
0
62
256
6
ByLayer
370
18
48
1
60
0
100
AcDbMText
10
55.755
20
18.0885
30
0
210
0
220
0
230
1
1
\A1;2.75
40
3
41
0
44
1
50
0
71
5
72
5
7
iso_b_vert
0
POINT
5
266
100
AcDbEntity
8
Defpoints
62
0
6
ByLayer
370
-1
48
1
60
0
100
AcDbPoint
10
57.13
20
3.05706
30
0
39
0
210
0
220
0
230
1
50
360
0
POINT
5
267
100
AcDbEntity
8
Defpoints
62
0
6
ByLayer
370
-1
48
1
60
0
100
AcDbPoint
10
54.38
20
0
30
0
39
0
210
0
220
0
230
1
50
360
0
POINT
5
268
100
AcDbEntity
8
Defpoints
62
0
6
ByLayer
370
-1
48
1
60
0
100
AcDbPoint
10
54.38
20
12.0885
30
0
39
0
210
0
220
0
230
1
50
360
0
ENDBLK
5
25E
100
AcDbEntity
8
0
100
AcDbBlockEnd
0
BLOCK
5
271
100
AcDbEntity
8
0
100
AcDbBlockBegin
2
_U1
70
0
10
0
20
0
30
0
3
_U1
0
MTEXT
5
26A
100
AcDbEntity
8
SK2
62
256
6
ByLayer
370
18
48
1
60
0
100
AcDbMText
10
52.420044
20
12.871134
30
0
210
0
220
0
230
1
1
\W0.6474;'C'
40
3.5
41
0
44
1.084337
50
0
71
7
72
5
7
iso_b_vert
0
MTEXT
5
26B
100
AcDbEntity
8
SK2
62
256
6
ByLayer
370
18
48
1
60
0
100
AcDbMText
10
52.393544
20
19.973614
30
0
210
0
220
0
230
1
1
\W0.7346;2.75
40
3
41
0
44
1.084337
50
0
71
7
72
5
7
iso_b_vert
0
LINE
5
26C
100
AcDbEntity
8
SK2
62
256
6
ByLayer
370
13
48
1
60
0
100
AcDbLine
10
57.13
20
4.64456
30
0
11
57.13
21
14.0885
31
0
39
0
210
0
220
0
230
1
0
LINE
5
26D
100
AcDbEntity
8
SK2
62
256
6
ByLayer
370
13
48
1
60
0
100
AcDbLine
10
54.38
20
1.5875
30
0
11
54.38
21
14.0885
31
0
39
0
210
0
220
0
230
1
0
LINE
5
26E
100
AcDbEntity
8
SK2
62
256
6
ByLayer
370
13
48
1
60
0
100
AcDbLine
10
64.63
20
12.0885
30
0
11
46.88
21
12.0885
31
0
39
0
210
0
220
0
230
1
0
SOLID
5
26F
100
AcDbEntity
8
SK2
62
256
6
ByLayer
370
18
48
1
60
0
100
AcDbTrace
10
57.13
20
12.0885
30
0
11
60.629998
21
12.549284
31
0
12
60.630002
22
11.627716
32
0
13
60.630002
23
11.627716
33
0
39
0
210
0
220
0
230
1
0
SOLID
5
270
100
AcDbEntity
8
SK2
62
256
6
ByLayer
370
18
48
1
60
0
100
AcDbTrace
10
54.38
20
12.0885
30
0
11
50.880002
21
11.627716
31
0
12
50.879998
22
12.549284
32
0
13
50.879998
23
12.549284
33
0
39
0
210
0
220
0
230
1
0
ENDBLK
5
272
100
AcDbEntity
8
0
100
AcDbBlockEnd
0
BLOCK
5
277
100
AcDbEntity
8
0
100
AcDbBlockBegin
2
*D5
70
1
10
0
20
0
30
0
3
*D5
0
LINE
5
279
100
AcDbEntity
8
0
62
256
6
ByLayer
370
-2
48
1
60
0
100
AcDbLine
10
57.13
20
-4.64456
30
0
11
57.13
21
-12.05706
31
0
39
0
210
0
220
0
230
1
0
LINE
5
27A
100
AcDbEntity
8
0
62
256
6
ByLayer
370
-2
48
1
60
0
100
AcDbLine
10
45.73
20
-4.64456
30
0
11
45.73
21
-12.05706
31
0
39
0
210
0
220
0
230
1
0
LINE
5
27B
100
AcDbEntity
8
0
62
256
6
ByLayer
370
-2
48
1
60
0
100
AcDbLine
10
57.13
20
-10.05706
30
0
11
81.987143
21
-10.05706
31
0
39
0
210
0
220
0
230
1
0
LINE
5
27C
100
AcDbEntity
8
0
62
256
6
ByLayer
370
-2
48
1
60
0
100
AcDbLine
10
60.63
20
-10.05706
30
0
11
64.13
21
-10.05706
31
0
39
0
210
0
220
0
230
1
0
LINE
5
27D
100
AcDbEntity
8
0
62
256
6
ByLayer
370
-2
48
1
60
0
100
AcDbLine
10
42.23
20
-10.05706
30
0
11
38.73
21
-10.05706
31
0
39
0
210
0
220
0
230
1
0
SOLID
5
27E
100
AcDbEntity
8
0
62
256
6
ByLayer
370
-1
48
1
60
0
100
AcDbTrace
10
60.63
20
-9.473727
30
0
11
60.63
21
-10.640394
31
0
12
57.13
22
-10.05706
32
0
13
57.13
23
-10.05706
33
0
39
0
210
0
220
0
230
1
0
SOLID
5
27F
100
AcDbEntity
8
0
62
256
6
ByLayer
370
-1
48
1
60
0
100
AcDbTrace
10
42.23
20
-10.640394
30
0
11
42.23
21
-9.473727
31
0
12
45.73
22
-10.05706
32
0
13
45.73
23
-10.05706
33
0
39
0
210
0
220
0
230
1
0
MTEXT
5
280
100
AcDbEntity
8
0
62
256
6
ByLayer
370
18
48
1
60
0
100
AcDbMText
10
73.058571
20
-4.05706
30
0
210
0
220
0
230
1
1
\A1;11.4
40
3
41
0
44
1
50
0
71
5
72
5
7
iso_b_vert
0
POINT
5
281
100
AcDbEntity
8
Defpoints
62
0
6
ByLayer
370
-1
48
1
60
0
100
AcDbPoint
10
57.13
20
-3.05706
30
0
39
0
210
0
220
0
230
1
50
360
0
POINT
5
282
100
AcDbEntity
8
Defpoints
62
0
6
ByLayer
370
-1
48
1
60
0
100
AcDbPoint
10
45.73
20
-3.05706
30
0
39
0
210
0
220
0
230
1
50
360
0
POINT
5
283
100
AcDbEntity
8
Defpoints
62
0
6
ByLayer
370
-1
48
1
60
0
100
AcDbPoint
10
45.73
20
-10.05706
30
0
39
0
210
0
220
0
230
1
50
360
0
ENDBLK
5
278
100
AcDbEntity
8
0
100
AcDbBlockEnd
0
BLOCK
5
28C
100
AcDbEntity
8
0
100
AcDbBlockBegin
2
_U2
70
0
10
0
20
0
30
0
3
_U2
0
MTEXT
5
285
100
AcDbEntity
8
SK2
62
256
6
ByLayer
370
18
48
1
60
0
100
AcDbMText
10
63.289
20
-9.171946
30
0
210
0
220
0
230
1
1
\W0.5983;11.4
40
3
41
0
44
1.084337
50
0
71
7
72
5
7
iso_b_vert
0
MTEXT
5
286
100
AcDbEntity
8
SK2
62
256
6
ByLayer
370
18
48
1
60
0
100
AcDbMText
10
71.619527
20
-8.819465
30
0
210
0
220
0
230
1
1
\W0.8315;\W0.4158;%%p\W0.8315;0.5
40
2.5
41
0
44
1.084337
50
0
71
7
72
5
7
iso_b_vert
0
LINE
5
287
100
AcDbEntity
8
SK2
62
256
6
ByLayer
370
13
48
1
60
0
100
AcDbLine
10
57.13
20
-4.64456
30
0
11
57.13
21
-12.05706
31
0
39
0
210
0
220
0
230
1
0
LINE
5
288
100
AcDbEntity
8
SK2
62
256
6
ByLayer
370
13
48
1
60
0
100
AcDbLine
10
45.73
20
-4.64456
30
0
11
45.73
21
-12.05706
31
0
39
0
210
0
220
0
230
1
0
LINE
5
289
100
AcDbEntity
8
SK2
62
256
6
ByLayer
370
13
48
1
60
0
100
AcDbLine
10
45.73
20
-10.05706
30
0
11
78.736264
21
-10.05706
31
0
39
0
210
0
220
0
230
1
0
SOLID
5
28A
100
AcDbEntity
8
SK2
62
256
6
ByLayer
370
18
48
1
60
0
100
AcDbTrace
10
57.13
20
-10.05706
30
0
11
53.630002
21
-10.517844
31
0
12
53.629998
22
-9.596276
32
0
13
53.629998
23
-9.596276
33
0
39
0
210
0
220
0
230
1
0
SOLID
5
28B
100
AcDbEntity
8
SK2
62
256
6
ByLayer
370
18
48
1
60
0
100
AcDbTrace
10
45.73
20
-10.05706
30
0
11
49.229998
21
-9.596276
31
0
12
49.230002
22
-10.517844
32
0
13
49.230002
23
-10.517844
33
0
39
0
210
0
220
0
230
1
0
ENDBLK
5
28D
100
AcDbEntity
8
0
100
AcDbBlockEnd
0
BLOCK
5
292
100
AcDbEntity
8
0
100
AcDbBlockBegin
2
*D7
70
1
10
0
20
0
30
0
3
*D7
0
LINE
5
294
100
AcDbEntity
8
0
62
256
6
ByLayer
370
-2
48
1
60
0
100
AcDbLine
10
57.13
20
-4.64456
30
0
11
57.13
21
-34.55706
31
0
39
0
210
0
220
0
230
1
0
LINE
5
295
100
AcDbEntity
8
0
62
256
6
ByLayer
370
-2
48
1
60
0
100
AcDbLine
10
31.13
20
-3.87455
30
0
11
31.13
21
-34.55706
31
0
39
0
210
0
220
0
230
1
0
LINE
5
296
100
AcDbEntity
8
0
62
256
6
ByLayer
370
-2
48
1
60
0
100
AcDbLine
10
53.63
20
-32.55706
30
0
11
34.63
21
-32.55706
31
0
39
0
210
0
220
0
230
1
0
SOLID
5
297
100
AcDbEntity
8
0
62
256
6
ByLayer
370
-1
48
1
60
0
100
AcDbTrace
10
53.63
20
-33.140394
30
0
11
53.63
21
-31.973727
31
0
12
57.13
22
-32.55706
32
0
13
57.13
23
-32.55706
33
0
39
0
210
0
220
0
230
1
0
SOLID
5
298
100
AcDbEntity
8
0
62
256
6
ByLayer
370
-1
48
1
60
0
100
AcDbTrace
10
34.63
20
-31.973727
30
0
11
34.63
21
-33.140394
31
0
12
31.13
22
-32.55706
32
0
13
31.13
23
-32.55706
33
0
39
0
210
0
220
0
230
1
0
MTEXT
5
299
100
AcDbEntity
8
0
62
256
6
ByLayer
370
18
48
1
60
0
100
AcDbMText
10
44.13
20
-26.55706
30
0
210
0
220
0
230
1
1
\A1;26
40
3
41
0
44
1
50
0
71
5
72
5
7
iso_b_vert
0
POINT
5
29A
100
AcDbEntity
8
Defpoints
62
0
6
ByLayer
370
-1
48
1
60
0
100
AcDbPoint
10
57.13
20
-3.05706
30
0
39
0
210
0
220
0
230
1
50
360
0
POINT
5
29B
100
AcDbEntity
8
Defpoints
62
0
6
ByLayer
370
-1
48
1
60
0
100
AcDbPoint
10
31.13
20
-2.28705
30
0
39
0
210
0
220
0
230
1
50
360
0
POINT
5
29C
100
AcDbEntity
8
Defpoints
62
0
6
ByLayer
370
-1
48
1
60
0
100
AcDbPoint
10
31.13
20
-32.55706
30
0
39
0
210
0
220
0
230
1
50
360
0
ENDBLK
5
293
100
AcDbEntity
8
0
100
AcDbBlockEnd
0
BLOCK
5
2A4
100
AcDbEntity
8
0
100
AcDbBlockBegin
2
_U3
70
0
10
0
20
0
30
0
3
_U3
0
MTEXT
5
29E
100
AcDbEntity
8
SK2
62
256
6
ByLayer
370
18
48
1
60
0
100
AcDbMText
10
42.497172
20
-31.671946
30
0
210
0
220
0
230
1
1
\W0.6740;26
40
3
41
0
44
1.084337
50
0
71
7
72
5
7
iso_b_vert
0
LINE
5
29F
100
AcDbEntity
8
SK2
62
256
6
ByLayer
370
13
48
1
60
0
100
AcDbLine
10
57.13
20
-4.64456
30
0
11
57.13
21
-34.55706
31
0
39
0
210
0
220
0
230
1
0
LINE
5
2A0
100
AcDbEntity
8
SK2
62
256
6
ByLayer
370
13
48
1
60
0
100
AcDbLine
10
31.13
20
-3.87455
30
0
11
31.13
21
-34.55706
31
0
39
0
210
0
220
0
230
1
0
LINE
5
2A1
100
AcDbEntity
8
SK2
62
256
6
ByLayer
370
13
48
1
60
0
100
AcDbLine
10
57.13
20
-32.55706
30
0
11
31.13
21
-32.55706
31
0
39
0
210
0
220
0
230
1
0
SOLID
5
2A2
100
AcDbEntity
8
SK2
62
256
6
ByLayer
370
18
48
1
60
0
100
AcDbTrace
10
57.13
20
-32.55706
30
0
11
53.630002
21
-33.017844
31
0
12
53.629998
22
-32.096276
32
0
13
53.629998
23
-32.096276
33
0
39
0
210
0
220
0
230
1
0
SOLID
5
2A3
100
AcDbEntity
8
SK2
62
256
6
ByLayer
370
18
48
1
60
0
100
AcDbTrace
10
31.13
20
-32.55706
30
0
11
34.629998
21
-32.096276
31
0
12
34.630002
22
-33.017844
32
0
13
34.630002
23
-33.017844
33
0
39
0
210
0
220
0
230
1
0
ENDBLK
5
2A5
100
AcDbEntity
8
0
100
AcDbBlockEnd
0
BLOCK
5
2AA
100
AcDbEntity
8
0
100
AcDbBlockBegin
2
*D9
70
1
10
0
20
0
30
0
3
*D9
0
LINE
5
2AC
100
AcDbEntity
8
0
62
256
6
ByLayer
370
-2
48
1
60
0
100
AcDbLine
10
57.13
20
-4.64456
30
0
11
57.13
21
-23.55706
31
0
39
0
210
0
220
0
230
1
0
LINE
5
2AD
100
AcDbEntity
8
0
62
256
6
ByLayer
370
-2
48
1
60
0
100
AcDbLine
10
35.03
20
-1.5875
30
0
11
35.03
21
-23.55706
31
0
39
0
210
0
220
0
230
1
0
LINE
5
2AE
100
AcDbEntity
8
0
62
256
6
ByLayer
370
-2
48
1
60
0
100
AcDbLine
10
53.63
20
-21.55706
30
0
11
38.53
21
-21.55706
31
0
39
0
210
0
220
0
230
1
0
SOLID
5
2AF
100
AcDbEntity
8
0
62
256
6
ByLayer
370
-1
48
1
60
0
100
AcDbTrace
10
53.63
20
-22.140394
30
0
11
53.63
21
-20.973727
31
0
12
57.13
22
-21.55706
32
0
13
57.13
23
-21.55706
33
0
39
0
210
0
220
0
230
1
0
SOLID
5
2B0
100
AcDbEntity
8
0
62
256
6
ByLayer
370
-1
48
1
60
0
100
AcDbTrace
10
38.53
20
-20.973727
30
0
11
38.53
21
-22.140394
31
0
12
35.03
22
-21.55706
32
0
13
35.03
23
-21.55706
33
0
39
0
210
0
220
0
230
1
0
MTEXT
5
2B1
100
AcDbEntity
8
0
62
256
6
ByLayer
370
18
48
1
60
0
100
AcDbMText
10
46.08
20
-15.55706
30
0
210
0
220
0
230
1
1
\A1;22.1
40
3
41
0
44
1
50
0
71
5
72
5
7
iso_b_vert
0
POINT
5
2B2
100
AcDbEntity
8
Defpoints
62
0
6
ByLayer
370
-1
48
1
60
0
100
AcDbPoint
10
57.13
20
-3.05706
30
0
39
0
210
0
220
0
230
1
50
360
0
POINT
5
2B3
100
AcDbEntity
8
Defpoints
62
0
6
ByLayer
370
-1
48
1
60
0
100
AcDbPoint
10
35.03
20
0
30
0
39
0
210
0
220
0
230
1
50
360
0
POINT
5
2B4
100
AcDbEntity
8
Defpoints
62
0
6
ByLayer
370
-1
48
1
60
0
100
AcDbPoint
10
35.03
20
-21.55706
30
0
39
0
210
0
220
0
230
1
50
360
0
ENDBLK
5
2AB
100
AcDbEntity
8
0
100
AcDbBlockEnd
0
BLOCK
5
2BC
100
AcDbEntity
8
0
100
AcDbBlockBegin
2
_U4
70
0
10
0
20
0
30
0
3
_U4
0
MTEXT
5
2B6
100
AcDbEntity
8
2
62
256
6
ByLayer
370
18
48
1
60
0
100
AcDbMText
10
43.093486
20
-20.671946
30
0
210
0
220
0
230
1
1
\W0.7208;22.1
40
3
41
0
44
1.084337
50
0
71
7
72
5
7
iso_b_vert
0
LINE
5
2B7
100
AcDbEntity
8
2
62
256
6
ByLayer
370
13
48
1
60
0
100
AcDbLine
10
57.13
20
-4.64456
30
0
11
57.13
21
-23.55706
31
0
39
0
210
0
220
0
230
1
0
LINE
5
2B8
100
AcDbEntity
8
2
62
256
6
ByLayer
370
13
48
1
60
0
100
AcDbLine
10
35.03
20
-1.5875
30
0
11
35.03
21
-23.55706
31
0
39
0
210
0
220
0
230
1
0
LINE
5
2B9
100
AcDbEntity
8
2
62
256
6
ByLayer
370
13
48
1
60
0
100
AcDbLine
10
57.13
20
-21.55706
30
0
11
35.03
21
-21.55706
31
0
39
0
210
0
220
0
230
1
0
SOLID
5
2BA
100
AcDbEntity
8
2
62
256
6
ByLayer
370
18
48
1
60
0
100
AcDbTrace
10
57.13
20
-21.55706
30
0
11
53.630002
21
-22.017844
31
0
12
53.629998
22
-21.096276
32
0
13
53.629998
23
-21.096276
33
0
39
0
210
0
220
0
230
1
0
SOLID
5
2BB
100
AcDbEntity
8
2
62
256
6
ByLayer
370
18
48
1
60
0
100
AcDbTrace
10
35.03
20
-21.55706
30
0
11
38.529998
21
-21.096276
31
0
12
38.530002
22
-22.017844
32
0
13
38.530002
23
-22.017844
33
0
39
0
210
0
220
0
230
1
0
ENDBLK
5
2BD
100
AcDbEntity
8
0
100
AcDbBlockEnd
0
ENDSEC
0
SECTION
2
ENTITIES
0
ARC
5
CD
100
AcDbEntity
8
SK1
62
256
6
ByLayer
370
18
48
1
60
0
100
AcDbCircle
39
0
10
-17.425
20
0
30
0
40
3.10896000000018
210
0
220
0
230
1
100
AcDbArc
50
321.260905
51
38.739095
0
ARC
5
CE
100
AcDbEntity
8
1
62
256
6
ByLayer
370
18
48
1
60
0
100
AcDbCircle
39
0
10
31.226238
20
-3.38705
30
0
40
1.1
210
0
220
0
230
1
100
AcDbArc
50
90
51
100
0
ARC
5
CF
100
AcDbEntity
8
1
62
256
6
ByLayer
370
18
48
1
60
0
100
AcDbCircle
39
0
10
31.226238
20
3.38705
30
0
40
1.1
210
0
220
0
230
1
100
AcDbArc
50
260
51
270
0
POINT
5
70
100
AcDbEntity
8
81
62
256
6
ByLayer
370
18
48
1
60
0
100
AcDbPoint
10
57.33
20
0
30
0
39
0
210
0
220
0
230
1
50
360
0
POINT
5
72
100
AcDbEntity
8
80
62
256
6
ByLayer
370
18
48
1
60
0
100
AcDbPoint
10
0
20
0
30
0
39
0
210
0
220
0
230
1
50
360
0
POINT
5
74
100
AcDbEntity
8
1
62
256
6
ByLayer
370
18
48
1
60
1
100
AcDbPoint
10
57.13
20
3.05706
30
0
39
0
210
0
220
0
230
1
50
360
0
POINT
5
76
100
AcDbEntity
8
1
62
256
6
ByLayer
370
18
48
1
60
1
100
AcDbPoint
10
57.13
20
-3.05706
30
0
39
0
210
0
220
0
230
1
50
360
0
POINT
5
77
100
AcDbEntity
8
1
62
256
6
ByLayer
370
18
48
1
60
1
100
AcDbPoint
10
57.13
20
3.05706
30
0
39
0
210
0
220
0
230
1
50
360
0
POINT
5
78
100
AcDbEntity
8
1
62
256
6
ByLayer
370
18
48
1
60
1
100
AcDbPoint
10
54.38
20
0
30
0
39
0
210
0
220
0
230
1
50
360
0
POINT
5
79
100
AcDbEntity
8
1
62
256
6
ByLayer
370
18
48
1
60
1
100
AcDbPoint
10
57.13
20
-3.05706
30
0
39
0
210
0
220
0
230
1
50
360
0
POINT
5
7A
100
AcDbEntity
8
1
62
256
6
ByLayer
370
18
48
1
60
1
100
AcDbPoint
10
45.73
20
-3.05706
30
0
39
0
210
0
220
0
230
1
50
360
0
POINT
5
7B
100
AcDbEntity
8
1
62
256
6
ByLayer
370
18
48
1
60
1
100
AcDbPoint
10
57.13
20
-3.05706
30
0
39
0
210
0
220
0
230
1
50
360
0
POINT
5
7C
100
AcDbEntity
8
1
62
256
6
ByLayer
370
18
48
1
60
1
100
AcDbPoint
10
31.13
20
-2.28705
30
0
39
0
210
0
220
0
230
1
50
360
0
POINT
5
7D
100
AcDbEntity
8
1
62
256
6
ByLayer
370
18
48
1
60
1
100
AcDbPoint
10
57.13
20
-3.05706
30
0
39
0
210
0
220
0
230
1
50
360
0
POINT
5
7E
100
AcDbEntity
8
1
62
256
6
ByLayer
370
18
48
1
60
1
100
AcDbPoint
10
35.03
20
0
30
0
39
0
210
0
220
0
230
1
50
360
0
SPLINE
5
D0
100
AcDbEntity
8
1
62
256
6
ByLayer
370
13
48
1
60
0
100
AcDbSpline
70
4
71
3
72
8
73
4
40
0
40
0
40
0
40
0
40
1
40
1
40
1
40
1
41
1
10
44.652255820727
20
2.48134419119074
30
0
41
1
10
44.6502638517423
20
2.47911771157035
30
0
41
1
10
44.6482775796725
20
2.47631458507257
30
0
41
1
10
44.6462968329564
20
2.47294724590384
30
0
0
SPLINE
5
D1
100
AcDbEntity
8
1
62
256
6
ByLayer
370
18
48
1
60
0
100
AcDbSpline
70
4
71
3
72
8
73
4
40
0
40
0
40
0
40
0
40
1
40
1
40
1
40
1
41
1
10
44.6462972276354
20
2.4729479168644
30
0
41
1
10
44.6439720533392
20
2.46899512812701
30
0
41
1
10
44.6416544930591
20
2.46426484674939
30
0
41
1
10
44.6393442692728
20
2.4587771866783
30
0
0
SPLINE
5
D2
100
AcDbEntity
8
1
62
256
6
ByLayer
370
18
48
1
60
0
100
AcDbSpline
70
4
71
3
72
8
73
4
40
0
40
0
40
0
40
0
40
1
40
1
40
1
40
1
41
1
10
50.6425273823598
20
2.46613840195673
30
0
41
1
10
50.6391847406488
20
2.45929083150702
30
0
41
1
10
50.6358340926021
20
2.450786058631
30
0
41
1
10
50.6324741804107
20
2.4406054405851
30
0
0
SPLINE
5
D3
100
AcDbEntity
8
1
62
256
6
ByLayer
370
13
48
1
60
0
100
AcDbSpline
70
4
71
3
72
8
73
4
40
0
40
0
40
0
40
0
40
1
40
1
40
1
40
1
41
1.04
10
55.9291232663555
20
-2.47459395708191
30
0
41
1.04
10
55.9183946301748
20
-2.49132659491634
30
0
41
1.04
10
55.9076888189789
20
-2.49079525238556
30
0
41
1.04
10
55.8972240001312
20
-2.47474027383973
30
0
0
SPLINE
5
D4
100
AcDbEntity
8
1
62
256
6
ByLayer
370
18
48
1
60
0
100
AcDbSpline
70
4
71
3
72
8
73
4
40
0
40
0
40
0
40
0
40
1
40
1
40
1
40
1
41
1
10
44.6845950024508
20
2.53885887177228
30
0
41
1
10
44.6893902436183
20
2.547150195168
30
0
41
1
10
44.6941743931317
20
2.55387291726262
30
0
41
1
10
44.6989636124565
20
2.55903906473586
30
0
0
SPLINE
5
D5
100
AcDbEntity
8
1
62
256
6
ByLayer
370
13
48
1
60
0
100
AcDbSpline
70
4
71
3
72
8
73
4
40
0
40
0
40
0
40
0
40
1
40
1
40
1
40
1
41
1.04
10
49.9283432052501
20
-2.4760543205239
30
0
41
1.04
10
49.9205178169627
20
-2.48780293493828
30
0
41
1.04
10
49.9126972138903
20
-2.49051343576197
30
0
41
1.04
10
49.9048793202737
20
-2.48423357844028
30
0
0
SPLINE
5
D6
100
AcDbEntity
8
1
62
256
6
ByLayer
370
13
48
1
60
0
100
AcDbSpline
70
4
71
3
72
9
73
5
40
0
40
0
40
0
40
0
40
0.460467309499225
40
1
40
1
40
1
40
1
41
1.04
10
51.4380012346912
20
2.45699431888872
30
0
41
1.04
10
51.4368682592114
20
2.459774201172
30
0
41
1.04
10
51.4344092293643
20
2.46539400031926
30
0
41
1.04
10
51.431953146046
20
2.47010519270158
30
0
41
1.04
10
51.4306288282619
20
2.47238411117275
30
0
0
SPLINE
5
D7
100
AcDbEntity
8
1
62
256
6
ByLayer
370
18
48
1
60
0
100
AcDbSpline
70
4
71
3
72
8
73
4
40
0
40
0
40
0
40
0
40
1
40
1
40
1
40
1
41
1.04
10
51.4306285820195
20
2.47238453490972
30
0
41
1.04
10
51.4285793204625
20
2.47591090421429
30
0
41
1.04
10
51.4265320210688
20
2.47880770903427
30
0
41
1.04
10
51.4244865420589
20
2.48108075744297
30
0
0
SPLINE
5
D8
100
AcDbEntity
8
1
62
256
6
ByLayer
370
13
48
1
60
0
100
AcDbSpline
70
4
71
3
72
8
73
4
40
0
40
0
40
0
40
0
40
1
40
1
40
1
40
1
41
1.04
10
45.4449067876624
20
2.43681394024584
30
0
41
1.04
10
45.4389169787153
20
2.45563357864072
30
0
41
1.04
10
45.4329352987076
20
2.46934406897824
30
0
41
1.04
10
45.4269719464424
20
2.47775262941907
30
0
0
SPLINE
5
D9
100
AcDbEntity
8
1
62
256
6
ByLayer
370
18
48
1
60
0
100
AcDbSpline
70
4
71
3
72
11
73
7
40
0
40
0
40
0
40
0
40
0.0908454836662107
40
0.393896989110808
40
0.393896989110808
40
1
40
1
40
1
40
1
41
1
10
55.8284371314696
20
-2.64119165287161
30
0
41
1
10
55.8278791223779
20
-2.64122561191473
30
0
41
1
10
55.8254727677295
20
-2.64093066083504
30
0
41
1
10
55.8231262941067
20
-2.63872991195157
30
0
41
1
10
55.8178118081273
20
-2.63030864009426
30
0
41
1
10
55.814408040208
20
-2.62024788976646
30
0
41
1
10
55.8110429294442
20
-2.60574964433232
30
0
0
SPLINE
5
DA
100
AcDbEntity
8
1
62
256
6
ByLayer
370
18
48
1
60
0
100
AcDbSpline
70
4
71
3
72
8
73
4
40
0
40
0
40
0
40
0
40
1
40
1
40
1
40
1
41
1
10
55.2577401919719
20
-2.60091033773347
30
0
41
1
10
55.2717874338027
20
-2.66506072230399
30
0
41
1
10
55.2855763467622
20
-2.71053132948941
30
0
41
1
10
55.2994544325957
20
-2.73668715405134
30
0
0
SPLINE
5
DB
100
AcDbEntity
8
1
62
256
6
ByLayer
370
18
48
1
60
0
100
AcDbSpline
70
4
71
3
72
12
73
8
40
0
40
0
40
0
40
0
40
0.215560119335837
40
0.215560119335837
40
0.647753727435692
40
0.647753727435692
40
1
40
1
40
1
40
1
41
1
10
55.3047555133894
20
-2.74572258525669
30
0
41
1
10
55.3064901167718
20
-2.74836684654312
30
0
41
1
10
55.3082227684305
20
-2.75070139962185
30
0
41
1
10
55.3134083039628
20
-2.75676205302082
30
0
41
1
10
55.3168474034463
20
-2.75954784762283
30
0
41
1
10
55.323054551063
20
-2.76236033395838
30
0
41
1
10
55.3258292748695
20
-2.76280404092654
30
0
41
1
10
55.3285909801377
20
-2.76243040674211
30
0
0
SPLINE
5
DC
100
AcDbEntity
8
1
62
256
6
ByLayer
370
13
48
1
60
0
100
AcDbSpline
70
4
71
3
72
9
73
5
40
0
40
0
40
0
40
0
40
0.750317658505623
40
1
40
1
40
1
40
1
41
1
10
49.1450315965121
20
-2.4709071153658
30
0
41
1
10
49.1368338828833
20
-2.45621230433514
30
0
41
1
10
49.125910067149
20
-2.42345817345421
30
0
41
1
10
49.114955505182
20
-2.37318412469909
30
0
41
1
10
49.1122184465871
20
-2.35956581904955
30
0
0
SPLINE
5
DD
100
AcDbEntity
8
1
62
256
6
ByLayer
370
13
48
1
60
0
100
AcDbSpline
70
4
71
3
72
9
73
5
40
0
40
0
40
0
40
0
40
0.382065347693442
40
1
40
1
40
1
40
1
41
1
10
55.1444999622429
20
-2.47002577957861
30
0
41
1
10
55.1395299266983
20
-2.46080297167097
30
0
41
1
10
55.1264420772047
20
-2.42697776618439
30
0
41
1
10
55.1131223575021
20
-2.36692367254281
30
0
41
1
10
55.1048343548998
20
-2.32008720270772
30
0
0
SPLINE
5
DE
100
AcDbEntity
8
1
62
256
6
ByLayer
370
13
48
1
60
0
100
AcDbSpline
70
4
71
3
72
9
73
5
40
0
40
0
40
0
40
0
40
0.328504206543481
40
1
40
1
40
1
40
1
41
1
10
51.7029901894793
20
2.4114943137287
30
0
41
1
10
51.6967134963763
20
2.43571798646335
30
0
41
1
10
51.677688575799
20
2.4919165238382
30
0
41
1
10
51.658839129351
20
2.49397500608953
30
0
41
1
10
51.6462270299471
20
2.47236111876919
30
0
0
SPLINE
5
DF
100
AcDbEntity
8
1
62
256
6
ByLayer
370
13
48
1
60
0
100
AcDbSpline
70
4
71
3
72
9
73
5
40
0
40
0
40
0
40
0
40
0.606837499313246
40
1
40
1
40
1
40
1
41
1
10
45.7098651046595
20
2.38201366388179
30
0
41
1
10
45.6968724265273
20
2.44021441251411
30
0
41
1
10
45.6754575829193
20
2.49779640632636
30
0
41
1
10
45.6543172904162
20
2.48701160140706
30
0
41
1
10
45.6460376866627
20
2.47274541324754
30
0
0
SPLINE
5
E0
100
AcDbEntity
8
1
62
256
6
ByLayer
370
13
48
1
60
0
100
AcDbSpline
70
4
71
3
72
9
73
5
40
0
40
0
40
0
40
0
40
0.184227146708018
40
1
40
1
40
1
40
1
41
1.04
10
52.4954958070525
20
2.16015394303404
30
0
41
1.04
10
52.4914642935025
20
2.19145115633644
30
0
41
1.04
10
52.4695474946837
20
2.35024690144339
30
0
41
1.04
10
52.4474126434009
20
2.44540235453692
30
0
41
1.04
10
52.4290490242825
20
2.47440697034416
30
0
0
SPLINE
5
E1
100
AcDbEntity
8
1
62
256
6
ByLayer
370
13
48
1
60
0
100
AcDbSpline
70
4
71
3
72
10
73
6
40
0
40
0
40
0
40
0
40
0.566472658833007
40
0.989304144522001
40
1
40
1
40
1
40
1
41
1.04
10
54.9302777671654
20
-2.47251025547979
30
0
41
1.04
10
54.9137751554216
20
-2.50076056329026
30
0
41
1.04
10
54.8845079874138
20
-2.48140181140475
30
0
41
1.04
10
54.8537132504917
20
-2.32477015840328
30
0
41
1.04
10
54.8402604462599
20
-2.2319543755775
30
0
41
1.04
10
54.839928481252
20
-2.22964935260711
30
0
0
SPLINE
5
E2
100
AcDbEntity
8
1
62
256
6
ByLayer
370
13
48
1
60
0
100
AcDbSpline
70
4
71
3
72
9
73
5
40
0
40
0
40
0
40
0
40
0.124228620113465
40
1
40
1
40
1
40
1
41
1.04
10
46.5025249572393
20
2.10366215272504
30
0
41
1.04
10
46.4995045619271
20
2.128871947863
30
0
41
1.04
10
46.4751597883536
20
2.32284769708467
30
0
41
1.04
10
46.4505569619758
20
2.44094305890153
30
0
41
1.04
10
46.4287914041262
20
2.47498922487771
30
0
0
SPLINE
5
E3
100
AcDbEntity
8
1
62
256
6
ByLayer
370
18
48
1
60
0
100
AcDbSpline
70
4
71
3
72
25
73
21
40
0
40
0
40
0
40
0
40
0.0004945885580792
40
0.0004945885580792
40
0.0439513455772933
40
0.130864859615722
40
0.130864859615722
40
0.304691887692578
40
0.304691887692578
40
0.478518915769435
40
0.478518915769435
40
0.521975672788649
40
0.521975672788649
40
0.565432429807863
40
0.565432429807863
40
0.65234594384629
40
0.65234594384629
40
0.826172971923145
40
0.826172971923145
40
1
40
1
40
1
40
1
41
1
10
54.666099448198
20
-2.92318568687827
30
0
41
1
10
54.6660891512108
20
-2.92318900243146
30
0
41
1
10
54.6660788550717
20
-2.92319227612126
30
0
41
1
10
54.6651639701482
20
-2.9234794703263
30
0
41
1
10
54.6624671542937
20
-2.923366125695
30
0
41
1
10
54.6598101889122
20
-2.92039886653956
30
0
41
1
10
54.6545282621668
20
-2.91073147211458
30
0
41
1
10
54.6510467654985
20
-2.89932160946162
30
0
41
1
10
54.6441202297475
20
-2.86664767600172
30
0
41
1
10
54.6406792209039
20
-2.84536996788978
30
0
41
1
10
54.6364192786194
20
-2.81245719881443
30
0
41
1
10
54.6355691370333
20
-2.80555935841886
30
0
41
1
10
54.6338716837354
20
-2.79112900302914
30
0
41
1
10
54.6330236448711
20
-2.7835889600762
30
0
41
1
10
54.6304951764132
20
-2.76013900844595
30
0
41
1
10
54.6288265242131
20
-2.7433677117302
30
0
41
1
10
54.6238434983376
20
-2.68971905323329
30
0
41
1
10
54.6205551450665
20
-2.64951837854534
30
0
41
1
10
54.6138172612402
20
-2.56037526788026
30
0
41
1
10
54.6103455038684
20
-2.51143861937624
30
0
41
1
10
54.6068719617679
20
-2.45795101945856
30
0
0
SPLINE
5
E4
100
AcDbEntity
8
1
62
256
6
ByLayer
370
18
48
1
60
0
100
AcDbSpline
70
4
71
3
72
24
73
20
40
0
40
0
40
0
40
0
40
0.30851698838016
40
0.30851698838016
40
0.3856462354752
40
0.3856462354752
40
0.462775482570241
40
0.462775482570241
40
0.617033976760323
40
0.617033976760323
40
0.771292470950406
40
0.771292470950406
40
0.809857094497926
40
0.809857094497926
40
0.848421718045447
40
0.848421718045447
40
0.925550965140489
40
0.925550965140489
40
1
40
1
40
1
40
1
41
1
10
54.3140027112574
20
-2.34403902867319
30
0
41
1
10
54.3282177462157
20
-2.47217606801087
30
0
41
1
10
54.3425711459095
20
-2.58210930642193
30
0
41
1
10
54.3608908777675
20
-2.69675851271648
30
0
41
1
10
54.3645842760585
20
-2.71858430441844
30
0
41
1
10
54.3719331479952
20
-2.75945569743703
30
0
41
1
10
54.3755963481728
20
-2.77855583317074
30
0
41
1
10
54.3865483449377
20
-2.83192048433457
30
0
41
1
10
54.393800980198
20
-2.86226485583234
30
0
41
1
10
54.4081468394864
20
-2.91248303711799
30
0
41
1
10
54.4152264658846
20
-2.93233534598175
30
0
41
1
10
54.4240062117199
20
-2.95044105028745
30
0
41
1
10
54.4257588858338
20
-2.95372592058447
30
0
41
1
10
54.4292593496456
20
-2.9596156883832
30
0
41
1
10
54.4310093786244
20
-2.96222333884233
30
0
41
1
10
54.4362379239319
20
-2.96899130740997
30
0
41
1
10
54.4396875096153
20
-2.97209213570903
30
0
41
1
10
54.4464123289713
20
-2.97545696935623
30
0
41
1
10
54.449689432172
20
-2.97581912110897
30
0
41
1
10
54.4529485370622
20
-2.9748910526468
30
0
0
SPLINE
5
E5
100
AcDbEntity
8
1
62
256
6
ByLayer
370
13
48
1
60
0
100
AcDbSpline
70
4
71
3
72
9
73
5
40
0
40
0
40
0
40
0
40
0.858721161328982
40
1
40
1
40
1
40
1
41
1
10
54.1451828290711
20
-2.47030336430924
30
0
41
1
10
54.1179807735146
20
-2.42102073589709
30
0
41
1
10
54.0856565911955
20
-2.23775283777772
30
0
41
1
10
54.0520058182459
20
-1.90307295346528
30
0
41
1
10
54.0472273140588
20
-1.85300496323634
30
0
0
SPLINE
5
E6
100
AcDbEntity
8
1
62
256
6
ByLayer
370
13
48
1
60
0
100
AcDbSpline
70
4
71
3
72
9
73
5
40
0
40
0
40
0
40
0
40
0.257563876902426
40
1
40
1
40
1
40
1
41
1
10
52.7605305502271
20
2.0391174299688
30
0
41
1
10
52.7513856507177
20
2.12109823446724
30
0
41
1
10
52.715788411752
20
2.40114470939014
30
0
41
1
10
52.6796131691252
20
2.51197706360463
30
0
41
1
10
52.6519115505201
20
2.480858560938
30
0
0
SPLINE
5
E7
100
AcDbEntity
8
1
62
256
6
ByLayer
370
18
48
1
60
0
100
AcDbSpline
70
4
71
3
72
8
73
4
40
0
40
0
40
0
40
0
40
1
40
1
40
1
40
1
41
1
10
52.6519119565463
20
2.48085901703797
30
0
41
1
10
52.6498681630214
20
2.47856321081394
30
0
41
1
10
52.6478197763719
20
2.47565010823871
30
0
41
1
10
52.6457665856724
20
2.47211162438106
30
0
0
SPLINE
5
E8
100
AcDbEntity
8
1
62
256
6
ByLayer
370
13
48
1
60
0
100
AcDbSpline
70
4
71
3
72
10
73
6
40
0
40
0
40
0
40
0
40
0.39110678811922
40
0.600241072979408
40
1
40
1
40
1
40
1
41
1.04
10
53.5530898116684
20
1.5832225111592
30
0
41
1.04
10
53.5383259124292
20
1.761066129054
30
0
41
1.04
10
53.5156577935545
20
2.00348333862074
30
0
41
1.04
10
53.4784494284796
20
2.29705566678928
30
0
41
1.04
10
53.4564470069078
20
2.40421002273752
30
0
41
1.04
10
53.4422453307834
20
2.44494150826172
30
0
0
SPLINE
5
E9
100
AcDbEntity
8
1
62
256
6
ByLayer
370
18
48
1
60
0
100
AcDbSpline
70
4
71
3
72
8
73
4
40
0
40
0
40
0
40
0
40
1
40
1
40
1
40
1
41
1.04
10
53.4422454246798
20
2.44494123895955
30
0
41
1.04
10
53.4400124552908
20
2.45134558476993
30
0
41
1.04
10
53.4377855095949
20
2.45701768602745
30
0
41
1.04
10
53.4355644397782
20
2.46196237515616
30
0
0
SPLINE
5
EA
100
AcDbEntity
8
1
62
256
6
ByLayer
370
13
48
1
60
0
100
AcDbSpline
70
4
71
3
72
10
73
6
40
0
40
0
40
0
40
0
40
0.218820272227655
40
0.836569750539916
40
1
40
1
40
1
40
1
41
1
10
46.7675003930751
20
1.97501068747707
30
0
41
1
10
46.759388655448
20
2.05214935636036
30
0
41
1
10
46.7282704850562
20
2.31873892960567
30
0
41
1
10
46.6905669445005
20
2.48800809755934
30
0
41
1
10
46.660701625554
20
2.48901996721418
30
0
41
1
10
46.6544402895494
20
2.48346487604832
30
0
0
SPLINE
5
EB
100
AcDbEntity
8
1
62
256
6
ByLayer
370
18
48
1
60
0
100
AcDbSpline
70
4
71
3
72
8
73
4
40
0
40
0
40
0
40
0
40
1
40
1
40
1
40
1
41
1
10
46.6544405763881
20
2.48346513052914
30
0
41
1
10
46.6512099694797
20
2.48059900929536
30
0
41
1
10
46.6479758414597
20
2.47619767758835
30
0
41
1
10
46.644738852964
20
2.47025789903532
30
0
0
SPLINE
5
EC
100
AcDbEntity
8
1
62
256
6
ByLayer
370
13
48
1
60
0
100
AcDbSpline
70
4
71
3
72
9
73
5
40
0
40
0
40
0
40
0
40
0.533537252123112
40
1
40
1
40
1
40
1
41
1.04
10
47.5601332763775
20
1.49704865530639
30
0
41
1.04
10
47.5390063357224
20
1.76077150026655
30
0
41
1.04
10
47.4987725182884
20
2.18946052570423
30
0
41
1.04
10
47.4570778188126
20
2.41040556824389
30
0
41
1.04
10
47.4373291346633
20
2.45792927489026
30
0
0
SPLINE
5
ED
100
AcDbEntity
8
1
62
256
6
ByLayer
370
13
48
1
60
0
100
AcDbSpline
70
4
71
3
72
9
73
5
40
0
40
0
40
0
40
0
40
0.768608544606109
40
1
40
1
40
1
40
1
41
1.04
10
53.905661796763
20
-2.48429164770922
30
0
41
1.04
10
53.8752299579181
20
-2.46181995551359
30
0
41
1.04
10
53.8348096028267
20
-2.25561647746505
30
0
41
1.04
10
53.7922967024288
20
-1.80983605701909
30
0
41
1.04
10
53.7823659621125
20
-1.69590841837729
30
0
0
SPLINE
5
EE
100
AcDbEntity
8
1
62
256
6
ByLayer
370
13
48
1
60
0
100
AcDbSpline
70
4
71
3
72
10
73
6
40
0
40
0
40
0
40
0
40
0.249968895859531
40
0.437818607146442
40
1
40
1
40
1
40
1
41
1
10
53.1131013723561
20
-2.36375982057734
30
0
41
1
10
53.1030340928942
20
-2.31496060947168
30
0
41
1
10
53.0852493880924
20
-2.20393279684322
30
0
41
1
10
53.0438302957274
20
-1.84658434669896
30
0
41
1
10
53.0128758440211
20
-1.46727041610546
30
0
41
1
10
52.9897333645465
20
-1.14644044885031
30
0
0
SPLINE
5
EF
100
AcDbEntity
8
1
62
256
6
ByLayer
370
13
48
1
60
0
100
AcDbSpline
70
4
71
3
72
9
73
5
40
0
40
0
40
0
40
0
40
0.717958141036981
40
1
40
1
40
1
40
1
41
1.04
10
44.7398378353601
20
-1.15563103016496
30
0
41
1.04
10
44.7106581969004
20
-0.75129366679218
30
0
41
1.04
10
44.6702019783074
20
-0.110243464299049
30
0
41
1.04
10
44.6290158190047
20
0.527789119544409
30
0
41
1.04
10
44.6174311033829
20
0.70160843703395
30
0
0
SPLINE
5
F0
100
AcDbEntity
8
1
62
256
6
ByLayer
370
13
48
1
60
0
100
AcDbSpline
70
4
71
3
72
10
73
6
40
0
40
0
40
0
40
0
40
0.475840514545536
40
0.664604889327553
40
1
40
1
40
1
40
1
41
1
10
53.818120849571
20
1.40290414649712
30
0
41
1
10
53.7982499971075
20
1.65891471807984
30
0
41
1
10
53.7703497847177
20
1.97286555397278
30
0
41
1
10
53.7291263238047
20
2.29485192970586
30
0
41
1
10
53.7081129289506
20
2.39836163235344
30
0
41
1
10
53.6948798836743
20
2.43891248336416
30
0
0
SPLINE
5
F1
100
AcDbEntity
8
1
62
256
6
ByLayer
370
13
48
1
60
0
100
AcDbSpline
70
4
71
3
72
9
73
5
40
0
40
0
40
0
40
0
40
0.808991503313846
40
1
40
1
40
1
40
1
41
1
10
55.9333738259503
20
-0.309372899658428
30
0
41
1
10
55.8993284827944
20
0.217862993583594
30
0
41
1
10
55.8580374064981
20
0.88211462142894
30
0
41
1
10
55.8173786787646
20
1.41399424683465
30
0
41
1
10
55.8096514404687
20
1.50987099969464
30
0
0
SPLINE
5
F2
100
AcDbEntity
8
1
62
256
6
ByLayer
370
18
48
1
60
0
100
AcDbSpline
70
4
71
3
72
23
73
19
40
0
40
0
40
0
40
0
40
0.125
40
0.125
40
0.25
40
0.25
40
0.3125
40
0.3125
40
0.375
40
0.375
40
0.5
40
0.5
40
0.625
40
0.625
40
0.75
40
0.75
40
0.875
40
1
40
1
40
1
40
1
41
1
10
55.886150248985
20
1.5318982964244
30
0
41
1
10
55.8928006819008
20
1.46177090509587
30
0
41
1
10
55.899350088614
20
1.38931089778322
30
0
41
1
10
55.9124795106159
20
1.23981439702502
30
0
41
1
10
55.9190822476275
20
1.16277678437152
30
0
41
1
10
55.928975881515
20
1.04373522860433
30
0
41
1
10
55.9322704898329
20
1.00347217768368
30
0
41
1
10
55.9388413861178
20
0.921757365318683
30
0
41
1
10
55.9421230770398
20
0.880244769652933
30
0
41
1
10
55.9518354491235
20
0.755310001800979
30
0
41
1
10
55.9581679166904
20
0.671066934567932
30
0
41
1
10
55.9705849665418
20
0.500738132350136
30
0
41
1
10
55.9766695420806
20
0.414652215077723
30
0
41
1
10
55.9886437742224
20
0.240634999832139
30
0
41
1
10
55.9945368286524
20
0.15264987657423
30
0
41
1
10
56.0061845147114
20
-0.0250143730169725
30
0
41
1
10
56.0175237134666
20
-0.201764417121097
30
0
41
1
10
56.0284516544668
20
-0.376711856062997
30
0
41
1
10
56.0338653790203
20
-0.463725972456302
30
0
0
SPLINE
5
F3
100
AcDbEntity
8
1
62
256
6
ByLayer
370
13
48
1
60
0
100
AcDbSpline
70
4
71
3
72
9
73
5
40
0
40
0
40
0
40
0
40
0.352408383567714
40
1
40
1
40
1
40
1
41
1.04
10
54.6106968754786
20
0.801232629518422
30
0
41
1.04
10
54.5962201296004
20
1.01548851219248
30
0
41
1.04
10
54.5552687481339
20
1.5940454803604
30
0
41
1.04
10
54.5142888005014
20
2.03054318422244
30
0
41
1.04
10
54.4872439122522
20
2.22085054892545
30
0
0
SPLINE
5
F4
100
AcDbEntity
8
1
62
256
6
ByLayer
370
18
48
1
60
0
100
AcDbSpline
70
4
71
3
72
30
73
26
40
0
40
0
40
0
40
0
40
0.125000000000002
40
0.125000000000002
40
0.250000000000004
40
0.250000000000004
40
0.281250000000004
40
0.281250000000004
40
0.312500000000004
40
0.312500000000004
40
0.375000000000005
40
0.375000000000005
40
0.500000000000004
40
0.500000000000004
40
0.625000000000004
40
0.625000000000004
40
0.656250000000004
40
0.656250000000004
40
0.687500000000003
40
0.687500000000003
40
0.750000000000003
40
0.750000000000003
40
0.875000000000001
40
0.875000000000001
40
1
40
1
40
1
40
1
41
1
10
54.0003688622744
20
2.85557564095646
30
0
41
1
10
54.0075249166499
20
2.82690754970849
30
0
41
1
10
54.0146805380623
20
2.79299460193201
30
0
41
1
10
54.0290214611477
20
2.71460049166547
30
0
41
1
10
54.0361834102206
20
2.67008895675099
30
0
41
1
10
54.0451720551458
20
2.60753376165232
30
0
41
1
10
54.046976145348
20
2.59465775105511
30
0
41
1
10
54.0505803668618
20
2.56833621321897
30
0
41
1
10
54.0523807642612
20
2.55489008478602
30
0
41
1
10
54.0577861229317
20
2.51370834336018
30
0
41
1
10
54.0613995450408
20
2.48512959045473
30
0
41
1
10
54.0722964390234
20
2.39609672750839
30
0
41
1
10
54.0796156732665
20
2.33236249479501
30
0
41
1
10
54.0942289591511
20
2.19625328177267
30
0
41
1
10
54.1015234254977
20
2.12387923110998
30
0
41
1
10
54.1105673187551
20
2.02780823639392
30
0
41
1
10
54.1123723712878
20
2.00831257165024
30
0
41
1
10
54.1159745638432
20
1.96874940161001
30
0
41
1
10
54.1177729263694
20
1.94866976243719
30
0
41
1
10
54.1231301125489
20
1.88790727914289
30
0
41
1
10
54.1266606173567
20
1.84659667738859
30
0
41
1
10
54.1371636191173
20
1.72029946675465
30
0
41
1
10
54.1440461762131
20
1.63295556939687
30
0
41
1
10
54.1578000635859
20
1.45199567588085
30
0
41
1
10
54.164667620294
20
1.35838089854795
30
0
41
1
10
54.1715105152999
20
1.26151642261408
30
0
0
SPLINE
5
F5
100
AcDbEntity
8
1
62
256
6
ByLayer
370
18
48
1
60
0
100
AcDbSpline
70
4
71
3
72
25
73
21
40
0
40
0
40
0
40
0
40
0.125
40
0.25
40
0.25
40
0.3125
40
0.3125
40
0.375
40
0.375
40
0.5
40
0.5
40
0.625000000000001
40
0.625000000000001
40
0.6875
40
0.6875
40
0.75
40
0.75
40
0.875
40
0.875
40
1
40
1
40
1
40
1
41
1
10
54.2883574342228
20
1.1454132267038
30
0
41
1
10
54.284610509538
20
1.23821252679829
30
0
41
1
10
54.2774832622666
20
1.41862787781247
30
0
41
1
10
54.2706242360751
20
1.58895717584818
30
0
41
1
10
54.2654156161722
20
1.71287878703356
30
0
41
1
10
54.263667258008
20
1.75354705433088
30
0
41
1
10
54.2601535929821
20
1.83357616142419
30
0
41
1
10
54.2584010356398
20
1.87265036858386
30
0
41
1
10
54.2531823492843
20
1.98682215387754
30
0
41
1
10
54.2497643919232
20
2.05898413586638
30
0
41
1
10
54.2429685264013
20
2.19567385616182
30
0
41
1
10
54.2395828059368
20
2.26021095823509
30
0
41
1
10
54.2344689716556
20
2.35128466609748
30
0
41
1
10
54.2327589713259
20
2.38068447654925
30
0
41
1
10
54.2293249808621
20
2.43753002902449
30
0
41
1
10
54.2275972503258
20
2.4650292920513
30
0
41
1
10
54.2224419618018
20
2.54379071760542
30
0
41
1
10
54.2190293749259
20
2.59153127726526
30
0
41
1
10
54.2123079969006
20
2.67741523855938
30
0
41
1
10
54.2090056267101
20
2.71554759594409
30
0
41
1
10
54.2056229571763
20
2.74893511366167
30
0
0
SPLINE
5
F6
100
AcDbEntity
8
1
62
256
6
ByLayer
370
13
48
1
60
0
100
AcDbSpline
70
4
71
3
72
10
73
6
40
0
40
0
40
0
40
0
40
0.0831107753046329
40
0.657395239208093
40
1
40
1
40
1
40
1
41
1
10
47.8251312249804
20
1.31116366879132
30
0
41
1
10
47.8218348676049
20
1.35492692850912
30
0
41
1
10
47.795702343047
20
1.69523538619927
30
0
41
1
10
47.7551683035287
20
2.13467220834894
30
0
41
1
10
47.7167522330342
20
2.35898978939378
30
0
41
1
10
47.7022304839352
20
2.41370851596008
30
0
0
SPLINE
5
F7
100
AcDbEntity
8
1
62
256
6
ByLayer
370
13
48
1
60
0
100
AcDbSpline
70
4
71
3
72
11
73
7
40
0
40
0
40
0
40
0
40
0.0274185589177169
40
0.602088704769751
40
0.976016407667282
40
1
40
1
40
1
40
1
41
1.04
10
48.617698803749
20
0.697572388983594
30
0
41
1.04
10
48.6166094327292
20
0.713930139307778
30
0
41
1.04
10
48.5926659021306
20
1.07236510963688
30
0
41
1.04
10
48.5530794139673
20
1.62297874711008
30
0
41
1.04
10
48.5123347974391
20
2.0283995917428
30
0
41
1.04
10
48.4959229459901
20
2.15704435501066
30
0
41
1.04
10
48.4949346606713
20
2.16466305270078
30
0
0
SPLINE
5
F8
100
AcDbEntity
8
1
62
256
6
ByLayer
370
13
48
1
60
0
100
AcDbSpline
70
4
71
3
72
9
73
5
40
0
40
0
40
0
40
0
40
0.683983116085873
40
1
40
1
40
1
40
1
41
1.04
10
55.6683735021937
20
-0.0850143264991323
30
0
41
1.04
10
55.6396258815797
20
0.363298771966706
30
0
41
1.04
10
55.5982358778749
20
1.01508885564516
30
0
41
1.04
10
55.5574838195892
20
1.53471006802025
30
0
41
1.04
10
55.5447418881735
20
1.68160769029246
30
0
0
SPLINE
5
F9
100
AcDbEntity
8
1
62
256
6
ByLayer
370
13
48
1
60
0
100
AcDbSpline
70
4
71
3
72
11
73
7
40
0
40
0
40
0
40
0
40
0.123448759278368
40
0.311899566079054
40
0.878516736540421
40
1
40
1
40
1
40
1
41
1.04
10
52.8480680678401
20
-2.28389893797277
30
0
41
1.04
10
52.8430653228129
20
-2.25297996021678
30
0
41
1.04
10
52.8303640814512
20
-2.16584461409285
30
0
41
1.04
10
52.7940927114755
20
-1.85575079542811
30
0
41
1.04
10
52.7580324959693
20
-1.41563450626362
30
0
41
1.04
10
52.7298130822419
20
-1.01532199968222
30
0
41
1.04
10
52.7248386539995
20
-0.94336500570915
30
0
0
SPLINE
5
FA
100
AcDbEntity
8
1
62
256
6
ByLayer
370
13
48
1
60
0
100
AcDbSpline
70
4
71
3
72
9
73
5
40
0
40
0
40
0
40
0
40
0.476550633985727
40
1
40
1
40
1
40
1
41
1
10
54.8756620441635
20
0.585321410882131
30
0
41
1
10
54.8560286432089
20
0.883391045720771
30
0
41
1
10
54.8150688645131
20
1.47822542624115
30
0
41
1
10
54.7740804829768
20
1.92969251072552
30
0
41
1
10
54.7523558372417
20
2.10949539046695
30
0
0
SPLINE
5
FB
100
AcDbEntity
8
1
62
256
6
ByLayer
370
18
48
1
60
0
100
AcDbSpline
70
4
71
3
72
25
73
21
40
0
40
0
40
0
40
0
40
0.125
40
0.125
40
0.249999999999999
40
0.249999999999999
40
0.312499999999999
40
0.312499999999999
40
0.374999999999999
40
0.374999999999999
40
0.500000000000001
40
0.500000000000001
40
0.625000000000002
40
0.625000000000002
40
0.687500000000002
40
0.687500000000002
40
0.750000000000002
40
0.750000000000002
40
0.875000000000001
40
1
40
1
40
1
40
1
41
1
10
54.9436824740504
20
2.27484793385747
30
0
41
1
10
54.9507663469823
20
2.22014679741392
30
0
41
1
10
54.9578101481108
20
2.16146284643529
30
0
41
1
10
54.9718990331171
20
2.03617705490291
30
0
41
1
10
54.9789439436894
20
1.9695765211097
30
0
41
1
10
54.9895375735707
20
1.8634852470862
30
0
41
1
10
54.9930487206675
20
1.82730716308629
30
0
41
1
10
55.0000258591108
20
1.75356395865262
30
0
41
1
10
55.0034961530277
20
1.71596595113206
30
0
41
1
10
55.0138839951288
20
1.60102783089084
30
0
41
1
10
55.0207937588627
20
1.5215494823193
30
0
41
1
10
55.0345625607266
20
1.35691721762271
30
0
41
1
10
55.0414162691283
20
1.2717643537608
30
0
41
1
10
55.0516066881631
20
1.13962888954427
30
0
41
1
10
55.0549978158177
20
1.09471143240975
30
0
41
1
10
55.061672319485
20
1.00434394050723
30
0
41
1
10
55.0649617668247
20
0.9588373149044
30
0
41
1
10
55.0747059040547
20
0.821373053806639
30
0
41
1
10
55.0873667670904
20
0.635574731928727
30
0
41
1
10
55.0995732953626
20
0.444863829104719
30
0
41
1
10
55.1056178761618
20
0.348263079011673
30
0
0
SPLINE
5
FC
100
AcDbEntity
8
1
62
256
6
ByLayer
370
18
48
1
60
0
100
AcDbSpline
70
4
71
3
72
26
73
22
40
0
40
0
40
0
40
0
40
0.125
40
0.25
40
0.25
40
0.3125
40
0.3125
40
0.34375
40
0.34375
40
0.375
40
0.500000000000001
40
0.625000000000001
40
0.625000000000001
40
0.687500000000001
40
0.71875
40
0.71875
40
0.75
40
0.75
40
0.875
40
0.875
40
1
40
1
40
1
40
1
41
1
10
55.5019058582694
20
-0.0158747984117156
30
0
41
1
10
55.4971701974232
20
0.0753405815459587
30
0
41
1
10
55.4880351771337
20
0.256679182587874
30
0
41
1
10
55.4795088101679
20
0.435872269525191
30
0
41
1
10
55.4733015200651
20
0.569448557814042
30
0
41
1
10
55.4712634571089
20
0.613837265036153
30
0
41
1
10
55.4682457183409
20
0.680210626845081
30
0
41
1
10
55.4672473947447
20
0.702277354423927
30
0
41
1
10
55.4652730979939
20
0.746100951833199
30
0
41
1
10
55.4603866262007
20
0.855024015581847
30
0
41
1
10
55.4519967838328
20
1.04544069097216
30
0
41
1
10
55.4448501179224
20
1.20678969963421
30
0
41
1
10
55.4393850755083
20
1.32484919214573
30
0
41
1
10
55.436620982095
20
1.38313952395106
30
0
41
1
10
55.4338333393903
20
1.44030300673757
30
0
41
1
10
55.4319730940514
20
1.4781583727212
30
0
41
1
10
55.4310417134669
20
1.49696391099721
30
0
41
1
10
55.4264124346021
20
1.58983690186838
30
0
41
1
10
55.4227800390636
20
1.66086996864155
30
0
41
1
10
55.4157810323139
20
1.79653399929904
30
0
41
1
10
55.4124278788663
20
1.8611492445612
30
0
41
1
10
55.409166474997
20
1.92258352672769
30
0
0
SPLINE
5
FD
100
AcDbEntity
8
1
62
256
6
ByLayer
370
13
48
1
60
0
100
AcDbSpline
70
4
71
3
72
9
73
5
40
0
40
0
40
0
40
0
40
0.497749205154176
40
1
40
1
40
1
40
1
41
1
10
50.997907664056
20
-1.25755123800508
30
0
41
1
10
50.978539304454
20
-0.996338118208485
30
0
41
1
10
50.9388309224902
20
-0.405977209835697
30
0
41
1
10
50.8964432505794
20
0.270933637524223
30
0
41
1
10
50.8748702137487
20
0.598213016412842
30
0
0
SPLINE
5
FE
100
AcDbEntity
8
1
62
256
6
ByLayer
370
13
48
1
60
0
100
AcDbSpline
70
4
71
3
72
10
73
6
40
0
40
0
40
0
40
0
40
0.248898523782368
40
0.815130602452174
40
1
40
1
40
1
40
1
41
1.04
10
51.7904548636037
20
-1.78683030968015
30
0
41
1.04
10
51.7807211330846
20
-1.68062691567487
30
0
41
1.04
10
51.7484724886467
20
-1.29574272631718
30
0
41
1.04
10
51.7073596079463
20
-0.694333753555489
30
0
41
1.04
10
51.6751503508118
20
-0.191145946648692
30
0
41
1.04
10
51.6672464136856
20
-0.0674139149432416
30
0
0
SPLINE
5
FF
100
AcDbEntity
8
1
62
256
6
ByLayer
370
13
48
1
60
0
100
AcDbSpline
70
4
71
3
72
9
73
5
40
0
40
0
40
0
40
0
40
0.282294853641293
40
1
40
1
40
1
40
1
41
1.04
10
49.6752360914981
20
-0.192233734415126
30
0
41
1.04
10
49.6634937010115
20
-0.0091855023265125
30
0
41
1.04
10
49.6215542670733
20
0.650607629418687
30
0
41
1.04
10
49.5813019006442
20
1.24501991816015
30
0
41
1.04
10
49.5523890054411
20
1.59217102551361
30
0
0
SPLINE
5
100
100
AcDbEntity
8
1
62
256
6
ByLayer
370
13
48
1
60
0
100
AcDbSpline
70
4
71
3
72
10
73
6
40
0
40
0
40
0
40
0
40
0.375820672564543
40
0.935379469943825
40
1
40
1
40
1
40
1
41
1
10
52.0554059676185
20
-1.93622817576005
30
0
41
1
10
52.0407143264691
20
-1.79178847368553
30
0
41
1
10
52.0035036179011
20
-1.36214627095927
30
0
41
1
10
51.9619004425472
20
-0.751980654102965
30
0
41
1
10
51.9349925415249
20
-0.335354909294239
30
0
41
1
10
51.9322013388032
20
-0.291981903448118
30
0
0
SPLINE
5
101
100
AcDbEntity
8
1
62
256
6
ByLayer
370
18
48
1
60
0
100
AcDbSpline
70
4
71
3
72
28
73
24
40
0
40
0
40
0
40
0
40
0.125000000000001
40
0.125000000000001
40
0.250000000000002
40
0.250000000000002
40
0.312500000000002
40
0.343750000000002
40
0.343750000000002
40
0.375000000000001
40
0.375000000000001
40
0.5
40
0.5
40
0.624999999999999
40
0.624999999999999
40
0.749999999999998
40
0.749999999999998
40
0.781249999999999
40
0.781249999999999
40
0.812499999999999
40
0.874999999999999
40
0.874999999999999
40
1
40
1
40
1
40
1
41
1
10
51.4505512423325
20
-2.05530117214494
30
0
41
1
10
51.4449737083513
20
-1.97647448335067
30
0
41
1
10
51.439480642882
20
-1.89445952561005
30
0
41
1
10
51.4285692370002
20
-1.72421315350451
30
0
41
1
10
51.4231475220893
20
-1.63598159734136
30
0
41
1
10
51.4150109174731
20
-1.49893914248523
30
0
41
1
10
51.4109409935269
20
-1.42924184163652
30
0
41
1
10
51.4068524295044
20
-1.35775275215988
30
0
41
1
10
51.404120398054
20
-1.30969051593567
30
0
41
1
10
51.4027493597431
20
-1.28542441178121
30
0
41
1
10
51.3959083724847
20
-1.16370999522729
30
0
41
1
10
51.3904650059208
20
-1.06484059397061
30
0
41
1
10
51.3794919294174
20
-0.864210924560155
30
0
41
1
10
51.3739615783953
20
-0.762450425062411
30
0
41
1
10
51.3626814587809
20
-0.556046955144012
30
0
41
1
10
51.3568902365417
20
-0.451406492295831
30
0
41
1
10
51.3496728190205
20
-0.318737821584676
30
0
41
1
10
51.3482291977542
20
-0.292075147690326
30
0
41
1
10
51.3453645668347
20
-0.238842864483246
30
0
41
1
10
51.3410974398883
20
-0.159067601761279
30
0
41
1
10
51.336930759565
20
-0.0795085625720731
30
0
41
1
10
51.3287224963713
20
0.079325527032978
30
0
41
1
10
51.3234312988489
20
0.184837746802089
30
0
41
1
10
51.3181340153677
20
0.289966299322032
30
0
0
SPLINE
5
102
100
AcDbEntity
8
1
62
256
6
ByLayer
370
18
48
1
60
0
100
AcDbSpline
70
4
71
3
72
32
73
28
40
0
40
0
40
0
40
0
40
0.0312499999999998
40
0.0312499999999998
40
0.0624999999999996
40
0.0624999999999996
40
0.124999999999999
40
0.124999999999999
40
0.249999999999999
40
0.249999999999999
40
0.374999999999998
40
0.374999999999998
40
0.437499999999998
40
0.437499999999998
40
0.468749999999997
40
0.468749999999997
40
0.499999999999997
40
0.624999999999997
40
0.624999999999997
40
0.749999999999997
40
0.749999999999997
40
0.812499999999997
40
0.843749999999998
40
0.843749999999998
40
0.874999999999998
40
0.874999999999998
40
1
40
1
40
1
40
1
41
1
10
51.2223839190742
20
0.388950497406711
30
0
41
1
10
51.2238031600488
20
0.362592397899021
30
0
41
1
10
51.2252218970835
20
0.336145884360235
30
0
41
1
10
51.2280573142583
20
0.283073989893609
30
0
41
1
10
51.2294758489664
20
0.256413374484708
30
0
41
1
10
51.2337052078556
20
0.176583436072548
30
0
41
1
10
51.2364942809135
20
0.123477714538581
30
0
41
1
10
51.2447767688205
20
-0.0355034305548543
30
0
41
1
10
51.2501803329353
20
-0.141043990424862
30
0
41
1
10
51.2609021053586
20
-0.35123825351846
30
0
41
1
10
51.2662297499795
20
-0.455891460492836
30
0
41
1
10
51.2743668498271
20
-0.612184833087611
30
0
41
1
10
51.2770992543564
20
-0.664168213844818
30
0
41
1
10
51.2812329698696
20
-0.741967963730019
30
0
41
1
10
51.2826185402035
20
-0.767905816318034
30
0
41
1
10
51.2853872812464
20
-0.819449071283515
30
0
41
1
10
51.2923087407366
20
-0.947584826348759
30
0
41
1
10
51.2992344187656
20
-1.07216537610574
30
0
41
1
10
51.3103315500479
20
-1.26705473924255
30
0
41
1
10
51.3158872926254
20
-1.36227949782838
30
0
41
1
10
51.3242397267022
20
-1.50176096090547
30
0
41
1
10
51.3284207667369
20
-1.5706611088354
30
0
41
1
10
51.3326128101434
20
-1.63827980360225
30
0
41
1
10
51.3354106254364
20
-1.68307071369563
30
0
41
1
10
51.3368129139368
20
-1.7053506671017
30
0
41
1
10
51.3437969630157
20
-1.81543790955865
30
0
41
1
10
51.3493140795858
20
-1.89963182677479
30
0
41
1
10
51.3548010458121
20
-1.98007347861088
30
0
0
SPLINE
5
103
100
AcDbEntity
8
1
62
256
6
ByLayer
370
18
48
1
60
0
100
AcDbSpline
70
4
71
3
72
25
73
21
40
0
40
0
40
0
40
0
40
0.125
40
0.125
40
0.1875
40
0.1875
40
0.25
40
0.25
40
0.375
40
0.500000000000001
40
0.500000000000001
40
0.625000000000001
40
0.625000000000001
40
0.687500000000001
40
0.687500000000001
40
0.750000000000001
40
0.750000000000001
40
0.875
40
0.875
40
1
40
1
40
1
40
1
41
1
10
49.3350986532408
20
-0.0401744044008012
30
0
41
1
10
49.32954932786
20
0.0653848560176016
30
0
41
1
10
49.3241132950979
20
0.170931442038864
30
0
41
1
10
49.3160038391531
20
0.329225410102993
30
0
41
1
10
49.3133056251789
20
0.381985607337015
30
0
41
1
10
49.3078697104858
20
0.487494322948635
30
0
41
1
10
49.3051257502988
20
0.540384183606108
30
0
41
1
10
49.29691499109
20
0.69738929186417
30
0
41
1
10
49.2859894945265
20
0.902962692437399
30
0
41
1
10
49.2750402388199
20
1.1012167952664
30
0
41
1
10
49.264041454265
20
1.29579827277712
30
0
41
1
10
49.2585177859278
20
1.39125310638076
30
0
41
1
10
49.2501539416496
20
1.53157956568998
30
0
41
1
10
49.2473721662776
20
1.57755029274168
30
0
41
1
10
49.2418279452372
20
1.66765225476385
30
0
41
1
10
49.2390629042345
20
1.71182713699522
30
0
41
1
10
49.2307738957257
20
1.84176097662714
30
0
41
1
10
49.2252566883225
20
1.92493595801167
30
0
41
1
10
49.2141454118347
20
2.08442076813827
30
0
41
1
10
49.2085469635123
20
2.16073091937474
30
0
41
1
10
49.2029239890164
20
2.23351384971213
30
0
0
SPLINE
5
104
100
AcDbEntity
8
1
62
256
6
ByLayer
370
13
48
1
60
0
100
AcDbSpline
70
4
71
3
72
10
73
6
40
0
40
0
40
0
40
0
40
0.156014225560474
40
0.726861838262116
40
1
40
1
40
1
40
1
41
1
10
48.8827124086867
20
0.478100671608246
30
0
41
1
10
48.8765270023667
20
0.573081345036286
30
0
41
1
10
48.8475527681787
20
1.01295956176659
30
0
41
1
10
48.8067218629427
20
1.57896437263528
30
0
41
1
10
48.7712459873721
20
1.9437085025007
30
0
41
1
10
48.7598274097825
20
2.04551261727803
30
0
0
SPLINE
5
105
100
AcDbEntity
8
1
62
256
6
ByLayer
370
13
48
1
60
0
100
AcDbSpline
70
4
71
3
72
10
73
6
40
0
40
0
40
0
40
0
40
0.0335132439433415
40
0.407671033593263
40
1
40
1
40
1
40
1
41
1
10
49.9402886371054
20
-0.416778226008944
30
0
41
1
10
49.9389135684213
20
-0.395604603313586
30
0
41
1
10
49.9221581498769
20
-0.136996992209418
30
0
41
1
10
49.8801864455407
20
0.526827153240845
30
0
41
1
10
49.8411882427155
20
1.1063131562376
30
0
41
1
10
49.8173785441226
20
1.41273168406457
30
0
0
SPLINE
5
106
100
AcDbEntity
8
1
62
256
6
ByLayer
370
13
48
1
60
0
100
AcDbSpline
70
4
71
3
72
10
73
6
40
0
40
0
40
0
40
0
40
0.370976198096075
40
0.928843471156539
40
1
40
1
40
1
40
1
41
1.04
10
50.7329247881969
20
-1.05839404936835
30
0
41
1.04
10
50.7184782744763
20
-0.854319397625912
30
0
41
1.04
10
50.6816722347843
20
-0.302554319268712
30
0
41
1.04
10
50.6396115500771
20
0.371467464295514
30
0
41
1.04
10
50.6127781956775
20
0.77135262375179
30
0
41
1.04
10
50.609741244055
20
0.816160388313054
30
0
0
SPLINE
5
107
100
AcDbEntity
8
1
62
256
6
ByLayer
370
18
48
1
60
0
100
AcDbSpline
70
4
71
3
72
28
73
24
40
0
40
0
40
0
40
0
40
0.125
40
0.249999999999999
40
0.249999999999999
40
0.312499999999999
40
0.312499999999999
40
0.343749999999999
40
0.343749999999999
40
0.374999999999999
40
0.374999999999999
40
0.499999999999998
40
0.499999999999998
40
0.624999999999998
40
0.624999999999998
40
0.687499999999998
40
0.718749999999998
40
0.718749999999998
40
0.749999999999998
40
0.749999999999998
40
0.874999999999999
40
0.874999999999999
40
1
40
1
40
1
40
1
41
1
10
50.1642776846802
20
1.43858970568584
30
0
41
1
10
50.1697971052388
20
1.34496291376743
30
0
41
1
10
50.1807925494147
20
1.15348391892854
30
0
41
1
10
50.1918473721979
20
0.953683358728711
30
0
41
1
10
50.2002204906799
20
0.800659548547486
30
0
41
1
10
50.2030252360049
20
0.749121663887166
30
0
41
1
10
50.2072604671072
20
0.671003215636262
30
0
41
1
10
50.2086763226901
20
0.644838816664787
30
0
41
1
10
50.2115017792755
20
0.592548345978003
30
0
41
1
10
50.2129134496683
20
0.566384145356238
30
0
41
1
10
50.219969039534
20
0.435469464721507
30
0
41
1
10
50.2256199872505
20
0.330439528364082
30
0
41
1
10
50.2367400786099
20
0.119786394796847
30
0
41
1
10
50.242202701259
20
0.0141628253307715
30
0
41
1
10
50.2502983532926
20
-0.144719977916424
30
0
41
1
10
50.2543250047701
20
-0.22427328352876
30
0
41
1
10
50.258361664721
20
-0.303995152114879
30
0
41
1
10
50.2610621673236
20
-0.35718062024074
30
0
41
1
10
50.2624161786348
20
-0.383775260366121
30
0
41
1
10
50.2691892871503
20
-0.516060641464719
30
0
41
1
10
50.2746578410573
20
-0.62030330250218
30
0
41
1
10
50.2856740792937
20
-0.825714378996281
30
0
41
1
10
50.2912206432427
20
-0.926882609580645
30
0
41
1
10
50.2967950990431
20
-1.02651121251734
30
0
0
SPLINE
5
108
100
AcDbEntity
8
1
62
256
6
ByLayer
370
18
48
1
60
0
100
AcDbSpline
70
4
71
3
72
8
73
4
40
0
40
0
40
0
40
0
40
1
40
1
40
1
40
1
41
1
10
55.725722816078
20
2.45116259148594
30
0
41
1
10
55.6777919530159
20
2.35445435154227
30
0
41
1
10
55.6295792020859
20
2.25696043785325
30
0
41
1
10
55.5809613060248
20
2.15871766442814
30
0
0
SPLINE
5
109
100
AcDbEntity
8
1
62
256
6
ByLayer
370
18
48
1
60
0
100
AcDbSpline
70
4
71
3
72
28
73
24
40
0
40
0
40
0
40
0
40
0.124999999999969
40
0.124999999999969
40
0.249999999999937
40
0.249999999999937
40
0.374999999999906
40
0.374999999999906
40
0.499999999999875
40
0.499999999999875
40
0.624999999999843
40
0.624999999999843
40
0.68749999999987
40
0.68749999999987
40
0.749999999999896
40
0.749999999999896
40
0.812499999999922
40
0.812499999999922
40
0.874999999999948
40
0.874999999999948
40
0.937499999999974
40
0.937499999999974
40
1
40
1
40
1
40
1
41
1
10
55.580961306025
20
2.15871766442979
30
0
41
1
10
55.5737929242695
20
2.14423242829895
30
0
41
1
10
55.5654832485147
20
2.13086167493316
30
0
41
1
10
55.5471053174471
20
2.10582664064614
30
0
41
1
10
55.5369441903267
20
2.09411011791971
30
0
41
1
10
55.5157129696241
20
2.07298058000603
30
0
41
1
10
55.5045780138726
20
2.06346592838418
30
0
41
1
10
55.4813350484497
20
2.04645083660276
30
0
41
1
10
55.4691140103824
20
2.03890628753209
30
0
41
1
10
55.4445103011326
20
2.02647284209667
30
0
41
1
10
55.4320719879944
20
2.02151445572642
30
0
41
1
10
55.413223843012
20
2.0162052120242
30
0
41
1
10
55.4069089533673
20
2.01479369871618
30
0
41
1
10
55.3942117266308
20
2.01279252109578
30
0
41
1
10
55.3878525516698
20
2.0122129244406
30
0
41
1
10
55.3754042571359
20
2.01201909477783
30
0
41
1
10
55.3692772483956
20
2.01239705744092
30
0
41
1
10
55.3572570330828
20
2.01424504438705
30
0
41
1
10
55.3513211955152
20
2.01573390990472
30
0
41
1
10
55.3400771063908
20
2.01991737789336
30
0
41
1
10
55.3347425728859
20
2.02260515762688
30
0
41
1
10
55.3247448206552
20
2.02937445396094
30
0
41
1
10
55.3200751254466
20
2.03348135123954
30
0
41
1
10
55.3159592143131
20
2.03828878559443
30
0
0
SPLINE
5
10A
100
AcDbEntity
8
1
62
256
6
ByLayer
370
18
48
1
60
0
100
AcDbSpline
70
4
71
3
72
10
73
6
40
0
40
0
40
0
40
0
40
0.5
40
0.5
40
1
40
1
40
1
40
1
41
1
10
55.3159592143106
20
2.03828878560088
30
0
41
1
10
55.2791451569201
20
2.0812880532045
30
0
41
1
10
55.2424804113049
20
2.1225393511676
30
0
41
1
10
55.1694482798895
20
2.20154268980897
30
0
41
1
10
55.1331002492919
20
2.23926518060091
30
0
41
1
10
55.0969537707077
20
2.27516164586839
30
0
0
SPLINE
5
10B
100
AcDbEntity
8
1
62
256
6
ByLayer
370
18
48
1
60
0
100
AcDbSpline
70
4
71
3
72
8
73
4
40
0
40
0
40
0
40
0
40
1
40
1
40
1
40
1
41
1
10
55.0969537707078
20
2.27516164586837
30
0
41
1
10
55.0643245401429
20
2.26255909269463
30
0
41
1
10
55.0317625798609
20
2.24944534196303
30
0
41
1
10
54.9992563796925
20
2.23582441014116
30
0
0
SPLINE
5
10C
100
AcDbEntity
8
1
62
256
6
ByLayer
370
18
48
1
60
0
100
AcDbSpline
70
4
71
3
72
8
73
4
40
0
40
0
40
0
40
0
40
1
40
1
40
1
40
1
41
1
10
44.7398378353574
20
-1.15563103016257
30
0
41
1
10
44.7253722095605
20
-1.16204529261424
30
0
41
1
10
44.7109311651117
20
-1.16810402547682
30
0
41
1
10
44.6965126227506
20
-1.17380998566873
30
0
0
SPLINE
5
10D
100
AcDbEntity
8
1
62
256
6
ByLayer
370
18
48
1
60
0
100
AcDbSpline
70
4
71
3
72
18
73
14
40
0
40
0
40
0
40
0
40
0.148845653239711
40
0.148845653239711
40
0.34047958300531
40
0.34047958300531
40
0.532113512770907
40
0.532113512770907
40
0.723747442536505
40
0.723747442536505
40
0.915381372302102
40
0.915381372302102
40
1
40
1
40
1
40
1
41
1
10
38.161365368307
20
2.23164882619383
30
0
41
1
10
38.1441236778086
20
2.1771102506917
30
0
41
1
10
38.1246711601893
20
2.12259231684496
30
0
41
1
10
38.0756579305151
20
1.99978091994259
30
0
41
1
10
38.0447064068641
20
1.93158939633028
30
0
41
1
10
37.9755590287254
20
1.79721070478379
30
0
41
1
10
37.9372325570478
20
1.73099664430936
30
0
41
1
10
37.8558099523424
20
1.60630389579333
30
0
41
1
10
37.8123931834267
20
1.54710130878584
30
0
41
1
10
37.719338933731
20
1.4359246826717
30
0
41
1
10
37.6693367736567
20
1.38384428177366
30
0
41
1
10
37.5964351080578
20
1.31967412667333
30
0
41
1
10
37.5738312288362
20
1.301500219514
30
0
41
1
10
37.5509926148922
20
1.2845984887407
30
0
0
SPLINE
5
10E
100
AcDbEntity
8
1
62
256
6
ByLayer
370
18
48
1
60
0
100
AcDbSpline
70
4
71
3
72
8
73
4
40
0
40
0
40
0
40
0
40
1
40
1
40
1
40
1
41
1
10
44.4783539700044
20
-2.39021241910186
30
0
41
1
10
44.6103025209517
20
-2.44463893457853
30
0
41
1
10
44.7388670663635
20
-2.48886348066469
30
0
41
1
10
44.8651042725253
20
-2.52288966265954
30
0
0
SPLINE
5
10F
100
AcDbEntity
8
1
62
256
6
ByLayer
370
18
48
1
60
0
100
AcDbSpline
70
4
71
3
72
8
73
4
40
0
40
0
40
0
40
0
40
1
40
1
40
1
40
1
41
1
10
44.8651042725252
20
-2.52288966265999
30
0
41
1
10
44.8997770940657
20
-2.45885925730374
30
0
41
1
10
44.9346578145891
20
-2.39453114653449
30
0
41
1
10
44.96980410674
20
-2.32992616824953
30
0
0
SPLINE
5
110
100
AcDbEntity
8
1
62
256
6
ByLayer
370
18
48
1
60
0
100
AcDbSpline
70
4
71
3
72
28
73
24
40
0
40
0
40
0
40
0
40
0.124999999999947
40
0.124999999999947
40
0.18749999999992
40
0.18749999999992
40
0.249999999999893
40
0.249999999999893
40
0.37499999999984
40
0.37499999999984
40
0.499999999999786
40
0.499999999999786
40
0.562499999999801
40
0.562499999999801
40
0.624999999999816
40
0.624999999999816
40
0.749999999999847
40
0.749999999999847
40
0.812499999999902
40
0.812499999999902
40
0.874999999999957
40
0.874999999999957
40
1
40
1
40
1
40
1
41
1
10
44.96980410674
20
-2.32992616824953
30
0
41
1
10
44.9775188383883
20
-2.31574515397708
30
0
41
1
10
44.9865922327709
20
-2.3030821683447
30
0
41
1
10
45.0016907679276
20
-2.28574513592375
30
0
41
1
10
45.0070123363244
20
-2.28022204238934
30
0
41
1
10
45.0178956258329
20
-2.26992326763804
30
0
41
1
10
45.0234698852666
20
-2.26512663127585
30
0
41
1
10
45.040542903792
20
-2.25167871230388
30
0
41
1
10
45.0524026007811
20
-2.24394927977883
30
0
41
1
10
45.0768804711685
20
-2.23080733900915
30
0
41
1
10
45.0892014745876
20
-2.22555250766453
30
0
41
1
10
45.1077621557204
20
-2.21951150208213
30
0
41
1
10
45.113962399528
20
-2.21780811429193
30
0
41
1
10
45.1263836403603
20
-2.21503981647447
30
0
41
1
10
45.132613520374
20
-2.21397741898292
30
0
41
1
10
45.1509615338132
20
-2.21183957977939
30
0
41
1
10
45.1628617967119
20
-2.21176334344017
30
0
41
1
10
45.1801192114627
20
-2.21389511296462
30
0
41
1
10
45.1857719850677
20
-2.21498381774626
30
0
41
1
10
45.1968455673751
20
-2.21802479080742
30
0
41
1
10
45.2022702725993
20
-2.21998821663271
30
0
41
1
10
45.217635409114
20
-2.22717071713672
30
0
41
1
10
45.2268671712484
20
-2.23365831162676
30
0
41
1
10
45.234696128759
20
-2.24254995380287
30
0
0
SPLINE
5
111
100
AcDbEntity
8
1
62
256
6
ByLayer
370
18
48
1
60
0
100
AcDbSpline
70
4
71
3
72
12
73
8
40
0
40
0
40
0
40
0
40
0.500000000000012
40
0.500000000000012
40
0.750000000000006
40
0.750000000000006
40
1
40
1
40
1
40
1
41
1
10
45.234696128759
20
-2.24254995380295
30
0
41
1
10
45.2937077943789
20
-2.3095717270331
30
0
41
1
10
45.3521048421298
20
-2.37212300069385
30
0
41
1
10
45.4387305779882
20
-2.45866081052057
30
0
41
1
10
45.4674694573783
20
-2.48632384121095
30
0
41
1
10
45.5246147201489
20
-2.53922624873178
30
0
41
1
10
45.553028425069
20
-2.5644638616271
30
0
41
1
10
45.5813316986262
20
-2.58858046566292
30
0
0
SPLINE
5
112
100
AcDbEntity
8
1
62
256
6
ByLayer
370
18
48
1
60
0
100
AcDbSpline
70
4
71
3
72
8
73
4
40
0
40
0
40
0
40
0
40
1
40
1
40
1
40
1
41
1
10
45.6778714072889
20
-2.53308412640291
30
0
41
1
10
45.6456502823224
20
-2.55203220619964
30
0
41
1
10
45.6134691273123
20
-2.5705314788691
30
0
41
1
10
45.5813316986262
20
-2.58858046566294
30
0
0
SPLINE
5
113
100
AcDbEntity
8
1
62
256
6
ByLayer
370
18
48
1
60
0
100
AcDbSpline
70
4
71
3
72
10
73
6
40
0
40
0
40
0
40
0
40
0.541143760501977
40
0.541143760501977
40
1
40
1
40
1
40
1
41
1
10
45.6778714072889
20
-2.53308412640288
30
0
41
1
10
45.7348201630617
20
-2.42107151134053
30
0
41
1
10
45.7923376945392
20
-2.3096598927776
30
0
41
1
10
45.9000773647751
20
-2.10520598592504
30
0
41
1
10
45.9498922282019
20
-2.01228968301285
30
0
41
1
10
46.0002386199112
20
-1.92036256306812
30
0
0
SPLINE
5
114
100
AcDbEntity
8
1
62
256
6
ByLayer
370
18
48
1
60
0
100
AcDbSpline
70
4
71
3
72
10
73
6
40
0
40
0
40
0
40
0
40
0.437095786749715
40
0.437095786749715
40
1
40
1
40
1
40
1
41
1
10
52.8321117935052
20
2.79299220452887
30
0
41
1
10
52.8545380663095
20
2.8316607915045
30
0
41
1
10
52.8768833916437
20
2.87004189418874
30
0
41
1
10
52.9277780303482
20
2.95706341898943
30
0
41
1
10
52.9562705714008
20
3.00549249211969
30
0
41
1
10
52.9846318235801
20
3.05335740756627
30
0
0
SPLINE
5
115
100
AcDbEntity
8
1
62
256
6
ByLayer
370
18
48
1
60
0
100
AcDbSpline
70
4
71
3
72
26
73
22
40
0
40
0
40
0
40
0
40
0.0086183482640441
40
0.0086183482640441
40
0.0848784753206327
40
0.0848784753206327
40
0.23739872943381
40
0.23739872943381
40
0.389918983546987
40
0.389918983546987
40
0.466179110603575
40
0.466179110603575
40
0.542439237660164
40
0.542439237660164
40
0.694959491773442
40
0.694959491773442
40
0.771219618830082
40
0.771219618830082
40
0.847479745886721
40
0.847479745886721
40
1
40
1
40
1
40
1
41
1
10
53.4708562004948
20
2.42586922786208
30
0
41
1
10
53.4714699405822
20
2.42537705713099
30
0
41
1
10
53.4720853897061
20
2.42489014103069
30
0
41
1
10
53.478161048637
20
2.42014773675822
30
0
41
1
10
53.4837512567399
20
2.41628522214884
30
0
41
1
10
53.500868965545
20
2.40576094808387
30
0
41
1
10
53.5127688992234
20
2.40013823450371
30
0
41
1
10
53.5372572594959
20
2.39152024024244
30
0
41
1
10
53.5495814924208
20
2.3886127922529
30
0
41
1
10
53.5681434648364
20
2.38622360381649
30
0
41
1
10
53.5743435453472
20
2.38575951010523
30
0
41
1
10
53.5867632790083
20
2.38551724956099
30
0
41
1
10
53.5929805042347
20
2.3857434807573
30
0
41
1
10
53.6112935835525
20
2.38746851747811
30
0
41
1
10
53.6231747814004
20
2.38998921904678
30
0
41
1
10
53.6404074750902
20
2.39606591293034
30
0
41
1
10
53.6460526618571
20
2.39847787130708
30
0
41
1
10
53.6571119366051
20
2.40418525475164
30
0
41
1
10
53.6625181215792
20
2.40748665175019
30
0
41
1
10
53.6778404492132
20
2.41858889322546
30
0
41
1
10
53.6870557170361
20
2.42760852150877
30
0
41
1
10
53.6948798836744
20
2.43891248336385
30
0
0
SPLINE
5
116
100
AcDbEntity
8
1
62
256
6
ByLayer
370
18
48
1
60
0
100
AcDbSpline
70
4
71
3
72
8
73
4
40
0
40
0
40
0
40
0
40
1
40
1
40
1
40
1
41
1
10
53.6948798836738
20
2.43891248336416
30
0
41
1
10
53.798495037656
20
2.58861043873341
30
0
41
1
10
53.9003426238606
20
2.72806507879667
30
0
41
1
10
54.0003688622744
20
2.85557564095669
30
0
0
SPLINE
5
117
100
AcDbEntity
8
1
62
256
6
ByLayer
370
18
48
1
60
0
100
AcDbSpline
70
4
71
3
72
10
73
6
40
0
40
0
40
0
40
0
40
0.5
40
0.5
40
1
40
1
40
1
40
1
41
1
10
54.0003688622744
20
2.85557564095671
30
0
41
1
10
54.0344239481855
20
2.83885783308906
30
0
41
1
10
54.0685586923254
20
2.8216076177078
30
0
41
1
10
54.1369918629924
20
2.78604967741617
30
0
41
1
10
54.1713222470323
20
2.76772427733826
30
0
41
1
10
54.2056229571764
20
2.74893511366167
30
0
0
SPLINE
5
118
100
AcDbEntity
8
1
62
256
6
ByLayer
370
18
48
1
60
0
100
AcDbSpline
70
4
71
3
72
12
73
8
40
0
40
0
40
0
40
0
40
0.250000000000008
40
0.250000000000008
40
0.500000000000015
40
0.500000000000015
40
1
40
1
40
1
40
1
41
1
10
54.2056229571764
20
2.74893511366164
30
0
41
1
10
54.2287068171977
20
2.70522809544713
30
0
41
1
10
54.2518829695919
20
2.66140808671923
30
0
41
1
10
54.2984486118332
20
2.57355439411106
30
0
41
1
10
54.3218470997466
20
2.52950390484179
30
0
41
1
10
54.3922574487676
20
2.39733327759578
30
0
41
1
10
54.4395200420518
20
2.30911343171181
30
0
41
1
10
54.4872439122522
20
2.22085054892543
30
0
0
SPLINE
5
119
100
AcDbEntity
8
1
62
256
6
ByLayer
370
18
48
1
60
0
100
AcDbSpline
70
4
71
3
72
28
73
24
40
0
40
0
40
0
40
0
40
0.124999999999901
40
0.124999999999901
40
0.187499999999885
40
0.187499999999885
40
0.249999999999869
40
0.249999999999869
40
0.37499999999984
40
0.37499999999984
40
0.49999999999981
40
0.49999999999981
40
0.562499999999795
40
0.562499999999795
40
0.62499999999978
40
0.62499999999978
40
0.749999999999831
40
0.749999999999831
40
0.812499999999857
40
0.812499999999857
40
0.874999999999882
40
0.874999999999882
40
1
40
1
40
1
40
1
41
1
10
54.4872439122521
20
2.22085054892543
30
0
41
1
10
54.4950205481709
20
2.20646805434379
30
0
41
1
10
54.5041751698222
20
2.19343192997124
30
0
41
1
10
54.5194031143772
20
2.17533676646741
30
0
41
1
10
54.5247672403682
20
2.16952816229625
30
0
41
1
10
54.5357167758526
20
2.15862250379996
30
0
41
1
10
54.5413222354733
20
2.15349647814077
30
0
41
1
10
54.5584825984487
20
2.13898757382199
30
0
41
1
10
54.5704171236813
20
2.13043855610448
30
0
41
1
10
54.5949189402738
20
2.11553432001045
30
0
41
1
10
54.6072455454128
20
2.10931822858476
30
0
41
1
10
54.6258032524232
20
2.10171312301901
30
0
41
1
10
54.6320006671946
20
2.09946779254344
30
0
41
1
10
54.644413119724
20
2.09557209893475
30
0
41
1
10
54.6506143126497
20
2.09392940981235
30
0
41
1
10
54.6688878907856
20
2.0900052877268
30
0
41
1
10
54.6807470729361
20
2.08867320992786
30
0
41
1
10
54.6979546422614
20
2.08881638089679
30
0
41
1
10
54.703592826696
20
2.08922462322687
30
0
41
1
10
54.7146413851111
20
2.09086554216222
30
0
41
1
10
54.7200313377719
20
2.09210296032219
30
0
41
1
10
54.7353216221378
20
2.0971009378629
30
0
41
1
10
54.7445289377604
20
2.10210580053277
30
0
41
1
10
54.7523558372417
20
2.10949539046675
30
0
0
SPLINE
5
11A
100
AcDbEntity
8
1
62
256
6
ByLayer
370
18
48
1
60
0
100
AcDbSpline
70
4
71
3
72
8
73
4
40
0
40
0
40
0
40
0
40
1
40
1
40
1
40
1
41
1
10
54.7523558372417
20
2.10949539046683
30
0
41
1
10
54.816825707195
20
2.17036315850075
30
0
41
1
10
54.8805919687679
20
2.22551315631509
30
0
41
1
10
54.9436824740504
20
2.2748479338575
30
0
0
SPLINE
5
11B
100
AcDbEntity
8
1
62
256
6
ByLayer
370
18
48
1
60
0
100
AcDbSpline
70
4
71
3
72
12
73
8
40
0
40
0
40
0
40
0
40
0.5
40
0.5
40
0.75
40
0.75
40
1
40
1
40
1
40
1
41
1
10
54.9436824740505
20
2.2748479338575
30
0
41
1
10
55.0200604496252
20
2.21970984952404
30
0
41
1
10
55.097017114634
20
2.16273715302012
30
0
41
1
10
55.213386131544
20
2.07464553892376
30
0
41
1
10
55.2523304507613
20
2.0448417018801
30
0
41
1
10
55.3305264706227
20
1.98435743842498
30
0
41
1
10
55.3698339681437
20
1.95363325126644
30
0
41
1
10
55.4091664749969
20
1.92258352672775
30
0
0
SPLINE
5
11C
100
AcDbEntity
8
1
62
256
6
ByLayer
370
18
48
1
60
0
100
AcDbSpline
70
4
71
3
72
8
73
4
40
0
40
0
40
0
40
0
40
1
40
1
40
1
40
1
41
1
10
55.4091664749969
20
1.92258352672778
30
0
41
1
10
55.4539992557488
20
1.84110637635996
30
0
41
1
10
55.4991508293182
20
1.76074750888532
30
0
41
1
10
55.5447418881735
20
1.68160769029248
30
0
0
SPLINE
5
11D
100
AcDbEntity
8
1
62
256
6
ByLayer
370
18
48
1
60
0
100
AcDbSpline
70
4
71
3
72
27
73
23
40
0
40
0
40
0
40
0
40
0.125000000000022
40
0.125000000000022
40
0.187500000000033
40
0.187500000000033
40
0.250000000000045
40
0.312500000000056
40
0.312500000000056
40
0.375000000000067
40
0.375000000000067
40
0.500000000000009
40
0.500000000000009
40
0.624999999999951
40
0.624999999999951
40
0.749999999999893
40
0.749999999999893
40
0.812499999999903
40
0.812499999999903
40
0.874999999999913
40
0.874999999999913
40
1
40
1
40
1
40
1
41
1
10
55.5447418881735
20
1.68160769029248
30
0
41
1
10
55.5525109594863
20
1.66812164917465
30
0
41
1
10
55.5616637350373
20
1.65523710932115
30
0
41
1
10
55.5769026700442
20
1.63656962283372
30
0
41
1
10
55.5822720424551
20
1.63043016186921
30
0
41
1
10
55.5932307099595
20
1.61863508452535
30
0
41
1
10
55.6044531463793
20
1.60726218239213
30
0
41
1
10
55.6161397097366
20
1.59663667689801
30
0
41
1
10
55.6280406388219
20
1.58635882643404
30
0
41
1
10
55.6341205855695
20
1.58137693944642
30
0
41
1
10
55.6525111443676
20
1.56705881640789
30
0
41
1
10
55.6648487714174
20
1.55842744676554
30
0
41
1
10
55.6896153430007
20
1.5428341956341
30
0
41
1
10
55.7021554494795
20
1.53582628324904
30
0
41
1
10
55.7264851251898
20
1.52398020493635
30
0
41
1
10
55.7383287839441
20
1.51909117346662
30
0
41
1
10
55.7555139213068
20
1.51346459451037
30
0
41
1
10
55.7611447191914
20
1.51187642303543
30
0
41
1
10
55.7721786007623
20
1.50935575980637
30
0
41
1
10
55.7775200814647
20
1.50844078846336
30
0
41
1
10
55.7927113861371
20
1.50686857728084
30
0
41
1
10
55.8018631498041
20
1.50730526388841
30
0
41
1
10
55.8096514404687
20
1.50987099969439
30
0
0
SPLINE
5
11E
100
AcDbEntity
8
1
62
256
6
ByLayer
370
18
48
1
60
0
100
AcDbSpline
70
4
71
3
72
8
73
4
40
0
40
0
40
0
40
0
40
1
40
1
40
1
40
1
41
1
10
55.8096514404686
20
1.50987099969464
30
0
41
1
10
55.8352723149391
20
1.51831141336706
30
0
41
1
10
55.8607676063704
20
1.52566761400846
30
0
41
1
10
55.886150248985
20
1.53189829642446
30
0
0
SPLINE
5
11F
100
AcDbEntity
8
1
62
256
6
ByLayer
370
18
48
1
60
0
100
AcDbSpline
70
4
71
3
72
22
73
18
40
0
40
0
40
0
40
0
40
0.0211102372041862
40
0.0211102372041862
40
0.265832677903263
40
0.265832677903263
40
0.388193898252719
40
0.388193898252719
40
0.510555118602176
40
0.510555118602176
40
0.632916338951632
40
0.632916338951632
40
0.755277559301088
40
0.755277559301088
40
0.877638779650544
40
0.877638779650544
40
1
40
1
40
1
40
1
41
1
10
54.0498329360483
20
-2.41543146450198
30
0
41
1
10
54.048773773667
20
-2.41533952656926
30
0
41
1
10
54.0477136303113
20
-2.415257532037
30
0
41
1
10
54.034355478268
20
-2.41435158208427
30
0
41
1
10
54.0219179726553
20
-2.41482448538963
30
0
41
1
10
54.0030654765
20
-2.41777769668289
30
0
41
1
10
53.9967482344591
20
-2.41913972038637
30
0
41
1
10
53.984044891694
20
-2.42273509248534
30
0
41
1
10
53.9776740899786
20
-2.42497111210662
30
0
41
1
10
53.9652068600789
20
-2.43032002287336
30
0
41
1
10
53.9590709439552
20
-2.43344177772568
30
0
41
1
10
53.9470341528743
20
-2.44071965937869
30
0
41
1
10
53.9410888852805
20
-2.44491623820207
30
0
41
1
10
53.929823060509
20
-2.45430049394935
30
0
41
1
10
53.9244783994181
20
-2.45949094633704
30
0
41
1
10
53.914462168451
20
-2.47103690065188
30
0
41
1
10
53.9097839416981
20
-2.47742206324037
30
0
41
1
10
53.9056617967655
20
-2.48429164770442
30
0
0
SPLINE
5
120
100
AcDbEntity
8
1
62
256
6
ByLayer
370
18
48
1
60
0
100
AcDbSpline
70
4
71
3
72
12
73
8
40
0
40
0
40
0
40
0
40
0.499999999999986
40
0.499999999999986
40
0.749999999999993
40
0.749999999999993
40
1
40
1
40
1
40
1
41
1
10
53.9056617967631
20
-2.48429164770926
30
0
41
1
10
53.8481759130216
20
-2.58009229041946
30
0
41
1
10
53.7910251299147
20
-2.6744790666898
30
0
41
1
10
53.7059492441949
20
-2.81332209537715
30
0
41
1
10
53.6776954533162
20
-2.85915142483918
30
0
41
1
10
53.6214756262792
20
-2.94971438295605
30
0
41
1
10
53.5934935219732
20
-2.99447431888964
30
0
41
1
10
53.5656179935608
20
-3.0387114963207
30
0
0
SPLINE
5
121
100
AcDbEntity
8
1
62
256
6
ByLayer
370
18
48
1
60
0
100
AcDbSpline
70
4
71
3
72
10
73
6
40
0
40
0
40
0
40
0
40
0.5
40
0.5
40
1
40
1
40
1
40
1
41
1
10
53.4700136977177
20
-3.0261356019613
30
0
41
1
10
53.4115432930238
20
-2.92155261850814
30
0
41
1
10
53.3526486751798
20
-2.81392077764323
30
0
41
1
10
53.2335523810815
20
-2.59260105570891
30
0
41
1
10
53.1736294111267
20
-2.47942227776264
30
0
41
1
10
53.1131013723561
20
-2.36375982057734
30
0
0
SPLINE
5
122
100
AcDbEntity
8
1
62
256
6
ByLayer
370
18
48
1
60
0
100
AcDbSpline
70
4
71
3
72
28
73
24
40
0
40
0
40
0
40
0
40
0.124999999999968
40
0.124999999999968
40
0.249999999999937
40
0.249999999999937
40
0.374999999999905
40
0.374999999999905
40
0.499999999999874
40
0.499999999999874
40
0.624999999999842
40
0.624999999999842
40
0.687499999999868
40
0.687499999999868
40
0.749999999999895
40
0.749999999999895
40
0.812499999999921
40
0.812499999999921
40
0.874999999999948
40
0.874999999999948
40
0.937499999999974
40
0.937499999999974
40
1
40
1
40
1
40
1
41
1
10
53.1131013723561
20
-2.36375982057734
30
0
41
1
10
53.1059318603738
20
-2.35005966789541
30
0
41
1
10
53.0976206083815
20
-2.33768021338642
30
0
41
1
10
53.0792362889663
20
-2.31493806700075
30
0
41
1
10
53.0690696073022
20
-2.30453730622887
30
0
41
1
10
53.0478304956279
20
-2.28623397026874
30
0
41
1
10
53.0366958093435
20
-2.27823630350605
30
0
41
1
10
53.013457002223
20
-2.26445764415414
30
0
41
1
10
53.0012390854881
20
-2.25864962001415
30
0
41
1
10
52.9766362164814
20
-2.24980577371849
30
0
41
1
10
52.9641962204138
20
-2.24670794806624
30
0
41
1
10
52.9453435299203
20
-2.24431409120999
30
0
41
1
10
52.9390268435056
20
-2.2438952919936
30
0
41
1
10
52.9263266050639
20
-2.24392856449361
30
0
41
1
10
52.9199646024947
20
-2.24438739628016
30
0
41
1
10
52.9075137424161
20
-2.24627081304121
30
0
41
1
10
52.9013868982459
20
-2.2476930313602
30
0
41
1
10
52.8893683045169
20
-2.251646032834
30
0
41
1
10
52.8834330606159
20
-2.25420486585506
30
0
41
1
10
52.8721883112712
20
-2.26049210118202
30
0
41
1
10
52.8668533792616
20
-2.26421729359447
30
0
41
1
10
52.8568547783368
20
-2.27302766665136
30
0
41
1
10
52.8521844302354
20
-2.2781405597043
30
0
41
1
10
52.8480680678426
20
-2.28389893796742
30
0
0
SPLINE
5
123
100
AcDbEntity
8
1
62
256
6
ByLayer
370
18
48
1
60
0
100
AcDbSpline
70
4
71
3
72
12
73
8
40
0
40
0
40
0
40
0
40
0.499999999999999
40
0.499999999999999
40
0.75
40
0.75
40
1
40
1
40
1
40
1
41
1
10
52.8480680678403
20
-2.28389893797339
30
0
41
1
10
52.7906733274338
20
-2.36418842516352
30
0
41
1
10
52.7336163378115
20
-2.44115490743059
30
0
41
1
10
52.6486771965188
20
-2.55123276755043
30
0
41
1
10
52.6204679934502
20
-2.58703442673314
30
0
41
1
10
52.5643335126
20
-2.65673379808899
30
0
41
1
10
52.5363922511588
20
-2.69065245121607
30
0
41
1
10
52.5085550065363
20
-2.72364988065087
30
0
0
SPLINE
5
124
100
AcDbEntity
8
1
62
256
6
ByLayer
370
18
48
1
60
0
100
AcDbSpline
70
4
71
3
72
8
73
4
40
0
40
0
40
0
40
0
40
1
40
1
40
1
40
1
41
1
10
52.4118958223398
20
-2.676225690645
30
0
41
1
10
52.4441100682635
20
-2.69252304584174
30
0
41
1
10
52.47632677114
20
-2.70833264233301
30
0
41
1
10
52.5085550065363
20
-2.7236498806509
30
0
0
SPLINE
5
125
100
AcDbEntity
8
1
62
256
6
ByLayer
370
18
48
1
60
0
100
AcDbSpline
70
4
71
3
72
10
73
6
40
0
40
0
40
0
40
0
40
0.5
40
0.5
40
1
40
1
40
1
40
1
41
1
10
52.4118958223398
20
-2.67622569064514
30
0
41
1
10
52.3534246864036
20
-2.55424732230827
30
0
41
1
10
52.2945698937712
20
-2.43137850912379
30
0
41
1
10
52.1756526418973
20
-2.18409588767835
30
0
41
1
10
52.1158523013255
20
-2.06021823476573
30
0
41
1
10
52.0554059676186
20
-1.93622817576184
30
0
0
SPLINE
5
126
100
AcDbEntity
8
1
62
256
6
ByLayer
370
18
48
1
60
0
100
AcDbSpline
70
4
71
3
72
28
73
24
40
0
40
0
40
0
40
0
40
0.125
40
0.125
40
0.249999999999999
40
0.249999999999999
40
0.374999999999999
40
0.374999999999999
40
0.499999999999999
40
0.499999999999999
40
0.624999999999998
40
0.624999999999998
40
0.687499999999999
40
0.687499999999999
40
0.749999999999999
40
0.749999999999999
40
0.812499999999999
40
0.812499999999999
40
0.874999999999999
40
0.874999999999999
40
0.9375
40
0.9375
40
1
40
1
40
1
40
1
41
1
10
52.0554059676187
20
-1.93622817576187
30
0
41
1
10
52.0482514719619
20
-1.92155257371573
30
0
41
1
10
52.0399570302082
20
-1.90778768901123
30
0
41
1
10
52.0216026083295
20
-1.88166187658848
30
0
41
1
10
52.011448609724
20
-1.86923880484557
30
0
41
1
10
51.9902254516823
20
-1.84646983224303
30
0
41
1
10
51.9790949516993
20
-1.83601940842496
30
0
41
1
10
51.9558603783714
20
-1.81690394086505
30
0
41
1
10
51.9436416889576
20
-1.80818231427926
30
0
41
1
10
51.9190350264515
20
-1.79322667194279
30
0
41
1
10
51.906591456381
20
-1.78692016965169
30
0
41
1
10
51.8877313956207
20
-1.77943358397741
30
0
41
1
10
51.8814119318162
20
-1.77727012771609
30
0
41
1
10
51.8687058260726
20
-1.77370198891504
30
0
41
1
10
51.8623428108173
20
-1.77230987642801
30
0
41
1
10
51.8498903353148
20
-1.77045769609273
30
0
41
1
10
51.8437628923596
20
-1.76998508080175
30
0
41
1
10
51.831743212435
20
-1.77008299265938
30
0
41
1
10
51.8258079093293
20
-1.77066598431821
30
0
41
1
10
51.8145656510527
20
-1.77303475757566
30
0
41
1
10
51.8092320914567
20
-1.77481084170915
30
0
41
1
10
51.799236418571
20
-1.77974579751606
30
0
41
1
10
51.7945686951871
20
-1.78292646317561
30
0
41
1
10
51.7904548636062
20
-1.78683030967332
30
0
0
SPLINE
5
127
100
AcDbEntity
8
1
62
256
6
ByLayer
370
18
48
1
60
0
100
AcDbSpline
70
4
71
3
72
12
73
8
40
0
40
0
40
0
40
0
40
0.499999999999999
40
0.499999999999999
40
0.75
40
0.75
40
1
40
1
40
1
40
1
41
1
10
51.7904548636037
20
-1.78683030968014
30
0
41
1
10
51.7329834236902
20
-1.84136819608651
30
0
41
1
10
51.6758531234559
20
-1.89103392543723
30
0
41
1
10
51.5908148408612
20
-1.95816137142066
30
0
41
1
10
51.5625744583768
20
-1.97931194457016
30
0
41
1
10
51.5063820167654
20
-2.01913420620301
30
0
41
1
10
51.478413749709
20
-2.03781903221952
30
0
41
1
10
51.4505512423325
20
-2.05530117214497
30
0
0
SPLINE
5
128
100
AcDbEntity
8
1
62
256
6
ByLayer
370
18
48
1
60
0
100
AcDbSpline
70
4
71
3
72
8
73
4
40
0
40
0
40
0
40
0
40
1
40
1
40
1
40
1
41
1
10
51.3548010458076
20
-1.9800734786113
30
0
41
1
10
51.3867111408601
20
-2.00550570458049
30
0
41
1
10
51.4186251415341
20
-2.0305836733925
30
0
41
1
10
51.4505512423326
20
-2.05530117214494
30
0
0
SPLINE
5
129
100
AcDbEntity
8
1
62
256
6
ByLayer
370
18
48
1
60
0
100
AcDbSpline
70
4
71
3
72
10
73
6
40
0
40
0
40
0
40
0
40
0.5
40
0.5
40
1
40
1
40
1
40
1
41
1
10
51.3548010458083
20
-1.98007347860656
30
0
41
1
10
51.2962788805719
20
-1.85639472143302
30
0
41
1
10
51.2373586150115
20
-1.73409495362344
30
0
41
1
10
51.1183039841608
20
-1.49261400246212
30
0
41
1
10
51.0584240942663
20
-1.37393478882606
30
0
41
1
10
50.997907664056
20
-1.25755123800582
30
0
0
SPLINE
5
12A
100
AcDbEntity
8
1
62
256
6
ByLayer
370
18
48
1
60
0
100
AcDbSpline
70
4
71
3
72
28
73
24
40
0
40
0
40
0
40
0
40
0.125000000000032
40
0.125000000000032
40
0.250000000000063
40
0.250000000000063
40
0.375000000000095
40
0.375000000000095
40
0.500000000000126
40
0.500000000000126
40
0.625000000000158
40
0.625000000000158
40
0.687500000000131
40
0.687500000000131
40
0.750000000000105
40
0.750000000000105
40
0.812500000000079
40
0.812500000000079
40
0.875000000000053
40
0.875000000000053
40
0.937500000000026
40
0.937500000000026
40
1
40
1
40
1
40
1
41
1
10
50.997907664056
20
-1.25755123800508
30
0
41
1
10
50.990747156631
20
-1.24378034509394
30
0
41
1
10
50.9824475762309
20
-1.23040427802542
30
0
41
1
10
50.9640876225877
20
-1.204273688162
30
0
41
1
10
50.9539331515663
20
-1.19144235187665
30
0
41
1
10
50.9327132713902
20
-1.16717519622571
30
0
41
1
10
50.9215860413797
20
-1.15563808826227
30
0
41
1
10
50.8983601304238
20
-1.13369037900284
30
0
41
1
10
50.8861461113713
20
-1.12320141187902
30
0
41
1
10
50.8615429760247
20
-1.10410742450333
30
0
41
1
10
50.8490993328434
20
-1.09542986833858
30
0
41
1
10
50.8302368904766
20
-1.08385593834731
30
0
41
1
10
50.8239162831595
20
-1.08024068098268
30
0
41
1
10
50.8112078114159
20
-1.07355980925044
30
0
41
1
10
50.8048408561518
20
-1.07050952197591
30
0
41
1
10
50.792382102025
20
-1.06519032956993
30
0
41
1
10
50.7862516970334
20
-1.06289964109499
30
0
41
1
10
50.7742268279274
20
-1.05916294513543
30
0
41
1
10
50.7682887638726
20
-1.05771224052467
30
0
41
1
10
50.7570407168037
20
-1.0558937489736
30
0
41
1
10
50.7517051423251
20
-1.05551066211652
30
0
41
1
10
50.7417075822484
20
-1.05597113751043
30
0
41
1
10
50.7370389464129
20
-1.05682898012597
30
0
41
1
10
50.7329247881992
20
-1.05839404936231
30
0
0
SPLINE
5
12B
100
AcDbEntity
8
1
62
256
6
ByLayer
370
18
48
1
60
0
100
AcDbSpline
70
4
71
3
72
12
73
8
40
0
40
0
40
0
40
0
40
0.499999999999985
40
0.499999999999985
40
0.749999999999993
40
0.749999999999993
40
1
40
1
40
1
40
1
41
1
10
50.7329247881969
20
-1.05839404936833
30
0
41
1
10
50.675528117794
20
-1.08022834899231
30
0
41
1
10
50.6184734091838
20
-1.09629387974744
30
0
41
1
10
50.5335615152491
20
-1.11185137692982
30
0
41
1
10
50.5053639547488
20
-1.11563016391923
30
0
41
1
10
50.449258366395
20
-1.12044836695591
30
0
41
1
10
50.4213339072832
20
-1.12149037556725
30
0
41
1
10
50.3935146426403
20
-1.12119752523569
30
0
0
SPLINE
5
12C
100
AcDbEntity
8
1
62
256
6
ByLayer
370
18
48
1
60
0
100
AcDbSpline
70
4
71
3
72
10
73
6
40
0
40
0
40
0
40
0
40
0.5
40
0.5
40
1
40
1
40
1
40
1
41
1
10
50.2967950990392
20
-1.02651121251557
30
0
41
1
10
50.2382885529883
20
-0.917481579174478
30
0
41
1
10
50.1793934167483
20
-0.811908309960188
30
0
41
1
10
50.0604497604334
20
-0.608083637054108
30
0
41
1
10
50.0006558475987
20
-0.510252448084799
30
0
41
1
10
49.9402886371054
20
-0.416778226008944
30
0
0
SPLINE
5
12D
100
AcDbEntity
8
1
62
256
6
ByLayer
370
18
48
1
60
0
100
AcDbSpline
70
4
71
3
72
28
73
24
40
0
40
0
40
0
40
0
40
0.125
40
0.125
40
0.25
40
0.25
40
0.375
40
0.375
40
0.5
40
0.5
40
0.625
40
0.625
40
0.6875
40
0.6875
40
0.75
40
0.75
40
0.8125
40
0.8125
40
0.875
40
0.875
40
0.9375
40
0.9375
40
1
40
1
40
1
40
1
41
1
10
49.9402886371054
20
-0.416778226008944
30
0
41
1
10
49.9331256693305
20
-0.405686892898842
30
0
41
1
10
49.9248238243085
20
-0.39441487282096
30
0
41
1
10
49.9064626262877
20
-0.371618722866884
30
0
41
1
10
49.8963102042653
20
-0.360013851973207
30
0
41
1
10
49.8750976560998
20
-0.337327362402135
30
0
41
1
10
49.86397521755
20
-0.326160305027401
30
0
41
1
10
49.8407623397416
20
-0.30413661607821
30
0
41
1
10
49.8285561772028
20
-0.293188236760642
30
0
41
1
10
49.8039622836777
20
-0.272310398773584
30
0
41
1
10
49.7915230711022
20
-0.262319767084506
30
0
41
1
10
49.7726668052111
20
-0.248046519945063
30
0
41
1
10
49.7663482302017
20
-0.243408615692459
30
0
41
1
10
49.7536436730288
20
-0.234398018598654
30
0
41
1
10
49.7472695387273
20
-0.230036258310776
30
0
41
1
10
49.7347987610726
20
-0.221842418267812
30
0
41
1
10
49.7286620224164
20
-0.217980999062405
30
0
41
1
10
49.7166235818614
20
-0.210793765348598
30
0
41
1
10
49.710676960612
20
-0.207445523830245
30
0
41
1
10
49.6994060247576
20
-0.20157233217833
30
0
41
1
10
49.694059137878
20
-0.1990298420763
30
0
41
1
10
49.6840397328494
20
-0.194864366406335
30
0
41
1
10
49.6793596381482
20
-0.193245339344628
30
0
41
1
10
49.6752360915003
20
-0.192233734410451
30
0
0
SPLINE
5
12E
100
AcDbEntity
8
1
62
256
6
ByLayer
370
18
48
1
60
0
100
AcDbSpline
70
4
71
3
72
12
73
8
40
0
40
0
40
0
40
0
40
0.500000000000001
40
0.500000000000001
40
0.75
40
0.75
40
1
40
1
40
1
40
1
41
1
10
49.6752360914981
20
-0.192233734415112
30
0
41
1
10
49.6177242131165
20
-0.178124690696308
30
0
41
1
10
49.560546258648
20
-0.158230877592928
30
0
41
1
10
49.4754417891657
20
-0.120053039322841
30
0
41
1
10
49.4471804415858
20
-0.105937474574034
30
0
41
1
10
49.3909538569325
20
-0.0750420902739108
30
0
41
1
10
49.3629720347414
20
-0.0582564629290516
30
0
41
1
10
49.3350986532408
20
-0.0401744044008012
30
0
0
SPLINE
5
12F
100
AcDbEntity
8
1
62
256
6
ByLayer
370
18
48
1
60
0
100
AcDbSpline
70
4
71
3
72
10
73
6
40
0
40
0
40
0
40
0
40
0.5
40
0.5
40
1
40
1
40
1
40
1
41
1
10
49.2390650781858
20
0.0602498400418767
30
0
41
1
10
49.1806211618854
20
0.140566629197991
30
0
41
1
10
49.1217864779908
20
0.215719435951712
30
0
41
1
10
49.0029070905218
20
0.355417792509172
30
0
41
1
10
48.9431161265135
20
0.419678390861236
30
0
41
1
10
48.8827124086866
20
0.478100671608246
30
0
0
SPLINE
5
130
100
AcDbEntity
8
1
62
256
6
ByLayer
370
18
48
1
60
0
100
AcDbSpline
70
4
71
3
72
28
73
24
40
0
40
0
40
0
40
0
40
0.125
40
0.125
40
0.25
40
0.25
40
0.374999999999999
40
0.374999999999999
40
0.499999999999999
40
0.499999999999999
40
0.624999999999999
40
0.624999999999999
40
0.687499999999999
40
0.687499999999999
40
0.749999999999999
40
0.749999999999999
40
0.812499999999999
40
0.812499999999999
40
0.875
40
0.875
40
0.9375
40
0.9375
40
1
40
1
40
1
40
1
41
1
10
48.8827124086867
20
0.478100671608246
30
0
41
1
10
48.8755441377186
20
0.485033800131419
30
0
41
1
10
48.8672341533692
20
0.492698495165712
30
0
41
1
10
48.8488518608713
20
0.509119232918067
30
0
41
1
10
48.8386854200828
20
0.51795152141068
30
0
41
1
10
48.8174452465404
20
0.5360277513619
30
0
41
1
10
48.8063091392511
20
0.545329801815967
30
0
41
1
10
48.7830716755909
20
0.56447414573239
30
0
41
1
10
48.7708565775266
20
0.574406239615939
30
0
41
1
10
48.7462585961324
20
0.594234977523399
30
0
41
1
10
48.7338197535717
20
0.604179114942497
30
0
41
1
10
48.7149686316113
20
0.619203225556362
30
0
41
1
10
48.7086525504428
20
0.624229516675001
30
0
41
1
10
48.6959544971826
20
0.6343346473422
30
0
41
1
10
48.6895951020666
20
0.639395636194507
30
0
41
1
10
48.6771483872025
20
0.649318104153849
30
0
41
1
10
48.6710232202238
20
0.654209694906655
30
0
41
1
10
48.6590065763493
20
0.663840299835613
30
0
41
1
10
48.6530717310096
20
0.668614551308423
30
0
41
1
10
48.6418265978531
20
0.67771071475471
30
0
41
1
10
48.6364906485614
20
0.682053034405556
30
0
41
1
10
48.6264890338649
20
0.690256886276927
30
0
41
1
10
48.621816972668
20
0.694124499021655
30
0
41
1
10
48.6176988037514
20
0.697572388986799
30
0
0
SPLINE
5
131
100
AcDbEntity
8
1
62
256
6
ByLayer
370
18
48
1
60
0
100
AcDbSpline
70
4
71
3
72
12
73
8
40
0
40
0
40
0
40
0
40
0.500000000000015
40
0.500000000000015
40
0.750000000000008
40
0.750000000000008
40
1
40
1
40
1
40
1
41
1
10
48.617698803749
20
0.697572388983588
30
0
41
1
10
48.5602386048399
20
0.745680285290575
30
0
41
1
10
48.5031196555266
20
0.798945841042524
30
0
41
1
10
48.4180965635062
20
0.885954200390728
30
0
41
1
10
48.3898610043682
20
0.916142688557869
30
0
41
1
10
48.333678063034
20
0.978693395850058
30
0
41
1
10
48.3057145611656
20
1.01107162348094
30
0
41
1
10
48.2778573662655
20
1.04452683714268
30
0
0
SPLINE
5
132
100
AcDbEntity
8
1
62
256
6
ByLayer
370
18
48
1
60
0
100
AcDbSpline
70
4
71
3
72
10
73
6
40
0
40
0
40
0
40
0
40
0.5
40
0.5
40
1
40
1
40
1
40
1
41
1
10
48.1816371997825
20
1.13862355355806
30
0
41
1
10
48.1232357730453
20
1.18001066821452
30
0
41
1
10
48.0643967325852
20
1.21519535312805
30
0
41
1
10
47.9454460900565
20
1.27291835012951
30
0
41
1
10
47.8855977769198
20
1.29535642244323
30
0
41
1
10
47.8251312249804
20
1.31116366879127
30
0
0
SPLINE
5
133
100
AcDbEntity
8
1
62
256
6
ByLayer
370
18
48
1
60
0
100
AcDbSpline
70
4
71
3
72
28
73
24
40
0
40
0
40
0
40
0
40
0.124999999999969
40
0.124999999999969
40
0.249999999999938
40
0.249999999999938
40
0.374999999999907
40
0.374999999999907
40
0.499999999999876
40
0.499999999999876
40
0.624999999999845
40
0.624999999999845
40
0.687499999999871
40
0.687499999999871
40
0.749999999999897
40
0.749999999999897
40
0.812499999999923
40
0.812499999999923
40
0.874999999999948
40
0.874999999999948
40
0.937499999999974
40
0.937499999999974
40
1
40
1
40
1
40
1
41
1
10
47.8251312249804
20
1.3111636687913
30
0
41
1
10
47.8179616525368
20
1.31303794794548
30
0
41
1
10
47.8096490818923
20
1.31609899758166
30
0
41
1
10
47.791258903416
20
1.32400865153272
30
0
41
1
10
47.7810865601883
20
1.3289186332758
30
0
41
1
10
47.7598333103763
20
1.34003523181985
30
0
41
1
10
47.7486904005395
20
1.34626464827932
30
0
41
1
10
47.7254401464804
20
1.36004614433614
30
0
41
1
10
47.7132195337508
20
1.3676760049575
30
0
41
1
10
47.6886160079587
20
1.38389260616955
30
0
41
1
10
47.6761758294896
20
1.39250446333799
30
0
41
1
10
47.6573252838879
20
1.40633449832694
30
0
41
1
10
47.651009822174
20
1.41109809852395
30
0
41
1
10
47.6383139095632
20
1.42098797209883
30
0
41
1
10
47.6319601807402
20
1.4260958343759
30
0
41
1
10
47.6195231199889
20
1.4364630008302
30
0
41
1
10
47.6134029421862
20
1.44175025202725
30
0
41
1
10
47.6013964123474
20
1.45257197645697
30
0
41
1
10
47.5954672688823
20
1.45815036556579
30
0
41
1
10
47.5842349550131
20
1.46928177083726
30
0
41
1
10
47.5789050572732
20
1.47485463187061
30
0
41
1
10
47.5689144510046
20
1.48601710094812
30
0
41
1
10
47.5642475700549
20
1.49162218741844
30
0
41
1
10
47.5601332763822
20
1.49704865530421
30
0
0
SPLINE
5
134
100
AcDbEntity
8
1
62
256
6
ByLayer
370
18
48
1
60
0
100
AcDbSpline
70
4
71
3
72
12
73
8
40
0
40
0
40
0
40
0
40
0.499999999999985
40
0.499999999999985
40
0.749999999999993
40
0.749999999999993
40
1
40
1
40
1
40
1
41
1
10
47.5601332763775
20
1.49704865530626
30
0
41
1
10
47.5026496080442
20
1.57286562536251
30
0
41
1
10
47.4455117922191
20
1.65255949762593
30
0
41
1
10
47.3604675472394
20
1.77712781096054
30
0
41
1
10
47.3322261234059
20
1.81949100769589
30
0
41
1
10
47.2760326875589
20
1.90565715447224
30
0
41
1
10
47.2480645816944
20
1.94948332185072
30
0
41
1
10
47.2202030391168
20
1.99402818455121
30
0
0
SPLINE
5
135
100
AcDbEntity
8
1
62
256
6
ByLayer
370
18
48
1
60
0
100
AcDbSpline
70
4
71
3
72
10
73
6
40
0
40
0
40
0
40
0
40
0.5
40
0.5
40
1
40
1
40
1
40
1
41
1
10
47.1243126606752
20
2.06906132865962
30
0
41
1
10
47.0658574313819
20
2.06611289845259
30
0
41
1
10
47.0069907892388
20
2.05695079653344
30
0
41
1
10
46.8879702134216
20
2.02572665176186
30
0
41
1
10
46.828072774449
20
2.00372680188838
30
0
41
1
10
46.7675003930751
20
1.97501068747707
30
0
0
SPLINE
5
136
100
AcDbEntity
8
1
62
256
6
ByLayer
370
18
48
1
60
0
100
AcDbSpline
70
4
71
3
72
28
73
24
40
0
40
0
40
0
40
0
40
0.124999999999968
40
0.124999999999968
40
0.249999999999936
40
0.249999999999936
40
0.374999999999904
40
0.374999999999904
40
0.499999999999872
40
0.499999999999872
40
0.62499999999984
40
0.62499999999984
40
0.687499999999866
40
0.687499999999866
40
0.749999999999893
40
0.749999999999893
40
0.81249999999992
40
0.81249999999992
40
0.874999999999947
40
0.874999999999947
40
0.937499999999973
40
0.937499999999973
40
1
40
1
40
1
40
1
41
1
10
46.7675003930751
20
1.97501068747707
30
0
41
1
10
46.7603310184682
20
1.9716118351156
30
0
41
1
10
46.7520178353093
20
1.96969924694045
30
0
41
1
10
46.7336226474596
20
1.96812349669912
30
0
41
1
10
46.7234453206597
20
1.9684986557009
30
0
41
1
10
46.7021794690103
20
1.97126216276575
30
0
41
1
10
46.6910294497076
20
1.97363539099928
30
0
41
1
10
46.6677649560379
20
1.98031621462243
30
0
41
1
10
46.6555377594924
20
1.98467998795252
30
0
41
1
10
46.6309269203312
20
1.99523146026209
30
0
41
1
10
46.6184844161929
20
2.00141835945655
30
0
41
1
10
46.5996328700252
20
2.01229469768637
30
0
41
1
10
46.5933174886483
20
2.01618876000759
30
0
41
1
10
46.5806226285643
20
2.02460167910581
30
0
41
1
10
46.5742749809253
20
2.02910361383908
30
0
41
1
10
46.5618477524582
20
2.03858782892345
30
0
41
1
10
46.5557326673459
20
2.04359231589223
30
0
41
1
10
46.5437365146815
20
2.05421372993243
30
0
41
1
10
46.5378134677717
20
2.05987750164564
30
0
41
1
10
46.526595436959
20
2.07160515175704
30
0
41
1
10
46.521272412944
20
2.07768625495643
30
0
41
1
10
46.5112946862328
20
2.09035618950025
30
0
41
1
10
46.5066341783913
20
2.09696756757074
30
0
41
1
10
46.5025249572418
20
2.10366215272356
30
0
0
SPLINE
5
137
100
AcDbEntity
8
1
62
256
6
ByLayer
370
18
48
1
60
0
100
AcDbSpline
70
4
71
3
72
12
73
8
40
0
40
0
40
0
40
0
40
0.5
40
0.5
40
0.75
40
0.75
40
1
40
1
40
1
40
1
41
1
10
46.5025249572393
20
2.10366215272504
30
0
41
1
10
46.4451022066457
20
2.19721309087151
30
0
41
1
10
46.3880267532138
20
2.29284466296767
30
0
41
1
10
46.3030703665213
20
2.43858264970461
30
0
41
1
10
46.2748570979659
20
2.48754840947723
30
0
41
1
10
46.2187166969762
20
2.58600105694748
30
0
41
1
10
46.1907732374002
20
2.63551550433152
30
0
41
1
10
46.1629338220204
20
2.68530070705739
30
0
0
SPLINE
5
138
100
AcDbEntity
8
1
62
256
6
ByLayer
370
18
48
1
60
0
100
AcDbSpline
70
4
71
3
72
10
73
6
40
0
40
0
40
0
40
0
40
0.5
40
0.5
40
1
40
1
40
1
40
1
41
1
10
46.0663055931485
20
2.73213959044307
30
0
41
1
10
46.0078463713059
20
2.68498303124886
30
0
41
1
10
45.9490218392408
20
2.6322117167023
30
0
41
1
10
45.8301407272165
20
2.51533024234527
30
0
41
1
10
45.7703375825994
20
2.45147690815895
30
0
41
1
10
45.7098651046595
20
2.38201366388171
30
0
0
SPLINE
5
139
100
AcDbEntity
8
1
62
256
6
ByLayer
370
18
48
1
60
0
100
AcDbSpline
70
4
71
3
72
28
73
24
40
0
40
0
40
0
40
0
40
0.125000000000031
40
0.125000000000031
40
0.250000000000063
40
0.250000000000063
40
0.375000000000094
40
0.375000000000094
40
0.500000000000126
40
0.500000000000126
40
0.625000000000157
40
0.625000000000157
40
0.687500000000131
40
0.687500000000131
40
0.750000000000105
40
0.750000000000105
40
0.812500000000078
40
0.812500000000078
40
0.875000000000052
40
0.875000000000052
40
0.937500000000026
40
0.937500000000026
40
1
40
1
40
1
40
1
41
1
10
45.7098651046593
20
2.38201366388176
30
0
41
1
10
45.7027058625715
20
2.37379001902832
30
0
41
1
10
45.6944072027409
20
2.36715909752701
30
0
41
1
10
45.6760463072931
20
2.35631443824283
30
0
41
1
10
45.6658896604485
20
2.35211050473012
30
0
41
1
10
45.6446617369091
20
2.34616333352989
30
0
41
1
10
45.6335289547005
20
2.34436908259278
30
0
41
1
10
45.610291049551
20
2.34306868533457
30
0
41
1
10
45.5980718220054
20
2.34358999028302
30
0
41
1
10
45.5734636317095
20
2.34708786930599
30
0
41
1
10
45.5610175960153
20
2.35003652242307
30
0
41
1
10
45.5421520947132
20
2.3565351194118
30
0
41
1
10
45.5358305500712
20
2.35905063276189
30
0
41
1
10
45.5231206075038
20
2.36488969674448
30
0
41
1
10
45.5167592313162
20
2.36820672875496
30
0
41
1
10
45.5043093844464
20
2.3755867960688
30
0
41
1
10
45.4981836865048
20
2.3796650543004
30
0
41
1
10
45.4861686353281
20
2.38872163830865
30
0
41
1
10
45.4802363611373
20
2.39374494030088
30
0
41
1
10
45.469001056654
20
2.40457025776198
30
0
41
1
10
45.4636713069504
20
2.41038212258928
30
0
41
1
10
45.4536835761797
20
2.42293741974171
30
0
41
1
10
45.4490188282456
20
2.42970927693924
30
0
41
1
10
45.4449067876638
20
2.4368139402433
30
0
0
SPLINE
5
13A
100
AcDbEntity
8
1
62
256
6
ByLayer
370
18
48
1
60
0
100
AcDbSpline
70
4
71
3
72
10
73
6
40
0
40
0
40
0
40
0
40
0.5
40
0.5
40
1
40
1
40
1
40
1
41
1
10
45.4449067876615
20
2.43681394024506
30
0
41
1
10
45.4072322507691
20
2.50190690186545
30
0
41
1
10
45.3697180592188
20
2.56698758944151
30
0
41
1
10
45.295025351278
20
2.69692125165835
30
0
41
1
10
45.2578635887756
20
2.76174455835241
30
0
41
1
10
45.220920192624
20
2.82626211954377
30
0
0
SPLINE
5
13B
100
AcDbEntity
8
1
62
256
6
ByLayer
370
18
48
1
60
0
100
AcDbSpline
70
4
71
3
72
8
73
4
40
0
40
0
40
0
40
0
40
1
40
1
40
1
40
1
41
1
10
44.6989636124566
20
2.55903906473588
30
0
41
1
10
44.6834289746246
20
2.53339661699104
30
0
41
1
10
44.6678614291807
20
2.5074988081027
30
0
41
1
10
44.6522558207272
20
2.48134419119097
30
0
0
SPLINE
5
13C
100
AcDbEntity
8
1
62
256
6
ByLayer
370
18
48
1
60
0
100
AcDbSpline
70
4
71
3
72
24
73
20
40
0
40
0
40
0
40
0
40
0.125
40
0.125
40
0.25
40
0.25
40
0.375
40
0.375
40
0.5
40
0.5
40
0.625
40
0.625
40
0.75
40
0.75
40
0.875
40
0.875
40
0.9375
40
0.9375
40
1
40
1
40
1
40
1
41
1
10
44.6522558207274
20
2.48134419119117
30
0
41
1
10
44.6471001593596
20
2.4727034292238
30
0
41
1
10
44.6413480695604
20
2.4648472016176
30
0
41
1
10
44.6288753240234
20
2.45039218491385
30
0
41
1
10
44.6221517129663
20
2.44379757483816
30
0
41
1
10
44.6078203467379
20
2.43175439651765
30
0
41
1
10
44.6003027059619
20
2.42638830872619
30
0
41
1
10
44.5847895043004
20
2.41694265498205
30
0
41
1
10
44.5767690573779
20
2.41284380006107
30
0
41
1
10
44.5602245516428
20
2.40586472328545
30
0
41
1
10
44.5516824046008
20
2.40297971907492
30
0
41
1
10
44.5341540960916
20
2.39852702025857
30
0
41
1
10
44.5253123790482
20
2.39699329052792
30
0
41
1
10
44.5074892770907
20
2.39534918212172
30
0
41
1
10
44.4985079148062
20
2.39523738134025
30
0
41
1
10
44.4849356669376
20
2.39626758931152
30
0
41
1
10
44.4803948115325
20
2.39681180081266
30
0
41
1
10
44.4712791667373
20
2.39834311048654
30
0
41
1
10
44.4666829115799
20
2.39933664700294
30
0
41
1
10
44.462137926463
20
2.40056168538797
30
0
0
SPLINE
5
13D
100
AcDbEntity
8
1
62
256
6
ByLayer
370
18
48
1
60
0
100
AcDbSpline
70
4
71
3
72
12
73
8
40
0
40
0
40
0
40
0
40
0.250000000000011
40
0.250000000000011
40
0.500000000000021
40
0.500000000000021
40
1
40
1
40
1
40
1
41
1
10
44.462137926463
20
2.40056168538797
30
0
41
1
10
44.4219889151043
20
2.3728500672054
30
0
41
1
10
44.380714552214
20
2.34687906051499
30
0
41
1
10
44.2958125323182
20
2.29839044929656
30
0
41
1
10
44.2521424376108
20
2.27588134306879
30
0
41
1
10
44.1178999083899
20
2.21402377321485
30
0
41
1
10
44.0242574899883
20
2.18036548894369
30
0
41
1
10
43.9283539700044
20
2.15533000205079
30
0
0
SPLINE
5
13E
100
AcDbEntity
8
1
62
256
6
ByLayer
370
18
48
1
60
0
100
AcDbSpline
70
4
71
3
72
14
73
10
40
0
40
0
40
0
40
0
40
0.350969618986018
40
0.350969618986018
40
0.701939237972037
40
0.701939237972037
40
0.877424047465046
40
0.877424047465046
40
1
40
1
40
1
40
1
41
1
10
43.9283539700044
20
2.15533000205079
30
0
41
1
10
43.8069132546984
20
2.12362806413631
30
0
41
1
10
43.6864158270638
20
2.08650413057677
30
0
41
1
10
43.4464365000619
20
2.00205217590235
30
0
41
1
10
43.3269487483872
20
1.95472390924206
30
0
41
1
10
43.1477053820853
20
1.87666622490241
30
0
41
1
10
43.0879560730303
20
1.84946966696981
30
0
41
1
10
42.9863440248122
20
1.80138218590597
30
0
41
1
10
42.9445138238411
20
1.7810677621857
30
0
41
1
10
42.9026381245873
20
1.76021819228936
30
0
0
SPLINE
5
13F
100
AcDbEntity
8
1
62
256
6
ByLayer
370
18
48
1
60
0
100
AcDbSpline
70
4
71
3
72
8
73
4
40
0
40
0
40
0
40
0
40
1
40
1
40
1
40
1
41
1
10
44.6050361836195
20
0.718049525335601
30
0
41
1
10
44.609164669537
20
0.712547364149913
30
0
41
1
10
44.613296228282
20
0.707066767152781
30
0
41
1
10
44.617431103383
20
0.70160843703394
30
0
0
SPLINE
5
140
100
AcDbEntity
8
1
62
256
6
ByLayer
370
18
48
1
60
0
100
AcDbSpline
70
4
71
3
72
12
73
8
40
0
40
0
40
0
40
0
40
0.499999999999987
40
0.499999999999987
40
0.749999999999993
40
0.749999999999993
40
1
40
1
40
1
40
1
41
1
10
49.1122184465871
20
-2.35956581904955
30
0
41
1
10
49.171257104498
20
-2.466733316393
30
0
41
1
10
49.2296962077812
20
-2.57335942068536
30
0
41
1
10
49.316425158077
20
-2.73160655068216
30
0
41
1
10
49.3452033036357
20
-2.78411644256926
30
0
41
1
10
49.4024088607426
20
-2.88837338144356
30
0
41
1
10
49.4308431940451
20
-2.94013486410631
30
0
41
1
10
49.4591473819543
20
-2.99153123407569
30
0
0
SPLINE
5
141
100
AcDbEntity
8
1
62
256
6
ByLayer
370
18
48
1
60
0
100
AcDbSpline
70
4
71
3
72
10
73
6
40
0
40
0
40
0
40
0
40
0.5
40
0.5
40
1
40
1
40
1
40
1
41
1
10
49.5556187758613
20
-3.01084650326598
30
0
41
1
10
49.6125502496748
20
-2.93006221660713
30
0
41
1
10
49.6700429438639
20
-2.84563773402542
30
0
41
1
10
49.7865705621781
20
-2.66966058292647
30
0
41
1
10
49.8453410708807
20
-2.57850843562983
30
0
41
1
10
49.9048793199437
20
-2.48423357817518
30
0
0
SPLINE
5
142
100
AcDbEntity
8
1
62
256
6
ByLayer
370
18
48
1
60
0
100
AcDbSpline
70
4
71
3
72
28
73
24
40
0
40
0
40
0
40
0
40
0.125000000000062
40
0.125000000000062
40
0.187500000000092
40
0.187500000000092
40
0.250000000000123
40
0.250000000000123
40
0.375000000000185
40
0.375000000000185
40
0.500000000000246
40
0.500000000000246
40
0.562500000000235
40
0.562500000000235
40
0.625000000000224
40
0.625000000000224
40
0.750000000000202
40
0.750000000000202
40
0.812500000000151
40
0.812500000000151
40
0.875000000000101
40
0.875000000000101
40
1
40
1
40
1
40
1
41
1
10
49.9048793199437
20
-2.48423357817518
30
0
41
1
10
49.9126091293909
20
-2.47199393903142
30
0
41
1
10
49.9217053799659
20
-2.4618023065108
30
0
41
1
10
49.9368452844885
20
-2.44874205165999
30
0
41
1
10
49.9421811920256
20
-2.44475352223455
30
0
41
1
10
49.9530857315476
20
-2.4376433069163
30
0
41
1
10
49.9586704688127
20
-2.43450144913351
30
0
41
1
10
49.9757745962032
20
-2.42618106794876
30
0
41
1
10
49.987668888232
20
-2.42208669383908
30
0
41
1
10
50.0121554294109
20
-2.4166229000071
30
0
41
1
10
50.0244804511834
20
-2.41530789430453
30
0
41
1
10
50.0430469895392
20
-2.41533749030802
30
0
41
1
10
50.049249140212
20
-2.41568474224596
30
0
41
1
10
50.0616741853072
20
-2.41707733963386
30
0
41
1
10
50.0678933088109
20
-2.418126655094
30
0
41
1
10
50.0862115380366
20
-2.42229358859305
30
0
41
1
10
50.0980961407825
20
-2.42642191230749
30
0
41
1
10
50.1153350270384
20
-2.4348851157053
30
0
41
1
10
50.120982451511
20
-2.43808837604496
30
0
41
1
10
50.1320467137659
20
-2.44537037152557
30
0
41
1
10
50.1374475685496
20
-2.44944847734683
30
0
41
1
10
50.1527545088209
20
-2.46278960853306
30
0
41
1
10
50.1619578860769
20
-2.47320702186701
30
0
41
1
10
50.1697702345797
20
-2.48577115146159
30
0
0
SPLINE
5
143
100
AcDbEntity
8
1
62
256
6
ByLayer
370
18
48
1
60
0
100
AcDbSpline
70
4
71
3
72
12
73
8
40
0
40
0
40
0
40
0
40
0.5
40
0.5
40
0.75
40
0.75
40
1
40
1
40
1
40
1
41
1
10
50.1697702345805
20
-2.48577115146151
30
0
41
1
10
50.2287695255893
20
-2.58065615792978
30
0
41
1
10
50.2871884704208
20
-2.67300852442162
30
0
41
1
10
50.3739058418235
20
-2.80702017268638
30
0
41
1
10
50.4026819165795
20
-2.85097249980902
30
0
41
1
10
50.4598962402241
20
-2.93722520151732
30
0
41
1
10
50.4883440141357
20
-2.97954127096597
30
0
41
1
10
50.5166610781689
20
-3.02104560647544
30
0
0
SPLINE
5
144
100
AcDbEntity
8
1
62
256
6
ByLayer
370
18
48
1
60
0
100
AcDbSpline
70
4
71
3
72
8
73
4
40
0
40
0
40
0
40
0
40
1
40
1
40
1
40
1
41
1
10
50.6135166564975
20
-3.00385107067194
30
0
41
1
10
50.5812425315794
20
-3.01014822162895
30
0
41
1
10
50.5489509814535
20
-3.01587661852608
30
0
41
1
10
50.5166610781689
20
-3.02104560647544
30
0
0
SPLINE
5
145
100
AcDbEntity
8
1
62
256
6
ByLayer
370
18
48
1
60
0
100
AcDbSpline
70
4
71
3
72
12
73
8
40
0
40
0
40
0
40
0
40
0.25
40
0.25
40
0.500000000000001
40
0.500000000000001
40
1
40
1
40
1
40
1
41
1
10
50.6135166564975
20
-3.00385107067206
30
0
41
1
10
50.6420141520123
20
-2.9524555652701
30
0
41
1
10
50.6706238454969
20
-2.9006437244762
30
0
41
1
10
50.7281188830592
20
-2.7961970686265
30
0
41
1
10
50.75702643272
20
-2.74352675269492
30
0
41
1
10
50.844207352929
20
-2.58448076392634
30
0
41
1
10
50.9029650507411
20
-2.47700683448807
30
0
41
1
10
50.9624022878684
20
-2.36865173321135
30
0
0
SPLINE
5
146
100
AcDbEntity
8
1
62
256
6
ByLayer
370
18
48
1
60
0
100
AcDbSpline
70
4
71
3
72
28
73
24
40
0
40
0
40
0
40
0
40
0.125000000000129
40
0.125000000000129
40
0.18750000000016
40
0.18750000000016
40
0.250000000000191
40
0.250000000000191
40
0.375000000000253
40
0.375000000000253
40
0.500000000000315
40
0.500000000000315
40
0.562500000000304
40
0.562500000000304
40
0.625000000000293
40
0.625000000000293
40
0.750000000000271
40
0.750000000000271
40
0.81250000000022
40
0.81250000000022
40
0.875000000000171
40
0.875000000000171
40
1
40
1
40
1
40
1
41
1
10
50.9624022878684
20
-2.36865173321135
30
0
41
1
10
50.970135193198
20
-2.35455451435266
30
0
41
1
10
50.9792316990044
20
-2.34205523550219
30
0
41
1
10
50.9943661404924
20
-2.32504295457045
30
0
41
1
10
50.9996993667962
20
-2.31964367626023
30
0
41
1
10
51.0105992135712
20
-2.30961684583227
30
0
41
1
10
51.0161811834023
20
-2.30496585350917
30
0
41
1
10
51.0332759250616
20
-2.29197992589459
30
0
41
1
10
51.0451567651764
20
-2.28458770336033
30
0
41
1
10
51.0696383993638
20
-2.27219641614855
30
0
41
1
10
51.0819610621475
20
-2.26733444593353
30
0
41
1
10
51.1005240565059
20
-2.26190991705565
30
0
41
1
10
51.1067250229623
20
-2.26041659859175
30
0
41
1
10
51.1191475634685
20
-2.25807835735671
30
0
41
1
10
51.125371901913
20
-2.25723726198072
30
0
41
1
10
51.1437042215533
20
-2.25576376919696
30
0
41
1
10
51.1555967884158
20
-2.25613591330614
30
0
41
1
10
51.1728448225479
20
-2.25895261327096
30
0
41
1
10
51.1784948270241
20
-2.26027167976599
30
0
41
1
10
51.1895631883532
20
-2.26377799136409
30
0
41
1
10
51.1949788348529
20
-2.26597418546683
30
0
41
1
10
51.210322308752
20
-2.27383737311683
30
0
41
1
10
51.2195451282146
20
-2.28076443318355
30
0
41
1
10
51.2273708879674
20
-2.29007087180781
30
0
0
SPLINE
5
147
100
AcDbEntity
8
1
62
256
6
ByLayer
370
18
48
1
60
0
100
AcDbSpline
70
4
71
3
72
12
73
8
40
0
40
0
40
0
40
0
40
0.5
40
0.5
40
0.75
40
0.75
40
1
40
1
40
1
40
1
41
1
10
51.2273708879674
20
-2.29007087180787
30
0
41
1
10
51.2864435570478
20
-2.36032043051259
30
0
41
1
10
51.3449384565541
20
-2.42635283194122
30
0
41
1
10
51.4317929733248
20
-2.51871899765916
30
0
41
1
10
51.460618002924
20
-2.54841912976167
30
0
41
1
10
51.5179389729316
20
-2.60552139092752
30
0
41
1
10
51.5464436817596
20
-2.63293374494921
30
0
41
1
10
51.5748181998498
20
-2.65921162846698
30
0
0
SPLINE
5
148
100
AcDbEntity
8
1
62
256
6
ByLayer
370
18
48
1
60
0
100
AcDbSpline
70
4
71
3
72
8
73
4
40
0
40
0
40
0
40
0
40
1
40
1
40
1
40
1
41
1
10
51.6705817539687
20
-2.60865291906248
30
0
41
1
10
51.6386450892484
20
-2.62599219819074
30
0
41
1
10
51.606724600134
20
-2.6428443011053
30
0
41
1
10
51.5748181998498
20
-2.65921162846701
30
0
0
SPLINE
5
149
100
AcDbEntity
8
1
62
256
6
ByLayer
370
18
48
1
60
0
100
AcDbSpline
70
4
71
3
72
10
73
6
40
0
40
0
40
0
40
0
40
0.5
40
0.5
40
1
40
1
40
1
40
1
41
1
10
51.6705817539687
20
-2.60865291906276
30
0
41
1
10
51.7276474915819
20
-2.49733680929651
30
0
41
1
10
51.7852081984855
20
-2.38636003979028
30
0
41
1
10
51.9017063291574
20
-2.16538751550797
30
0
41
1
10
51.9604021945963
20
-2.0558097923498
30
0
41
1
10
52.0198153943465
20
-1.9473247407382
30
0
0
SPLINE
5
14A
100
AcDbEntity
8
1
62
256
6
ByLayer
370
18
48
1
60
0
100
AcDbSpline
70
4
71
3
72
8
73
4
40
0
40
0
40
0
40
0
40
1
40
1
40
1
40
1
41
1
10
56.0338653790202
20
-0.463725972456501
30
0
41
1
10
56.0005350292175
20
-0.410851061794659
30
0
41
1
10
55.9670498096451
20
-0.359398902394247
30
0
41
1
10
55.9333738259503
20
-0.309372899658371
30
0
0
SPLINE
5
14B
100
AcDbEntity
8
1
62
256
6
ByLayer
370
18
48
1
60
0
100
AcDbSpline
70
4
71
3
72
28
73
24
40
0
40
0
40
0
40
0
40
0.124999999999968
40
0.124999999999968
40
0.249999999999937
40
0.249999999999937
40
0.374999999999905
40
0.374999999999905
40
0.499999999999874
40
0.499999999999874
40
0.624999999999842
40
0.624999999999842
40
0.687499999999868
40
0.687499999999868
40
0.749999999999895
40
0.749999999999895
40
0.812499999999921
40
0.812499999999921
40
0.874999999999947
40
0.874999999999947
40
0.937499999999974
40
0.937499999999974
40
1
40
1
40
1
40
1
41
1
10
55.9333738259498
20
-0.309372899657234
30
0
41
1
10
55.9262192271113
20
-0.29874467319425
30
0
41
1
10
55.9179251199122
20
-0.287872616318111
30
0
41
1
10
55.8995769752755
20
-0.265773542837991
30
0
41
1
10
55.8894303201604
20
-0.254463497924064
30
0
41
1
10
55.8682207219408
20
-0.232261838404042
30
0
41
1
10
55.857093701145
20
-0.221291498865355
30
0
41
1
10
55.8338601019102
20
-0.199569557941004
30
0
41
1
10
55.8216392995848
20
-0.188725523062715
30
0
41
1
10
55.7970288284192
20
-0.167938688913722
30
0
41
1
10
55.7845851144909
20
-0.157933736315499
30
0
41
1
10
55.7657261289507
20
-0.143537904630762
30
0
41
1
10
55.759407159835
20
-0.138842331276436
30
0
41
1
10
55.746700669741
20
-0.129680548286643
30
0
41
1
10
55.7403332904179
20
-0.125231112761327
30
0
41
1
10
55.7278709056322
20
-0.116825983198765
30
0
41
1
10
55.7217370923726
20
-0.112841879062188
30
0
41
1
10
55.7097035218558
20
-0.10536687130562
30
0
41
1
10
55.7037608868653
20
-0.101851911095196
30
0
41
1
10
55.6925054623015
20
-0.0956011550031235
30
0
41
1
10
55.6871663169599
20
-0.0928458658948728
30
0
41
1
10
55.677161343766
20
-0.0882008747035741
30
0
41
1
10
55.6724898692889
20
-0.0863151177243253
30
0
41
1
10
55.6683735021974
20
-0.085014326494445
30
0
0
SPLINE
5
14C
100
AcDbEntity
8
1
62
256
6
ByLayer
370
18
48
1
60
0
100
AcDbSpline
70
4
71
3
72
8
73
4
40
0
40
0
40
0
40
0
40
1
40
1
40
1
40
1
41
1
10
55.6683735021915
20
-0.0850143264934218
30
0
41
1
10
55.6125355368616
20
-0.0673692686144136
30
0
41
1
10
55.5570157215252
20
-0.0441984330358594
30
0
41
1
10
55.5019058582694
20
-0.0158747984117156
30
0
0
SPLINE
5
14D
100
AcDbEntity
8
1
62
256
6
ByLayer
370
18
48
1
60
0
100
AcDbSpline
70
4
71
3
72
8
73
4
40
0
40
0
40
0
40
0
40
1
40
1
40
1
40
1
41
1
10
55.5019058582691
20
-0.015874798411744
30
0
41
1
10
55.3681854521059
20
0.103143867059515
30
0
41
1
10
55.2363451841207
20
0.224792651400293
30
0
41
1
10
55.1056178761618
20
0.348263079011673
30
0
0
SPLINE
5
14E
100
AcDbEntity
8
1
62
256
6
ByLayer
370
18
48
1
60
0
100
AcDbSpline
70
4
71
3
72
10
73
6
40
0
40
0
40
0
40
0
40
0.5
40
0.5
40
1
40
1
40
1
40
1
41
1
10
55.1056178761618
20
0.348263079011673
30
0
41
1
10
55.0677106844079
20
0.392463787032909
30
0
41
1
10
55.0295586800209
20
0.434468461688795
30
0
41
1
10
54.9529398664329
20
0.513573499755466
30
0
41
1
10
54.9144379860558
20
0.550709169201951
30
0
41
1
10
54.8756620441636
20
0.585321410882159
30
0
0
SPLINE
5
14F
100
AcDbEntity
8
1
62
256
6
ByLayer
370
18
48
1
60
0
100
AcDbSpline
70
4
71
3
72
28
73
24
40
0
40
0
40
0
40
0
40
0.125
40
0.125
40
0.25
40
0.25
40
0.375
40
0.375
40
0.499999999999999
40
0.499999999999999
40
0.624999999999999
40
0.624999999999999
40
0.687499999999999
40
0.687499999999999
40
0.749999999999999
40
0.749999999999999
40
0.8125
40
0.8125
40
0.875
40
0.875
40
0.9375
40
0.9375
40
1
40
1
40
1
40
1
41
1
10
54.8756620441635
20
0.585321410882187
30
0
41
1
10
54.8685119134905
20
0.591703771666317
30
0
41
1
10
54.8602252990741
20
0.598867131201189
30
0
41
1
10
54.8418936412541
20
0.614363042679912
30
0
41
1
10
54.8317555098216
20
0.622771326565584
30
0
41
1
10
54.8105625010172
20
0.640096827312306
30
0
41
1
10
54.7994441576171
20
0.649064145536528
30
0
41
1
10
54.7762229909647
20
0.667616171126269
30
0
41
1
10
54.7640052078523
20
0.67729231071101
30
0
41
1
10
54.7393928178058
20
0.696724217751751
30
0
41
1
10
54.7269445625181
20
0.706523834291062
30
0
41
1
10
54.708074564851
20
0.72142254454468
30
0
41
1
10
54.7017512700443
20
0.726422269552984
30
0
41
1
10
54.6890356218524
20
0.736508303527955
30
0
41
1
10
54.6826625277113
20
0.741579557847274
30
0
41
1
10
54.6701918387013
20
0.751555981152507
30
0
41
1
10
54.6640550079672
20
0.756491983964196
30
0
41
1
10
54.6520188640602
20
0.766257335067877
30
0
41
1
10
54.6460757933884
20
0.771123381454828
30
0
41
1
10
54.6348200546578
20
0.78045413116277
30
0
41
1
10
54.6294819478273
20
0.784938760271814
30
0
41
1
10
54.6194809549231
20
0.79348524498738
30
0
41
1
10
54.614811353865
20
0.797554432009434
30
0
41
1
10
54.6106968754826
20
0.801232629517699
30
0
0
SPLINE
5
150
100
AcDbEntity
8
1
62
256
6
ByLayer
370
18
48
1
60
0
100
AcDbSpline
70
4
71
3
72
12
73
8
40
0
40
0
40
0
40
0
40
0.499999999999984
40
0.499999999999984
40
0.749999999999992
40
0.749999999999992
40
1
40
1
40
1
40
1
41
1
10
54.6106968754788
20
0.801232629516306
30
0
41
1
10
54.5562325640227
20
0.849921789129809
30
0
41
1
10
54.5020747475784
20
0.903249901235029
30
0
41
1
10
54.4214376289059
20
0.989548738973156
30
0
41
1
10
54.394646963721
20
1.01938094386975
30
0
41
1
10
54.3413326406947
20
1.08095762501907
30
0
41
1
10
54.314795140376
20
1.11271630941732
30
0
41
1
10
54.2883574342228
20
1.14541322670374
30
0
0
SPLINE
5
151
100
AcDbEntity
8
1
62
256
6
ByLayer
370
18
48
1
60
0
100
AcDbSpline
70
4
71
3
72
8
73
4
40
0
40
0
40
0
40
0
40
1
40
1
40
1
40
1
41
1
10
54.2883574342228
20
1.14541322670374
30
0
41
1
10
54.2492471364269
20
1.18426239998527
30
0
41
1
10
54.210305221712
20
1.2229689707188
30
0
41
1
10
54.1715105152999
20
1.26151642261408
30
0
0
SPLINE
5
152
100
AcDbEntity
8
1
62
256
6
ByLayer
370
18
48
1
60
0
100
AcDbSpline
70
4
71
3
72
10
73
6
40
0
40
0
40
0
40
0
40
0.5
40
0.5
40
1
40
1
40
1
40
1
41
1
10
54.1715105152999
20
1.26151642261408
30
0
41
1
10
54.1135078267074
20
1.29743906645669
30
0
41
1
10
54.0551220942716
20
1.32733790289962
30
0
41
1
10
53.937235845061
20
1.37471315778649
30
0
41
1
10
53.8779810979859
20
1.39209306100841
30
0
41
1
10
53.8181208495711
20
1.40290414649695
30
0
0
SPLINE
5
153
100
AcDbEntity
8
1
62
256
6
ByLayer
370
18
48
1
60
0
100
AcDbSpline
70
4
71
3
72
28
73
24
40
0
40
0
40
0
40
0
40
0.125
40
0.125
40
0.25
40
0.25
40
0.375
40
0.375
40
0.499999999999999
40
0.499999999999999
40
0.624999999999999
40
0.624999999999999
40
0.687499999999999
40
0.687499999999999
40
0.749999999999999
40
0.749999999999999
40
0.812499999999999
40
0.812499999999999
40
0.875
40
0.875
40
0.9375
40
0.9375
40
1
40
1
40
1
40
1
41
1
10
53.8181208495711
20
1.40290414649675
30
0
41
1
10
53.8109650270888
20
1.40419652684335
30
0
41
1
10
53.8026722119685
20
1.40671280424553
30
0
41
1
10
53.7843300620215
20
1.41359109660252
30
0
41
1
10
53.7741884653854
20
1.4180123320518
30
0
41
1
10
53.7529950433645
20
1.42823553106297
30
0
41
1
10
53.7418804138761
20
1.43405467706711
30
0
41
1
10
53.7186722193929
20
1.44707914864389
30
0
41
1
10
53.7064636541102
20
1.45436286064273
30
0
41
1
10
53.6818653987525
20
1.46999619408567
30
0
41
1
10
53.6694236619287
20
1.47836529030485
30
0
41
1
10
53.6505610654624
20
1.49191304136303
30
0
41
1
10
53.644239840205
20
1.49659622085784
30
0
41
1
10
53.6315274433414
20
1.50635639044975
30
0
41
1
10
53.6251501299699
20
1.51142554814871
30
0
41
1
10
53.612671515323
20
1.52174780803011
30
0
41
1
10
53.606530347686
20
1.52703079832909
30
0
41
1
10
53.594483762502
20
1.53788869454146
30
0
41
1
10
53.5885337314089
20
1.54350952382598
30
0
41
1
10
53.5772599118126
20
1.55478125716698
30
0
41
1
10
53.5719121710339
20
1.56044876012933
30
0
41
1
10
53.5618916553234
20
1.57185702096928
30
0
41
1
10
53.5572122684877
20
1.57761503186364
30
0
41
1
10
53.5530898116732
20
1.58322251115584
30
0
0
SPLINE
5
154
100
AcDbEntity
8
1
62
256
6
ByLayer
370
18
48
1
60
0
100
AcDbSpline
70
4
71
3
72
12
73
8
40
0
40
0
40
0
40
0
40
0.499999999999999
40
0.499999999999999
40
0.749999999999999
40
0.749999999999999
40
1
40
1
40
1
40
1
41
1
10
53.5530898116685
20
1.58322251115837
30
0
41
1
10
53.4956054731729
20
1.6614142915127
30
0
41
1
10
53.4384544580014
20
1.74327567808729
30
0
41
1
10
53.3533993507305
20
1.87090550882124
30
0
41
1
10
53.3251551336381
20
1.91425417733768
30
0
41
1
10
53.2689611294939
20
2.00231058855428
30
0
41
1
10
53.2409951708561
20
2.04704454038244
30
0
41
1
10
53.2131379074473
20
2.09245904612232
30
0
0
SPLINE
5
155
100
AcDbEntity
8
1
62
256
6
ByLayer
370
18
48
1
60
0
100
AcDbSpline
70
4
71
3
72
10
73
6
40
0
40
0
40
0
40
0
40
0.5
40
0.5
40
1
40
1
40
1
40
1
41
1
10
53.1176260291714
20
2.16414828457644
30
0
41
1
10
53.0590861707533
20
2.15589362442884
30
0
41
1
10
53.0001281132395
20
2.14140821038305
30
0
41
1
10
52.8809881257613
20
2.09974981757526
30
0
41
1
10
52.821061144595
20
2.07267278778184
30
0
41
1
10
52.7605305502271
20
2.03911742996863
30
0
0
SPLINE
5
156
100
AcDbEntity
8
1
62
256
6
ByLayer
370
18
48
1
60
0
100
AcDbSpline
70
4
71
3
72
28
73
24
40
0
40
0
40
0
40
0
40
0.124999999999968
40
0.124999999999968
40
0.249999999999937
40
0.249999999999937
40
0.374999999999905
40
0.374999999999905
40
0.499999999999873
40
0.499999999999873
40
0.624999999999842
40
0.624999999999842
40
0.687499999999868
40
0.687499999999868
40
0.749999999999895
40
0.749999999999895
40
0.812499999999921
40
0.812499999999921
40
0.874999999999947
40
0.874999999999947
40
0.937499999999974
40
0.937499999999974
40
1
40
1
40
1
40
1
41
1
10
52.7605305502272
20
2.03911742996846
30
0
41
1
10
52.7533605814398
20
2.03514273137705
30
0
41
1
10
52.7450500365545
20
2.032680449737
30
0
41
1
10
52.7266694949433
20
2.03004262628036
30
0
41
1
10
52.7165061991589
20
2.02990303616645
30
0
41
1
10
52.6952747693301
20
2.03169790005845
30
0
41
1
10
52.6841443307952
20
2.03361272002843
30
0
41
1
10
52.6609145525922
20
2.03941739089632
30
0
41
1
10
52.6487008536394
20
2.04336129118852
30
0
41
1
10
52.6241024324255
20
2.05315496643473
30
0
41
1
10
52.6116636800743
20
2.05899936641623
30
0
41
1
10
52.5928112879449
20
2.06942327824103
30
0
41
1
10
52.5864944476493
20
2.07317681802613
30
0
41
1
10
52.5737935137009
20
2.08133259609309
30
0
41
1
10
52.5674280480449
20
2.08572769824994
30
0
41
1
10
52.5549717530401
20
2.09502934515655
30
0
41
1
10
52.5488422251327
20
2.09995924530605
30
0
41
1
10
52.536818329882
20
2.11047028809878
30
0
41
1
10
52.5308800405804
20
2.11609985217174
30
0
41
1
10
52.5196282902984
20
2.12781441877721
30
0
41
1
10
52.5142902672141
20
2.13391237387745
30
0
41
1
10
52.5042865648896
20
2.14667040535852
30
0
41
1
10
52.4996138122505
20
2.15335570693244
30
0
41
1
10
52.4954958070547
20
2.16015394303244
30
0
0
SPLINE
5
157
100
AcDbEntity
8
1
62
256
6
ByLayer
370
18
48
1
60
0
100
AcDbSpline
70
4
71
3
72
12
73
8
40
0
40
0
40
0
40
0
40
0.500000000000001
40
0.500000000000001
40
0.75
40
0.75
40
1
40
1
40
1
40
1
41
1
10
52.4954958070525
20
2.16015394303403
30
0
41
1
10
52.4381331379415
20
2.25485148454481
30
0
41
1
10
52.3811042077118
20
2.35136866599356
30
0
41
1
10
52.2962083709614
20
2.49810280805011
30
0
41
1
10
52.2680137120745
20
2.54734583909431
30
0
41
1
10
52.2119117565442
20
2.64624797490674
30
0
41
1
10
52.1839882237814
20
2.69593508744538
30
0
41
1
10
52.1561700343331
20
2.74584355590329
30
0
0
SPLINE
5
158
100
AcDbEntity
8
1
62
256
6
ByLayer
370
18
48
1
60
0
100
AcDbSpline
70
4
71
3
72
10
73
6
40
0
40
0
40
0
40
0
40
0.5
40
0.5
40
1
40
1
40
1
40
1
41
1
10
52.059724307991
20
2.78872368642348
30
0
41
1
10
52.0012721539334
20
2.73693083892084
30
0
41
1
10
51.9423797449361
20
2.67952896363684
30
0
41
1
10
51.82335213585
20
2.55354493705303
30
0
41
1
10
51.7634744517945
20
2.48523693145231
30
0
41
1
10
51.7029901894793
20
2.4114943137287
30
0
0
SPLINE
5
159
100
AcDbEntity
8
1
62
256
6
ByLayer
370
18
48
1
60
0
100
AcDbSpline
70
4
71
3
72
28
73
24
40
0
40
0
40
0
40
0
40
0.125
40
0.125
40
0.250000000000001
40
0.250000000000001
40
0.375000000000001
40
0.375000000000001
40
0.500000000000001
40
0.500000000000001
40
0.625000000000002
40
0.625000000000002
40
0.687500000000001
40
0.687500000000001
40
0.750000000000001
40
0.750000000000001
40
0.812500000000001
40
0.812500000000001
40
0.875000000000001
40
0.875000000000001
40
0.9375
40
0.9375
40
1
40
1
40
1
40
1
41
1
10
51.7029901894793
20
2.4114943137287
30
0
41
1
10
51.6958214484038
20
2.40275416029942
30
0
41
1
10
51.6875107511115
20
2.39561145461954
30
0
41
1
10
51.6691269273161
20
2.38375103667161
30
0
41
1
10
51.6589596712821
20
2.37904009225704
30
0
41
1
10
51.6377192350201
20
2.37211650321041
30
0
41
1
10
51.6265838378367
20
2.36984844838332
30
0
41
1
10
51.603346995642
20
2.36762023539751
30
0
41
1
10
51.5911312022407
20
2.36768369137309
30
0
41
1
10
51.5665323820535
20
2.37031527219446
30
0
41
1
10
51.5540939285931
20
2.3728526805634
30
0
41
1
10
51.5352435491694
20
2.37876747672652
30
0
41
1
10
51.5289276598627
20
2.38109395043185
30
0
41
1
10
51.5162296711373
20
2.38656714723041
30
0
41
1
10
51.5098702689742
20
2.3897102303325
30
0
41
1
10
51.497424498941
20
2.3967668183831
30
0
41
1
10
51.4913001802921
20
2.40069465618924
30
0
41
1
10
51.4792863321604
20
2.40947717012517
30
0
41
1
10
51.4733534584716
20
2.41437634326988
30
0
41
1
10
51.4621132692324
20
2.42499606425159
30
0
41
1
10
51.4567802778977
20
2.43072470201841
30
0
41
1
10
51.4467851667871
20
2.4431606509977
30
0
41
1
10
51.4421164097035
20
2.44989665711466
30
0
41
1
10
51.4380012346935
20
2.45699431888494
30
0
0
SPLINE
5
15A
100
AcDbEntity
8
1
62
256
6
ByLayer
370
18
48
1
60
0
100
AcDbSpline
70
4
71
3
72
12
73
8
40
0
40
0
40
0
40
0
40
0.500000000000015
40
0.500000000000015
40
0.750000000000007
40
0.750000000000007
40
1
40
1
40
1
40
1
41
1
10
51.4380012346912
20
2.45699431888872
30
0
41
1
10
51.3806226349069
20
2.55595824950103
30
0
41
1
10
51.3235798871724
20
2.65467000547952
30
0
41
1
10
51.2386594287295
20
2.80164306488717
30
0
41
1
10
51.2104560405424
20
2.85045718298358
30
0
41
1
10
51.1543339048135
20
2.94751003082146
30
0
41
1
10
51.1263988825953
20
2.99577690399462
30
0
41
1
10
51.0985677866518
20
3.04377851401384
30
0
0
SPLINE
5
15B
100
AcDbEntity
8
1
62
256
6
ByLayer
370
18
48
1
60
0
100
AcDbSpline
70
4
71
3
72
10
73
6
40
0
40
0
40
0
40
0
40
0.5
40
0.5
40
1
40
1
40
1
40
1
41
1
10
51.0020659770332
20
3.05152386343033
30
0
41
1
10
50.9436123048458
20
2.96288933876534
30
0
41
1
10
50.8847603937186
20
2.87018429190775
30
0
41
1
10
50.7657782570979
20
2.67649146067944
30
0
41
1
10
50.7058923441939
20
2.5758994716075
30
0
41
1
10
50.6453764683155
20
2.47157739056365
30
0
0
SPLINE
5
15C
100
AcDbEntity
8
1
62
256
6
ByLayer
370
18
48
1
60
0
100
AcDbSpline
70
4
71
3
72
28
73
24
40
0
40
0
40
0
40
0
40
0.124999999999968
40
0.124999999999968
40
0.249999999999936
40
0.249999999999936
40
0.374999999999905
40
0.374999999999905
40
0.499999999999873
40
0.499999999999873
40
0.624999999999841
40
0.624999999999841
40
0.687499999999867
40
0.687499999999867
40
0.749999999999894
40
0.749999999999894
40
0.812499999999921
40
0.812499999999921
40
0.874999999999947
40
0.874999999999947
40
0.937499999999973
40
0.937499999999973
40
1
40
1
40
1
40
1
41
1
10
50.6453764683155
20
2.47157739056368
30
0
41
1
10
50.6382100108895
20
2.45922328114125
30
0
41
1
10
50.6299008177004
20
2.44834107829021
30
0
41
1
10
50.6115174274239
20
2.42882194095233
30
0
41
1
10
50.6013484225689
20
2.42016148760405
30
0
41
1
10
50.5801019371972
20
2.4054353683805
30
0
41
1
10
50.5689624684432
20
2.39928606863208
30
0
41
1
10
50.545717634056
20
2.38932458569011
30
0
41
1
10
50.533498173774
20
2.38550337265585
30
0
41
1
10
50.5088933512664
20
2.38063973027744
30
0
41
1
10
50.4964516320083
20
2.37954462217289
30
0
41
1
10
50.4775967871568
20
2.38018761629578
30
0
41
1
10
50.4712795080951
20
2.38078659662241
30
0
41
1
10
50.4585794350984
20
2.38286922515653
30
0
41
1
10
50.4522220826541
20
2.38435523030594
30
0
41
1
10
50.4397794153386
20
2.38825486460473
30
0
41
1
10
50.4336567952728
20
2.39067247607798
30
0
41
1
10
50.421646503525
20
2.39658909132697
30
0
41
1
10
50.4157159251095
20
2.40012317799483
30
0
41
1
10
50.4044818583632
20
2.40827173013039
30
0
41
1
10
50.3991517978831
20
2.41288787363544
30
0
41
1
10
50.3891621713139
20
2.42338611849607
30
0
41
1
10
50.3844964290923
20
2.42929677571448
30
0
41
1
10
50.3803836542178
20
2.43576940931433
30
0
0
SPLINE
5
15D
100
AcDbEntity
8
1
62
256
6
ByLayer
370
18
48
1
60
0
100
AcDbSpline
70
4
71
3
72
12
73
8
40
0
40
0
40
0
40
0
40
0.500000000000015
40
0.500000000000015
40
0.750000000000007
40
0.750000000000007
40
1
40
1
40
1
40
1
41
1
10
50.3803836542155
20
2.43576940931982
30
0
41
1
10
50.3229566822534
20
2.5261472587373
30
0
41
1
10
50.2658712933813
20
2.61419405397302
30
0
41
1
10
50.1808930049887
20
2.74225878497725
30
0
41
1
10
50.1526712443239
20
2.7842848551399
30
0
41
1
10
50.0965119599221
20
2.86685316803027
30
0
41
1
10
50.0685582681429
20
2.90741993261275
30
0
41
1
10
50.040707820038
20
2.94727578238511
30
0
0
SPLINE
5
15E
100
AcDbEntity
8
1
62
256
6
ByLayer
370
18
48
1
60
0
100
AcDbSpline
70
4
71
3
72
8
73
4
40
0
40
0
40
0
40
0
40
1
40
1
40
1
40
1
41
1
10
49.9443818726363
20
2.91889880161617
30
0
41
1
10
49.9765008692631
20
2.92889296521412
30
0
41
1
10
50.0086063310973
20
2.93835241755596
30
0
41
1
10
50.0407078200381
20
2.94727578238502
30
0
0
SPLINE
5
15F
100
AcDbEntity
8
1
62
256
6
ByLayer
370
18
48
1
60
0
100
AcDbSpline
70
4
71
3
72
10
73
6
40
0
40
0
40
0
40
0
40
0.5
40
0.5
40
1
40
1
40
1
40
1
41
1
10
49.9443818726364
20
2.91889880161614
30
0
41
1
10
49.8858650465831
20
2.80482617502011
30
0
41
1
10
49.8269633786382
20
2.68864529611753
30
0
41
1
10
49.7079742346916
20
2.45218466494308
30
0
41
1
10
49.6481474955822
20
2.33241335657669
30
0
41
1
10
49.5877020359655
20
2.21113678559232
30
0
0
SPLINE
5
160
100
AcDbEntity
8
1
62
256
6
ByLayer
370
18
48
1
60
0
100
AcDbSpline
70
4
71
3
72
28
73
24
40
0
40
0
40
0
40
0
40
0.125
40
0.125
40
0.249999999999999
40
0.249999999999999
40
0.374999999999999
40
0.374999999999999
40
0.499999999999999
40
0.499999999999999
40
0.624999999999998
40
0.624999999999998
40
0.687499999999999
40
0.687499999999999
40
0.749999999999999
40
0.749999999999999
40
0.812499999999999
40
0.812499999999999
40
0.874999999999999
40
0.874999999999999
40
0.9375
40
0.9375
40
1
40
1
40
1
40
1
41
1
10
49.5877020359655
20
2.21113678559229
30
0
41
1
10
49.5805472566294
20
2.19678157827747
30
0
41
1
10
49.572254066714
20
2.18358078715269
30
0
41
1
10
49.5539061197298
20
2.15894840442891
30
0
41
1
10
49.5437570816888
20
2.14746699524906
30
0
41
1
10
49.5225433733916
20
2.12685039550251
30
0
41
1
10
49.5114173820257
20
2.11761497101023
30
0
41
1
10
49.4881899902763
20
2.10120447816911
30
0
41
1
10
49.475973030735
20
2.09398801964923
30
0
41
1
10
49.45136238318
20
2.0822530870206
30
0
41
1
10
49.4389141106141
20
2.07766745260102
30
0
41
1
10
49.4200468660556
20
2.07295997934349
30
0
41
1
10
49.4137250975717
20
2.07175606269124
30
0
41
1
10
49.4010156009522
20
2.07018402001091
30
0
41
1
10
49.3946490589996
20
2.06982506998375
30
0
41
1
10
49.3821923917488
20
2.07007424613533
30
0
41
1
10
49.3760637089947
20
2.07067539473431
30
0
41
1
10
49.3640432001662
20
2.07297520449805
30
0
41
1
10
49.3581076479425
20
2.07469549837822
30
0
41
1
10
49.346864137445
20
2.07933952948937
30
0
41
1
10
49.34153099013
20
2.08225680671245
30
0
41
1
10
49.331538016069
20
2.08948001251437
30
0
41
1
10
49.326871112277
20
2.09381210352285
30
0
41
1
10
49.3227580742713
20
2.09883287858105
30
0
0
SPLINE
5
161
100
AcDbEntity
8
1
62
256
6
ByLayer
370
18
48
1
60
0
100
AcDbSpline
70
4
71
3
72
8
73
4
40
0
40
0
40
0
40
0
40
1
40
1
40
1
40
1
41
1
10
49.3227580742691
20
2.09883287858702
30
0
41
1
10
49.2897091812401
20
2.13917557846247
30
0
41
1
10
49.2567742451535
20
2.17814931889441
30
0
41
1
10
49.2239715637696
20
2.21572432794326
30
0
0
SPLINE
5
162
100
AcDbEntity
8
1
62
256
6
ByLayer
370
18
48
1
60
0
100
AcDbSpline
70
4
71
3
72
12
73
8
40
0
40
0
40
0
40
0
40
0.271020213028445
40
0.271020213028445
40
0.635510106514222
40
0.635510106514222
40
1
40
1
40
1
40
1
41
1
10
49.2149427016712
20
2.22603523455587
30
0
41
1
10
49.193764125445
20
2.25014701807535
30
0
41
1
10
49.1726414622801
20
2.27367373684351
30
0
41
1
10
49.1232540166204
20
2.32745035147278
30
0
41
1
10
49.0950343773431
20
2.35722508146404
30
0
41
1
10
49.0388829442927
20
2.41456274688198
30
0
41
1
10
49.0109346304689
20
2.44214365951802
30
0
41
1
10
48.9830907172263
20
2.4686573973824
30
0
0
SPLINE
5
163
100
AcDbEntity
8
1
62
256
6
ByLayer
370
18
48
1
60
0
100
AcDbSpline
70
4
71
3
72
8
73
4
40
0
40
0
40
0
40
0
40
1
40
1
40
1
40
1
41
1
10
48.8866814224335
20
2.40786113663424
30
0
41
1
10
48.91882810364
20
2.42857537326512
30
0
41
1
10
48.9509616303687
20
2.44884213788055
30
0
41
1
10
48.9830907172263
20
2.46865739738232
30
0
0
SPLINE
5
164
100
AcDbEntity
8
1
62
256
6
ByLayer
370
18
48
1
60
0
100
AcDbSpline
70
4
71
3
72
10
73
6
40
0
40
0
40
0
40
0
40
0.988874785762418
40
0.988874785762418
40
1
40
1
40
1
40
1
41
1
10
48.8866814224335
20
2.40786113663424
30
0
41
1
10
48.8282017723732
20
2.28319019302404
30
0
41
1
10
48.7693410881891
20
2.15864595585592
30
0
41
1
10
48.7092054943072
20
2.032983156082
30
0
41
1
10
48.7085364282806
20
2.0315852313241
30
0
41
1
10
48.707867317213
20
2.03018740759822
30
0
0
SPLINE
5
165
100
AcDbEntity
8
1
62
256
6
ByLayer
370
18
48
1
60
0
100
AcDbSpline
70
4
71
3
72
14
73
10
40
0
40
0
40
0
40
0
40
0.188009955461126
40
0.188009955461126
40
0.45867330364075
40
0.45867330364075
40
0.729336651820375
40
0.729336651820375
40
1
40
1
40
1
40
1
41
1
10
46.6717525393096
20
2.51679996145492
30
0
41
1
10
46.6922014125326
20
2.55199315119975
30
0
41
1
10
46.7125746640917
20
2.58696579175006
30
0
41
1
10
46.762107311633
20
2.67172023252687
30
0
41
1
10
46.7911604300513
20
2.7211984063743
30
0
41
1
10
46.8489735215639
20
2.81907224701436
30
0
41
1
10
46.877754106637
20
2.86750357726797
30
0
41
1
10
46.9350056956217
20
2.96316154952976
30
0
41
1
10
46.9634830095208
20
3.01039872577556
30
0
41
1
10
46.9918376817565
20
3.05703940659052
30
0
0
SPLINE
5
166
100
AcDbEntity
8
1
62
256
6
ByLayer
370
18
48
1
60
0
100
AcDbSpline
70
4
71
3
72
8
73
4
40
0
40
0
40
0
40
0
40
1
40
1
40
1
40
1
41
1
10
47.2858769629304
20
2.72077062885489
30
0
41
1
10
47.3359135734365
20
2.63463264285286
30
0
41
1
10
47.3863440575414
20
2.54700082579623
30
0
41
1
10
47.4373291346633
20
2.45792927489026
30
0
0
SPLINE
5
167
100
AcDbEntity
8
1
62
256
6
ByLayer
370
18
48
1
60
0
100
AcDbSpline
70
4
71
3
72
28
73
24
40
0
40
0
40
0
40
0
40
0.125000000000095
40
0.125000000000095
40
0.18750000000011
40
0.18750000000011
40
0.250000000000125
40
0.250000000000125
40
0.375000000000157
40
0.375000000000157
40
0.500000000000188
40
0.500000000000188
40
0.562500000000204
40
0.562500000000204
40
0.625000000000219
40
0.625000000000219
40
0.750000000000169
40
0.750000000000169
40
0.812500000000144
40
0.812500000000144
40
0.875000000000118
40
0.875000000000118
40
1
40
1
40
1
40
1
41
1
10
47.4373291346633
20
2.45792927489026
30
0
41
1
10
47.4450496425469
20
2.44444145355507
30
0
41
1
10
47.4541321962469
20
2.43276866343351
30
0
41
1
10
47.4692467813569
20
2.41723724774388
30
0
41
1
10
47.4745738702666
20
2.41237597803098
30
0
41
1
10
47.4854649389089
20
2.4034761817922
30
0
41
1
10
47.4910429340565
20
2.3994166552647
30
0
41
1
10
47.5081267401645
20
2.38828136340703
30
0
41
1
10
47.5199986849366
20
2.38222727481479
30
0
41
1
10
47.5444769435866
20
2.37269081658405
30
0
41
1
10
47.55679809507
20
2.36931641375796
30
0
41
1
10
47.5753591939384
20
2.36621477520123
30
0
41
1
10
47.581559597789
20
2.36551117780684
30
0
41
1
10
47.5939813485304
20
2.36478558996225
30
0
41
1
10
47.600207146667
20
2.36476797200183
30
0
41
1
10
47.6185434431914
20
2.36577130845413
30
0
41
1
10
47.6304381576372
20
2.36781795694338
30
0
41
1
10
47.6476902901992
20
2.37319324046561
30
0
41
1
10
47.6533418091731
20
2.37537304821089
30
0
41
1
10
47.6644137984256
20
2.38062018776247
30
0
41
1
10
47.6698316271857
20
2.38369674251811
30
0
41
1
10
47.6851797175742
20
2.39415133025267
30
0
41
1
10
47.6944043312968
20
2.40276745861547
30
0
41
1
10
47.7022304839352
20
2.41370851596005
30
0
0
SPLINE
5
168
100
AcDbEntity
8
1
62
256
6
ByLayer
370
18
48
1
60
0
100
AcDbSpline
70
4
71
3
72
12
73
8
40
0
40
0
40
0
40
0
40
0.500000000000013
40
0.500000000000013
40
0.750000000000006
40
0.750000000000006
40
1
40
1
40
1
40
1
41
1
10
47.7022304839352
20
2.41370851596008
30
0
41
1
10
47.7613486077312
20
2.49635637787262
30
0
41
1
10
47.8198668700375
20
2.57545812447253
30
0
41
1
10
47.9066947783538
20
2.688183472785
30
0
41
1
10
47.9355019324841
20
2.72480185553036
30
0
41
1
10
47.9927600639695
20
2.79593688724097
30
0
41
1
10
48.0212210568733
20
2.8304684187994
30
0
41
1
10
48.0495406857226
20
2.86395902573918
30
0
0
SPLINE
5
169
100
AcDbEntity
8
1
62
256
6
ByLayer
370
18
48
1
60
0
100
AcDbSpline
70
4
71
3
72
8
73
4
40
0
40
0
40
0
40
0
40
1
40
1
40
1
40
1
41
1
10
48.1457163412638
20
2.82682888855371
30
0
41
1
10
48.1136611778015
20
2.83973929045763
30
0
41
1
10
48.0816237263737
20
2.85212227678758
30
0
41
1
10
48.0495406857226
20
2.86395902573921
30
0
0
SPLINE
5
16A
100
AcDbEntity
8
1
62
256
6
ByLayer
370
18
48
1
60
0
100
AcDbSpline
70
4
71
3
72
10
73
6
40
0
40
0
40
0
40
0
40
0.5
40
0.5
40
1
40
1
40
1
40
1
41
1
10
48.1457163412638
20
2.82682888855399
30
0
41
1
10
48.2026364315566
20
2.71724329362823
30
0
41
1
10
48.2600995253013
20
2.60704952010141
30
0
41
1
10
48.3766149143399
20
2.38572843862511
30
0
41
1
10
48.435389602727
20
2.27510930263375
30
0
41
1
10
48.4949346606713
20
2.16466305270094
30
0
0
SPLINE
5
16B
100
AcDbEntity
8
1
62
256
6
ByLayer
370
18
48
1
60
0
100
AcDbSpline
70
4
71
3
72
28
73
24
40
0
40
0
40
0
40
0
40
0.125000000000042
40
0.125000000000042
40
0.187500000000028
40
0.187500000000028
40
0.250000000000013
40
0.250000000000013
40
0.374999999999986
40
0.374999999999986
40
0.499999999999958
40
0.499999999999958
40
0.562499999999943
40
0.562499999999943
40
0.624999999999928
40
0.624999999999928
40
0.749999999999899
40
0.749999999999899
40
0.812499999999924
40
0.812499999999924
40
0.874999999999949
40
0.874999999999949
40
1
40
1
40
1
40
1
41
1
10
48.4949346606713
20
2.16466305270077
30
0
41
1
10
48.5026551930214
20
2.15034274006703
30
0
41
1
10
48.5117369702624
20
2.13726520451615
30
0
41
1
10
48.5268492524859
20
2.11900557989901
30
0
41
1
10
48.5321753513075
20
2.11312106291311
30
0
41
1
10
48.5430644490247
20
2.1020229419789
30
0
41
1
10
48.5486413837906
20
2.09678654247961
30
0
41
1
10
48.5657218115092
20
2.08191081272881
30
0
41
1
10
48.5775899610117
20
2.07308211680586
30
0
41
1
10
48.6020653402458
20
2.05748688883793
30
0
41
1
10
48.6143849799028
20
2.05090096700945
30
0
41
1
10
48.632944189369
20
2.04271061264259
30
0
41
1
10
48.6391440306882
20
2.04026504471824
30
0
41
1
10
48.6515647354786
20
2.03595825107541
30
0
41
1
10
48.6577914758341
20
2.03409902838706
30
0
41
1
10
48.6761304189457
20
2.02953056574683
30
0
41
1
10
48.6880264358405
20
2.02776700769832
30
0
41
1
10
48.7052793319072
20
2.0272508046813
30
0
41
1
10
48.7109309027441
20
2.02743716359601
30
0
41
1
10
48.7220024525238
20
2.02862762933313
30
0
41
1
10
48.7274226649768
20
2.02964072506305
30
0
41
1
10
48.7427760303639
20
2.03397989235236
30
0
41
1
10
48.752001921533
20
2.03855620368591
30
0
41
1
10
48.7598274097822
20
2.04551261728102
30
0
0
SPLINE
5
16C
100
AcDbEntity
8
1
62
256
6
ByLayer
370
18
48
1
60
0
100
AcDbSpline
70
4
71
3
72
12
73
8
40
0
40
0
40
0
40
0
40
0.5
40
0.5
40
0.75
40
0.75
40
1
40
1
40
1
40
1
41
1
10
48.7598274097822
20
2.04551261728113
30
0
41
1
10
48.8188861060189
20
2.09801243637523
30
0
41
1
10
48.8773600137428
20
2.14562602332873
30
0
41
1
10
48.9641569202989
20
2.2094739745715
30
0
41
1
10
48.9929584449298
20
2.22951251798065
30
0
41
1
10
49.0502213018649
20
2.26701939633827
30
0
41
1
10
49.0786916398658
20
2.28449542973053
30
0
41
1
10
49.1070265894195
20
2.30069484924505
30
0
0
SPLINE
5
16D
100
AcDbEntity
8
1
62
256
6
ByLayer
370
18
48
1
60
0
100
AcDbSpline
70
4
71
3
72
12
73
8
40
0
40
0
40
0
40
0
40
0.250000000000006
40
0.250000000000006
40
0.500000000000012
40
0.500000000000012
40
1
40
1
40
1
40
1
41
1
10
49.2029239890239
20
2.23351384970402
30
0
41
1
10
49.2314666081717
20
2.17844305557154
30
0
41
1
10
49.2601309581048
20
2.12371522799438
30
0
41
1
10
49.3177579979137
20
2.01498285433445
30
0
41
1
10
49.346734890955
20
1.96095213081631
30
0
41
1
10
49.4340869880979
20
1.80023602219481
30
0
41
1
10
49.4928832402766
20
1.6948846398968
30
0
41
1
10
49.5523890054411
20
1.59217102551361
30
0
0
SPLINE
5
16E
100
AcDbEntity
8
1
62
256
6
ByLayer
370
18
48
1
60
0
100
AcDbSpline
70
4
71
3
72
28
73
24
40
0
40
0
40
0
40
0
40
0.124999999999969
40
0.124999999999969
40
0.187499999999921
40
0.187499999999921
40
0.249999999999873
40
0.249999999999873
40
0.374999999999853
40
0.374999999999853
40
0.499999999999833
40
0.499999999999833
40
0.562499999999866
40
0.562499999999866
40
0.624999999999898
40
0.624999999999898
40
0.749999999999962
40
0.749999999999962
40
0.812499999999955
40
0.812499999999955
40
0.874999999999948
40
0.874999999999948
40
1
40
1
40
1
40
1
41
1
10
49.5523890054411
20
1.59217102551361
30
0
41
1
10
49.5601258332254
20
1.57881639435485
30
0
41
1
10
49.5692238606032
20
1.56597394665718
30
0
41
1
10
49.5843561011538
20
1.54727510268009
30
0
41
1
10
49.5896879477881
20
1.54110522371877
30
0
41
1
10
49.6005855381091
20
1.52920201260136
30
0
41
1
10
49.606165990362
20
1.52344607528727
30
0
41
1
10
49.6232550671143
20
1.50669732552939
30
0
41
1
10
49.6351264386112
20
1.49620191828396
30
0
41
1
10
49.6596037640946
20
1.47650668737674
30
0
41
1
10
49.6719235849225
20
1.46753502863643
30
0
41
1
10
49.6904812517384
20
1.45527925212332
30
0
41
1
10
49.6966802743398
20
1.4513965042637
30
0
41
1
10
49.7090984969119
20
1.44404312027513
30
0
41
1
10
49.7153245814835
20
1.44057127322941
30
0
41
1
10
49.73366206292
20
1.43098703311585
30
0
41
1
10
49.7455566879898
20
1.4256180626073
30
0
41
1
10
49.7628061465029
20
1.41924102630415
30
0
41
1
10
49.7684563448643
20
1.41739760238494
30
0
41
1
10
49.7795245628319
20
1.41435235880573
30
0
41
1
10
49.7849479932948
20
1.41315527833561
30
0
41
1
10
49.8003126012725
20
1.41077137248698
30
0
41
1
10
49.8095463693772
20
1.41068551687866
30
0
41
1
10
49.8173785441226
20
1.41273168406445
30
0
0
SPLINE
5
16F
100
AcDbEntity
8
1
62
256
6
ByLayer
370
18
48
1
60
0
100
AcDbSpline
70
4
71
3
72
12
73
8
40
0
40
0
40
0
40
0
40
0.5
40
0.5
40
0.75
40
0.75
40
1
40
1
40
1
40
1
41
1
10
49.8173785441226
20
1.41273168406457
30
0
41
1
10
49.8763376589816
20
1.42813483964397
30
0
41
1
10
49.9347271917263
20
1.43793448363238
30
0
41
1
10
50.0214437968277
20
1.44434262738614
30
0
41
1
10
50.0502255851792
20
1.44510030286347
30
0
41
1
10
50.1074673926767
20
1.44388477852567
30
0
41
1
10
50.135935974684
20
1.44191339600536
30
0
41
1
10
50.1642776846801
20
1.43858970568576
30
0
0
SPLINE
5
170
100
AcDbEntity
8
1
62
256
6
ByLayer
370
18
48
1
60
0
100
AcDbSpline
70
4
71
3
72
10
73
6
40
0
40
0
40
0
40
0
40
0.5
40
0.5
40
1
40
1
40
1
40
1
41
1
10
50.2607247356044
20
1.34946802438668
30
0
41
1
10
50.3177674952435
20
1.25369880023555
30
0
41
1
10
50.3752994612119
20
1.16116288918394
30
0
41
1
10
50.4917173487142
20
0.982890774433287
30
0
41
1
10
50.5503801409668
20
0.897525482367456
30
0
41
1
10
50.609741244055
20
0.816160388313023
30
0
0
SPLINE
5
171
100
AcDbEntity
8
1
62
256
6
ByLayer
370
18
48
1
60
0
100
AcDbSpline
70
4
71
3
72
28
73
24
40
0
40
0
40
0
40
0
40
0.12499999999995
40
0.12499999999995
40
0.187499999999958
40
0.187499999999958
40
0.249999999999966
40
0.249999999999966
40
0.374999999999983
40
0.374999999999983
40
0.5
40
0.5
40
0.562500000000008
40
0.562500000000008
40
0.625000000000016
40
0.625000000000016
40
0.750000000000034
40
0.750000000000034
40
0.812500000000042
40
0.812500000000042
40
0.875000000000051
40
0.875000000000051
40
1
40
1
40
1
40
1
41
1
10
50.609741244055
20
0.816160388313051
30
0
41
1
10
50.6175072839436
20
0.805515630498718
30
0
41
1
10
50.6266440412725
20
0.794566619818823
30
0
41
1
10
50.6418347779978
20
0.77781766099676
30
0
41
1
10
50.647185505738
20
0.772146777854516
30
0
41
1
10
50.6581114474344
20
0.760947980371412
30
0
41
1
10
50.6637042262905
20
0.755398467991057
30
0
41
1
10
50.6808228477346
20
0.738876425740358
30
0
41
1
10
50.6927116631072
20
0.728004712398274
30
0
41
1
10
50.7171687041744
20
0.706631389174106
30
0
41
1
10
50.7294730597939
20
0.696359195284799
30
0
41
1
10
50.7480072775768
20
0.681501581072155
30
0
41
1
10
50.7541985007613
20
0.676641929322159
30
0
41
1
10
50.7666026498005
20
0.667108538144589
30
0
41
1
10
50.7728162161418
20
0.66243541154688
30
0
41
1
10
50.7911228940698
20
0.648960181367102
30
0
41
1
10
50.8030053691967
20
0.640600821371407
30
0
41
1
10
50.8202471408585
20
0.629068659405561
30
0
41
1
10
50.8258965482684
20
0.625394173245326
30
0
41
1
10
50.8369665554156
20
0.618428623271058
30
0
41
1
10
50.8423927463804
20
0.615136546904324
30
0
41
1
10
50.8577709908624
20
0.606220734477517
30
0
41
1
10
50.8670205506599
20
0.601407815248109
30
0
41
1
10
50.8748702137487
20
0.5982130164127
30
0
0
SPLINE
5
172
100
AcDbEntity
8
1
62
256
6
ByLayer
370
18
48
1
60
0
100
AcDbSpline
70
4
71
3
72
12
73
8
40
0
40
0
40
0
40
0
40
0.500000000000013
40
0.500000000000013
40
0.750000000000007
40
0.750000000000007
40
1
40
1
40
1
40
1
41
1
10
50.8748702137487
20
0.598213016412842
30
0
41
1
10
50.9339084136751
20
0.574184574652605
30
0
41
1
10
50.9923922915764
20
0.544522787474762
30
0
41
1
10
51.0792662321319
20
0.492050895086947
30
0
41
1
10
51.1081027594874
20
0.473219307799667
30
0
41
1
10
51.1654573071141
20
0.432999681817421
30
0
41
1
10
51.1939839185234
20
0.411607575421101
30
0
41
1
10
51.2223839190742
20
0.388950497406739
30
0
0
SPLINE
5
173
100
AcDbEntity
8
1
62
256
6
ByLayer
370
18
48
1
60
0
100
AcDbSpline
70
4
71
3
72
8
73
4
40
0
40
0
40
0
40
0
40
1
40
1
40
1
40
1
41
1
10
51.3181340153676
20
0.289966299322003
30
0
41
1
10
51.2861977872225
20
0.323022861601856
30
0
41
1
10
51.2542824402519
20
0.356018872754447
30
0
41
1
10
51.2223839190742
20
0.388950497406739
30
0
0
SPLINE
5
174
100
AcDbEntity
8
1
62
256
6
ByLayer
370
18
48
1
60
0
100
AcDbSpline
70
4
71
3
72
10
73
6
40
0
40
0
40
0
40
0
40
0.5
40
0.5
40
1
40
1
40
1
40
1
41
1
10
51.3181340153675
20
0.289966299322032
30
0
41
1
10
51.3751037540241
20
0.220667326345051
30
0
41
1
10
51.4325879622559
20
0.156072709855664
30
0
41
1
10
51.5490379658614
20
0.0365983596133788
30
0
41
1
10
51.607762780556
20
-0.0180675781682851
30
0
41
1
10
51.6672464136856
20
-0.067413914943188
30
0
0
SPLINE
5
175
100
AcDbEntity
8
1
62
256
6
ByLayer
370
18
48
1
60
0
100
AcDbSpline
70
4
71
3
72
28
73
24
40
0
40
0
40
0
40
0
40
0.124999999999901
40
0.124999999999901
40
0.187499999999885
40
0.187499999999885
40
0.249999999999869
40
0.249999999999869
40
0.374999999999838
40
0.374999999999838
40
0.499999999999806
40
0.499999999999806
40
0.562499999999791
40
0.562499999999791
40
0.624999999999775
40
0.624999999999775
40
0.749999999999826
40
0.749999999999826
40
0.812499999999853
40
0.812499999999853
40
0.874999999999879
40
0.874999999999879
40
1
40
1
40
1
40
1
41
1
10
51.6672464136856
20
-0.0674139149432449
30
0
41
1
10
51.6750013752492
20
-0.0738472634940592
30
0
41
1
10
51.6841309083072
20
-0.0813588234007057
30
0
41
1
10
51.699325719878
20
-0.0937898383816105
30
0
41
1
10
51.7046800516167
20
-0.0981598976825921
30
0
41
1
10
51.7156150077837
20
-0.10707087291101
30
0
41
1
10
51.7212144431443
20
-0.111627285045842
30
0
41
1
10
51.738360767205
20
-0.125571772937235
30
0
41
1
10
51.7502908607124
20
-0.135263196465843
30
0
41
1
10
51.7747974839939
20
-0.155223725947508
30
0
41
1
10
51.7871293602046
20
-0.165293897418167
30
0
41
1
10
51.8056990139941
20
-0.1805731118192
30
0
41
1
10
51.8119010520866
20
-0.185695435431171
30
0
41
1
10
51.8243236155581
20
-0.196008552033788
30
0
41
1
10
51.8305288398945
20
-0.201186948688843
30
0
41
1
10
51.8488127063936
20
-0.216546331417874
30
0
41
1
10
51.8606763404406
20
-0.226646959716959
30
0
41
1
10
51.8778864121194
20
-0.241609413522724
30
0
41
1
10
51.8835247319803
20
-0.246564981191966
30
0
41
1
10
51.8945721296626
20
-0.256407532835453
30
0
41
1
10
51.8999495976962
20
-0.261267597451621
30
0
41
1
10
51.9152086884292
20
-0.275296026316028
30
0
41
1
10
51.9243937292367
20
-0.284065475343851
30
0
41
1
10
51.9322013388032
20
-0.291981903448345
30
0
0
SPLINE
5
176
100
AcDbEntity
8
1
62
256
6
ByLayer
370
18
48
1
60
0
100
AcDbSpline
70
4
71
3
72
12
73
8
40
0
40
0
40
0
40
0
40
0.499999999999987
40
0.499999999999987
40
0.749999999999993
40
0.749999999999993
40
1
40
1
40
1
40
1
41
1
10
51.9322013388032
20
-0.291981903448118
30
0
41
1
10
51.991262795803
20
-0.351866529351554
30
0
41
1
10
52.0496710333804
20
-0.416998057943431
30
0
41
1
10
52.1364015055752
20
-0.521590071910509
30
0
41
1
10
52.1651869167003
20
-0.557621518032391
30
0
41
1
10
52.2224514729469
20
-0.631734858528091
30
0
41
1
10
52.2509390744472
20
-0.669827859191003
30
0
41
1
10
52.2793080384731
20
-0.708935187940682
30
0
0
SPLINE
5
177
100
AcDbEntity
8
1
62
256
6
ByLayer
370
18
48
1
60
0
100
AcDbSpline
70
4
71
3
72
10
73
6
40
0
40
0
40
0
40
0
40
0.5
40
0.5
40
1
40
1
40
1
40
1
41
1
10
52.3760295995884
20
-0.807122539169171
30
0
41
1
10
52.4329293466449
20
-0.841264357560533
30
0
41
1
10
52.4903635484852
20
-0.869795551117278
30
0
41
1
10
52.6067300343336
20
-0.915387422447054
30
0
41
1
10
52.6654090014474
20
-0.932375644803983
30
0
41
1
10
52.7248386539995
20
-0.943365005709154
30
0
0
SPLINE
5
178
100
AcDbEntity
8
1
62
256
6
ByLayer
370
18
48
1
60
0
100
AcDbSpline
70
4
71
3
72
28
73
24
40
0
40
0
40
0
40
0
40
0.125
40
0.125
40
0.1875
40
0.1875
40
0.25
40
0.25
40
0.374999999999999
40
0.374999999999999
40
0.499999999999999
40
0.499999999999999
40
0.562500000000041
40
0.562500000000041
40
0.625000000000083
40
0.625000000000083
40
0.750000000000084
40
0.750000000000084
40
0.812500000000046
40
0.812500000000046
40
0.875000000000007
40
0.875000000000007
40
1
40
1
40
1
40
1
41
1
10
52.7248386539995
20
-0.943365005709154
30
0
41
1
10
52.7325802271706
20
-0.944796529164108
30
0
41
1
10
52.7416947526837
20
-0.947935444832865
30
0
41
1
10
52.7568679890842
20
-0.954491645062376
30
0
41
1
10
52.762215394938
20
-0.957012436466584
30
0
41
1
10
52.77313813464
20
-0.962519854257778
30
0
41
1
10
52.7787318737002
20
-0.965512420414314
30
0
41
1
10
52.7958625471094
20
-0.975133313264962
30
0
41
1
10
52.8077832662226
20
-0.98242127105658
30
0
41
1
10
52.8322798512941
20
-0.998496892377574
30
0
41
1
10
52.844609038469
20
-1.00711982403854
30
0
41
1
10
52.86317901833
20
-1.02092263658943
30
0
41
1
10
52.8693818757383
20
-1.02566987816945
30
0
41
1
10
52.881807531245
20
-1.03547433487822
30
0
41
1
10
52.8880157990167
20
-1.04052174889691
30
0
41
1
10
52.9063086398976
20
-1.05586527433968
30
0
41
1
10
52.9181792328756
20
-1.0664469329904
30
0
41
1
10
52.935400607641
20
-1.08295475798059
30
0
41
1
10
52.9410428229479
20
-1.08856414990834
30
0
41
1
10
52.9520979991363
20
-1.10003215741676
30
0
41
1
10
52.957478605245
20
-1.10586138897727
30
0
41
1
10
52.9727438402505
20
-1.12324405622675
30
0
41
1
10
52.9819290601563
20
-1.13484461293549
30
0
41
1
10
52.9897333645463
20
-1.14644044884682
30
0
0
SPLINE
5
179
100
AcDbEntity
8
1
62
256
6
ByLayer
370
18
48
1
60
0
100
AcDbSpline
70
4
71
3
72
12
73
8
40
0
40
0
40
0
40
0
40
0.5
40
0.5
40
0.75
40
0.75
40
1
40
1
40
1
40
1
41
1
10
52.9897333645462
20
-1.14644044884662
30
0
41
1
10
53.0488780314897
20
-1.23431911408574
30
0
41
1
10
53.107434853924
20
-1.32585777018417
30
0
41
1
10
53.1943199008122
20
-1.46794270705595
30
0
41
1
10
53.2231470476054
20
-1.51613458254059
30
0
41
1
10
53.280441092041
20
-1.61391295564476
30
0
41
1
10
53.3089179662892
20
-1.6635144461676
30
0
41
1
10
53.3372532157848
20
-1.71380801619583
30
0
0
SPLINE
5
17A
100
AcDbEntity
8
1
62
256
6
ByLayer
370
18
48
1
60
0
100
AcDbSpline
70
4
71
3
72
10
73
6
40
0
40
0
40
0
40
0
40
0.5
40
0.5
40
1
40
1
40
1
40
1
41
1
10
53.4328644157002
20
-1.79655697846547
30
0
41
1
10
53.4897931160732
20
-1.79147057978855
30
0
41
1
10
53.5473003682945
20
-1.78056700238207
30
0
41
1
10
53.663906513463
20
-1.7469893842416
30
0
41
1
10
53.7227410668217
20
-1.72441138076039
30
0
41
1
10
53.7823659621125
20
-1.69590841837726
30
0
0
SPLINE
5
17B
100
AcDbEntity
8
1
62
256
6
ByLayer
370
18
48
1
60
0
100
AcDbSpline
70
4
71
3
72
28
73
24
40
0
40
0
40
0
40
0
40
0.124999999999931
40
0.124999999999931
40
0.187499999999898
40
0.187499999999898
40
0.249999999999864
40
0.249999999999864
40
0.374999999999874
40
0.374999999999874
40
0.499999999999885
40
0.499999999999885
40
0.562499999999891
40
0.562499999999891
40
0.624999999999896
40
0.624999999999896
40
0.749999999999908
40
0.749999999999908
40
0.812499999999914
40
0.812499999999914
40
0.87499999999992
40
0.87499999999992
40
1
40
1
40
1
40
1
41
1
10
53.7823659621125
20
-1.69590841837729
30
0
41
1
10
53.7901150203772
20
-1.6922040744943
30
0
41
1
10
53.7992393915795
20
-1.69062777948542
30
0
41
1
10
53.8144300792171
20
-1.69056763709534
30
0
41
1
10
53.8197833459832
20
-1.69095080182925
30
0
41
1
10
53.8307152670922
20
-1.69241840082822
30
0
41
1
10
53.8363135828372
20
-1.69349901428856
30
0
41
1
10
53.8534581131786
20
-1.69767145671872
30
0
41
1
10
53.8653936763543
20
-1.70169988452247
30
0
41
1
10
53.8898964787604
20
-1.71197735402643
30
0
41
1
10
53.9022284564435
20
-1.71812176144778
30
0
41
1
10
53.9208021669573
20
-1.72879188591494
30
0
41
1
10
53.9270061887842
20
-1.73259349422128
30
0
41
1
10
53.939433965664
20
-1.74070907261364
30
0
41
1
10
53.9456359763182
20
-1.74501140797778
30
0
41
1
10
53.9639155520706
20
-1.75847371058541
30
0
41
1
10
53.9757780277588
20
-1.76824719488189
30
0
41
1
10
53.9929877580217
20
-1.78428470536122
30
0
41
1
10
53.9986261801041
20
-1.7898622417552
30
0
41
1
10
54.0096738327609
20
-1.80155198811204
30
0
41
1
10
54.0150377753874
20
-1.80762204590727
30
0
41
1
10
54.0302686935663
20
-1.82619674519972
30
0
41
1
10
54.0394355120013
20
-1.8391828516792
30
0
41
1
10
54.0472273140588
20
-1.85300496323671
30
0
0
SPLINE
5
17C
100
AcDbEntity
8
1
62
256
6
ByLayer
370
18
48
1
60
0
100
AcDbSpline
70
4
71
3
72
10
73
6
40
0
40
0
40
0
40
0
40
0.5
40
0.5
40
1
40
1
40
1
40
1
41
1
10
54.0472273140588
20
-1.85300496323654
30
0
41
1
10
54.0923832282547
20
-1.93310839488021
30
0
41
1
10
54.1371987248514
20
-2.01425170209782
30
0
41
1
10
54.2261089952735
20
-2.17807997229269
30
0
41
1
10
54.2702370439407
20
-2.26081368528506
30
0
41
1
10
54.3140027112573
20
-2.34403902867305
30
0
0
SPLINE
5
17D
100
AcDbEntity
8
1
62
256
6
ByLayer
370
18
48
1
60
0
100
AcDbSpline
70
4
71
3
72
8
73
4
40
0
40
0
40
0
40
0
40
1
40
1
40
1
40
1
41
1
10
54.3140027112574
20
-2.34403902867302
30
0
41
1
10
54.4117218158345
20
-2.3868734076635
30
0
41
1
10
54.5093128539047
20
-2.42483692118393
30
0
41
1
10
54.6068719617679
20
-2.45795101945856
30
0
0
SPLINE
5
17E
100
AcDbEntity
8
1
62
256
6
ByLayer
370
18
48
1
60
0
100
AcDbSpline
70
4
71
3
72
10
73
6
40
0
40
0
40
0
40
0
40
0.5
40
0.5
40
1
40
1
40
1
40
1
41
1
10
54.6068719617679
20
-2.45795101945856
30
0
41
1
10
54.6451680030579
20
-2.42421322133333
30
0
41
1
10
54.6837314033065
20
-2.38836601560948
30
0
41
1
10
54.7614103119183
20
-2.31229201372295
30
0
41
1
10
54.8005158593367
20
-2.27207638196524
30
0
41
1
10
54.8399284812521
20
-2.22964935260711
30
0
0
SPLINE
5
17F
100
AcDbEntity
8
1
62
256
6
ByLayer
370
18
48
1
60
0
100
AcDbSpline
70
4
71
3
72
28
73
24
40
0
40
0
40
0
40
0
40
0.125000000000074
40
0.125000000000074
40
0.187500000000109
40
0.187500000000109
40
0.250000000000145
40
0.250000000000145
40
0.375000000000216
40
0.375000000000216
40
0.500000000000288
40
0.500000000000288
40
0.562500000000283
40
0.562500000000283
40
0.625000000000278
40
0.625000000000278
40
0.750000000000185
40
0.750000000000185
40
0.812500000000139
40
0.812500000000139
40
0.875000000000093
40
0.875000000000093
40
1
40
1
40
1
40
1
41
1
10
54.8399284812521
20
-2.22964935260711
30
0
41
1
10
54.8476797000214
20
-2.22130529503761
30
0
41
1
10
54.856801624774
20
-2.21523191273857
30
0
41
1
10
54.8719789551168
20
-2.2085715454098
30
0
41
1
10
54.8773264399211
20
-2.20676811814596
30
0
41
1
10
54.8882475311218
20
-2.20400336582458
30
0
41
1
10
54.8938396693314
20
-2.20302874861673
30
0
41
1
10
54.9109636599169
20
-2.20119573460602
30
0
41
1
10
54.9228745071693
20
-2.20141811181574
30
0
41
1
10
54.9473606109943
20
-2.20451822204308
30
0
41
1
10
54.9596843890602
20
-2.2073581945653
30
0
41
1
10
54.9782463871147
20
-2.21345913377246
30
0
41
1
10
54.9844465933508
20
-2.21580299273563
30
0
41
1
10
54.996866828518
20
-2.2211357697295
30
0
41
1
10
55.003077384284
20
-2.22412439506894
30
0
41
1
10
55.0213738288134
20
-2.23391982173302
30
0
41
1
10
55.0332456489089
20
-2.241588727265
30
0
41
1
10
55.0504658549738
20
-2.255025805651
30
0
41
1
10
55.0561071615598
20
-2.25983023128896
30
0
41
1
10
55.0671591459883
20
-2.27018626393246
30
0
41
1
10
55.0725492603847
20
-2.27572750240501
30
0
41
1
10
55.0878324579438
20
-2.2931106042999
30
0
41
1
10
55.0970258360792
20
-2.30581615431066
30
0
41
1
10
55.1048343548998
20
-2.32008720270781
30
0
0
SPLINE
5
180
100
AcDbEntity
8
1
62
256
6
ByLayer
370
18
48
1
60
0
100
AcDbSpline
70
4
71
3
72
8
73
4
40
0
40
0
40
0
40
0
40
1
40
1
40
1
40
1
41
1
10
55.1048343548998
20
-2.32008720270772
30
0
41
1
10
55.1562471046544
20
-2.4140504570498
30
0
41
1
10
55.2072274103826
20
-2.5077865744492
30
0
41
1
10
55.2577401919719
20
-2.60091033773347
30
0
0
SPLINE
5
181
100
AcDbEntity
8
1
62
256
6
ByLayer
370
18
48
1
60
0
100
AcDbSpline
70
4
71
3
72
12
73
8
40
0
40
0
40
0
40
0
40
0.25
40
0.25
40
0.5
40
0.5
40
1
40
1
40
1
40
1
41
1
10
55.2577401919719
20
-2.60091033773347
30
0
41
1
10
55.3035619537139
20
-2.6055743479389
30
0
41
1
10
55.3496350819983
20
-2.60918062407842
30
0
41
1
10
55.4420499377366
20
-2.61424476069698
30
0
41
1
10
55.4882239509031
20
-2.61569514115678
30
0
41
1
10
55.6266745913304
20
-2.61685537683496
30
0
41
1
10
55.7188761450482
20
-2.61336597565079
30
0
41
1
10
55.8110429294443
20
-2.60574964433229
30
0
0
SPLINE
5
182
100
AcDbEntity
8
1
62
256
6
ByLayer
370
18
48
1
60
0
100
AcDbSpline
70
4
71
3
72
8
73
4
40
0
40
0
40
0
40
0
40
1
40
1
40
1
40
1
41
1
10
55.8110429294443
20
-2.60574964433218
30
0
41
1
10
55.8396240958214
20
-2.56282426261146
30
0
41
1
10
55.8683384876724
20
-2.51916230625642
30
0
41
1
10
55.8972240001312
20
-2.47474027383973
30
0
0
SPLINE
5
183
100
AcDbEntity
8
1
62
256
6
ByLayer
370
18
48
1
60
0
100
AcDbSpline
70
4
71
3
72
28
73
24
40
0
40
0
40
0
40
0
40
0.125000000000011
40
0.125000000000011
40
0.187500000000049
40
0.187500000000049
40
0.250000000000088
40
0.250000000000088
40
0.375000000000088
40
0.375000000000088
40
0.500000000000088
40
0.500000000000088
40
0.562500000000088
40
0.562500000000088
40
0.625000000000088
40
0.625000000000088
40
0.750000000000088
40
0.750000000000088
40
0.812500000000048
40
0.812500000000048
40
0.875000000000009
40
0.875000000000009
40
1
40
1
40
1
40
1
41
1
10
55.8972240001313
20
-2.47474027383973
30
0
41
1
10
55.9050139267433
20
-2.46276041463008
30
0
41
1
10
55.9141845584759
20
-2.45292369798449
30
0
41
1
10
55.9294353309268
20
-2.44048091290856
30
0
41
1
10
55.934806266423
20
-2.43671663215736
30
0
41
1
10
55.9457647875998
20
-2.4300755884324
30
0
41
1
10
55.9513738299767
20
-2.42717595841509
30
0
41
1
10
55.9685417377225
20
-2.41959933958782
30
0
41
1
10
55.9804807469059
20
-2.41602240645068
30
0
41
1
10
56.0049639070823
20
-2.41162404314491
30
0
41
1
10
56.0172788901322
20
-2.41083510856123
30
0
41
1
10
56.0358218019811
20
-2.41164086462518
30
0
41
1
10
56.0420147175925
20
-2.41224467642167
30
0
41
1
10
56.0544198230303
20
-2.41414589064377
30
0
41
1
10
56.0606133528113
20
-2.41544403334566
30
0
41
1
10
56.0788719879137
20
-2.42033552242498
30
0
41
1
10
56.0907275208796
20
-2.42492275233096
30
0
41
1
10
56.1079390752732
20
-2.43404771482656
30
0
41
1
10
56.1135799999176
20
-2.43746706483009
30
0
41
1
10
56.1246355326426
20
-2.44517230190104
30
0
41
1
10
56.1300264511517
20
-2.44945081264626
30
0
41
1
10
56.1453215403278
20
-2.46336617776893
30
0
41
1
10
56.1545321003245
20
-2.47413270709109
30
0
41
1
10
56.1623607366806
20
-2.48700759003964
30
0
0
SPLINE
5
184
100
AcDbEntity
8
1
62
256
6
ByLayer
370
18
48
1
60
0
100
AcDbSpline
70
4
71
3
72
8
73
4
40
0
40
0
40
0
40
0
40
1
40
1
40
1
40
1
41
1
10
56.1623607366806
20
-2.48700759003964
30
0
41
1
10
56.1750166351092
20
-2.5078213312153
30
0
41
1
10
56.1876455164429
20
-2.52852912208939
30
0
41
1
10
56.2002468917166
20
-2.54912400423692
30
0
0
SPLINE
5
185
100
AcDbEntity
8
1
62
256
6
ByLayer
370
18
48
1
60
0
100
AcDbSpline
70
4
71
3
72
8
73
4
40
0
40
0
40
0
40
0
40
1
40
1
40
1
40
1
41
1
10
50.9924676111009
20
3.05706260339159
30
0
41
1
10
50.9956628712379
20
3.05703644659954
30
0
41
1
10
50.9988614223434
20
3.05519504101503
30
0
41
1
10
51.0020659770332
20
3.05152386343033
30
0
0
SPLINE
5
186
100
AcDbEntity
8
1
62
256
6
ByLayer
370
18
48
1
60
0
100
AcDbSpline
70
4
71
3
72
8
73
4
40
0
40
0
40
0
40
0
40
1
40
1
40
1
40
1
41
1
10
51.0985677866519
20
3.04377851401367
30
0
41
1
10
51.0935788076262
20
3.05259436309538
30
0
41
1
10
51.0885416209634
20
3.05706628980778
30
0
41
1
10
51.0834668342666
20
3.05706063795944
30
0
0
SPLINE
5
187
100
AcDbEntity
8
1
62
256
6
ByLayer
370
18
48
1
60
0
100
AcDbSpline
70
4
71
3
72
10
73
6
40
0
40
0
40
0
40
0
40
0.615053426423163
40
0.615053426423163
40
1
40
1
40
1
40
1
41
1
10
45.220920192624
20
2.82626211954377
30
0
41
1
10
45.2170751990603
20
2.83919264017931
30
0
41
1
10
45.2132643964991
20
2.84746026618217
30
0
41
1
10
45.2069735399546
20
2.853292054051
30
0
41
1
10
45.2045257513405
20
2.8537017987808
30
0
41
1
10
45.2020542007514
20
2.8522523808316
30
0
0
SPLINE
5
188
100
AcDbEntity
8
1
62
256
6
ByLayer
370
18
48
1
60
0
100
AcDbSpline
70
4
71
3
72
13
73
9
40
0
40
0
40
0
40
0
40
0.101741607416538
40
0.251451339513781
40
0.251451339513781
40
0.401161071611024
40
0.401161071611024
40
1
40
1
40
1
40
1
41
1
10
49.5835899360368
20
-3.05706034194503
30
0
41
1
10
49.5826424501246
20
-3.05705871161246
30
0
41
1
10
49.5802982114532
20
-3.05666069498199
30
0
41
1
10
49.5779470514515
20
-3.05528343210196
30
0
41
1
10
49.5751414259864
20
-3.05294060589566
30
0
41
1
10
49.5737350655331
20
-3.05141593120425
30
0
41
1
10
49.5667270694231
20
-3.04207921406962
30
0
41
1
10
49.5611588045209
20
-3.02912180725627
30
0
41
1
10
49.5556187758527
20
-3.01084650328042
30
0
0
SPLINE
5
189
100
AcDbEntity
8
1
62
256
6
ByLayer
370
18
48
1
60
0
100
AcDbSpline
70
4
71
3
72
9
73
5
40
0
40
0
40
0
40
0
40
0.500568157019811
40
1
40
1
40
1
40
1
41
1
10
49.4591473819543
20
-2.99153123407567
30
0
41
1
10
49.4647137869537
20
-3.01346920322857
30
0
41
1
10
49.4758504055355
20
-3.04612696256137
30
0
41
1
10
49.4869958188467
20
-3.05705486327091
30
0
41
1
10
49.4925671009414
20
-3.0570602243709
30
0
0
SPLINE
5
18A
100
AcDbEntity
8
1
62
256
6
ByLayer
370
18
48
1
60
0
100
AcDbSpline
70
4
71
3
72
18
73
14
40
0
40
0
40
0
40
0
40
0.0138980838854229
40
0.0138980838854229
40
0.260423562914066
40
0.260423562914066
40
0.50694904194271
40
0.50694904194271
40
0.630211781457033
40
0.630211781457033
40
0.753474520971355
40
0.753474520971355
40
1
40
1
40
1
40
1
41
1
10
51.9924153462004
20
3.05706025596828
30
0
41
1
10
51.9927213814949
20
3.05706046946585
30
0
41
1
10
51.9930273601723
20
3.05704312142842
30
0
41
1
10
51.998759986262
20
3.05638968310484
30
0
41
1
10
52.0041726437426
20
3.05026816427923
30
0
41
1
10
52.0151117625382
20
3.02716157937672
30
0
41
1
10
52.0206476456907
20
3.01017691217203
30
0
41
1
10
52.0290261995722
20
2.97639369041471
30
0
41
1
10
52.0318314447767
20
2.9637454698528
30
0
41
1
10
52.0374663453422
20
2.93561260867375
30
0
41
1
10
52.0402749806512
20
2.92023101503594
30
0
41
1
10
52.0486602431425
20
2.87032025526895
30
0
41
1
10
52.0542032983541
20
2.83199534828265
30
0
41
1
10
52.059724307991
20
2.78872368642351
30
0
0
SPLINE
5
18B
100
AcDbEntity
8
1
62
256
6
ByLayer
370
18
48
1
60
0
100
AcDbSpline
70
4
71
3
72
17
73
13
40
0
40
0
40
0
40
0
40
0.228859318578811
40
0.228859318578811
40
0.457718637157621
40
0.686577955736432
40
0.686577955736432
40
0.801007615025837
40
0.801007615025837
40
0.915437274315242
40
0.915437274315242
40
1
40
1
40
1
40
1
41
1
10
52.1561700343332
20
2.74584355590321
30
0
41
1
10
52.1505897537991
20
2.79292369721054
30
0
41
1
10
52.1449897473947
20
2.83458112850724
30
0
41
1
10
52.1338268104963
20
2.90730778023121
30
0
41
1
10
52.1226952362017
20
2.96949069458313
30
0
41
1
10
52.1116223767032
20
3.01068110819065
30
0
41
1
10
52.1032996811673
20
3.03347698816955
30
0
41
1
10
52.1005154634485
20
3.03972908751581
30
0
41
1
10
52.0949902855751
20
3.04937221787674
30
0
41
1
10
52.0922434842767
20
3.05278570332888
30
0
41
1
10
52.0874832168194
20
3.05631772257007
30
0
41
1
10
52.0854655079327
20
3.0570651908854
30
0
41
1
10
52.0834502562775
20
3.05706259700554
30
0
0
SPLINE
5
18C
100
AcDbEntity
8
1
62
256
6
ByLayer
370
18
48
1
60
0
100
AcDbSpline
70
4
71
3
72
18
73
14
40
0
40
0
40
0
40
0
40
0.107416282346588
40
0.107416282346588
40
0.218989247053265
40
0.218989247053265
40
0.330562211759942
40
0.330562211759942
40
0.553708141173295
40
0.553708141173295
40
0.776854070586647
40
0.776854070586647
40
1
40
1
40
1
40
1
41
1
10
45.9922010091303
20
3.05706293197136
30
0
41
1
10
45.9948625767753
20
3.05706838365594
30
0
41
1
10
45.9975417114397
20
3.05581011562253
30
0
41
1
10
46.003055293338
20
3.05065486420503
30
0
41
1
10
46.0058882685922
20
3.04665498293392
30
0
41
1
10
46.0115758021504
20
3.03585925903914
30
0
41
1
10
46.0144378190588
20
3.02903699846533
30
0
41
1
10
46.0229414386214
20
3.00455424282646
30
0
41
1
10
46.0285151566894
20
2.98288272768374
30
0
41
1
10
46.0394663757727
20
2.92914613249275
30
0
41
1
10
46.0448440742171
20
2.89708020201664
30
0
41
1
10
46.055543919642
20
2.82252136886456
30
0
41
1
10
46.0608652652331
20
2.78002941425112
30
0
41
1
10
46.0663055931485
20
2.73213959044304
30
0
0
SPLINE
5
18D
100
AcDbEntity
8
1
62
256
6
ByLayer
370
18
48
1
60
0
100
AcDbSpline
70
4
71
3
72
17
73
13
40
0
40
0
40
0
40
0
40
0.208365353432582
40
0.208365353432582
40
0.312548030148873
40
0.312548030148873
40
0.416730706865164
40
0.416730706865164
40
0.625096060297747
40
0.83346141373033
40
0.83346141373033
40
1
40
1
40
1
40
1
41
1
10
46.1629338220204
20
2.68530070705739
30
0
41
1
10
46.1574238686232
20
2.73566562887154
30
0
41
1
10
46.1518655058068
20
2.78122219301812
30
0
41
1
10
46.1435067689729
20
2.84225904240918
30
0
41
1
10
46.1407163294477
20
2.86138589311579
30
0
41
1
10
46.135127787266
20
2.89715717159709
30
0
41
1
10
46.1323233771088
20
2.91383059152213
30
0
41
1
10
46.123984773695
20
2.95955099107647
30
0
41
1
10
46.1130199967643
20
3.00943186154035
30
0
41
1
10
46.1021783254635
20
3.0377661848282
30
0
41
1
10
46.0923482972749
20
3.0535254388796
30
0
41
1
10
46.0879501769985
20
3.05707177844826
30
0
41
1
10
46.0835225181776
20
3.05706146199486
30
0
0
SPLINE
5
18E
100
AcDbEntity
8
1
62
256
6
ByLayer
370
13
48
1
60
0
100
AcDbSpline
70
4
71
3
72
9
73
5
40
0
40
0
40
0
40
0
40
0.721097207701802
40
1
40
1
40
1
40
1
41
1.04
10
48.9313733537844
20
-2.47029108383146
30
0
41
1.04
10
48.911099910838
20
-2.50706420905976
30
0
41
1.04
10
48.8832258197706
20
-2.47496598318576
30
0
41
1.04
10
48.8551502696807
20
-2.32791751029017
30
0
41
1.04
10
48.8473046903807
20
-2.27857506185354
30
0
0
SPLINE
5
18F
100
AcDbEntity
8
1
62
256
6
ByLayer
370
18
48
1
60
0
100
AcDbSpline
70
4
71
3
72
24
73
20
40
0
40
0
40
0
40
0
40
0.0300894794452341
40
0.224071583556186
40
0.224071583556186
40
0.321062635611662
40
0.321062635611662
40
0.3695581616394
40
0.3695581616394
40
0.418053687667139
40
0.418053687667139
40
0.612035791778093
40
0.612035791778093
40
0.806017895889047
40
0.806017895889047
40
0.903008947944523
40
0.951504473972262
40
0.951504473972262
40
1
40
1
40
1
40
1
41
1
10
48.5834181890243
20
-3.05706100729441
30
0
41
1
10
48.5825797538033
20
-3.05705910573172
30
0
41
1
10
48.5763386786203
20
-3.05606889360624
30
0
41
1
10
48.5701065319221
20
-3.04782990071402
30
0
41
1
10
48.5619343849947
20
-3.02886182000316
30
0
41
1
10
48.5591969766033
20
-3.02115822281292
30
0
41
1
10
48.5550581181984
20
-3.00749061452191
30
0
41
1
10
48.5536709614953
20
-3.00257438750927
30
0
41
1
10
48.5508956407276
20
-2.99207569240966
30
0
41
1
10
48.5495075925709
20
-2.9864949713695
30
0
41
1
10
48.5425602108731
20
-2.95695374197635
30
0
41
1
10
48.5369614188305
20
-2.92809422367191
30
0
41
1
10
48.5257395149659
20
-2.86018763204518
30
0
41
1
10
48.520126198555
20
-2.82113985402242
30
0
41
1
10
48.5117388441588
20
-2.75487483622956
30
0
41
1
10
48.5075524328332
20
-2.71981519083772
30
0
41
1
10
48.5033756009408
20
-2.68181951323822
30
0
41
1
10
48.5005924552165
20
-2.65582895395576
30
0
41
1
10
48.4991995545104
20
-2.64248321865497
30
0
41
1
10
48.4978129306813
20
-2.62886285148238
30
0
0
SPLINE
5
190
100
AcDbEntity
8
1
62
256
6
ByLayer
370
18
48
1
60
0
100
AcDbSpline
70
4
71
3
72
24
73
20
40
0
40
0
40
0
40
0
40
0.182936015350357
40
0.182936015350357
40
0.274404023025535
40
0.274404023025535
40
0.320138026863124
40
0.320138026863124
40
0.365872030700713
40
0.365872030700713
40
0.548808046051074
40
0.548808046051074
40
0.731744061401436
40
0.731744061401436
40
0.914680076751797
40
0.914680076751797
40
0.960414080589387
40
0.960414080589387
40
1
40
1
40
1
40
1
41
1
10
48.4020977427658
20
-2.57643152329811
30
0
41
1
10
48.4075074580479
20
-2.63318869694831
30
0
41
1
10
48.412905366493
20
-2.68528919683084
30
0
41
1
10
48.4210895241297
20
-2.75639290520411
30
0
41
1
10
48.4238339238251
20
-2.77891729388082
30
0
41
1
10
48.427979192713
20
-2.810909377157
30
0
41
1
10
48.4293651948277
20
-2.82127417651898
30
0
41
1
10
48.4321446873573
20
-2.84139851384174
30
0
41
1
10
48.4335393118886
20
-2.85116481413385
30
0
41
1
10
48.4404897335376
20
-2.89819864280034
30
0
41
1
10
48.446002120017
20
-2.93031130844915
30
0
41
1
10
48.4569851357898
20
-2.98385392606699
30
0
41
1
10
48.4624563513249
20
-3.00528285352564
30
0
41
1
10
48.4735252863744
20
-3.03744990498097
30
0
41
1
10
48.4791381141405
20
-3.0481890970027
30
0
41
1
10
48.4862023186979
20
-3.05470991946834
30
0
41
1
10
48.4876188135524
20
-3.05566752792598
30
0
41
1
10
48.4902501916342
20
-3.05679665814901
30
0
41
1
10
48.4914680040368
20
-3.05705821458687
30
0
41
1
10
48.4926826192126
20
-3.05706013154858
30
0
0
SPLINE
5
191
100
AcDbEntity
8
1
62
256
6
ByLayer
370
13
48
1
60
0
100
AcDbSpline
70
4
71
3
72
10
73
6
40
0
40
0
40
0
40
0
40
0.0483165626027022
40
0.554295281797549
40
1
40
1
40
1
40
1
41
1
10
48.1460144484045
20
-2.47249486288973
30
0
41
1
10
48.1445169088535
20
-2.46995618929583
30
0
41
1
10
48.1273464512566
20
-2.43703433678749
30
0
41
1
10
48.0965666455762
20
-2.29901273471882
30
0
41
1
10
48.0680003231658
20
-2.05950992961064
30
0
41
1
10
48.0547562493217
20
-1.92874934627551
30
0
0
SPLINE
5
192
100
AcDbEntity
8
1
62
256
6
ByLayer
370
18
48
1
60
0
100
AcDbSpline
70
4
71
3
72
31
73
27
40
0
40
0
40
0
40
0
40
0.0699698601648642
40
0.0699698601648642
40
0.103185222301833
40
0.103185222301833
40
0.136400584438802
40
0.202831308712739
40
0.202831308712739
40
0.335692757260614
40
0.468554205808488
40
0.468554205808488
40
0.501769567945458
40
0.501769567945458
40
0.534984930082427
40
0.534984930082427
40
0.601415654356365
40
0.601415654356365
40
0.734277102904243
40
0.867138551452121
40
0.867138551452121
40
0.93356927572606
40
0.93356927572606
40
0.96678463786303
40
0.96678463786303
40
1
40
1
40
1
40
1
41
1
10
52.9925599526417
20
3.05706319151625
30
0
41
1
10
52.9955036192323
20
3.05706423313018
30
0
41
1
10
52.9984514994023
20
3.05552939941885
30
0
41
1
10
53.0028064039678
20
3.05096124705309
30
0
41
1
10
53.0042102961359
20
3.04913525605303
30
0
41
1
10
53.0070045911505
20
3.04479736742587
30
0
41
1
10
53.0111818159238
20
3.03725660432718
30
0
41
1
10
53.0153193961368
20
3.02665056883416
30
0
41
1
10
53.0235528014497
20
3.00141571978764
30
0
41
1
10
53.0344168262151
20
2.95706248674605
30
0
41
1
10
53.0452336759156
20
2.89145233512838
30
0
41
1
10
53.0520734092413
20
2.8436356319024
30
0
41
1
10
53.053445488903
20
2.83373089625681
30
0
41
1
10
53.0562010134573
20
2.81323081559935
30
0
41
1
10
53.0575850649131
20
2.80262971171442
30
0
41
1
10
53.0617347005624
20
2.76997695601264
30
0
41
1
10
53.0645080188464
20
2.74701855407051
30
0
41
1
10
53.072848002036
20
2.67464433295552
30
0
41
1
10
53.0840147647088
20
2.56883305818934
30
0
41
1
10
53.0952143881047
20
2.44467697824592
30
0
41
1
10
53.103624010332
20
2.34456119900531
30
0
41
1
10
53.106429110084
20
2.31002049945854
30
0
41
1
10
53.1106418868259
20
2.25641914090136
30
0
41
1
10
53.1120473656988
20
2.23824790263353
30
0
41
1
10
53.1148440569316
20
2.2015229735932
30
0
41
1
10
53.1162373512132
20
2.18294312992231
30
0
41
1
10
53.1176260291714
20
2.1641482845765
30
0
0
SPLINE
5
193
100
AcDbEntity
8
1
62
256
6
ByLayer
370
18
48
1
60
0
100
AcDbSpline
70
4
71
3
72
28
73
24
40
0
40
0
40
0
40
0
40
0.127475782945199
40
0.254951565890397
40
0.254951565890397
40
0.286820511626697
40
0.286820511626697
40
0.318689457362996
40
0.382427348835595
40
0.382427348835595
40
0.509903131780794
40
0.509903131780794
40
0.637378914725992
40
0.637378914725992
40
0.669247860462292
40
0.669247860462292
40
0.701116806198591
40
0.701116806198591
40
0.764854697671191
40
0.764854697671191
40
0.89233048061639
40
0.89233048061639
40
1
40
1
40
1
40
1
41
1
10
53.2131379074474
20
2.0924590461222
30
0
41
1
10
53.2076873726241
20
2.16966571629226
30
0
41
1
10
53.1969626506194
20
2.31610068801732
30
0
41
1
10
53.1862358549142
20
2.44660132558235
30
0
41
1
10
53.1793300601147
20
2.52302550826383
30
0
41
1
10
53.1779367013648
20
2.53807320680181
30
0
41
1
10
53.175143151257
20
2.56754017161978
30
0
41
1
10
53.1709459207867
20
2.61076361549257
30
0
41
1
10
53.1667424196554
20
2.65109336107358
30
0
41
1
10
53.1583442654286
20
2.7279614298713
30
0
41
1
10
53.1527557439493
20
2.77416154673213
30
0
41
1
10
53.1415838990181
20
2.8565708735654
30
0
41
1
10
53.1360024669306
20
2.89278046063231
30
0
41
1
10
53.129019345674
20
2.93165615159901
30
0
41
1
10
53.1276223367124
20
2.93911114675726
30
0
41
1
10
53.1248269134021
20
2.9533738704113
30
0
41
1
10
53.1234264572573
20
2.96019081604013
30
0
41
1
10
53.1192386288498
20
2.97958130016428
30
0
41
1
10
53.1164673261831
20
2.99108881345853
30
0
41
1
10
53.1082006885081
20
3.02144236878678
30
0
41
1
10
53.1027546956652
20
3.03613045368579
30
0
41
1
10
53.0927195492296
20
3.05317018647597
30
0
41
1
10
53.0881225476674
20
3.05708389942785
30
0
41
1
10
53.0834851868381
20
3.05706091942597
30
0
0
SPLINE
5
194
100
AcDbEntity
8
1
62
256
6
ByLayer
370
18
48
1
60
0
100
AcDbSpline
70
4
71
3
72
24
73
20
40
0
40
0
40
0
40
0
40
0.20111619376626
40
0.20111619376626
40
0.402232387532519
40
0.402232387532519
40
0.603348581298779
40
0.603348581298779
40
0.653627629740342
40
0.653627629740342
40
0.703906678181904
40
0.703906678181904
40
0.804464775065019
40
0.804464775065019
40
0.905022871948134
40
0.905022871948134
40
0.955301920389696
40
0.955301920389696
40
1
40
1
40
1
40
1
41
1
10
38.1613719460029
20
2.2316696329722
30
0
41
1
10
38.0614276123302
20
2.21326506179093
30
0
41
1
10
37.9597810923569
20
2.19106362738134
30
0
41
1
10
37.7512723638449
20
2.14215081184545
30
0
41
1
10
37.6444202611728
20
2.11543795637923
30
0
41
1
10
37.4237823584077
20
2.06105379392088
30
0
41
1
10
37.3100351863069
20
2.03335849154718
30
0
41
1
10
37.1623294716627
20
2.00068823414173
30
0
41
1
10
37.1325112260829
20
1.99425325997322
30
0
41
1
10
37.0722766784757
20
1.98165954480254
30
0
41
1
10
37.0417997209312
20
1.97548951141238
30
0
41
1
10
36.9500407799033
20
1.9576322098518
30
0
41
1
10
36.8883557237606
20
1.94656781163525
30
0
41
1
10
36.7638391831845
20
1.92673241405171
30
0
41
1
10
36.7010199567799
20
1.91793312769033
30
0
41
1
10
36.6058282737989
20
1.90691155133251
30
0
41
1
10
36.5739392591936
20
1.90359519771764
30
0
41
1
10
36.5133351971493
20
1.89819590473505
30
0
41
1
10
36.4846634160326
20
1.89601073836755
30
0
41
1
10
36.4558473571329
20
1.8941747751596
30
0
0
SPLINE
5
195
100
AcDbEntity
8
1
62
256
6
ByLayer
370
18
48
1
60
0
100
AcDbSpline
70
4
71
3
72
22
73
18
40
0
40
0
40
0
40
0
40
0.052631578947372
40
0.052631578947372
40
0.157894736842109
40
0.157894736842109
40
0.368421052631591
40
0.368421052631591
40
0.421052631578962
40
0.421052631578962
40
0.473684210526332
40
0.473684210526332
40
0.578947368421066
40
0.578947368421066
40
0.789473684210533
40
0.789473684210533
40
1
40
1
40
1
40
1
41
1
10
35.2504752055655
20
2.28704974116576
30
0
41
1
10
35.2678088215264
20
2.28703635511269
30
0
41
1
10
35.2856607031735
20
2.28650236041909
30
0
41
1
10
35.3403181166257
20
2.2834675310371
30
0
41
1
10
35.3783552957466
20
2.27954130238493
30
0
41
1
10
35.4964054010836
20
2.26282714074313
30
0
41
1
10
35.5803345274567
20
2.24516773063075
30
0
41
1
10
35.6894681038833
20
2.21624342470068
30
0
41
1
10
35.7115057552333
20
2.21011030174387
30
0
41
1
10
35.7559542621506
20
2.19716033788939
30
0
41
1
10
35.7783883828182
20
2.19033597718962
30
0
41
1
10
35.846003051059
20
2.16890979524857
30
0
41
1
10
35.8914573908563
20
2.15337094607693
30
0
41
1
10
36.0286266932651
20
2.10313527619343
30
0
41
1
10
36.121123104816
20
2.06483249021528
30
0
41
1
10
36.3073198439429
20
1.97886805056564
30
0
41
1
10
36.4010283033009
20
1.93119534757827
30
0
41
1
10
36.4952716341588
20
1.87880639159309
30
0
0
SPLINE
5
196
100
AcDbEntity
8
1
62
256
6
ByLayer
370
18
48
1
60
0
100
AcDbSpline
70
4
71
3
72
30
73
26
40
0
40
0
40
0
40
0
40
0.0625
40
0.0625
40
0.0937499999999997
40
0.0937499999999997
40
0.124999999999999
40
0.249999999999999
40
0.374999999999999
40
0.374999999999999
40
0.437499999999999
40
0.437499999999999
40
0.46875
40
0.46875
40
0.5
40
0.5
40
0.624999999999999
40
0.624999999999999
40
0.749999999999999
40
0.874999999999998
40
0.874999999999998
40
0.906249999999999
40
0.906249999999999
40
0.937499999999999
40
1
40
1
40
1
40
1
41
1
10
47.2202030391168
20
1.99402818455121
30
0
41
1
10
47.2174606743422
20
2.03411102861617
30
0
41
1
10
47.2147183683367
20
2.07340209883435
30
0
41
1
10
47.2105985697885
20
2.13112738748544
30
0
41
1
10
47.2092222027421
20
2.15019447653168
30
0
41
1
10
47.2064769648737
20
2.18776714857543
30
0
41
1
10
47.1996349494671
20
2.28026006682569
30
0
41
1
10
47.1874758622888
20
2.43400526111597
30
0
41
1
10
47.1766221546673
20
2.55300043362914
30
0
41
1
10
47.168348112092
20
2.63557726792286
30
0
41
1
10
47.1655648830185
20
2.6619890463613
30
0
41
1
10
47.1613552338086
20
2.69991057063214
30
0
41
1
10
47.1599467196259
20
2.71226825396178
30
0
41
1
10
47.1571210448766
20
2.73641193177454
30
0
41
1
10
47.1557018509117
20
2.74821417366783
30
0
41
1
10
47.1486153906475
20
2.80555902950371
30
0
41
1
10
47.142994441605
20
2.84602319519988
30
0
41
1
10
47.1318830002044
20
2.91649335988333
30
0
41
1
10
47.1209009031048
20
2.97650238083838
30
0
41
1
10
47.1100712443316
20
3.01562827926224
30
0
41
1
10
47.1032725521171
20
3.033353498552
30
0
41
1
10
47.1019092431956
20
3.0365650300225
30
0
41
1
10
47.0991865398513
20
3.04228481193053
30
0
41
1
10
47.0951117448914
20
3.04980548943203
30
0
41
1
10
47.0910524521248
20
3.05418878495544
30
0
41
1
10
47.0883417351053
20
3.05574049578812
30
0
0
SPLINE
5
197
100
AcDbEntity
8
1
62
256
6
ByLayer
370
18
48
1
60
0
100
AcDbSpline
70
4
71
3
72
27
73
23
40
0
40
0
40
0
40
0
40
0.125
40
0.125
40
0.25
40
0.25
40
0.312500000000001
40
0.312500000000001
40
0.343750000000001
40
0.343750000000001
40
0.375000000000001
40
0.500000000000001
40
0.500000000000001
40
0.625000000000001
40
0.625000000000001
40
0.687500000000001
40
0.718750000000001
40
0.718750000000001
40
0.75
40
0.75
40
0.875
40
1
40
1
40
1
40
1
41
1
10
46.9918376817565
20
3.05703940659066
30
0
41
1
10
46.9973658441279
20
3.05743049651312
30
0
41
1
10
47.0028806014151
20
3.05232509424593
30
0
41
1
10
47.0139525624278
20
3.03128856571587
30
0
41
1
10
47.0194933573711
20
3.01535747557526
30
0
41
1
10
47.0278026083738
20
2.98320253253286
30
0
41
1
10
47.0305725296998
20
2.97110509824742
30
0
41
1
10
47.0347315810266
20
2.95084672457955
30
0
41
1
10
47.0361193651163
20
2.94373681026531
30
0
41
1
10
47.038881239411
20
2.92889504474067
30
0
41
1
10
47.0457623652161
20
2.89018640786347
30
0
41
1
10
47.0525369616715
20
2.8435799561955
30
0
41
1
10
47.0633806221673
20
2.75913727428124
30
0
41
1
10
47.0688092277074
20
2.71197942513177
30
0
41
1
10
47.0771020010336
20
2.63377618655704
30
0
41
1
10
47.0812790938555
20
2.59280414317945
30
0
41
1
10
47.0854925006908
20
2.54897915695887
30
0
41
1
10
47.0883087354535
20
2.51912066593178
30
0
41
1
10
47.0897212057142
20
2.50386178370334
30
0
41
1
10
47.0967585245476
20
2.42640873869001
30
0
41
1
10
47.1079185203155
20
2.29441694072054
30
0
41
1
10
47.1188649836846
20
2.14678798315271
30
0
41
1
10
47.1243126606841
20
2.06906132867113
30
0
0
SPLINE
5
198
100
AcDbEntity
8
1
62
256
6
ByLayer
370
13
48
1
60
0
100
AcDbSpline
70
4
71
3
72
10
73
6
40
0
40
0
40
0
40
0
40
0.165319605649903
40
0.540681938102295
40
1
40
1
40
1
40
1
41
1.04
10
47.9126468292477
20
-2.4870401224704
30
0
41
1.04
10
47.9057119824433
20
-2.4869948861159
30
0
41
1.04
10
47.8830898069947
20
-2.46383763544127
30
0
41
1.04
10
47.84159942453
20
-2.28151518963747
30
0
41
1.04
10
47.807983423344
20
-1.97764179119767
30
0
41
1.04
10
47.7897256525014
20
-1.77817989235895
30
0
0
SPLINE
5
199
100
AcDbEntity
8
1
62
256
6
ByLayer
370
13
48
1
60
0
100
AcDbSpline
70
4
71
3
72
10
73
6
40
0
40
0
40
0
40
0
40
0.421353502510762
40
0.983398824533931
40
1
40
1
40
1
40
1
41
1
10
47.1200654059573
20
-2.39457355598935
30
0
41
1
10
47.1033830086017
20
-2.32450747375282
30
0
41
1
10
47.0639983654157
20
-2.06847218163421
30
0
41
1
10
47.0224622480606
20
-1.58881561466612
30
0
41
1
10
46.9980724872268
20
-1.2603033911964
30
0
41
1
10
46.9973724522688
20
-1.25083731667487
30
0
0
SPLINE
5
19A
100
AcDbEntity
8
1
62
256
6
ByLayer
370
18
48
1
60
0
100
AcDbSpline
70
4
71
3
72
25
73
21
40
0
40
0
40
0
40
0
40
0.125000000000001
40
0.125000000000001
40
0.250000000000001
40
0.250000000000001
40
0.312500000000001
40
0.312500000000001
40
0.375000000000001
40
0.375000000000001
40
0.500000000000001
40
0.500000000000001
40
0.625
40
0.625
40
0.6875
40
0.6875
40
0.749999999999999
40
0.749999999999999
40
0.875
40
1
40
1
40
1
40
1
41
1
10
47.5729244263045
20
-3.05035507526506
30
0
41
1
10
47.5675045382133
20
-3.04334385780291
30
0
41
1
10
47.562078865528
20
-3.03088774795427
30
0
41
1
10
47.5511230712671
20
-2.99521534188398
30
0
41
1
10
47.5456187931541
20
-2.97199915887541
30
0
41
1
10
47.537329805568
20
-2.92893821008437
30
0
41
1
10
47.5345595395966
20
-2.91320348284921
30
0
41
1
10
47.5289984527273
20
-2.87894267402839
30
0
41
1
10
47.5262305751891
20
-2.86055906264073
30
0
41
1
10
47.5179345558874
20
-2.80173224798196
30
0
41
1
10
47.5123942405267
20
-2.75762321668935
30
0
41
1
10
47.5012501311463
20
-2.65981708298631
30
0
41
1
10
47.4956595441621
20
-2.60611951984339
30
0
41
1
10
47.4872666558213
20
-2.51829107657551
30
0
41
1
10
47.4844676451485
20
-2.48779883979154
30
0
41
1
10
47.4788668165876
20
-2.42433675168036
30
0
41
1
10
47.4760594434457
20
-2.39129284634674
30
0
41
1
10
47.4677229882735
20
-2.28953692133197
30
0
41
1
10
47.4567842835967
20
-2.14629811020231
30
0
41
1
10
47.446052319838
20
-1.98834830285972
30
0
41
1
10
47.440668841461
20
-1.90568169979787
30
0
0
SPLINE
5
19B
100
AcDbEntity
8
1
62
256
6
ByLayer
370
18
48
1
60
0
100
AcDbSpline
70
4
71
3
72
27
73
23
40
0
40
0
40
0
40
0
40
0.0625000000000007
40
0.0625000000000007
40
0.125000000000001
40
0.125000000000001
40
0.250000000000002
40
0.375000000000002
40
0.375000000000002
40
0.500000000000003
40
0.500000000000003
40
0.531250000000003
40
0.531250000000003
40
0.562500000000003
40
0.625000000000002
40
0.625000000000002
40
0.750000000000002
40
0.875000000000001
40
0.875000000000001
40
0.937500000000001
40
0.937500000000001
40
1
40
1
40
1
40
1
41
1
10
47.3445338006005
20
-1.82654036052099
30
0
41
1
10
47.3473017447913
20
-1.86892760853559
30
0
41
1
10
47.3500701222633
20
-1.91059202605842
30
0
41
1
10
47.3556072222501
20
-1.99244940400322
30
0
41
1
10
47.3583834420136
20
-2.03274701239786
30
0
41
1
10
47.3666348009206
20
-2.15017143989741
30
0
41
1
10
47.3774579586602
20
-2.29802344389356
30
0
41
1
10
47.3881564564949
20
-2.42894161788189
30
0
41
1
10
47.3990136868271
20
-2.55136231589609
30
0
41
1
10
47.4045489790152
20
-2.60832413067024
30
0
41
1
10
47.4116045471692
20
-2.67402627415899
30
0
41
1
10
47.4130192969452
20
-2.68686437325894
30
0
41
1
10
47.4158452388584
20
-2.71185017305268
30
0
41
1
10
47.4200833944622
20
-2.74833561039816
30
0
41
1
10
47.4243159018786
20
-2.78187492031927
30
0
41
1
10
47.4327660412505
20
-2.84508346379892
30
0
41
1
10
47.4439916016802
20
-2.91906115858555
30
0
41
1
10
47.4550953357919
20
-2.97254979438623
30
0
41
1
10
47.4633952482934
20
-3.0047719904216
30
0
41
1
10
47.466165274406
20
-3.01421259579166
30
0
41
1
10
47.4716493421132
20
-3.03024019548465
30
0
41
1
10
47.4743670353493
20
-3.03684935302186
30
0
41
1
10
47.4770669814528
20
-3.04208013348446
30
0
0
SPLINE
5
19C
100
AcDbEntity
8
1
62
256
6
ByLayer
370
18
48
1
60
0
100
AcDbSpline
70
4
71
3
72
25
73
21
40
0
40
0
40
0
40
0
40
0.0625000000000005
40
0.0625000000000005
40
0.125000000000001
40
0.125000000000001
40
0.250000000000001
40
0.375000000000001
40
0.375000000000001
40
0.5
40
0.5
40
0.625
40
0.625
40
0.75
40
0.75
40
0.875
40
0.875
40
0.9375
40
0.9375
40
1
40
1
40
1
40
1
41
1
10
53.5656179935609
20
-3.03871149632067
30
0
41
1
10
53.5628500483907
20
-3.03291552514679
30
0
41
1
10
53.5600874050282
20
-3.0257378108017
30
0
41
1
10
53.5545654427022
20
-3.00856762732659
30
0
41
1
10
53.5518001582002
20
-2.998544086946
30
0
41
1
10
53.5435849186218
20
-2.96455777172864
30
0
41
1
10
53.532796852619
20
-2.908713198859
30
0
41
1
10
53.5220957236481
20
-2.83239428951774
30
0
41
1
10
53.511298404716
20
-2.74579800329616
30
0
41
1
10
53.5058500047127
20
-2.69735088435243
30
0
41
1
10
53.4947158409044
20
-2.58984679542721
30
0
41
1
10
53.489125145415
20
-2.53172664611358
30
0
41
1
10
53.477794467865
20
-2.40706784159587
30
0
41
1
10
53.4720678981073
20
-2.34052803244026
30
0
41
1
10
53.4606803459184
20
-2.19905342431045
30
0
41
1
10
53.455018352081
20
-2.12411913032642
30
0
41
1
10
53.4466043951199
20
-2.00523684644466
30
0
41
1
10
53.443806272484
20
-1.9644370631961
30
0
41
1
10
53.4382897555312
20
-1.8815747803923
30
0
41
1
10
53.4355644832322
20
-1.83942073423077
30
0
41
1
10
53.4328644156928
20
-1.79655697847232
30
0
0
SPLINE
5
19D
100
AcDbEntity
8
1
62
256
6
ByLayer
370
18
48
1
60
0
100
AcDbSpline
70
4
71
3
72
25
73
21
40
0
40
0
40
0
40
0
40
0.125000000000001
40
0.250000000000003
40
0.250000000000003
40
0.312500000000004
40
0.312500000000004
40
0.343750000000004
40
0.343750000000004
40
0.375000000000004
40
0.500000000000003
40
0.500000000000003
40
0.625000000000002
40
0.625000000000002
40
0.687500000000002
40
0.687500000000002
40
0.750000000000002
40
0.750000000000002
40
0.875000000000001
40
1
40
1
40
1
40
1
41
1
10
53.3372532157849
20
-1.71380801619583
30
0
41
1
10
53.3428260619582
20
-1.8017482597335
30
0
41
1
10
53.3538950782446
20
-1.97056723990445
30
0
41
1
10
53.3648658964815
20
-2.12545151953432
30
0
41
1
10
53.373118973232
20
-2.23628752411295
30
0
41
1
10
53.3758745872615
20
-2.27234320569929
30
0
41
1
10
53.3800266096503
20
-2.32506237226613
30
0
41
1
10
53.3814111494235
20
-2.34237421699862
30
0
41
1
10
53.3841732623132
20
-2.37635229682186
30
0
41
1
10
53.3910714306274
20
-2.45977853908437
30
0
41
1
10
53.3979347135055
20
-2.53572371714003
30
0
41
1
10
53.4088567677668
20
-2.64786492859219
30
0
41
1
10
53.4143160181359
20
-2.69924883507827
30
0
41
1
10
53.4226120924574
20
-2.76921512083524
30
0
41
1
10
53.4253918178826
20
-2.7913500369001
30
0
41
1
10
53.4309835686147
20
-2.83320300811749
30
0
41
1
10
53.4338032136916
20
-2.85296649187569
30
0
41
1
10
53.442226330812
20
-2.90798241659553
30
0
41
1
10
53.4533964706069
20
-2.97028204215402
30
0
41
1
10
53.464479113863
20
-3.01110829967419
30
0
41
1
10
53.4700136977212
20
-3.02613560196724
30
0
0
SPLINE
5
19E
100
AcDbEntity
8
1
62
256
6
ByLayer
370
18
48
1
60
0
100
AcDbSpline
70
4
71
3
72
15
73
11
40
0
40
0
40
0
40
0
40
0.25
40
0.5
40
0.5
40
0.625
40
0.625
40
0.75
40
0.75
40
1
40
1
40
1
40
1
41
1
10
56.9197354569948
20
0.646388863063152
30
0
41
1
10
56.9158306221236
20
0.57438430165513
30
0
41
1
10
56.908445986901
20
0.42884677893025
30
0
41
1
10
56.9017922372368
20
0.28034015085035
30
0
41
1
10
56.8970642346071
20
0.167840911343973
30
0
41
1
10
56.8955322718517
20
0.130154228790104
30
0
41
1
10
56.8925579490758
20
0.0544012434612569
30
0
41
1
10
56.8911135485555
20
0.0162785199634072
30
0
41
1
10
56.8869335130497
20
-0.0983032756331852
30
0
41
1
10
56.884379236681
20
-0.174172629826558
30
0
41
1
10
56.8820594517715
20
-0.249539334295349
30
0
0
SPLINE
5
19F
100
AcDbEntity
8
1
62
256
6
ByLayer
370
18
48
1
60
0
100
AcDbSpline
70
4
71
3
72
12
73
8
40
0
40
0
40
0
40
0
40
0.25
40
0.25
40
0.5
40
0.5
40
1
40
1
40
1
40
1
41
1
10
56.8996451581247
20
-1.04736697588714
30
0
41
1
10
56.8985239652906
20
-0.984868074440641
30
0
41
1
10
56.8972757824936
20
-0.920857801323166
30
0
41
1
10
56.8945755246634
20
-0.789893451395528
30
0
41
1
10
56.8931413641291
20
-0.723788639795373
30
0
41
1
10
56.8886574872076
20
-0.523652966791644
30
0
41
1
10
56.885436123512
20
-0.387811521496673
30
0
41
1
10
56.8820594517707
20
-0.249539334295434
30
0
0
SPLINE
5
1A0
100
AcDbEntity
8
1
62
256
6
ByLayer
370
18
48
1
60
0
100
AcDbSpline
70
4
71
3
72
20
73
16
40
0
40
0
40
0
40
0
40
0.124999999999999
40
0.124999999999999
40
0.249999999999998
40
0.249999999999998
40
0.5
40
0.5
40
0.750000000000001
40
0.750000000000001
40
0.875000000000001
40
0.875000000000001
40
0.9375
40
0.9375
40
1
40
1
40
1
40
1
41
1
10
56.7949577771636
20
0.752256153001866
30
0
41
1
10
56.7993424681555
20
0.71200453322183
30
0
41
1
10
56.803621176763
20
0.671292557629783
30
0
41
1
10
56.8119697239832
20
0.589373790655941
30
0
41
1
10
56.8160294390439
20
0.548270264424815
30
0
41
1
10
56.8279220429921
20
0.424539783640085
30
0
41
1
10
56.8354931601603
20
0.341495570139727
30
0
41
1
10
56.8499083315863
20
0.17431035817097
30
0
41
1
10
56.8567202113497
20
0.0901674623488873
30
0
41
1
10
56.86647733831
20
-0.0368806945772633
30
0
41
1
10
56.8696559835631
20
-0.0793691739156088
30
0
41
1
10
56.8743595646075
20
-0.14331268854076
30
0
41
1
10
56.8759174804406
20
-0.164670512277581
30
0
41
1
10
56.8790042788862
20
-0.207198113454837
30
0
41
1
10
56.8805364924756
20
-0.22839965436367
30
0
41
1
10
56.8820594517705
20
-0.249539334295292
30
0
0
SPLINE
5
1A1
100
AcDbEntity
8
1
62
256
6
ByLayer
370
18
48
1
60
0
100
AcDbSpline
70
4
71
3
72
24
73
20
40
0
40
0
40
0
40
0
40
0.125000000000001
40
0.250000000000001
40
0.250000000000001
40
0.312500000000001
40
0.343750000000001
40
0.343750000000001
40
0.375000000000001
40
0.375000000000001
40
0.500000000000001
40
0.500000000000001
40
0.749999999999999
40
0.749999999999999
40
0.812499999999999
40
0.812499999999999
40
0.874999999999999
40
0.874999999999999
40
1
40
1
40
1
40
1
41
1
10
44.6965126227506
20
-1.17380998566873
30
0
41
1
10
44.6926789092911
20
-1.10079056145852
30
0
41
1
10
44.6850462911855
20
-0.952143651599357
30
0
41
1
10
44.6774611086042
20
-0.798361364336301
30
0
41
1
10
44.671769934974
20
-0.681075103392487
30
0
41
1
10
44.6689235602308
20
-0.621943751876898
30
0
41
1
10
44.6660702452779
20
-0.562067659335526
30
0
41
1
10
44.6641657031985
20
-0.521982796350159
30
0
41
1
10
44.66321109485
20
-0.501831648690285
30
0
41
1
10
44.6584533801229
20
-0.401144542754622
30
0
41
1
10
44.6546852040336
20
-0.320577654008758
30
0
41
1
10
44.6434033468311
20
-0.0788309495147814
30
0
41
1
10
44.6359032525828
20
0.0823940892384201
30
0
41
1
10
44.626242960525
20
0.283988481807057
30
0
41
1
10
44.6242976930952
20
0.324372968320404
30
0
41
1
10
44.6204048761655
20
0.40487533650537
30
0
41
1
10
44.6184670134855
20
0.444793564815427
30
0
41
1
10
44.6126784299978
20
0.563569610553941
30
0
41
1
10
44.6088551178793
20
0.64145160332734
30
0
41
1
10
44.6050361836101
20
0.718049525340518
30
0
0
SPLINE
5
1A2
100
AcDbEntity
8
1
62
256
6
ByLayer
370
18
48
1
60
0
100
AcDbSpline
70
4
71
3
72
8
73
4
40
0
40
0
40
0
40
0
40
1
40
1
40
1
40
1
41
1
10
56.7262435329338
20
-0.959107353935451
30
0
41
1
10
56.7249651211776
20
-0.942031732623065
30
0
41
1
10
56.7236949786216
20
-0.924863615884675
30
0
41
1
10
56.7224323702429
20
-0.907602785501098
30
0
0
SPLINE
5
1A3
100
AcDbEntity
8
1
62
256
6
ByLayer
370
18
48
1
60
0
100
AcDbSpline
70
4
71
3
72
28
73
24
40
0
40
0
40
0
40
0
40
0.0420903396091152
40
0.0847378146086936
40
0.127941398448897
40
0.171700145328919
40
0.216013190171769
40
0.26087974835268
40
0.306299115181543
40
0.352270665141067
40
0.398793850883501
40
0.445868201989905
40
0.493493323497554
40
0.541668894202062
40
0.590394664742548
40
0.639670455479578
40
0.689496154177071
40
0.739871713501115
40
0.790797148350211
40
0.842272533033165
40
0.894297998312692
40
0.946873728348463
40
1
40
1
40
1
40
1
41
1
10
56.7224323702429
20
-0.907602785501268
30
0
41
1
10
56.721880496561
20
-0.900035526575095
30
0
41
1
10
56.7207694442345
20
-0.884800843511613
30
0
41
1
10
56.7191046580382
20
-0.86167699416626
30
0
41
1
10
56.7174271991723
20
-0.838163318329805
30
0
41
1
10
56.7157380222823
20
-0.814250453346347
30
0
41
1
10
56.7140368667475
20
-0.78994064466923
30
0
41
1
10
56.7123238039049
20
-0.765233159905421
30
0
41
1
10
56.7105988144364
20
-0.740128281338968
30
0
41
1
10
56.7088619037714
20
-0.714626224297945
30
0
41
1
10
56.7071130705821
20
-0.688727441160353
30
0
41
1
10
56.705352315382
20
-0.662432547248102
30
0
41
1
10
56.7035796381847
20
-0.635742349985605
30
0
41
1
10
56.7017950391203
20
-0.60865785022304
30
0
41
1
10
56.6999985183556
20
-0.581180250479321
30
0
41
1
10
56.6981900757792
20
-0.553310964472331
30
0
41
1
10
56.6963697123642
20
-0.525051614871103
30
0
41
1
10
56.6945374249543
20
-0.496404078242591
30
0
41
1
10
56.6926932260533
20
-0.467370350882618
30
0
41
1
10
56.6908370687569
20
-0.437953094738106
30
0
41
1
10
56.6889691314551
20
-0.408153604392538
30
0
41
1
10
56.6870887377481
20
-0.377979545930657
30
0
41
1
10
56.6858350777412
20
-0.357709215916003
30
0
41
1
10
56.6852049829366
20
-0.347521262597894
30
0
0
SPLINE
5
1A4
100
AcDbEntity
8
1
62
256
6
ByLayer
370
18
48
1
60
0
100
AcDbSpline
70
4
71
3
72
22
73
18
40
0
40
0
40
0
40
0
40
0.125000000000001
40
0.125000000000001
40
0.187500000000002
40
0.187500000000002
40
0.250000000000003
40
0.250000000000003
40
0.500000000000002
40
0.500000000000002
40
0.750000000000001
40
0.750000000000001
40
0.812500000000001
40
0.812500000000001
40
0.875000000000001
40
0.875000000000001
40
1
40
1
40
1
40
1
41
1
10
56.6852049829367
20
-0.347521262598548
30
0
41
1
10
56.6819345241146
20
-0.294553047153442
30
0
41
1
10
56.6786997114308
20
-0.2414503441737
30
0
41
1
10
56.6738943898653
20
-0.161596446490762
30
0
41
1
10
56.672302390925
20
-0.134944993977996
30
0
41
1
10
56.6691464974496
20
-0.0815743396188964
30
0
41
1
10
56.6675806690844
20
-0.0548214465673311
30
0
41
1
10
56.6598712435373
20
0.0785315200359378
30
0
41
1
10
56.6540944281003
20
0.184094332813174
30
0
41
1
10
56.6433506553071
20
0.39305977051643
30
0
41
1
10
56.6383212164022
20
0.496461676276198
30
0
41
1
10
56.6324888352818
20
0.62433004023967
30
0
41
1
10
56.6313467710573
20
0.649834197521983
30
0
41
1
10
56.6291174787361
20
0.700701313887663
30
0
41
1
10
56.6280289609218
20
0.726095387025339
30
0
41
1
10
56.6248707905254
20
0.801753857924837
30
0
41
1
10
56.6229049883816
20
0.85152679123189
30
0
41
1
10
56.6211248033192
20
0.900626649201769
30
0
0
SPLINE
5
1A5
100
AcDbEntity
8
1
62
256
6
ByLayer
370
18
48
1
60
0
100
AcDbSpline
70
4
71
3
72
32
73
28
40
0
40
0
40
0
40
0
40
0.0312499999999997
40
0.0312499999999997
40
0.0624999999999994
40
0.0624999999999994
40
0.124999999999999
40
0.124999999999999
40
0.25
40
0.25
40
0.375
40
0.375
40
0.4375
40
0.4375
40
0.46875
40
0.46875
40
0.5
40
0.625000000000001
40
0.625000000000001
40
0.750000000000003
40
0.750000000000003
40
0.812500000000003
40
0.843750000000003
40
0.843750000000003
40
0.875000000000002
40
0.875000000000002
40
1
40
1
40
1
40
1
41
1
10
48.0495406857227
20
2.86395902573921
30
0
41
1
10
48.0508973363678
20
2.85467142864491
30
0
41
1
10
48.052254093158
20
2.84504464454338
30
0
41
1
10
48.054970392259
20
2.82510536138579
30
0
41
1
10
48.0563319388988
20
2.81477690806608
30
0
41
1
10
48.0604082853913
20
2.78288448085425
30
0
41
1
10
48.0631130846758
20
2.76043121090504
30
0
41
1
10
48.0712321998549
20
2.6895724533411
30
0
41
1
10
48.0766737246312
20
2.63767778243974
30
0
41
1
10
48.0876988637233
20
2.52474481480292
30
0
41
1
10
48.0932622206208
20
2.463705962326
30
0
41
1
10
48.1016514664889
20
2.36518869723139
30
0
41
1
10
48.1044555000141
20
2.33118747952761
30
0
41
1
10
48.1086720067745
20
2.27840804972155
30
0
41
1
10
48.1100813449407
20
2.260491568004
30
0
41
1
10
48.1128921163608
20
2.22420889723367
30
0
41
1
10
48.1198976256783
20
2.13241051651954
30
0
41
1
10
48.1267949805542
20
2.03524105693774
30
0
41
1
10
48.1377617932326
20
1.87307325242699
30
0
41
1
10
48.1432147669897
20
1.78864080298894
30
0
41
1
10
48.1514331740367
20
1.65694055338494
30
0
41
1
10
48.1555493097508
20
1.58982493493537
30
0
41
1
10
48.1596813903591
20
1.52078184169562
30
0
41
1
10
48.1624404574653
20
1.47431981916535
30
0
41
1
10
48.1638241833885
20
1.45083745053745
30
0
41
1
10
48.1707276228885
20
1.33281339049083
30
0
41
1
10
48.1761926831188
20
1.23658961424229
30
0
41
1
10
48.1816371997905
20
1.13862355356295
30
0
0
SPLINE
5
1A6
100
AcDbEntity
8
1
62
256
6
ByLayer
370
18
48
1
60
0
100
AcDbSpline
70
4
71
3
72
26
73
22
40
0
40
0
40
0
40
0
40
0.124999999999999
40
0.249999999999998
40
0.249999999999998
40
0.312499999999997
40
0.343749999999997
40
0.343749999999997
40
0.374999999999997
40
0.374999999999997
40
0.499999999999998
40
0.499999999999998
40
0.624999999999998
40
0.749999999999998
40
0.749999999999998
40
0.781249999999998
40
0.781249999999998
40
0.812499999999998
40
0.874999999999999
40
0.874999999999999
40
1
40
1
40
1
40
1
41
1
10
48.2778573662654
20
1.04452683714271
30
0
41
1
10
48.2723143390548
20
1.14445868462926
30
0
41
1
10
48.2613294064166
20
1.3392083604503
30
0
41
1
10
48.2504575119751
20
1.52396399352298
30
0
41
1
10
48.24227101429
20
1.65874707689727
30
0
41
1
10
48.2381690273312
20
1.72519081934885
30
0
41
1
10
48.2340349934367
20
1.79018836032435
30
0
41
1
10
48.2312694396047
20
1.83319464053432
30
0
41
1
10
48.2298808547271
20
1.8545504475141
30
0
41
1
10
48.2229484727075
20
1.95989622952945
30
0
41
1
10
48.2173939623925
20
2.04007004611276
30
0
41
1
10
48.2062009976268
20
2.19246830400519
30
0
41
1
10
48.1950119492986
20
2.33691941406971
30
0
41
1
10
48.1840876332549
20
2.46547542975333
30
0
41
1
10
48.1772511222398
20
2.54068567433381
30
0
41
1
10
48.1758816780366
20
2.55547971890149
30
0
41
1
10
48.1731511926226
20
2.58437982085579
30
0
41
1
10
48.1690637149043
20
2.62676106292585
30
0
41
1
10
48.1649636658073
20
2.66626899343379
30
0
41
1
10
48.1567443918833
20
2.74151463986269
30
0
41
1
10
48.1512407232103
20
2.78666142862366
30
0
41
1
10
48.145716341264
20
2.82682888855371
30
0
0
SPLINE
5
1A7
100
AcDbEntity
8
1
62
256
6
ByLayer
370
13
48
1
60
0
100
AcDbSpline
70
4
71
3
72
10
73
6
40
0
40
0
40
0
40
0
40
0.294524573606561
40
0.860810303145381
40
1
40
1
40
1
40
1
41
1.04
10
46.8550540744095
20
-2.32424504277296
30
0
41
1.04
10
46.8433936844753
20
-2.25980120168031
30
0
41
1.04
10
46.8090101467251
20
-2.01561404323701
30
0
41
1.04
10
46.7677850789094
20
-1.54228016275079
30
0
41
1.04
10
46.7381819497534
20
-1.13310994674836
30
0
41
1.04
10
46.7323160797372
20
-1.049898248058
30
0
0
SPLINE
5
1A8
100
AcDbEntity
8
1
62
256
6
ByLayer
370
13
48
1
60
0
100
AcDbSpline
70
4
71
3
72
10
73
6
40
0
40
0
40
0
40
0
40
0.0802558997933904
40
0.842114943260949
40
1
40
1
40
1
40
1
41
1
10
45.0048716191978
20
-1.35110768661198
30
0
41
1
10
45.0015962232438
20
-1.30806416065226
30
0
41
1
10
44.9672417170771
20
-0.84747013429012
30
0
41
1
10
44.9267190548202
20
-0.203843479317157
30
0
41
1
10
44.8888282255303
20
0.384348139237147
30
0
41
1
10
44.8823213578894
20
0.484165999445168
30
0
0
SPLINE
5
1A9
100
AcDbEntity
8
1
62
256
6
ByLayer
370
13
48
1
60
0
100
AcDbSpline
70
4
71
3
72
10
73
6
40
0
40
0
40
0
40
0
40
0.527397907463792
40
0.718546220380278
40
1
40
1
40
1
40
1
41
1
10
46.0624053626129
20
-2.00211935394779
30
0
41
1
10
46.0404419216907
20
-1.79824634180557
30
0
41
1
10
46.0109654614402
20
-1.44696813145057
30
0
41
1
10
45.9702489469899
20
-0.873313763022651
30
0
41
1
10
45.9511865751447
20
-0.584689589750724
30
0
41
1
10
45.939867600364
20
-0.410174955424878
30
0
0
SPLINE
5
1AA
100
AcDbEntity
8
1
62
256
6
ByLayer
370
18
48
1
60
0
100
AcDbSpline
70
4
71
3
72
32
73
28
40
0
40
0
40
0
40
0
40
0.0312499999999996
40
0.0312499999999996
40
0.0624999999999992
40
0.0624999999999992
40
0.124999999999999
40
0.124999999999999
40
0.25
40
0.25
40
0.375
40
0.375
40
0.4375
40
0.4375
40
0.46875
40
0.46875
40
0.500000000000001
40
0.625
40
0.625
40
0.749999999999999
40
0.749999999999999
40
0.812499999999999
40
0.843749999999999
40
0.843749999999999
40
0.875
40
0.875
40
1
40
1
40
1
40
1
41
1
10
46.5154694378979
20
-2.78090272889014
30
0
41
1
10
46.5141119716886
20
-2.7698581487071
30
0
41
1
10
46.512750662581
20
-2.75847827175437
30
0
41
1
10
46.5100178931978
20
-2.7350400259125
30
0
41
1
10
46.5086478673402
20
-2.72299306923517
30
0
41
1
10
46.5045427703731
20
-2.6860455550042
30
0
41
1
10
46.5018052729132
20
-2.66027641823141
30
0
41
1
10
46.4935635355373
20
-2.57962259063726
30
0
41
1
10
46.4880104774136
20
-2.52140088700892
30
0
41
1
10
46.4768264042632
20
-2.39617618768287
30
0
41
1
10
46.4712130378905
20
-2.32917275164178
30
0
41
1
10
46.4628035721839
20
-2.22195809595505
30
0
41
1
10
46.4600013155621
20
-2.18509942354379
30
0
41
1
10
46.4557971308486
20
-2.12809423508213
30
0
41
1
10
46.4543969521572
20
-2.10882424618387
30
0
41
1
10
46.451611487427
20
-2.0699358132392
30
0
41
1
10
46.4446748828613
20
-1.97171284192456
30
0
41
1
10
46.4378629551996
20
-1.86855584784414
30
0
41
1
10
46.4269919695356
20
-1.69733239112057
30
0
41
1
10
46.4215616571148
20
-1.60863470821096
30
0
41
1
10
46.4133274320723
20
-1.47091665499371
30
0
41
1
10
46.4091941254355
20
-1.40088718765327
30
0
41
1
10
46.4050373206765
20
-1.32907136392308
30
0
41
1
10
46.402260534252
20
-1.28079216140117
30
0
41
1
10
46.4008706452607
20
-1.25647333221374
30
0
41
1
10
46.3939466389536
20
-1.13458217393693
30
0
41
1
10
46.3884596949428
20
-1.03559153781359
30
0
41
1
10
46.3829959772019
20
-0.935168634748123
30
0
0
SPLINE
5
1AB
100
AcDbEntity
8
1
62
256
6
ByLayer
370
18
48
1
60
0
100
AcDbSpline
70
4
71
3
72
25
73
21
40
0
40
0
40
0
40
0
40
0.125
40
0.125
40
0.25
40
0.25
40
0.3125
40
0.3125
40
0.375
40
0.375
40
0.499999999999999
40
0.499999999999999
40
0.624999999999999
40
0.749999999999999
40
0.749999999999999
40
0.812499999999999
40
0.812499999999999
40
0.874999999999999
40
0.874999999999999
40
1
40
1
40
1
40
1
41
1
10
46.2867700235122
20
-0.839381947640931
30
0
41
1
10
46.292218083741
20
-0.941754750757269
30
0
41
1
10
46.2976146628752
20
-1.04185694568997
30
0
41
1
10
46.3084334557502
20
-1.23763674425402
30
0
41
1
10
46.3138507523607
20
-1.33331431433325
30
0
41
1
10
46.3220862391058
20
-1.47349155541866
30
0
41
1
10
46.3248516221643
20
-1.51965960124536
30
0
41
1
10
46.3304387697157
20
-1.61086330581537
30
0
41
1
10
46.3332603446593
20
-1.65594002231327
30
0
41
1
10
46.3417697490926
20
-1.78917676289748
30
0
41
1
10
46.3474207677446
20
-1.87411558454869
30
0
41
1
10
46.3586396682337
20
-2.03649599559199
30
0
41
1
10
46.3697759182366
20
-2.19137698767705
30
0
41
1
10
46.3807834921022
20
-2.33130524181749
30
0
41
1
10
46.3890426253295
20
-2.43047527369805
30
0
41
1
10
46.3918011130506
20
-2.46261187945879
30
0
41
1
10
46.3972696559154
20
-2.5242097004498
30
0
41
1
10
46.3999870944148
20
-2.55376282297979
30
0
41
1
10
46.4081114610956
20
-2.63875003448297
30
0
41
1
10
46.4134902698926
20
-2.6905215724077
30
0
41
1
10
46.418895525689
20
-2.73745912353857
30
0
0
SPLINE
5
1AC
100
AcDbEntity
8
1
62
256
6
ByLayer
370
18
48
1
60
0
100
AcDbSpline
70
4
71
3
72
27
73
23
40
0
40
0
40
0
40
0
40
0.125000000000002
40
0.125000000000002
40
0.250000000000003
40
0.250000000000003
40
0.312500000000003
40
0.312500000000003
40
0.375000000000003
40
0.375000000000003
40
0.500000000000003
40
0.500000000000003
40
0.625000000000004
40
0.625000000000004
40
0.687500000000004
40
0.718750000000004
40
0.718750000000004
40
0.750000000000004
40
0.750000000000004
40
0.875000000000002
40
0.875000000000002
40
1
40
1
40
1
40
1
41
1
10
45.0513500287989
20
0.390269391017085
30
0
41
1
10
45.0598236767473
20
0.293018539062956
30
0
41
1
10
45.0682318928153
20
0.195425685739138
30
0
41
1
10
45.0851775038515
20
-0.0003963399099973
30
0
41
1
10
45.0936812473092
20
-0.098629646644639
30
0
41
1
10
45.1064640599358
20
-0.246470146239062
30
0
41
1
10
45.1107297830789
20
-0.295832208801386
30
0
41
1
10
45.1192713766636
20
-0.394722983932468
30
0
41
1
10
45.1235581654894
20
-0.44437841388023
30
0
41
1
10
45.1363021853507
20
-0.592010738279555
30
0
41
1
10
45.1446729745818
20
-0.689017515537074
30
0
41
1
10
45.161237404866
20
-0.880285261409995
30
0
41
1
10
45.1694309389584
20
-0.974545971374795
30
0
41
1
10
45.1816757909081
20
-1.11387372810145
30
0
41
1
10
45.1877873780992
20
-1.18302078506065
30
0
41
1
10
45.1939040626802
20
-1.25138277952257
30
0
41
1
10
45.1979857167617
20
-1.29678123258486
30
0
41
1
10
45.2000306784444
20
-1.31941677092476
30
0
41
1
10
45.2102463760019
20
-1.43186501967418
30
0
41
1
10
45.2183257166124
20
-1.51883971259503
30
0
41
1
10
45.2345225349114
20
-1.68707583883227
30
0
41
1
10
45.2426680989866
20
-1.76834374623476
30
0
41
1
10
45.2509428049502
20
-1.84679026933401
30
0
0
SPLINE
5
1AD
100
AcDbEntity
8
1
62
256
6
ByLayer
370
18
48
1
60
0
100
AcDbSpline
70
4
71
3
72
26
73
22
40
0
40
0
40
0
40
0
40
0.124999999999998
40
0.124999999999998
40
0.187499999999998
40
0.187499999999998
40
0.218749999999998
40
0.218749999999998
40
0.249999999999998
40
0.249999999999998
40
0.374999999999999
40
0.499999999999999
40
0.625
40
0.625
40
0.65625
40
0.65625
40
0.6875
40
0.749999999999999
40
0.749999999999999
40
0.875
40
1
40
1
40
1
40
1
41
1
10
52.5085550065363
20
-2.72364988065087
30
0
41
1
10
52.5030444062091
20
-2.67570914199854
30
0
41
1
10
52.4975133597848
20
-2.62296149119768
30
0
41
1
10
52.4892269159763
20
-2.53655844568178
30
0
41
1
10
52.4864647872441
20
-2.50654145488556
30
0
41
1
10
52.4823024476315
20
-2.45966116122358
30
0
41
1
10
52.4809112566707
20
-2.443725117714
30
0
41
1
10
52.4781184957414
20
-2.41122729959102
30
0
41
1
10
52.4767178872276
20
-2.39467097570031
30
0
41
1
10
52.4697336723082
20
-2.31081478807789
30
0
41
1
10
52.4586176004241
20
-2.16903210083953
30
0
41
1
10
52.4421288528856
20
-1.93420519399777
30
0
41
1
10
52.4311629729047
20
-1.76286420493736
30
0
41
1
10
52.4242501291968
20
-1.6509958712733
30
0
41
1
10
52.4228652045878
20
-1.62839428977071
30
0
41
1
10
52.4201031727487
20
-1.58297829436964
30
0
41
1
10
52.4159663817882
20
-1.51443813666083
30
0
41
1
10
52.4118336393739
20
-1.44466452828956
30
0
41
1
10
52.403553044645
20
-1.30349875924244
30
0
41
1
10
52.3925046861655
20
-1.11096849341376
30
0
41
1
10
52.3815402711872
20
-0.909869014156158
30
0
41
1
10
52.3760295995797
20
-0.807122539175595
30
0
0
SPLINE
5
1AE
100
AcDbEntity
8
1
62
256
6
ByLayer
370
18
48
1
60
0
100
AcDbSpline
70
4
71
3
72
29
73
25
40
0
40
0
40
0
40
0
40
0.125000000000001
40
0.125000000000001
40
0.187500000000001
40
0.187500000000001
40
0.250000000000001
40
0.250000000000001
40
0.375000000000001
40
0.375000000000001
40
0.500000000000001
40
0.500000000000001
40
0.562500000000001
40
0.562500000000001
40
0.625
40
0.625
40
0.75
40
0.75
40
0.875
40
0.875
40
0.937499999999999
40
0.96875
40
0.96875
40
1
40
1
40
1
40
1
41
1
10
52.2793080384731
20
-0.708935187940654
30
0
41
1
10
52.2847478694169
20
-0.811573042249933
30
0
41
1
10
52.290283312044
20
-0.913030538449704
30
0
41
1
10
52.2986972366733
20
-1.06341020987696
30
0
41
1
10
52.3015235817042
20
-1.11329174370175
30
0
41
1
10
52.307195104558
20
-1.21219716092591
30
0
41
1
10
52.3100218066765
20
-1.26090108043377
30
0
41
1
10
52.318470741016
20
-1.40481531799389
30
0
41
1
10
52.324060007433
20
-1.49783402736944
30
0
41
1
10
52.3351660530516
20
-1.67813212259719
30
0
41
1
10
52.3406870997224
20
-1.76541121541746
30
0
41
1
10
52.3489533350119
20
-1.8919654906403
30
0
41
1
10
52.3517051081975
20
-1.93342146095813
30
0
41
1
10
52.3572071184191
20
-2.01484764287943
30
0
41
1
10
52.3599610666886
20
-2.05486646770001
30
0
41
1
10
52.3681425445319
20
-2.17129543301871
30
0
41
1
10
52.3735170732112
20
-2.24455059971152
30
0
41
1
10
52.3842818737297
20
-2.38255927006733
30
0
41
1
10
52.3896914484292
20
-2.4473116604307
30
0
41
1
10
52.3979315613787
20
-2.53802670838507
30
0
41
1
10
52.4020791550625
20
-2.58177781408341
30
0
41
1
10
52.4062712941222
20
-2.62308330220284
30
0
41
1
10
52.4090761649304
20
-2.650070643454
30
0
41
1
10
52.4104852169591
20
-2.66330374104339
30
0
41
1
10
52.4118958223397
20
-2.676225690645
30
0
0
SPLINE
5
1AF
100
AcDbEntity
8
1
62
256
6
ByLayer
370
18
48
1
60
0
100
AcDbSpline
70
4
71
3
72
25
73
21
40
0
40
0
40
0
40
0
40
0.125
40
0.125
40
0.1875
40
0.1875
40
0.25
40
0.25
40
0.375000000000001
40
0.500000000000001
40
0.500000000000001
40
0.562500000000002
40
0.562500000000002
40
0.625000000000002
40
0.625000000000002
40
0.750000000000001
40
0.750000000000001
40
0.875000000000001
40
0.875000000000001
40
1
40
1
40
1
40
1
41
1
10
49.1070265894197
20
2.30069484924536
30
0
41
1
10
49.1124366390616
20
2.23121432017839
30
0
41
1
10
49.1177899486119
20
2.15758624814168
30
0
41
1
10
49.1259949027629
20
2.0408062261474
30
0
41
1
10
49.1287583524845
20
2.00082115537555
30
0
41
1
10
49.1343365002279
20
1.91868603791536
30
0
41
1
10
49.1371264999049
20
1.87689882057208
30
0
41
1
10
49.1454897166268
20
1.74944189137383
30
0
41
1
10
49.1566213546147
20
1.5739088486292
30
0
41
1
10
49.1676771045276
20
1.3874160090042
30
0
41
1
10
49.1759669374854
20
1.24338745252501
30
0
41
1
10
49.1787303509602
20
1.19468342835194
30
0
41
1
10
49.1842685554792
20
1.09586121076583
30
0
41
1
10
49.1870494611744
20
1.04562883495973
30
0
41
1
10
49.1953409862879
20
0.894466706557239
30
0
41
1
10
49.2008337677636
20
0.792635248511885
30
0
41
1
10
49.2117574827452
20
0.58691813814886
30
0
41
1
10
49.2171857728304
20
0.483032204116455
30
0
41
1
10
49.2280615297784
20
0.27320147287881
30
0
41
1
10
49.2335085228414
20
0.167243220485062
30
0
41
1
10
49.2390650781945
20
0.0602498400400862
30
0
0
SPLINE
5
1B0
100
AcDbEntity
8
1
62
256
6
ByLayer
370
18
48
1
60
0
100
AcDbSpline
70
4
71
3
72
29
73
25
40
0
40
0
40
0
40
0
40
0.0624999999999999
40
0.0624999999999999
40
0.125
40
0.125
40
0.25
40
0.25
40
0.375
40
0.375
40
0.4375
40
0.46875
40
0.46875
40
0.499999999999999
40
0.499999999999999
40
0.625
40
0.625
40
0.75
40
0.75
40
0.875
40
0.875
40
0.9375
40
0.9375
40
1
40
1
40
1
40
1
41
1
10
50.3935146426403
20
-1.12119752523569
30
0
41
1
10
50.3907689766659
20
-1.07190918492779
30
0
41
1
10
50.3880086385984
20
-1.02199561350594
30
0
41
1
10
50.3824462870275
20
-0.920894813893113
30
0
41
1
10
50.3796401026552
20
-0.869630567090951
30
0
41
1
10
50.3712414655954
20
-0.715696404617461
30
0
41
1
10
50.3656365615617
20
-0.612335855318037
30
0
41
1
10
50.3543776316727
20
-0.404180841963864
30
0
41
1
10
50.3487366636038
20
-0.299385629351406
30
0
41
1
10
50.3403563585276
20
-0.141105345410182
30
0
41
1
10
50.3361842107026
20
-0.0616929154702177
30
0
41
1
10
50.332038766546
20
0.0181340548975868
30
0
41
1
10
50.3292798563884
20
0.0714451403753458
30
0
41
1
10
50.3279013634727
20
0.0981754531113381
30
0
41
1
10
50.321033696469
20
0.231737858824914
30
0
41
1
10
50.315667630055
20
0.337435610230273
30
0
41
1
10
50.3049999489775
20
0.546597049941283
30
0
41
1
10
50.2996977172431
20
0.650060457322155
30
0
41
1
10
50.2888703092764
20
0.854744591001122
30
0
41
1
10
50.2833099479628
20
0.955963794841864
30
0
41
1
10
50.274853379615
20
1.10606349259001
30
0
41
1
10
50.2720120199458
20
1.15587079508745
30
0
41
1
10
50.266359125411
20
1.2537516690461
30
0
41
1
10
50.2635379379769
20
1.30196633150382
30
0
41
1
10
50.2607247355953
20
1.34946802439444
30
0
0
SPLINE
5
1B1
100
AcDbEntity
8
1
62
256
6
ByLayer
370
18
48
1
60
0
100
AcDbSpline
70
4
71
3
72
36
73
32
40
0
40
0
40
0
40
0
40
0.0624999999999999
40
0.0624999999999999
40
0.0937499999999999
40
0.0937499999999999
40
0.125
40
0.125
40
0.1875
40
0.1875
40
0.25
40
0.25
40
0.28125
40
0.28125
40
0.3125
40
0.3125
40
0.375
40
0.375
40
0.5
40
0.5
40
0.5625
40
0.5625
40
0.625
40
0.625
40
0.75
40
0.75
40
0.8125
40
0.8125
40
0.875
40
0.875
40
1
40
1
40
1
40
1
41
1
10
57.33
20
1.98759477314269
30
0
41
1
10
57.33
20
1.93200253471753
30
0
41
1
10
57.33
20
1.87685088709691
30
0
41
1
10
57.33
20
1.79478182821813
30
0
41
1
10
57.33
20
1.76753534966875
30
0
41
1
10
57.33
20
1.71326731642907
30
0
41
1
10
57.33
20
1.6861770755493
30
0
41
1
10
57.33
20
1.60654960982203
30
0
41
1
10
57.33
20
1.55525345118988
30
0
41
1
10
57.33
20
1.45615157908415
30
0
41
1
10
57.33
20
1.40832511175901
30
0
41
1
10
57.33
20
1.33938684069679
30
0
41
1
10
57.33
20
1.31713341902355
30
0
41
1
10
57.33
20
1.27307853460115
30
0
41
1
10
57.33
20
1.2513551543899
30
0
41
1
10
57.33
20
1.18714869204538
30
0
41
1
10
57.33
20
1.14560727946366
30
0
41
1
10
57.33
20
1.02471390353446
30
0
41
1
10
57.33
20
0.949062698712027
30
0
41
1
10
57.33
20
0.843152461988268
30
0
41
1
10
57.33
20
0.809024434847345
30
0
41
1
10
57.33
20
0.744112177099055
30
0
41
1
10
57.33
20
0.713258413794222
30
0
41
1
10
57.33
20
0.625413289222763
30
0
41
1
10
57.33
20
0.573110951254563
30
0
41
1
10
57.33
20
0.504044890636095
30
0
41
1
10
57.33
20
0.482589751207655
30
0
41
1
10
57.33
20
0.442881505327392
30
0
41
1
10
57.33
20
0.424584914593993
30
0
41
1
10
57.33
20
0.375152554848739
30
0
41
1
10
57.33
20
0.349281973280029
30
0
41
1
10
57.3299999999999
20
0.330372467695753
30
0
0
SPLINE
5
1B2
100
AcDbEntity
8
1
62
256
6
ByLayer
370
18
48
1
60
0
100
AcDbSpline
70
4
71
3
72
14
73
10
40
0
40
0
40
0
40
0
40
0.124999999999986
40
0.124999999999986
40
0.249999999999971
40
0.249999999999971
40
0.49999999999998
40
0.49999999999998
40
1
40
1
40
1
40
1
41
1
10
56.8668226777505
20
2.44465601345121
30
0
41
1
10
56.8865269966088
20
2.42592262640454
30
0
41
1
10
56.9063551920116
20
2.4069568958505
30
0
41
1
10
56.9458986498795
20
2.36900911008496
30
0
41
1
10
56.965592728315
20
2.35005001326942
30
0
41
1
10
57.0244258400883
20
2.29320084661956
30
0
41
1
10
57.063347455282
20
2.25530196755878
30
0
41
1
10
57.179216609812
20
2.14132615481012
30
0
41
1
10
57.2553177752196
20
2.0649375899151
30
0
41
1
10
57.3299999999967
20
1.98759477314442
30
0
0
SPLINE
5
1B3
100
AcDbEntity
8
1
62
256
6
ByLayer
370
18
48
1
60
0
100
AcDbSpline
70
4
71
3
72
8
73
4
40
0
40
0
40
0
40
0
40
1
40
1
40
1
40
1
41
1
10
56.8668226777498
20
2.4446560134526
30
0
41
1
10
56.7939126859403
20
2.45736098019989
30
0
41
1
10
56.7215854646127
20
2.4678136758979
30
0
41
1
10
56.6496891921548
20
2.47598483840801
30
0
0
SPLINE
5
1B4
100
AcDbEntity
8
1
62
256
6
ByLayer
370
18
48
1
60
0
100
AcDbSpline
70
4
71
3
72
8
73
4
40
0
40
0
40
0
40
0
40
1
40
1
40
1
40
1
41
1
10
56.6496891921548
20
2.47598483840801
30
0
41
1
10
56.645960672239
20
2.46939841497823
30
0
41
1
10
56.6422298945744
20
2.46279891850364
30
0
41
1
10
56.6384969654709
20
2.45618659607015
30
0
0
SPLINE
5
1B5
100
AcDbEntity
8
1
62
256
6
ByLayer
370
18
48
1
60
0
100
AcDbSpline
70
4
71
3
72
28
73
24
40
0
40
0
40
0
40
0
40
0.125
40
0.125
40
0.25
40
0.25
40
0.375
40
0.375
40
0.5
40
0.5
40
0.625
40
0.625
40
0.6875
40
0.6875
40
0.75
40
0.75
40
0.8125
40
0.8125
40
0.875
40
0.875
40
0.9375
40
0.9375
40
1
40
1
40
1
40
1
41
1
10
56.6384969654709
20
2.45618659607015
30
0
41
1
10
56.6313350363848
20
2.44350031592674
30
0
41
1
10
56.6230345041173
20
2.43225608726533
30
0
41
1
10
56.6046793028318
20
2.41196710012375
30
0
41
1
10
56.5945332257924
20
2.40289664056189
30
0
41
1
10
56.5733267175275
20
2.38732360669724
30
0
41
1
10
56.5622019468651
20
2.38073512554519
30
0
41
1
10
56.5389762413457
20
2.36987302498065
30
0
41
1
10
56.5267610438536
20
2.36558576099114
30
0
41
1
10
56.5021599592255
20
2.3597962272739
30
0
41
1
10
56.4897214772744
20
2.3582391781255
30
0
41
1
10
56.4708699715676
20
2.35818718293115
30
0
41
1
10
56.4645534245382
20
2.35855418170163
30
0
41
1
10
56.4518512995473
20
2.36017357263233
30
0
41
1
10
56.4454808164898
20
2.3614312393982
30
0
41
1
10
56.4330125977995
20
2.36489212458656
30
0
41
1
10
56.4268752450242
20
2.36709810130105
30
0
41
1
10
56.4148331369701
20
2.37260935650559
30
0
41
1
10
56.4088846781732
20
2.37594840372637
30
0
41
1
10
56.3976148831907
20
2.38373750834745
30
0
41
1
10
56.3922686835691
20
2.3881870984342
30
0
41
1
10
56.3822505235095
20
2.39838319348445
30
0
41
1
10
56.377572120633
20
2.40415874846383
30
0
41
1
10
56.3734501632416
20
2.41051900562346
30
0
0
SPLINE
5
1B6
100
AcDbEntity
8
1
62
256
6
ByLayer
370
18
48
1
60
0
100
AcDbSpline
70
4
71
3
72
8
73
4
40
0
40
0
40
0
40
0
40
1
40
1
40
1
40
1
41
1
10
56.3734501632392
20
2.4105190056292
30
0
41
1
10
56.3544873786602
20
2.43977893603298
30
0
41
1
10
56.3355664304589
20
2.46875350133473
30
0
41
1
10
56.3166818581419
20
2.4974500363779
30
0
0
SPLINE
5
1B7
100
AcDbEntity
8
1
62
256
6
ByLayer
370
18
48
1
60
0
100
AcDbSpline
70
4
71
3
72
10
73
6
40
0
40
0
40
0
40
0
40
0.5
40
0.5
40
1
40
1
40
1
40
1
41
1
10
56.3166818581419
20
2.4974500363779
30
0
41
1
10
56.2176217784238
20
2.49885922425918
30
0
41
1
10
56.1190089223112
20
2.49575509283747
30
0
41
1
10
55.9220343012472
20
2.48050405800146
30
0
41
1
10
55.8238462954079
20
2.46823917895344
30
0
41
1
10
55.725722816078
20
2.45116259148594
30
0
0
SPLINE
5
1B8
100
AcDbEntity
8
1
62
256
6
ByLayer
370
18
48
1
60
0
100
AcDbSpline
70
4
71
3
72
20
73
16
40
0
40
0
40
0
40
0
40
0.169867875760256
40
0.169867875760256
40
0.308223229800214
40
0.308223229800214
40
0.446578583840171
40
0.446578583840171
40
0.584933937880128
40
0.584933937880128
40
0.723289291920085
40
0.723289291920085
40
0.861644645960043
40
0.861644645960043
40
1
40
1
40
1
40
1
41
1
10
48.0390724917128
20
-2.4135402769389
30
0
41
1
10
48.0314515712431
20
-2.41396680869465
30
0
41
1
10
48.023780333951
20
-2.41490973295765
30
0
41
1
10
48.0097747426795
20
-2.41763638399675
30
0
41
1
10
48.0034561310494
20
-2.4192352696615
30
0
41
1
10
47.9907543240652
20
-2.42329715470788
30
0
41
1
10
47.9844040409062
20
-2.42575555414575
30
0
41
1
10
47.9719720377394
20
-2.43152588730007
30
0
41
1
10
47.9658548997942
20
-2.43484725697476
30
0
41
1
10
47.9538554451805
20
-2.44250002985456
30
0
41
1
10
47.9479313040444
20
-2.44687176237216
30
0
41
1
10
47.9367129552845
20
-2.45655870684192
30
0
41
1
10
47.9313902138733
20
-2.46188136798216
30
0
41
1
10
47.9214137093639
20
-2.47364602826889
30
0
41
1
10
47.9167545887729
20
-2.48011563276589
30
0
41
1
10
47.9126468292502
20
-2.48704012246554
30
0
0
SPLINE
5
1B9
100
AcDbEntity
8
1
62
256
6
ByLayer
370
18
48
1
60
0
100
AcDbSpline
70
4
71
3
72
12
73
8
40
0
40
0
40
0
40
0
40
0.5
40
0.5
40
0.75
40
0.75
40
1
40
1
40
1
40
1
41
1
10
47.9126468292477
20
-2.48704012247043
30
0
41
1
10
47.8551886238119
20
-2.58389797150903
30
0
41
1
10
47.7980823143449
20
-2.67956196352003
30
0
41
1
10
47.7130915620906
20
-2.82063163372203
30
0
41
1
10
47.6848688728785
20
-2.86725592524476
30
0
41
1
10
47.6287144444419
20
-2.95951028164191
30
0
41
1
10
47.600766398122
20
-3.00516747920287
30
0
41
1
10
47.5729244263044
20
-3.05035507526523
30
0
0
SPLINE
5
1BA
100
AcDbEntity
8
1
62
256
6
ByLayer
370
18
48
1
60
0
100
AcDbSpline
70
4
71
3
72
8
73
4
40
0
40
0
40
0
40
0
40
1
40
1
40
1
40
1
41
1
10
47.4770669814528
20
-3.04208013348446
30
0
41
1
10
47.5090253943514
20
-3.0453854289604
30
0
41
1
10
47.5409751747866
20
-3.04814361457886
30
0
41
1
10
47.5729244263044
20
-3.05035507526506
30
0
0
SPLINE
5
1BB
100
AcDbEntity
8
1
62
256
6
ByLayer
370
18
48
1
60
0
100
AcDbSpline
70
4
71
3
72
10
73
6
40
0
40
0
40
0
40
0
40
0.5
40
0.5
40
1
40
1
40
1
40
1
41
1
10
47.4770669814528
20
-3.04208013348449
30
0
41
1
10
47.4185511331998
20
-2.94032125788865
30
0
41
1
10
47.3596245924958
20
-2.83535187430476
30
0
41
1
10
47.2405322652222
20
-2.61906063325966
30
0
41
1
10
47.1806190672925
20
-2.50819321303533
30
0
41
1
10
47.1200654059573
20
-2.39457355598935
30
0
0
SPLINE
5
1BC
100
AcDbEntity
8
1
62
256
6
ByLayer
370
18
48
1
60
0
100
AcDbSpline
70
4
71
3
72
28
73
24
40
0
40
0
40
0
40
0
40
0.125
40
0.125
40
0.25
40
0.25
40
0.375
40
0.375
40
0.5
40
0.5
40
0.625
40
0.625
40
0.6875
40
0.6875
40
0.75
40
0.75
40
0.8125
40
0.8125
40
0.875
40
0.875
40
0.9375
40
0.9375
40
1
40
1
40
1
40
1
41
1
10
47.1200654059573
20
-2.39457355598935
30
0
41
1
10
47.1128961571156
20
-2.38112156024354
30
0
41
1
10
47.1045857168029
20
-2.36902962296904
30
0
41
1
10
47.086202148873
20
-2.34692032609914
30
0
41
1
10
47.0760346132583
20
-2.33686784979787
30
0
41
1
10
47.0547900487319
20
-2.3192929675707
30
0
41
1
10
47.0436510259042
20
-2.31167796951493
30
0
41
1
10
47.0204062153171
20
-2.29870164341148
30
0
41
1
10
47.0081867079316
20
-2.29331721526015
30
0
41
1
10
46.9835816544561
20
-2.28533458815448
30
0
41
1
10
46.9711394647947
20
-2.28267618899943
30
0
41
1
10
46.9522841533574
20
-2.28095805458881
30
0
41
1
10
46.945966814727
20
-2.28076721014975
30
0
41
1
10
46.9332666317674
20
-2.28126204063946
30
0
41
1
10
46.9269087487799
20
-2.28195328733739
30
0
41
1
10
46.9144648748177
20
-2.28429499804614
30
0
41
1
10
46.9083414979716
20
-2.28594476873178
30
0
41
1
10
46.8963292149065
20
-2.29035033997985
30
0
41
1
10
46.8903971885941
20
-2.29313589893869
30
0
41
1
10
46.8791597760431
20
-2.29985920659115
30
0
41
1
10
46.8738281593039
20
-2.30379506305792
30
0
41
1
10
46.8638358297302
20
-2.31300764251566
30
0
41
1
10
46.8591683894915
20
-2.31831256890831
30
0
41
1
10
46.8550540744118
20
-2.3242450427671
30
0
0
SPLINE
5
1BD
100
AcDbEntity
8
1
62
256
6
ByLayer
370
18
48
1
60
0
100
AcDbSpline
70
4
71
3
72
12
73
8
40
0
40
0
40
0
40
0
40
0.5
40
0.5
40
0.75
40
0.75
40
1
40
1
40
1
40
1
41
1
10
46.8550540744095
20
-2.32424504277293
30
0
41
1
10
46.7976187882005
20
-2.40706158147765
30
0
41
1
10
46.7405282888881
20
-2.48675322610785
30
0
41
1
10
46.6555706654955
20
-2.60106228605238
30
0
41
1
10
46.6273597525064
20
-2.63830502957703
30
0
41
1
10
46.5712312854447
20
-2.71094583651592
30
0
41
1
10
46.5432971336213
20
-2.74636656624793
30
0
41
1
10
46.5154694378979
20
-2.78090272889028
30
0
0
SPLINE
5
1BE
100
AcDbEntity
8
1
62
256
6
ByLayer
370
18
48
1
60
0
100
AcDbSpline
70
4
71
3
72
8
73
4
40
0
40
0
40
0
40
0
40
1
40
1
40
1
40
1
41
1
10
46.418895525689
20
-2.73745912353854
30
0
41
1
10
46.4510674214079
20
-2.75243102720776
30
0
41
1
10
46.4832559995218
20
-2.76691403520317
30
0
41
1
10
46.5154694378979
20
-2.78090272889014
30
0
0
SPLINE
5
1BF
100
AcDbEntity
8
1
62
256
6
ByLayer
370
18
48
1
60
0
100
AcDbSpline
70
4
71
3
72
10
73
6
40
0
40
0
40
0
40
0
40
0.5
40
0.5
40
1
40
1
40
1
40
1
41
1
10
46.418895525689
20
-2.73745912353854
30
0
41
1
10
46.3604336976761
20
-2.61673960196705
30
0
41
1
10
46.301572812057
20
-2.49489077880733
30
0
41
1
10
46.1826473114867
20
-2.2491909757421
30
0
41
1
10
46.122834407545
20
-2.12584947231454
30
0
41
1
10
46.0624053626129
20
-2.00211935394776
30
0
0
SPLINE
5
1C0
100
AcDbEntity
8
1
62
256
6
ByLayer
370
18
48
1
60
0
100
AcDbSpline
70
4
71
3
72
28
73
24
40
0
40
0
40
0
40
0
40
0.125000000000031
40
0.125000000000031
40
0.250000000000063
40
0.250000000000063
40
0.375000000000094
40
0.375000000000094
40
0.500000000000125
40
0.500000000000125
40
0.625000000000157
40
0.625000000000157
40
0.68750000000013
40
0.68750000000013
40
0.750000000000104
40
0.750000000000104
40
0.812500000000078
40
0.812500000000078
40
0.875000000000052
40
0.875000000000052
40
0.937500000000026
40
0.937500000000026
40
1
40
1
40
1
40
1
41
1
10
46.0624053626129
20
-2.00211935394776
30
0
41
1
10
46.0552354405436
20
-1.98743874287226
30
0
41
1
10
46.0469240509645
20
-1.97373018615357
30
0
41
1
10
46.0285388822602
20
-1.94780505907923
30
0
41
1
10
46.0183712506702
20
-1.93552968054686
30
0
41
1
10
45.997127872541
20
-1.91312660417242
30
0
41
1
10
45.9859897658473
20
-1.90289388330305
30
0
41
1
10
45.9627485738805
20
-1.88427775482063
30
0
41
1
10
45.9505318816425
20
-1.87584123340164
30
0
41
1
10
45.9259324343356
20
-1.86150464799695
30
0
41
1
10
45.9134934358283
20
-1.8555331059822
30
0
41
1
10
45.8946428574997
20
-1.84859287179279
30
0
41
1
10
45.8883270811039
20
-1.84661883245181
30
0
41
1
10
45.8756297699465
20
-1.8434460648391
30
0
41
1
10
45.8692713944806
20
-1.84225908390096
30
0
41
1
10
45.8568261314333
20
-1.84082648269515
30
0
41
1
10
45.8507015525084
20
-1.8405694570674
30
0
41
1
10
45.8386855749163
20
-1.84111392583148
30
0
41
1
10
45.8327509046728
20
-1.84192976209766
30
0
41
1
10
45.8215061518503
20
-1.84477048349049
30
0
41
1
10
45.8161702493773
20
-1.84678611255529
30
0
41
1
10
45.8061684250314
20
-1.85220895502118
30
0
41
1
10
45.801496022361
20
-1.85563938920566
30
0
41
1
10
45.7973773528901
20
-1.85979082024423
30
0
0
SPLINE
5
1C1
100
AcDbEntity
8
1
62
256
6
ByLayer
370
18
48
1
60
0
100
AcDbSpline
70
4
71
3
72
8
73
4
40
0
40
0
40
0
40
0
40
1
40
1
40
1
40
1
41
1
10
45.4828808129417
20
-2.13247068808056
30
0
41
1
10
45.4058847232555
20
-2.0377560257248
30
0
41
1
10
45.3286441226177
20
-1.94246593132706
30
0
41
1
10
45.2509428049502
20
-1.84679026933401
30
0
0
SPLINE
5
1C2
100
AcDbEntity
8
1
62
256
6
ByLayer
370
18
48
1
60
0
100
AcDbSpline
70
4
71
3
72
10
73
6
40
0
40
0
40
0
40
0
40
0.5
40
0.5
40
1
40
1
40
1
40
1
41
1
10
45.2509428049502
20
-1.84679026933401
30
0
41
1
10
45.2103695962949
20
-1.76268545641739
30
0
41
1
10
45.1695213579223
20
-1.67908736449462
30
0
41
1
10
45.0875203044949
20
-1.51375521680674
30
0
41
1
10
45.0463354626342
20
-1.43196328575482
30
0
41
1
10
45.0048716191979
20
-1.351107686613
30
0
0
SPLINE
5
1C3
100
AcDbEntity
8
1
62
256
6
ByLayer
370
18
48
1
60
0
100
AcDbSpline
70
4
71
3
72
28
73
24
40
0
40
0
40
0
40
0
40
0.125000000000031
40
0.125000000000031
40
0.250000000000063
40
0.250000000000063
40
0.375000000000094
40
0.375000000000094
40
0.500000000000125
40
0.500000000000125
40
0.625000000000157
40
0.625000000000157
40
0.68750000000013
40
0.68750000000013
40
0.750000000000104
40
0.750000000000104
40
0.812500000000078
40
0.812500000000078
40
0.875000000000052
40
0.875000000000052
40
0.937500000000026
40
0.937500000000026
40
1
40
1
40
1
40
1
41
1
10
45.004871619198
20
-1.35110768661408
30
0
41
1
10
44.9977003429075
20
-1.33712350683166
30
0
41
1
10
44.9893868658802
20
-1.32359758931705
30
0
41
1
10
44.9709971128896
20
-1.29726225990666
30
0
41
1
10
44.960827002626
20
-1.28437761263456
30
0
41
1
10
44.9395797063805
20
-1.26009443221841
30
0
41
1
10
44.9284398466459
20
-1.24859252019863
30
0
41
1
10
44.9051967693564
20
-1.22679358545574
30
0
41
1
10
44.8929800464143
20
-1.21642052348733
30
0
41
1
10
44.8683817105068
20
-1.19762986180638
30
0
41
1
10
44.8559441591728
20
-1.18913898284745
30
0
41
1
10
44.8370970840305
20
-1.17790440668756
30
0
41
1
10
44.8307826923856
20
-1.17441218914669
30
0
41
1
10
44.8180885044778
20
-1.16800088401609
30
0
41
1
10
44.8117309744388
20
-1.16509758229765
30
0
41
1
10
44.7992873728572
20
-1.16009108916128
30
0
41
1
10
44.7931634707404
20
-1.15796733621696
30
0
41
1
10
44.7811485971022
20
-1.15459161479674
30
0
41
1
10
44.7752142523282
20
-1.15333671833173
30
0
41
1
10
44.7639692187524
20
-1.15193242311452
30
0
41
1
10
44.7586329835078
20
-1.1517679485234
30
0
41
1
10
44.7486301945182
20
-1.15269633198491
30
0
41
1
10
44.7439571293153
20
-1.15380447714082
30
0
41
1
10
44.7398378353617
20
-1.15563103016393
30
0
0
SPLINE
5
1C4
100
AcDbEntity
8
1
62
256
6
ByLayer
370
18
48
1
60
0
100
AcDbSpline
70
4
71
3
72
10
73
6
40
0
40
0
40
0
40
0
40
0.5
40
0.5
40
1
40
1
40
1
40
1
41
1
10
44.6965126227507
20
-1.17380998566875
30
0
41
1
10
44.6605698773038
20
-1.13126793372305
30
0
41
1
10
44.6243646919974
20
-1.08871892373779
30
0
41
1
10
44.5515631781057
20
-1.0039065171014
30
0
41
1
10
44.5150358301149
20
-0.961726517083235
30
0
41
1
10
44.4783539700044
20
-0.919797052639552
30
0
0
SPLINE
5
1C5
100
AcDbEntity
8
1
62
256
6
ByLayer
370
18
48
1
60
0
100
AcDbSpline
70
4
71
3
72
12
73
8
40
0
40
0
40
0
40
0
40
0.25
40
0.25
40
0.5
40
0.5
40
1
40
1
40
1
40
1
41
1
10
44.4783539700044
20
-0.919797052639524
30
0
41
1
10
44.4371776796331
20
-0.872730197309863
30
0
41
1
10
44.3947734974734
20
-0.826988135352764
30
0
41
1
10
44.3075010742921
20
-0.738163255747679
30
0
41
1
10
44.2625644279878
20
-0.695155414251474
30
0
41
1
10
44.124230188785
20
-0.569926839540045
30
0
41
1
10
44.027498237633
20
-0.491292444740566
30
0
41
1
10
43.9283539700044
20
-0.415197859523175
30
0
0
SPLINE
5
1C6
100
AcDbEntity
8
1
62
256
6
ByLayer
370
18
48
1
60
0
100
AcDbSpline
70
4
71
3
72
55
73
51
40
0
40
0
40
0
40
0
40
0.0625
40
0.0625
40
0.125
40
0.125
40
0.15625
40
0.15625
40
0.1875
40
0.1875
40
0.25
40
0.25
40
0.265624999999998
40
0.265624999999998
40
0.281249999999995
40
0.281249999999995
40
0.312499999999991
40
0.312499999999991
40
0.374999999999982
40
0.374999999999982
40
0.406249999999978
40
0.406249999999978
40
0.437499999999973
40
0.437499999999973
40
0.499999999999964
40
0.499999999999964
40
0.531249999999962
40
0.546874999999961
40
0.546874999999961
40
0.56249999999996
40
0.56249999999996
40
0.62499999999996
40
0.62499999999996
40
0.656249999999962
40
0.656249999999962
40
0.687499999999964
40
0.687499999999964
40
0.749999999999973
40
0.749999999999973
40
0.812499999999984
40
0.812499999999984
40
0.828124999999986
40
0.828124999999986
40
0.843749999999989
40
0.843749999999989
40
0.874999999999991
40
0.874999999999991
40
0.937499999999995
40
0.937499999999995
40
1
40
1
40
1
40
1
41
1
10
43.9283539700044
20
-0.415197859523175
30
0
41
1
10
43.8069132546984
20
-0.321990444906675
30
0
41
1
10
43.6864158270638
20
-0.228098296310861
30
0
41
1
10
43.4464365000619
20
-0.0400679223751865
30
0
41
1
10
43.3269487483872
20
0.0540622441151584
30
0
41
1
10
43.1477053820854
20
0.194446822081289
30
0
41
1
10
43.0879560730303
20
0.241107192484492
30
0
41
1
10
42.9683068390793
20
0.333970410570771
30
0
41
1
10
42.9083945613911
20
0.380157553096211
30
0
41
1
10
42.7283707270963
20
0.517956132403327
30
0
41
1
10
42.6081269914379
20
0.609002962905237
30
0
41
1
10
42.4572448222586
20
0.721396374843039
30
0
41
1
10
42.4270363004759
20
0.743800183998246
30
0
41
1
10
42.3665423895649
20
0.788441351974996
30
0
41
1
10
42.3362295010679
20
0.810698880370353
30
0
41
1
10
42.2453576760441
20
0.877050256934979
30
0
41
1
10
42.184990331292
20
0.920633035746704
30
0
41
1
10
42.0043555874664
20
1.04925192486132
30
0
41
1
10
41.884560222192
20
1.13216114627491
30
0
41
1
10
41.7050105791195
20
1.25147937716565
30
0
41
1
10
41.6451850710436
20
1.29041212193832
30
0
41
1
10
41.5254241217021
20
1.3664478461601
30
0
41
1
10
41.4654865707537
20
1.40355146239565
30
0
41
1
10
41.2858103061152
20
1.51243460172967
30
0
41
1
10
41.1660533297698
20
1.58162138196215
30
0
41
1
10
40.985839565376
20
1.67958911016092
30
0
41
1
10
40.8955894344289
20
1.72712099183104
30
0
41
1
10
40.8050046972528
20
1.77233719052757
30
0
41
1
10
40.7445267253268
20
1.80195090359783
30
0
41
1
10
40.7142110526767
20
1.81650768869025
30
0
41
1
10
40.5628907344982
20
1.88768723885289
30
0
41
1
10
40.4426149371962
20
1.93955055817119
30
0
41
1
10
40.2624199437493
20
2.00934509693821
30
0
41
1
10
40.2023643870559
20
2.03126434410146
30
0
41
1
10
40.0823975231684
20
2.07252408780729
30
0
41
1
10
40.0225019687695
20
2.09187099114266
30
0
41
1
10
39.8429556826593
20
2.14598722387521
30
0
41
1
10
39.7234701299551
20
2.17684221336046
30
0
41
1
10
39.4840453925725
20
2.22756573501397
30
0
41
1
10
39.364109534942
20
2.24743220008327
30
0
41
1
10
39.2132654487329
20
2.26506330656918
30
0
41
1
10
39.1830497153684
20
2.26822952174427
30
0
41
1
10
39.1225055815412
20
2.27383443465962
30
0
41
1
10
39.092156440573
20
2.27627378186804
30
0
41
1
10
39.0012908523517
20
2.28246917335804
30
0
41
1
10
38.9408311231862
20
2.28511470600699
30
0
41
1
10
38.7597754536488
20
2.28870062212343
30
0
41
1
10
38.6397341028377
20
2.28529609121742
30
0
41
1
10
38.4002694761269
20
2.26703775284673
30
0
41
1
10
38.2808517821592
20
2.25217958316011
30
0
41
1
10
38.1613288415685
20
2.23165349227466
30
0
0
SPLINE
5
1C7
100
AcDbEntity
8
1
62
256
6
ByLayer
370
18
48
1
60
0
100
AcDbSpline
70
4
71
3
72
67
73
63
40
0
40
0
40
0
40
0
40
0.0624999999999986
40
0.0624999999999986
40
0.124999999999997
40
0.124999999999997
40
0.156249999999997
40
0.156249999999997
40
0.187499999999996
40
0.187499999999996
40
0.203124999999996
40
0.203124999999996
40
0.218749999999997
40
0.218749999999997
40
0.249999999999998
40
0.249999999999998
40
0.312500000000002
40
0.312500000000002
40
0.343750000000003
40
0.343750000000003
40
0.375000000000004
40
0.375000000000004
40
0.406250000000005
40
0.406250000000005
40
0.421875000000004
40
0.421875000000004
40
0.437500000000004
40
0.437500000000004
40
0.468750000000003
40
0.468750000000003
40
0.500000000000002
40
0.500000000000002
40
0.515625000000002
40
0.515625000000002
40
0.531250000000002
40
0.531250000000002
40
0.562500000000001
40
0.562500000000001
40
0.624999999999999
40
0.624999999999999
40
0.640625
40
0.640625
40
0.65625
40
0.671875000000001
40
0.671875000000001
40
0.687500000000001
40
0.687500000000001
40
0.718750000000002
40
0.718750000000002
40
0.750000000000003
40
0.750000000000003
40
0.812500000000008
40
0.812500000000008
40
0.843750000000009
40
0.843750000000009
40
0.85937500000001
40
0.85937500000001
40
0.87500000000001
40
0.87500000000001
40
0.937500000000005
40
0.937500000000005
40
1
40
1
40
1
40
1
41
1
10
36.4952856958924
20
1.87880515558081
30
0
41
1
10
36.6506205568936
20
1.80936137463991
30
0
41
1
10
36.8056020267374
20
1.73300657491981
30
0
41
1
10
37.114802632886
20
1.56705695617089
30
0
41
1
10
37.269104544657
20
1.47753638559087
30
0
41
1
10
37.499974887244
20
1.33306662413574
30
0
41
1
10
37.576783720787
20
1.28314111397961
30
0
41
1
10
37.7309406676348
20
1.18057537552431
30
0
41
1
10
37.8084147500705
20
1.12808346477974
30
0
41
1
10
37.9252696946147
20
1.04760023209789
30
0
41
1
10
37.9643770653337
20
1.02044338100771
30
0
41
1
10
38.0425322150864
20
0.965716626893993
30
0
41
1
10
38.0815496600004
20
0.938165421302642
30
0
41
1
10
38.1984212872443
20
0.854952662846841
30
0
41
1
10
38.2761051863882
20
0.798745019877231
30
0
41
1
10
38.508569271925
20
0.628074692304779
30
0
41
1
10
38.6627069334416
20
0.511501702642931
30
0
41
1
10
38.8930816907229
20
0.332954575543397
30
0
41
1
10
38.9696520617462
20
0.272713784953425
30
0
41
1
10
39.1235231945687
20
0.15229069753525
30
0
41
1
10
39.2007275271801
20
0.0919867106565562
30
0
41
1
10
39.3557405071998
20
-0.028713667254749
30
0
41
1
10
39.4335564147015
20
-0.0891003381676398
30
0
41
1
10
39.5507654728008
20
-0.179713192805082
30
0
41
1
10
39.5899681254039
20
-0.209964646439659
30
0
41
1
10
39.6681834319372
20
-0.270223291614997
30
0
41
1
10
39.7072069526286
20
-0.300241751977268
30
0
41
1
10
39.8240233107636
20
-0.389971569974904
30
0
41
1
10
39.9015669929459
20
-0.449351241687765
30
0
41
1
10
40.0560621473683
20
-0.567136458448658
30
0
41
1
10
40.1329923477059
20
-0.62556850677953
30
0
41
1
10
40.2480488260849
20
-0.71233909178784
30
0
41
1
10
40.2863634693645
20
-0.741092345532877
30
0
41
1
10
40.36309092177
20
-0.798047801307774
30
0
41
1
10
40.4015033150032
20
-0.826251045713747
30
0
41
1
10
40.5168862130404
20
-0.910046008244024
30
0
41
1
10
40.5940057283939
20
-0.964820512831352
30
0
41
1
10
40.8258226283175
20
-1.12606146163503
30
0
41
1
10
40.9808975408084
20
-1.22954387003347
30
0
41
1
10
41.1759479393182
20
-1.35311820236379
30
0
41
1
10
41.2150671638301
20
-1.37757595616262
30
0
41
1
10
41.2930542439393
20
-1.42567415168853
30
0
41
1
10
41.3708374457906
20
-1.47298905983655
30
0
41
1
10
41.4482220002068
20
-1.51873345901535
30
0
41
1
10
41.5254078340983
20
-1.56369031929196
30
0
41
1
10
41.5638787159276
20
-1.5857949852263
30
0
41
1
10
41.6793668949185
20
-1.65057707918982
30
0
41
1
10
41.7564278737709
20
-1.69176490325992
30
0
41
1
10
41.9105455010373
20
-1.77037450761887
30
0
41
1
10
41.9876373344309
20
-1.80776320065422
30
0
41
1
10
42.2191320300726
20
-1.91415115363259
30
0
41
1
10
42.3737183769895
20
-1.97743624762725
30
0
41
1
10
42.6060839546046
20
-2.06052715800601
30
0
41
1
10
42.6836435333785
20
-2.08622799281812
30
0
41
1
10
42.800215317669
20
-2.12163792007917
30
0
41
1
10
42.8391408055672
20
-2.13293061438569
30
0
41
1
10
42.9168170215176
20
-2.15431544002001
30
0
41
1
10
42.9556444503172
20
-2.16439747486427
30
0
41
1
10
43.1497960152078
20
-2.21177878816403
30
0
41
1
10
43.3051925061349
20
-2.24003198248934
30
0
41
1
10
43.6164074790832
20
-2.27777797993784
30
0
41
1
10
43.7722879273139
20
-2.28727460121095
30
0
41
1
10
43.9283539700027
20
-2.287045997435
30
0
0
SPLINE
5
1C8
100
AcDbEntity
8
1
62
256
6
ByLayer
370
18
48
1
60
0
100
AcDbSpline
70
4
71
3
72
14
73
10
40
0
40
0
40
0
40
0
40
0.25
40
0.25
40
0.5
40
0.5
40
0.75
40
0.75
40
1
40
1
40
1
40
1
41
1
10
43.9283539700035
20
-2.28704599743494
30
0
41
1
10
43.9763029872807
20
-2.28697576225619
30
0
41
1
10
44.0238211605861
20
-2.28910658060226
30
0
41
1
10
44.1178061684313
20
-2.29754518468039
30
0
41
1
10
44.1642756365519
20
-2.30384986348815
30
0
41
1
10
44.2560715283375
20
-2.32069652086378
30
0
41
1
10
44.3014039560002
20
-2.331233569125
30
0
41
1
10
44.3909360475745
20
-2.35705788116778
30
0
41
1
10
44.435168601901
20
-2.37239919501889
30
0
41
1
10
44.4783539700044
20
-2.39021241910186
30
0
0
SPLINE
5
1C9
100
AcDbEntity
8
1
62
256
6
ByLayer
370
18
48
1
60
0
100
AcDbSpline
70
4
71
3
72
14
73
10
40
0
40
0
40
0
40
0
40
0.125000000000012
40
0.125000000000012
40
0.250000000000024
40
0.250000000000024
40
0.500000000000016
40
0.500000000000016
40
1
40
1
40
1
40
1
41
1
10
55.8861502489851
20
1.5318982964244
30
0
41
1
10
55.916315029763
20
1.50634428974331
30
0
41
1
10
55.9464771559129
20
1.48063991712794
30
0
41
1
10
56.0067981445694
20
1.42893382889542
30
0
41
1
10
56.0369580784497
20
1.40293270410439
30
0
41
1
10
56.1276570948311
20
1.32468112426031
30
0
41
1
10
56.1885033727393
20
1.27226135813734
30
0
41
1
10
56.3720506692951
20
1.11420083130241
30
0
41
1
10
56.4958310355527
20
1.00782786997502
30
0
41
1
10
56.6211248033191
20
0.900626649201797
30
0
0
SPLINE
5
1CA
100
AcDbEntity
8
1
62
256
6
ByLayer
370
18
48
1
60
0
100
AcDbSpline
70
4
71
3
72
20
73
16
40
0
40
0
40
0
40
0
40
0.125000000000016
40
0.125000000000016
40
0.250000000000033
40
0.250000000000033
40
0.37500000000005
40
0.37500000000005
40
0.500000000000066
40
0.500000000000066
40
0.750000000000099
40
0.750000000000099
40
0.87500000000005
40
0.87500000000005
40
1
40
1
40
1
40
1
41
1
10
56.6211248033192
20
0.900626649201769
30
0
41
1
10
56.6270007064156
20
0.893762180669199
30
0
41
1
10
56.6333216390263
20
0.886802562948105
30
0
41
1
10
56.646576316534
20
0.872903211380759
30
0
41
1
10
56.6534144104265
20
0.866060153594816
30
0
41
1
10
56.6674453718605
20
0.852550520034413
30
0
41
1
10
56.6746387648087
20
0.845884163922449
30
0
41
1
10
56.689348075329
20
0.832707456578135
30
0
41
1
10
56.6969029971795
20
0.82616643708343
30
0
41
1
10
56.7195868876701
20
0.807126875616035
30
0
41
1
10
56.7348196006226
20
0.795114825338857
30
0
41
1
10
56.7577567509434
20
0.77802013901416
30
0
41
1
10
56.7654079950481
20
0.772488033655549
30
0
41
1
10
56.7803743350194
20
0.761992481869953
30
0
41
1
10
56.7877340976258
20
0.756995454877568
30
0
41
1
10
56.7949577771592
20
0.752256153000815
30
0
0
SPLINE
5
1CB
100
AcDbEntity
8
1
62
256
6
ByLayer
370
18
48
1
60
0
100
AcDbSpline
70
4
71
3
72
8
73
4
40
0
40
0
40
0
40
0
40
1
40
1
40
1
40
1
41
1
10
56.7949577771597
20
0.752256153001355
30
0
41
1
10
56.8364918956681
20
0.716903026187509
30
0
41
1
10
56.8780667547538
20
0.681592916701078
30
0
41
1
10
56.9197354569954
20
0.646388863063095
30
0
0
SPLINE
5
1CC
100
AcDbEntity
8
1
62
256
6
ByLayer
370
18
48
1
60
0
100
AcDbSpline
70
4
71
3
72
18
73
14
40
0
40
0
40
0
40
0
40
0.125000000000001
40
0.125000000000001
40
0.250000000000001
40
0.250000000000001
40
0.500000000000001
40
0.500000000000001
40
0.625000000000001
40
0.625000000000001
40
0.750000000000001
40
0.750000000000001
40
1
40
1
40
1
40
1
41
1
10
57.330000000001
20
0.330372467694843
30
0
41
1
10
57.3120614918818
20
0.339300137771517
30
0
41
1
10
57.2942077908506
20
0.348741598333305
30
0
41
1
10
57.2586465619876
20
0.368592826258123
30
0
41
1
10
57.2409268767781
20
0.378935166753593
30
0
41
1
10
57.1880340038313
20
0.411780028594052
30
0
41
1
10
57.1531678419474
20
0.436334431429799
30
0
41
1
10
57.1012686658937
20
0.476744792706853
30
0
41
1
10
57.0841446789523
20
0.490734432115659
30
0
41
1
10
57.0503273668107
20
0.519583020311501
30
0
41
1
10
57.0336131123378
20
0.534457602429484
30
0
41
1
10
56.9839875046812
20
0.580345012122422
30
0
41
1
10
56.9516055938106
20
0.61264767936143
30
0
41
1
10
56.9197354569951
20
0.646388863063322
30
0
0
SPLINE
5
1CD
100
AcDbEntity
8
1
62
256
6
ByLayer
370
18
48
1
60
0
100
AcDbSpline
70
4
71
3
72
8
73
4
40
0
40
0
40
0
40
0
40
1
40
1
40
1
40
1
41
1
10
53.470013697717
20
-3.02613560196738
30
0
41
1
10
53.5018788141375
20
-3.0308680525813
30
0
41
1
10
53.5337444251641
20
-3.0350605859241
30
0
41
1
10
53.5656179935608
20
-3.03871149632067
30
0
0
SPLINE
5
1CE
100
AcDbEntity
8
1
62
256
6
ByLayer
370
18
48
1
60
0
100
AcDbSpline
70
4
71
3
72
8
73
4
40
0
40
0
40
0
40
0
40
1
40
1
40
1
40
1
41
1
10
50.2967950990384
20
-1.02651121251858
30
0
41
1
10
50.329027341149
20
-1.05826417919988
30
0
41
1
10
50.3612643467436
20
-1.0898288827986
30
0
41
1
10
50.3935146426403
20
-1.12119752523569
30
0
0
SPLINE
5
1CF
100
AcDbEntity
8
1
62
256
6
ByLayer
370
18
48
1
60
0
100
AcDbSpline
70
4
71
3
72
8
73
4
40
0
40
0
40
0
40
0
40
1
40
1
40
1
40
1
41
1
10
49.2390650781841
20
0.0602498400405977
30
0
41
1
10
49.2710749830342
20
0.0267880258779201
30
0
41
1
10
49.3030839327907
20
-0.0066888666677585
30
0
41
1
10
49.3350986532408
20
-0.0401744044008296
30
0
0
SPLINE
5
1D0
100
AcDbEntity
8
1
62
256
6
ByLayer
370
18
48
1
60
0
100
AcDbSpline
70
4
71
3
72
8
73
4
40
0
40
0
40
0
40
0
40
1
40
1
40
1
40
1
41
1
10
48.1816371997808
20
1.13862355356193
30
0
41
1
10
48.2137115699129
20
1.10746801416928
30
0
41
1
10
48.2457806547942
20
1.07609872324804
30
0
41
1
10
48.2778573662655
20
1.04452683714268
30
0
0
SPLINE
5
1D1
100
AcDbEntity
8
1
62
256
6
ByLayer
370
18
48
1
60
0
100
AcDbSpline
70
4
71
3
72
8
73
4
40
0
40
0
40
0
40
0
40
1
40
1
40
1
40
1
41
1
10
47.1243126606734
20
2.06906132866894
30
0
41
1
10
47.1562693531593
20
2.04442017371301
30
0
41
1
10
47.1882294434913
20
2.01940680830421
30
0
41
1
10
47.2202030391169
20
1.99402818455121
30
0
0
SPLINE
5
1D2
100
AcDbEntity
8
1
62
256
6
ByLayer
370
18
48
1
60
0
100
AcDbSpline
70
4
71
3
72
8
73
4
40
0
40
0
40
0
40
0
40
1
40
1
40
1
40
1
41
1
10
46.0663055931485
20
2.73213959044304
30
0
41
1
10
46.0985068606086
20
2.71702257557791
30
0
41
1
10
46.1307132543038
20
2.70140837430446
30
0
41
1
10
46.1629338220204
20
2.68530070705739
30
0
0
SPLINE
5
1D3
100
AcDbEntity
8
1
62
256
6
ByLayer
370
18
48
1
60
0
100
AcDbSpline
70
4
71
3
72
10
73
6
40
0
40
0
40
0
40
0
40
0.5
40
0.5
40
1
40
1
40
1
40
1
41
1
10
45.220920192624
20
2.82626211954377
30
0
41
1
10
45.1353082417783
20
2.79277276312922
30
0
41
1
10
45.0492464169195
20
2.75370123434541
30
0
41
1
10
44.8755273947135
20
2.66460425401991
30
0
41
1
10
44.78786875623
20
2.61457476443738
30
0
41
1
10
44.6989636124567
20
2.55903906473588
30
0
0
SPLINE
5
1D4
100
AcDbEntity
8
1
62
256
6
ByLayer
370
18
48
1
60
0
100
AcDbSpline
70
4
71
3
72
31
73
27
40
0
40
0
40
0
40
0
40
0.0916661139232198
40
0.0916661139232198
40
0.129513359176419
40
0.129513359176419
40
0.167360604429618
40
0.205207849682817
40
0.205207849682817
40
0.243055094936016
40
0.243055094936016
40
0.318749585442413
40
0.318749585442413
40
0.394444075948811
40
0.394444075948811
40
0.545833056961606
40
0.545833056961606
40
0.621527547468004
40
0.621527547468004
40
0.659374792721199
40
0.659374792721199
40
0.697222037974393
40
0.697222037974393
40
0.848611018987197
40
0.848611018987197
40
1
40
1
40
1
40
1
41
1
10
40.8544556095447
20
2.28705556590012
30
0
41
1
10
40.9483268042442
20
2.28704479387753
30
0
41
1
10
41.0424553580194
20
2.28354487481511
30
0
41
1
10
41.1759479393194
20
2.2735697430814
30
0
41
1
10
41.2150671638312
20
2.27003948425011
30
0
41
1
10
41.2930542439404
20
2.26178280501438
30
0
41
1
10
41.3708374457918
20
2.2523294328486
30
0
41
1
10
41.448222000208
20
2.24049096776406
30
0
41
1
10
41.5254078340994
20
2.22745815689473
30
0
41
1
10
41.5638787159288
20
2.22033578497985
30
0
41
1
10
41.6793668949198
20
2.19729771164234
30
0
41
1
10
41.756427873772
20
2.17971517519942
30
0
41
1
10
41.9105455010386
20
2.1401739778313
30
0
41
1
10
41.9876373344322
20
2.1182265894023
30
0
41
1
10
42.2191320300739
20
2.04598905779153
30
0
41
1
10
42.3737183769908
20
1.98932735764734
30
0
41
1
10
42.606083954606
20
1.89128589983539
30
0
41
1
10
42.68364353338
20
1.85643650271504
30
0
41
1
10
42.8002153176705
20
1.80084537285288
30
0
41
1
10
42.8391408055688
20
1.78173399307795
30
0
41
1
10
42.916817021519
20
1.74262581542416
30
0
41
1
10
42.9556444503187
20
1.72265460308719
30
0
41
1
10
43.1497960152094
20
1.62080530477059
30
0
41
1
10
43.3051925061365
20
1.53300745458185
30
0
41
1
10
43.6164074790848
20
1.34544410683549
30
0
41
1
10
43.7722879273155
20
1.24575159240396
30
0
41
1
10
43.9283539700044
20
1.13981745055804
30
0
0
SPLINE
5
1D5
100
AcDbEntity
8
1
62
256
6
ByLayer
370
18
48
1
60
0
100
AcDbSpline
70
4
71
3
72
14
73
10
40
0
40
0
40
0
40
0
40
0.25
40
0.25
40
0.5
40
0.5
40
0.75
40
0.75
40
1
40
1
40
1
40
1
41
1
10
43.9283539700044
20
1.13981745055804
30
0
41
1
10
43.9763029872814
20
1.10727072924644
30
0
41
1
10
44.0238211605875
20
1.07580581706779
30
0
41
1
10
44.1178061684325
20
1.01468565572009
30
0
41
1
10
44.1642756365529
20
0.985030987942736
30
0
41
1
10
44.2560715283383
20
0.927477797922677
30
0
41
1
10
44.3014039560007
20
0.899582097897451
30
0
41
1
10
44.3909360475748
20
0.845914156970309
30
0
41
1
10
44.4351686019011
20
0.82021373356946
30
0
41
1
10
44.4783539700044
20
0.795141832214824
30
0
0
SPLINE
5
1D6
100
AcDbEntity
8
1
62
256
6
ByLayer
370
18
48
1
60
0
100
AcDbSpline
70
4
71
3
72
8
73
4
40
0
40
0
40
0
40
0
40
1
40
1
40
1
40
1
41
1
10
44.4783539700044
20
0.795141832214853
30
0
41
1
10
44.5207995607732
20
0.770499419484878
30
0
41
1
10
44.5630129241145
20
0.744790851642477
30
0
41
1
10
44.6050361836136
20
0.718049525346146
30
0
0
SPLINE
5
1D7
100
AcDbEntity
8
1
62
256
6
ByLayer
370
18
48
1
60
0
100
AcDbSpline
70
4
71
3
72
27
73
23
40
0
40
0
40
0
40
0
40
0.124999999999988
40
0.124999999999988
40
0.249999999999977
40
0.249999999999977
40
0.374999999999965
40
0.374999999999965
40
0.437499999999959
40
0.437499999999959
40
0.499999999999953
40
0.499999999999953
40
0.625000000000025
40
0.625000000000025
40
0.68750000000002
40
0.68750000000002
40
0.750000000000016
40
0.812500000000011
40
0.812500000000011
40
0.875000000000007
40
0.875000000000007
40
1
40
1
40
1
40
1
41
1
10
44.617431103383
20
0.701608437033912
30
0
41
1
10
44.6251493362649
20
0.691419819004153
30
0
41
1
10
44.63418553657
20
0.680903327400188
30
0
41
1
10
44.6541369068056
20
0.659421924822112
30
0
41
1
10
44.6652015775871
20
0.648335185471353
30
0
41
1
10
44.6879827476375
20
0.626704331784964
30
0
41
1
10
44.6997813272352
20
0.616062203641008
30
0
41
1
10
44.7180024518565
20
0.600301875787096
30
0
41
1
10
44.7241913808086
20
0.595060736974204
30
0
41
1
10
44.7365520079954
20
0.584796973043609
30
0
41
1
10
44.7427342394149
20
0.579764245274703
30
0
41
1
10
44.7612771043557
20
0.564945452182059
30
0
41
1
10
44.773634347802
20
0.555434994347934
30
0
41
1
10
44.7921205473002
20
0.541719024794958
30
0
41
1
10
44.7982410028358
20
0.537264971106964
30
0
41
1
10
44.8102340685328
20
0.528706893632062
30
0
41
1
10
44.8220251306366
20
0.520464566644563
30
0
41
1
10
44.83337211228
20
0.512885750388165
30
0
41
1
10
44.8444642390226
20
0.505676768742944
30
0
41
1
10
44.8498877237582
20
0.502256094951889
30
0
41
1
10
44.8652592476664
20
0.49291278804688
30
0
41
1
10
44.8744932670453
20
0.487767277670088
30
0
41
1
10
44.8823213578894
20
0.484165999444969
30
0
0
SPLINE
5
1D8
100
AcDbEntity
8
1
62
256
6
ByLayer
370
18
48
1
60
0
100
AcDbSpline
70
4
71
3
72
8
73
4
40
0
40
0
40
0
40
0
40
1
40
1
40
1
40
1
41
1
10
44.8823213578894
20
0.484165999445082
30
0
41
1
10
44.9392091909822
20
0.457995005945889
30
0
41
1
10
44.9955649420178
20
0.426621572862274
30
0
41
1
10
45.0513500287988
20
0.390269391017085
30
0
0
SPLINE
5
1D9
100
AcDbEntity
8
1
62
256
6
ByLayer
370
18
48
1
60
0
100
AcDbSpline
70
4
71
3
72
8
73
4
40
0
40
0
40
0
40
0
40
1
40
1
40
1
40
1
41
1
10
45.0513500287988
20
0.390269391017114
30
0
41
1
10
45.1642766478258
20
0.296266822032294
30
0
41
1
10
45.2756303443186
20
0.195164416664824
30
0
41
1
10
45.3857759355527
20
0.0867089939476102
30
0
0
SPLINE
5
1DA
100
AcDbEntity
8
1
62
256
6
ByLayer
370
18
48
1
60
0
100
AcDbSpline
70
4
71
3
72
27
73
23
40
0
40
0
40
0
40
0
40
0.125000000000042
40
0.125000000000042
40
0.250000000000084
40
0.250000000000084
40
0.375000000000127
40
0.375000000000127
40
0.437500000000107
40
0.437500000000107
40
0.500000000000088
40
0.500000000000088
40
0.625000000000049
40
0.625000000000049
40
0.687500000000029
40
0.687500000000029
40
0.750000000000009
40
0.81249999999999
40
0.81249999999999
40
0.87499999999997
40
0.87499999999997
40
1
40
1
40
1
40
1
41
1
10
45.6749162071477
20
-0.187018555751394
30
0
41
1
10
45.6826422918183
20
-0.193000647914943
30
0
41
1
10
45.691685905445
20
-0.200083737094673
30
0
41
1
10
45.711649060867
20
-0.215785465282067
30
0
41
1
10
45.722717419444
20
-0.224525360609761
30
0
41
1
10
45.7455026785175
20
-0.242598948079262
30
0
41
1
10
45.7573028250547
20
-0.251997851596514
30
0
41
1
10
45.7755256607308
20
-0.266615628203908
30
0
41
1
10
45.7817149989267
20
-0.2715978173905
30
0
41
1
10
45.7940766487432
20
-0.281593691556992
30
0
41
1
10
45.8002594070666
20
-0.286615574362372
30
0
41
1
10
45.8188036868561
20
-0.301763043164271
30
0
41
1
10
45.8311616702613
20
-0.311968736414514
30
0
41
1
10
45.8496475080065
20
-0.327503898399243
30
0
41
1
10
45.8557692196003
20
-0.332694402114072
30
0
41
1
10
45.8677635999035
20
-0.342974041738444
30
0
41
1
10
45.8795554706036
20
-0.353191330252969
30
0
41
1
10
45.8909027468208
20
-0.363289204536955
30
0
41
1
10
45.9019944161415
20
-0.373324675062349
30
0
41
1
10
45.9074194471727
20
-0.378319280525858
30
0
41
1
10
45.9227969515544
20
-0.392776465406968
30
0
41
1
10
45.9320352952507
20
-0.401869489405783
30
0
41
1
10
45.939867600364
20
-0.410174955424992
30
0
0
SPLINE
5
1DB
100
AcDbEntity
8
1
62
256
6
ByLayer
370
18
48
1
60
0
100
AcDbSpline
70
4
71
3
72
12
73
8
40
0
40
0
40
0
40
0
40
0.500000000000001
40
0.500000000000001
40
0.75
40
0.75
40
1
40
1
40
1
40
1
41
1
10
45.939867600364
20
-0.41017495542485
30
0
41
1
10
45.998845774056
20
-0.47271608608591
30
0
41
1
10
46.0572449892098
20
-0.540050263718229
30
0
41
1
10
46.143962851293
20
-0.647564465268601
30
0
41
1
10
46.1727427843941
20
-0.68451333301104
30
0
41
1
10
46.2299759317419
20
-0.760428475663844
30
0
41
1
10
46.2584376424448
20
-0.799404244373449
30
0
41
1
10
46.2867700235121
20
-0.839381947641073
30
0
0
SPLINE
5
1DC
100
AcDbEntity
8
1
62
256
6
ByLayer
370
18
48
1
60
0
100
AcDbSpline
70
4
71
3
72
8
73
4
40
0
40
0
40
0
40
0
40
1
40
1
40
1
40
1
41
1
10
46.3829959772091
20
-0.935168634747413
30
0
41
1
10
46.3509080432029
20
-0.903358832009928
30
0
41
1
10
46.3188335439261
20
-0.871428909660636
30
0
41
1
10
46.286770023512
20
-0.839381947640959
30
0
0
SPLINE
5
1DD
100
AcDbEntity
8
1
62
256
6
ByLayer
370
18
48
1
60
0
100
AcDbSpline
70
4
71
3
72
10
73
6
40
0
40
0
40
0
40
0
40
0.5
40
0.5
40
1
40
1
40
1
40
1
41
1
10
46.3829959772097
20
-0.935168634744201
30
0
41
1
10
46.4400610802617
20
-0.965463679221784
30
0
41
1
10
46.4976133533679
20
-0.990339564128448
30
0
41
1
10
46.6141301722616
20
-1.02880803884921
30
0
41
1
10
46.6728691701587
20
-1.04227408341717
30
0
41
1
10
46.7323160797372
20
-1.04989824805821
30
0
0
SPLINE
5
1DE
100
AcDbEntity
8
1
62
256
6
ByLayer
370
18
48
1
60
0
100
AcDbSpline
70
4
71
3
72
28
73
24
40
0
40
0
40
0
40
0
40
0.125000000000063
40
0.125000000000063
40
0.187500000000095
40
0.187500000000095
40
0.250000000000126
40
0.250000000000126
40
0.37500000000019
40
0.37500000000019
40
0.500000000000254
40
0.500000000000254
40
0.562500000000244
40
0.562500000000244
40
0.625000000000234
40
0.625000000000234
40
0.750000000000133
40
0.750000000000133
40
0.812500000000082
40
0.812500000000082
40
0.875000000000031
40
0.875000000000031
40
1
40
1
40
1
40
1
41
1
10
46.7323160797372
20
-1.04989824805821
30
0
41
1
10
46.7400536975908
20
-1.05089061036716
30
0
41
1
10
46.7491481540807
20
-1.05363892474304
30
0
41
1
10
46.7642636524072
20
-1.05965420110809
30
0
41
1
10
46.7695881954469
20
-1.06200189354721
30
0
41
1
10
46.7804714469692
20
-1.06719058514429
30
0
41
1
10
46.7860434259891
20
-1.07003440995774
30
0
41
1
10
46.8031034984861
20
-1.07923556162572
30
0
41
1
10
46.814940730989
20
-1.08625901867646
30
0
41
1
10
46.8393857105149
20
-1.10194132916138
30
0
41
1
10
46.8516903440956
20
-1.1104052276419
30
0
41
1
10
46.8702319547693
20
-1.12401442670142
30
0
41
1
10
46.8764265963239
20
-1.12870495189506
30
0
41
1
10
46.8888379171532
20
-1.13841257869788
30
0
41
1
10
46.895069882675
20
-1.14344393354401
30
0
41
1
10
46.9134314465055
20
-1.15877033794501
30
0
41
1
10
46.9253428946905
20
-1.16937692107203
30
0
41
1
10
46.9426170255971
20
-1.18598209865039
30
0
41
1
10
46.9482753572201
20
-1.19163407440621
30
0
41
1
10
46.9593594163529
20
-1.20321027105598
30
0
41
1
10
46.9648065348844
20
-1.20916288894026
30
0
41
1
10
46.9802438410664
20
-1.22694849718977
30
0
41
1
10
46.9895158807915
20
-1.23886199396946
30
0
41
1
10
46.9973724522685
20
-1.25083731667004
30
0
0
SPLINE
5
1DF
100
AcDbEntity
8
1
62
256
6
ByLayer
370
18
48
1
60
0
100
AcDbSpline
70
4
71
3
72
12
73
8
40
0
40
0
40
0
40
0
40
0.499999999999987
40
0.499999999999987
40
0.749999999999993
40
0.749999999999993
40
1
40
1
40
1
40
1
41
1
10
46.9973724522707
20
-1.25083731667473
30
0
41
1
10
47.0563691216633
20
-1.34076256667811
30
0
41
1
10
47.1147987324993
20
-1.43407046924435
30
0
41
1
10
47.201578872391
20
-1.57826415404978
30
0
41
1
10
47.2303825697282
20
-1.62706598750668
30
0
41
1
10
47.2876714357548
20
-1.72588274519603
30
0
41
1
10
47.3161652096509
20
-1.77591128756305
30
0
41
1
10
47.3445338006005
20
-1.82654036052097
30
0
0
SPLINE
5
1E0
100
AcDbEntity
8
1
62
256
6
ByLayer
370
18
48
1
60
0
100
AcDbSpline
70
4
71
3
72
8
73
4
40
0
40
0
40
0
40
0
40
1
40
1
40
1
40
1
41
1
10
47.4406688414687
20
-1.90568169979596
30
0
41
1
10
47.4085899633028
20
-1.87961707291581
30
0
41
1
10
47.3765454332687
20
-1.85323588505921
30
0
41
1
10
47.3445338006005
20
-1.82654036052099
30
0
0
SPLINE
5
1E1
100
AcDbEntity
8
1
62
256
6
ByLayer
370
18
48
1
60
0
100
AcDbSpline
70
4
71
3
72
10
73
6
40
0
40
0
40
0
40
0
40
0.5
40
0.5
40
1
40
1
40
1
40
1
41
1
10
47.4406688414694
20
-1.90568169978775
30
0
41
1
10
47.4976594306861
20
-1.89552001978558
30
0
41
1
10
47.555159801483
20
-1.87983715630912
30
0
41
1
10
47.6715988218677
20
-1.83729617291417
30
0
41
1
10
47.7302970822149
20
-1.8105436048468
30
0
41
1
10
47.7897256525014
20
-1.77817989235896
30
0
0
SPLINE
5
1E2
100
AcDbEntity
8
1
62
256
6
ByLayer
370
18
48
1
60
0
100
AcDbSpline
70
4
71
3
72
28
73
24
40
0
40
0
40
0
40
0
40
0.125000000000018
40
0.125000000000018
40
0.187500000000061
40
0.187500000000061
40
0.250000000000103
40
0.250000000000103
40
0.375000000000111
40
0.375000000000111
40
0.50000000000012
40
0.50000000000012
40
0.562500000000125
40
0.562500000000125
40
0.62500000000013
40
0.62500000000013
40
0.750000000000139
40
0.750000000000139
40
0.812500000000105
40
0.812500000000105
40
0.87500000000007
40
0.87500000000007
40
1
40
1
40
1
40
1
41
1
10
47.7897256525014
20
-1.77817989235896
30
0
41
1
10
47.7974690418437
20
-1.77396298414345
30
0
41
1
10
47.806578424703
20
-1.77188314523332
30
0
41
1
10
47.8217314546441
20
-1.77107924859956
30
0
41
1
10
47.8270708393446
20
-1.77121481308498
30
0
41
1
10
47.8379823741386
20
-1.77220383990058
30
0
41
1
10
47.8435697157506
20
-1.77305213952553
30
0
41
1
10
47.8606784335373
20
-1.77654635862876
30
0
41
1
10
47.8725645417741
20
-1.78013726704151
30
0
41
1
10
47.8970526250699
20
-1.78962634492601
30
0
41
1
10
47.909375068096
20
-1.79541358944596
30
0
41
1
10
47.9279313863895
20
-1.80559515463867
30
0
41
1
10
47.9341290915119
20
-1.80924187453508
30
0
41
1
10
47.9465430986273
20
-1.81706324960285
30
0
41
1
10
47.9527633102186
20
-1.82124385045844
30
0
41
1
10
47.9710833291576
20
-1.83437039302444
30
0
41
1
10
47.9829666753874
20
-1.84396204308871
30
0
41
1
10
48.0002028247258
20
-1.85978912423329
30
0
41
1
10
48.0058491966207
20
-1.86530704891212
30
0
41
1
10
48.0169116331377
20
-1.87690048002446
30
0
41
1
10
48.022329770185
20
-1.88298676378383
30
0
41
1
10
48.0376838576506
20
-1.90163454670338
30
0
41
1
10
48.0469178786279
20
-1.91473061113572
30
0
41
1
10
48.0547562493217
20
-1.92874934627554
30
0
0
SPLINE
5
1E3
100
AcDbEntity
8
1
62
256
6
ByLayer
370
18
48
1
60
0
100
AcDbSpline
70
4
71
3
72
12
73
8
40
0
40
0
40
0
40
0
40
0.500000000000014
40
0.500000000000014
40
0.750000000000007
40
0.750000000000007
40
1
40
1
40
1
40
1
41
1
10
48.0547562493217
20
-1.92874934627545
30
0
41
1
10
48.1138306714327
20
-2.03440251189596
30
0
41
1
10
48.1722717892251
20
-2.14163849666875
30
0
41
1
10
48.2590819365616
20
-2.30383338217842
30
0
41
1
10
48.2878954128942
20
-2.35816297817948
30
0
41
1
10
48.3452071236557
20
-2.46708444215523
30
0
41
1
10
48.3737138624924
20
-2.52169190412587
30
0
41
1
10
48.4020977427658
20
-2.57643152329808
30
0
0
SPLINE
5
1E4
100
AcDbEntity
8
1
62
256
6
ByLayer
370
18
48
1
60
0
100
AcDbSpline
70
4
71
3
72
8
73
4
40
0
40
0
40
0
40
0
40
1
40
1
40
1
40
1
41
1
10
48.4978129306812
20
-2.62886285148235
30
0
41
1
10
48.4658544529447
20
-2.61184860462171
30
0
41
1
10
48.4339497944067
20
-2.59437122217528
30
0
41
1
10
48.4020977427658
20
-2.57643152329811
30
0
0
SPLINE
5
1E5
100
AcDbEntity
8
1
62
256
6
ByLayer
370
18
48
1
60
0
100
AcDbSpline
70
4
71
3
72
10
73
6
40
0
40
0
40
0
40
0
40
0.5
40
0.5
40
1
40
1
40
1
40
1
41
1
10
48.4978129306812
20
-2.62886285148247
30
0
41
1
10
48.5548197171087
20
-2.58015244358097
30
0
41
1
10
48.6123722282131
20
-2.52653627938787
30
0
41
1
10
48.7289698944681
20
-2.40952970234147
30
0
41
1
10
48.7877653705857
20
-2.34639566776161
30
0
41
1
10
48.8473046903808
20
-2.27857506185376
30
0
0
SPLINE
5
1E6
100
AcDbEntity
8
1
62
256
6
ByLayer
370
18
48
1
60
0
100
AcDbSpline
70
4
71
3
72
28
73
24
40
0
40
0
40
0
40
0
40
0.125000000000041
40
0.125000000000041
40
0.187500000000063
40
0.187500000000063
40
0.250000000000084
40
0.250000000000084
40
0.375000000000127
40
0.375000000000127
40
0.50000000000017
40
0.50000000000017
40
0.562500000000149
40
0.562500000000149
40
0.625000000000129
40
0.625000000000129
40
0.750000000000088
40
0.750000000000088
40
0.812500000000066
40
0.812500000000066
40
0.875000000000045
40
0.875000000000045
40
1
40
1
40
1
40
1
41
1
10
48.8473046903808
20
-2.27857506185376
30
0
41
1
10
48.855040166019
20
-2.26976366383022
30
0
41
1
10
48.8641433979096
20
-2.26318925981491
30
0
41
1
10
48.8792937685847
20
-2.25575832839033
30
0
41
1
10
48.8846331407462
20
-2.25369247912644
30
0
41
1
10
48.8955437864811
20
-2.25040880360979
30
0
41
1
10
48.9011313556816
20
-2.24917736386914
30
0
41
1
10
48.9182430779145
20
-2.2465823477221
30
0
41
1
10
48.9301416865324
20
-2.24630597592147
30
0
41
1
10
48.9546313170851
20
-2.24843983466204
30
0
41
1
10
48.9669566358931
20
-2.25082197054732
30
0
41
1
10
48.9855211013284
20
-2.25626845699574
30
0
41
1
10
48.9917221550056
20
-2.25839961802473
30
0
41
1
10
49.0041442315642
20
-2.263317731152
30
0
41
1
10
49.0103611027321
20
-2.26610710660566
30
0
41
1
10
49.0286729045997
20
-2.2753322566399
30
0
41
1
10
49.0405530667026
20
-2.28265361042898
30
0
41
1
10
49.0577857729278
20
-2.29562098042129
30
0
41
1
10
49.0634312279861
20
-2.30027755588961
30
0
41
1
10
49.0744919501742
20
-2.31035791784956
30
0
41
1
10
49.0798920816648
20
-2.31577738488056
30
0
41
1
10
49.0951982511731
20
-2.33283676424574
30
0
41
1
10
49.1044031969005
20
-2.34537950825487
30
0
41
1
10
49.1122184465871
20
-2.35956581904961
30
0
0
SPLINE
5
1E7
100
AcDbEntity
8
1
62
256
6
ByLayer
370
18
48
1
60
0
100
AcDbSpline
70
4
71
3
72
8
73
4
40
0
40
0
40
0
40
0
40
1
40
1
40
1
40
1
41
1
10
49.5556187758606
20
-3.01084650328028
30
0
41
1
10
49.5233962979972
20
-3.00496496845321
30
0
41
1
10
49.491255807246
20
-2.99852348824979
30
0
41
1
10
49.4591473819543
20
-2.99153123407567
30
0
0
SPLINE
5
1E8
100
AcDbEntity
8
1
62
256
6
ByLayer
370
18
48
1
60
0
100
AcDbSpline
70
4
71
3
72
36
73
32
40
0
40
0
40
0
40
0
40
0.0576304031368572
40
0.0576304031368572
40
0.0890427230322951
40
0.0890427230322951
40
0.120455042927733
40
0.120455042927733
40
0.183279682718609
40
0.183279682718609
40
0.246104322509485
40
0.246104322509485
40
0.277516642404924
40
0.277516642404924
40
0.308928962300362
40
0.308928962300362
40
0.371753602091238
40
0.371753602091238
40
0.49740288167299
40
0.49740288167299
40
0.560227521463867
40
0.560227521463867
40
0.623052161254743
40
0.623052161254743
40
0.748701440836495
40
0.748701440836495
40
0.811526080627371
40
0.811526080627371
40
0.874350720418248
40
0.874350720418248
40
1
40
1
40
1
40
1
41
1
10
57.3300000000001
20
-1.07194376809721
30
0
41
1
10
57.3300000000001
20
-1.04796363714976
30
0
41
1
10
57.33
20
-1.0271242531787
30
0
41
1
10
57.33
20
-0.999767167248706
30
0
41
1
10
57.33
20
-0.991048243877032
30
0
41
1
10
57.33
20
-0.975519564902868
30
0
41
1
10
57.33
20
-0.968709682447553
30
0
41
1
10
57.33
20
-0.951491622966302
30
0
41
1
10
57.33
20
-0.944147065283431
30
0
41
1
10
57.3300000000001
20
-0.937534261310532
30
0
41
1
10
57.33
20
-0.938217792118195
30
0
41
1
10
57.33
20
-0.94573320165361
30
0
41
1
10
57.33
20
-0.949297725204531
30
0
41
1
10
57.33
20
-0.956994731195437
30
0
41
1
10
57.33
20
-0.961263469349632
30
0
41
1
10
57.33
20
-0.975401440247339
30
0
41
1
10
57.33
20
-0.986572069824518
30
0
41
1
10
57.33
20
-1.02524116245516
30
0
41
1
10
57.33
20
-1.05785519205486
30
0
41
1
10
57.33
20
-1.11724017543008
30
0
41
1
10
57.33
20
-1.13886077696972
30
0
41
1
10
57.33
20
-1.18511299189271
30
0
41
1
10
57.33
20
-1.2097785365834
30
0
41
1
10
57.33
20
-1.2883077657477
30
0
41
1
10
57.33
20
-1.34667793946906
30
0
41
1
10
57.33
20
-1.44326159867734
30
0
41
1
10
57.33
20
-1.47696309896855
30
0
41
1
10
57.33
20
-1.54744676945438
30
0
41
1
10
57.33
20
-1.58432287957612
30
0
41
1
10
57.3299999999999
20
-1.69833148832967
30
0
41
1
10
57.33
20
-1.77913516790937
30
0
41
1
10
57.33
20
-1.86466130705259
30
0
0
SPLINE
5
1E9
100
AcDbEntity
8
1
62
256
6
ByLayer
370
18
48
1
60
0
100
AcDbSpline
70
4
71
3
72
14
73
10
40
0
40
0
40
0
40
0
40
0.125000000000005
40
0.125000000000005
40
0.250000000000011
40
0.250000000000011
40
0.50000000000002
40
0.50000000000002
40
1
40
1
40
1
40
1
41
1
10
56.8996451581246
20
-1.04736697588714
30
0
41
1
10
56.9180627168461
20
-1.04830502885071
30
0
41
1
10
56.9364877396904
20
-1.0491149381028
30
0
41
1
10
56.9731496241883
20
-1.05108276974869
30
0
41
1
10
56.9914080057636
20
-1.05217287275678
30
0
41
1
10
57.0459930026037
20
-1.05563387076498
30
0
41
1
10
57.0821247458794
20
-1.05821061248935
30
0
41
1
10
57.1897412729435
20
-1.06640570651743
30
0
41
1
10
57.2604881354421
20
-1.07239847428491
30
0
41
1
10
57.3299999999953
20
-1.07850431271535
30
0
0
SPLINE
5
1EA
100
AcDbEntity
8
1
62
256
6
ByLayer
370
18
48
1
60
0
100
AcDbSpline
70
4
71
3
72
18
73
14
40
0
40
0
40
0
40
0
40
0.25
40
0.25
40
0.5
40
0.5
40
0.625
40
0.625
40
0.75
40
0.75
40
0.875
40
0.875
40
1
40
1
40
1
40
1
41
1
10
56.8996451581246
20
-1.04736697588714
30
0
41
1
10
56.8853119040044
20
-1.03397755482968
30
0
41
1
10
56.8704483923987
20
-1.02154009697125
30
0
41
1
10
56.8396405570635
20
-0.998700754956815
30
0
41
1
10
56.8241851607276
20
-0.988653852796176
30
0
41
1
10
56.801023622668
20
-0.976040460480874
30
0
41
1
10
56.7932457399567
20
-0.972229169756446
30
0
41
1
10
56.7781264525881
20
-0.965796552397649
30
0
41
1
10
56.7707610004943
20
-0.963154265958991
30
0
41
1
10
56.7565124657268
20
-0.959220298341791
30
0
41
1
10
56.7496015957058
20
-0.95793976136784
30
0
41
1
10
56.7370407417057
20
-0.95714536068013
30
0
41
1
10
56.7313058737518
20
-0.957596145495927
30
0
41
1
10
56.7262435329339
20
-0.959107353936673
30
0
0
SPLINE
5
1EB
100
AcDbEntity
8
1
62
256
6
ByLayer
370
18
48
1
60
0
100
AcDbSpline
70
4
71
3
72
10
73
6
40
0
40
0
40
0
40
0
40
0.5
40
0.5
40
1
40
1
40
1
40
1
41
1
10
56.7262435329338
20
-0.959107353936616
30
0
41
1
10
56.6090320143784
20
-0.884977807849367
30
0
41
1
10
56.4930915627112
20
-0.806285601195242
30
0
41
1
10
56.2626787329397
20
-0.640776500378422
30
0
41
1
10
56.1481905003594
20
-0.553980267983178
30
0
41
1
10
56.0338653790201
20
-0.46372597245653
30
0
0
SPLINE
5
1EC
100
AcDbEntity
8
1
62
256
6
ByLayer
370
18
48
1
60
0
100
AcDbSpline
70
4
71
3
72
8
73
4
40
0
40
0
40
0
40
0
40
1
40
1
40
1
40
1
41
1
10
53.1176260291714
20
2.1641482845765
30
0
41
1
10
53.1494741065022
20
2.14062345476856
30
0
41
1
10
53.1813084281028
20
2.11672474631484
30
0
41
1
10
53.2131379074473
20
2.09245904612226
30
0
0
SPLINE
5
1ED
100
AcDbEntity
8
1
62
256
6
ByLayer
370
18
48
1
60
0
100
AcDbSpline
70
4
71
3
72
8
73
4
40
0
40
0
40
0
40
0
40
1
40
1
40
1
40
1
41
1
10
52.0597243079909
20
2.78872368642351
30
0
41
1
10
52.0918904651041
20
2.77493185495578
30
0
41
1
10
52.1240331613917
20
2.76063588390113
30
0
41
1
10
52.1561700343331
20
2.74584355590318
30
0
0
SPLINE
5
1EE
100
AcDbEntity
8
1
62
256
6
ByLayer
370
18
48
1
60
0
100
AcDbSpline
70
4
71
3
72
8
73
4
40
0
40
0
40
0
40
0
40
1
40
1
40
1
40
1
41
1
10
51.0020659770332
20
3.05152386343033
30
0
41
1
10
51.0342434226374
20
3.04949658506058
30
0
41
1
10
51.0664072470895
20
3.04691412850286
30
0
41
1
10
51.0985677866519
20
3.04377851401367
30
0
0
SPLINE
5
1EF
100
AcDbEntity
8
1
62
256
6
ByLayer
370
18
48
1
60
0
100
AcDbSpline
70
4
71
3
72
39
73
35
40
0
40
0
40
0
40
0
40
0.0272610769082366
40
0.0272610769082366
40
0.0758980230628114
40
0.0758980230628114
40
0.124534969217386
40
0.124534969217386
40
0.221808861526543
40
0.221808861526543
40
0.270445807681125
40
0.294764280758419
40
0.294764280758419
40
0.319082753835714
40
0.319082753835714
40
0.416356646144898
40
0.416356646144898
40
0.464993592299493
40
0.464993592299493
40
0.513630538454089
40
0.513630538454089
40
0.610904430763273
40
0.610904430763273
40
0.708178323072457
40
0.708178323072457
40
0.732496796149752
40
0.732496796149752
40
0.756815269227046
40
0.756815269227046
40
0.805452215381638
40
0.805452215381638
40
0.902726107690819
40
0.902726107690819
40
1
40
1
40
1
40
1
41
1
10
41.8655325285861
20
-2.28704923855062
30
0
41
1
10
41.8319598542953
20
-2.28704255757867
30
0
41
1
10
41.7984064028589
20
-2.2865808747955
30
0
41
1
10
41.7050105791195
20
-2.28403616120517
30
0
41
1
10
41.6451850710436
20
-2.28096633197433
30
0
41
1
10
41.525424121702
20
-2.2719968647952
30
0
41
1
10
41.4654865707537
20
-2.26610223065484
30
0
41
1
10
41.2858103061152
20
-2.24413566602681
30
0
41
1
10
41.1660533297698
20
-2.22379665539501
30
0
41
1
10
40.985839565376
20
-2.18472759382519
30
0
41
1
10
40.8955894344289
20
-2.1630523166443
30
0
41
1
10
40.8050046972528
20
-2.13816149730121
30
0
41
1
10
40.7445267253268
20
-2.12085260553806
30
0
41
1
10
40.7142110526767
20
-2.11183028893686
30
0
41
1
10
40.5628907344982
20
-2.06509106648983
30
0
41
1
10
40.4426149371962
20
-2.02246704500629
30
0
41
1
10
40.2624199437493
20
-1.95150858293732
30
0
41
1
10
40.2023643870559
20
-1.9267076142564
30
0
41
1
10
40.0823975231684
20
-1.87475325864449
30
0
41
1
10
40.0225019687695
20
-1.84758629568606
30
0
41
1
10
39.8429556826592
20
-1.76260078101936
30
0
41
1
10
39.7234701299551
20
-1.70127627122292
30
0
41
1
10
39.4840453925725
20
-1.56989265829367
30
0
41
1
10
39.364109534942
20
-1.49982779842398
30
0
41
1
10
39.2132654487329
20
-1.40727657931507
30
0
41
1
10
39.1830497153684
20
-1.38851875382261
30
0
41
1
10
39.1225055815412
20
-1.3505243027237
30
0
41
1
10
39.092156440573
20
-1.33127470375342
30
0
41
1
10
39.0012908523517
20
-1.27307491776068
30
0
41
1
10
38.9408311231862
20
-1.2336207987905
30
0
41
1
10
38.7597754536487
20
-1.11336435365737
30
0
41
1
10
38.6397341028377
20
-1.03040706056754
30
0
41
1
10
38.4002694761269
20
-0.85977341527564
30
0
41
1
10
38.2808517821592
20
-0.772089182178632
30
0
41
1
10
38.1613288415685
20
-0.682536664680697
30
0
0
SPLINE
5
1F0
100
AcDbEntity
8
1
62
256
6
ByLayer
370
18
48
1
60
0
100
AcDbSpline
70
4
71
3
72
34
73
30
40
0
40
0
40
0
40
0
40
0.139586820394618
40
0.139586820394618
40
0.279173640789236
40
0.279173640789236
40
0.348967050986543
40
0.348967050986543
40
0.41876046118385
40
0.41876046118385
40
0.453657166282502
40
0.453657166282502
40
0.488553871381153
40
0.488553871381153
40
0.55834728157846
40
0.55834728157846
40
0.697934101973071
40
0.697934101973071
40
0.767727512170376
40
0.767727512170376
40
0.837520922367681
40
0.837520922367681
40
0.907314332564986
40
0.907314332564986
40
0.942211037663638
40
0.942211037663638
40
0.977107742762291
40
0.977107742762291
40
1
40
1
40
1
40
1
41
1
10
36.4952856958813
20
-2.06879031784638
30
0
41
1
10
36.6506205568826
20
-2.1207113904353
30
0
41
1
10
36.8056020267268
20
-2.16312718067977
30
0
41
1
10
37.1148026328759
20
-2.22989175682776
30
0
41
1
10
37.2691045446472
20
-2.25421022003116
30
0
41
1
10
37.4999748872346
20
-2.27677745686674
30
0
41
1
10
37.5767837207777
20
-2.28196334103288
30
0
41
1
10
37.7309406676257
20
-2.28746421416113
30
0
41
1
10
37.8084147500615
20
-2.28778467191498
30
0
41
1
10
37.9252696946058
20
-2.28463550308467
30
0
41
1
10
37.9643770653249
20
-2.28297711787584
30
0
41
1
10
38.0425322150777
20
-2.27845957014756
30
0
41
1
10
38.0815496599918
20
-2.2756037313583
30
0
41
1
10
38.198421287236
20
-2.2652692995774
30
0
41
1
10
38.2761051863799
20
-2.25602699258491
30
0
41
1
10
38.5085692719171
20
-2.22137609348815
30
0
41
1
10
38.6627069334341
20
-2.18905671601149
30
0
41
1
10
38.8930816907158
20
-2.12671742885289
30
0
41
1
10
38.9696520617392
20
-2.10356593625861
30
0
41
1
10
39.1235231945619
20
-2.05308659369598
30
0
41
1
10
39.2007275271734
20
-2.02572420634118
30
0
41
1
10
39.3557405071933
20
-1.96682010260031
30
0
41
1
10
39.4335564146951
20
-1.93528385602156
30
0
41
1
10
39.5507654727946
20
-1.88483649717637
30
0
41
1
10
39.5899681253977
20
-1.86747118225833
30
0
41
1
10
39.6681834319312
20
-1.83183299635726
30
0
41
1
10
39.7072069526226
20
-1.81355544090948
30
0
41
1
10
39.7716896031714
20
-1.78253226423752
30
0
41
1
10
39.7971975464047
20
-1.77004709373398
30
0
41
1
10
39.8226709017088
20
-1.75736741210454
30
0
0
SPLINE
5
1F1
100
AcDbEntity
8
1
62
256
6
ByLayer
370
18
48
1
60
0
100
AcDbSpline
70
4
71
3
72
8
73
4
40
0
40
0
40
0
40
0
40
1
40
1
40
1
40
1
41
1
10
47.0883417351051
20
3.05574049578812
30
0
41
1
10
47.0561339329739
20
3.05673035495175
30
0
41
1
10
47.0239665818398
20
3.05716387362062
30
0
41
1
10
46.9918376817563
20
3.05703940659066
30
0
0
SPLINE
5
1F2
100
AcDbEntity
8
1
62
256
6
ByLayer
370
18
48
1
60
0
100
AcDbSpline
70
4
71
3
72
8
73
4
40
0
40
0
40
0
40
0
40
1
40
1
40
1
40
1
41
1
10
49.2029239890237
20
2.23351384971403
30
0
41
1
10
49.1709761338325
20
2.25633896583136
30
0
41
1
10
49.1390103605997
20
2.27873170286062
30
0
41
1
10
49.1070265894194
20
2.30069484924533
30
0
0
SPLINE
5
1F3
100
AcDbEntity
8
1
62
256
6
ByLayer
370
18
48
1
60
0
100
AcDbSpline
70
4
71
3
72
8
73
4
40
0
40
0
40
0
40
0
40
1
40
1
40
1
40
1
41
1
10
50.2607247356041
20
1.34946802439413
30
0
41
1
10
50.228571550197
20
1.37943936571989
30
0
41
1
10
50.1964223025881
20
1.40914613375682
30
0
41
1
10
50.1642776846801
20
1.43858970568584
30
0
0
SPLINE
5
1F4
100
AcDbEntity
8
1
62
256
6
ByLayer
370
18
48
1
60
0
100
AcDbSpline
70
4
71
3
72
8
73
4
40
0
40
0
40
0
40
0
40
1
40
1
40
1
40
1
41
1
10
52.376029599588
20
-0.807122539172667
30
0
41
1
10
52.3437501349887
20
-0.77454757641803
30
0
41
1
10
52.3115097477097
20
-0.741818446460059
30
0
41
1
10
52.279308038473
20
-0.708935187940625
30
0
0
SPLINE
5
1F5
100
AcDbEntity
8
1
62
256
6
ByLayer
370
18
48
1
60
0
100
AcDbSpline
70
4
71
3
72
8
73
4
40
0
40
0
40
0
40
0
40
1
40
1
40
1
40
1
41
1
10
53.4328644157
20
-1.79655697847261
30
0
41
1
10
53.4009674467588
20
-1.7692974665255
30
0
41
1
10
53.369137802967
20
-1.74168235194338
30
0
41
1
10
53.3372532157847
20
-1.71380801619583
30
0
0
SPLINE
5
1F6
100
AcDbEntity
8
1
62
256
6
ByLayer
370
18
48
1
60
0
100
AcDbSpline
70
4
71
3
72
14
73
10
40
0
40
0
40
0
40
0
40
0.499999999999983
40
0.499999999999983
40
0.749999999999975
40
0.749999999999975
40
0.874999999999987
40
0.874999999999987
40
1
40
1
40
1
40
1
41
1
10
56.2002468917167
20
-2.54912400423743
30
0
41
1
10
56.3175206181332
20
-2.52473935806546
30
0
41
1
10
56.4360671286298
20
-2.49371888327789
30
0
41
1
10
56.6159836718792
20
-2.43758902145913
30
0
41
1
10
56.6762957761159
20
-2.41727300028995
30
0
41
1
10
56.7673230207758
20
-2.38441516206132
30
0
41
1
10
56.7977759672613
20
-2.37305732964143
30
0
41
1
10
56.8587012567309
20
-2.34962028930357
30
0
41
1
10
56.8891930246911
20
-2.33753511981482
30
0
41
1
10
56.9197354569952
20
-2.32509065401325
30
0
0
SPLINE
5
1F7
100
AcDbEntity
8
1
62
256
6
ByLayer
370
18
48
1
60
0
100
AcDbSpline
70
4
71
3
72
18
73
14
40
0
40
0
40
0
40
0
40
0.125000000000012
40
0.125000000000012
40
0.250000000000024
40
0.250000000000024
40
0.500000000000003
40
0.500000000000003
40
0.624999999999992
40
0.624999999999992
40
0.74999999999998
40
0.74999999999998
40
1
40
1
40
1
40
1
41
1
10
57.3300000000008
20
-1.86466130705063
30
0
41
1
10
57.3120614918818
20
-1.88357732880209
30
0
41
1
10
57.2942077908505
20
-1.90257676589093
30
0
41
1
10
57.2586465619875
20
-1.94072000323109
30
0
41
1
10
57.2409268767781
20
-1.95985188992631
30
0
41
1
10
57.1880340038313
20
-2.01751082474743
30
0
41
1
10
57.1531678419474
20
-2.05634122515084
30
0
41
1
10
57.1012686658937
20
-2.11498854629201
30
0
41
1
10
57.0841446789522
20
-2.13448363133313
30
0
41
1
10
57.0503273668107
20
-2.17321116884455
30
0
41
1
10
57.0336131123377
20
-2.19246708613665
30
0
41
1
10
56.9839875046811
20
-2.24989828661634
30
0
41
1
10
56.9516055938105
20
-2.28773192444297
30
0
41
1
10
56.919735456995
20
-2.32509065401308
30
0
0
SPLINE
5
1F8
100
AcDbEntity
8
1
62
256
6
ByLayer
370
18
48
1
60
0
100
AcDbSpline
70
4
71
3
72
8
73
4
40
0
40
0
40
0
40
0
40
1
40
1
40
1
40
1
41
1
10
45.3857759355579
20
0.0867089939413006
30
0
41
1
10
45.3929331948481
20
0.0787600856496908
30
0
41
1
10
45.4000982734954
20
0.0708837558221092
30
0
41
1
10
45.4072718020209
20
0.0630811752703551
30
0
0
SPLINE
5
1F9
100
AcDbEntity
8
1
62
256
6
ByLayer
370
18
48
1
60
0
100
AcDbSpline
70
4
71
3
72
12
73
8
40
0
40
0
40
0
40
0
40
0.111587221241755
40
0.111587221241755
40
0.40772481416117
40
0.40772481416117
40
1
40
1
40
1
40
1
41
1
10
45.4301428690773
20
0.0384870562143931
30
0
41
1
10
45.439107248346
20
0.0289586380376363
30
0
41
1
10
45.4480857944277
20
0.0195467221757326
30
0
41
1
10
45.4809484281893
20
-0.0144091947665572
30
0
41
1
10
45.5049391599868
20
-0.0382475487143381
30
0
41
1
10
45.5772130852848
20
-0.10697622676318
30
0
41
1
10
45.6257869968932
20
-0.1489791766613
30
0
41
1
10
45.6749162071477
20
-0.187018555751394
30
0
0
SPLINE
5
1FA
100
AcDbEntity
8
1
62
256
6
ByLayer
370
18
48
1
60
0
100
AcDbSpline
70
4
71
3
72
30
73
26
40
0
40
0
40
0
40
0
40
0.0625000000000009
40
0.0625000000000009
40
0.0937500000000008
40
0.0937500000000008
40
0.125000000000001
40
0.250000000000001
40
0.250000000000001
40
0.375000000000002
40
0.375000000000002
40
0.437500000000002
40
0.468750000000002
40
0.468750000000002
40
0.500000000000002
40
0.500000000000002
40
0.625000000000001
40
0.625000000000001
40
0.750000000000001
40
0.750000000000001
40
0.875
40
0.875
40
0.9375
40
0.9375
40
1
40
1
40
1
40
1
41
1
10
45.4828808129407
20
-2.13247068808369
30
0
41
1
10
45.480901072925
20
-2.09579280541843
30
0
41
1
10
45.4789218228146
20
-2.05812905159277
30
0
41
1
10
45.4759462932328
20
-2.00012048956197
30
0
41
1
10
45.4749534527031
20
-1.9805337978664
30
0
41
1
10
45.4729755376612
20
-1.94108226195041
30
0
41
1
10
45.4680426346568
20
-1.84161668133692
30
0
41
1
10
45.4631520653446
20
-1.73802540922674
30
0
41
1
10
45.4552568184535
20
-1.56708989836554
30
0
41
1
10
45.4512590795133
20
-1.47902344053654
30
0
41
1
10
45.4451638761379
20
-1.34299179330253
30
0
41
1
10
45.4420956656308
20
-1.27399216309402
30
0
41
1
10
45.4389990542442
20
-1.20349471523875
30
0
41
1
10
45.436928113805
20
-1.15615969188551
30
0
41
1
10
45.4358880039225
20
-1.13229253249457
30
0
41
1
10
45.4306876370674
20
-1.0124949732259
30
0
41
1
10
45.4265487289203
20
-0.915635908966323
30
0
41
1
10
45.4183176671692
20
-0.719945621297001
30
0
41
1
10
45.4142257370945
20
-0.621114212662093
30
0
41
1
10
45.4060711821795
20
-0.421483894580831
30
0
41
1
10
45.4020088150796
20
-0.320685141048699
30
0
41
1
10
45.3959024913336
20
-0.167967085419207
30
0
41
1
10
45.3938596944513
20
-0.116681728633012
30
0
41
1
10
45.3898040782805
20
-0.0146970851302228
30
0
41
1
10
45.3877872548896
20
0.0361014113708222
30
0
41
1
10
45.3857759355502
20
0.0867089939429491
30
0
0
SPLINE
5
1FB
100
AcDbEntity
8
1
62
256
6
ByLayer
370
18
48
1
60
0
100
AcDbSpline
70
4
71
3
72
12
73
8
40
0
40
0
40
0
40
0
40
0.500000000000016
40
0.500000000000016
40
0.750000000000008
40
0.750000000000008
40
1
40
1
40
1
40
1
41
1
10
45.7973773528877
20
-1.85979082025085
30
0
41
1
10
45.7442570664629
20
-1.91333364698886
30
0
41
1
10
45.6914287605491
20
-1.96290039560847
30
0
41
1
10
45.6127554956666
20
-2.03111573741174
30
0
41
1
10
45.5866125218656
20
-2.05284428555018
30
0
41
1
10
45.5345807113482
20
-2.09420953959579
30
0
41
1
10
45.5086807375097
20
-2.11385675774889
30
0
41
1
10
45.4828808129482
20
-2.13247068807348
30
0
0
SPLINE
5
1FC
100
AcDbEntity
8
1
62
256
6
ByLayer
370
13
48
1
60
0
100
AcDbSpline
70
4
71
3
72
10
73
6
40
0
40
0
40
0
40
0
40
0.402327004487725
40
0.592812617045006
40
1
40
1
40
1
40
1
41
1.04
10
45.797377352888
20
-1.85979082025438
30
0
41
1.04
10
45.7806732336376
20
-1.68640000268586
30
0
41
1.04
10
45.7563013854388
20
-1.38835732521921
30
0
41
1.04
10
45.7154432402636
20
-0.814376615503266
30
0
41
1.04
10
45.6913138487018
20
-0.442634535570582
30
0
41
1.04
10
45.6749162071477
20
-0.187018555751396
30
0
0
SPLINE
5
1FD
100
AcDbEntity
8
1
62
256
6
ByLayer
370
18
48
1
60
0
100
AcDbSpline
70
4
71
3
72
91
73
87
40
0
40
0
40
0
40
0
40
0.0624999999999922
40
0.0624999999999922
40
0.124999999999984
40
0.124999999999984
40
0.187499999999977
40
0.187499999999977
40
0.203124999999974
40
0.203124999999974
40
0.218749999999971
40
0.218749999999971
40
0.249999999999966
40
0.249999999999966
40
0.28124999999996
40
0.28124999999996
40
0.296874999999959
40
0.296874999999959
40
0.312499999999958
40
0.328124999999957
40
0.328124999999957
40
0.343749999999956
40
0.343749999999956
40
0.374999999999957
40
0.374999999999957
40
0.406249999999958
40
0.406249999999958
40
0.43749999999996
40
0.43749999999996
40
0.453124999999962
40
0.453124999999962
40
0.468749999999964
40
0.468749999999964
40
0.484374999999966
40
0.484374999999966
40
0.492187499999967
40
0.492187499999967
40
0.499999999999968
40
0.499999999999968
40
0.51562499999997
40
0.51562499999997
40
0.531249999999973
40
0.531249999999973
40
0.539062499999973
40
0.539062499999973
40
0.546874999999973
40
0.546874999999973
40
0.562499999999973
40
0.562499999999973
40
0.570312499999973
40
0.570312499999973
40
0.578124999999974
40
0.578124999999974
40
0.593749999999975
40
0.593749999999975
40
0.601562499999975
40
0.601562499999975
40
0.609374999999975
40
0.609374999999975
40
0.624999999999976
40
0.624999999999976
40
0.632812499999977
40
0.632812499999977
40
0.640624999999978
40
0.640624999999978
40
0.656249999999979
40
0.656249999999979
40
0.687499999999981
40
0.687499999999981
40
0.703124999999982
40
0.703124999999982
40
0.718749999999983
40
0.718749999999983
40
0.749999999999983
40
0.749999999999983
40
0.812499999999983
40
0.812499999999983
40
0.828124999999983
40
0.828124999999983
40
0.843749999999984
40
0.843749999999984
40
0.874999999999987
40
0.874999999999987
40
0.937499999999994
40
0.937499999999994
40
1
40
1
40
1
40
1
41
1
10
38.1613719460029
20
-0.682607089040687
30
0
41
1
10
38.0614276123301
20
-0.602299724046418
30
0
41
1
10
37.9597810923569
20
-0.523909009943054
30
0
41
1
10
37.7512723638449
20
-0.374142899382974
30
0
41
1
10
37.6444202611728
20
-0.302752272295464
30
0
41
1
10
37.4237823584077
20
-0.170104918278213
30
0
41
1
10
37.3100351863069
20
-0.108787030413254
30
0
41
1
10
37.1623294716627
20
-0.0406448942866007
30
0
41
1
10
37.1325112260829
20
-0.0274434964829879
30
0
41
1
10
37.0722766784757
20
-0.0019723436197125
30
0
41
1
10
37.0417997209311
20
0.0103193772857537
30
0
41
1
10
36.9500407799033
20
0.0454478995901297
30
0
41
1
10
36.8883557237606
20
0.0666027777801048
30
0
41
1
10
36.7638391831845
20
0.103866500576658
30
0
41
1
10
36.7010199567799
20
0.120029122443213
30
0
41
1
10
36.6058282737989
20
0.140046869456029
30
0
41
1
10
36.5739392591936
20
0.146023916657981
30
0
41
1
10
36.5097740304952
20
0.156280388798564
30
0
41
1
10
36.4452283800725
20
0.164868970298016
30
0
41
1
10
36.3799563038541
20
0.17027473107666
30
0
41
1
10
36.3143438141885
20
0.1741895861758
30
0
41
1
10
36.2813948878792
20
0.175395876931418
30
0
41
1
10
36.1830642208256
20
0.176978099138211
30
0
41
1
10
36.1178277083048
20
0.175530797089408
30
0
41
1
10
35.9880413820199
20
0.167218746921975
30
0
41
1
10
35.9234898744156
20
0.160367513446573
30
0
41
1
10
35.7952291095159
20
0.140011268308143
30
0
41
1
10
35.7315117713381
20
0.126570274135872
30
0
41
1
10
35.6366997379606
20
0.100357847829827
30
0
41
1
10
35.6052206968406
20
0.09060198998381
30
0
41
1
10
35.5425795175301
20
0.0686905621678875
30
0
41
1
10
35.5117731238768
20
0.0566589727343683
30
0
41
1
10
35.4513480821686
20
0.0301097091500822
30
0
41
1
10
35.4217277490401
20
0.0155955696298236
30
0
41
1
10
35.3783765394781
20
-0.0084355794614908
30
0
41
1
10
35.3641077661548
20
-0.0168262811153852
30
0
41
1
10
35.3359625384522
20
-0.0344293724023714
30
0
41
1
10
35.3221021262145
20
-0.0436354657021525
30
0
41
1
10
35.2816199499623
20
-0.0722483878047626
30
0
41
1
10
35.2559390642792
20
-0.0927373647363652
30
0
41
1
10
35.2075036307352
20
-0.136869736772013
30
0
41
1
10
35.1847458874842
20
-0.160509745843797
30
0
41
1
10
35.1531862991027
20
-0.198738834535931
30
0
41
1
10
35.1430524845524
20
-0.212014714691122
30
0
41
1
10
35.1240372986199
20
-0.239152043485234
30
0
41
1
10
35.1151415215544
20
-0.253019106748042
30
0
41
1
10
35.0903372205059
20
-0.295533170917082
30
0
41
1
10
35.0763209811356
20
-0.325098029237466
30
0
41
1
10
35.0593019256904
20
-0.371363196403621
30
0
41
1
10
35.0542787216898
20
-0.387151459772014
30
0
41
1
10
35.0457189363935
20
-0.418734970387362
30
0
41
1
10
35.0421528172508
20
-0.434597006519453
30
0
41
1
10
35.0334723517631
20
-0.48237192523473
30
0
41
1
10
35.0303696627454
20
-0.514472707153431
30
0
41
1
10
35.0293921566017
20
-0.562933493763921
30
0
41
1
10
35.0296891031151
20
-0.579115623327311
30
0
41
1
10
35.0313941486269
20
-0.611060425675078
30
0
41
1
10
35.0328013771239
20
-0.626890244961572
30
0
41
1
10
35.0385231723017
20
-0.673983537659183
30
0
41
1
10
35.0443313872206
20
-0.70485211634562
30
0
41
1
10
35.055523347999
20
-0.750462538764964
30
0
41
1
10
35.0596690457696
20
-0.765550258111261
30
0
41
1
10
35.0687233171611
20
-0.795506981817255
30
0
41
1
10
35.0736444718003
20
-0.810407942230142
30
0
41
1
10
35.089321230511
20
-0.854413497493113
30
0
41
1
10
35.1010052300515
20
-0.8829156931738
30
0
41
1
10
35.1390384145419
20
-0.966327787732411
30
0
41
1
10
35.1683298322292
20
-1.01916549839862
30
0
41
1
10
35.2164099121617
20
-1.09527155400099
30
0
41
1
10
35.2331415896047
20
-1.1201072663801
30
0
41
1
10
35.2678088215266
20
-1.16882709709779
30
0
41
1
10
35.2856607031736
20
-1.19266340256147
30
0
41
1
10
35.3403181166257
20
-1.26228499477656
30
0
41
1
10
35.3783552957466
20
-1.30637790332119
30
0
41
1
10
35.4964054010837
20
-1.43278165327916
30
0
41
1
10
35.5803345274568
20
-1.50927359631572
30
0
41
1
10
35.6894681038833
20
-1.59760598781534
30
0
41
1
10
35.7115057552332
20
-1.614904823133
30
0
41
1
10
35.7559542621506
20
-1.64880938019658
30
0
41
1
10
35.7783883828182
20
-1.66543154715259
30
0
41
1
10
35.8460030510591
20
-1.71417315067131
30
0
41
1
10
35.8914573908563
20
-1.74515127692106
30
0
41
1
10
36.0286266932651
20
-1.8339851065615
30
0
41
1
10
36.121123104816
20
-1.88777624257841
30
0
41
1
10
36.3073198439429
20
-1.98560246666085
30
0
41
1
10
36.4010283033009
20
-2.02961957989385
30
0
41
1
10
36.4952716341588
20
-2.0687893937185
30
0
0
SPLINE
5
1FE
100
AcDbEntity
8
1
62
256
6
ByLayer
370
18
48
1
60
0
100
AcDbSpline
70
4
71
3
72
26
73
22
40
0
40
0
40
0
40
0
40
0.0200936798226747
40
0.0200936798226747
40
0.111276094939042
40
0.111276094939042
40
0.202458510055408
40
0.202458510055408
40
0.384823340288142
40
0.384823340288142
40
0.567188170520876
40
0.567188170520876
40
0.658370585637243
40
0.658370585637243
40
0.74955300075361
40
0.74955300075361
40
0.840735415869977
40
0.840735415869977
40
0.931917830986344
40
0.931917830986344
40
1
40
1
40
1
40
1
41
1
10
37.6520843694854
20
-0.306158599767826
30
0
41
1
10
37.6410264604427
20
-0.306699972255444
30
0
41
1
10
37.6299098178461
20
-0.307647254163811
30
0
41
1
10
37.5681943061012
20
-0.315214289650328
30
0
41
1
10
37.516220624689
20
-0.330963245449737
30
0
41
1
10
37.4103676622422
20
-0.375435123577432
30
0
41
1
10
37.3572638390278
20
-0.403454643334413
30
0
41
1
10
37.201295106795
20
-0.503405064198859
30
0
41
1
10
37.0984713673125
20
-0.594193271614699
30
0
41
1
10
36.9152024799977
20
-0.809414010746252
30
0
41
1
10
36.8324272513794
20
-0.936475588815568
30
0
41
1
10
36.7303325125234
20
-1.13753344472468
30
0
41
1
10
36.6993505915996
20
-1.20725603325189
30
0
41
1
10
36.644411715583
20
-1.34803691534154
30
0
41
1
10
36.6205137200458
20
-1.41874212712642
30
0
41
1
10
36.5786960964863
20
-1.56067945689227
30
0
41
1
10
36.5607881933725
20
-1.63191260825354
30
0
41
1
10
36.5301807094241
20
-1.77483794887786
30
0
41
1
10
36.5168166486786
20
-1.84682135663684
30
0
41
1
10
36.5013218935344
20
-1.96822379349874
30
0
41
1
10
36.4971980390776
20
-2.01899942505685
30
0
41
1
10
36.4952716340666
20
-2.06878939610138
30
0
0
SPLINE
5
1FF
100
AcDbEntity
8
SK1
62
256
6
ByLayer
370
18
48
1
60
0
100
AcDbSpline
70
4
71
3
72
22
73
18
40
0
40
0
40
0
40
0
40
0.12506412733069
40
0.12506412733069
40
0.187596190996035
40
0.187596190996035
40
0.25012825466138
40
0.25012825466138
40
0.500256509322759
40
0.500256509322759
40
0.625320636653449
40
0.625320636653449
40
0.750384763984138
40
0.750384763984138
40
0.875448891314828
40
0.875448891314828
40
1
40
1
40
1
40
1
41
1
10
-21.87
20
2.42499999999998
30
0
41
1
10
-21.9161286994883
20
2.42499999999998
30
0
41
1
10
-21.9611809603311
20
2.42499999999998
30
0
41
1
10
-22.0267735041401
20
2.42499999999998
30
0
41
1
10
-22.0483224129895
20
2.42499999999998
30
0
41
1
10
-22.0905995560873
20
2.42499999999998
30
0
41
1
10
-22.1113088348484
20
2.42499999999998
30
0
41
1
10
-22.2125001674621
20
2.42499999999998
30
0
41
1
10
-22.2860194291454
20
2.42499999999998
30
0
41
1
10
-22.3799881112948
20
2.42499999999998
30
0
41
1
10
-22.4085719462844
20
2.42499999999998
30
0
41
1
10
-22.4591338700697
20
2.42499999999998
30
0
41
1
10
-22.4811148066356
20
2.42499999999998
30
0
41
1
10
-22.5171473245934
20
2.42499999999998
30
0
41
1
10
-22.5308921377331
20
2.42499999999998
30
0
41
1
10
-22.5492656360107
20
2.42499999999998
30
0
41
1
10
-22.5539296346834
20
2.42499999999996
30
0
41
1
10
-22.5539600000049
20
2.42499999999996
30
0
0
SPLINE
5
200
100
AcDbEntity
8
SK1
62
256
6
ByLayer
370
18
48
1
60
0
100
AcDbSpline
70
4
71
3
72
23
73
19
40
0
40
0
40
0
40
0
40
0.0003019488173554
40
0.125264205215186
40
0.125264205215186
40
0.250226461613016
40
0.250226461613016
40
0.375188718010847
40
0.375188718010847
40
0.500150974408678
40
0.500150974408678
40
0.750075487204339
40
0.750075487204339
40
0.812556615403254
40
0.812556615403254
40
0.875037743602169
40
0.875037743602169
40
1
40
1
40
1
40
1
41
1
10
-22.5539592396082
20
-2.42500000000001
30
0
41
1
10
-22.5539602397082
20
-2.42500000000001
30
0
41
1
10
-22.5539789523455
20
-2.42500000000001
30
0
41
1
10
-22.5493033979172
20
-2.42500000000004
30
0
41
1
10
-22.5308921377331
20
-2.42500000000004
30
0
41
1
10
-22.5171473245934
20
-2.42500000000004
30
0
41
1
10
-22.4811148066356
20
-2.42500000000004
30
0
41
1
10
-22.4591338700697
20
-2.42500000000004
30
0
41
1
10
-22.4085719462844
20
-2.42500000000004
30
0
41
1
10
-22.3799881112948
20
-2.42500000000004
30
0
41
1
10
-22.2860194291454
20
-2.42500000000004
30
0
41
1
10
-22.2125001674621
20
-2.42500000000004
30
0
41
1
10
-22.1113088348484
20
-2.42500000000004
30
0
41
1
10
-22.0905995560873
20
-2.42500000000004
30
0
41
1
10
-22.0483224129895
20
-2.42500000000004
30
0
41
1
10
-22.0267735041401
20
-2.42500000000004
30
0
41
1
10
-21.9611809603311
20
-2.42500000000004
30
0
41
1
10
-21.9161286994882
20
-2.42500000000004
30
0
41
1
10
-21.87
20
-2.42500000000001
30
0
0
SPLINE
5
201
100
AcDbEntity
8
SK1
62
256
6
ByLayer
370
18
48
1
60
0
100
AcDbSpline
70
4
71
3
72
39
73
35
40
0
40
0
40
0
40
0
40
0.125
40
0.125
40
0.15625
40
0.15625
40
0.1875
40
0.1875
40
0.25
40
0.25
40
0.375
40
0.375
40
0.40625
40
0.40625
40
0.421875
40
0.421875
40
0.4375
40
0.4375
40
0.5
40
0.5625
40
0.5625
40
0.625
40
0.625
40
0.6875
40
0.6875
40
0.75
40
0.75
40
0.875
40
0.875
40
0.90625
40
0.90625
40
0.9375
40
0.9375
40
1
40
1
40
1
40
1
41
1
10
-21.8700000000001
20
-1.94550951722172
30
0
41
1
10
-21.9617651518119
20
-1.79886711642567
30
0
41
1
10
-22.0492873517802
20
-1.64913452522694
30
0
41
1
10
-22.1505892647162
20
-1.45606885388207
30
0
41
1
10
-22.1704385682289
20
-1.41715632601688
30
0
41
1
10
-22.2092172904702
20
-1.33866130766719
30
0
41
1
10
-22.2280943359419
20
-1.2991823626638
30
0
41
1
10
-22.2829175461676
20
-1.18024215816848
30
0
41
1
10
-22.3171107315207
20
-1.100177554439
30
0
41
1
10
-22.4112462683972
20
-0.857219516933043
30
0
41
1
10
-22.4628058776618
20
-0.691581916396188
30
0
41
1
10
-22.5076299776698
20
-0.478110359126191
30
0
41
1
10
-22.5156089333792
20
-0.435093316048409
30
0
41
1
10
-22.5259821127037
20
-0.370045530477853
30
0
41
1
10
-22.5291781080732
20
-0.348242856020761
30
0
41
1
10
-22.534994808535
20
-0.304643440516486
30
0
41
1
10
-22.537615614096
20
-0.282853877047046
30
0
41
1
10
-22.5492720364585
20
-0.173957129743428
30
0
41
1
10
-22.5586325615654
20
-5.00669868018E-05
30
0
41
1
10
-22.5493033979172
20
0.173197642612138
30
0
41
1
10
-22.5308921377331
20
0.346124945108073
30
0
41
1
10
-22.5171473245934
20
0.432428458607632
30
0
41
1
10
-22.4811148066356
20
0.604734101101201
30
0
41
1
10
-22.4591338700697
20
0.689343813069286
30
0
41
1
10
-22.4085719462844
20
0.855900645063912
30
0
41
1
10
-22.3799881112948
20
0.937864176391628
30
0
41
1
10
-22.2860194291454
20
1.18048348504715
30
0
41
1
10
-22.2125001674621
20
1.33790092513371
30
0
41
1
10
-22.1113088348484
20
1.53097344768682
30
0
41
1
10
-22.0905995560873
20
1.56940044067241
30
0
41
1
10
-22.0483224129895
20
1.64591262089519
30
0
41
1
10
-22.0267735041401
20
1.68396212476608
30
0
41
1
10
-21.9611809603311
20
1.79726421471696
30
0
41
1
10
-21.9161286994883
20
1.87179500681108
30
0
41
1
10
-21.87
20
1.94550951722161
30
0
0
SPLINE
5
202
100
AcDbEntity
8
1
62
256
6
ByLayer
370
18
48
1
60
0
100
AcDbSpline
70
4
71
1
72
4
73
2
40
0
40
0
40
1
40
1
41
1
10
56.1959299603248
20
-2.55213075606142
30
0
41
1
10
56.3214389733192
20
-2.52168801318419
30
0
0
SPLINE
5
203
100
AcDbEntity
8
1
62
256
6
ByLayer
370
18
48
1
60
0
100
AcDbSpline
70
4
71
2
72
6
73
3
40
0
40
0
40
0
40
1
40
1
40
1
41
1
10
55.1443993247065
20
-2.46983853020041
30
0
41
1
10
55.2203160321928
20
-2.60036597291281
30
0
41
1
10
55.296163926054
20
-2.73103955014415
30
0
0
SPLINE
5
204
100
AcDbEntity
8
1
62
256
6
ByLayer
370
18
48
1
60
0
100
AcDbSpline
70
4
71
1
72
4
73
2
40
0
40
0
40
1
40
1
41
1
10
54.4587118665968
20
-2.97348884131122
30
0
41
1
10
54.6941413818124
20
-2.91638452708449
30
0
0
SPLINE
5
205
100
AcDbEntity
8
1
62
256
6
ByLayer
370
18
48
1
60
0
100
AcDbSpline
70
4
71
2
72
6
73
3
40
0
40
0
40
0
40
1
40
1
40
1
41
1
10
52.8318201763481
20
2.79250994726249
30
0
41
1
10
52.7389147983961
20
2.63227433370841
30
0
41
1
10
52.6457995520585
20
2.47216838586186
30
0
0
SPLINE
5
206
100
AcDbEntity
8
1
62
256
6
ByLayer
370
18
48
1
60
0
100
AcDbSpline
70
4
71
2
72
6
73
3
40
0
40
0
40
0
40
1
40
1
40
1
41
1
10
47.2863410821477
20
2.72000871842747
30
0
41
1
10
47.1905873795461
20
2.88462730051253
30
0
41
1
10
47.0950934040956
20
3.04939678723858
30
0
0
SPLINE
5
207
100
AcDbEntity
8
1
62
256
6
ByLayer
370
18
48
1
60
0
100
AcDbSpline
70
4
71
2
72
6
73
3
40
0
40
0
40
0
40
1
40
1
40
1
41
1
10
44.6296845339049
20
2.44453972671204
30
0
41
1
10
44.6268865627606
20
2.44539944795034
30
0
41
1
10
44.6166607042503
20
2.43928048805512
30
0
0
SPLINE
5
208
100
AcDbEntity
8
1
62
256
6
ByLayer
370
18
48
1
60
0
100
AcDbSpline
70
4
71
2
72
6
73
3
40
0
40
0
40
0
40
1
40
1
40
1
41
1
10
44.6897201956193
20
2.54767475272374
30
0
41
1
10
44.6679082681397
20
2.51012978264569
30
0
41
1
10
44.646087894623
20
2.47258991600947
30
0
0
SPLINE
5
209
100
AcDbEntity
8
1
62
256
6
ByLayer
370
18
48
1
60
0
100
AcDbSpline
70
4
71
2
72
6
73
3
40
0
40
0
40
0
40
1
40
1
40
1
41
1
10
49.9336934504859
20
-2.46661445807069
30
0
41
1
10
49.9597537842558
20
-2.41217689660218
30
0
41
1
10
50.035414763746
20
-2.4234989045238
30
0
0
SPLINE
5
20A
100
AcDbEntity
8
1
62
256
6
ByLayer
370
18
48
1
60
0
100
AcDbSpline
70
4
71
2
72
6
73
3
40
0
40
0
40
0
40
1
40
1
40
1
41
1
10
50.9754285568053
20
3.03862373791767
30
0
41
1
10
50.8103092251174
20
2.75418656130094
30
0
41
1
10
50.6450831038654
20
2.47046470708616
30
0
0
SPLINE
5
20B
100
AcDbEntity
8
1
62
256
6
ByLayer
370
18
48
1
60
0
100
AcDbSpline
70
4
71
2
72
6
73
3
40
0
40
0
40
0
40
1
40
1
40
1
41
1
10
55.9310790237438
20
-2.47135244646219
30
0
41
1
10
55.9620072775768
20
-2.40856332945702
30
0
41
1
10
56.0427505798203
20
-2.42151568886496
30
0
0
SPLINE
5
20C
100
AcDbEntity
8
1
62
256
6
ByLayer
370
18
48
1
60
0
100
AcDbSpline
70
4
71
2
72
6
73
3
40
0
40
0
40
0
40
1
40
1
40
1
41
1
10
55.8382469813612
20
-2.63076204311525
30
0
41
1
10
55.883656154453
20
-2.55267750528276
30
0
41
1
10
55.9290958137822
20
-2.47463673517243
30
0
0
SPLINE
5
20D
100
AcDbEntity
8
1
62
256
6
ByLayer
370
18
48
1
60
0
100
AcDbSpline
70
4
71
2
72
6
73
3
40
0
40
0
40
0
40
1
40
1
40
1
41
1
10
51.4305940895005
20
2.47244383050287
30
0
41
1
10
51.2628046872338
20
2.76066066455317
30
0
41
1
10
51.095454052834
20
3.04915322024129
30
0
0
SPLINE
5
20E
100
AcDbEntity
8
1
62
256
6
ByLayer
370
18
48
1
60
0
100
AcDbSpline
70
4
71
2
72
6
73
3
40
0
40
0
40
0
40
1
40
1
40
1
41
1
10
45.4217916269467
20
2.4837230855531
30
0
41
1
10
45.3195639816362
20
2.65988432860152
30
0
41
1
10
45.2173830454969
20
2.83614689072888
30
0
0
SPLINE
5
20F
100
AcDbEntity
8
1
62
256
6
ByLayer
370
18
48
1
60
0
100
AcDbSpline
70
4
71
2
72
6
73
3
40
0
40
0
40
0
40
1
40
1
40
1
41
1
10
49.5936723905185
20
-3.05205200330573
30
0
41
1
10
49.7608376858219
20
-2.76391499882143
30
0
41
1
10
49.9283601728977
20
-2.47602883206341
30
0
0
SPLINE
5
210
100
AcDbEntity
8
1
62
256
6
ByLayer
370
18
48
1
60
0
100
AcDbSpline
70
4
71
3
72
11
73
7
40
0
40
0
40
0
40
0
40
0.244808143104442
40
0.498493231949897
40
0.753009693847067
40
1
40
1
40
1
40
1
41
1
10
51.6461171973523
20
2.4721723107497
30
0
41
1
10
51.6368649184563
20
2.45519608774074
30
0
41
1
10
51.6105303546761
20
2.42941160710444
30
0
41
1
10
51.5357738646753
20
2.40651670289557
30
0
41
1
10
51.4611869742785
20
2.43320453101049
30
0
41
1
10
51.4349379886919
20
2.46136127059899
30
0
41
1
10
51.4257772201859
20
2.47956394941943
30
0
0
SPLINE
5
211
100
AcDbEntity
8
1
62
256
6
ByLayer
370
18
48
1
60
0
100
AcDbSpline
70
4
71
3
72
11
73
7
40
0
40
0
40
0
40
0
40
0.245328211186153
40
0.498256661691499
40
0.752109374592551
40
1
40
1
40
1
40
1
41
1
10
45.6460633585156
20
2.47278961487987
30
0
41
1
10
45.6371090631436
20
2.45619066838122
30
0
41
1
10
45.6113271800104
20
2.43089302961937
30
0
41
1
10
45.5370856008578
20
2.40728797367944
30
0
41
1
10
45.4630259549472
20
2.43247780608996
30
0
41
1
10
45.437364266108
20
2.45846158590982
30
0
41
1
10
45.4285308685799
20
2.47543448203089
30
0
0
SPLINE
5
212
100
AcDbEntity
8
1
62
256
6
ByLayer
370
18
48
1
60
0
100
AcDbSpline
70
4
71
2
72
6
73
3
40
0
40
0
40
0
40
1
40
1
40
1
41
1
10
49.1470557201234
20
-2.47433458068323
30
0
41
1
10
49.3136989168503
20
-2.76113131001168
30
0
41
1
10
49.4801911160001
20
-3.04840700613047
30
0
0
SPLINE
5
213
100
AcDbEntity
8
1
62
256
6
ByLayer
370
18
48
1
60
0
100
AcDbSpline
70
4
71
1
72
4
73
2
40
0
40
0
40
1
40
1
41
1
10
55.3302564499208
20
-2.76202025318833
30
0
41
1
10
55.8298458247889
20
-2.64084650104007
30
0
0
SPLINE
5
214
100
AcDbEntity
8
1
62
256
6
ByLayer
370
18
48
1
60
0
100
AcDbSpline
70
4
71
3
72
11
73
7
40
0
40
0
40
0
40
0
40
0.248249878137124
40
0.501080983346486
40
0.753335212252567
40
1
40
1
40
1
40
1
41
1
10
48.9303923338791
20
-2.47202397748018
30
0
41
1
10
48.9388583465479
20
-2.45600122874285
30
0
41
1
10
48.9638318072978
20
-2.4315749245412
30
0
41
1
10
49.0372446206011
20
-2.40700964110121
30
0
41
1
10
49.110771380976
20
-2.43029980488143
30
0
41
1
10
49.1358093324246
20
-2.4540154071268
30
0
41
1
10
49.1443451297891
20
-2.46965348836957
30
0
0
SPLINE
5
215
100
AcDbEntity
8
1
62
256
6
ByLayer
370
18
48
1
60
0
100
AcDbSpline
70
4
71
3
72
11
73
7
40
0
40
0
40
0
40
0
40
0.245899117095139
40
0.498081864919219
40
0.751110292187836
40
1
40
1
40
1
40
1
41
1
10
54.9316835225848
20
-2.47000762419756
30
0
41
1
10
54.9403132007026
20
-2.45427343665864
30
0
41
1
10
54.9654909209847
20
-2.43038913513792
30
0
41
1
10
55.039080671958
20
-2.407235953829
30
0
41
1
10
55.1125548168961
20
-2.43202204372477
30
0
41
1
10
55.1375123591432
20
-2.45653324333944
30
0
41
1
10
55.1459513148863
20
-2.47261542939353
30
0
0
SPLINE
5
216
100
AcDbEntity
8
1
62
256
6
ByLayer
370
18
48
1
60
0
100
AcDbSpline
70
4
71
2
72
6
73
3
40
0
40
0
40
0
40
1
40
1
40
1
41
1
10
51.9808120318497
20
3.04894300741316
30
0
41
1
10
51.8136619935252
20
2.76044662997919
30
0
41
1
10
51.6461130318965
20
2.47216512715312
30
0
0
SPLINE
5
217
100
AcDbEntity
8
1
62
256
6
ByLayer
370
18
48
1
60
0
100
AcDbSpline
70
4
71
2
72
6
73
3
40
0
40
0
40
0
40
1
40
1
40
1
41
1
10
52.4304907949966
20
2.47202888204089
30
0
41
1
10
52.2627719738342
20
2.76008461684756
30
0
41
1
10
52.0955157328483
20
3.04840833891589
30
0
0
SPLINE
5
218
100
AcDbEntity
8
1
62
256
6
ByLayer
370
18
48
1
60
0
100
AcDbSpline
70
4
71
2
72
6
73
3
40
0
40
0
40
0
40
1
40
1
40
1
41
1
10
45.9809384700132
20
3.04992886112967
30
0
41
1
10
45.8135968193026
20
2.76106951876685
30
0
41
1
10
45.6458774227296
20
2.47246801120059
30
0
0
SPLINE
5
219
100
AcDbEntity
8
1
62
256
6
ByLayer
370
18
48
1
60
0
100
AcDbSpline
70
4
71
3
72
11
73
7
40
0
40
0
40
0
40
0
40
0.246734518596003
40
0.500910207058784
40
0.754725329754323
40
1
40
1
40
1
40
1
41
1
10
52.6505262688546
20
2.47920867437972
30
0
41
1
10
52.6414133477805
20
2.46108519638003
30
0
41
1
10
52.6152603886986
20
2.43305903470753
30
0
41
1
10
52.5406590615485
20
2.4064483303091
30
0
41
1
10
52.4660259964197
20
2.42937771240733
30
0
41
1
10
52.4397358188546
20
2.45506304159349
30
0
41
1
10
52.4305141063768
20
2.47198877497198
30
0
0
SPLINE
5
21A
100
AcDbEntity
8
1
62
256
6
ByLayer
370
18
48
1
60
0
100
AcDbSpline
70
4
71
2
72
6
73
3
40
0
40
0
40
0
40
1
40
1
40
1
41
1
10
46.4303433225136
20
2.47244362198731
30
0
41
1
10
46.2626399278469
20
2.76052213588625
30
0
41
1
10
46.0953909805107
20
3.04886606084386
30
0
0
SPLINE
5
21B
100
AcDbEntity
8
1
62
256
6
ByLayer
370
18
48
1
60
0
100
AcDbSpline
70
4
71
2
72
6
73
3
40
0
40
0
40
0
40
1
40
1
40
1
41
1
10
54.6635452053996
20
-2.93135156311271
30
0
41
1
10
54.7969057156694
20
-2.70160139513212
30
0
41
1
10
54.9304233525326
20
-2.47226000066175
30
0
0
SPLINE
5
21C
100
AcDbEntity
8
1
62
256
6
ByLayer
370
18
48
1
60
0
100
AcDbSpline
70
4
71
3
72
11
73
7
40
0
40
0
40
0
40
0
40
0.244433930504312
40
0.49984870329469
40
0.755427162683108
40
1
40
1
40
1
40
1
41
1
10
46.6538916542269
20
2.48296339634592
30
0
41
1
10
46.6441938581893
20
2.46363978867964
30
0
41
1
10
46.6170229313049
20
2.43343675946326
30
0
41
1
10
46.5416472924992
20
2.40618990970953
30
0
41
1
10
46.4663331482293
20
2.42913611111641
30
0
41
1
10
46.4391305224072
20
2.45622897948803
30
0
41
1
10
46.4294171682476
20
2.4739911871113
30
0
0
SPLINE
5
21D
100
AcDbEntity
8
1
62
256
6
ByLayer
370
18
48
1
60
0
100
AcDbSpline
70
4
71
2
72
6
73
3
40
0
40
0
40
0
40
1
40
1
40
1
41
1
10
48.5972851895827
20
-3.04494358327469
30
0
41
1
10
48.7642839859566
20
-2.75710743590065
30
0
41
1
10
48.9315891713096
20
-2.46989737035213
30
0
0
SPLINE
5
21E
100
AcDbEntity
8
1
62
256
6
ByLayer
370
18
48
1
60
0
100
AcDbSpline
70
4
71
2
72
6
73
3
40
0
40
0
40
0
40
1
40
1
40
1
41
1
10
48.1458907878036
20
-2.47228447408929
30
0
41
1
10
48.3139198061715
20
-2.7613718372655
30
0
41
1
10
48.4812648117132
20
-3.05003368262146
30
0
0
SPLINE
5
21F
100
AcDbEntity
8
1
62
256
6
ByLayer
370
18
48
1
60
0
100
AcDbSpline
70
4
71
2
72
6
73
3
40
0
40
0
40
0
40
1
40
1
40
1
41
1
10
54.1481847459897
20
-2.47530678128118
30
0
41
1
10
54.2948578425054
20
-2.72766452188992
30
0
41
1
10
54.4411819534641
20
-2.97997570614839
30
0
0
SPLINE
5
220
100
AcDbEntity
8
1
62
256
6
ByLayer
370
18
48
1
60
0
100
AcDbSpline
70
4
71
2
72
6
73
3
40
0
40
0
40
0
40
1
40
1
40
1
41
1
10
48.0388955244801
20
-2.42212916460673
30
0
41
1
10
48.1147606478389
20
-2.40985803042642
30
0
41
1
10
48.1447271749296
20
-2.47023072639721
30
0
0
SPLINE
5
221
100
AcDbEntity
8
1
62
256
6
ByLayer
370
18
48
1
60
0
100
AcDbSpline
70
4
71
2
72
6
73
3
40
0
40
0
40
0
40
1
40
1
40
1
41
1
10
54.0496021777934
20
-2.42289283133945
30
0
41
1
10
54.1201255819854
20
-2.41442612566169
30
0
41
1
10
54.1427272061632
20
-2.4655638411472
30
0
0
SPLINE
5
222
100
AcDbEntity
8
1
62
256
6
ByLayer
370
18
48
1
60
0
100
AcDbSpline
70
4
71
2
72
6
73
3
40
0
40
0
40
0
40
1
40
1
40
1
41
1
10
53.4710007816716
20
2.42630870340625
30
0
41
1
10
53.462957086903
20
2.42902732951825
30
0
41
1
10
53.4580371759231
20
2.43025729991922
30
0
0
SPLINE
5
223
100
AcDbEntity
8
1
62
256
6
ByLayer
370
18
48
1
60
0
100
AcDbSpline
70
4
71
1
72
4
73
2
40
0
40
0
40
1
40
1
41
1
10
53.4519627651776
20
2.43127312533883
30
0
41
1
10
53.4463996480473
20
2.43220343100043
30
0
0
SPLINE
5
224
100
AcDbEntity
8
1
62
256
6
ByLayer
370
18
48
1
60
0
100
AcDbSpline
70
4
71
2
72
6
73
3
40
0
40
0
40
0
40
1
40
1
40
1
41
1
10
53.4357413123524
20
2.4615671001394
30
0
41
1
10
53.2692434432208
20
2.7465050135616
30
0
41
1
10
53.1028641727549
20
3.03234905842768
30
0
0
SPLINE
5
225
100
AcDbEntity
8
1
62
256
6
ByLayer
370
18
48
1
60
0
100
AcDbSpline
70
4
71
1
72
4
73
2
40
0
40
0
40
1
40
1
41
1
10
46.6715737140206
20
2.51652699331936
30
0
41
1
10
46.6459156850635
20
2.47234979485154
30
0
0
LINE
5
7F
100
AcDbEntity
8
80
62
256
6
ByLayer
370
18
48
1
60
0
100
AcDbLine
10
0
20
0
30
0
11
-5
21
0
31
0
39
0
210
0
220
0
230
1
0
LINE
5
80
100
AcDbEntity
8
4
62
256
6
ByLayer
370
18
48
0.05
60
0
100
AcDbLine
10
0
20
0
30
0
11
57.33
21
0
31
0
39
0
210
0
220
0
230
1
0
LINE
5
82
100
AcDbEntity
8
81
62
256
6
ByLayer
370
18
48
1
60
0
100
AcDbLine
10
57.33
20
0
30
0
11
62.33
21
0
31
0
39
0
210
0
220
0
230
1
0
LINE
5
83
100
AcDbEntity
8
SK4
62
256
6
ByLayer
370
18
48
0.05
60
0
100
AcDbLine
10
-22.87
20
0
30
0
11
57.33
21
0
31
0
39
0
210
0
220
0
230
1
0
LINE
5
85
100
AcDbEntity
8
1
62
256
6
ByLayer
370
18
48
1
60
0
100
AcDbLine
10
0
20
3.2385
30
0
11
0
21
-3.2385
31
0
39
0
210
0
220
0
230
1
0
LINE
5
86
100
AcDbEntity
8
1
62
256
6
ByLayer
370
13
48
1
60
0
100
AcDbLine
10
50.645376
20
2.471577
30
0
11
50.642527
21
2.466139
31
0
39
0
210
0
220
0
230
1
0
LINE
5
87
100
AcDbEntity
8
1
62
256
6
ByLayer
370
18
48
1
60
0
100
AcDbLine
10
49.933072
20
-2.467856
30
0
11
49.928343
21
-2.476054
31
0
39
0
210
0
220
0
230
1
0
LINE
5
88
100
AcDbEntity
8
1
62
256
6
ByLayer
370
18
48
1
60
0
100
AcDbLine
10
55.835429
20
-2.6356
30
0
11
55.831261
21
-2.640163
31
0
39
0
210
0
220
0
230
1
0
LINE
5
89
100
AcDbEntity
8
1
62
256
6
ByLayer
370
18
48
1
60
0
100
AcDbLine
10
49.14724
20
-2.474627
30
0
11
49.145032
21
-2.470907
31
0
39
0
210
0
220
0
230
1
0
LINE
5
8A
100
AcDbEntity
8
1
62
256
6
ByLayer
370
18
48
1
60
0
100
AcDbLine
10
55.14726
20
-2.474773
30
0
11
55.1445
21
-2.470026
31
0
39
0
210
0
220
0
230
1
0
LINE
5
8B
100
AcDbEntity
8
1
62
256
6
ByLayer
370
18
48
1
60
0
100
AcDbLine
10
54.672405
20
-2.916101
30
0
11
54.667453
21
-2.922512
31
0
39
0
210
0
220
0
230
1
0
LINE
5
8C
100
AcDbEntity
8
1
62
256
6
ByLayer
370
18
48
1
60
0
100
AcDbLine
10
54.148288
20
-2.475463
30
0
11
54.145183
21
-2.470303
31
0
39
0
210
0
220
0
230
1
0
LINE
5
8D
100
AcDbEntity
8
1
62
256
6
ByLayer
370
18
48
1
60
0
100
AcDbLine
10
56.200247
20
-2.549124
30
0
11
56.207699
21
-2.549278
31
0
39
0
210
0
220
0
230
1
0
LINE
5
8E
100
AcDbEntity
8
1
62
256
6
ByLayer
370
18
48
1
60
0
100
AcDbLine
10
57.33
20
1.99
30
0
11
57.33
21
1.987595
31
0
39
0
210
0
220
0
230
1
0
LINE
5
8F
100
AcDbEntity
8
1
62
256
6
ByLayer
370
13
48
1
60
0
100
AcDbLine
10
31.226238
20
-2.28705
30
0
11
31.226238
21
2.28705
31
0
39
0
210
0
220
0
230
1
0
LINE
5
90
100
AcDbEntity
8
1
62
256
6
ByLayer
370
13
48
1
60
0
100
AcDbLine
10
43.928354
20
-0.415198
30
0
11
43.928354
21
1.139817
31
0
39
0
210
0
220
0
230
1
0
LINE
5
91
100
AcDbEntity
8
1
62
256
6
ByLayer
370
18
48
1
60
0
100
AcDbLine
10
57.33
20
0.330372
30
0
11
57.33
21
-1.078504
31
0
39
0
210
0
220
0
230
1
0
LINE
5
92
100
AcDbEntity
8
1
62
256
6
ByLayer
370
13
48
1
60
0
100
AcDbLine
10
44.478354
20
0.795142
30
0
11
44.478354
21
-0.919797
31
0
39
0
210
0
220
0
230
1
0
LINE
5
93
100
AcDbEntity
8
1
62
256
6
ByLayer
370
13
48
1
60
0
100
AcDbLine
10
31.035225
20
2.303761
30
0
11
31.035225
21
-2.303761
31
0
39
0
210
0
220
0
230
1
0
LINE
5
94
100
AcDbEntity
8
1
62
256
6
ByLayer
370
18
48
1
60
0
100
AcDbLine
10
25.734059
20
3.2385
30
0
11
25.734059
21
-3.2385
31
0
39
0
210
0
220
0
230
1
0
LINE
5
95
100
AcDbEntity
8
SK1
62
256
6
ByLayer
370
18
48
1
60
0
100
AcDbLine
10
-22.87
20
2.10896
30
0
11
-22.87
21
-2.10896
31
0
39
0
210
0
220
0
230
1
0
LINE
5
97
100
AcDbEntity
8
SK1
62
256
6
ByLayer
370
18
48
1
60
0
100
AcDbLine
10
-15
20
1.94551
30
0
11
-15
21
-1.94551
31
0
39
0
210
0
220
0
230
1
0
LINE
5
98
100
AcDbEntity
8
SK1
62
256
6
ByLayer
370
18
48
1
60
0
100
AcDbLine
10
-15
20
2.425
30
0
11
-14.31604
21
3.10896
31
0
39
0
210
0
220
0
230
1
0
LINE
5
99
100
AcDbEntity
8
SK1
62
256
6
ByLayer
370
18
48
1
60
0
100
AcDbLine
10
-21.87
20
2.425
30
0
11
-15
21
2.425
31
0
39
0
210
0
220
0
230
1
0
LINE
5
9A
100
AcDbEntity
8
SK1
62
256
6
ByLayer
370
18
48
1
60
0
100
AcDbLine
10
-21.87
20
1.94551
30
0
11
-21.87
21
2.425
31
0
39
0
210
0
220
0
230
1
0
LINE
5
9B
100
AcDbEntity
8
SK1
62
256
6
ByLayer
370
18
48
1
60
0
100
AcDbLine
10
-15
20
1.94551
30
0
11
-21.87
21
1.94551
31
0
39
0
210
0
220
0
230
1
0
LINE
5
9C
100
AcDbEntity
8
SK1
62
256
6
ByLayer
370
18
48
1
60
0
100
AcDbLine
10
-21.87
20
-1.94551
30
0
11
-15
21
-1.94551
31
0
39
0
210
0
220
0
230
1
0
LINE
5
9D
100
AcDbEntity
8
SK1
62
256
6
ByLayer
370
18
48
1
60
0
100
AcDbLine
10
-21.87
20
-2.425
30
0
11
-21.87
21
-1.94551
31
0
39
0
210
0
220
0
230
1
0
LINE
5
9E
100
AcDbEntity
8
SK1
62
256
6
ByLayer
370
18
48
1
60
0
100
AcDbLine
10
-15
20
-2.425
30
0
11
-21.87
21
-2.425
31
0
39
0
210
0
220
0
230
1
0
LINE
5
9F
100
AcDbEntity
8
SK1
62
256
6
ByLayer
370
18
48
1
60
0
100
AcDbLine
10
-15
20
-2.425
30
0
11
-14.31604
21
-3.10896
31
0
39
0
210
0
220
0
230
1
0
LINE
5
A0
100
AcDbEntity
8
SK1
62
256
6
ByLayer
370
18
48
1
60
0
100
AcDbLine
10
-14.213
20
3.10896
30
0
11
-14.213
21
-3.10896
31
0
39
0
210
0
220
0
230
1
0
LINE
5
A1
100
AcDbEntity
8
SK1
62
256
6
ByLayer
370
18
48
1
60
0
100
AcDbLine
10
0
20
3.2385
30
0
11
0
21
-3.2385
31
0
39
0
210
0
220
0
230
1
0
LINE
5
A2
100
AcDbEntity
8
SK1
62
256
6
ByLayer
370
18
48
1
60
0
100
AcDbLine
10
-14.08346
20
-3.2385
30
0
11
-14.08346
21
3.2385
31
0
39
0
210
0
220
0
230
1
0
LINE
5
A3
100
AcDbEntity
8
1
62
256
6
ByLayer
370
18
48
1
60
0
100
AcDbLine
10
45.193524
20
2.847326
30
0
11
44.801778
21
2.621151
31
0
39
0
210
0
220
0
230
1
0
LINE
5
A4
100
AcDbEntity
8
1
62
256
6
ByLayer
370
18
48
1
60
0
100
AcDbLine
10
25.734059
20
3.2385
30
0
11
0
21
3.2385
31
0
39
0
210
0
220
0
230
1
0
LINE
5
A5
100
AcDbEntity
8
1
62
256
6
ByLayer
370
18
48
1
60
0
100
AcDbLine
10
0
20
-3.2385
30
0
11
25.734059
21
-3.2385
31
0
39
0
210
0
220
0
230
1
0
LINE
5
A6
100
AcDbEntity
8
1
62
256
6
ByLayer
370
18
48
1
60
0
100
AcDbLine
10
57.33
20
1.99
30
0
11
57.182299
21
2.137701
31
0
39
0
210
0
220
0
230
1
0
LINE
5
A7
100
AcDbEntity
8
1
62
256
6
ByLayer
370
18
48
1
60
0
100
AcDbLine
10
51.083464
20
3.05706
30
0
11
50.992449
21
3.05706
31
0
39
0
210
0
220
0
230
1
0
LINE
5
A8
100
AcDbEntity
8
1
62
256
6
ByLayer
370
18
48
1
60
0
100
AcDbLine
10
49.492546
20
-3.05706
30
0
11
49.583588
21
-3.05706
31
0
39
0
210
0
220
0
230
1
0
LINE
5
A9
100
AcDbEntity
8
1
62
256
6
ByLayer
370
18
48
1
60
0
100
AcDbLine
10
52.083471
20
3.05706
30
0
11
51.992445
21
3.05706
31
0
39
0
210
0
220
0
230
1
0
LINE
5
AA
100
AcDbEntity
8
1
62
256
6
ByLayer
370
18
48
1
60
0
100
AcDbLine
10
46.083519
20
3.05706
30
0
11
45.9923
21
3.05706
31
0
39
0
210
0
220
0
230
1
0
LINE
5
AB
100
AcDbEntity
8
1
62
256
6
ByLayer
370
18
48
1
60
0
100
AcDbLine
10
48.492651
20
-3.05706
30
0
11
48.583441
21
-3.05706
31
0
39
0
210
0
220
0
230
1
0
LINE
5
AC
100
AcDbEntity
8
1
62
256
6
ByLayer
370
18
48
1
60
0
100
AcDbLine
10
53.083503
20
3.05706
30
0
11
52.992547
21
3.05706
31
0
39
0
210
0
220
0
230
1
0
LINE
5
AD
100
AcDbEntity
8
1
62
256
6
ByLayer
370
18
48
1
60
0
100
AcDbLine
10
31.226238
20
-2.28705
30
0
11
37.786569
21
-2.28705
31
0
39
0
210
0
220
0
230
1
0
LINE
5
AE
100
AcDbEntity
8
1
62
256
6
ByLayer
370
18
48
1
60
0
100
AcDbLine
10
41.86545
20
-2.28705
30
0
11
43.928379
21
-2.28705
31
0
39
0
210
0
220
0
230
1
0
LINE
5
AF
100
AcDbEntity
8
1
62
256
6
ByLayer
370
18
48
1
60
0
100
AcDbLine
10
40.854483
20
2.28705
30
0
11
38.80575
21
2.28705
31
0
39
0
210
0
220
0
230
1
0
LINE
5
B0
100
AcDbEntity
8
1
62
256
6
ByLayer
370
18
48
1
60
0
100
AcDbLine
10
35.252181
20
2.28705
30
0
11
31.226238
21
2.28705
31
0
39
0
210
0
220
0
230
1
0
LINE
5
B1
100
AcDbEntity
8
1
62
256
6
ByLayer
370
18
48
1
60
0
100
AcDbLine
10
31.035225
20
2.303761
30
0
11
25.734059
21
3.2385
31
0
39
0
210
0
220
0
230
1
0
LINE
5
B2
100
AcDbEntity
8
1
62
256
6
ByLayer
370
18
48
1
60
0
100
AcDbLine
10
25.734059
20
-3.2385
30
0
11
31.035225
21
-2.303761
31
0
39
0
210
0
220
0
230
1
0
LINE
5
B3
100
AcDbEntity
8
SK1
62
256
6
ByLayer
370
18
48
1
60
0
100
AcDbLine
10
-22.87
20
-2.10896
30
0
11
-22.55396
21
-2.425
31
0
39
0
210
0
220
0
230
1
0
LINE
5
B4
100
AcDbEntity
8
SK1
62
256
6
ByLayer
370
18
48
1
60
0
100
AcDbLine
10
-22.55396
20
2.425
30
0
11
-22.87
21
2.10896
31
0
39
0
210
0
220
0
230
1
0
LINE
5
B5
100
AcDbEntity
8
SK1
62
256
6
ByLayer
370
18
48
1
60
0
100
AcDbLine
10
-14.213
20
3.10896
30
0
11
-14.31604
21
3.10896
31
0
39
0
210
0
220
0
230
1
0
LINE
5
B6
100
AcDbEntity
8
SK1
62
256
6
ByLayer
370
18
48
1
60
0
100
AcDbLine
10
-14.31604
20
-3.10896
30
0
11
-14.213
21
-3.10896
31
0
39
0
210
0
220
0
230
1
0
LINE
5
B7
100
AcDbEntity
8
SK1
62
256
6
ByLayer
370
18
48
1
60
0
100
AcDbLine
10
-14.213
20
-3.10896
30
0
11
-14.08346
21
-3.2385
31
0
39
0
210
0
220
0
230
1
0
LINE
5
B8
100
AcDbEntity
8
SK1
62
256
6
ByLayer
370
18
48
1
60
0
100
AcDbLine
10
-14.08346
20
3.2385
30
0
11
-14.213
21
3.10896
31
0
39
0
210
0
220
0
230
1
0
LINE
5
B9
100
AcDbEntity
8
SK1
62
256
6
ByLayer
370
18
48
1
60
0
100
AcDbLine
10
0
20
3.2385
30
0
11
-14.08346
21
3.2385
31
0
39
0
210
0
220
0
230
1
0
LINE
5
BA
100
AcDbEntity
8
SK1
62
256
6
ByLayer
370
18
48
1
60
0
100
AcDbLine
10
-14.08346
20
-3.2385
30
0
11
0
21
-3.2385
31
0
39
0
210
0
220
0
230
1
0
LINE
5
BB
100
AcDbEntity
8
SK2
62
256
6
ByLayer
370
18
48
1
60
0
100
AcDbLine
10
13.825299
20
24.337127
30
0
11
13.825299
21
-10.7385
31
0
39
0
210
0
220
0
230
1
0
LINE
5
BD
100
AcDbEntity
8
1
62
256
6
ByLayer
370
18
48
1
60
1
100
AcDbLine
10
13.825299
20
3.2385
30
0
11
13.364516
21
6.738498
31
0
39
0
210
0
220
0
230
1
0
LINE
5
BE
100
AcDbEntity
8
1
62
256
6
ByLayer
370
18
48
1
60
1
100
AcDbLine
10
13.364516
20
6.738498
30
0
11
14.286083
21
6.738502
31
0
39
0
210
0
220
0
230
1
0
LINE
5
BF
100
AcDbEntity
8
1
62
256
6
ByLayer
370
18
48
1
60
1
100
AcDbLine
10
14.286083
20
6.738502
30
0
11
13.825299
21
3.2385
31
0
39
0
210
0
220
0
230
1
0
LINE
5
C0
100
AcDbEntity
8
1
62
256
6
ByLayer
370
18
48
1
60
1
100
AcDbLine
10
13.825299
20
-3.2385
30
0
11
14.286083
21
-6.738498
31
0
39
0
210
0
220
0
230
1
0
LINE
5
C1
100
AcDbEntity
8
1
62
256
6
ByLayer
370
18
48
1
60
1
100
AcDbLine
10
14.286083
20
-6.738498
30
0
11
13.364516
21
-6.738502
31
0
39
0
210
0
220
0
230
1
0
LINE
5
C2
100
AcDbEntity
8
1
62
256
6
ByLayer
370
18
48
1
60
1
100
AcDbLine
10
13.364516
20
-6.738502
30
0
11
13.825299
21
-3.2385
31
0
39
0
210
0
220
0
230
1
0
LINE
5
C3
100
AcDbEntity
8
2
62
256
6
ByLayer
370
18
48
1
60
0
100
AcDbLine
10
57.13
20
-40.55706
30
0
11
-22.87
21
-40.55706
31
0
39
0
210
0
220
0
230
1
0
LINE
5
C5
100
AcDbEntity
8
2
62
256
6
ByLayer
370
18
48
1
60
0
100
AcDbLine
10
-22.87
20
-3.69646
30
0
11
-22.87
21
-42.55706
31
0
39
0
210
0
220
0
230
1
0
LINE
5
C6
100
AcDbEntity
8
2
62
256
6
ByLayer
370
18
48
1
60
0
100
AcDbLine
10
57.13
20
-4.64456
30
0
11
57.13
21
-42.55706
31
0
39
0
210
0
220
0
230
1
0
LINE
5
C7
100
AcDbEntity
8
1
62
256
6
ByLayer
370
18
48
1
60
1
100
AcDbLine
10
-22.87
20
-40.55706
30
0
11
-19.370002
21
-40.096276
31
0
39
0
210
0
220
0
230
1
0
LINE
5
C8
100
AcDbEntity
8
1
62
256
6
ByLayer
370
18
48
1
60
1
100
AcDbLine
10
-19.370002
20
-40.096276
30
0
11
-19.369998
21
-41.017844
31
0
39
0
210
0
220
0
230
1
0
LINE
5
C9
100
AcDbEntity
8
1
62
256
6
ByLayer
370
18
48
1
60
1
100
AcDbLine
10
-19.369998
20
-41.017844
30
0
11
-22.87
21
-40.55706
31
0
39
0
210
0
220
0
230
1
0
LINE
5
CA
100
AcDbEntity
8
1
62
256
6
ByLayer
370
18
48
1
60
1
100
AcDbLine
10
57.13
20
-40.55706
30
0
11
53.630002
21
-41.017844
31
0
39
0
210
0
220
0
230
1
0
LINE
5
CB
100
AcDbEntity
8
1
62
256
6
ByLayer
370
18
48
1
60
1
100
AcDbLine
10
53.630002
20
-41.017844
30
0
11
53.629998
21
-40.096276
31
0
39
0
210
0
220
0
230
1
0
LINE
5
CC
100
AcDbEntity
8
1
62
256
6
ByLayer
370
18
48
1
60
1
100
AcDbLine
10
53.629998
20
-40.096276
30
0
11
57.13
21
-40.55706
31
0
39
0
210
0
220
0
230
1
0
LINE
5
22A
100
AcDbEntity
8
1
62
256
6
ByLayer
370
18
48
1
60
1
100
AcDbLine
10
13.825299
20
3.2385
30
0
11
13.364516
21
6.738498
31
0
39
0
210
0
220
0
230
1
0
LINE
5
22B
100
AcDbEntity
8
1
62
256
6
ByLayer
370
18
48
1
60
1
100
AcDbLine
10
13.364516
20
6.738498
30
0
11
14.286083
21
6.738502
31
0
39
0
210
0
220
0
230
1
0
LINE
5
22C
100
AcDbEntity
8
1
62
256
6
ByLayer
370
18
48
1
60
1
100
AcDbLine
10
14.286083
20
6.738502
30
0
11
13.825299
21
3.2385
31
0
39
0
210
0
220
0
230
1
0
LINE
5
22E
100
AcDbEntity
8
1
62
256
6
ByLayer
370
18
48
1
60
1
100
AcDbLine
10
13.825299
20
-3.2385
30
0
11
14.286083
21
-6.738498
31
0
39
0
210
0
220
0
230
1
0
LINE
5
22F
100
AcDbEntity
8
1
62
256
6
ByLayer
370
18
48
1
60
1
100
AcDbLine
10
14.286083
20
-6.738498
30
0
11
13.364516
21
-6.738502
31
0
39
0
210
0
220
0
230
1
0
LINE
5
230
100
AcDbEntity
8
1
62
256
6
ByLayer
370
18
48
1
60
1
100
AcDbLine
10
13.364516
20
-6.738502
30
0
11
13.825299
21
-3.2385
31
0
39
0
210
0
220
0
230
1
0
LINE
5
233
100
AcDbEntity
8
1
62
256
6
ByLayer
370
18
48
1
60
1
100
AcDbLine
10
-22.87
20
-40.55706
30
0
11
-19.370002
21
-40.096276
31
0
39
0
210
0
220
0
230
1
0
LINE
5
234
100
AcDbEntity
8
1
62
256
6
ByLayer
370
18
48
1
60
1
100
AcDbLine
10
-19.370002
20
-40.096276
30
0
11
-19.369998
21
-41.017844
31
0
39
0
210
0
220
0
230
1
0
LINE
5
235
100
AcDbEntity
8
1
62
256
6
ByLayer
370
18
48
1
60
1
100
AcDbLine
10
-19.369998
20
-41.017844
30
0
11
-22.87
21
-40.55706
31
0
39
0
210
0
220
0
230
1
0
LINE
5
237
100
AcDbEntity
8
1
62
256
6
ByLayer
370
18
48
1
60
1
100
AcDbLine
10
57.13
20
-40.55706
30
0
11
53.630002
21
-41.017844
31
0
39
0
210
0
220
0
230
1
0
LINE
5
238
100
AcDbEntity
8
1
62
256
6
ByLayer
370
18
48
1
60
1
100
AcDbLine
10
53.630002
20
-41.017844
30
0
11
53.629998
21
-40.096276
31
0
39
0
210
0
220
0
230
1
0
LINE
5
239
100
AcDbEntity
8
1
62
256
6
ByLayer
370
18
48
1
60
1
100
AcDbLine
10
53.629998
20
-40.096276
30
0
11
57.13
21
-40.55706
31
0
39
0
210
0
220
0
230
1
0
MTEXT
5
226
100
AcDbEntity
8
SK2
62
256
6
ByLayer
370
18
48
1
60
0
100
AcDbMText
10
12.484185
20
8.896938
30
0
210
0
220
0
230
1
1
%%c
40
3
41
0
44
1.084337
50
90
71
7
72
5
7
iso_b_vert
0
MTEXT
5
229
100
AcDbEntity
8
SK2
62
256
6
ByLayer
370
18
48
1
60
0
100
AcDbMText
10
12.484185
20
14.8735
30
0
210
0
220
0
230
1
1
\W0.7694;6.477
40
3
41
0
44
1.084337
50
90
71
7
72
5
7
iso_b_vert
0
MTEXT
5
232
100
AcDbEntity
8
2
62
256
6
ByLayer
370
18
48
1
60
0
100
AcDbMText
10
15.497172
20
-39.671946
30
0
210
0
220
0
230
1
1
\W0.6740;80
40
3
41
0
44
1.084337
50
0
71
7
72
5
7
iso_b_vert
0
MTEXT
5
23B
100
AcDbEntity
8
SK6
62
256
6
ByLayer
370
18
48
1
60
0
100
AcDbMText
10
-1.589965
20
-82.114886
30
0
210
0
220
0
230
1
1
\W0.7371;T300-XM100AA-M6     C110
40
3
41
0
44
1.084337
50
0
71
7
72
5
7
iso_b_vert
0
HATCH
5
22D
100
AcDbEntity
8
SK2
62
256
6
ByLayer
370
13
48
1
60
0
100
AcDbHatch
10
0
20
0
30
0
210
0
220
0
230
1
2
ANSI31
70
0
71
0
91
1
92
5
93
3
72
1
10
13.8252994563624
20
3.23850000000002
11
13.3645157148096
21
6.73849830744683
72
1
10
13.3645157148096
20
6.73849830744683
11
14.2860831979151
21
6.7385016925532
72
1
10
14.2860831979151
20
6.7385016925532
11
13.8252994563624
21
3.23850000000002
97
0
75
0
76
1
52
0
41
0.0062
77
0
78
1
53
45
43
0
44
0
45
-0.0139193969876572
46
0.0139193969876572
79
0
47
0
98
1
10
0
20
0
0
HATCH
5
231
100
AcDbEntity
8
SK2
62
256
6
ByLayer
370
13
48
1
60
0
100
AcDbHatch
10
0
20
0
30
0
210
0
220
0
230
1
2
ANSI31
70
0
71
0
91
1
92
5
93
3
72
1
10
13.8252994563624
20
-3.23849999999999
11
14.2860831979151
21
-6.7384983074468
72
1
10
14.2860831979151
20
-6.7384983074468
11
13.3645157148096
21
-6.73850169255317
72
1
10
13.3645157148096
20
-6.73850169255317
11
13.8252994563624
21
-3.23849999999999
97
0
75
0
76
1
52
0
41
0.0062
77
0
78
1
53
45
43
0
44
0
45
-0.0139193969876572
46
0.0139193969876572
79
0
47
0
98
1
10
0
20
0
0
HATCH
5
236
100
AcDbEntity
8
2
62
256
6
ByLayer
370
13
48
1
60
0
100
AcDbHatch
10
0
20
0
30
0
210
0
220
0
230
1
2
ANSI31
70
0
71
0
91
1
92
5
93
3
72
1
10
-22.87
20
-40.5570602281852
11
-19.3700016925532
21
-40.0962764866324
72
1
10
-19.3700016925532
20
-40.0962764866324
11
-19.3699983074468
21
-41.0178439697379
72
1
10
-19.3699983074468
20
-41.0178439697379
11
-22.87
21
-40.5570602281852
97
0
75
0
76
1
52
0
41
0.0062
77
0
78
1
53
45
43
0
44
0
45
-0.0139193969876572
46
0.0139193969876572
79
0
47
0
98
1
10
0
20
0
0
HATCH
5
23A
100
AcDbEntity
8
2
62
256
6
ByLayer
370
13
48
1
60
0
100
AcDbHatch
10
0
20
0
30
0
210
0
220
0
230
1
2
ANSI31
70
0
71
0
91
1
92
5
93
3
72
1
10
57.13
20
-40.5570602281852
11
53.6300016925532
21
-41.0178439697379
72
1
10
53.6300016925532
20
-41.0178439697379
11
53.6299983074468
21
-40.0962764866324
72
1
10
53.6299983074468
20
-40.0962764866324
11
57.13
21
-40.5570602281852
97
0
75
0
76
1
52
0
41
0.0062
77
0
78
1
53
45
43
0
44
0
45
-0.0139193969876572
46
0.0139193969876572
79
0
47
0
98
1
10
0
20
0
0
DIMENSION
5
23E
100
AcDbEntity
8
2
62
256
6
ByLayer
370
18
48
1
60
0
100
AcDbDimension
2
_U0
10
75.66294
20
-3.05706
30
0
11
75.66294
21
20.55706
31
0
70
32
71
1
72
1
41
1
210
0
220
0
230
1
3
Standard
100
AcDbAlignedDimension
13
57.13
23
3.05706
33
0
14
57.13
24
-3.05706
34
0
50
90
100
AcDbRotatedDimension
1001
ACAD
1000
DSTYLE
1002
{
1070
   371
1070
    13
1070
   372
1070
    13
1070
     3
1000

1070
   170
1070
     0
1070
   144
1040
1.0
1070
   277
1070
     2
1070
   284
1070
     8
1070
   278
1070
    46
1070
   146
1040
1.166667
1070
   345
1005
16
1070
   347
1005
16
1070
   346
1005
16
1070
   344
1005
0
1070
   343
1005
0
1070
   172
1070
     1
1070
    76
1070
     0
1070
    75
1070
     0
1070
   282
1070
     0
1070
   281
1070
     0
1070
    71
1070
     0
1070
    74
1070
     0
1070
   279
1070
     0
1070
   173
1070
     1
1070
   340
1005
227
1070
   271
1070
     3
1070
   272
1070
     3
1070
    77
1070
     1
1070
    73
1070
     0
1070
   171
1070
     3
1070
   274
1070
     4
1070
   177
1070
     2
1070
   176
1070
     2
1070
   178
1070
     2
1070
    78
1070
     8
1070
    48
1040
-0.1
1070
    41
1040
3.5
1070
   147
1040
1.5
1070
    42
1040
1.5875
1070
    44
1040
2.0
1070
   140
1040
3.0
1002
}
1001
ACAD_DSTYLE_DIM_LINETYPE
1070
   380
1005
16
1001
ACAD_DSTYLE_DIM_EXT1_LINETYPE
1070
   381
1005
16
1001
ACAD_DSTYLE_DIM_EXT2_LINETYPE
1070
   382
1005
16
0
DIMENSION
5
259
100
AcDbEntity
8
SK2
62
256
6
ByLayer
370
18
48
1
60
0
100
AcDbDimension
2
_U1
10
54.38
20
12.0885
30
0
11
55.755
21
12.0885
31
0
70
32
71
1
72
1
41
1
210
0
220
0
230
1
3
Standard
100
AcDbAlignedDimension
13
57.13
23
3.05706
33
0
14
54.38
24
0
34
0
50
0
100
AcDbRotatedDimension
1001
ACAD
1000
DSTYLE
1002
{
1070
   371
1070
    13
1070
   372
1070
    13
1070
   170
1070
     0
1070
   144
1040
1.0
1070
   277
1070
     2
1070
   284
1070
     8
1070
   278
1070
    46
1070
   146
1040
1.166667
1070
   345
1005
16
1070
   347
1005
16
1070
   346
1005
16
1070
   344
1005
0
1070
   343
1005
0
1070
   172
1070
     1
1070
    76
1070
     0
1070
    75
1070
     0
1070
   282
1070
     0
1070
   281
1070
     0
1070
    71
1070
     0
1070
    74
1070
     0
1070
   279
1070
     0
1070
   173
1070
     1
1070
   340
1005
227
1070
   271
1070
     3
1070
   272
1070
     3
1070
    77
1070
     1
1070
    73
1070
     1
1070
   171
1070
     3
1070
   274
1070
     4
1070
   177
1070
     2
1070
   176
1070
     2
1070
   178
1070
     2
1070
    78
1070
     8
1070
    48
1040
-0.1
1070
    41
1040
3.5
1070
   147
1040
1.5
1070
    42
1040
1.5875
1070
    44
1040
2.0
1070
   140
1040
3.0
1002
}
1001
ACAD_DSTYLE_DIM_LINETYPE
1070
   380
1005
16
1001
ACAD_DSTYLE_DIM_EXT1_LINETYPE
1070
   381
1005
16
1001
ACAD_DSTYLE_DIM_EXT2_LINETYPE
1070
   382
1005
16
0
DIMENSION
5
273
100
AcDbEntity
8
SK2
62
256
6
ByLayer
370
18
48
1
60
0
100
AcDbDimension
2
_U2
10
45.73
20
-10.05706
30
0
11
73.058571
21
-10.05706
31
0
70
32
71
1
72
1
41
1
210
0
220
0
230
1
3
Standard
100
AcDbAlignedDimension
13
57.13
23
-3.05706
33
0
14
45.73
24
-3.05706
34
0
50
0
100
AcDbRotatedDimension
1001
ACAD
1000
DSTYLE
1002
{
1070
   371
1070
    13
1070
   372
1070
    13
1070
   170
1070
     0
1070
   144
1040
1.0
1070
   277
1070
     2
1070
   284
1070
     8
1070
   278
1070
    46
1070
   146
1040
0.833333
1070
   345
1005
16
1070
   347
1005
16
1070
   346
1005
16
1070
   344
1005
0
1070
   343
1005
0
1070
   172
1070
     1
1070
    76
1070
     0
1070
    75
1070
     0
1070
   282
1070
     0
1070
   281
1070
     0
1070
    47
1040
0.5
1070
    72
1070
     0
1070
    71
1070
     1
1070
    74
1070
     0
1070
   279
1070
     0
1070
   173
1070
     1
1070
   340
1005
227
1070
   271
1070
     1
1070
   272
1070
     3
1070
    77
1070
     1
1070
    73
1070
     1
1070
   171
1070
     3
1070
   274
1070
     4
1070
   177
1070
     2
1070
   176
1070
     2
1070
   178
1070
     2
1070
    78
1070
     8
1070
    48
1040
0.5
1070
    41
1040
3.5
1070
   147
1040
1.5
1070
    42
1040
1.5875
1070
    44
1040
2.0
1070
   140
1040
3.0
1002
}
1001
ACAD_DSTYLE_DIM_LINETYPE
1070
   380
1005
16
1001
ACAD_DSTYLE_DIM_EXT1_LINETYPE
1070
   381
1005
16
1001
ACAD_DSTYLE_DIM_EXT2_LINETYPE
1070
   382
1005
16
0
DIMENSION
5
28E
100
AcDbEntity
8
SK2
62
256
6
ByLayer
370
18
48
1
60
0
100
AcDbDimension
2
_U3
10
31.13
20
-32.55706
30
0
11
44.13
21
-32.55706
31
0
70
32
71
1
72
1
41
1
210
0
220
0
230
1
3
Standard
100
AcDbAlignedDimension
13
57.13
23
-3.05706
33
0
14
31.13
24
-2.28705
34
0
50
0
100
AcDbRotatedDimension
1001
ACAD
1000
DSTYLE
1002
{
1070
   371
1070
    13
1070
   372
1070
    13
1070
   170
1070
     0
1070
   144
1040
1.0
1070
   277
1070
     2
1070
   284
1070
     8
1070
   278
1070
    46
1070
   146
1040
1.166667
1070
   345
1005
16
1070
   347
1005
16
1070
   346
1005
16
1070
   344
1005
0
1070
   343
1005
0
1070
   172
1070
     1
1070
    76
1070
     0
1070
    75
1070
     0
1070
   282
1070
     0
1070
   281
1070
     0
1070
    71
1070
     0
1070
    74
1070
     0
1070
   279
1070
     0
1070
   173
1070
     1
1070
   340
1005
227
1070
   271
1070
     1
1070
   272
1070
     3
1070
    77
1070
     1
1070
    73
1070
     1
1070
   171
1070
     3
1070
   274
1070
     4
1070
   177
1070
     2
1070
   176
1070
     2
1070
   178
1070
     2
1070
    78
1070
     8
1070
    48
1040
-0.1
1070
    41
1040
3.5
1070
   147
1040
1.5
1070
    42
1040
1.5875
1070
    44
1040
2.0
1070
   140
1040
3.0
1002
}
1001
ACAD_DSTYLE_DIM_LINETYPE
1070
   380
1005
16
1001
ACAD_DSTYLE_DIM_EXT1_LINETYPE
1070
   381
1005
16
1001
ACAD_DSTYLE_DIM_EXT2_LINETYPE
1070
   382
1005
16
0
DIMENSION
5
2A6
100
AcDbEntity
8
2
62
256
6
ByLayer
370
18
48
1
60
0
100
AcDbDimension
2
_U4
10
35.03
20
-21.55706
30
0
11
46.08
21
-21.55706
31
0
70
32
71
1
72
1
41
1
210
0
220
0
230
1
3
Standard
100
AcDbAlignedDimension
13
57.13
23
-3.05706
33
0
14
35.03
24
0
34
0
50
0
100
AcDbRotatedDimension
1001
ACAD
1000
DSTYLE
1002
{
1070
   371
1070
    13
1070
   372
1070
    13
1070
   170
1070
     0
1070
   144
1040
1.0
1070
   277
1070
     2
1070
   284
1070
     8
1070
   278
1070
    46
1070
   146
1040
1.166667
1070
   345
1005
16
1070
   347
1005
16
1070
   346
1005
16
1070
   344
1005
0
1070
   343
1005
0
1070
   172
1070
     1
1070
    76
1070
     0
1070
    75
1070
     0
1070
   282
1070
     0
1070
   281
1070
     0
1070
    71
1070
     0
1070
    74
1070
     0
1070
   279
1070
     0
1070
   173
1070
     1
1070
   340
1005
227
1070
   271
1070
     1
1070
   272
1070
     3
1070
    77
1070
     1
1070
    73
1070
     1
1070
   171
1070
     3
1070
   274
1070
     4
1070
   177
1070
     2
1070
   176
1070
     2
1070
   178
1070
     2
1070
    78
1070
     8
1070
    48
1040
-0.1
1070
    41
1040
3.5
1070
   147
1040
1.5
1070
    42
1040
1.5875
1070
    44
1040
2.0
1070
   140
1040
3.0
1002
}
1001
ACAD_DSTYLE_DIM_LINETYPE
1070
   380
1005
16
1001
ACAD_DSTYLE_DIM_EXT1_LINETYPE
1070
   381
1005
16
1001
ACAD_DSTYLE_DIM_EXT2_LINETYPE
1070
   382
1005
16
0
ENDSEC
0
SECTION
2
OBJECTS
0
DICTIONARY
5
32e
330
0
100
AcDbDictionary
280
0
281
1
3
ACAD_GROUP
350
32f
3
ACAD_MLINESTYLE
350
330
0
DICTIONARY
5
32f
330
0
100
AcDbDictionary
280
0
281
1
0
DICTIONARY
5
330
330
0
100
AcDbDictionary
280
0
281
1
3
Standard
350
18
0
MLINESTYLE
5
18
330
330
100
AcDbMlineStyle
2
Standard
70
0
3

62
256
51
90
52
90
71
2
49
-0.5
62
256
6
ByLayer
49
0.5
62
256
6
ByLayer
0
RASTERVARIABLES
5
31c
330

100
AcDbRasterVariables
90
0
70
1
71
1
72
1
0
ENDSEC
0
EOF
