  0
SECTION
  2
HEADER
  9
$ACADVER
  1
AC1015
  9
$ACADMAINTVER
 70
     6
  9
$DWGCODEPAGE
  3
ANSI_1252
  9
$INSBASE
 10
0.0
 20
0.0
 30
0.0
  9
$EXTMIN
 10
1.000000000000000E+20
 20
1.000000000000000E+20
 30
1.000000000000000E+20
  9
$EXTMAX
 10
-1.000000000000000E+20
 20
-1.000000000000000E+20
 30
-1.000000000000000E+20
  9
$LIMMIN
 10
-170.0
 20
-170.0
  9
$LIMMAX
 10
519.0
 20
260.0
  9
$ORTHOMODE
 70
     0
  9
$REGENMODE
 70
     1
  9
$FILLMODE
 70
     1
  9
$QTEXTMODE
 70
     0
  9
$MIRRTEXT
 70
     0
  9
$LTSCALE
 40
1.0
  9
$ATTMODE
 70
     1
  9
$TEXTSIZE
 40
3.5
  9
$TRACEWID
 40
1.0
  9
$TEXTSTYLE
  7
SIMPLEX
  9
$CLAYER
  8
1
  9
$CELTYPE
  6
BYLAYER
  9
$CECOLOR
 62
   256
  9
$CELTSCALE
 40
1.0
  9
$DISPSILH
 70
     0
  9
$DIMSCALE
 40
1.0
  9
$DIMASZ
 40
2.5
  9
$DIMEXO
 40
0.0
  9
$DIMDLI
 40
3.75
  9
$DIMRND
 40
0.0
  9
$DIMDLE
 40
0.0
  9
$DIMEXE
 40
1.25
  9
$DIMTP
 40
0.0
  9
$DIMTM
 40
0.0
  9
$DIMTXT
 40
3.5
  9
$DIMCEN
 40
0.0
  9
$DIMTSZ
 40
0.0
  9
$DIMTOL
 70
     0
  9
$DIMLIM
 70
     0
  9
$DIMTIH
 70
     0
  9
$DIMTOH
 70
     0
  9
$DIMSE1
 70
     0
  9
$DIMSE2
 70
     0
  9
$DIMTAD
 70
     1
  9
$DIMZIN
 70
     8
  9
$DIMBLK
  1

  9
$DIMASO
 70
     1
  9
$DIMSHO
 70
     1
  9
$DIMPOST
  1

  9
$DIMAPOST
  1

  9
$DIMALT
 70
     0
  9
$DIMALTD
 70
     3
  9
$DIMALTF
 40
0.039370078
  9
$DIMLFAC
 40
1.0
  9
$DIMTOFL
 70
     0
  9
$DIMTVP
 40
0.0
  9
$DIMTIX
 70
     0
  9
$DIMSOXD
 70
     0
  9
$DIMSAH
 70
     0
  9
$DIMBLK1
  1

  9
$DIMBLK2
  1

  9
$DIMSTYLE
  2
STANDARD
  9
$DIMCLRD
 70
     0
  9
$DIMCLRE
 70
     0
  9
$DIMCLRT
 70
     0
  9
$DIMTFAC
 40
1.0
  9
$DIMGAP
 40
0.625
  9
$DIMJUST
 70
     0
  9
$DIMSD1
 70
     0
  9
$DIMSD2
 70
     0
  9
$DIMTOLJ
 70
     0
  9
$DIMTZIN
 70
     8
  9
$DIMALTZ
 70
     0
  9
$DIMALTTZ
 70
     0
  9
$DIMUPT
 70
     0
  9
$DIMDEC
 70
     2
  9
$DIMTDEC
 70
     2
  9
$DIMALTU
 70
     2
  9
$DIMALTTD
 70
     3
  9
$DIMTXSTY
  7
SIMPLEX
  9
$DIMAUNIT
 70
     0
  9
$DIMADEC
 70
     2
  9
$DIMALTRND
 40
0.0
  9
$DIMAZIN
 70
     2
  9
$DIMDSEP
 70
    46
  9
$DIMATFIT
 70
     3
  9
$DIMFRAC
 70
     0
  9
$DIMLDRBLK
  1

  9
$DIMLUNIT
 70
     2
  9
$DIMLWD
 70
    -2
  9
$DIMLWE
 70
    -2
  9
$DIMTMOVE
 70
     0
  9
$LUNITS
 70
     2
  9
$LUPREC
 70
     4
  9
$SKETCHINC
 40
1.0
  9
$FILLETRAD
 40
0.0
  9
$AUNITS
 70
     0
  9
$AUPREC
 70
     0
  9
$MENU
  1
c:\tdm21\cad\caduti13\tdm13
  9
$ELEVATION
 40
0.0
  9
$PELEVATION
 40
0.0
  9
$THICKNESS
 40
0.0
  9
$LIMCHECK
 70
     0
  9
$CHAMFERA
 40
0.0
  9
$CHAMFERB
 40
0.0
  9
$CHAMFERC
 40
0.0
  9
$CHAMFERD
 40
0.0
  9
$SKPOLY
 70
     0
  9
$TDCREATE
 40
2454957.593642639
  9
$TDUCREATE
 40
2454957.510309306
  9
$TDUPDATE
 40
2456813.663117107
  9
$TDUUPDATE
 40
2456813.579783773
  9
$TDINDWG
 40
0.0009643519
  9
$TDUSRTIMER
 40
0.0009475231
  9
$USRTIMER
 70
     1
  9
$ANGBASE
 50
0.0
  9
$ANGDIR
 70
     0
  9
$PDMODE
 70
     1
  9
$PDSIZE
 40
0.0
  9
$PLINEWID
 40
0.0
  9
$SPLFRAME
 70
     0
  9
$SPLINETYPE
 70
     6
  9
$SPLINESEGS
 70
     8
  9
$HANDSEED
  5
7D1
  9
$SURFTAB1
 70
     6
  9
$SURFTAB2
 70
     6
  9
$SURFTYPE
 70
     6
  9
$SURFU
 70
     6
  9
$SURFV
 70
     6
  9
$UCSBASE
  2

  9
$UCSNAME
  2

  9
$UCSORG
 10
0.0
 20
0.0
 30
0.0
  9
$UCSXDIR
 10
1.0
 20
0.0
 30
0.0
  9
$UCSYDIR
 10
0.0
 20
1.0
 30
0.0
  9
$UCSORTHOREF
  2

  9
$UCSORTHOVIEW
 70
     0
  9
$UCSORGTOP
 10
0.0
 20
0.0
 30
0.0
  9
$UCSORGBOTTOM
 10
0.0
 20
0.0
 30
0.0
  9
$UCSORGLEFT
 10
0.0
 20
0.0
 30
0.0
  9
$UCSORGRIGHT
 10
0.0
 20
0.0
 30
0.0
  9
$UCSORGFRONT
 10
0.0
 20
0.0
 30
0.0
  9
$UCSORGBACK
 10
0.0
 20
0.0
 30
0.0
  9
$PUCSBASE
  2

  9
$PUCSNAME
  2

  9
$PUCSORG
 10
0.0
 20
0.0
 30
0.0
  9
$PUCSXDIR
 10
1.0
 20
0.0
 30
0.0
  9
$PUCSYDIR
 10
0.0
 20
1.0
 30
0.0
  9
$PUCSORTHOREF
  2

  9
$PUCSORTHOVIEW
 70
     0
  9
$PUCSORGTOP
 10
0.0
 20
0.0
 30
0.0
  9
$PUCSORGBOTTOM
 10
0.0
 20
0.0
 30
0.0
  9
$PUCSORGLEFT
 10
0.0
 20
0.0
 30
0.0
  9
$PUCSORGRIGHT
 10
0.0
 20
0.0
 30
0.0
  9
$PUCSORGFRONT
 10
0.0
 20
0.0
 30
0.0
  9
$PUCSORGBACK
 10
0.0
 20
0.0
 30
0.0
  9
$USERI1
 70
     0
  9
$USERI2
 70
     0
  9
$USERI3
 70
     0
  9
$USERI4
 70
     0
  9
$USERI5
 70
     0
  9
$USERR1
 40
0.0
  9
$USERR2
 40
0.0
  9
$USERR3
 40
0.0
  9
$USERR4
 40
0.0
  9
$USERR5
 40
0.0
  9
$WORLDVIEW
 70
     1
  9
$SHADEDGE
 70
     3
  9
$SHADEDIF
 70
    70
  9
$TILEMODE
 70
     1
  9
$MAXACTVP
 70
    64
  9
$PINSBASE
 10
0.0
 20
0.0
 30
0.0
  9
$PLIMCHECK
 70
     0
  9
$PEXTMIN
 10
0.0
 20
0.0
 30
0.0
  9
$PEXTMAX
 10
0.0
 20
0.0
 30
0.0
  9
$PLIMMIN
 10
0.0
 20
0.0
  9
$PLIMMAX
 10
12.0
 20
9.0
  9
$UNITMODE
 70
     0
  9
$VISRETAIN
 70
     0
  9
$PLINEGEN
 70
     0
  9
$PSLTSCALE
 70
     1
  9
$TREEDEPTH
 70
  3020
  9
$CMLSTYLE
  2
STANDARD
  9
$CMLJUST
 70
     0
  9
$CMLSCALE
 40
20.0
  9
$PROXYGRAPHICS
 70
     1
  9
$MEASUREMENT
 70
     1
  9
$CELWEIGHT
370
    -1
  9
$ENDCAPS
280
     0
  9
$JOINSTYLE
280
     0
  9
$LWDISPLAY
290
     0
  9
$INSUNITS
 70
     4
  9
$HYPERLINKBASE
  1

  9
$STYLESHEET
  1
MONOCHROME.CTB
  9
$XEDIT
290
     1
  9
$CEPSNTYPE
380
     0
  9
$PSTYLEMODE
290
     1
  9
$FINGERPRINTGUID
  2
{46B44192-1510-48B1-B61B-CBE2ADA013A7}
  9
$VERSIONGUID
  2
{6160D478-9A74-4C97-9D8A-D4A65CE74B12}
  9
$EXTNAMES
290
     1
  9
$PSVPSCALE
 40
0.0
  9
$OLESTARTUP
290
     0
  0
ENDSEC
  0
SECTION
  2
CLASSES
  0
CLASS
  1
ACDBDICTIONARYWDFLT
  2
AcDbDictionaryWithDefault
  3
ObjectDBX Classes
 90
        0
280
     0
281
     0
  0
CLASS
  1
ACDBPLACEHOLDER
  2
AcDbPlaceHolder
  3
ObjectDBX Classes
 90
        0
280
     0
281
     0
  0
CLASS
  1
LAYOUT
  2
AcDbLayout
  3
ObjectDBX Classes
 90
        0
280
     0
281
     0
  0
CLASS
  1
DICTIONARYVAR
  2
AcDbDictionaryVar
  3
ObjectDBX Classes
 90
        0
280
     0
281
     0
  0
CLASS
  1
TABLESTYLE
  2
AcDbTableStyle
  3
ObjectDBX Classes
 90
     4095
280
     0
281
     0
  0
CLASS
  1
SCALE
  2
AcDbScale
  3
ObjectDBX Classes
 90
     1153
280
     0
281
     0
  0
CLASS
  1
MATERIAL
  2
AcDbMaterial
  3
ObjectDBX Classes
 90
     1153
280
     0
281
     0
  0
CLASS
  1
VISUALSTYLE
  2
AcDbVisualStyle
  3
ObjectDBX Classes
 90
     4095
280
     0
281
     0
  0
ENDSEC
  0
SECTION
  2
TABLES
  0
TABLE
  2
VPORT
  5
8
330
0
100
AcDbSymbolTable
 70
     1
  0
VPORT
  5
39A
330
8
100
AcDbSymbolTableRecord
100
AcDbViewportTableRecord
  2
*Active
 70
     0
 10
0.0
 20
0.0
 11
1.0
 21
1.0
 12
218.9201881351169
 22
109.7549380673833
 13
0.0
 23
0.0
 14
5.0
 24
5.0
 15
5.0
 25
5.0
 16
0.0
 26
0.0
 36
1.0
 17
0.0
 27
0.0
 37
0.0
 40
564.6711112651689
 41
1.066073697585768
 42
50.0
 43
0.0
 44
0.0
 50
0.0
 51
0.0
 71
     0
 72
  2000
 73
     1
 74
     1
 75
     0
 76
     0
 77
     0
 78
     0
281
     0
 65
     1
110
0.0
120
0.0
130
0.0
111
1.0
121
0.0
131
0.0
112
0.0
122
1.0
132
0.0
 79
     0
146
0.0
  0
ENDTAB
  0
TABLE
  2
LTYPE
  5
5
330
0
100
AcDbSymbolTable
 70
     3
  0
LTYPE
  5
12
330
5
100
AcDbSymbolTableRecord
100
AcDbLinetypeTableRecord
  2
BYBLOCK
 70
     0
  3

 72
    65
 73
     0
 40
0.0
  0
LTYPE
  5
13
330
5
100
AcDbSymbolTableRecord
100
AcDbLinetypeTableRecord
  2
BYLAYER
 70
     0
  3

 72
    65
 73
     0
 40
0.0
  0
LTYPE
  5
14
330
5
100
AcDbSymbolTableRecord
100
AcDbLinetypeTableRecord
  2
CONTINUOUS
 70
     0
  3
Solid line
 72
    65
 73
     0
 40
0.0
  0
LTYPE
  5
20
330
5
100
AcDbSymbolTableRecord
100
AcDbLinetypeTableRecord
  2
HIDDEN
 70
     0
  3
Hidden __ __ __ __ __ __ __ __ __ __ __ __ __ _
 72
    65
 73
     2
 40
9.524999999999997
 49
6.349999999999998
 74
     0
 49
-3.174999999999998
 74
     0
  0
LTYPE
  5
351
330
5
100
AcDbSymbolTableRecord
100
AcDbLinetypeTableRecord
  2
CENTER
 70
     0
  3
Dash dot __ . __ . __ . __ . __ . __ . __ . __
 72
    65
 73
     4
 40
25.4
 49
12.7
 74
     0
 49
-6.349999999999998
 74
     0
 49
0.0
 74
     0
 49
-6.349999999999998
 74
     0
  0
ENDTAB
  0
TABLE
  2
LAYER
  5
2
330
0
100
AcDbSymbolTable
 70
    16
  0
LAYER
  5
F
330
2
100
AcDbSymbolTableRecord
100
AcDbLayerTableRecord
  2
0
 70
     0
 62
     7
  6
CONTINUOUS
370
    -3
390
300
  0
LAYER
  5
23
330
2
100
AcDbSymbolTableRecord
100
AcDbLayerTableRecord
  2
1
 70
     0
 62
     4
  6
CONTINUOUS
370
    -3
390
300
  0
LAYER
  5
24
330
2
100
AcDbSymbolTableRecord
100
AcDbLayerTableRecord
  2
SK1
 70
     0
 62
     4
  6
CONTINUOUS
370
    -3
390
300
  0
LAYER
  5
25
330
2
100
AcDbSymbolTableRecord
100
AcDbLayerTableRecord
  2
2
 70
     0
 62
     7
  6
CONTINUOUS
370
    -3
390
300
  0
LAYER
  5
26
330
2
100
AcDbSymbolTableRecord
100
AcDbLayerTableRecord
  2
2L
 70
     0
 62
     7
  6
CONTINUOUS
370
    -3
390
300
  0
LAYER
  5
27
330
2
100
AcDbSymbolTableRecord
100
AcDbLayerTableRecord
  2
SK2
 70
     0
 62
     7
  6
CONTINUOUS
370
    -3
390
300
  0
LAYER
  5
28
330
2
100
AcDbSymbolTableRecord
100
AcDbLayerTableRecord
  2
3
 70
     0
 62
     1
  6
HIDDEN
370
    -3
390
300
  0
LAYER
  5
29
330
2
100
AcDbSymbolTableRecord
100
AcDbLayerTableRecord
  2
SK3
 70
     0
 62
     1
  6
HIDDEN
370
    -3
390
300
  0
LAYER
  5
2A
330
2
100
AcDbSymbolTableRecord
100
AcDbLayerTableRecord
  2
4
 70
     0
 62
     2
  6
CENTER
370
    -3
390
300
  0
LAYER
  5
2B
330
2
100
AcDbSymbolTableRecord
100
AcDbLayerTableRecord
  2
SK4
 70
     0
 62
     2
  6
CENTER
370
    -3
390
300
  0
LAYER
  5
2C
330
2
100
AcDbSymbolTableRecord
100
AcDbLayerTableRecord
  2
5
 70
     0
 62
    -7
  6
CONTINUOUS
370
    -3
390
300
  0
LAYER
  5
2D
330
2
100
AcDbSymbolTableRecord
100
AcDbLayerTableRecord
  2
6
 70
     0
 62
     5
  6
CONTINUOUS
370
    -3
390
300
  0
LAYER
  5
2E
330
2
100
AcDbSymbolTableRecord
100
AcDbLayerTableRecord
  2
SK6
 70
     0
 62
     5
  6
CONTINUOUS
370
    -3
390
300
  0
LAYER
  5
2F
330
2
100
AcDbSymbolTableRecord
100
AcDbLayerTableRecord
  2
DEFPOINTS
 70
     0
 62
     7
  6
CONTINUOUS
290
     0
370
    -3
390
300
  0
LAYER
  5
375
330
2
100
AcDbSymbolTableRecord
100
AcDbLayerTableRecord
  2
CUT
 70
     0
 62
     1
  6
CONTINUOUS
370
    -3
390
300
  0
LAYER
  5
376
330
2
100
AcDbSymbolTableRecord
100
AcDbLayerTableRecord
  2
NOCUT
 70
     0
 62
     7
  6
CONTINUOUS
370
    -3
390
300
  0
ENDTAB
  0
TABLE
  2
STYLE
  5
3
330
0
100
AcDbSymbolTable
 70
     4
  0
STYLE
  5
10
330
3
100
AcDbSymbolTableRecord
100
AcDbTextStyleTableRecord
  2
STANDARD
 70
     0
 40
0.0
 41
1.0
 50
0.0
 71
     0
 42
5.0
  3
txt
  4

  0
STYLE
  5
1D
330
3
100
AcDbSymbolTableRecord
100
AcDbTextStyleTableRecord
  2
TXT
 70
     0
 40
8.0
 41
1.0
 50
0.0
 71
     0
 42
8.0
  3
txt
  4

  0
STYLE
  5
1E
330
3
100
AcDbSymbolTableRecord
100
AcDbTextStyleTableRecord
  2
SIMPLEX
 70
     0
 40
0.0
 41
1.0
 50
0.0
 71
     0
 42
3.5
  3
simplex
  4

  0
STYLE
  5
34C
330
3
100
AcDbSymbolTableRecord
100
AcDbTextStyleTableRecord
  2

 70
     1
 40
0.0
 41
1.0
 50
0.0
 71
     0
 42
2.5
  3
ltypeshp.shx
  4

  0
ENDTAB
  0
TABLE
  2
VIEW
  5
6
330
0
100
AcDbSymbolTable
 70
     0
  0
ENDTAB
  0
TABLE
  2
UCS
  5
7
330
0
100
AcDbSymbolTable
 70
     0
  0
ENDTAB
  0
TABLE
  2
APPID
  5
9
330
0
100
AcDbSymbolTable
 70
     1
  0
APPID
  5
11
330
9
100
AcDbSymbolTableRecord
100
AcDbRegAppTableRecord
  2
ACAD
 70
     0
  0
ENDTAB
  0
TABLE
  2
DIMSTYLE
  5
A
330
0
100
AcDbSymbolTable
 70
     1
100
AcDbDimStyleTable
  0
DIMSTYLE
105
3F
102
{ACAD_REACTORS
330
765
330
772
330
77F
330
78C
330
799
102
}
330
A
100
AcDbSymbolTableRecord
100
AcDbDimStyleTableRecord
  2
STANDARD
 70
     0
 41
2.5
 42
0.0
 43
3.75
 44
1.25
 73
     0
 74
     0
 77
     1
 78
     8
 79
     2
140
3.5
141
0.0
143
0.039370078
147
0.625
171
     3
178
     0
179
     2
271
     2
272
     2
274
     3
283
     0
284
     8
340
1E
  0
ENDTAB
  0
TABLE
  2
BLOCK_RECORD
  5
1
330
0
100
AcDbSymbolTable
 70
     5
  0
BLOCK_RECORD
  5
18
330
1
100
AcDbSymbolTableRecord
100
AcDbBlockTableRecord
  2
*MODEL_SPACE
340
303
  0
BLOCK_RECORD
  5
338
330
1
100
AcDbSymbolTableRecord
100
AcDbBlockTableRecord
  2
*Paper_Space
340
33B
  0
BLOCK_RECORD
  5
766
330
1
100
AcDbSymbolTableRecord
100
AcDbBlockTableRecord
  2
*D0
340
0
  0
BLOCK_RECORD
  5
773
330
1
100
AcDbSymbolTableRecord
100
AcDbBlockTableRecord
  2
*D1
340
0
  0
BLOCK_RECORD
  5
780
330
1
100
AcDbSymbolTableRecord
100
AcDbBlockTableRecord
  2
*D2
340
0
  0
BLOCK_RECORD
  5
78D
330
1
100
AcDbSymbolTableRecord
100
AcDbBlockTableRecord
  2
*D3
340
0
  0
BLOCK_RECORD
  5
79A
330
1
100
AcDbSymbolTableRecord
100
AcDbBlockTableRecord
  2
*D4
340
0
  0
ENDTAB
  0
ENDSEC
  0
SECTION
  2
BLOCKS
  0
BLOCK
  5
32
330
18
100
AcDbEntity
  8
0
100
AcDbBlockBegin
  2
*MODEL_SPACE
 70
     0
 10
0.0
 20
0.0
 30
0.0
  3
*MODEL_SPACE
  1

  0
ENDBLK
  5
33
330
18
100
AcDbEntity
  8
0
100
AcDbBlockEnd
  0
BLOCK
  5
339
330
338
100
AcDbEntity
 67
     1
  8
0
100
AcDbBlockBegin
  2
*Paper_Space
 70
     0
 10
0.0
 20
0.0
 30
0.0
  3
*Paper_Space
  1

  0
ENDBLK
  5
33A
330
338
100
AcDbEntity
 67
     1
  8
0
100
AcDbBlockEnd
  0
BLOCK
  5
767
330
766
100
AcDbEntity
  8
0
100
AcDbBlockBegin
  2
*D0
 70
     1
 10
0.0
 20
0.0
 30
0.0
  3
*D0
  1

  0
LINE
  5
769
330
766
100
AcDbEntity
  8
2
 62
     0
370
    -2
100
AcDbLine
 10
66.0
 20
9.0
 30
0.0
 11
82.25000000000001
 21
9.000000000000053
 31
0.0
  0
LINE
  5
76A
330
766
100
AcDbEntity
  8
2
 62
     0
370
    -2
100
AcDbLine
 10
66.0
 20
-9.0
 30
0.0
 11
82.25000000000007
 21
-8.999999999999945
 31
0.0
  0
LINE
  5
76B
330
766
100
AcDbEntity
  8
2
 62
     0
370
    -2
100
AcDbLine
 10
81.00000000000003
 20
6.50000000000005
 30
0.0
 11
81.00000000000006
 21
-6.499999999999948
 31
0.0
  0
SOLID
  5
76C
330
766
100
AcDbEntity
  8
2
 62
     0
100
AcDbTrace
 10
81.4166666666667
 20
6.500000000000051
 30
0.0
 11
80.58333333333336
 21
6.500000000000049
 31
0.0
 12
81.00000000000001
 22
9.00000000000005
 32
0.0
 13
81.00000000000001
 23
9.00000000000005
 33
0.0
  0
SOLID
  5
76D
330
766
100
AcDbEntity
  8
2
 62
     0
100
AcDbTrace
 10
80.58333333333339
 20
-6.499999999999949
 30
0.0
 11
81.41666666666673
 21
-6.499999999999948
 31
0.0
 12
81.00000000000007
 22
-8.999999999999948
 32
0.0
 13
81.00000000000007
 23
-8.999999999999948
 33
0.0
  0
MTEXT
  5
76E
330
766
100
AcDbEntity
  8
2
 62
     0
100
AcDbMText
 10
78.60925000000005
 20
0.0000000000000431
 30
0.0
 40
3.5
 41
0.0
 71
     5
 72
     1
  1
MF18x1
  7
SIMPLEX
 11
-3.157967714489334E-15
 21
1.0
 31
0.0
 73
     1
 44
1.0
  0
POINT
  5
76F
330
766
100
AcDbEntity
  8
DEFPOINTS
 62
     0
100
AcDbPoint
 10
66.0
 20
9.0
 30
0.0
  0
POINT
  5
770
330
766
100
AcDbEntity
  8
DEFPOINTS
 62
     0
100
AcDbPoint
 10
66.0
 20
-9.0
 30
0.0
  0
POINT
  5
771
330
766
100
AcDbEntity
  8
DEFPOINTS
 62
     0
100
AcDbPoint
 10
81.00000000000007
 20
-8.999999999999948
 30
0.0
  0
ENDBLK
  5
768
330
766
100
AcDbEntity
  8
0
100
AcDbBlockEnd
  0
BLOCK
  5
774
330
773
100
AcDbEntity
  8
0
100
AcDbBlockBegin
  2
*D1
 70
     1
 10
0.0
 20
0.0
 30
0.0
  3
*D1
  1

  0
LINE
  5
776
330
773
100
AcDbEntity
  8
2
 62
     0
370
    -2
100
AcDbLine
 10
0.0
 20
0.0
 30
0.0
 11
0.0
 21
76.25
 31
0.0
  0
LINE
  5
777
330
773
100
AcDbEntity
  8
2
 62
     0
370
    -2
100
AcDbLine
 10
66.0
 20
0.0
 30
0.0
 11
66.0
 21
76.25
 31
0.0
  0
LINE
  5
778
330
773
100
AcDbEntity
  8
2
 62
     0
370
    -2
100
AcDbLine
 10
2.5
 20
75.0
 30
0.0
 11
63.5
 21
75.0
 31
0.0
  0
SOLID
  5
779
330
773
100
AcDbEntity
  8
2
 62
     0
100
AcDbTrace
 10
2.5
 20
75.41666666666667
 30
0.0
 11
2.5
 21
74.58333333333333
 31
0.0
 12
0.0
 22
75.0
 32
0.0
 13
0.0
 23
75.0
 33
0.0
  0
SOLID
  5
77A
330
773
100
AcDbEntity
  8
2
 62
     0
100
AcDbTrace
 10
63.5
 20
74.58333333333333
 30
0.0
 11
63.5
 21
75.41666666666667
 31
0.0
 12
66.0
 22
75.0
 32
0.0
 13
66.0
 23
75.0
 33
0.0
  0
MTEXT
  5
77B
330
773
100
AcDbEntity
  8
2
 62
     0
100
AcDbMText
 10
33.0
 20
77.39075
 30
0.0
 40
3.5
 41
0.0
 71
     5
 72
     1
  1
66
  7
SIMPLEX
 73
     1
 44
1.0
  0
POINT
  5
77C
330
773
100
AcDbEntity
  8
DEFPOINTS
 62
     0
100
AcDbPoint
 10
0.0
 20
0.0
 30
0.0
  0
POINT
  5
77D
330
773
100
AcDbEntity
  8
DEFPOINTS
 62
     0
100
AcDbPoint
 10
66.0
 20
0.0
 30
0.0
  0
POINT
  5
77E
330
773
100
AcDbEntity
  8
DEFPOINTS
 62
     0
100
AcDbPoint
 10
66.0
 20
75.0
 30
0.0
  0
ENDBLK
  5
775
330
773
100
AcDbEntity
  8
0
100
AcDbBlockEnd
  0
BLOCK
  5
781
330
780
100
AcDbEntity
  8
0
100
AcDbBlockBegin
  2
*D2
 70
     1
 10
0.0
 20
0.0
 30
0.0
  3
*D2
  1

  0
LINE
  5
783
330
780
100
AcDbEntity
  8
SK2
 62
     0
370
    -2
100
AcDbLine
 10
-30.0
 20
7.0
 30
0.0
 11
-60.25000000003572
 21
6.999999999845622
 31
0.0
  0
LINE
  5
784
330
780
100
AcDbEntity
  8
SK2
 62
     0
370
    -2
100
AcDbLine
 10
-30.0
 20
-7.0
 30
0.0
 11
-60.24999999996427
 21
-7.000000000154378
 31
0.0
  0
LINE
  5
785
330
780
100
AcDbEntity
  8
SK2
 62
     0
370
    -2
100
AcDbLine
 10
-59.00000000002296
 20
4.499999999852001
 30
0.0
 11
-58.99999999997704
 21
-4.500000000147999
 31
0.0
  0
SOLID
  5
786
330
780
100
AcDbEntity
  8
SK2
 62
     0
100
AcDbTrace
 10
-58.58333333335629
 20
4.499999999854127
 30
0.0
 11
-59.41666666668962
 21
4.499999999849875
 31
0.0
 12
-59.00000000003572
 22
6.999999999852001
 32
0.0
 13
-59.00000000003572
 23
6.999999999852001
 33
0.0
  0
SOLID
  5
787
330
780
100
AcDbEntity
  8
SK2
 62
     0
100
AcDbTrace
 10
-59.4166666666437
 20
-4.500000000150125
 30
0.0
 11
-58.58333333331037
 21
-4.500000000145873
 31
0.0
 12
-58.99999999996427
 22
-7.000000000147999
 32
0.0
 13
-58.99999999996427
 23
-7.000000000147999
 33
0.0
  0
MTEXT
  5
788
330
780
100
AcDbEntity
  8
SK2
 62
     0
100
AcDbMText
 10
-61.431
 20
-0.0000000001604049
 30
0.0
 40
3.5
 41
0.0
 71
     5
 72
     1
  1
%%c14
  7
SIMPLEX
 11
-5.103219434334148E-12
 21
1.0
 31
0.0
 73
     1
 44
1.0
  0
POINT
  5
789
330
780
100
AcDbEntity
  8
DEFPOINTS
 62
     0
100
AcDbPoint
 10
-30.0
 20
7.0
 30
0.0
  0
POINT
  5
78A
330
780
100
AcDbEntity
  8
DEFPOINTS
 62
     0
100
AcDbPoint
 10
-30.0
 20
-7.0
 30
0.0
  0
POINT
  5
78B
330
780
100
AcDbEntity
  8
DEFPOINTS
 62
     0
100
AcDbPoint
 10
-58.99999999996427
 20
-7.000000000147999
 30
0.0
  0
ENDBLK
  5
782
330
780
100
AcDbEntity
  8
0
100
AcDbBlockEnd
  0
BLOCK
  5
78E
330
78D
100
AcDbEntity
  8
0
100
AcDbBlockBegin
  2
*D3
 70
     1
 10
0.0
 20
0.0
 30
0.0
  3
*D3
  1

  0
LINE
  5
790
330
78D
100
AcDbEntity
  8
2
 62
     0
370
    -2
100
AcDbLine
 10
38.18948822
 20
6.8
 30
0.0
 11
38.18948822
 21
61.25
 31
0.0
  0
LINE
  5
791
330
78D
100
AcDbEntity
  8
2
 62
     0
370
    -2
100
AcDbLine
 10
66.0
 20
9.0
 30
0.0
 11
66.0
 21
61.25
 31
0.0
  0
LINE
  5
792
330
78D
100
AcDbEntity
  8
2
 62
     0
370
    -2
100
AcDbLine
 10
40.68948822
 20
60.0
 30
0.0
 11
63.5
 21
60.0
 31
0.0
  0
SOLID
  5
793
330
78D
100
AcDbEntity
  8
2
 62
     0
100
AcDbTrace
 10
40.68948822
 20
60.41666666666666
 30
0.0
 11
40.68948822
 21
59.58333333333334
 31
0.0
 12
38.18948822
 22
60.0
 32
0.0
 13
38.18948822
 23
60.0
 33
0.0
  0
SOLID
  5
794
330
78D
100
AcDbEntity
  8
2
 62
     0
100
AcDbTrace
 10
63.5
 20
59.58333333333334
 30
0.0
 11
63.5
 21
60.41666666666666
 31
0.0
 12
66.0
 22
60.0
 32
0.0
 13
66.0
 23
60.0
 33
0.0
  0
MTEXT
  5
795
330
78D
100
AcDbEntity
  8
2
 62
     0
100
AcDbMText
 10
52.09474411
 20
62.39775
 30
0.0
 40
3.5
 41
0.0
 71
     5
 72
     1
  1
27.81
  7
SIMPLEX
 73
     1
 44
1.0
  0
POINT
  5
796
330
78D
100
AcDbEntity
  8
DEFPOINTS
 62
     0
100
AcDbPoint
 10
38.18948822
 20
6.8
 30
0.0
  0
POINT
  5
797
330
78D
100
AcDbEntity
  8
DEFPOINTS
 62
     0
100
AcDbPoint
 10
66.0
 20
9.0
 30
0.0
  0
POINT
  5
798
330
78D
100
AcDbEntity
  8
DEFPOINTS
 62
     0
100
AcDbPoint
 10
66.0
 20
60.0
 30
0.0
  0
ENDBLK
  5
78F
330
78D
100
AcDbEntity
  8
0
100
AcDbBlockEnd
  0
BLOCK
  5
79B
330
79A
100
AcDbEntity
  8
0
100
AcDbBlockBegin
  2
*D4
 70
     1
 10
0.0
 20
0.0
 30
0.0
  3
*D4
  1

  0
LINE
  5
79D
330
79A
100
AcDbEntity
  8
SK2
 62
     0
370
    -2
100
AcDbLine
 10
-44.0
 20
9.0
 30
0.0
 11
-44.0
 21
91.25
 31
0.0
  0
LINE
  5
79E
330
79A
100
AcDbEntity
  8
SK2
 62
     0
370
    -2
100
AcDbLine
 10
66.0
 20
9.0
 30
0.0
 11
66.0
 21
91.25
 31
0.0
  0
LINE
  5
79F
330
79A
100
AcDbEntity
  8
SK2
 62
     0
370
    -2
100
AcDbLine
 10
-41.5
 20
90.0
 30
0.0
 11
63.5
 21
90.0
 31
0.0
  0
SOLID
  5
7A0
330
79A
100
AcDbEntity
  8
SK2
 62
     0
100
AcDbTrace
 10
-41.5
 20
90.41666666666667
 30
0.0
 11
-41.5
 21
89.58333333333333
 31
0.0
 12
-44.0
 22
90.0
 32
0.0
 13
-44.0
 23
90.0
 33
0.0
  0
SOLID
  5
7A1
330
79A
100
AcDbEntity
  8
SK2
 62
     0
100
AcDbTrace
 10
63.5
 20
89.58333333333333
 30
0.0
 11
63.5
 21
90.41666666666667
 31
0.0
 12
66.0
 22
90.0
 32
0.0
 13
66.0
 23
90.0
 33
0.0
  0
MTEXT
  5
7A2
330
79A
100
AcDbEntity
  8
SK2
 62
     0
100
AcDbMText
 10
11.0
 20
92.39075
 30
0.0
 40
3.5
 41
0.0
 71
     5
 72
     1
  1
110
  7
SIMPLEX
 73
     1
 44
1.0
  0
POINT
  5
7A3
330
79A
100
AcDbEntity
  8
DEFPOINTS
 62
     0
100
AcDbPoint
 10
-44.0
 20
9.0
 30
0.0
  0
POINT
  5
7A4
330
79A
100
AcDbEntity
  8
DEFPOINTS
 62
     0
100
AcDbPoint
 10
66.0
 20
9.0
 30
0.0
  0
POINT
  5
7A5
330
79A
100
AcDbEntity
  8
DEFPOINTS
 62
     0
100
AcDbPoint
 10
66.0
 20
90.0
 30
0.0
  0
ENDBLK
  5
79C
330
79A
100
AcDbEntity
  8
0
100
AcDbBlockEnd
  0
ENDSEC
  0
SECTION
  2
ENTITIES
  0
LINE
  5
3D6
330
18
100
AcDbEntity
  8
SK4
100
AcDbLine
 10
-46.0
 20
0.0
 30
0.0
 11
38.18948822
 21
0.0
 31
0.0
  0
LINE
  5
3D7
330
18
100
AcDbEntity
  8
4
100
AcDbLine
 10
36.18948822
 20
0.0
 30
0.0
 11
68.0
 21
0.0
 31
0.0
  0
LINE
  5
3D8
330
18
100
AcDbEntity
  8
SK4
100
AcDbLine
 10
36.18948822
 20
0.0
 30
0.0
 11
68.0
 21
0.0
 31
0.0
  0
LINE
  5
3D9
330
18
100
AcDbEntity
  8
1
100
AcDbLine
 10
11.2
 20
-4.632411770568856
 30
0.0
 11
38.18948822
 21
-4.632411770568858
 31
0.0
  0
LINE
  5
3DA
330
18
100
AcDbEntity
  8
1
100
AcDbLine
 10
11.2
 20
-0.684374307006141
 30
0.0
 11
38.18948822
 21
-0.6843743070061232
 31
0.0
  0
LINE
  5
3DB
330
18
100
AcDbEntity
  8
1
100
AcDbLine
 10
11.2
 20
5.247929228552449
 30
0.0
 11
38.18948822000001
 21
5.247929228552449
 31
0.0
  0
LINE
  5
3DC
330
18
100
AcDbEntity
  8
1
100
AcDbLine
 10
11.20000000000001
 20
6.96646479987591
 30
0.0
 11
38.18948822
 21
6.966464799875893
 31
0.0
  0
LINE
  5
3DD
330
18
100
AcDbEntity
  8
1
100
AcDbLine
 10
38.18948822
 20
7.0
 30
0.0
 11
0.0
 21
7.0
 31
0.0
  0
LINE
  5
3DE
330
18
100
AcDbEntity
  8
1
100
AcDbLine
 10
11.20000000000001
 20
-0.6843743070061489
 30
0.0
 11
11.20000000000001
 21
-4.632411770568909
 31
0.0
  0
LINE
  5
3DF
330
18
100
AcDbEntity
  8
1
100
AcDbLine
 10
11.20000000000001
 20
6.966464799875894
 30
0.0
 11
11.20000000000001
 21
5.247929228552407
 31
0.0
  0
LINE
  5
3E0
330
18
100
AcDbEntity
  8
1
100
AcDbLine
 10
38.18948822
 20
7.0
 30
0.0
 11
38.18948822
 21
6.999992111415629
 31
0.0
  0
LINE
  5
3E1
330
18
100
AcDbEntity
  8
1
100
AcDbLine
 10
38.18948822
 20
6.999992111415629
 30
0.0
 11
38.18948822
 21
6.997697722756357
 31
0.0
  0
LINE
  5
3E2
330
18
100
AcDbEntity
  8
1
100
AcDbLine
 10
38.18948822
 20
6.997697722756357
 30
0.0
 11
38.18948822
 21
6.966464799875895
 31
0.0
  0
LINE
  5
3E3
330
18
100
AcDbEntity
  8
1
100
AcDbLine
 10
38.18948822
 20
6.966464799875896
 30
0.0
 11
38.18948822
 21
6.862590655836359
 31
0.0
  0
LINE
  5
3E4
330
18
100
AcDbEntity
  8
1
100
AcDbLine
 10
38.18948822
 20
6.862590655836351
 30
0.0
 11
38.18948822
 21
5.247929228552889
 31
0.0
  0
LINE
  5
3E5
330
18
100
AcDbEntity
  8
1
100
AcDbLine
 10
38.18948822
 20
5.247929228552449
 30
0.0
 11
38.18948822
 21
-0.6843743070061238
 31
0.0
  0
LINE
  5
3E6
330
18
100
AcDbEntity
  8
1
100
AcDbLine
 10
38.18948822
 20
-1.889284452394577
 30
0.0
 11
38.18948822
 21
-4.632411770568856
 31
0.0
  0
LINE
  5
3E7
330
18
100
AcDbEntity
  8
1
100
AcDbLine
 10
38.18948821999999
 20
-4.632411770568857
 30
0.0
 11
38.18948822
 21
-7.0
 31
0.0
  0
LINE
  5
3E8
330
18
100
AcDbEntity
  8
1
100
AcDbLine
 10
-0.0000000000000044
 20
-7.0
 30
0.0
 11
38.18948822
 21
-7.0
 31
0.0
  0
LINE
  5
3E9
330
18
100
AcDbEntity
  8
1
100
AcDbLine
 10
38.18948822
 20
-0.6843743070061458
 30
0.0
 11
38.18948822
 21
-1.889284452394526
 31
0.0
  0
LINE
  5
3EA
330
18
100
AcDbEntity
  8
1
 62
     1
100
AcDbLine
 10
61.47113247308103
 20
9.0
 30
0.0
 11
61.517
 21
9.0
 31
0.0
  0
LINE
  5
3EB
330
18
100
AcDbEntity
  8
1
 62
     1
100
AcDbLine
 10
62.3995280418392
 20
8.875977544867567
 30
0.0
 11
62.61821527535087
 21
8.845245232328564
 31
0.0
  0
LINE
  5
3EC
330
18
100
AcDbEntity
  8
1
 62
     1
100
AcDbLine
 10
42.47113247308103
 20
9.0
 30
0.0
 11
42.52886752691898
 21
9.0
 31
0.0
  0
LINE
  5
3ED
330
18
100
AcDbEntity
  8
1
 62
     1
100
AcDbLine
 10
43.47113247308103
 20
9.0
 30
0.0
 11
43.52886752691897
 21
9.0
 31
0.0
  0
LINE
  5
3EE
330
18
100
AcDbEntity
  8
1
 62
     1
100
AcDbLine
 10
44.47113247308103
 20
9.0
 30
0.0
 11
44.52886752691897
 21
9.0
 31
0.0
  0
LINE
  5
3EF
330
18
100
AcDbEntity
  8
1
 62
     1
100
AcDbLine
 10
45.47113247308103
 20
9.0
 30
0.0
 11
45.52886752691898
 21
9.0
 31
0.0
  0
LINE
  5
3F0
330
18
100
AcDbEntity
  8
1
 62
     1
100
AcDbLine
 10
46.47113247308103
 20
9.0
 30
0.0
 11
46.52886752691897
 21
9.0
 31
0.0
  0
LINE
  5
3F1
330
18
100
AcDbEntity
  8
1
 62
     1
100
AcDbLine
 10
47.47113247308103
 20
9.0
 30
0.0
 11
47.52886752691899
 21
9.0
 31
0.0
  0
LINE
  5
3F2
330
18
100
AcDbEntity
  8
1
 62
     1
100
AcDbLine
 10
48.47113247308104
 20
9.0
 30
0.0
 11
48.52886752691899
 21
9.0
 31
0.0
  0
LINE
  5
3F3
330
18
100
AcDbEntity
  8
1
 62
     1
100
AcDbLine
 10
49.47113247308104
 20
9.0
 30
0.0
 11
49.52886752691899
 21
8.999999999999998
 31
0.0
  0
LINE
  5
3F4
330
18
100
AcDbEntity
  8
1
 62
     1
100
AcDbLine
 10
50.47113247308104
 20
9.0
 30
0.0
 11
50.528867526919
 21
9.0
 31
0.0
  0
LINE
  5
3F5
330
18
100
AcDbEntity
  8
1
 62
     1
100
AcDbLine
 10
51.47113247308104
 20
9.0
 30
0.0
 11
51.52886752691899
 21
9.0
 31
0.0
  0
LINE
  5
3F6
330
18
100
AcDbEntity
  8
1
 62
     1
100
AcDbLine
 10
54.47113247308104
 20
9.0
 30
0.0
 11
54.528867526919
 21
9.0
 31
0.0
  0
LINE
  5
3F7
330
18
100
AcDbEntity
  8
1
 62
     1
100
AcDbLine
 10
55.47113247308104
 20
9.0
 30
0.0
 11
55.52886752691897
 21
9.0
 31
0.0
  0
LINE
  5
3F8
330
18
100
AcDbEntity
  8
1
 62
     1
100
AcDbLine
 10
56.47113247308104
 20
9.0
 30
0.0
 11
56.52886752691899
 21
9.0
 31
0.0
  0
LINE
  5
3F9
330
18
100
AcDbEntity
  8
1
 62
     1
100
AcDbLine
 10
57.47113247308106
 20
9.0
 30
0.0
 11
57.52886752691898
 21
9.0
 31
0.0
  0
LINE
  5
3FA
330
18
100
AcDbEntity
  8
1
 62
     1
100
AcDbLine
 10
60.47113247308103
 20
9.0
 30
0.0
 11
60.52886752691897
 21
9.0
 31
0.0
  0
LINE
  5
3FB
330
18
100
AcDbEntity
  8
1
 62
     1
100
AcDbLine
 10
38.18948822
 20
7.0
 30
0.0
 11
40.87099148005606
 21
8.407424206968894
 31
0.0
  0
LINE
  5
3FC
330
18
100
AcDbEntity
  8
1
 62
     1
100
AcDbLine
 10
65.0
 20
-8.183975
 30
0.0
 11
64.79481497057762
 21
-8.539365730211035
 31
0.0
  0
LINE
  5
3FD
330
18
100
AcDbEntity
  8
1
 62
     1
100
AcDbLine
 10
42.0
 20
-8.183975
 30
0.0
 11
41.63843325746406
 21
-8.810226676409378
 31
0.0
  0
LINE
  5
3FE
330
18
100
AcDbEntity
  8
1
 62
     1
100
AcDbLine
 10
43.47113247308103
 20
-8.999999999999996
 30
0.0
 11
43.0
 21
-8.183975
 31
0.0
  0
LINE
  5
3FF
330
18
100
AcDbEntity
  8
1
 62
     1
100
AcDbLine
 10
46.0
 20
-8.183975
 30
0.0
 11
45.52886752691898
 21
-8.999999999999982
 31
0.0
  0
LINE
  5
400
330
18
100
AcDbEntity
  8
1
 62
     1
100
AcDbLine
 10
48.0
 20
-8.183975
 30
0.0
 11
47.52886752691899
 21
-8.99999999999997
 31
0.0
  0
LINE
  5
401
330
18
100
AcDbEntity
  8
1
 62
     1
100
AcDbLine
 10
49.0
 20
-8.183975
 30
0.0
 11
48.52886752691899
 21
-8.99999999999997
 31
0.0
  0
LINE
  5
402
330
18
100
AcDbEntity
  8
1
 62
     1
100
AcDbLine
 10
49.47113247308104
 20
-9.000000000000021
 30
0.0
 11
49.0
 21
-8.183975
 31
0.0
  0
LINE
  5
403
330
18
100
AcDbEntity
  8
1
 62
     1
100
AcDbLine
 10
50.0
 20
-8.183975
 30
0.0
 11
49.52886752691899
 21
-8.99999999999997
 31
0.0
  0
LINE
  5
404
330
18
100
AcDbEntity
  8
1
 62
     1
100
AcDbLine
 10
60.47113247308103
 20
-8.999999999999996
 30
0.0
 11
60.0
 21
-8.183975
 31
0.0
  0
LINE
  5
405
330
18
100
AcDbEntity
  8
1
 62
     1
100
AcDbLine
 10
61.47113247308103
 20
-8.999999999999996
 30
0.0
 11
61.0
 21
-8.183975
 31
0.0
  0
LINE
  5
406
330
18
100
AcDbEntity
  8
1
 62
     1
100
AcDbLine
 10
65.883114818191
 20
5.312761598525531
 30
0.0
 11
65.1743881374904
 21
5.317116923135753
 31
0.0
  0
LINE
  5
407
330
18
100
AcDbEntity
  8
1
 62
     1
100
AcDbLine
 10
65.88311481819102
 20
-1.171281136651909
 30
0.0
 11
65.1743881383947
 21
-1.206093833759702
 31
0.0
  0
LINE
  5
408
330
18
100
AcDbEntity
  8
1
 62
     1
100
AcDbLine
 10
64.79481497057762
 20
5.319437681584669
 30
0.0
 11
64.24943477227332
 21
5.322758358862803
 31
0.0
  0
LINE
  5
409
330
18
100
AcDbEntity
  8
1
 62
     1
100
AcDbLine
 10
64.79481497131422
 20
-1.224731078160063
 30
0.0
 11
64.24943477227333
 21
-1.251500736557215
 31
0.0
  0
LINE
  5
40A
330
18
100
AcDbEntity
  8
1
 62
     1
100
AcDbLine
 10
63.70651512299249
 20
5.326048425183809
 30
0.0
 11
63.32448140705628
 21
5.328354518970782
 31
0.0
  0
LINE
  5
40B
330
18
100
AcDbEntity
  8
1
 62
     1
100
AcDbLine
 10
63.70651512368499
 20
-1.278139573634254
 30
0.0
 11
63.3244814079883
 21
-1.296878535383752
 31
0.0
  0
LINE
  5
40C
330
18
100
AcDbEntity
  8
1
 62
     1
100
AcDbLine
 10
62.61821527535087
 20
5.33259895866744
 30
0.0
 11
62.3995280418392
 21
5.333908396722799
 31
0.0
  0
LINE
  5
40D
330
18
100
AcDbEntity
  8
1
 62
     1
100
AcDbLine
 10
62.61821527537286
 20
-1.331508861967761
 30
0.0
 11
62.39952804186812
 21
-1.342228552254786
 31
0.0
  0
LINE
  5
40E
330
18
100
AcDbEntity
  8
1
 62
     1
100
AcDbLine
 10
61.52991542774569
 20
5.33909384829543
 30
0.0
 11
61.517
 21
5.339170609352449
 31
0.0
  0
LINE
  5
40F
330
18
100
AcDbEntity
  8
1
 62
     1
100
AcDbLine
 10
61.52991542773775
 20
-1.384841025391194
 30
0.0
 11
61.517
 21
-1.385473731282305
 31
0.0
  0
ARC
  5
410
330
18
100
AcDbEntity
  8
1
 62
     1
100
AcDbCircle
 10
111.8132924237832
 20
15.88110473062132
 30
0.0
 40
53.58880363360405
100
AcDbArc
 50
204.3719092266755
 51
205.1995095047848
  0
LINE
  5
411
330
18
100
AcDbEntity
  8
1
 62
     1
100
AcDbLine
 10
63.32448140705628
 20
-8.74599302109181
 30
0.0
 11
63.00000000000001
 21
-8.183975
 31
0.0
  0
LINE
  5
412
330
18
100
AcDbEntity
  8
1
 62
     1
100
AcDbLine
 10
63.32448140705628
 20
-6.935490757340107
 30
0.0
 11
63.32448140705628
 21
-8.7459930210918
 31
0.0
  0
LINE
  5
413
330
18
100
AcDbEntity
  8
1
 62
     1
100
AcDbLine
 10
63.70651512296423
 20
-6.86945287139891
 30
0.0
 11
64.0
 21
-6.232736632596286
 31
0.0
  0
LINE
  5
414
330
18
100
AcDbEntity
  8
1
 62
     1
100
AcDbLine
 10
63.70651512296424
 20
-6.869452871458178
 30
0.0
 11
63.70651512296424
 21
-8.692305481269802
 31
0.0
  0
LINE
  5
415
330
18
100
AcDbEntity
  8
1
 62
     1
100
AcDbLine
 10
64.0
 20
-8.183975
 30
0.0
 11
63.70651512296424
 21
-8.692305481269795
 31
0.0
  0
LINE
  5
416
330
18
100
AcDbEntity
  8
1
 62
     1
100
AcDbLine
 10
64.0
 20
-6.232736632596286
 30
0.0
 11
64.24943477227333
 21
-6.775237699075829
 31
0.0
  0
LINE
  5
417
330
18
100
AcDbEntity
  8
1
 62
     1
100
AcDbLine
 10
64.0
 20
-8.183975
 30
0.0
 11
64.0
 21
-8.183566052240907
 31
0.0
  0
LINE
  5
418
330
18
100
AcDbEntity
  8
1
 62
     1
100
AcDbLine
 10
64.0
 20
-8.183566052240907
 30
0.0
 11
64.0
 21
-8.058517580941984
 31
0.0
  0
LINE
  5
419
330
18
100
AcDbEntity
  8
1
 62
     1
100
AcDbLine
 10
64.0
 20
-8.058517580941984
 30
0.0
 11
64.0
 21
-6.232736632596285
 31
0.0
  0
LINE
  5
41A
330
18
100
AcDbEntity
  8
1
 62
     1
100
AcDbLine
 10
64.24943477227333
 20
-8.616008497316026
 30
0.0
 11
64.0
 21
-8.183975
 31
0.0
  0
LINE
  5
41B
330
18
100
AcDbEntity
  8
1
 62
     1
100
AcDbLine
 10
64.24943477227332
 20
-6.775237699075835
 30
0.0
 11
64.24943477227333
 21
-8.616008497316038
 31
0.0
  0
LINE
  5
41C
330
18
100
AcDbEntity
  8
1
 62
     1
100
AcDbLine
 10
64.79481497057762
 20
-6.680145943468588
 30
0.0
 11
65.0
 21
-6.232736632596286
 31
0.0
  0
LINE
  5
41D
330
18
100
AcDbEntity
  8
1
 62
     1
100
AcDbLine
 10
64.79481497057763
 20
-6.680145943468592
 30
0.0
 11
64.79481497057762
 21
-8.53936573021104
 31
0.0
  0
LINE
  5
41E
330
18
100
AcDbEntity
  8
1
 62
     1
100
AcDbLine
 10
65.0
 20
-6.232736632596286
 30
0.0
 11
65.17438813749041
 21
-6.613688116716995
 31
0.0
  0
LINE
  5
41F
330
18
100
AcDbEntity
  8
1
 62
     1
100
AcDbLine
 10
65.0
 20
-8.183975
 30
0.0
 11
65.0
 21
-8.183566052240907
 31
0.0
  0
LINE
  5
420
330
18
100
AcDbEntity
  8
1
 62
     1
100
AcDbLine
 10
65.0
 20
-8.183566052240907
 30
0.0
 11
65.0
 21
-8.058517580941984
 31
0.0
  0
LINE
  5
421
330
18
100
AcDbEntity
  8
1
 62
     1
100
AcDbLine
 10
65.0
 20
-8.058517580941984
 30
0.0
 11
65.0
 21
-6.232736632596285
 31
0.0
  0
LINE
  5
422
330
18
100
AcDbEntity
  8
1
 62
     1
100
AcDbLine
 10
65.17438813749041
 20
-8.486023973540266
 30
0.0
 11
65.0
 21
-8.183975
 31
0.0
  0
LINE
  5
423
330
18
100
AcDbEntity
  8
1
 62
     1
100
AcDbLine
 10
65.1743881374904
 20
-6.613688116717
 30
0.0
 11
65.17438813749041
 21
-8.486023973540272
 31
0.0
  0
LINE
  5
424
330
18
100
AcDbEntity
  8
1
 62
     1
100
AcDbLine
 10
65.88311481819102
 20
-6.488967938049369
 30
0.0
 11
66.0
 21
-6.232736632596286
 31
0.0
  0
LINE
  5
425
330
18
100
AcDbEntity
  8
1
 62
     1
100
AcDbLine
 10
65.883114818191
 20
-6.488967938049369
 30
0.0
 11
65.883114818191
 21
-8.386425979152278
 31
0.0
  0
LINE
  5
426
330
18
100
AcDbEntity
  8
1
 62
     1
100
AcDbLine
 10
66.0
 20
-8.183975
 30
0.0
 11
65.883114818191
 21
-8.386425979152273
 31
0.0
  0
LINE
  5
427
330
18
100
AcDbEntity
  8
1
 62
     1
100
AcDbLine
 10
61.517
 20
5.339170609352449
 30
0.0
 11
61.47113247308101
 21
5.339170609352446
 31
0.0
  0
LINE
  5
428
330
18
100
AcDbEntity
  8
1
 62
     1
100
AcDbLine
 10
61.51699999999999
 20
5.33917060935245
 30
0.0
 11
61.517
 21
-1.385473731282305
 31
0.0
  0
LINE
  5
429
330
18
100
AcDbEntity
  8
1
 62
     1
100
AcDbLine
 10
60.52886752691899
 20
5.339170609352449
 30
0.0
 11
60.47113247308106
 21
5.339170609352449
 31
0.0
  0
LINE
  5
42A
330
18
100
AcDbEntity
  8
1
 62
     1
100
AcDbLine
 10
60.52886752691897
 20
-1.385473731282305
 30
0.0
 11
60.47113247308101
 21
-1.385473731282305
 31
0.0
  0
LINE
  5
42B
330
18
100
AcDbEntity
  8
1
 62
     1
100
AcDbLine
 10
59.52886752691898
 20
5.339170609352449
 30
0.0
 11
59.47113247308105
 21
5.339170609352449
 31
0.0
  0
LINE
  5
42C
330
18
100
AcDbEntity
  8
1
 62
     1
100
AcDbLine
 10
59.52886752691897
 20
-1.385473731282305
 30
0.0
 11
59.47113247308106
 21
-1.385473731282305
 31
0.0
  0
LINE
  5
42D
330
18
100
AcDbEntity
  8
1
 62
     1
100
AcDbLine
 10
58.52886752691899
 20
5.339170609352449
 30
0.0
 11
58.47113247308102
 21
5.339170609352449
 31
0.0
  0
LINE
  5
42E
330
18
100
AcDbEntity
  8
1
 62
     1
100
AcDbLine
 10
57.52886752691898
 20
5.339170609352449
 30
0.0
 11
57.47113247308105
 21
5.339170609352449
 31
0.0
  0
LINE
  5
42F
330
18
100
AcDbEntity
  8
1
 62
     1
100
AcDbLine
 10
57.52886752691899
 20
-1.385473731282305
 30
0.0
 11
57.47113247308105
 21
-1.385473731282305
 31
0.0
  0
LINE
  5
430
330
18
100
AcDbEntity
  8
1
 62
     1
100
AcDbLine
 10
56.528867526919
 20
-1.385473731282305
 30
0.0
 11
56.47113247308105
 21
-1.385473731282305
 31
0.0
  0
LINE
  5
431
330
18
100
AcDbEntity
  8
1
 62
     1
100
AcDbLine
 10
54.52886752691898
 20
5.339170609352449
 30
0.0
 11
54.47113247308103
 21
5.339170609352449
 31
0.0
  0
LINE
  5
432
330
18
100
AcDbEntity
  8
1
 62
     1
100
AcDbLine
 10
54.528867526919
 20
-1.385473731282305
 30
0.0
 11
54.47113247308105
 21
-1.385473731282305
 31
0.0
  0
LINE
  5
433
330
18
100
AcDbEntity
  8
1
 62
     1
100
AcDbLine
 10
53.52886752691899
 20
5.339170609352449
 30
0.0
 11
53.47113247308105
 21
5.339170609352449
 31
0.0
  0
LINE
  5
434
330
18
100
AcDbEntity
  8
1
 62
     1
100
AcDbLine
 10
53.52886752691901
 20
-1.385473731282305
 30
0.0
 11
53.47113247308104
 21
-1.385473731282305
 31
0.0
  0
LINE
  5
435
330
18
100
AcDbEntity
  8
1
 62
     1
100
AcDbLine
 10
52.52886752691898
 20
5.339170609352449
 30
0.0
 11
52.47113247308103
 21
5.339170609352449
 31
0.0
  0
LINE
  5
436
330
18
100
AcDbEntity
  8
1
 62
     1
100
AcDbLine
 10
52.52886752691902
 20
-1.385473731282305
 30
0.0
 11
52.47113247308106
 21
-1.385473731282306
 31
0.0
  0
LINE
  5
437
330
18
100
AcDbEntity
  8
1
 62
     1
100
AcDbLine
 10
51.52886752691897
 20
5.339170609352449
 30
0.0
 11
51.47113247308105
 21
5.339170609352451
 31
0.0
  0
LINE
  5
438
330
18
100
AcDbEntity
  8
1
 62
     1
100
AcDbLine
 10
51.52886752691897
 20
-1.385473731282305
 30
0.0
 11
51.47113247308105
 21
-1.385473731282305
 31
0.0
  0
LINE
  5
439
330
18
100
AcDbEntity
  8
1
 62
     1
100
AcDbLine
 10
50.528867526919
 20
5.339170609352449
 30
0.0
 11
50.47113247308105
 21
5.339170609352449
 31
0.0
  0
LINE
  5
43A
330
18
100
AcDbEntity
  8
1
 62
     1
100
AcDbLine
 10
50.528867526919
 20
-1.385473731282305
 30
0.0
 11
50.47113247308103
 21
-1.385473731282305
 31
0.0
  0
LINE
  5
43B
330
18
100
AcDbEntity
  8
1
 62
     1
100
AcDbLine
 10
49.52886752691899
 20
5.339170609352449
 30
0.0
 11
49.47113247308104
 21
5.339170609352449
 31
0.0
  0
LINE
  5
43C
330
18
100
AcDbEntity
  8
1
 62
     1
100
AcDbLine
 10
49.52886752691899
 20
-1.385473731282305
 30
0.0
 11
49.47113247308105
 21
-1.385473731282305
 31
0.0
  0
LINE
  5
43D
330
18
100
AcDbEntity
  8
1
 62
     1
100
AcDbLine
 10
47.52886752691899
 20
-1.385473731282305
 30
0.0
 11
47.47113247308103
 21
-1.385473731282305
 31
0.0
  0
LINE
  5
43E
330
18
100
AcDbEntity
  8
1
 62
     1
100
AcDbLine
 10
46.52886752691898
 20
5.339170609352449
 30
0.0
 11
46.47113247308103
 21
5.339170609352449
 31
0.0
  0
LINE
  5
43F
330
18
100
AcDbEntity
  8
1
 62
     1
100
AcDbLine
 10
46.52886752691897
 20
-1.385473731282305
 30
0.0
 11
46.47113247308103
 21
-1.385473731282305
 31
0.0
  0
LINE
  5
440
330
18
100
AcDbEntity
  8
1
 62
     1
100
AcDbLine
 10
45.52886752691898
 20
5.339170609352449
 30
0.0
 11
45.47113247308103
 21
5.339170609352449
 31
0.0
  0
LINE
  5
441
330
18
100
AcDbEntity
  8
1
 62
     1
100
AcDbLine
 10
45.52886752691897
 20
-1.385473731282305
 30
0.0
 11
45.47113247308103
 21
-1.385473731282305
 31
0.0
  0
LINE
  5
442
330
18
100
AcDbEntity
  8
1
 62
     1
100
AcDbLine
 10
44.52886752691897
 20
5.339170609352449
 30
0.0
 11
44.47113247308103
 21
5.339170609352449
 31
0.0
  0
LINE
  5
443
330
18
100
AcDbEntity
  8
1
 62
     1
100
AcDbLine
 10
44.52886752691897
 20
-1.385473731282305
 30
0.0
 11
44.47113247308103
 21
-1.385473731282305
 31
0.0
  0
LINE
  5
444
330
18
100
AcDbEntity
  8
1
 62
     1
100
AcDbLine
 10
43.52886752691898
 20
5.339170609352449
 30
0.0
 11
43.47113247308105
 21
5.339170609352449
 31
0.0
  0
LINE
  5
445
330
18
100
AcDbEntity
  8
1
 62
     1
100
AcDbLine
 10
43.52886752691897
 20
-1.385473731282305
 30
0.0
 11
43.47113247308103
 21
-1.385473731282304
 31
0.0
  0
LINE
  5
446
330
18
100
AcDbEntity
  8
1
 62
     1
100
AcDbLine
 10
42.52886752691899
 20
5.339170609352449
 30
0.0
 11
42.47113247308103
 21
5.339170609352449
 31
0.0
  0
LINE
  5
447
330
18
100
AcDbEntity
  8
1
 62
     1
100
AcDbLine
 10
42.52886752691898
 20
-1.385473731282305
 30
0.0
 11
42.47113247308103
 21
-1.385473731282305
 31
0.0
  0
ARC
  5
448
330
18
100
AcDbEntity
  8
1
 62
     1
100
AcDbCircle
 10
111.9299086574233
 20
16.85358881269486
 30
0.0
 40
55.91811096662995
100
AcDbArc
 50
204.3845981562208
 51
205.5288638923922
  0
LINE
  5
449
330
18
100
AcDbEntity
  8
1
 62
     1
100
AcDbLine
 10
61.47113247308102
 20
-7.245223061040082
 30
0.0
 11
61.47113247308103
 21
-9.0
 31
0.0
  0
ARC
  5
44A
330
18
100
AcDbEntity
  8
1
 62
     1
100
AcDbCircle
 10
8.458995054402592
 20
17.60361546160505
 30
0.0
 40
57.69519243682019
100
AcDbArc
 50
334.4885418029284
 51
335.5975624947273
  0
LINE
  5
44B
330
18
100
AcDbEntity
  8
1
 62
     1
100
AcDbLine
 10
60.52886752691897
 20
-7.245223061040082
 30
0.0
 11
60.52886752691897
 21
-9.0
 31
0.0
  0
LINE
  5
44C
330
18
100
AcDbEntity
  8
1
 62
     1
100
AcDbLine
 10
61.0
 20
-8.183975
 30
0.0
 11
60.52886752691897
 21
-8.999999999999995
 31
0.0
  0
LINE
  5
44D
330
18
100
AcDbEntity
  8
1
 62
     1
100
AcDbLine
 10
61.0
 20
-8.183975
 30
0.0
 11
60.99999999999999
 21
-8.183566052240907
 31
0.0
  0
LINE
  5
44E
330
18
100
AcDbEntity
  8
1
 62
     1
100
AcDbLine
 10
60.99999999999999
 20
-8.183566052240907
 30
0.0
 11
61.0
 21
-8.058517580941984
 31
0.0
  0
LINE
  5
44F
330
18
100
AcDbEntity
  8
1
 62
     1
100
AcDbLine
 10
61.0
 20
-8.058517580941984
 30
0.0
 11
60.99999999999999
 21
-6.232736632596285
 31
0.0
  0
ARC
  5
450
330
18
100
AcDbEntity
  8
1
 62
     1
100
AcDbCircle
 10
110.9299086574989
 20
16.85358881272961
 30
0.0
 40
55.91811096671313
100
AcDbArc
 50
204.3845981562212
 51
205.5288638923909
  0
LINE
  5
451
330
18
100
AcDbEntity
  8
1
 62
     1
100
AcDbLine
 10
60.47113247308102
 20
-7.245223061040082
 30
0.0
 11
60.47113247308103
 21
-9.0
 31
0.0
  0
ARC
  5
452
330
18
100
AcDbEntity
  8
1
 62
     1
100
AcDbCircle
 10
7.458995054225781
 20
17.60361546168924
 30
0.0
 40
57.695192437016
100
AcDbArc
 50
334.4885418029285
 51
335.5975624947236
  0
LINE
  5
453
330
18
100
AcDbEntity
  8
1
 62
     1
100
AcDbLine
 10
59.52886752691897
 20
-7.245223061040082
 30
0.0
 11
59.52886752691897
 21
-9.0
 31
0.0
  0
LINE
  5
454
330
18
100
AcDbEntity
  8
1
 62
     1
100
AcDbLine
 10
60.0
 20
-8.183975
 30
0.0
 11
59.52886752691897
 21
-8.999999999999995
 31
0.0
  0
LINE
  5
455
330
18
100
AcDbEntity
  8
1
 62
     1
100
AcDbLine
 10
60.0
 20
-8.183975
 30
0.0
 11
59.99999999999999
 21
-8.183566052240907
 31
0.0
  0
LINE
  5
456
330
18
100
AcDbEntity
  8
1
 62
     1
100
AcDbLine
 10
59.99999999999999
 20
-8.183566052240907
 30
0.0
 11
60.0
 21
-8.058517580941984
 31
0.0
  0
LINE
  5
457
330
18
100
AcDbEntity
  8
1
 62
     1
100
AcDbLine
 10
60.0
 20
-8.058517580941984
 30
0.0
 11
59.99999999999999
 21
-6.232736632596285
 31
0.0
  0
ARC
  5
458
330
18
100
AcDbEntity
  8
1
 62
     1
100
AcDbCircle
 10
109.9299086575608
 20
16.85358881275833
 30
0.0
 40
55.91811096678136
100
AcDbArc
 50
204.3845981562218
 51
205.5288638923902
  0
LINE
  5
459
330
18
100
AcDbEntity
  8
1
 62
     1
100
AcDbLine
 10
59.47113247308105
 20
-9.000000000000021
 30
0.0
 11
59.0
 21
-8.183975
 31
0.0
  0
LINE
  5
45A
330
18
100
AcDbEntity
  8
1
 62
     1
100
AcDbLine
 10
59.47113247308104
 20
-7.245223061040082
 30
0.0
 11
59.47113247308104
 21
-9.0
 31
0.0
  0
ARC
  5
45B
330
18
100
AcDbEntity
  8
1
 62
     1
100
AcDbCircle
 10
6.458995054636922
 20
17.60361546149629
 30
0.0
 40
57.69519243656184
100
AcDbArc
 50
334.4885418029255
 51
335.5975624947294
  0
LINE
  5
45C
330
18
100
AcDbEntity
  8
1
 62
     1
100
AcDbLine
 10
58.52886752691899
 20
-7.245223061040082
 30
0.0
 11
58.52886752691899
 21
-9.0
 31
0.0
  0
LINE
  5
45D
330
18
100
AcDbEntity
  8
1
 62
     1
100
AcDbLine
 10
59.0
 20
-8.183975
 30
0.0
 11
58.52886752691899
 21
-8.99999999999997
 31
0.0
  0
LINE
  5
45E
330
18
100
AcDbEntity
  8
1
 62
     1
100
AcDbLine
 10
59.0
 20
-8.183975
 30
0.0
 11
59.0
 21
-8.183566052240907
 31
0.0
  0
LINE
  5
45F
330
18
100
AcDbEntity
  8
1
 62
     1
100
AcDbLine
 10
59.0
 20
-8.183566052240907
 30
0.0
 11
59.00000000000001
 21
-8.058517580941984
 31
0.0
  0
LINE
  5
460
330
18
100
AcDbEntity
  8
1
 62
     1
100
AcDbLine
 10
59.00000000000001
 20
-8.058517580941984
 30
0.0
 11
59.0
 21
-6.232736632596285
 31
0.0
  0
ARC
  5
461
330
18
100
AcDbEntity
  8
1
 62
     1
100
AcDbCircle
 10
108.9299086572906
 20
16.85358881263248
 30
0.0
 40
55.91811096648331
100
AcDbArc
 50
204.3845981562187
 51
205.5288638923932
  0
LINE
  5
462
330
18
100
AcDbEntity
  8
1
 62
     1
100
AcDbLine
 10
58.47113247308101
 20
-8.999999999999972
 30
0.0
 11
58.0
 21
-8.183975
 31
0.0
  0
LINE
  5
463
330
18
100
AcDbEntity
  8
1
 62
     1
100
AcDbLine
 10
58.47113247308101
 20
-7.245223061040082
 30
0.0
 11
58.47113247308101
 21
-9.0
 31
0.0
  0
ARC
  5
464
330
18
100
AcDbEntity
  8
1
 62
     1
100
AcDbCircle
 10
5.458995054243701
 20
17.60361546168093
 30
0.0
 40
57.69519243699627
100
AcDbArc
 50
334.4885418029283
 51
335.5975624947238
  0
LINE
  5
465
330
18
100
AcDbEntity
  8
1
 62
     1
100
AcDbLine
 10
57.52886752691899
 20
-7.245223061040082
 30
0.0
 11
57.52886752691899
 21
-9.0
 31
0.0
  0
LINE
  5
466
330
18
100
AcDbEntity
  8
1
 62
     1
100
AcDbLine
 10
58.0
 20
-8.183975
 30
0.0
 11
57.52886752691899
 21
-8.99999999999998
 31
0.0
  0
LINE
  5
467
330
18
100
AcDbEntity
  8
1
 62
     1
100
AcDbLine
 10
58.0
 20
-8.183975
 30
0.0
 11
58.0
 21
-8.183566052240907
 31
0.0
  0
LINE
  5
468
330
18
100
AcDbEntity
  8
1
 62
     1
100
AcDbLine
 10
58.0
 20
-8.183566052240907
 30
0.0
 11
58.00000000000001
 21
-8.058517580941984
 31
0.0
  0
LINE
  5
469
330
18
100
AcDbEntity
  8
1
 62
     1
100
AcDbLine
 10
58.00000000000001
 20
-8.058517580941984
 30
0.0
 11
58.0
 21
-6.232736632596285
 31
0.0
  0
ARC
  5
46A
330
18
100
AcDbEntity
  8
1
 62
     1
100
AcDbCircle
 10
107.9299086574268
 20
16.85358881269714
 30
0.0
 40
55.91811096663402
100
AcDbArc
 50
204.3845981562214
 51
205.5288638923929
  0
LINE
  5
46B
330
18
100
AcDbEntity
  8
1
 62
     1
100
AcDbLine
 10
57.47113247308105
 20
-9.000000000000032
 30
0.0
 11
57.0
 21
-8.183975
 31
0.0
  0
LINE
  5
46C
330
18
100
AcDbEntity
  8
1
 62
     1
100
AcDbLine
 10
57.47113247308106
 20
-7.245223061040082
 30
0.0
 11
57.47113247308106
 21
-9.0
 31
0.0
  0
ARC
  5
46D
330
18
100
AcDbEntity
  8
1
 62
     1
100
AcDbCircle
 10
4.458995054392979
 20
17.6036154616105
 30
0.0
 40
57.6951924368312
100
AcDbArc
 50
334.4885418029276
 51
335.5975624947262
  0
LINE
  5
46E
330
18
100
AcDbEntity
  8
1
 62
     1
100
AcDbLine
 10
56.52886752691899
 20
-7.245223061040082
 30
0.0
 11
56.52886752691899
 21
-9.0
 31
0.0
  0
LINE
  5
46F
330
18
100
AcDbEntity
  8
1
 62
     1
100
AcDbLine
 10
57.0
 20
-8.183975
 30
0.0
 11
56.52886752691899
 21
-8.99999999999998
 31
0.0
  0
LINE
  5
470
330
18
100
AcDbEntity
  8
1
 62
     1
100
AcDbLine
 10
57.0
 20
-8.183975
 30
0.0
 11
57.0
 21
-8.183566052240907
 31
0.0
  0
LINE
  5
471
330
18
100
AcDbEntity
  8
1
 62
     1
100
AcDbLine
 10
57.0
 20
-8.183566052240907
 30
0.0
 11
57.0
 21
-8.058517580941984
 31
0.0
  0
LINE
  5
472
330
18
100
AcDbEntity
  8
1
 62
     1
100
AcDbLine
 10
57.0
 20
-8.058517580941984
 30
0.0
 11
57.0
 21
-6.232736632596285
 31
0.0
  0
ARC
  5
473
330
18
100
AcDbEntity
  8
1
 62
     1
100
AcDbCircle
 10
106.9299086573767
 20
16.85358881267372
 30
0.0
 40
55.91811096657874
100
AcDbArc
 50
204.3845981562208
 51
205.5288638923933
  0
LINE
  5
474
330
18
100
AcDbEntity
  8
1
 62
     1
100
AcDbLine
 10
56.47113247308103
 20
-9.000000000000007
 30
0.0
 11
56.0
 21
-8.183975
 31
0.0
  0
LINE
  5
475
330
18
100
AcDbEntity
  8
1
 62
     1
100
AcDbLine
 10
56.47113247308104
 20
-7.245223061040082
 30
0.0
 11
56.47113247308104
 21
-9.0
 31
0.0
  0
ARC
  5
476
330
18
100
AcDbEntity
  8
1
 62
     1
100
AcDbCircle
 10
3.458995054168938
 20
17.60361546171601
 30
0.0
 40
57.69519243707883
100
AcDbArc
 50
334.4885418029288
 51
335.5975624947228
  0
LINE
  5
477
330
18
100
AcDbEntity
  8
1
 62
     1
100
AcDbLine
 10
55.52886752691897
 20
-7.245223061040082
 30
0.0
 11
55.52886752691897
 21
-9.0
 31
0.0
  0
LINE
  5
478
330
18
100
AcDbEntity
  8
1
 62
     1
100
AcDbLine
 10
56.0
 20
-8.183975
 30
0.0
 11
55.52886752691897
 21
-9.000000000000005
 31
0.0
  0
LINE
  5
479
330
18
100
AcDbEntity
  8
1
 62
     1
100
AcDbLine
 10
56.0
 20
-8.183975
 30
0.0
 11
56.0
 21
-8.183566052240907
 31
0.0
  0
LINE
  5
47A
330
18
100
AcDbEntity
  8
1
 62
     1
100
AcDbLine
 10
56.0
 20
-8.183566052240907
 30
0.0
 11
56.0
 21
-8.058517580941984
 31
0.0
  0
LINE
  5
47B
330
18
100
AcDbEntity
  8
1
 62
     1
100
AcDbLine
 10
56.0
 20
-8.058517580941984
 30
0.0
 11
56.0
 21
-6.232736632596285
 31
0.0
  0
ARC
  5
47C
330
18
100
AcDbEntity
  8
1
 62
     1
100
AcDbCircle
 10
105.9299086571686
 20
16.85358881257718
 30
0.0
 40
55.9181109663494
100
AcDbArc
 50
204.3845981562187
 51
205.5288638923959
  0
LINE
  5
47D
330
18
100
AcDbEntity
  8
1
 62
     1
100
AcDbLine
 10
55.47113247308103
 20
-9.000000000000007
 30
0.0
 11
55.0
 21
-8.183975
 31
0.0
  0
LINE
  5
47E
330
18
100
AcDbEntity
  8
1
 62
     1
100
AcDbLine
 10
55.47113247308104
 20
-7.245223061040082
 30
0.0
 11
55.47113247308104
 21
-9.0
 31
0.0
  0
ARC
  5
47F
330
18
100
AcDbEntity
  8
1
 62
     1
100
AcDbCircle
 10
2.458995053991252
 20
17.60361546179767
 30
0.0
 40
57.69519243727437
100
AcDbArc
 50
334.4885418029316
 51
335.5975624947218
  0
LINE
  5
480
330
18
100
AcDbEntity
  8
1
 62
     1
100
AcDbLine
 10
54.52886752691901
 20
-7.245223061040082
 30
0.0
 11
54.528867526919
 21
-9.0
 31
0.0
  0
LINE
  5
481
330
18
100
AcDbEntity
  8
1
 62
     1
100
AcDbLine
 10
55.0
 20
-8.183975
 30
0.0
 11
54.528867526919
 21
-8.999999999999957
 31
0.0
  0
LINE
  5
482
330
18
100
AcDbEntity
  8
1
 62
     1
100
AcDbLine
 10
55.0
 20
-8.183975
 30
0.0
 11
55.0
 21
-8.183566052240907
 31
0.0
  0
LINE
  5
483
330
18
100
AcDbEntity
  8
1
 62
     1
100
AcDbLine
 10
55.0
 20
-8.183566052240907
 30
0.0
 11
55.0
 21
-8.058517580941984
 31
0.0
  0
LINE
  5
484
330
18
100
AcDbEntity
  8
1
 62
     1
100
AcDbLine
 10
55.0
 20
-8.058517580941984
 30
0.0
 11
54.99999999999999
 21
-6.232736632596285
 31
0.0
  0
ARC
  5
485
330
18
100
AcDbEntity
  8
1
 62
     1
100
AcDbCircle
 10
104.9299086575727
 20
16.85358881276404
 30
0.0
 40
55.9181109667946
100
AcDbArc
 50
204.3845981562221
 51
205.5288638923902
  0
LINE
  5
486
330
18
100
AcDbEntity
  8
1
 62
     1
100
AcDbLine
 10
54.47113247308103
 20
-9.000000000000007
 30
0.0
 11
54.0
 21
-8.183975
 31
0.0
  0
LINE
  5
487
330
18
100
AcDbEntity
  8
1
 62
     1
100
AcDbLine
 10
54.47113247308104
 20
-7.245223061040082
 30
0.0
 11
54.47113247308104
 21
-9.0
 31
0.0
  0
ARC
  5
488
330
18
100
AcDbEntity
  8
1
 62
     1
100
AcDbCircle
 10
1.458995054407069
 20
17.60361546160399
 30
0.0
 40
57.69519243681567
100
AcDbArc
 50
334.4885418029274
 51
335.5975624947263
  0
LINE
  5
489
330
18
100
AcDbEntity
  8
1
 62
     1
100
AcDbLine
 10
53.52886752691899
 20
-7.245223061040082
 30
0.0
 11
53.52886752691899
 21
-9.0
 31
0.0
  0
LINE
  5
48A
330
18
100
AcDbEntity
  8
1
 62
     1
100
AcDbLine
 10
54.0
 20
-8.183975
 30
0.0
 11
53.52886752691899
 21
-8.99999999999997
 31
0.0
  0
LINE
  5
48B
330
18
100
AcDbEntity
  8
1
 62
     1
100
AcDbLine
 10
54.0
 20
-8.183975
 30
0.0
 11
54.0
 21
-8.183566052240907
 31
0.0
  0
LINE
  5
48C
330
18
100
AcDbEntity
  8
1
 62
     1
100
AcDbLine
 10
54.0
 20
-8.183566052240907
 30
0.0
 11
54.00000000000001
 21
-8.058517580941984
 31
0.0
  0
LINE
  5
48D
330
18
100
AcDbEntity
  8
1
 62
     1
100
AcDbLine
 10
54.00000000000001
 20
-8.058517580941984
 30
0.0
 11
53.99999999999999
 21
-6.232736632596285
 31
0.0
  0
ARC
  5
48E
330
18
100
AcDbEntity
  8
1
 62
     1
100
AcDbCircle
 10
103.9299086577267
 20
16.85358881283545
 30
0.0
 40
55.9181109669643
100
AcDbArc
 50
204.3845981562236
 51
205.5288638923882
  0
LINE
  5
48F
330
18
100
AcDbEntity
  8
1
 62
     1
100
AcDbLine
 10
53.47113247308104
 20
-9.000000000000007
 30
0.0
 11
53.0
 21
-8.183975
 31
0.0
  0
LINE
  5
490
330
18
100
AcDbEntity
  8
1
 62
     1
100
AcDbLine
 10
53.47113247308104
 20
-7.245223061040082
 30
0.0
 11
53.47113247308104
 21
-9.0
 31
0.0
  0
ARC
  5
491
330
18
100
AcDbEntity
  8
1
 62
     1
100
AcDbCircle
 10
0.4589950542795549
 20
17.60361546166431
 30
0.0
 40
57.69519243695673
100
AcDbArc
 50
334.4885418029279
 51
335.5975624947241
  0
LINE
  5
492
330
18
100
AcDbEntity
  8
1
 62
     1
100
AcDbLine
 10
52.52886752691899
 20
-7.245223061040082
 30
0.0
 11
52.52886752691899
 21
-9.0
 31
0.0
  0
LINE
  5
493
330
18
100
AcDbEntity
  8
1
 62
     1
100
AcDbLine
 10
53.0
 20
-8.183975
 30
0.0
 11
52.52886752691899
 21
-8.99999999999997
 31
0.0
  0
LINE
  5
494
330
18
100
AcDbEntity
  8
1
 62
     1
100
AcDbLine
 10
53.0
 20
-8.183975
 30
0.0
 11
52.99999999999999
 21
-8.183566052240907
 31
0.0
  0
LINE
  5
495
330
18
100
AcDbEntity
  8
1
 62
     1
100
AcDbLine
 10
52.99999999999999
 20
-8.183566052240907
 30
0.0
 11
53.0
 21
-8.058517580941984
 31
0.0
  0
LINE
  5
496
330
18
100
AcDbEntity
  8
1
 62
     1
100
AcDbLine
 10
53.0
 20
-8.058517580941984
 30
0.0
 11
53.0
 21
-6.232736632596285
 31
0.0
  0
ARC
  5
497
330
18
100
AcDbEntity
  8
1
 62
     1
100
AcDbCircle
 10
102.9299086575558
 20
16.85358881275648
 30
0.0
 40
55.91811096677602
100
AcDbArc
 50
204.3845981562222
 51
205.5288638923907
  0
LINE
  5
498
330
18
100
AcDbEntity
  8
1
 62
     1
100
AcDbLine
 10
52.47113247308104
 20
-9.000000000000007
 30
0.0
 11
52.0
 21
-8.183975
 31
0.0
  0
LINE
  5
499
330
18
100
AcDbEntity
  8
1
 62
     1
100
AcDbLine
 10
52.47113247308103
 20
-7.245223061040082
 30
0.0
 11
52.47113247308104
 21
-9.0
 31
0.0
  0
ARC
  5
49A
330
18
100
AcDbEntity
  8
1
 62
     1
100
AcDbCircle
 10
-0.5410049459233264
 20
17.60361546175803
 30
0.0
 40
57.69519243718021
100
AcDbArc
 50
334.4885418029306
 51
335.5975624947226
  0
LINE
  5
49B
330
18
100
AcDbEntity
  8
1
 62
     1
100
AcDbLine
 10
51.52886752691898
 20
-7.245223061040082
 30
0.0
 11
51.52886752691899
 21
-9.0
 31
0.0
  0
LINE
  5
49C
330
18
100
AcDbEntity
  8
1
 62
     1
100
AcDbLine
 10
52.0
 20
-8.183975
 30
0.0
 11
51.52886752691899
 21
-8.99999999999998
 31
0.0
  0
LINE
  5
49D
330
18
100
AcDbEntity
  8
1
 62
     1
100
AcDbLine
 10
52.0
 20
-8.183975
 30
0.0
 11
52.0
 21
-8.183566052240907
 31
0.0
  0
LINE
  5
49E
330
18
100
AcDbEntity
  8
1
 62
     1
100
AcDbLine
 10
52.0
 20
-8.183566052240907
 30
0.0
 11
52.0
 21
-8.058517580941984
 31
0.0
  0
LINE
  5
49F
330
18
100
AcDbEntity
  8
1
 62
     1
100
AcDbLine
 10
52.0
 20
-8.058517580941984
 30
0.0
 11
52.00000000000001
 21
-6.232736632596285
 31
0.0
  0
ARC
  5
4A0
330
18
100
AcDbEntity
  8
1
 62
     1
100
AcDbCircle
 10
101.9299086572034
 20
16.85358881259367
 30
0.0
 40
55.91811096638791
100
AcDbArc
 50
204.3845981562193
 51
205.5288638923958
  0
LINE
  5
4A1
330
18
100
AcDbEntity
  8
1
 62
     1
100
AcDbLine
 10
51.47113247308104
 20
-9.000000000000007
 30
0.0
 11
51.0
 21
-8.183975
 31
0.0
  0
LINE
  5
4A2
330
18
100
AcDbEntity
  8
1
 62
     1
100
AcDbLine
 10
51.47113247308105
 20
-7.245223061040082
 30
0.0
 11
51.47113247308104
 21
-9.0
 31
0.0
  0
ARC
  5
4A3
330
18
100
AcDbEntity
  8
1
 62
     1
100
AcDbCircle
 10
-1.541004945774283
 20
17.60361546168871
 30
0.0
 40
57.69519243701584
100
AcDbArc
 50
334.488541802929
 51
335.5975624947241
  0
LINE
  5
4A4
330
18
100
AcDbEntity
  8
1
 62
     1
100
AcDbLine
 10
50.52886752691899
 20
-7.245223061040082
 30
0.0
 11
50.528867526919
 21
-9.0
 31
0.0
  0
LINE
  5
4A5
330
18
100
AcDbEntity
  8
1
 62
     1
100
AcDbLine
 10
51.0
 20
-8.183975
 30
0.0
 11
50.528867526919
 21
-8.999999999999957
 31
0.0
  0
LINE
  5
4A6
330
18
100
AcDbEntity
  8
1
 62
     1
100
AcDbLine
 10
51.0
 20
-8.183975
 30
0.0
 11
51.0
 21
-8.183566052240907
 31
0.0
  0
LINE
  5
4A7
330
18
100
AcDbEntity
  8
1
 62
     1
100
AcDbLine
 10
51.0
 20
-8.183566052240907
 30
0.0
 11
51.0
 21
-8.058517580941984
 31
0.0
  0
LINE
  5
4A8
330
18
100
AcDbEntity
  8
1
 62
     1
100
AcDbLine
 10
51.0
 20
-8.058517580941984
 30
0.0
 11
50.99999999999999
 21
-6.232736632596285
 31
0.0
  0
ARC
  5
4A9
330
18
100
AcDbEntity
  8
1
 62
     1
100
AcDbCircle
 10
97.92990865756823
 20
16.8535888127611
 30
0.0
 40
55.91811096678929
100
AcDbArc
 50
204.3845981562212
 51
205.5288638923894
  0
LINE
  5
4AA
330
18
100
AcDbEntity
  8
1
 62
     1
100
AcDbLine
 10
47.47113247308103
 20
-9.000000000000007
 30
0.0
 11
47.0
 21
-8.183975
 31
0.0
  0
LINE
  5
4AB
330
18
100
AcDbEntity
  8
1
 62
     1
100
AcDbLine
 10
47.47113247308103
 20
-7.245223061040082
 30
0.0
 11
47.47113247308103
 21
-9.0
 31
0.0
  0
ARC
  5
4AC
330
18
100
AcDbEntity
  8
1
 62
     1
100
AcDbCircle
 10
12.07637816036237
 20
16.85508828287408
 30
0.0
 40
55.91302480178435
100
AcDbArc
 50
334.6804456712277
 51
335.6113425946178
  0
LINE
  5
4AD
330
18
100
AcDbEntity
  8
1
 62
     1
100
AcDbLine
 10
62.61821527535086
 20
-7.057035607537355
 30
0.0
 11
62.61821527535087
 21
-8.845245232328564
 31
0.0
  0
LINE
  5
4AE
330
18
100
AcDbEntity
  8
1
 62
     1
100
AcDbLine
 10
63.00000000000001
 20
-8.183975
 30
0.0
 11
62.61821527535087
 21
-8.845245232328537
 31
0.0
  0
LINE
  5
4AF
330
18
100
AcDbEntity
  8
1
 62
     1
100
AcDbLine
 10
63.00000000000001
 20
-8.183975
 30
0.0
 11
63.00000000000001
 21
-8.183566052240907
 31
0.0
  0
LINE
  5
4B0
330
18
100
AcDbEntity
  8
1
 62
     1
100
AcDbLine
 10
63.00000000000001
 20
-8.183566052240907
 30
0.0
 11
63.00000000000001
 21
-8.058517580941984
 31
0.0
  0
LINE
  5
4B1
330
18
100
AcDbEntity
  8
1
 62
     1
100
AcDbLine
 10
63.00000000000001
 20
-8.058517580941984
 30
0.0
 11
63.00000000000001
 21
-6.232736632596285
 31
0.0
  0
ARC
  5
4B2
330
18
100
AcDbEntity
  8
1
 62
     1
100
AcDbCircle
 10
111.8952717796434
 20
16.37761934380308
 30
0.0
 40
54.77925738731684
100
AcDbArc
 50
204.3779557307776
 51
205.3715088116753
  0
LINE
  5
4B3
330
18
100
AcDbEntity
  8
1
 62
     1
100
AcDbLine
 10
62.3995280418392
 20
-8.875977544867581
 30
0.0
 11
62.00000000000001
 21
-8.183975
 31
0.0
  0
LINE
  5
4B4
330
18
100
AcDbEntity
  8
1
 62
     1
100
AcDbLine
 10
62.3995280418392
 20
-7.094533007348919
 30
0.0
 11
62.3995280418392
 21
-8.875977544867567
 31
0.0
  0
ARC
  5
4B5
330
18
100
AcDbEntity
  8
1
 62
     1
100
AcDbCircle
 10
9.478086265222778
 20
17.59476184720851
 30
0.0
 40
57.67414856806474
100
AcDbArc
 50
334.4907304547165
 51
335.5977366279206
  0
LINE
  5
4B6
330
18
100
AcDbEntity
  8
1
 62
     1
100
AcDbLine
 10
61.52991542773749
 20
-7.243024911921932
 30
0.0
 11
61.52991542773748
 21
-8.998184983387327
 31
0.0
  0
LINE
  5
4B7
330
18
100
AcDbEntity
  8
1
 62
     1
100
AcDbLine
 10
62.00000000000001
 20
-8.183975
 30
0.0
 11
61.52991542773748
 21
-8.998184983387302
 31
0.0
  0
LINE
  5
4B8
330
18
100
AcDbEntity
  8
1
 62
     1
100
AcDbLine
 10
62.00000000000001
 20
-8.183975
 30
0.0
 11
62.00000000000001
 21
-8.183566052240907
 31
0.0
  0
LINE
  5
4B9
330
18
100
AcDbEntity
  8
1
 62
     1
100
AcDbLine
 10
62.00000000000001
 20
-8.183566052240907
 30
0.0
 11
62.00000000000001
 21
-8.058517580941984
 31
0.0
  0
LINE
  5
4BA
330
18
100
AcDbEntity
  8
1
 62
     1
100
AcDbLine
 10
62.00000000000001
 20
-8.058517580941984
 30
0.0
 11
62.00000000000001
 21
-6.232736632596285
 31
0.0
  0
ARC
  5
4BB
330
18
100
AcDbEntity
  8
1
 62
     1
100
AcDbCircle
 10
-4.54100494567485
 20
17.6036154616426
 30
0.0
 40
57.69519243690623
100
AcDbArc
 50
334.4885418029278
 51
335.597562494725
  0
LINE
  5
4BC
330
18
100
AcDbEntity
  8
1
 62
     1
100
AcDbLine
 10
47.52886752691899
 20
-7.245223061040082
 30
0.0
 11
47.52886752691899
 21
-9.0
 31
0.0
  0
ARC
  5
4BD
330
18
100
AcDbEntity
  8
1
 62
     1
100
AcDbCircle
 10
98.92990865735771
 20
16.85358881266412
 30
0.0
 40
55.91811096655751
100
AcDbArc
 50
204.3845981562198
 51
205.5288638923928
  0
LINE
  5
4BE
330
18
100
AcDbEntity
  8
1
 62
     1
100
AcDbLine
 10
48.0
 20
-8.183975
 30
0.0
 11
48.0
 21
-8.183566052240907
 31
0.0
  0
LINE
  5
4BF
330
18
100
AcDbEntity
  8
1
 62
     1
100
AcDbLine
 10
48.0
 20
-8.183566052240907
 30
0.0
 11
48.00000000000001
 21
-8.058517580941984
 31
0.0
  0
LINE
  5
4C0
330
18
100
AcDbEntity
  8
1
 62
     1
100
AcDbLine
 10
48.00000000000001
 20
-8.058517580941984
 30
0.0
 11
48.00000000000001
 21
-6.232736632596285
 31
0.0
  0
LINE
  5
4C1
330
18
100
AcDbEntity
  8
1
 62
     1
100
AcDbLine
 10
48.47113247308104
 20
-9.000000000000021
 30
0.0
 11
48.0
 21
-8.183975
 31
0.0
  0
LINE
  5
4C2
330
18
100
AcDbEntity
  8
1
 62
     1
100
AcDbLine
 10
48.47113247308105
 20
-7.245223061040082
 30
0.0
 11
48.47113247308104
 21
-9.0
 31
0.0
  0
ARC
  5
4C3
330
18
100
AcDbEntity
  8
1
 62
     1
100
AcDbCircle
 10
-3.541004945878747
 20
17.60361546173689
 30
0.0
 40
57.69519243713087
100
AcDbArc
 50
334.4885418029305
 51
335.5975624947234
  0
LINE
  5
4C4
330
18
100
AcDbEntity
  8
1
 62
     1
100
AcDbLine
 10
48.52886752691899
 20
-7.245223061040082
 30
0.0
 11
48.52886752691899
 21
-9.0
 31
0.0
  0
ARC
  5
4C5
330
18
100
AcDbEntity
  8
1
 62
     1
100
AcDbCircle
 10
99.92990865744721
 20
16.85358881270601
 30
0.0
 40
55.91811096665633
100
AcDbArc
 50
204.384598156221
 51
205.528863892392
  0
LINE
  5
4C6
330
18
100
AcDbEntity
  8
1
 62
     1
100
AcDbLine
 10
49.0
 20
-8.183975
 30
0.0
 11
48.99999999999999
 21
-8.183566052240907
 31
0.0
  0
LINE
  5
4C7
330
18
100
AcDbEntity
  8
1
 62
     1
100
AcDbLine
 10
48.99999999999999
 20
-8.183566052240907
 30
0.0
 11
49.0
 21
-8.058517580941984
 31
0.0
  0
LINE
  5
4C8
330
18
100
AcDbEntity
  8
1
 62
     1
100
AcDbLine
 10
49.0
 20
-8.058517580941984
 30
0.0
 11
49.00000000000001
 21
-6.232736632596285
 31
0.0
  0
LINE
  5
4C9
330
18
100
AcDbEntity
  8
1
 62
     1
100
AcDbLine
 10
49.47113247308104
 20
-7.245223061040082
 30
0.0
 11
49.47113247308104
 21
-9.0
 31
0.0
  0
ARC
  5
4CA
330
18
100
AcDbEntity
  8
1
 62
     1
100
AcDbCircle
 10
-2.541004945996292
 20
17.60361546179347
 30
0.0
 40
57.69519243726131
100
AcDbArc
 50
334.48854180293
 51
335.5975624947205
  0
LINE
  5
4CB
330
18
100
AcDbEntity
  8
1
 62
     1
100
AcDbLine
 10
49.52886752691899
 20
-7.245223061040082
 30
0.0
 11
49.52886752691899
 21
-9.0
 31
0.0
  0
ARC
  5
4CC
330
18
100
AcDbEntity
  8
1
 62
     1
100
AcDbCircle
 10
100.9299086574873
 20
16.85358881272501
 30
0.0
 40
55.9181109667007
100
AcDbArc
 50
204.3845981562218
 51
205.5288638923918
  0
LINE
  5
4CD
330
18
100
AcDbEntity
  8
1
 62
     1
100
AcDbLine
 10
50.0
 20
-8.183975
 30
0.0
 11
50.0
 21
-8.183566052240907
 31
0.0
  0
LINE
  5
4CE
330
18
100
AcDbEntity
  8
1
 62
     1
100
AcDbLine
 10
50.0
 20
-8.183566052240907
 30
0.0
 11
50.00000000000001
 21
-8.058517580941984
 31
0.0
  0
LINE
  5
4CF
330
18
100
AcDbEntity
  8
1
 62
     1
100
AcDbLine
 10
50.00000000000001
 20
-8.058517580941984
 30
0.0
 11
50.0
 21
-6.232736632596285
 31
0.0
  0
LINE
  5
4D0
330
18
100
AcDbEntity
  8
1
 62
     1
100
AcDbLine
 10
50.47113247308104
 20
-9.000000000000007
 30
0.0
 11
50.0
 21
-8.183975
 31
0.0
  0
LINE
  5
4D1
330
18
100
AcDbEntity
  8
1
 62
     1
100
AcDbLine
 10
50.47113247308105
 20
-7.245223061040082
 30
0.0
 11
50.47113247308104
 21
-9.0
 31
0.0
  0
LINE
  5
4D2
330
18
100
AcDbEntity
  8
1
 62
     1
100
AcDbLine
 10
41.63843325746406
 20
5.331104154148742
 30
0.0
 11
41.24118991653859
 21
5.3221408441044
 31
0.0
  0
LINE
  5
4D3
330
18
100
AcDbEntity
  8
1
 62
     1
100
AcDbLine
 10
41.63843325746406
 20
-1.319292266068403
 30
0.0
 11
41.24118991653859
 21
-1.246513641528987
 31
0.0
  0
ARC
  5
4D4
330
18
100
AcDbEntity
  8
1
 62
     1
100
AcDbCircle
 10
59.09382591886966
 20
-793.6987909676944
 30
0.0
 40
799.2202333697948
100
AcDbArc
 50
91.3065009234252
 51
91.49879470478028
  0
LINE
  5
4D5
330
18
100
AcDbEntity
  8
1
 62
     1
100
AcDbLine
 10
40.87099148005606
 20
-1.178622214882959
 30
0.0
 11
38.18948822
 21
-0.6843743070061238
 31
0.0
  0
LINE
  5
4D6
330
18
100
AcDbEntity
  8
1
 62
     1
100
AcDbLine
 10
41.0
 20
-6.232736632596286
 30
0.0
 11
41.24118991653859
 21
-6.757554390048344
 31
0.0
  0
LINE
  5
4D7
330
18
100
AcDbEntity
  8
1
 62
     1
100
AcDbLine
 10
41.24118991653859
 20
-8.601727994940662
 30
0.0
 11
41.0
 21
-8.183975
 31
0.0
  0
LINE
  5
4D8
330
18
100
AcDbEntity
  8
1
 62
     1
100
AcDbLine
 10
41.24118991653859
 20
-6.757554390048344
 30
0.0
 11
41.24118991653859
 21
-8.601727994940662
 31
0.0
  0
LINE
  5
4D9
330
18
100
AcDbEntity
  8
1
 62
     1
100
AcDbLine
 10
40.87099148005606
 20
-6.515332869437866
 30
0.0
 11
41.0
 21
-6.232736632596286
 31
0.0
  0
LINE
  5
4DA
330
18
100
AcDbEntity
  8
1
 62
     1
100
AcDbLine
 10
40.87099148005606
 20
-6.515332869437857
 30
0.0
 11
40.87099148005606
 21
-8.407424206968892
 31
0.0
  0
LINE
  5
4DB
330
18
100
AcDbEntity
  8
1
 62
     1
100
AcDbLine
 10
41.0
 20
-8.183975
 30
0.0
 11
40.87099148005606
 21
-8.407424206968898
 31
0.0
  0
LINE
  5
4DC
330
18
100
AcDbEntity
  8
1
 62
     1
100
AcDbLine
 10
41.0
 20
-8.183975
 30
0.0
 11
41.0
 21
-8.183566052240907
 31
0.0
  0
LINE
  5
4DD
330
18
100
AcDbEntity
  8
1
 62
     1
100
AcDbLine
 10
41.0
 20
-8.183566052240907
 30
0.0
 11
41.0
 21
-8.058517580941984
 31
0.0
  0
LINE
  5
4DE
330
18
100
AcDbEntity
  8
1
 62
     1
100
AcDbLine
 10
41.0
 20
-8.058517580941984
 30
0.0
 11
40.99999999999999
 21
-6.232736632596285
 31
0.0
  0
ARC
  5
4DF
330
18
100
AcDbEntity
  8
1
 62
     1
100
AcDbCircle
 10
96.9299086575595
 20
16.85358881275839
 30
0.0
 40
55.91811096678022
100
AcDbArc
 50
204.3845981562224
 51
205.5288638923908
  0
LINE
  5
4E0
330
18
100
AcDbEntity
  8
1
 62
     1
100
AcDbLine
 10
46.47113247308103
 20
-8.999999999999996
 30
0.0
 11
46.0
 21
-8.183975
 31
0.0
  0
LINE
  5
4E1
330
18
100
AcDbEntity
  8
1
 62
     1
100
AcDbLine
 10
46.47113247308103
 20
-7.245223061040082
 30
0.0
 11
46.47113247308103
 21
-9.0
 31
0.0
  0
ARC
  5
4E2
330
18
100
AcDbEntity
  8
1
 62
     1
100
AcDbCircle
 10
-6.541004945828632
 20
17.60361546171517
 30
0.0
 40
57.69519243707627
100
AcDbArc
 50
334.4885418029285
 51
335.5975624947225
  0
LINE
  5
4E3
330
18
100
AcDbEntity
  8
1
 62
     1
100
AcDbLine
 10
45.52886752691898
 20
-7.245223061040082
 30
0.0
 11
45.52886752691898
 21
-9.0
 31
0.0
  0
LINE
  5
4E4
330
18
100
AcDbEntity
  8
1
 62
     1
100
AcDbLine
 10
46.0
 20
-8.183975
 30
0.0
 11
46.0
 21
-8.183566052240907
 31
0.0
  0
LINE
  5
4E5
330
18
100
AcDbEntity
  8
1
 62
     1
100
AcDbLine
 10
46.0
 20
-8.183566052240907
 30
0.0
 11
46.0
 21
-8.058517580941984
 31
0.0
  0
LINE
  5
4E6
330
18
100
AcDbEntity
  8
1
 62
     1
100
AcDbLine
 10
46.0
 20
-8.058517580941984
 30
0.0
 11
46.0
 21
-6.232736632596285
 31
0.0
  0
ARC
  5
4E7
330
18
100
AcDbEntity
  8
1
 62
     1
100
AcDbCircle
 10
95.92990865747369
 20
16.85358881271824
 30
0.0
 40
55.91811096668549
100
AcDbArc
 50
204.3845981562212
 51
205.5288638923915
  0
LINE
  5
4E8
330
18
100
AcDbEntity
  8
1
 62
     1
100
AcDbLine
 10
45.47113247308103
 20
-8.999999999999996
 30
0.0
 11
45.0
 21
-8.183975
 31
0.0
  0
LINE
  5
4E9
330
18
100
AcDbEntity
  8
1
 62
     1
100
AcDbLine
 10
45.47113247308103
 20
-7.245223061040082
 30
0.0
 11
45.47113247308103
 21
-9.0
 31
0.0
  0
ARC
  5
4EA
330
18
100
AcDbEntity
  8
1
 62
     1
100
AcDbCircle
 10
-7.541004945969611
 20
17.60361546177957
 30
0.0
 40
57.69519243723126
100
AcDbArc
 50
334.488541802931
 51
335.5975624947221
  0
LINE
  5
4EB
330
18
100
AcDbEntity
  8
1
 62
     1
100
AcDbLine
 10
44.52886752691897
 20
-7.245223061040082
 30
0.0
 11
44.52886752691897
 21
-9.0
 31
0.0
  0
LINE
  5
4EC
330
18
100
AcDbEntity
  8
1
 62
     1
100
AcDbLine
 10
45.0
 20
-8.183975
 30
0.0
 11
44.52886752691897
 21
-8.999999999999995
 31
0.0
  0
LINE
  5
4ED
330
18
100
AcDbEntity
  8
1
 62
     1
100
AcDbLine
 10
45.0
 20
-8.183975
 30
0.0
 11
45.0
 21
-8.183566052240907
 31
0.0
  0
LINE
  5
4EE
330
18
100
AcDbEntity
  8
1
 62
     1
100
AcDbLine
 10
45.0
 20
-8.183566052240907
 30
0.0
 11
45.0
 21
-8.058517580941984
 31
0.0
  0
LINE
  5
4EF
330
18
100
AcDbEntity
  8
1
 62
     1
100
AcDbLine
 10
45.0
 20
-8.058517580941984
 30
0.0
 11
45.0
 21
-6.232736632596285
 31
0.0
  0
ARC
  5
4F0
330
18
100
AcDbEntity
  8
1
 62
     1
100
AcDbCircle
 10
94.92990865761446
 20
16.85358881278337
 30
0.0
 40
55.91811096684059
100
AcDbArc
 50
204.3845981562225
 51
205.5288638923897
  0
LINE
  5
4F1
330
18
100
AcDbEntity
  8
1
 62
     1
100
AcDbLine
 10
44.47113247308103
 20
-9.000000000000007
 30
0.0
 11
44.0
 21
-8.183975
 31
0.0
  0
LINE
  5
4F2
330
18
100
AcDbEntity
  8
1
 62
     1
100
AcDbLine
 10
44.47113247308103
 20
-7.245223061040082
 30
0.0
 11
44.47113247308103
 21
-9.0
 31
0.0
  0
ARC
  5
4F3
330
18
100
AcDbEntity
  8
1
 62
     1
100
AcDbCircle
 10
-8.541004945766304
 20
17.60361546168556
 30
0.0
 40
57.69519243700728
100
AcDbArc
 50
334.4885418029284
 51
335.5975624947237
  0
LINE
  5
4F4
330
18
100
AcDbEntity
  8
1
 62
     1
100
AcDbLine
 10
43.52886752691897
 20
-7.245223061040082
 30
0.0
 11
43.52886752691897
 21
-9.0
 31
0.0
  0
LINE
  5
4F5
330
18
100
AcDbEntity
  8
1
 62
     1
100
AcDbLine
 10
44.0
 20
-8.183975
 30
0.0
 11
43.52886752691897
 21
-8.999999999999995
 31
0.0
  0
LINE
  5
4F6
330
18
100
AcDbEntity
  8
1
 62
     1
100
AcDbLine
 10
44.0
 20
-8.183975
 30
0.0
 11
44.0
 21
-8.183566052240907
 31
0.0
  0
LINE
  5
4F7
330
18
100
AcDbEntity
  8
1
 62
     1
100
AcDbLine
 10
44.0
 20
-8.183566052240907
 30
0.0
 11
44.0
 21
-8.058517580941984
 31
0.0
  0
LINE
  5
4F8
330
18
100
AcDbEntity
  8
1
 62
     1
100
AcDbLine
 10
44.0
 20
-8.058517580941984
 30
0.0
 11
44.0
 21
-6.232736632596285
 31
0.0
  0
ARC
  5
4F9
330
18
100
AcDbEntity
  8
1
 62
     1
100
AcDbCircle
 10
93.92990865729507
 20
16.85358881263612
 30
0.0
 40
55.91811096648892
100
AcDbArc
 50
204.3845981562201
 51
205.5288638923946
  0
LINE
  5
4FA
330
18
100
AcDbEntity
  8
1
 62
     1
100
AcDbLine
 10
43.47113247308103
 20
-7.245223061040082
 30
0.0
 11
43.47113247308103
 21
-9.0
 31
0.0
  0
ARC
  5
4FB
330
18
100
AcDbEntity
  8
1
 62
     1
100
AcDbCircle
 10
-9.54100494566218
 20
17.60361546163657
 30
0.0
 40
57.69519243689221
100
AcDbArc
 50
334.4885418029278
 51
335.5975624947253
  0
LINE
  5
4FC
330
18
100
AcDbEntity
  8
1
 62
     1
100
AcDbLine
 10
42.52886752691898
 20
-7.245223061040082
 30
0.0
 11
42.52886752691898
 21
-9.0
 31
0.0
  0
LINE
  5
4FD
330
18
100
AcDbEntity
  8
1
 62
     1
100
AcDbLine
 10
43.0
 20
-8.183975
 30
0.0
 11
42.52886752691898
 21
-8.999999999999982
 31
0.0
  0
LINE
  5
4FE
330
18
100
AcDbEntity
  8
1
 62
     1
100
AcDbLine
 10
43.0
 20
-8.183975
 30
0.0
 11
43.0
 21
-8.183566052240907
 31
0.0
  0
LINE
  5
4FF
330
18
100
AcDbEntity
  8
1
 62
     1
100
AcDbLine
 10
43.0
 20
-8.183566052240907
 30
0.0
 11
43.0
 21
-8.058517580941984
 31
0.0
  0
LINE
  5
500
330
18
100
AcDbEntity
  8
1
 62
     1
100
AcDbLine
 10
43.0
 20
-8.058517580941984
 30
0.0
 11
42.99999999999999
 21
-6.232736632596285
 31
0.0
  0
ARC
  5
501
330
18
100
AcDbEntity
  8
1
 62
     1
100
AcDbCircle
 10
-8.558928712570285
 20
16.68673702397619
 30
0.0
 40
55.51135427443124
100
AcDbArc
 50
334.7253976419038
 51
335.6141685173037
  0
LINE
  5
502
330
18
100
AcDbEntity
  8
1
 62
     1
100
AcDbLine
 10
41.63843325746406
 20
-7.014230006731542
 30
0.0
 11
41.63843325746406
 21
-8.81022667640936
 31
0.0
  0
ARC
  5
503
330
18
100
AcDbEntity
  8
1
 62
     1
100
AcDbCircle
 10
92.92990865751993
 20
16.85358881273931
 30
0.0
 40
55.91811096673631
100
AcDbArc
 50
204.3845981562214
 51
205.5288638923907
  0
LINE
  5
504
330
18
100
AcDbEntity
  8
1
 62
     1
100
AcDbLine
 10
42.0
 20
-8.183975
 30
0.0
 11
41.99999999999999
 21
-8.183566052240907
 31
0.0
  0
LINE
  5
505
330
18
100
AcDbEntity
  8
1
 62
     1
100
AcDbLine
 10
41.99999999999999
 20
-8.183566052240907
 30
0.0
 11
42.0
 21
-8.058517580941984
 31
0.0
  0
LINE
  5
506
330
18
100
AcDbEntity
  8
1
 62
     1
100
AcDbLine
 10
42.0
 20
-8.058517580941984
 30
0.0
 11
42.0
 21
-6.232736632596285
 31
0.0
  0
LINE
  5
507
330
18
100
AcDbEntity
  8
1
 62
     1
100
AcDbLine
 10
42.47113247308103
 20
-8.999999999999996
 30
0.0
 11
42.0
 21
-8.183975
 31
0.0
  0
LINE
  5
508
330
18
100
AcDbEntity
  8
1
 62
     1
100
AcDbLine
 10
42.47113247308103
 20
-7.245223061040082
 30
0.0
 11
42.47113247308103
 21
-9.0
 31
0.0
  0
ARC
  5
509
330
18
100
AcDbEntity
  8
1
 62
     1
100
AcDbCircle
 10
-5.541004945535164
 20
17.60361546157725
 30
0.0
 40
57.69519243675203
100
AcDbArc
 50
334.4885418029266
 51
335.5975624947268
  0
LINE
  5
50A
330
18
100
AcDbEntity
  8
1
 62
     1
100
AcDbLine
 10
46.52886752691897
 20
-7.245223061040082
 30
0.0
 11
46.52886752691897
 21
-9.0
 31
0.0
  0
LINE
  5
50B
330
18
100
AcDbEntity
  8
1
 62
     1
100
AcDbLine
 10
47.0
 20
-8.183975
 30
0.0
 11
46.52886752691897
 21
-8.999999999999995
 31
0.0
  0
LINE
  5
50C
330
18
100
AcDbEntity
  8
1
 62
     1
100
AcDbLine
 10
47.0
 20
-8.183975
 30
0.0
 11
47.0
 21
-8.183566052240907
 31
0.0
  0
LINE
  5
50D
330
18
100
AcDbEntity
  8
1
 62
     1
100
AcDbLine
 10
47.0
 20
-8.183566052240907
 30
0.0
 11
47.00000000000001
 21
-8.058517580941984
 31
0.0
  0
LINE
  5
50E
330
18
100
AcDbEntity
  8
1
 62
     1
100
AcDbLine
 10
47.00000000000001
 20
-8.058517580941984
 30
0.0
 11
47.0
 21
-6.232736632596285
 31
0.0
  0
LINE
  5
50F
330
18
100
AcDbEntity
  8
1
 62
     1
100
AcDbLine
 10
47.52886752691899
 20
-7.245223061040083
 30
0.0
 11
47.47113247308105
 21
-7.245223061040083
 31
0.0
  0
LINE
  5
510
330
18
100
AcDbEntity
  8
1
 62
     1
100
AcDbLine
 10
48.52886752691899
 20
-7.245223061040083
 30
0.0
 11
48.47113247308103
 21
-7.245223061040083
 31
0.0
  0
LINE
  5
511
330
18
100
AcDbEntity
  8
1
 62
     1
100
AcDbLine
 10
52.528867526919
 20
-7.245223061040083
 30
0.0
 11
52.47113247308106
 21
-7.245223061040083
 31
0.0
  0
LINE
  5
512
330
18
100
AcDbEntity
  8
1
 62
     1
100
AcDbLine
 10
61.517
 20
-1.385473731282305
 30
0.0
 11
61.47113247308101
 21
-1.385473731282304
 31
0.0
  0
LINE
  5
513
330
18
100
AcDbEntity
  8
1
 62
     1
100
AcDbLine
 10
58.52886752691899
 20
-1.385473731282305
 30
0.0
 11
58.471132473081
 21
-1.385473731282304
 31
0.0
  0
LINE
  5
514
330
18
100
AcDbEntity
  8
1
 62
     1
100
AcDbLine
 10
55.52886752691897
 20
-1.385473731282305
 30
0.0
 11
55.47113247308104
 21
-1.385473731282305
 31
0.0
  0
LINE
  5
515
330
18
100
AcDbEntity
  8
1
 62
     1
100
AcDbLine
 10
48.52886752691899
 20
-1.385473731282305
 30
0.0
 11
48.47113247308103
 21
-1.385473731282305
 31
0.0
  0
LINE
  5
516
330
18
100
AcDbEntity
  8
1
 62
     1
100
AcDbLine
 10
64.0
 20
5.303813804171233
 30
0.0
 11
64.24943477227333
 21
5.322758358862797
 31
0.0
  0
LINE
  5
517
330
18
100
AcDbEntity
  8
1
 62
     1
100
AcDbLine
 10
64.0
 20
-1.100459951800786
 30
0.0
 11
64.0
 21
5.303813804171232
 31
0.0
  0
LINE
  5
518
330
18
100
AcDbEntity
  8
1
 62
     1
100
AcDbLine
 10
64.0
 20
-1.10045995180079
 30
0.0
 11
64.24943477227333
 21
-1.251500736557212
 31
0.0
  0
LINE
  5
519
330
18
100
AcDbEntity
  8
1
 62
     1
100
AcDbLine
 10
64.24943477227333
 20
5.322758358862798
 30
0.0
 11
64.24943477227333
 21
-1.251500736557235
 31
0.0
  0
LINE
  5
51A
330
18
100
AcDbEntity
  8
1
 62
     1
100
AcDbLine
 10
63.70651512296423
 20
5.326048425178115
 30
0.0
 11
64.0
 21
5.303813804171233
 31
0.0
  0
LINE
  5
51B
330
18
100
AcDbEntity
  8
1
 62
     1
100
AcDbLine
 10
63.70651512296425
 20
5.326048425178118
 30
0.0
 11
63.70651512296425
 21
-1.278139572880133
 31
0.0
  0
LINE
  5
51C
330
18
100
AcDbEntity
  8
1
 62
     1
100
AcDbLine
 10
63.70651512296423
 20
-1.278139571843814
 30
0.0
 11
64.0
 21
-1.10045995180079
 31
0.0
  0
LINE
  5
51D
330
18
100
AcDbEntity
  8
1
 62
     1
100
AcDbLine
 10
63.00000000000001
 20
5.303813804171233
 30
0.0
 11
63.32448140705628
 21
5.328354518970791
 31
0.0
  0
LINE
  5
51E
330
18
100
AcDbEntity
  8
1
 62
     1
100
AcDbLine
 10
63.00000000000001
 20
-1.100459951800786
 30
0.0
 11
63.00000000000001
 21
5.303813804171232
 31
0.0
  0
LINE
  5
51F
330
18
100
AcDbEntity
  8
1
 62
     1
100
AcDbLine
 10
63.0
 20
-1.10045995180079
 30
0.0
 11
63.32448140705627
 21
-1.296878533069219
 31
0.0
  0
LINE
  5
520
330
18
100
AcDbEntity
  8
1
 62
     1
100
AcDbLine
 10
63.32448140705629
 20
5.328354518970785
 30
0.0
 11
63.32448140705627
 21
-1.296878534400337
 31
0.0
  0
LINE
  5
521
330
18
100
AcDbEntity
  8
1
 62
     1
100
AcDbLine
 10
65.88311481819102
 20
8.304230319705955
 30
0.0
 11
65.1743881383947
 21
8.399877418919932
 31
0.0
  0
LINE
  5
522
330
18
100
AcDbEntity
  8
1
 62
     1
100
AcDbLine
 10
65.17438813749041
 20
8.486023973540272
 30
0.0
 11
65.883114818191
 21
8.386425979152278
 31
0.0
  0
LINE
  5
523
330
18
100
AcDbEntity
  8
1
 62
     1
100
AcDbLine
 10
64.79481497131422
 20
8.451082827070778
 30
0.0
 11
64.24943477227333
 21
8.524631859043467
 31
0.0
  0
LINE
  5
524
330
18
100
AcDbEntity
  8
1
 62
     1
100
AcDbLine
 10
64.24943477227333
 20
8.616008497316038
 30
0.0
 11
64.79481497057762
 21
8.539365730211042
 31
0.0
  0
LINE
  5
525
330
18
100
AcDbEntity
  8
1
 62
     1
100
AcDbLine
 10
63.70651512371451
 20
8.59782146238918
 30
0.0
 11
63.32448140802592
 21
8.649306336658846
 31
0.0
  0
LINE
  5
526
330
18
100
AcDbEntity
  8
1
 62
     1
100
AcDbLine
 10
63.32448140705628
 20
8.7459930210918
 30
0.0
 11
63.70651512296423
 21
8.692305481269802
 31
0.0
  0
LINE
  5
527
330
18
100
AcDbEntity
  8
1
 62
     1
100
AcDbLine
 10
62.61821527537288
 20
8.744452376981807
 30
0.0
 11
62.39952804186814
 21
8.773904483988957
 31
0.0
  0
LINE
  5
528
330
18
100
AcDbEntity
  8
1
 62
     1
100
AcDbLine
 10
61.52991542773776
 20
8.890981291718393
 30
0.0
 11
61.517
 21
8.89271963686738
 31
0.0
  0
LINE
  5
529
330
18
100
AcDbEntity
  8
1
 62
     1
100
AcDbLine
 10
61.517
 20
9.0
 30
0.0
 11
61.52991542773748
 21
8.998184983387326
 31
0.0
  0
LINE
  5
52A
330
18
100
AcDbEntity
  8
1
 62
     1
100
AcDbLine
 10
64.79481497057762
 20
5.319437681584668
 30
0.0
 11
65.0
 21
5.303813804171233
 31
0.0
  0
LINE
  5
52B
330
18
100
AcDbEntity
  8
1
 62
     1
100
AcDbLine
 10
64.79481497057762
 20
5.319437681584668
 30
0.0
 11
64.79481497057762
 21
-1.224731077408311
 31
0.0
  0
LINE
  5
52C
330
18
100
AcDbEntity
  8
1
 62
     1
100
AcDbLine
 10
64.79481497057762
 20
-1.22473107632895
 30
0.0
 11
65.0
 21
-1.10045995180079
 31
0.0
  0
LINE
  5
52D
330
18
100
AcDbEntity
  8
1
 62
     1
100
AcDbLine
 10
65.0
 20
5.303813804171233
 30
0.0
 11
65.17438813749041
 21
5.317116923135753
 31
0.0
  0
LINE
  5
52E
330
18
100
AcDbEntity
  8
1
 62
     1
100
AcDbLine
 10
65.0
 20
-1.100459951800786
 30
0.0
 11
65.0
 21
5.303813804171232
 31
0.0
  0
LINE
  5
52F
330
18
100
AcDbEntity
  8
1
 62
     1
100
AcDbLine
 10
65.0
 20
-1.10045995180079
 30
0.0
 11
65.17438813749041
 21
-1.206093831511074
 31
0.0
  0
LINE
  5
530
330
18
100
AcDbEntity
  8
1
 62
     1
100
AcDbLine
 10
65.17438813749041
 20
5.317116923135753
 30
0.0
 11
65.17438813749041
 21
-1.206093832845126
 31
0.0
  0
LINE
  5
531
330
18
100
AcDbEntity
  8
1
 62
     1
100
AcDbLine
 10
65.883114818191
 20
5.312761598525531
 30
0.0
 11
66.0
 21
5.303813804171233
 31
0.0
  0
LINE
  5
532
330
18
100
AcDbEntity
  8
1
 62
     1
100
AcDbLine
 10
65.883114818191
 20
5.312761598525531
 30
0.0
 11
65.883114818191
 21
-1.171281136651909
 31
0.0
  0
LINE
  5
533
330
18
100
AcDbEntity
  8
1
 62
     1
100
AcDbLine
 10
65.883114818191
 20
-1.171281136651909
 30
0.0
 11
66.0
 21
-1.10045995180079
 31
0.0
  0
ARC
  5
534
330
18
100
AcDbEntity
  8
1
 62
     1
100
AcDbCircle
 10
59.25237526943502
 20
-114.852447917435
 30
0.0
 40
120.5119660402801
100
AcDbArc
 50
94.17862586088303
 51
94.40324941998061
  0
LINE
  5
535
330
18
100
AcDbEntity
  8
1
 62
     1
100
AcDbLine
 10
50.0
 20
-1.10045995180079
 30
0.0
 11
50.47113247308104
 21
-1.385473731282308
 31
0.0
  0
LINE
  5
536
330
18
100
AcDbEntity
  8
1
 62
     1
100
AcDbLine
 10
50.47113247308105
 20
5.339170609352444
 30
0.0
 11
50.47113247308103
 21
-1.385473731282317
 31
0.0
  0
ARC
  5
537
330
18
100
AcDbEntity
  8
1
 62
     1
100
AcDbCircle
 10
40.34300364604884
 20
-120.2465594241607
 30
0.0
 40
125.9212269256686
100
AcDbArc
 50
85.60162340506677
 51
85.81659769510837
  0
LINE
  5
538
330
18
100
AcDbEntity
  8
1
 62
     1
100
AcDbLine
 10
49.52886752691897
 20
5.339170609352451
 30
0.0
 11
49.52886752691899
 21
-1.385473731282317
 31
0.0
  0
LINE
  5
539
330
18
100
AcDbEntity
  8
1
 62
     1
100
AcDbLine
 10
49.52886752691897
 20
-1.385473731282303
 30
0.0
 11
50.0
 21
-1.10045995180079
 31
0.0
  0
LINE
  5
53A
330
18
100
AcDbEntity
  8
1
 62
     1
100
AcDbLine
 10
49.99999999999999
 20
-1.100459951800786
 30
0.0
 11
49.99999999999999
 21
5.303813804171232
 31
0.0
  0
ARC
  5
53B
330
18
100
AcDbEntity
  8
1
 62
     1
100
AcDbCircle
 10
58.25237526947398
 20
-114.8524479179547
 30
0.0
 40
120.5119660408013
100
AcDbArc
 50
94.17862586088349
 51
94.40324941998011
  0
LINE
  5
53C
330
18
100
AcDbEntity
  8
1
 62
     1
100
AcDbLine
 10
49.00000000000001
 20
-1.100459951800786
 30
0.0
 11
49.0
 21
5.303813804171232
 31
0.0
  0
LINE
  5
53D
330
18
100
AcDbEntity
  8
1
 62
     1
100
AcDbLine
 10
49.0
 20
-1.10045995180079
 30
0.0
 11
49.47113247308104
 21
-1.385473731282313
 31
0.0
  0
LINE
  5
53E
330
18
100
AcDbEntity
  8
1
 62
     1
100
AcDbLine
 10
49.47113247308105
 20
5.339170609352437
 30
0.0
 11
49.47113247308103
 21
-1.385473731282317
 31
0.0
  0
ARC
  5
53F
330
18
100
AcDbEntity
  8
1
 62
     1
100
AcDbCircle
 10
39.34300364596518
 20
-120.246559425284
 30
0.0
 40
125.9212269267951
100
AcDbArc
 50
85.60162340506803
 51
85.81659769510769
  0
LINE
  5
540
330
18
100
AcDbEntity
  8
1
 62
     1
100
AcDbLine
 10
48.52886752691898
 20
5.339170609352451
 30
0.0
 11
48.52886752691897
 21
-1.385473731282317
 31
0.0
  0
LINE
  5
541
330
18
100
AcDbEntity
  8
1
 62
     1
100
AcDbLine
 10
48.52886752691897
 20
-1.385473731282303
 30
0.0
 11
49.0
 21
-1.10045995180079
 31
0.0
  0
ARC
  5
542
330
18
100
AcDbEntity
  8
1
 62
     1
100
AcDbCircle
 10
57.25237526941365
 20
-114.8524479171556
 30
0.0
 40
120.5119660399999
100
AcDbArc
 50
94.17862586088258
 51
94.40324941998068
  0
LINE
  5
543
330
18
100
AcDbEntity
  8
1
 62
     1
100
AcDbLine
 10
48.0
 20
-1.100459951800786
 30
0.0
 11
47.99999999999999
 21
5.303813804171232
 31
0.0
  0
LINE
  5
544
330
18
100
AcDbEntity
  8
1
 62
     1
100
AcDbLine
 10
48.0
 20
-1.10045995180079
 30
0.0
 11
48.47113247308104
 21
-1.385473731282313
 31
0.0
  0
LINE
  5
545
330
18
100
AcDbEntity
  8
1
 62
     1
100
AcDbLine
 10
48.47113247308105
 20
5.339170609352437
 30
0.0
 11
48.47113247308103
 21
-1.385473731282317
 31
0.0
  0
ARC
  5
546
330
18
100
AcDbEntity
  8
1
 62
     1
100
AcDbCircle
 10
38.34300364589132
 20
-120.246559426264
 30
0.0
 40
125.9212269277778
100
AcDbArc
 50
85.60162340506871
 51
85.8165976951067
  0
LINE
  5
547
330
18
100
AcDbEntity
  8
1
 62
     1
100
AcDbLine
 10
47.52886752691899
 20
5.339170609352451
 30
0.0
 11
47.52886752691898
 21
-1.385473731282317
 31
0.0
  0
LINE
  5
548
330
18
100
AcDbEntity
  8
1
 62
     1
100
AcDbLine
 10
47.52886752691897
 20
-1.385473731282303
 30
0.0
 11
48.0
 21
-1.10045995180079
 31
0.0
  0
ARC
  5
549
330
18
100
AcDbEntity
  8
1
 62
     1
100
AcDbCircle
 10
52.34779950893159
 20
-120.1828695250396
 30
0.0
 40
125.8573567613278
100
AcDbArc
 50
85.60157665644682
 51
85.81618171326015
  0
LINE
  5
54A
330
18
100
AcDbEntity
  8
1
 62
     1
100
AcDbLine
 10
61.52991542773748
 20
5.339093848260726
 30
0.0
 11
61.52991542773748
 21
-1.384841025390916
 31
0.0
  0
LINE
  5
54B
330
18
100
AcDbEntity
  8
1
 62
     1
100
AcDbLine
 10
61.52991542773746
 20
-1.384841025390498
 30
0.0
 11
62.00000000000001
 21
-1.10045995180079
 31
0.0
  0
LINE
  5
54C
330
18
100
AcDbEntity
  8
1
 62
     1
100
AcDbLine
 10
62.0
 20
-1.100459951800786
 30
0.0
 11
62.00000000000001
 21
5.303813804171232
 31
0.0
  0
ARC
  5
54D
330
18
100
AcDbEntity
  8
1
 62
     1
100
AcDbCircle
 10
70.99248045445971
 20
-111.4286696138415
 30
0.0
 40
117.0783394316821
100
AcDbArc
 50
94.20900220938577
 51
94.40507717292888
  0
LINE
  5
54E
330
18
100
AcDbEntity
  8
1
 62
     1
100
AcDbLine
 10
62.00000000000001
 20
-1.10045995180079
 30
0.0
 11
62.3995280418392
 21
-1.342228552182943
 31
0.0
  0
LINE
  5
54F
330
18
100
AcDbEntity
  8
1
 62
     1
100
AcDbLine
 10
62.3995280418392
 20
5.3339083967228
 30
0.0
 11
62.39952804183921
 21
-1.342228552223679
 31
0.0
  0
ARC
  5
550
330
18
100
AcDbEntity
  8
1
 62
     1
100
AcDbCircle
 10
53.7493305531089
 20
-114.8615291436569
 30
0.0
 40
120.5208919195969
100
AcDbArc
 50
85.59789059408595
 51
85.77990674729571
  0
LINE
  5
551
330
18
100
AcDbEntity
  8
1
 62
     1
100
AcDbLine
 10
62.61821527535086
 20
5.332598958667441
 30
0.0
 11
62.61821527535086
 21
-1.331508861944229
 31
0.0
  0
LINE
  5
552
330
18
100
AcDbEntity
  8
1
 62
     1
100
AcDbLine
 10
62.61821527535086
 20
-1.33150886191312
 30
0.0
 11
63.0
 21
-1.10045995180079
 31
0.0
  0
ARC
  5
553
330
18
100
AcDbEntity
  8
1
 62
     1
100
AcDbCircle
 10
56.25237526952022
 20
-114.8524479185715
 30
0.0
 40
120.5119660414198
100
AcDbArc
 50
94.17862586088407
 51
94.40324941997952
  0
LINE
  5
554
330
18
100
AcDbEntity
  8
1
 62
     1
100
AcDbLine
 10
47.0
 20
-1.100459951800786
 30
0.0
 11
46.99999999999999
 21
5.303813804171232
 31
0.0
  0
LINE
  5
555
330
18
100
AcDbEntity
  8
1
 62
     1
100
AcDbLine
 10
47.0
 20
-1.10045995180079
 30
0.0
 11
47.47113247308103
 21
-1.385473731282308
 31
0.0
  0
LINE
  5
556
330
18
100
AcDbEntity
  8
1
 62
     1
100
AcDbLine
 10
47.47113247308104
 20
5.339170609352447
 30
0.0
 11
47.47113247308103
 21
-1.385473731282317
 31
0.0
  0
ARC
  5
557
330
18
100
AcDbEntity
  8
1
 62
     1
100
AcDbCircle
 10
41.3430036459431
 20
-120.2465594255672
 30
0.0
 40
125.9212269270791
100
AcDbArc
 50
85.60162340506788
 51
85.81659769510705
  0
LINE
  5
558
330
18
100
AcDbEntity
  8
1
 62
     1
100
AcDbLine
 10
50.52886752691902
 20
5.339170609352455
 30
0.0
 11
50.52886752691899
 21
-1.385473731282317
 31
0.0
  0
LINE
  5
559
330
18
100
AcDbEntity
  8
1
 62
     1
100
AcDbLine
 10
50.52886752691898
 20
-1.385473731282302
 30
0.0
 11
51.0
 21
-1.10045995180079
 31
0.0
  0
ARC
  5
55A
330
18
100
AcDbEntity
  8
1
 62
     1
100
AcDbCircle
 10
60.25237526958163
 20
-114.8524479193933
 30
0.0
 40
120.5119660422439
100
AcDbArc
 50
94.17862586088471
 51
94.40324941997866
  0
LINE
  5
55B
330
18
100
AcDbEntity
  8
1
 62
     1
100
AcDbLine
 10
51.0
 20
-1.100459951800786
 30
0.0
 11
50.99999999999999
 21
5.303813804171232
 31
0.0
  0
LINE
  5
55C
330
18
100
AcDbEntity
  8
1
 62
     1
100
AcDbLine
 10
51.0
 20
-1.10045995180079
 30
0.0
 11
51.47113247308105
 21
-1.385473731282308
 31
0.0
  0
LINE
  5
55D
330
18
100
AcDbEntity
  8
1
 62
     1
100
AcDbLine
 10
51.47113247308105
 20
5.339170609352444
 30
0.0
 11
51.47113247308103
 21
-1.385473731282317
 31
0.0
  0
ARC
  5
55E
330
18
100
AcDbEntity
  8
1
 62
     1
100
AcDbCircle
 10
42.34300364597922
 20
-120.2465594250875
 30
0.0
 40
125.921226926598
100
AcDbArc
 50
85.60162340506754
 51
85.81659769510753
  0
LINE
  5
55F
330
18
100
AcDbEntity
  8
1
 62
     1
100
AcDbLine
 10
51.52886752691898
 20
5.33917060935245
 30
0.0
 11
51.52886752691897
 21
-1.385473731282317
 31
0.0
  0
LINE
  5
560
330
18
100
AcDbEntity
  8
1
 62
     1
100
AcDbLine
 10
51.52886752691899
 20
-1.385473731282305
 30
0.0
 11
52.0
 21
-1.10045995180079
 31
0.0
  0
ARC
  5
561
330
18
100
AcDbEntity
  8
1
 62
     1
100
AcDbCircle
 10
61.25237526952957
 20
-114.8524479186917
 30
0.0
 40
120.5119660415404
100
AcDbArc
 50
94.17862586088432
 51
94.40324941997956
  0
LINE
  5
562
330
18
100
AcDbEntity
  8
1
 62
     1
100
AcDbLine
 10
51.99999999999999
 20
-1.100459951800786
 30
0.0
 11
52.0
 21
5.303813804171232
 31
0.0
  0
LINE
  5
563
330
18
100
AcDbEntity
  8
1
 62
     1
100
AcDbLine
 10
52.0
 20
-1.10045995180079
 30
0.0
 11
52.47113247308104
 21
-1.385473731282308
 31
0.0
  0
LINE
  5
564
330
18
100
AcDbEntity
  8
1
 62
     1
100
AcDbLine
 10
52.47113247308104
 20
5.339170609352444
 30
0.0
 11
52.47113247308104
 21
-1.385473731282317
 31
0.0
  0
ARC
  5
565
330
18
100
AcDbEntity
  8
1
 62
     1
100
AcDbCircle
 10
43.34300364603892
 20
-120.2465594242919
 30
0.0
 40
125.9212269258002
100
AcDbArc
 50
85.60162340506686
 51
85.81659769510823
  0
LINE
  5
566
330
18
100
AcDbEntity
  8
1
 62
     1
100
AcDbLine
 10
52.52886752691899
 20
5.339170609352451
 30
0.0
 11
52.52886752691899
 21
-1.385473731282317
 31
0.0
  0
LINE
  5
567
330
18
100
AcDbEntity
  8
1
 62
     1
100
AcDbLine
 10
52.52886752691897
 20
-1.385473731282303
 30
0.0
 11
53.0
 21
-1.10045995180079
 31
0.0
  0
LINE
  5
568
330
18
100
AcDbEntity
  8
1
 62
     1
100
AcDbLine
 10
53.0
 20
-1.100459951800786
 30
0.0
 11
53.0
 21
5.303813804171232
 31
0.0
  0
ARC
  5
569
330
18
100
AcDbEntity
  8
1
 62
     1
100
AcDbCircle
 10
62.25237526947777
 20
-114.8524479180113
 30
0.0
 40
120.511966040858
100
AcDbArc
 50
94.17862586088336
 51
94.40324941997984
  0
LINE
  5
56A
330
18
100
AcDbEntity
  8
1
 62
     1
100
AcDbLine
 10
53.0
 20
-1.10045995180079
 30
0.0
 11
53.47113247308104
 21
-1.385473731282308
 31
0.0
  0
LINE
  5
56B
330
18
100
AcDbEntity
  8
1
 62
     1
100
AcDbLine
 10
53.47113247308104
 20
5.339170609352444
 30
0.0
 11
53.47113247308103
 21
-1.385473731282317
 31
0.0
  0
ARC
  5
56C
330
18
100
AcDbEntity
  8
1
 62
     1
100
AcDbCircle
 10
44.3430036459563
 20
-120.2465594253972
 30
0.0
 40
125.9212269269086
100
AcDbArc
 50
85.60162340506797
 51
85.81659769510742
  0
LINE
  5
56D
330
18
100
AcDbEntity
  8
1
 62
     1
100
AcDbLine
 10
53.52886752691899
 20
5.339170609352451
 30
0.0
 11
53.52886752691898
 21
-1.385473731282317
 31
0.0
  0
LINE
  5
56E
330
18
100
AcDbEntity
  8
1
 62
     1
100
AcDbLine
 10
53.52886752691899
 20
-1.385473731282303
 30
0.0
 11
54.0
 21
-1.10045995180079
 31
0.0
  0
ARC
  5
56F
330
18
100
AcDbEntity
  8
1
 62
     1
100
AcDbCircle
 10
63.25237526945325
 20
-114.8524479176798
 30
0.0
 40
120.5119660405256
100
AcDbArc
 50
94.17862586088322
 51
94.40324941998034
  0
LINE
  5
570
330
18
100
AcDbEntity
  8
1
 62
     1
100
AcDbLine
 10
54.0
 20
-1.100459951800786
 30
0.0
 11
53.99999999999999
 21
5.303813804171232
 31
0.0
  0
LINE
  5
571
330
18
100
AcDbEntity
  8
1
 62
     1
100
AcDbLine
 10
54.0
 20
-1.10045995180079
 30
0.0
 11
54.47113247308104
 21
-1.385473731282308
 31
0.0
  0
LINE
  5
572
330
18
100
AcDbEntity
  8
1
 62
     1
100
AcDbLine
 10
54.47113247308104
 20
5.339170609352445
 30
0.0
 11
54.47113247308103
 21
-1.385473731282317
 31
0.0
  0
ARC
  5
573
330
18
100
AcDbEntity
  8
1
 62
     1
100
AcDbCircle
 10
45.3430036461872
 20
-120.2465594222995
 30
0.0
 40
125.9212269238023
100
AcDbArc
 50
85.60162340506461
 51
85.81659769510938
  0
LINE
  5
574
330
18
100
AcDbEntity
  8
1
 62
     1
100
AcDbLine
 10
54.52886752691902
 20
5.339170609352455
 30
0.0
 11
54.528867526919
 21
-1.385473731282317
 31
0.0
  0
LINE
  5
575
330
18
100
AcDbEntity
  8
1
 62
     1
100
AcDbLine
 10
54.52886752691898
 20
-1.385473731282302
 30
0.0
 11
55.0
 21
-1.10045995180079
 31
0.0
  0
ARC
  5
576
330
18
100
AcDbEntity
  8
1
 62
     1
100
AcDbCircle
 10
64.2523752694648
 20
-114.8524479178302
 30
0.0
 40
120.5119660406765
100
AcDbArc
 50
94.17862586088346
 51
94.4032494199803
  0
LINE
  5
577
330
18
100
AcDbEntity
  8
1
 62
     1
100
AcDbLine
 10
55.0
 20
-1.100459951800786
 30
0.0
 11
54.99999999999999
 21
5.303813804171232
 31
0.0
  0
LINE
  5
578
330
18
100
AcDbEntity
  8
1
 62
     1
100
AcDbLine
 10
55.0
 20
-1.10045995180079
 30
0.0
 11
55.47113247308103
 21
-1.385473731282308
 31
0.0
  0
LINE
  5
579
330
18
100
AcDbEntity
  8
1
 62
     1
100
AcDbLine
 10
55.47113247308104
 20
5.339170609352445
 30
0.0
 11
55.47113247308104
 21
-1.385473731282317
 31
0.0
  0
ARC
  5
57A
330
18
100
AcDbEntity
  8
1
 62
     1
100
AcDbCircle
 10
46.34300364608578
 20
-120.2465594236616
 30
0.0
 40
125.9212269251682
100
AcDbArc
 50
85.60162340506612
 51
85.81659769510857
  0
LINE
  5
57B
330
18
100
AcDbEntity
  8
1
 62
     1
100
AcDbLine
 10
55.52886752691897
 20
5.339170609352445
 30
0.0
 11
55.52886752691897
 21
-1.385473731282317
 31
0.0
  0
LINE
  5
57C
330
18
100
AcDbEntity
  8
1
 62
     1
100
AcDbLine
 10
55.52886752691897
 20
-1.385473731282308
 30
0.0
 11
56.0
 21
-1.10045995180079
 31
0.0
  0
LINE
  5
57D
330
18
100
AcDbEntity
  8
1
 62
     1
100
AcDbLine
 10
56.0
 20
-1.100459951800786
 30
0.0
 11
55.99999999999999
 21
5.303813804171232
 31
0.0
  0
ARC
  5
57E
330
18
100
AcDbEntity
  8
1
 62
     1
100
AcDbCircle
 10
65.2523752695389
 20
-114.8524479188185
 30
0.0
 40
120.5119660416675
100
AcDbArc
 50
94.17862586088437
 51
94.40324941997937
  0
LINE
  5
57F
330
18
100
AcDbEntity
  8
1
 62
     1
100
AcDbLine
 10
55.99999999999999
 20
-1.10045995180079
 30
0.0
 11
56.47113247308104
 21
-1.385473731282308
 31
0.0
  0
LINE
  5
580
330
18
100
AcDbEntity
  8
1
 62
     1
100
AcDbLine
 10
56.47113247308104
 20
5.339170609352445
 30
0.0
 11
56.47113247308104
 21
-1.385473731282317
 31
0.0
  0
ARC
  5
581
330
18
100
AcDbEntity
  8
1
 62
     1
100
AcDbCircle
 10
47.34300364617367
 20
-120.2465594224851
 30
0.0
 40
125.9212269239884
100
AcDbArc
 50
85.60162340506494
 51
85.8165976951094
  0
LINE
  5
582
330
18
100
AcDbEntity
  8
1
 62
     1
100
AcDbLine
 10
56.52886752691899
 20
5.33917060935245
 30
0.0
 11
56.52886752691899
 21
-1.385473731282317
 31
0.0
  0
LINE
  5
583
330
18
100
AcDbEntity
  8
1
 62
     1
100
AcDbLine
 10
56.52886752691899
 20
-1.385473731282305
 30
0.0
 11
57.0
 21
-1.10045995180079
 31
0.0
  0
ARC
  5
584
330
18
100
AcDbEntity
  8
1
 62
     1
100
AcDbCircle
 10
70.2523752695598
 20
-114.8524479190957
 30
0.0
 40
120.5119660419455
100
AcDbArc
 50
94.1786258608847
 51
94.40324941997918
  0
LINE
  5
585
330
18
100
AcDbEntity
  8
1
 62
     1
100
AcDbLine
 10
60.99999999999999
 20
-1.100459951800786
 30
0.0
 11
60.99999999999999
 21
5.303813804171232
 31
0.0
  0
LINE
  5
586
330
18
100
AcDbEntity
  8
1
 62
     1
100
AcDbLine
 10
61.0
 20
-1.10045995180079
 30
0.0
 11
61.47113247308103
 21
-1.385473731282305
 31
0.0
  0
LINE
  5
587
330
18
100
AcDbEntity
  8
1
 62
     1
100
AcDbLine
 10
61.47113247308102
 20
5.339170609352449
 30
0.0
 11
61.47113247308101
 21
-1.385473731282317
 31
0.0
  0
LINE
  5
588
330
18
100
AcDbEntity
  8
1
 62
     1
100
AcDbLine
 10
61.517
 20
9.0
 30
0.0
 11
61.517
 21
8.999975239668396
 31
0.0
  0
LINE
  5
589
330
18
100
AcDbEntity
  8
1
 62
     1
100
AcDbLine
 10
61.517
 20
8.999975239668396
 30
0.0
 11
61.51700000000001
 21
8.992734634749393
 31
0.0
  0
LINE
  5
58A
330
18
100
AcDbEntity
  8
1
 62
     1
100
AcDbLine
 10
61.51700000000001
 20
8.992734634749393
 30
0.0
 11
61.517
 21
8.892719636867382
 31
0.0
  0
LINE
  5
58B
330
18
100
AcDbEntity
  8
1
 62
     1
100
AcDbLine
 10
60.52886752691897
 20
8.89271963686738
 30
0.0
 11
60.471132473081
 21
8.89271963686738
 31
0.0
  0
LINE
  5
58C
330
18
100
AcDbEntity
  8
1
 62
     1
100
AcDbLine
 10
59.52886752691896
 20
8.89271963686738
 30
0.0
 11
59.47113247308105
 21
8.89271963686738
 31
0.0
  0
LINE
  5
58D
330
18
100
AcDbEntity
  8
1
 62
     1
100
AcDbLine
 10
59.47113247308104
 20
9.0
 30
0.0
 11
59.52886752691898
 21
9.0
 31
0.0
  0
LINE
  5
58E
330
18
100
AcDbEntity
  8
1
 62
     1
100
AcDbLine
 10
58.52886752691897
 20
8.89271963686738
 30
0.0
 11
58.47113247308099
 21
8.89271963686738
 31
0.0
  0
LINE
  5
58F
330
18
100
AcDbEntity
  8
1
 62
     1
100
AcDbLine
 10
58.47113247308101
 20
9.0
 30
0.0
 11
58.52886752691899
 21
9.0
 31
0.0
  0
LINE
  5
590
330
18
100
AcDbEntity
  8
1
 62
     1
100
AcDbLine
 10
57.52886752691898
 20
8.89271963686738
 30
0.0
 11
57.47113247308105
 21
8.89271963686738
 31
0.0
  0
LINE
  5
591
330
18
100
AcDbEntity
  8
1
 62
     1
100
AcDbLine
 10
56.528867526919
 20
8.89271963686738
 30
0.0
 11
56.47113247308107
 21
8.892719636867385
 31
0.0
  0
LINE
  5
592
330
18
100
AcDbEntity
  8
1
 62
     1
100
AcDbLine
 10
54.528867526919
 20
8.89271963686738
 30
0.0
 11
54.47113247308105
 21
8.892719636867374
 31
0.0
  0
LINE
  5
593
330
18
100
AcDbEntity
  8
1
 62
     1
100
AcDbLine
 10
53.52886752691899
 20
8.89271963686738
 30
0.0
 11
53.47113247308104
 21
8.89271963686738
 31
0.0
  0
LINE
  5
594
330
18
100
AcDbEntity
  8
1
 62
     1
100
AcDbLine
 10
53.47113247308104
 20
9.0
 30
0.0
 11
53.52886752691899
 21
9.0
 31
0.0
  0
LINE
  5
595
330
18
100
AcDbEntity
  8
1
 62
     1
100
AcDbLine
 10
52.52886752691902
 20
8.89271963686738
 30
0.0
 11
52.47113247308106
 21
8.89271963686738
 31
0.0
  0
LINE
  5
596
330
18
100
AcDbEntity
  8
1
 62
     1
100
AcDbLine
 10
52.47113247308104
 20
9.0
 30
0.0
 11
52.528867526919
 21
9.0
 31
0.0
  0
LINE
  5
597
330
18
100
AcDbEntity
  8
1
 62
     1
100
AcDbLine
 10
49.52886752691899
 20
8.89271963686738
 30
0.0
 11
49.47113247308105
 21
8.892719636867385
 31
0.0
  0
LINE
  5
598
330
18
100
AcDbEntity
  8
1
 62
     1
100
AcDbLine
 10
48.52886752691899
 20
8.89271963686738
 30
0.0
 11
48.47113247308103
 21
8.892719636867374
 31
0.0
  0
LINE
  5
599
330
18
100
AcDbEntity
  8
1
 62
     1
100
AcDbLine
 10
47.52886752691899
 20
8.89271963686738
 30
0.0
 11
47.47113247308103
 21
8.89271963686738
 31
0.0
  0
LINE
  5
59A
330
18
100
AcDbEntity
  8
1
 62
     1
100
AcDbLine
 10
46.52886752691897
 20
8.89271963686738
 30
0.0
 11
46.47113247308103
 21
8.89271963686738
 31
0.0
  0
LINE
  5
59B
330
18
100
AcDbEntity
  8
1
 62
     1
100
AcDbLine
 10
45.52886752691897
 20
8.89271963686738
 30
0.0
 11
45.47113247308102
 21
8.89271963686738
 31
0.0
  0
LINE
  5
59C
330
18
100
AcDbEntity
  8
1
 62
     1
100
AcDbLine
 10
43.52886752691897
 20
8.89271963686738
 30
0.0
 11
43.47113247308101
 21
8.89271963686738
 31
0.0
  0
LINE
  5
59D
330
18
100
AcDbEntity
  8
1
 62
     1
100
AcDbLine
 10
42.52886752691898
 20
8.89271963686738
 30
0.0
 11
42.47113247308104
 21
8.89271963686738
 31
0.0
  0
ARC
  5
59E
330
18
100
AcDbEntity
  8
1
 62
     1
100
AcDbCircle
 10
51.34300364600232
 20
-120.2465594247753
 30
0.0
 40
125.921226926285
100
AcDbArc
 50
85.60162340506713
 51
85.81659769510766
  0
LINE
  5
59F
330
18
100
AcDbEntity
  8
1
 62
     1
100
AcDbLine
 10
60.52886752691897
 20
5.339170609352449
 30
0.0
 11
60.52886752691897
 21
-1.385473731282317
 31
0.0
  0
LINE
  5
5A0
330
18
100
AcDbEntity
  8
1
 62
     1
100
AcDbLine
 10
60.52886752691899
 20
-1.385473731282305
 30
0.0
 11
61.0
 21
-1.10045995180079
 31
0.0
  0
ARC
  5
5A1
330
18
100
AcDbEntity
  8
1
 62
     1
100
AcDbCircle
 10
69.25237526944753
 20
-114.8524479176058
 30
0.0
 40
120.5119660404514
100
AcDbArc
 50
94.17862586088305
 51
94.4032494199803
  0
LINE
  5
5A2
330
18
100
AcDbEntity
  8
1
 62
     1
100
AcDbLine
 10
60.0
 20
-1.10045995180079
 30
0.0
 11
60.47113247308103
 21
-1.385473731282305
 31
0.0
  0
LINE
  5
5A3
330
18
100
AcDbEntity
  8
1
 62
     1
100
AcDbLine
 10
60.47113247308102
 20
5.339170609352449
 30
0.0
 11
60.47113247308102
 21
-1.385473731282317
 31
0.0
  0
ARC
  5
5A4
330
18
100
AcDbEntity
  8
1
 62
     1
100
AcDbCircle
 10
50.34300364595579
 20
-120.2465594254081
 30
0.0
 40
125.9212269269195
100
AcDbArc
 50
85.60162340506811
 51
85.81659769510756
  0
LINE
  5
5A5
330
18
100
AcDbEntity
  8
1
 62
     1
100
AcDbLine
 10
59.52886752691897
 20
5.339170609352449
 30
0.0
 11
59.52886752691897
 21
-1.385473731282317
 31
0.0
  0
LINE
  5
5A6
330
18
100
AcDbEntity
  8
1
 62
     1
100
AcDbLine
 10
59.52886752691897
 20
-1.385473731282305
 30
0.0
 11
60.0
 21
-1.10045995180079
 31
0.0
  0
LINE
  5
5A7
330
18
100
AcDbEntity
  8
1
 62
     1
100
AcDbLine
 10
59.99999999999999
 20
-1.100459951800786
 30
0.0
 11
59.99999999999999
 21
5.303813804171232
 31
0.0
  0
ARC
  5
5A8
330
18
100
AcDbEntity
  8
1
 62
     1
100
AcDbCircle
 10
68.25237526946148
 20
-114.8524479177839
 30
0.0
 40
120.5119660406301
100
AcDbArc
 50
94.17862586088347
 51
94.40324941998041
  0
LINE
  5
5A9
330
18
100
AcDbEntity
  8
1
 62
     1
100
AcDbLine
 10
59.0
 20
-1.100459951800786
 30
0.0
 11
59.0
 21
5.303813804171232
 31
0.0
  0
LINE
  5
5AA
330
18
100
AcDbEntity
  8
1
 62
     1
100
AcDbLine
 10
59.0
 20
-1.10045995180079
 30
0.0
 11
59.47113247308104
 21
-1.385473731282314
 31
0.0
  0
LINE
  5
5AB
330
18
100
AcDbEntity
  8
1
 62
     1
100
AcDbLine
 10
59.47113247308104
 20
5.33917060935245
 30
0.0
 11
59.47113247308104
 21
-1.385473731282317
 31
0.0
  0
ARC
  5
5AC
330
18
100
AcDbEntity
  8
1
 62
     1
100
AcDbCircle
 10
49.3430036461263
 20
-120.2465594231336
 30
0.0
 40
125.9212269246387
100
AcDbArc
 50
85.60162340506608
 51
85.81659769510942
  0
LINE
  5
5AD
330
18
100
AcDbEntity
  8
1
 62
     1
100
AcDbLine
 10
58.52886752691899
 20
5.339170609352449
 30
0.0
 11
58.52886752691899
 21
-1.385473731282317
 31
0.0
  0
LINE
  5
5AE
330
18
100
AcDbEntity
  8
1
 62
     1
100
AcDbLine
 10
58.52886752691898
 20
-1.385473731282303
 30
0.0
 11
59.0
 21
-1.10045995180079
 31
0.0
  0
ARC
  5
5AF
330
18
100
AcDbEntity
  8
1
 62
     1
100
AcDbCircle
 10
67.25237526954159
 20
-114.8524479188522
 30
0.0
 40
120.5119660417014
100
AcDbArc
 50
94.1786258608845
 51
94.4032494199794
  0
LINE
  5
5B0
330
18
100
AcDbEntity
  8
1
 62
     1
100
AcDbLine
 10
58.0
 20
-1.100459951800786
 30
0.0
 11
57.99999999999999
 21
5.303813804171232
 31
0.0
  0
LINE
  5
5B1
330
18
100
AcDbEntity
  8
1
 62
     1
100
AcDbLine
 10
58.0
 20
-1.10045995180079
 30
0.0
 11
58.47113247308103
 21
-1.385473731282305
 31
0.0
  0
LINE
  5
5B2
330
18
100
AcDbEntity
  8
1
 62
     1
100
AcDbLine
 10
58.47113247308101
 20
5.33917060935245
 30
0.0
 11
58.471132473081
 21
-1.385473731282317
 31
0.0
  0
ARC
  5
5B3
330
18
100
AcDbEntity
  8
1
 62
     1
100
AcDbCircle
 10
48.3430036460117
 20
-120.2465594246571
 30
0.0
 40
125.9212269261664
100
AcDbArc
 50
85.60162340506724
 51
85.81659769510799
  0
LINE
  5
5B4
330
18
100
AcDbEntity
  8
1
 62
     1
100
AcDbLine
 10
57.52886752691899
 20
5.339170609352449
 30
0.0
 11
57.52886752691898
 21
-1.385473731282317
 31
0.0
  0
LINE
  5
5B5
330
18
100
AcDbEntity
  8
1
 62
     1
100
AcDbLine
 10
57.52886752691899
 20
-1.385473731282305
 30
0.0
 11
58.0
 21
-1.10045995180079
 31
0.0
  0
ARC
  5
5B6
330
18
100
AcDbEntity
  8
1
 62
     1
100
AcDbCircle
 10
66.25237526941856
 20
-114.8524479172201
 30
0.0
 40
120.5119660400646
100
AcDbArc
 50
94.17862586088265
 51
94.40324941998064
  0
LINE
  5
5B7
330
18
100
AcDbEntity
  8
1
 62
     1
100
AcDbLine
 10
57.00000000000001
 20
-1.100459951800786
 30
0.0
 11
56.99999999999999
 21
5.303813804171232
 31
0.0
  0
LINE
  5
5B8
330
18
100
AcDbEntity
  8
1
 62
     1
100
AcDbLine
 10
57.0
 20
-1.10045995180079
 30
0.0
 11
57.47113247308106
 21
-1.385473731282316
 31
0.0
  0
LINE
  5
5B9
330
18
100
AcDbEntity
  8
1
 62
     1
100
AcDbLine
 10
57.47113247308106
 20
5.339170609352449
 30
0.0
 11
57.47113247308105
 21
-1.385473731282317
 31
0.0
  0
ARC
  5
5BA
330
18
100
AcDbEntity
  8
1
 62
     1
100
AcDbCircle
 10
37.34300364589132
 20
-120.246559426264
 30
0.0
 40
125.9212269277778
100
AcDbArc
 50
85.60162340506871
 51
85.8165976951067
  0
LINE
  5
5BB
330
18
100
AcDbEntity
  8
1
 62
     1
100
AcDbLine
 10
46.52886752691897
 20
5.33917060935245
 30
0.0
 11
46.52886752691897
 21
-1.385473731282317
 31
0.0
  0
LINE
  5
5BC
330
18
100
AcDbEntity
  8
1
 62
     1
100
AcDbLine
 10
46.52886752691897
 20
-1.385473731282305
 30
0.0
 11
47.0
 21
-1.10045995180079
 31
0.0
  0
ARC
  5
5BD
330
18
100
AcDbEntity
  8
1
 62
     1
100
AcDbCircle
 10
51.25237526940051
 20
-114.852447916979
 30
0.0
 40
120.5119660398228
100
AcDbArc
 50
94.17862586088248
 51
94.4032494199809
  0
LINE
  5
5BE
330
18
100
AcDbEntity
  8
1
 62
     1
100
AcDbLine
 10
42.0
 20
-1.10045995180079
 30
0.0
 11
42.47113247308103
 21
-1.385473731282305
 31
0.0
  0
LINE
  5
5BF
330
18
100
AcDbEntity
  8
1
 62
     1
100
AcDbLine
 10
42.47113247308103
 20
5.339170609352449
 30
0.0
 11
42.47113247308103
 21
-1.385473731282317
 31
0.0
  0
ARC
  5
5C0
330
18
100
AcDbEntity
  8
1
 62
     1
100
AcDbCircle
 10
32.84084434608259
 20
-113.6517997436388
 30
0.0
 40
119.3077066093222
100
AcDbArc
 50
85.59711748744775
 51
85.77124858858092
  0
LINE
  5
5C1
330
18
100
AcDbEntity
  8
1
 62
     1
100
AcDbLine
 10
41.63843325746407
 20
5.331104154148731
 30
0.0
 11
41.63843325746405
 21
-1.319292266068403
 31
0.0
  0
LINE
  5
5C2
330
18
100
AcDbEntity
  8
1
 62
     1
100
AcDbLine
 10
41.63843325746407
 20
-1.319292266068409
 30
0.0
 11
42.0
 21
-1.10045995180079
 31
0.0
  0
LINE
  5
5C3
330
18
100
AcDbEntity
  8
1
 62
     1
100
AcDbLine
 10
42.0
 20
-1.100459951800786
 30
0.0
 11
41.99999999999999
 21
5.303813804171232
 31
0.0
  0
ARC
  5
5C4
330
18
100
AcDbEntity
  8
1
 62
     1
100
AcDbCircle
 10
52.25237526957201
 20
-114.8524479192586
 30
0.0
 40
120.5119660421088
100
AcDbArc
 50
94.17862586088484
 51
94.403249419979
  0
LINE
  5
5C5
330
18
100
AcDbEntity
  8
1
 62
     1
100
AcDbLine
 10
43.0
 20
-1.10045995180079
 30
0.0
 11
43.47113247308103
 21
-1.385473731282305
 31
0.0
  0
LINE
  5
5C6
330
18
100
AcDbEntity
  8
1
 62
     1
100
AcDbLine
 10
43.47113247308103
 20
5.339170609352449
 30
0.0
 11
43.47113247308103
 21
-1.385473731282317
 31
0.0
  0
ARC
  5
5C7
330
18
100
AcDbEntity
  8
1
 62
     1
100
AcDbCircle
 10
34.3430036459835
 20
-120.246559425038
 30
0.0
 40
125.9212269265484
100
AcDbArc
 50
85.60162340506776
 51
85.81659769510782
  0
LINE
  5
5C8
330
18
100
AcDbEntity
  8
1
 62
     1
100
AcDbLine
 10
43.52886752691897
 20
5.339170609352449
 30
0.0
 11
43.52886752691897
 21
-1.385473731282317
 31
0.0
  0
LINE
  5
5C9
330
18
100
AcDbEntity
  8
1
 62
     1
100
AcDbLine
 10
43.52886752691897
 20
-1.385473731282305
 30
0.0
 11
44.0
 21
-1.10045995180079
 31
0.0
  0
LINE
  5
5CA
330
18
100
AcDbEntity
  8
1
 62
     1
100
AcDbLine
 10
43.99999999999999
 20
-1.100459951800786
 30
0.0
 11
43.99999999999999
 21
5.303813804171232
 31
0.0
  0
ARC
  5
5CB
330
18
100
AcDbEntity
  8
1
 62
     1
100
AcDbCircle
 10
53.25237526948157
 20
-114.852447918053
 30
0.0
 40
120.5119660408999
100
AcDbArc
 50
94.17862586088368
 51
94.40324941998011
  0
LINE
  5
5CC
330
18
100
AcDbEntity
  8
1
 62
     1
100
AcDbLine
 10
44.0
 20
-1.10045995180079
 30
0.0
 11
44.47113247308103
 21
-1.385473731282308
 31
0.0
  0
LINE
  5
5CD
330
18
100
AcDbEntity
  8
1
 62
     1
100
AcDbLine
 10
44.47113247308103
 20
5.339170609352449
 30
0.0
 11
44.47113247308103
 21
-1.385473731282317
 31
0.0
  0
ARC
  5
5CE
330
18
100
AcDbEntity
  8
1
 62
     1
100
AcDbCircle
 10
35.34300364599291
 20
-120.2465594249067
 30
0.0
 40
125.9212269264167
100
AcDbArc
 50
85.60162340506743
 51
85.81659769510776
  0
LINE
  5
5CF
330
18
100
AcDbEntity
  8
1
 62
     1
100
AcDbLine
 10
44.52886752691897
 20
5.339170609352449
 30
0.0
 11
44.52886752691897
 21
-1.385473731282317
 31
0.0
  0
LINE
  5
5D0
330
18
100
AcDbEntity
  8
1
 62
     1
100
AcDbLine
 10
44.52886752691897
 20
-1.385473731282305
 30
0.0
 11
45.0
 21
-1.10045995180079
 31
0.0
  0
LINE
  5
5D1
330
18
100
AcDbEntity
  8
1
 62
     1
100
AcDbLine
 10
45.0
 20
-1.100459951800786
 30
0.0
 11
45.0
 21
5.303813804171232
 31
0.0
  0
ARC
  5
5D2
330
18
100
AcDbEntity
  8
1
 62
     1
100
AcDbCircle
 10
54.25237526957628
 20
-114.852447919312
 30
0.0
 40
120.5119660421624
100
AcDbArc
 50
94.178625860885
 51
94.40324941997908
  0
LINE
  5
5D3
330
18
100
AcDbEntity
  8
1
 62
     1
100
AcDbLine
 10
45.0
 20
-1.10045995180079
 30
0.0
 11
45.47113247308103
 21
-1.385473731282305
 31
0.0
  0
LINE
  5
5D4
330
18
100
AcDbEntity
  8
1
 62
     1
100
AcDbLine
 10
45.47113247308103
 20
5.339170609352449
 30
0.0
 11
45.47113247308102
 21
-1.385473731282317
 31
0.0
  0
ARC
  5
5D5
330
18
100
AcDbEntity
  8
1
 62
     1
100
AcDbCircle
 10
36.34300364592381
 20
-120.2465594258278
 30
0.0
 40
125.9212269273404
100
AcDbArc
 50
85.60162340506822
 51
85.81659769510695
  0
LINE
  5
5D6
330
18
100
AcDbEntity
  8
1
 62
     1
100
AcDbLine
 10
45.52886752691898
 20
5.339170609352449
 30
0.0
 11
45.52886752691897
 21
-1.385473731282317
 31
0.0
  0
LINE
  5
5D7
330
18
100
AcDbEntity
  8
1
 62
     1
100
AcDbLine
 10
45.52886752691897
 20
-1.385473731282303
 30
0.0
 11
46.0
 21
-1.10045995180079
 31
0.0
  0
ARC
  5
5D8
330
18
100
AcDbEntity
  8
1
 62
     1
100
AcDbCircle
 10
55.25237526949027
 20
-114.8524479181755
 30
0.0
 40
120.5119660410226
100
AcDbArc
 50
94.17862586088359
 51
94.40324941997977
  0
LINE
  5
5D9
330
18
100
AcDbEntity
  8
1
 62
     1
100
AcDbLine
 10
45.99999999999999
 20
-1.100459951800786
 30
0.0
 11
45.99999999999999
 21
5.303813804171232
 31
0.0
  0
LINE
  5
5DA
330
18
100
AcDbEntity
  8
1
 62
     1
100
AcDbLine
 10
46.0
 20
-1.10045995180079
 30
0.0
 11
46.47113247308104
 21
-1.385473731282305
 31
0.0
  0
LINE
  5
5DB
330
18
100
AcDbEntity
  8
1
 62
     1
100
AcDbLine
 10
46.47113247308103
 20
5.339170609352449
 30
0.0
 11
46.47113247308102
 21
-1.385473731282317
 31
0.0
  0
LINE
  5
5DC
330
18
100
AcDbEntity
  8
1
 62
     1
100
AcDbLine
 10
40.87099148005606
 20
5.313682282217214
 30
0.0
 11
41.0
 21
5.303813804171233
 31
0.0
  0
LINE
  5
5DD
330
18
100
AcDbEntity
  8
1
 62
     1
100
AcDbLine
 10
40.87099148005606
 20
5.313682282217285
 30
0.0
 11
40.87099148005606
 21
-1.178622214882957
 31
0.0
  0
LINE
  5
5DE
330
18
100
AcDbEntity
  8
1
 62
     1
100
AcDbLine
 10
40.87099148005606
 20
-1.17862221488296
 30
0.0
 11
41.0
 21
-1.10045995180079
 31
0.0
  0
LINE
  5
5DF
330
18
100
AcDbEntity
  8
1
 62
     1
100
AcDbLine
 10
41.0
 20
5.303813804171233
 30
0.0
 11
41.24118991653859
 21
5.322140844104396
 31
0.0
  0
LINE
  5
5E0
330
18
100
AcDbEntity
  8
1
 62
     1
100
AcDbLine
 10
41.0
 20
-1.100459951800786
 30
0.0
 11
40.99999999999999
 21
5.303813804171232
 31
0.0
  0
LINE
  5
5E1
330
18
100
AcDbEntity
  8
1
 62
     1
100
AcDbLine
 10
41.0
 20
-1.10045995180079
 30
0.0
 11
41.24118991653859
 21
-1.246513641528987
 31
0.0
  0
LINE
  5
5E2
330
18
100
AcDbEntity
  8
1
 62
     1
100
AcDbLine
 10
41.24118991653859
 20
5.322140844104397
 30
0.0
 11
41.24118991653859
 21
-1.246513641528985
 31
0.0
  0
LINE
  5
5E3
330
18
100
AcDbEntity
  8
1
 62
     1
100
AcDbLine
 10
41.63843325746406
 20
8.710887555605755
 30
0.0
 11
41.24118987349225
 21
8.510930003540512
 31
0.0
  0
LINE
  5
5E4
330
18
100
AcDbEntity
  8
1
 62
     1
100
AcDbLine
 10
41.24118991653859
 20
8.601727994940664
 30
0.0
 11
41.63843325746406
 21
8.81022667640936
 31
0.0
  0
ARC
  5
5E5
330
18
100
AcDbEntity
  8
1
 62
     1
100
AcDbCircle
 10
390.0555091751033
 20
-684.5726177003492
 30
0.0
 40
775.9098454305106
100
AcDbArc
 50
116.7457580178076
 51
116.9677117458593
  0
ARC
  5
5E6
330
18
100
AcDbEntity
  8
1
 62
     1
100
AcDbCircle
 10
33.3430036459004
 20
-120.2465594261483
 30
0.0
 40
125.9212269276618
100
AcDbArc
 50
85.60162340506878
 51
85.81659769510698
  0
LINE
  5
5E7
330
18
100
AcDbEntity
  8
1
 62
     1
100
AcDbLine
 10
42.52886752691898
 20
5.339170609352449
 30
0.0
 11
42.52886752691897
 21
-1.385473731282317
 31
0.0
  0
LINE
  5
5E8
330
18
100
AcDbEntity
  8
1
 62
     1
100
AcDbLine
 10
42.52886752691897
 20
-1.385473731282303
 30
0.0
 11
43.0
 21
-1.10045995180079
 31
0.0
  0
LINE
  5
5E9
330
18
100
AcDbEntity
  8
1
 62
     1
100
AcDbLine
 10
43.0
 20
-1.100459951800786
 30
0.0
 11
42.99999999999999
 21
5.303813804171232
 31
0.0
  0
LINE
  5
5EA
330
18
100
AcDbEntity
  8
1
 62
     1
100
AcDbLine
 10
47.52886752691899
 20
5.339170609352449
 30
0.0
 11
47.47113247308102
 21
5.339170609352449
 31
0.0
  0
LINE
  5
5EB
330
18
100
AcDbEntity
  8
1
 62
     1
100
AcDbLine
 10
48.52886752691899
 20
5.339170609352449
 30
0.0
 11
48.47113247308103
 21
5.339170609352449
 31
0.0
  0
LINE
  5
5EC
330
18
100
AcDbEntity
  8
1
 62
     1
100
AcDbLine
 10
55.52886752691897
 20
5.339170609352449
 30
0.0
 11
55.47113247308104
 21
5.339170609352449
 31
0.0
  0
LINE
  5
5ED
330
18
100
AcDbEntity
  8
1
 62
     1
100
AcDbLine
 10
56.52886752691898
 20
5.339170609352449
 30
0.0
 11
56.47113247308103
 21
5.339170609352449
 31
0.0
  0
LINE
  5
5EE
330
18
100
AcDbEntity
  8
1
 62
     1
100
AcDbLine
 10
61.517
 20
8.89271963686738
 30
0.0
 11
61.47113247308103
 21
8.892719636867385
 31
0.0
  0
LINE
  5
5EF
330
18
100
AcDbEntity
  8
1
 62
     1
100
AcDbLine
 10
55.52886752691897
 20
8.89271963686738
 30
0.0
 11
55.47113247308104
 21
8.892719636867374
 31
0.0
  0
LINE
  5
5F0
330
18
100
AcDbEntity
  8
1
 62
     1
100
AcDbLine
 10
51.52886752691899
 20
8.89271963686738
 30
0.0
 11
51.47113247308104
 21
8.89271963686738
 31
0.0
  0
LINE
  5
5F1
330
18
100
AcDbEntity
  8
1
 62
     1
100
AcDbLine
 10
50.52886752691899
 20
8.89271963686738
 30
0.0
 11
50.47113247308104
 21
8.89271963686738
 31
0.0
  0
LINE
  5
5F2
330
18
100
AcDbEntity
  8
1
 62
     1
100
AcDbLine
 10
44.52886752691896
 20
8.89271963686738
 30
0.0
 11
44.47113247308103
 21
8.89271963686738
 31
0.0
  0
LINE
  5
5F3
330
18
100
AcDbEntity
  8
1
 62
     1
100
AcDbLine
 10
63.0
 20
8.109650713508444
 30
0.0
 11
63.32448140705628
 21
8.649306330304814
 31
0.0
  0
LINE
  5
5F4
330
18
100
AcDbEntity
  8
1
 62
     1
100
AcDbLine
 10
63.32448140705628
 20
8.7459930210918
 30
0.0
 11
63.32448140705628
 21
8.745970664635493
 31
0.0
  0
LINE
  5
5F5
330
18
100
AcDbEntity
  8
1
 62
     1
100
AcDbLine
 10
63.32448140705628
 20
8.745970664635493
 30
0.0
 11
63.32448140705628
 21
8.739436537955093
 31
0.0
  0
LINE
  5
5F6
330
18
100
AcDbEntity
  8
1
 62
     1
100
AcDbLine
 10
63.32448140705628
 20
8.739436537955093
 30
0.0
 11
63.32448140705628
 21
8.649306330304801
 31
0.0
  0
LINE
  5
5F7
330
18
100
AcDbEntity
  8
1
 62
     1
100
AcDbLine
 10
63.70651512296424
 20
8.692305481269802
 30
0.0
 11
63.70651512296424
 21
8.692283625258492
 31
0.0
  0
LINE
  5
5F8
330
18
100
AcDbEntity
  8
1
 62
     1
100
AcDbLine
 10
63.70651512296424
 20
8.692283625258492
 30
0.0
 11
63.70651512296424
 21
8.685896518482387
 31
0.0
  0
LINE
  5
5F9
330
18
100
AcDbEntity
  8
1
 62
     1
100
AcDbLine
 10
63.70651512296424
 20
8.685896518482387
 30
0.0
 11
63.70651512296424
 21
8.597821457473977
 31
0.0
  0
LINE
  5
5FA
330
18
100
AcDbEntity
  8
1
 62
     1
100
AcDbLine
 10
63.70651512296423
 20
8.597821457473977
 30
0.0
 11
64.0
 21
8.109650713508444
 31
0.0
  0
LINE
  5
5FB
330
18
100
AcDbEntity
  8
1
 62
     1
100
AcDbLine
 10
64.0
 20
8.109650713508419
 30
0.0
 11
64.0
 21
8.183974999071177
 31
0.0
  0
LINE
  5
5FC
330
18
100
AcDbEntity
  8
1
 62
     1
100
AcDbLine
 10
64.0
 20
8.109650713508444
 30
0.0
 11
64.24943477227333
 21
8.524631859043467
 31
0.0
  0
LINE
  5
5FD
330
18
100
AcDbEntity
  8
1
 62
     1
100
AcDbLine
 10
64.24943477227333
 20
8.616008497316038
 30
0.0
 11
64.24943477227333
 21
8.615987347689122
 31
0.0
  0
LINE
  5
5FE
330
18
100
AcDbEntity
  8
1
 62
     1
100
AcDbLine
 10
64.24943477227333
 20
8.615987347689122
 30
0.0
 11
64.24943477227333
 21
8.609807726394203
 31
0.0
  0
LINE
  5
5FF
330
18
100
AcDbEntity
  8
1
 62
     1
100
AcDbLine
 10
64.24943477227333
 20
8.609807726394203
 30
0.0
 11
64.24943477227333
 21
8.524631859043469
 31
0.0
  0
LINE
  5
600
330
18
100
AcDbEntity
  8
1
 62
     1
100
AcDbLine
 10
64.79481497057762
 20
8.53936573021104
 30
0.0
 11
64.79481497057762
 21
8.539345284330036
 31
0.0
  0
LINE
  5
601
330
18
100
AcDbEntity
  8
1
 62
     1
100
AcDbLine
 10
64.79481497057762
 20
8.539345284330036
 30
0.0
 11
64.79481497057762
 21
8.53337233163608
 31
0.0
  0
LINE
  5
602
330
18
100
AcDbEntity
  8
1
 62
     1
100
AcDbLine
 10
64.79481497057762
 20
8.53337233163608
 30
0.0
 11
64.79481497057762
 21
8.451082821883418
 31
0.0
  0
LINE
  5
603
330
18
100
AcDbEntity
  8
1
 62
     1
100
AcDbLine
 10
64.79481497057762
 20
8.451082822039837
 30
0.0
 11
65.0
 21
8.109650713508444
 31
0.0
  0
LINE
  5
604
330
18
100
AcDbEntity
  8
1
 62
     1
100
AcDbLine
 10
65.0
 20
8.109650713508419
 30
0.0
 11
65.0
 21
8.183975
 31
0.0
  0
LINE
  5
605
330
18
100
AcDbEntity
  8
1
 62
     1
100
AcDbLine
 10
65.0
 20
8.109650713508444
 30
0.0
 11
65.17438813749041
 21
8.399877412741876
 31
0.0
  0
LINE
  5
606
330
18
100
AcDbEntity
  8
1
 62
     1
100
AcDbLine
 10
65.17438813749041
 20
8.486023973540272
 30
0.0
 11
65.17438813749041
 21
8.486004013905038
 31
0.0
  0
LINE
  5
607
330
18
100
AcDbEntity
  8
1
 62
     1
100
AcDbLine
 10
65.17438813749041
 20
8.486004013905038
 30
0.0
 11
65.17438813749041
 21
8.480173831546772
 31
0.0
  0
LINE
  5
608
330
18
100
AcDbEntity
  8
1
 62
     1
100
AcDbLine
 10
65.17438813749041
 20
8.480173831546772
 30
0.0
 11
65.17438813749041
 21
8.399877412550325
 31
0.0
  0
LINE
  5
609
330
18
100
AcDbEntity
  8
1
 62
     1
100
AcDbLine
 10
65.883114818191
 20
8.386425979152278
 30
0.0
 11
65.883114818191
 21
8.386406919393
 31
0.0
  0
LINE
  5
60A
330
18
100
AcDbEntity
  8
1
 62
     1
100
AcDbLine
 10
65.883114818191
 20
8.386406919393
 30
0.0
 11
65.883114818191
 21
8.380840900471197
 31
0.0
  0
LINE
  5
60B
330
18
100
AcDbEntity
  8
1
 62
     1
100
AcDbLine
 10
65.883114818191
 20
8.380840900471197
 30
0.0
 11
65.883114818191
 21
8.304230319705955
 31
0.0
  0
LINE
  5
60C
330
18
100
AcDbEntity
  8
1
 62
     1
100
AcDbLine
 10
65.883114818191
 20
8.304230319705955
 30
0.0
 11
66.0
 21
8.109650713508444
 31
0.0
  0
LINE
  5
60D
330
18
100
AcDbEntity
  8
1
 62
     1
100
AcDbLine
 10
50.0
 20
8.109650713508444
 30
0.0
 11
50.47113247308104
 21
8.892719636867387
 31
0.0
  0
LINE
  5
60E
330
18
100
AcDbEntity
  8
1
 62
     1
100
AcDbLine
 10
50.47113247308104
 20
9.0
 30
0.0
 11
50.47113247308105
 21
8.999975239668396
 31
0.0
  0
LINE
  5
60F
330
18
100
AcDbEntity
  8
1
 62
     1
100
AcDbLine
 10
50.47113247308105
 20
8.999975239668396
 30
0.0
 11
50.47113247308104
 21
8.992734634749393
 31
0.0
  0
LINE
  5
610
330
18
100
AcDbEntity
  8
1
 62
     1
100
AcDbLine
 10
50.47113247308104
 20
8.992734634749393
 30
0.0
 11
50.47113247308104
 21
8.892719636867378
 31
0.0
  0
LINE
  5
611
330
18
100
AcDbEntity
  8
1
 62
     1
100
AcDbLine
 10
49.52886752691899
 20
9.0
 30
0.0
 11
49.52886752691898
 21
8.999975239668396
 31
0.0
  0
LINE
  5
612
330
18
100
AcDbEntity
  8
1
 62
     1
100
AcDbLine
 10
49.52886752691898
 20
8.999975239668396
 30
0.0
 11
49.52886752691899
 21
8.992734634749393
 31
0.0
  0
LINE
  5
613
330
18
100
AcDbEntity
  8
1
 62
     1
100
AcDbLine
 10
49.52886752691899
 20
8.992734634749393
 30
0.0
 11
49.52886752691899
 21
8.89271963686738
 31
0.0
  0
LINE
  5
614
330
18
100
AcDbEntity
  8
1
 62
     1
100
AcDbLine
 10
49.52886752691897
 20
8.892719636867373
 30
0.0
 11
50.0
 21
8.109650713508444
 31
0.0
  0
LINE
  5
615
330
18
100
AcDbEntity
  8
1
 62
     1
100
AcDbLine
 10
49.99999999999999
 20
8.109650713508419
 30
0.0
 11
50.0
 21
8.183975
 31
0.0
  0
LINE
  5
616
330
18
100
AcDbEntity
  8
1
 62
     1
100
AcDbLine
 10
49.0
 20
8.109650713508444
 30
0.0
 11
49.47113247308104
 21
8.892719636867398
 31
0.0
  0
LINE
  5
617
330
18
100
AcDbEntity
  8
1
 62
     1
100
AcDbLine
 10
49.47113247308104
 20
9.0
 30
0.0
 11
49.47113247308104
 21
8.999975239668396
 31
0.0
  0
LINE
  5
618
330
18
100
AcDbEntity
  8
1
 62
     1
100
AcDbLine
 10
49.47113247308104
 20
8.999975239668396
 30
0.0
 11
49.47113247308106
 21
8.992734634749393
 31
0.0
  0
LINE
  5
619
330
18
100
AcDbEntity
  8
1
 62
     1
100
AcDbLine
 10
49.47113247308106
 20
8.992734634749393
 30
0.0
 11
49.47113247308104
 21
8.892719636867378
 31
0.0
  0
LINE
  5
61A
330
18
100
AcDbEntity
  8
1
 62
     1
100
AcDbLine
 10
48.52886752691899
 20
9.0
 30
0.0
 11
48.52886752691898
 21
8.999975239668396
 31
0.0
  0
LINE
  5
61B
330
18
100
AcDbEntity
  8
1
 62
     1
100
AcDbLine
 10
48.52886752691898
 20
8.999975239668396
 30
0.0
 11
48.52886752691899
 21
8.992734634749393
 31
0.0
  0
LINE
  5
61C
330
18
100
AcDbEntity
  8
1
 62
     1
100
AcDbLine
 10
48.52886752691899
 20
8.992734634749393
 30
0.0
 11
48.52886752691899
 21
8.89271963686738
 31
0.0
  0
LINE
  5
61D
330
18
100
AcDbEntity
  8
1
 62
     1
100
AcDbLine
 10
48.52886752691897
 20
8.892719636867373
 30
0.0
 11
49.0
 21
8.109650713508444
 31
0.0
  0
LINE
  5
61E
330
18
100
AcDbEntity
  8
1
 62
     1
100
AcDbLine
 10
49.00000000000001
 20
8.109650713508419
 30
0.0
 11
49.0
 21
8.183975
 31
0.0
  0
LINE
  5
61F
330
18
100
AcDbEntity
  8
1
 62
     1
100
AcDbLine
 10
48.0
 20
8.109650713508444
 30
0.0
 11
48.47113247308104
 21
8.892719636867398
 31
0.0
  0
LINE
  5
620
330
18
100
AcDbEntity
  8
1
 62
     1
100
AcDbLine
 10
48.47113247308104
 20
9.0
 30
0.0
 11
48.47113247308104
 21
8.999975239668396
 31
0.0
  0
LINE
  5
621
330
18
100
AcDbEntity
  8
1
 62
     1
100
AcDbLine
 10
48.47113247308104
 20
8.999975239668396
 30
0.0
 11
48.47113247308106
 21
8.992734634749393
 31
0.0
  0
LINE
  5
622
330
18
100
AcDbEntity
  8
1
 62
     1
100
AcDbLine
 10
48.47113247308106
 20
8.992734634749393
 30
0.0
 11
48.47113247308104
 21
8.892719636867378
 31
0.0
  0
LINE
  5
623
330
18
100
AcDbEntity
  8
1
 62
     1
100
AcDbLine
 10
47.52886752691899
 20
9.0
 30
0.0
 11
47.52886752691898
 21
8.999975239668396
 31
0.0
  0
LINE
  5
624
330
18
100
AcDbEntity
  8
1
 62
     1
100
AcDbLine
 10
47.52886752691898
 20
8.999975239668396
 30
0.0
 11
47.52886752691899
 21
8.992734634749393
 31
0.0
  0
LINE
  5
625
330
18
100
AcDbEntity
  8
1
 62
     1
100
AcDbLine
 10
47.52886752691899
 20
8.992734634749393
 30
0.0
 11
47.52886752691899
 21
8.89271963686738
 31
0.0
  0
LINE
  5
626
330
18
100
AcDbEntity
  8
1
 62
     1
100
AcDbLine
 10
47.52886752691897
 20
8.892719636867373
 30
0.0
 11
48.0
 21
8.109650713508444
 31
0.0
  0
LINE
  5
627
330
18
100
AcDbEntity
  8
1
 62
     1
100
AcDbLine
 10
48.0
 20
8.109650713508419
 30
0.0
 11
48.0
 21
8.183975
 31
0.0
  0
LINE
  5
628
330
18
100
AcDbEntity
  8
1
 62
     1
100
AcDbLine
 10
61.52991542773748
 20
8.998184983387327
 30
0.0
 11
61.52991542773748
 21
8.998160240436665
 31
0.0
  0
LINE
  5
629
330
18
100
AcDbEntity
  8
1
 62
     1
100
AcDbLine
 10
61.52991542773748
 20
8.998160240436665
 30
0.0
 11
61.52991542773748
 21
8.990924745176237
 31
0.0
  0
LINE
  5
62A
330
18
100
AcDbEntity
  8
1
 62
     1
100
AcDbLine
 10
61.52991542773748
 20
8.990924745176237
 30
0.0
 11
61.52991542773748
 21
8.890981291716427
 31
0.0
  0
LINE
  5
62B
330
18
100
AcDbEntity
  8
1
 62
     1
100
AcDbLine
 10
61.52991542773746
 20
8.890981291716482
 30
0.0
 11
62.00000000000001
 21
8.109650713508444
 31
0.0
  0
LINE
  5
62C
330
18
100
AcDbEntity
  8
1
 62
     1
100
AcDbLine
 10
62.0
 20
8.109650713508419
 30
0.0
 11
62.00000000000001
 21
8.183975
 31
0.0
  0
LINE
  5
62D
330
18
100
AcDbEntity
  8
1
 62
     1
100
AcDbLine
 10
62.00000000000001
 20
8.109650713508444
 30
0.0
 11
62.3995280418392
 21
8.773904483791604
 31
0.0
  0
LINE
  5
62E
330
18
100
AcDbEntity
  8
1
 62
     1
100
AcDbLine
 10
62.3995280418392
 20
8.875977544867567
 30
0.0
 11
62.3995280418392
 21
8.875953965552796
 31
0.0
  0
LINE
  5
62F
330
18
100
AcDbEntity
  8
1
 62
     1
100
AcDbLine
 10
62.3995280418392
 20
8.875953965552796
 30
0.0
 11
62.3995280418392
 21
8.869060506142764
 31
0.0
  0
LINE
  5
630
330
18
100
AcDbEntity
  8
1
 62
     1
100
AcDbLine
 10
62.3995280418392
 20
8.869060506142764
 30
0.0
 11
62.3995280418392
 21
8.773904483785364
 31
0.0
  0
LINE
  5
631
330
18
100
AcDbEntity
  8
1
 62
     1
100
AcDbLine
 10
62.61821527535087
 20
8.845245232328564
 30
0.0
 11
62.61821527535087
 21
8.845221943540796
 31
0.0
  0
LINE
  5
632
330
18
100
AcDbEntity
  8
1
 62
     1
100
AcDbLine
 10
62.61821527535087
 20
8.845221943540796
 30
0.0
 11
62.61821527535088
 21
8.838413864985073
 31
0.0
  0
LINE
  5
633
330
18
100
AcDbEntity
  8
1
 62
     1
100
AcDbLine
 10
62.61821527535088
 20
8.838413864985073
 30
0.0
 11
62.61821527535088
 21
8.744452376826997
 31
0.0
  0
LINE
  5
634
330
18
100
AcDbEntity
  8
1
 62
     1
100
AcDbLine
 10
62.61821527535086
 20
8.74445237683172
 30
0.0
 11
63.0
 21
8.109650713508444
 31
0.0
  0
LINE
  5
635
330
18
100
AcDbEntity
  8
1
 62
     1
100
AcDbLine
 10
63.00000000000001
 20
8.109650713508419
 30
0.0
 11
63.00000000000001
 21
8.183975
 31
0.0
  0
LINE
  5
636
330
18
100
AcDbEntity
  8
1
 62
     1
100
AcDbLine
 10
47.0
 20
8.109650713508419
 30
0.0
 11
47.0
 21
8.183975
 31
0.0
  0
LINE
  5
637
330
18
100
AcDbEntity
  8
1
 62
     1
100
AcDbLine
 10
47.0
 20
8.109650713508444
 30
0.0
 11
47.47113247308103
 21
8.892719636867383
 31
0.0
  0
LINE
  5
638
330
18
100
AcDbEntity
  8
1
 62
     1
100
AcDbLine
 10
47.47113247308103
 20
9.0
 30
0.0
 11
47.47113247308103
 21
8.999975239668396
 31
0.0
  0
LINE
  5
639
330
18
100
AcDbEntity
  8
1
 62
     1
100
AcDbLine
 10
47.47113247308103
 20
8.999975239668396
 30
0.0
 11
47.47113247308103
 21
8.992734634749393
 31
0.0
  0
LINE
  5
63A
330
18
100
AcDbEntity
  8
1
 62
     1
100
AcDbLine
 10
47.47113247308103
 20
8.992734634749393
 30
0.0
 11
47.47113247308103
 21
8.892719636867378
 31
0.0
  0
LINE
  5
63B
330
18
100
AcDbEntity
  8
1
 62
     1
100
AcDbLine
 10
50.528867526919
 20
9.0
 30
0.0
 11
50.528867526919
 21
8.999975239668396
 31
0.0
  0
LINE
  5
63C
330
18
100
AcDbEntity
  8
1
 62
     1
100
AcDbLine
 10
50.528867526919
 20
8.999975239668396
 30
0.0
 11
50.52886752691901
 21
8.992734634749393
 31
0.0
  0
LINE
  5
63D
330
18
100
AcDbEntity
  8
1
 62
     1
100
AcDbLine
 10
50.52886752691901
 20
8.992734634749393
 30
0.0
 11
50.528867526919
 21
8.89271963686738
 31
0.0
  0
LINE
  5
63E
330
18
100
AcDbEntity
  8
1
 62
     1
100
AcDbLine
 10
50.52886752691898
 20
8.892719636867369
 30
0.0
 11
51.0
 21
8.109650713508444
 31
0.0
  0
LINE
  5
63F
330
18
100
AcDbEntity
  8
1
 62
     1
100
AcDbLine
 10
51.0
 20
8.109650713508419
 30
0.0
 11
51.0
 21
8.183975
 31
0.0
  0
LINE
  5
640
330
18
100
AcDbEntity
  8
1
 62
     1
100
AcDbLine
 10
51.0
 20
8.109650713508444
 30
0.0
 11
51.47113247308104
 21
8.892719636867387
 31
0.0
  0
LINE
  5
641
330
18
100
AcDbEntity
  8
1
 62
     1
100
AcDbLine
 10
51.47113247308104
 20
9.0
 30
0.0
 11
51.47113247308103
 21
8.999975239668396
 31
0.0
  0
LINE
  5
642
330
18
100
AcDbEntity
  8
1
 62
     1
100
AcDbLine
 10
51.47113247308103
 20
8.999975239668396
 30
0.0
 11
51.47113247308104
 21
8.992734634749393
 31
0.0
  0
LINE
  5
643
330
18
100
AcDbEntity
  8
1
 62
     1
100
AcDbLine
 10
51.47113247308104
 20
8.992734634749393
 30
0.0
 11
51.47113247308104
 21
8.892719636867378
 31
0.0
  0
LINE
  5
644
330
18
100
AcDbEntity
  8
1
 62
     1
100
AcDbLine
 10
51.52886752691899
 20
9.0
 30
0.0
 11
51.52886752691899
 21
8.999975239668396
 31
0.0
  0
LINE
  5
645
330
18
100
AcDbEntity
  8
1
 62
     1
100
AcDbLine
 10
51.52886752691899
 20
8.999975239668396
 30
0.0
 11
51.52886752691899
 21
8.992734634749393
 31
0.0
  0
LINE
  5
646
330
18
100
AcDbEntity
  8
1
 62
     1
100
AcDbLine
 10
51.52886752691899
 20
8.992734634749393
 30
0.0
 11
51.52886752691899
 21
8.892719636867382
 31
0.0
  0
LINE
  5
647
330
18
100
AcDbEntity
  8
1
 62
     1
100
AcDbLine
 10
51.52886752691899
 20
8.892719636867376
 30
0.0
 11
52.0
 21
8.109650713508444
 31
0.0
  0
LINE
  5
648
330
18
100
AcDbEntity
  8
1
 62
     1
100
AcDbLine
 10
51.99999999999999
 20
8.109650713508419
 30
0.0
 11
52.0
 21
8.183975
 31
0.0
  0
LINE
  5
649
330
18
100
AcDbEntity
  8
1
 62
     1
100
AcDbLine
 10
52.0
 20
8.109650713508444
 30
0.0
 11
52.47113247308104
 21
8.892719636867387
 31
0.0
  0
LINE
  5
64A
330
18
100
AcDbEntity
  8
1
 62
     1
100
AcDbLine
 10
52.47113247308104
 20
9.0
 30
0.0
 11
52.47113247308103
 21
8.999975239668396
 31
0.0
  0
LINE
  5
64B
330
18
100
AcDbEntity
  8
1
 62
     1
100
AcDbLine
 10
52.47113247308103
 20
8.999975239668396
 30
0.0
 11
52.47113247308104
 21
8.992734634749393
 31
0.0
  0
LINE
  5
64C
330
18
100
AcDbEntity
  8
1
 62
     1
100
AcDbLine
 10
52.47113247308104
 20
8.992734634749393
 30
0.0
 11
52.47113247308104
 21
8.892719636867378
 31
0.0
  0
LINE
  5
64D
330
18
100
AcDbEntity
  8
1
 62
     1
100
AcDbLine
 10
52.52886752691899
 20
9.0
 30
0.0
 11
52.52886752691899
 21
8.999975239668396
 31
0.0
  0
LINE
  5
64E
330
18
100
AcDbEntity
  8
1
 62
     1
100
AcDbLine
 10
52.52886752691899
 20
8.999975239668396
 30
0.0
 11
52.528867526919
 21
8.992734634749393
 31
0.0
  0
LINE
  5
64F
330
18
100
AcDbEntity
  8
1
 62
     1
100
AcDbLine
 10
52.528867526919
 20
8.992734634749393
 30
0.0
 11
52.52886752691899
 21
8.89271963686738
 31
0.0
  0
LINE
  5
650
330
18
100
AcDbEntity
  8
1
 62
     1
100
AcDbLine
 10
52.52886752691899
 20
8.892719636867373
 30
0.0
 11
53.0
 21
8.109650713508444
 31
0.0
  0
LINE
  5
651
330
18
100
AcDbEntity
  8
1
 62
     1
100
AcDbLine
 10
53.0
 20
8.109650713508419
 30
0.0
 11
53.0
 21
8.183975
 31
0.0
  0
LINE
  5
652
330
18
100
AcDbEntity
  8
1
 62
     1
100
AcDbLine
 10
53.0
 20
8.109650713508444
 30
0.0
 11
53.47113247308104
 21
8.892719636867387
 31
0.0
  0
LINE
  5
653
330
18
100
AcDbEntity
  8
1
 62
     1
100
AcDbLine
 10
53.47113247308104
 20
9.0
 30
0.0
 11
53.47113247308103
 21
8.999975239668396
 31
0.0
  0
LINE
  5
654
330
18
100
AcDbEntity
  8
1
 62
     1
100
AcDbLine
 10
53.47113247308103
 20
8.999975239668396
 30
0.0
 11
53.47113247308105
 21
8.992734634749393
 31
0.0
  0
LINE
  5
655
330
18
100
AcDbEntity
  8
1
 62
     1
100
AcDbLine
 10
53.47113247308105
 20
8.992734634749393
 30
0.0
 11
53.47113247308105
 21
8.892719636867378
 31
0.0
  0
LINE
  5
656
330
18
100
AcDbEntity
  8
1
 62
     1
100
AcDbLine
 10
53.52886752691899
 20
9.0
 30
0.0
 11
53.52886752691899
 21
8.999975239668396
 31
0.0
  0
LINE
  5
657
330
18
100
AcDbEntity
  8
1
 62
     1
100
AcDbLine
 10
53.52886752691899
 20
8.999975239668396
 30
0.0
 11
53.528867526919
 21
8.992734634749393
 31
0.0
  0
LINE
  5
658
330
18
100
AcDbEntity
  8
1
 62
     1
100
AcDbLine
 10
53.528867526919
 20
8.992734634749393
 30
0.0
 11
53.528867526919
 21
8.89271963686738
 31
0.0
  0
LINE
  5
659
330
18
100
AcDbEntity
  8
1
 62
     1
100
AcDbLine
 10
53.52886752691899
 20
8.892719636867373
 30
0.0
 11
54.0
 21
8.109650713508444
 31
0.0
  0
LINE
  5
65A
330
18
100
AcDbEntity
  8
1
 62
     1
100
AcDbLine
 10
54.0
 20
8.109650713508419
 30
0.0
 11
53.99999999999999
 21
8.183974999071177
 31
0.0
  0
LINE
  5
65B
330
18
100
AcDbEntity
  8
1
 62
     1
100
AcDbLine
 10
54.0
 20
8.109650713508444
 30
0.0
 11
54.47113247308104
 21
8.892719636867383
 31
0.0
  0
LINE
  5
65C
330
18
100
AcDbEntity
  8
1
 62
     1
100
AcDbLine
 10
54.47113247308104
 20
9.0
 30
0.0
 11
54.47113247308103
 21
8.999975239668396
 31
0.0
  0
LINE
  5
65D
330
18
100
AcDbEntity
  8
1
 62
     1
100
AcDbLine
 10
54.47113247308103
 20
8.999975239668396
 30
0.0
 11
54.47113247308104
 21
8.992734634749393
 31
0.0
  0
LINE
  5
65E
330
18
100
AcDbEntity
  8
1
 62
     1
100
AcDbLine
 10
54.47113247308104
 20
8.992734634749393
 30
0.0
 11
54.47113247308105
 21
8.892719636867378
 31
0.0
  0
LINE
  5
65F
330
18
100
AcDbEntity
  8
1
 62
     1
100
AcDbLine
 10
54.528867526919
 20
9.0
 30
0.0
 11
54.52886752691899
 21
8.999975239668396
 31
0.0
  0
LINE
  5
660
330
18
100
AcDbEntity
  8
1
 62
     1
100
AcDbLine
 10
54.52886752691899
 20
8.999975239668396
 30
0.0
 11
54.52886752691902
 21
8.992734634749393
 31
0.0
  0
LINE
  5
661
330
18
100
AcDbEntity
  8
1
 62
     1
100
AcDbLine
 10
54.52886752691902
 20
8.992734634749393
 30
0.0
 11
54.528867526919
 21
8.89271963686738
 31
0.0
  0
LINE
  5
662
330
18
100
AcDbEntity
  8
1
 62
     1
100
AcDbLine
 10
54.52886752691898
 20
8.892719636867369
 30
0.0
 11
55.0
 21
8.109650713508444
 31
0.0
  0
LINE
  5
663
330
18
100
AcDbEntity
  8
1
 62
     1
100
AcDbLine
 10
55.0
 20
8.109650713508419
 30
0.0
 11
55.0
 21
8.183975
 31
0.0
  0
LINE
  5
664
330
18
100
AcDbEntity
  8
1
 62
     1
100
AcDbLine
 10
55.0
 20
8.109650713508444
 30
0.0
 11
55.47113247308104
 21
8.892719636867383
 31
0.0
  0
LINE
  5
665
330
18
100
AcDbEntity
  8
1
 62
     1
100
AcDbLine
 10
55.47113247308104
 20
9.0
 30
0.0
 11
55.47113247308104
 21
8.999975239668396
 31
0.0
  0
LINE
  5
666
330
18
100
AcDbEntity
  8
1
 62
     1
100
AcDbLine
 10
55.47113247308104
 20
8.999975239668396
 30
0.0
 11
55.47113247308104
 21
8.992734634749393
 31
0.0
  0
LINE
  5
667
330
18
100
AcDbEntity
  8
1
 62
     1
100
AcDbLine
 10
55.47113247308104
 20
8.992734634749393
 30
0.0
 11
55.47113247308104
 21
8.892719636867378
 31
0.0
  0
LINE
  5
668
330
18
100
AcDbEntity
  8
1
 62
     1
100
AcDbLine
 10
55.52886752691897
 20
9.0
 30
0.0
 11
55.52886752691897
 21
8.999975239668396
 31
0.0
  0
LINE
  5
669
330
18
100
AcDbEntity
  8
1
 62
     1
100
AcDbLine
 10
55.52886752691897
 20
8.999975239668396
 30
0.0
 11
55.52886752691898
 21
8.992734634749393
 31
0.0
  0
LINE
  5
66A
330
18
100
AcDbEntity
  8
1
 62
     1
100
AcDbLine
 10
55.52886752691898
 20
8.992734634749393
 30
0.0
 11
55.52886752691897
 21
8.892719636867378
 31
0.0
  0
LINE
  5
66B
330
18
100
AcDbEntity
  8
1
 62
     1
100
AcDbLine
 10
55.52886752691897
 20
8.892719636867383
 30
0.0
 11
56.0
 21
8.109650713508444
 31
0.0
  0
LINE
  5
66C
330
18
100
AcDbEntity
  8
1
 62
     1
100
AcDbLine
 10
56.0
 20
8.109650713508419
 30
0.0
 11
56.0
 21
8.183975
 31
0.0
  0
LINE
  5
66D
330
18
100
AcDbEntity
  8
1
 62
     1
100
AcDbLine
 10
55.99999999999999
 20
8.109650713508444
 30
0.0
 11
56.47113247308104
 21
8.892719636867383
 31
0.0
  0
LINE
  5
66E
330
18
100
AcDbEntity
  8
1
 62
     1
100
AcDbLine
 10
56.47113247308104
 20
9.0
 30
0.0
 11
56.47113247308104
 21
8.999975239668396
 31
0.0
  0
LINE
  5
66F
330
18
100
AcDbEntity
  8
1
 62
     1
100
AcDbLine
 10
56.47113247308104
 20
8.999975239668396
 30
0.0
 11
56.47113247308104
 21
8.992734634749393
 31
0.0
  0
LINE
  5
670
330
18
100
AcDbEntity
  8
1
 62
     1
100
AcDbLine
 10
56.47113247308104
 20
8.992734634749393
 30
0.0
 11
56.47113247308104
 21
8.892719636867378
 31
0.0
  0
LINE
  5
671
330
18
100
AcDbEntity
  8
1
 62
     1
100
AcDbLine
 10
56.52886752691899
 20
9.0
 30
0.0
 11
56.52886752691899
 21
8.999975239668396
 31
0.0
  0
LINE
  5
672
330
18
100
AcDbEntity
  8
1
 62
     1
100
AcDbLine
 10
56.52886752691899
 20
8.999975239668396
 30
0.0
 11
56.52886752691899
 21
8.992734634749393
 31
0.0
  0
LINE
  5
673
330
18
100
AcDbEntity
  8
1
 62
     1
100
AcDbLine
 10
56.52886752691899
 20
8.992734634749393
 30
0.0
 11
56.52886752691899
 21
8.892719636867382
 31
0.0
  0
LINE
  5
674
330
18
100
AcDbEntity
  8
1
 62
     1
100
AcDbLine
 10
56.52886752691899
 20
8.892719636867376
 30
0.0
 11
57.0
 21
8.109650713508444
 31
0.0
  0
LINE
  5
675
330
18
100
AcDbEntity
  8
1
 62
     1
100
AcDbLine
 10
61.0
 20
8.109650713508444
 30
0.0
 11
61.47113247308103
 21
8.892719636867378
 31
0.0
  0
LINE
  5
676
330
18
100
AcDbEntity
  8
1
 62
     1
100
AcDbLine
 10
61.47113247308103
 20
9.0
 30
0.0
 11
61.47113247308103
 21
8.999975239668396
 31
0.0
  0
LINE
  5
677
330
18
100
AcDbEntity
  8
1
 62
     1
100
AcDbLine
 10
61.47113247308103
 20
8.999975239668396
 30
0.0
 11
61.47113247308103
 21
8.992734634749393
 31
0.0
  0
LINE
  5
678
330
18
100
AcDbEntity
  8
1
 62
     1
100
AcDbLine
 10
61.47113247308103
 20
8.992734634749393
 30
0.0
 11
61.47113247308103
 21
8.892719636867378
 31
0.0
  0
LINE
  5
679
330
18
100
AcDbEntity
  8
1
 62
     1
100
AcDbLine
 10
60.52886752691897
 20
9.0
 30
0.0
 11
60.52886752691897
 21
8.999975239668396
 31
0.0
  0
LINE
  5
67A
330
18
100
AcDbEntity
  8
1
 62
     1
100
AcDbLine
 10
60.52886752691897
 20
8.999975239668396
 30
0.0
 11
60.52886752691897
 21
8.99273463474939
 31
0.0
  0
LINE
  5
67B
330
18
100
AcDbEntity
  8
1
 62
     1
100
AcDbLine
 10
60.52886752691897
 20
8.99273463474939
 30
0.0
 11
60.52886752691897
 21
8.892719636867376
 31
0.0
  0
LINE
  5
67C
330
18
100
AcDbEntity
  8
1
 62
     1
100
AcDbLine
 10
60.52886752691897
 20
8.892719636867376
 30
0.0
 11
61.0
 21
8.109650713508444
 31
0.0
  0
LINE
  5
67D
330
18
100
AcDbEntity
  8
1
 62
     1
100
AcDbLine
 10
60.99999999999999
 20
8.109650713508419
 30
0.0
 11
61.0
 21
8.183975
 31
0.0
  0
LINE
  5
67E
330
18
100
AcDbEntity
  8
1
 62
     1
100
AcDbLine
 10
59.99999999999999
 20
8.109650713508419
 30
0.0
 11
60.0
 21
8.183975
 31
0.0
  0
LINE
  5
67F
330
18
100
AcDbEntity
  8
1
 62
     1
100
AcDbLine
 10
60.0
 20
8.109650713508444
 30
0.0
 11
60.47113247308103
 21
8.892719636867378
 31
0.0
  0
LINE
  5
680
330
18
100
AcDbEntity
  8
1
 62
     1
100
AcDbLine
 10
60.47113247308103
 20
9.0
 30
0.0
 11
60.47113247308103
 21
8.999975239668396
 31
0.0
  0
LINE
  5
681
330
18
100
AcDbEntity
  8
1
 62
     1
100
AcDbLine
 10
60.47113247308103
 20
8.999975239668396
 30
0.0
 11
60.47113247308103
 21
8.992734634749391
 31
0.0
  0
LINE
  5
682
330
18
100
AcDbEntity
  8
1
 62
     1
100
AcDbLine
 10
60.47113247308103
 20
8.992734634749391
 30
0.0
 11
60.47113247308103
 21
8.892719636867378
 31
0.0
  0
LINE
  5
683
330
18
100
AcDbEntity
  8
1
 62
     1
100
AcDbLine
 10
59.52886752691897
 20
9.0
 30
0.0
 11
59.52886752691897
 21
8.999975239668396
 31
0.0
  0
LINE
  5
684
330
18
100
AcDbEntity
  8
1
 62
     1
100
AcDbLine
 10
59.52886752691897
 20
8.999975239668396
 30
0.0
 11
59.52886752691897
 21
8.99273463474939
 31
0.0
  0
LINE
  5
685
330
18
100
AcDbEntity
  8
1
 62
     1
100
AcDbLine
 10
59.52886752691897
 20
8.99273463474939
 30
0.0
 11
59.52886752691897
 21
8.892719636867376
 31
0.0
  0
LINE
  5
686
330
18
100
AcDbEntity
  8
1
 62
     1
100
AcDbLine
 10
59.52886752691897
 20
8.892719636867376
 30
0.0
 11
60.0
 21
8.109650713508444
 31
0.0
  0
LINE
  5
687
330
18
100
AcDbEntity
  8
1
 62
     1
100
AcDbLine
 10
59.0
 20
8.109650713508444
 30
0.0
 11
59.47113247308104
 21
8.892719636867401
 31
0.0
  0
LINE
  5
688
330
18
100
AcDbEntity
  8
1
 62
     1
100
AcDbLine
 10
59.47113247308104
 20
9.0
 30
0.0
 11
59.47113247308104
 21
8.999975239668396
 31
0.0
  0
LINE
  5
689
330
18
100
AcDbEntity
  8
1
 62
     1
100
AcDbLine
 10
59.47113247308104
 20
8.999975239668396
 30
0.0
 11
59.47113247308105
 21
8.992734634749393
 31
0.0
  0
LINE
  5
68A
330
18
100
AcDbEntity
  8
1
 62
     1
100
AcDbLine
 10
59.47113247308105
 20
8.992734634749393
 30
0.0
 11
59.47113247308104
 21
8.892719636867376
 31
0.0
  0
LINE
  5
68B
330
18
100
AcDbEntity
  8
1
 62
     1
100
AcDbLine
 10
58.52886752691899
 20
9.0
 30
0.0
 11
58.52886752691899
 21
8.999975239668396
 31
0.0
  0
LINE
  5
68C
330
18
100
AcDbEntity
  8
1
 62
     1
100
AcDbLine
 10
58.52886752691899
 20
8.999975239668396
 30
0.0
 11
58.52886752691899
 21
8.992734634749393
 31
0.0
  0
LINE
  5
68D
330
18
100
AcDbEntity
  8
1
 62
     1
100
AcDbLine
 10
58.52886752691899
 20
8.992734634749393
 30
0.0
 11
58.52886752691899
 21
8.892719636867376
 31
0.0
  0
LINE
  5
68E
330
18
100
AcDbEntity
  8
1
 62
     1
100
AcDbLine
 10
58.52886752691897
 20
8.892719636867373
 30
0.0
 11
59.0
 21
8.109650713508444
 31
0.0
  0
LINE
  5
68F
330
18
100
AcDbEntity
  8
1
 62
     1
100
AcDbLine
 10
59.0
 20
8.109650713508419
 30
0.0
 11
59.0
 21
8.183975
 31
0.0
  0
LINE
  5
690
330
18
100
AcDbEntity
  8
1
 62
     1
100
AcDbLine
 10
58.0
 20
8.109650713508444
 30
0.0
 11
58.47113247308103
 21
8.892719636867376
 31
0.0
  0
LINE
  5
691
330
18
100
AcDbEntity
  8
1
 62
     1
100
AcDbLine
 10
58.47113247308101
 20
9.0
 30
0.0
 11
58.47113247308101
 21
8.999975239668396
 31
0.0
  0
LINE
  5
692
330
18
100
AcDbEntity
  8
1
 62
     1
100
AcDbLine
 10
58.47113247308101
 20
8.999975239668396
 30
0.0
 11
58.47113247308101
 21
8.992734634749393
 31
0.0
  0
LINE
  5
693
330
18
100
AcDbEntity
  8
1
 62
     1
100
AcDbLine
 10
58.47113247308101
 20
8.992734634749393
 30
0.0
 11
58.471132473081
 21
8.892719636867376
 31
0.0
  0
LINE
  5
694
330
18
100
AcDbEntity
  8
1
 62
     1
100
AcDbLine
 10
57.52886752691899
 20
9.0
 30
0.0
 11
57.52886752691899
 21
8.999975239668396
 31
0.0
  0
LINE
  5
695
330
18
100
AcDbEntity
  8
1
 62
     1
100
AcDbLine
 10
57.52886752691899
 20
8.999975239668396
 30
0.0
 11
57.52886752691899
 21
8.992734634749393
 31
0.0
  0
LINE
  5
696
330
18
100
AcDbEntity
  8
1
 62
     1
100
AcDbLine
 10
57.52886752691899
 20
8.992734634749393
 30
0.0
 11
57.52886752691898
 21
8.892719636867376
 31
0.0
  0
LINE
  5
697
330
18
100
AcDbEntity
  8
1
 62
     1
100
AcDbLine
 10
57.52886752691899
 20
8.892719636867376
 30
0.0
 11
58.0
 21
8.109650713508444
 31
0.0
  0
LINE
  5
698
330
18
100
AcDbEntity
  8
1
 62
     1
100
AcDbLine
 10
58.0
 20
8.109650713508419
 30
0.0
 11
58.0
 21
8.183975
 31
0.0
  0
LINE
  5
699
330
18
100
AcDbEntity
  8
1
 62
     1
100
AcDbLine
 10
57.00000000000001
 20
8.109650713508419
 30
0.0
 11
57.0
 21
8.183975
 31
0.0
  0
LINE
  5
69A
330
18
100
AcDbEntity
  8
1
 62
     1
100
AcDbLine
 10
57.0
 20
8.109650713508444
 30
0.0
 11
57.47113247308106
 21
8.892719636867408
 31
0.0
  0
LINE
  5
69B
330
18
100
AcDbEntity
  8
1
 62
     1
100
AcDbLine
 10
57.47113247308106
 20
9.0
 30
0.0
 11
57.47113247308106
 21
8.999975239668396
 31
0.0
  0
LINE
  5
69C
330
18
100
AcDbEntity
  8
1
 62
     1
100
AcDbLine
 10
57.47113247308106
 20
8.999975239668396
 30
0.0
 11
57.47113247308106
 21
8.99273463474939
 31
0.0
  0
LINE
  5
69D
330
18
100
AcDbEntity
  8
1
 62
     1
100
AcDbLine
 10
57.47113247308106
 20
8.99273463474939
 30
0.0
 11
57.47113247308105
 21
8.892719636867376
 31
0.0
  0
LINE
  5
69E
330
18
100
AcDbEntity
  8
1
 62
     1
100
AcDbLine
 10
46.52886752691897
 20
9.0
 30
0.0
 11
46.52886752691898
 21
8.999975239668396
 31
0.0
  0
LINE
  5
69F
330
18
100
AcDbEntity
  8
1
 62
     1
100
AcDbLine
 10
46.52886752691898
 20
8.999975239668396
 30
0.0
 11
46.52886752691897
 21
8.992734634749393
 31
0.0
  0
LINE
  5
6A0
330
18
100
AcDbEntity
  8
1
 62
     1
100
AcDbLine
 10
46.52886752691897
 20
8.992734634749393
 30
0.0
 11
46.52886752691897
 21
8.892719636867376
 31
0.0
  0
LINE
  5
6A1
330
18
100
AcDbEntity
  8
1
 62
     1
100
AcDbLine
 10
46.52886752691897
 20
8.892719636867376
 30
0.0
 11
47.0
 21
8.109650713508444
 31
0.0
  0
LINE
  5
6A2
330
18
100
AcDbEntity
  8
1
 62
     1
100
AcDbLine
 10
42.0
 20
8.109650713508444
 30
0.0
 11
42.47113247308103
 21
8.892719636867378
 31
0.0
  0
LINE
  5
6A3
330
18
100
AcDbEntity
  8
1
 62
     1
100
AcDbLine
 10
42.47113247308103
 20
9.0
 30
0.0
 11
42.47113247308103
 21
8.999975239668396
 31
0.0
  0
LINE
  5
6A4
330
18
100
AcDbEntity
  8
1
 62
     1
100
AcDbLine
 10
42.47113247308103
 20
8.999975239668396
 30
0.0
 11
42.47113247308103
 21
8.992734634749393
 31
0.0
  0
LINE
  5
6A5
330
18
100
AcDbEntity
  8
1
 62
     1
100
AcDbLine
 10
42.47113247308103
 20
8.992734634749393
 30
0.0
 11
42.47113247308103
 21
8.892719636867376
 31
0.0
  0
LINE
  5
6A6
330
18
100
AcDbEntity
  8
1
 62
     1
100
AcDbLine
 10
41.63843325746406
 20
8.81022667640936
 30
0.0
 11
41.63843325746405
 21
8.81020371761567
 31
0.0
  0
LINE
  5
6A7
330
18
100
AcDbEntity
  8
1
 62
     1
100
AcDbLine
 10
41.63843325746405
 20
8.81020371761567
 30
0.0
 11
41.63843325746406
 21
8.80349261073474
 31
0.0
  0
LINE
  5
6A8
330
18
100
AcDbEntity
  8
1
 62
     1
100
AcDbLine
 10
41.63843325746406
 20
8.80349261073474
 30
0.0
 11
41.63843325746405
 21
8.710887555605755
 31
0.0
  0
LINE
  5
6A9
330
18
100
AcDbEntity
  8
1
 62
     1
100
AcDbLine
 10
41.63843325746407
 20
8.710887555605773
 30
0.0
 11
42.0
 21
8.109650713508444
 31
0.0
  0
LINE
  5
6AA
330
18
100
AcDbEntity
  8
1
 62
     1
100
AcDbLine
 10
42.0
 20
8.109650713508419
 30
0.0
 11
42.0
 21
8.183975
 31
0.0
  0
LINE
  5
6AB
330
18
100
AcDbEntity
  8
1
 62
     1
100
AcDbLine
 10
43.0
 20
8.109650713508444
 30
0.0
 11
43.47113247308103
 21
8.892719636867378
 31
0.0
  0
LINE
  5
6AC
330
18
100
AcDbEntity
  8
1
 62
     1
100
AcDbLine
 10
43.47113247308103
 20
9.0
 30
0.0
 11
43.47113247308103
 21
8.999975239668396
 31
0.0
  0
LINE
  5
6AD
330
18
100
AcDbEntity
  8
1
 62
     1
100
AcDbLine
 10
43.47113247308103
 20
8.999975239668396
 30
0.0
 11
43.47113247308103
 21
8.99273463474939
 31
0.0
  0
LINE
  5
6AE
330
18
100
AcDbEntity
  8
1
 62
     1
100
AcDbLine
 10
43.47113247308103
 20
8.99273463474939
 30
0.0
 11
43.47113247308103
 21
8.892719636867376
 31
0.0
  0
LINE
  5
6AF
330
18
100
AcDbEntity
  8
1
 62
     1
100
AcDbLine
 10
43.52886752691897
 20
9.0
 30
0.0
 11
43.52886752691897
 21
8.999975239668396
 31
0.0
  0
LINE
  5
6B0
330
18
100
AcDbEntity
  8
1
 62
     1
100
AcDbLine
 10
43.52886752691897
 20
8.999975239668396
 30
0.0
 11
43.52886752691897
 21
8.992734634749393
 31
0.0
  0
LINE
  5
6B1
330
18
100
AcDbEntity
  8
1
 62
     1
100
AcDbLine
 10
43.52886752691897
 20
8.992734634749393
 30
0.0
 11
43.52886752691897
 21
8.892719636867376
 31
0.0
  0
LINE
  5
6B2
330
18
100
AcDbEntity
  8
1
 62
     1
100
AcDbLine
 10
43.52886752691897
 20
8.892719636867376
 30
0.0
 11
44.0
 21
8.109650713508444
 31
0.0
  0
LINE
  5
6B3
330
18
100
AcDbEntity
  8
1
 62
     1
100
AcDbLine
 10
43.99999999999999
 20
8.109650713508419
 30
0.0
 11
44.0
 21
8.183975
 31
0.0
  0
LINE
  5
6B4
330
18
100
AcDbEntity
  8
1
 62
     1
100
AcDbLine
 10
44.0
 20
8.109650713508444
 30
0.0
 11
44.47113247308104
 21
8.892719636867383
 31
0.0
  0
LINE
  5
6B5
330
18
100
AcDbEntity
  8
1
 62
     1
100
AcDbLine
 10
44.47113247308103
 20
9.0
 30
0.0
 11
44.47113247308103
 21
8.999975239668396
 31
0.0
  0
LINE
  5
6B6
330
18
100
AcDbEntity
  8
1
 62
     1
100
AcDbLine
 10
44.47113247308103
 20
8.999975239668396
 30
0.0
 11
44.47113247308103
 21
8.99273463474939
 31
0.0
  0
LINE
  5
6B7
330
18
100
AcDbEntity
  8
1
 62
     1
100
AcDbLine
 10
44.47113247308103
 20
8.99273463474939
 30
0.0
 11
44.47113247308103
 21
8.892719636867376
 31
0.0
  0
LINE
  5
6B8
330
18
100
AcDbEntity
  8
1
 62
     1
100
AcDbLine
 10
44.52886752691897
 20
9.0
 30
0.0
 11
44.52886752691897
 21
8.999975239668396
 31
0.0
  0
LINE
  5
6B9
330
18
100
AcDbEntity
  8
1
 62
     1
100
AcDbLine
 10
44.52886752691897
 20
8.999975239668396
 30
0.0
 11
44.52886752691897
 21
8.992734634749393
 31
0.0
  0
LINE
  5
6BA
330
18
100
AcDbEntity
  8
1
 62
     1
100
AcDbLine
 10
44.52886752691897
 20
8.992734634749393
 30
0.0
 11
44.52886752691897
 21
8.892719636867376
 31
0.0
  0
LINE
  5
6BB
330
18
100
AcDbEntity
  8
1
 62
     1
100
AcDbLine
 10
44.52886752691897
 20
8.892719636867376
 30
0.0
 11
45.0
 21
8.109650713508444
 31
0.0
  0
LINE
  5
6BC
330
18
100
AcDbEntity
  8
1
 62
     1
100
AcDbLine
 10
45.0
 20
8.109650713508419
 30
0.0
 11
45.0
 21
8.183975
 31
0.0
  0
LINE
  5
6BD
330
18
100
AcDbEntity
  8
1
 62
     1
100
AcDbLine
 10
45.0
 20
8.109650713508444
 30
0.0
 11
45.47113247308103
 21
8.892719636867378
 31
0.0
  0
LINE
  5
6BE
330
18
100
AcDbEntity
  8
1
 62
     1
100
AcDbLine
 10
45.47113247308103
 20
9.0
 30
0.0
 11
45.47113247308102
 21
8.999975239668396
 31
0.0
  0
LINE
  5
6BF
330
18
100
AcDbEntity
  8
1
 62
     1
100
AcDbLine
 10
45.47113247308102
 20
8.999975239668396
 30
0.0
 11
45.47113247308103
 21
8.99273463474939
 31
0.0
  0
LINE
  5
6C0
330
18
100
AcDbEntity
  8
1
 62
     1
100
AcDbLine
 10
45.47113247308103
 20
8.99273463474939
 30
0.0
 11
45.47113247308102
 21
8.892719636867376
 31
0.0
  0
LINE
  5
6C1
330
18
100
AcDbEntity
  8
1
 62
     1
100
AcDbLine
 10
45.52886752691898
 20
9.0
 30
0.0
 11
45.52886752691898
 21
8.999975239668396
 31
0.0
  0
LINE
  5
6C2
330
18
100
AcDbEntity
  8
1
 62
     1
100
AcDbLine
 10
45.52886752691898
 20
8.999975239668396
 30
0.0
 11
45.52886752691897
 21
8.99273463474939
 31
0.0
  0
LINE
  5
6C3
330
18
100
AcDbEntity
  8
1
 62
     1
100
AcDbLine
 10
45.52886752691897
 20
8.99273463474939
 30
0.0
 11
45.52886752691897
 21
8.892719636867376
 31
0.0
  0
LINE
  5
6C4
330
18
100
AcDbEntity
  8
1
 62
     1
100
AcDbLine
 10
45.52886752691897
 20
8.892719636867373
 30
0.0
 11
46.0
 21
8.109650713508444
 31
0.0
  0
LINE
  5
6C5
330
18
100
AcDbEntity
  8
1
 62
     1
100
AcDbLine
 10
45.99999999999999
 20
8.109650713508419
 30
0.0
 11
46.0
 21
8.183975
 31
0.0
  0
LINE
  5
6C6
330
18
100
AcDbEntity
  8
1
 62
     1
100
AcDbLine
 10
46.0
 20
8.109650713508444
 30
0.0
 11
46.47113247308104
 21
8.892719636867378
 31
0.0
  0
LINE
  5
6C7
330
18
100
AcDbEntity
  8
1
 62
     1
100
AcDbLine
 10
46.47113247308103
 20
9.0
 30
0.0
 11
46.47113247308103
 21
8.999975239668396
 31
0.0
  0
LINE
  5
6C8
330
18
100
AcDbEntity
  8
1
 62
     1
100
AcDbLine
 10
46.47113247308103
 20
8.999975239668396
 30
0.0
 11
46.47113247308102
 21
8.99273463474939
 31
0.0
  0
LINE
  5
6C9
330
18
100
AcDbEntity
  8
1
 62
     1
100
AcDbLine
 10
46.47113247308102
 20
8.99273463474939
 30
0.0
 11
46.47113247308101
 21
8.892719636867376
 31
0.0
  0
LINE
  5
6CA
330
18
100
AcDbEntity
  8
1
 62
     1
100
AcDbLine
 10
40.87099148005606
 20
8.407424206968892
 30
0.0
 11
40.87099148005606
 21
8.40740495837363
 31
0.0
  0
LINE
  5
6CB
330
18
100
AcDbEntity
  8
1
 62
     1
100
AcDbLine
 10
40.87099148005606
 20
8.40740495837363
 30
0.0
 11
40.87099148005606
 21
8.401783511777387
 31
0.0
  0
LINE
  5
6CC
330
18
100
AcDbEntity
  8
1
 62
     1
100
AcDbLine
 10
40.87099148005606
 20
8.401783511777387
 30
0.0
 11
40.87099148005606
 21
8.324399766380209
 31
0.0
  0
LINE
  5
6CD
330
18
100
AcDbEntity
  8
1
 62
     1
100
AcDbLine
 10
40.87099148005606
 20
8.324399766380216
 30
0.0
 11
41.0
 21
8.109650713508444
 31
0.0
  0
LINE
  5
6CE
330
18
100
AcDbEntity
  8
1
 62
     1
100
AcDbLine
 10
41.0
 20
8.109650713508419
 30
0.0
 11
41.0
 21
8.183975
 31
0.0
  0
LINE
  5
6CF
330
18
100
AcDbEntity
  8
1
 62
     1
100
AcDbLine
 10
41.0
 20
8.109650713508444
 30
0.0
 11
41.24118991653859
 21
8.510929928064737
 31
0.0
  0
LINE
  5
6D0
330
18
100
AcDbEntity
  8
1
 62
     1
100
AcDbLine
 10
41.24118991653859
 20
8.601727994940662
 30
0.0
 11
41.24118991653859
 21
8.601706976888375
 31
0.0
  0
LINE
  5
6D1
330
18
100
AcDbEntity
  8
1
 62
     1
100
AcDbLine
 10
41.24118991653859
 20
8.601706976888375
 30
0.0
 11
41.24118991653859
 21
8.595565998246496
 31
0.0
  0
LINE
  5
6D2
330
18
100
AcDbEntity
  8
1
 62
     1
100
AcDbLine
 10
41.24118991653859
 20
8.595565998246496
 30
0.0
 11
41.24118991653859
 21
8.510929928064737
 31
0.0
  0
LINE
  5
6D3
330
18
100
AcDbEntity
  8
1
 62
     1
100
AcDbLine
 10
42.52886752691898
 20
9.0
 30
0.0
 11
42.52886752691898
 21
8.999975239668396
 31
0.0
  0
LINE
  5
6D4
330
18
100
AcDbEntity
  8
1
 62
     1
100
AcDbLine
 10
42.52886752691898
 20
8.999975239668396
 30
0.0
 11
42.52886752691899
 21
8.992734634749393
 31
0.0
  0
LINE
  5
6D5
330
18
100
AcDbEntity
  8
1
 62
     1
100
AcDbLine
 10
42.52886752691899
 20
8.992734634749393
 30
0.0
 11
42.52886752691897
 21
8.892719636867376
 31
0.0
  0
LINE
  5
6D6
330
18
100
AcDbEntity
  8
1
 62
     1
100
AcDbLine
 10
42.52886752691897
 20
8.892719636867373
 30
0.0
 11
43.0
 21
8.109650713508444
 31
0.0
  0
LINE
  5
6D7
330
18
100
AcDbEntity
  8
1
 62
     1
100
AcDbLine
 10
43.0
 20
8.109650713508419
 30
0.0
 11
43.0
 21
8.183975
 31
0.0
  0
LINE
  5
6D8
330
18
100
AcDbEntity
  8
1
 62
     1
100
AcDbLine
 10
66.0
 20
8.109650713508422
 30
0.0
 11
66.0
 21
8.183975
 31
0.0
  0
LINE
  5
6D9
330
18
100
AcDbEntity
  8
1
 62
     1
100
AcDbLine
 10
66.00000000000001
 20
6.862590655836351
 30
0.0
 11
66.00000000000001
 21
8.10965071350842
 31
0.0
  0
LINE
  5
6DA
330
18
100
AcDbEntity
  8
1
 62
     1
100
AcDbLine
 10
66.00000000000001
 20
6.862590655836351
 30
0.0
 11
66.0
 21
5.303813804171249
 31
0.0
  0
LINE
  5
6DB
330
18
100
AcDbEntity
  8
1
 62
     1
100
AcDbLine
 10
66.0
 20
-1.100459951800786
 30
0.0
 11
65.99999999999999
 21
5.303813804171232
 31
0.0
  0
LINE
  5
6DC
330
18
100
AcDbEntity
  8
1
 62
     1
100
AcDbLine
 10
66.0
 20
-6.232736632596287
 30
0.0
 11
66.0
 21
-1.889284452394527
 31
0.0
  0
LINE
  5
6DD
330
18
100
AcDbEntity
  8
1
 62
     1
100
AcDbLine
 10
66.0
 20
-8.183975
 30
0.0
 11
66.0
 21
-8.183566052240907
 31
0.0
  0
LINE
  5
6DE
330
18
100
AcDbEntity
  8
1
 62
     1
100
AcDbLine
 10
66.0
 20
-8.183566052240907
 30
0.0
 11
66.0
 21
-8.058517580941984
 31
0.0
  0
LINE
  5
6DF
330
18
100
AcDbEntity
  8
1
 62
     1
100
AcDbLine
 10
66.0
 20
-8.058517580941984
 30
0.0
 11
66.0
 21
-6.232736632596287
 31
0.0
  0
LINE
  5
6E0
330
18
100
AcDbEntity
  8
1
 62
     1
100
AcDbLine
 10
65.883114818191
 20
-6.488967938049371
 30
0.0
 11
65.17438813749041
 21
-6.613688116717002
 31
0.0
  0
LINE
  5
6E1
330
18
100
AcDbEntity
  8
1
 62
     1
100
AcDbLine
 10
64.79481497057762
 20
-6.68014594346859
 30
0.0
 11
64.24943477227333
 21
-6.775237699075834
 31
0.0
  0
LINE
  5
6E2
330
18
100
AcDbEntity
  8
1
 62
     1
100
AcDbLine
 10
63.70651512298305
 20
-6.869452871563912
 30
0.0
 11
63.32448140705626
 21
-6.935490757340112
 31
0.0
  0
LINE
  5
6E3
330
18
100
AcDbEntity
  8
1
 62
     1
100
AcDbLine
 10
62.61821527535084
 20
-7.057035607537361
 30
0.0
 11
62.3995280418392
 21
-7.094533007348922
 31
0.0
  0
LINE
  5
6E4
330
18
100
AcDbEntity
  8
1
 62
     1
100
AcDbLine
 10
61.52991542774569
 20
-7.243024911969014
 30
0.0
 11
61.517
 21
-7.245223061040083
 31
0.0
  0
LINE
  5
6E5
330
18
100
AcDbEntity
  8
1
 62
     1
100
AcDbLine
 10
61.51699999999999
 20
-7.245223061040082
 30
0.0
 11
61.517
 21
-9.0
 31
0.0
  0
LINE
  5
6E6
330
18
100
AcDbEntity
  8
1
 62
     1
100
AcDbLine
 10
61.517
 20
-7.245223061040083
 30
0.0
 11
61.47113247308104
 21
-7.245223061040083
 31
0.0
  0
LINE
  5
6E7
330
18
100
AcDbEntity
  8
1
 62
     1
100
AcDbLine
 10
60.52886752691899
 20
-7.245223061040083
 30
0.0
 11
60.47113247308106
 21
-7.245223061040083
 31
0.0
  0
LINE
  5
6E8
330
18
100
AcDbEntity
  8
1
 62
     1
100
AcDbLine
 10
59.52886752691898
 20
-7.245223061040083
 30
0.0
 11
59.47113247308105
 21
-7.245223061040083
 31
0.0
  0
LINE
  5
6E9
330
18
100
AcDbEntity
  8
1
 62
     1
100
AcDbLine
 10
58.52886752691899
 20
-7.245223061040083
 30
0.0
 11
58.47113247308102
 21
-7.24522306104008
 31
0.0
  0
LINE
  5
6EA
330
18
100
AcDbEntity
  8
1
 62
     1
100
AcDbLine
 10
57.52886752691898
 20
-7.245223061040083
 30
0.0
 11
57.47113247308105
 21
-7.245223061040083
 31
0.0
  0
LINE
  5
6EB
330
18
100
AcDbEntity
  8
1
 62
     1
100
AcDbLine
 10
56.528867526919
 20
-7.245223061040083
 30
0.0
 11
56.47113247308107
 21
-7.245223061040083
 31
0.0
  0
LINE
  5
6EC
330
18
100
AcDbEntity
  8
1
 62
     1
100
AcDbLine
 10
55.52886752691897
 20
-7.245223061040083
 30
0.0
 11
55.47113247308104
 21
-7.245223061040083
 31
0.0
  0
LINE
  5
6ED
330
18
100
AcDbEntity
  8
1
 62
     1
100
AcDbLine
 10
54.528867526919
 20
-7.245223061040083
 30
0.0
 11
54.47113247308103
 21
-7.245223061040083
 31
0.0
  0
LINE
  5
6EE
330
18
100
AcDbEntity
  8
1
 62
     1
100
AcDbLine
 10
53.52886752691899
 20
-7.245223061040083
 30
0.0
 11
53.47113247308106
 21
-7.245223061040083
 31
0.0
  0
LINE
  5
6EF
330
18
100
AcDbEntity
  8
1
 62
     1
100
AcDbLine
 10
51.52886752691897
 20
-7.245223061040083
 30
0.0
 11
51.47113247308105
 21
-7.245223061040083
 31
0.0
  0
LINE
  5
6F0
330
18
100
AcDbEntity
  8
1
 62
     1
100
AcDbLine
 10
50.528867526919
 20
-7.245223061040083
 30
0.0
 11
50.47113247308105
 21
-7.245223061040083
 31
0.0
  0
LINE
  5
6F1
330
18
100
AcDbEntity
  8
1
 62
     1
100
AcDbLine
 10
49.528867526919
 20
-7.245223061040083
 30
0.0
 11
49.47113247308105
 21
-7.245223061040085
 31
0.0
  0
LINE
  5
6F2
330
18
100
AcDbEntity
  8
1
 62
     1
100
AcDbLine
 10
46.52886752691898
 20
-7.245223061040083
 30
0.0
 11
46.47113247308103
 21
-7.245223061040083
 31
0.0
  0
LINE
  5
6F3
330
18
100
AcDbEntity
  8
1
 62
     1
100
AcDbLine
 10
45.52886752691898
 20
-7.245223061040083
 30
0.0
 11
45.47113247308103
 21
-7.245223061040085
 31
0.0
  0
LINE
  5
6F4
330
18
100
AcDbEntity
  8
1
 62
     1
100
AcDbLine
 10
44.52886752691897
 20
-7.245223061040083
 30
0.0
 11
44.47113247308103
 21
-7.24522306104008
 31
0.0
  0
LINE
  5
6F5
330
18
100
AcDbEntity
  8
1
 62
     1
100
AcDbLine
 10
43.52886752691898
 20
-7.245223061040083
 30
0.0
 11
43.47113247308105
 21
-7.245223061040083
 31
0.0
  0
LINE
  5
6F6
330
18
100
AcDbEntity
  8
1
 62
     1
100
AcDbLine
 10
42.52886752691899
 20
-7.245223061040083
 30
0.0
 11
42.47113247308103
 21
-7.245223061040083
 31
0.0
  0
LINE
  5
6F7
330
18
100
AcDbEntity
  8
1
 62
     1
100
AcDbLine
 10
41.63843325746406
 20
-7.014230006731545
 30
0.0
 11
41.24118991653858
 21
-6.757554390048341
 31
0.0
  0
LINE
  5
6F8
330
18
100
AcDbEntity
  8
1
 62
     1
100
AcDbLine
 10
40.87099148005607
 20
-6.515332869437861
 30
0.0
 11
38.18948822
 21
-4.632411770568856
 31
0.0
  0
LINE
  5
6F9
330
18
100
AcDbEntity
  8
1
 62
     1
100
AcDbLine
 10
38.18948822
 20
-1.889284452394577
 30
0.0
 11
38.18948822
 21
-4.632411770568856
 31
0.0
  0
LINE
  5
6FA
330
18
100
AcDbEntity
  8
1
 62
     1
100
AcDbLine
 10
38.18948822
 20
5.247929228552449
 30
0.0
 11
38.18948822
 21
-0.6843743070061238
 31
0.0
  0
LINE
  5
6FB
330
18
100
AcDbEntity
  8
1
 62
     1
100
AcDbLine
 10
38.18948822
 20
6.862590655836351
 30
0.0
 11
38.18948822
 21
5.247929228552889
 31
0.0
  0
LINE
  5
6FC
330
18
100
AcDbEntity
  8
1
 62
     1
100
AcDbLine
 10
38.18948822
 20
6.966464799875896
 30
0.0
 11
38.18948822
 21
6.862590655836359
 31
0.0
  0
LINE
  5
6FD
330
18
100
AcDbEntity
  8
1
 62
     1
100
AcDbLine
 10
38.18948822
 20
7.0
 30
0.0
 11
38.18948822
 21
6.999992111415629
 31
0.0
  0
LINE
  5
6FE
330
18
100
AcDbEntity
  8
1
 62
     1
100
AcDbLine
 10
38.18948822
 20
6.999992111415629
 30
0.0
 11
38.18948822
 21
6.997697722756357
 31
0.0
  0
LINE
  5
6FF
330
18
100
AcDbEntity
  8
1
 62
     1
100
AcDbLine
 10
38.18948822
 20
6.997697722756357
 30
0.0
 11
38.18948822
 21
6.966464799875895
 31
0.0
  0
LINE
  5
700
330
18
100
AcDbEntity
  8
1
 62
     1
100
AcDbLine
 10
38.18948821999999
 20
-4.632411770568857
 30
0.0
 11
38.18948821999999
 21
-6.999999999250778
 31
0.0
  0
LINE
  5
701
330
18
100
AcDbEntity
  8
1
 62
     1
100
AcDbLine
 10
66.0
 20
-1.100459951800786
 30
0.0
 11
66.0
 21
-1.889284452394526
 31
0.0
  0
LINE
  5
702
330
18
100
AcDbEntity
  8
1
 62
     1
100
AcDbLine
 10
38.18948822
 20
-0.6843743070061458
 30
0.0
 11
38.18948822
 21
-1.889284452394526
 31
0.0
  0
LINE
  5
703
330
18
100
AcDbEntity
  8
1
 62
     1
100
AcDbLine
 10
63.32448140705628
 20
8.745993021091813
 30
0.0
 11
63.00000000000001
 21
8.183975
 31
0.0
  0
LINE
  5
704
330
18
100
AcDbEntity
  8
1
 62
     1
100
AcDbLine
 10
64.0
 20
8.183975
 30
0.0
 11
63.70651512296425
 21
8.6923054812698
 31
0.0
  0
LINE
  5
705
330
18
100
AcDbEntity
  8
1
 62
     1
100
AcDbLine
 10
64.24943477227333
 20
8.616008497316034
 30
0.0
 11
64.0
 21
8.183975
 31
0.0
  0
LINE
  5
706
330
18
100
AcDbEntity
  8
1
 62
     1
100
AcDbLine
 10
65.0
 20
8.183975
 30
0.0
 11
64.79481497057762
 21
8.539365730211038
 31
0.0
  0
LINE
  5
707
330
18
100
AcDbEntity
  8
1
 62
     1
100
AcDbLine
 10
65.17438813749041
 20
8.48602397354027
 30
0.0
 11
65.0
 21
8.183975
 31
0.0
  0
LINE
  5
708
330
18
100
AcDbEntity
  8
1
 62
     1
100
AcDbLine
 10
66.00000000000001
 20
8.183975000000002
 30
0.0
 11
65.883114818191
 21
8.386425979152278
 31
0.0
  0
LINE
  5
709
330
18
100
AcDbEntity
  8
1
 62
     1
100
AcDbLine
 10
50.47113247308103
 20
9.000000000000007
 30
0.0
 11
50.0
 21
8.183975
 31
0.0
  0
LINE
  5
70A
330
18
100
AcDbEntity
  8
1
 62
     1
100
AcDbLine
 10
50.0
 20
8.183975
 30
0.0
 11
49.52886752691897
 21
8.999999999999991
 31
0.0
  0
LINE
  5
70B
330
18
100
AcDbEntity
  8
1
 62
     1
100
AcDbLine
 10
49.47113247308104
 20
9.000000000000021
 30
0.0
 11
49.0
 21
8.183975
 31
0.0
  0
LINE
  5
70C
330
18
100
AcDbEntity
  8
1
 62
     1
100
AcDbLine
 10
49.0
 20
8.183975
 30
0.0
 11
48.52886752691897
 21
8.999999999999991
 31
0.0
  0
LINE
  5
70D
330
18
100
AcDbEntity
  8
1
 62
     1
100
AcDbLine
 10
48.47113247308104
 20
9.000000000000021
 30
0.0
 11
47.99999999999999
 21
8.183975
 31
0.0
  0
LINE
  5
70E
330
18
100
AcDbEntity
  8
1
 62
     1
100
AcDbLine
 10
48.0
 20
8.183975
 30
0.0
 11
47.52886752691897
 21
8.999999999999991
 31
0.0
  0
LINE
  5
70F
330
18
100
AcDbEntity
  8
1
 62
     1
100
AcDbLine
 10
62.00000000000001
 20
8.183975000000002
 30
0.0
 11
61.52991542773747
 21
8.998184983387322
 31
0.0
  0
LINE
  5
710
330
18
100
AcDbEntity
  8
1
 62
     1
100
AcDbLine
 10
62.3995280418392
 20
8.875977544867581
 30
0.0
 11
62.00000000000001
 21
8.183975000000002
 31
0.0
  0
LINE
  5
711
330
18
100
AcDbEntity
  8
1
 62
     1
100
AcDbLine
 10
63.00000000000001
 20
8.183975
 30
0.0
 11
62.61821527535086
 21
8.845245232328558
 31
0.0
  0
LINE
  5
712
330
18
100
AcDbEntity
  8
1
 62
     1
100
AcDbLine
 10
47.47113247308103
 20
9.000000000000004
 30
0.0
 11
47.0
 21
8.183975
 31
0.0
  0
LINE
  5
713
330
18
100
AcDbEntity
  8
1
 62
     1
100
AcDbLine
 10
51.0
 20
8.183975
 30
0.0
 11
50.52886752691898
 21
8.99999999999999
 31
0.0
  0
LINE
  5
714
330
18
100
AcDbEntity
  8
1
 62
     1
100
AcDbLine
 10
51.47113247308105
 20
9.000000000000009
 30
0.0
 11
51.0
 21
8.183975
 31
0.0
  0
LINE
  5
715
330
18
100
AcDbEntity
  8
1
 62
     1
100
AcDbLine
 10
52.0
 20
8.183975
 30
0.0
 11
51.52886752691898
 21
8.999999999999996
 31
0.0
  0
LINE
  5
716
330
18
100
AcDbEntity
  8
1
 62
     1
100
AcDbLine
 10
52.47113247308103
 20
9.000000000000005
 30
0.0
 11
52.0
 21
8.183975
 31
0.0
  0
LINE
  5
717
330
18
100
AcDbEntity
  8
1
 62
     1
100
AcDbLine
 10
53.0
 20
8.183975
 30
0.0
 11
52.52886752691897
 21
8.999999999999993
 31
0.0
  0
LINE
  5
718
330
18
100
AcDbEntity
  8
1
 62
     1
100
AcDbLine
 10
53.47113247308104
 20
9.000000000000005
 30
0.0
 11
52.99999999999999
 21
8.183975
 31
0.0
  0
LINE
  5
719
330
18
100
AcDbEntity
  8
1
 62
     1
100
AcDbLine
 10
54.0
 20
8.183975
 30
0.0
 11
53.52886752691898
 21
8.999999999999993
 31
0.0
  0
LINE
  5
71A
330
18
100
AcDbEntity
  8
1
 62
     1
100
AcDbLine
 10
54.47113247308104
 20
9.000000000000004
 30
0.0
 11
54.0
 21
8.183975
 31
0.0
  0
LINE
  5
71B
330
18
100
AcDbEntity
  8
1
 62
     1
100
AcDbLine
 10
55.0
 20
8.183975
 30
0.0
 11
54.52886752691898
 21
8.99999999999999
 31
0.0
  0
LINE
  5
71C
330
18
100
AcDbEntity
  8
1
 62
     1
100
AcDbLine
 10
55.47113247308103
 20
9.000000000000004
 30
0.0
 11
55.0
 21
8.183975
 31
0.0
  0
LINE
  5
71D
330
18
100
AcDbEntity
  8
1
 62
     1
100
AcDbLine
 10
56.00000000000001
 20
8.183975
 30
0.0
 11
55.52886752691897
 21
9.000000000000005
 31
0.0
  0
LINE
  5
71E
330
18
100
AcDbEntity
  8
1
 62
     1
100
AcDbLine
 10
56.47113247308104
 20
9.000000000000004
 30
0.0
 11
56.0
 21
8.183975
 31
0.0
  0
LINE
  5
71F
330
18
100
AcDbEntity
  8
1
 62
     1
100
AcDbLine
 10
57.0
 20
8.183975
 30
0.0
 11
56.52886752691898
 21
8.999999999999996
 31
0.0
  0
LINE
  5
720
330
18
100
AcDbEntity
  8
1
 62
     1
100
AcDbLine
 10
61.47113247308103
 20
8.999999999999998
 30
0.0
 11
60.99999999999999
 21
8.183975
 31
0.0
  0
LINE
  5
721
330
18
100
AcDbEntity
  8
1
 62
     1
100
AcDbLine
 10
61.0
 20
8.183975
 30
0.0
 11
60.52886752691897
 21
8.999999999999998
 31
0.0
  0
LINE
  5
722
330
18
100
AcDbEntity
  8
1
 62
     1
100
AcDbLine
 10
60.47113247308103
 20
8.999999999999998
 30
0.0
 11
59.99999999999999
 21
8.183975
 31
0.0
  0
LINE
  5
723
330
18
100
AcDbEntity
  8
1
 62
     1
100
AcDbLine
 10
60.0
 20
8.183975
 30
0.0
 11
59.52886752691897
 21
8.999999999999998
 31
0.0
  0
LINE
  5
724
330
18
100
AcDbEntity
  8
1
 62
     1
100
AcDbLine
 10
59.47113247308104
 20
9.000000000000023
 30
0.0
 11
59.0
 21
8.183975
 31
0.0
  0
LINE
  5
725
330
18
100
AcDbEntity
  8
1
 62
     1
100
AcDbLine
 10
59.0
 20
8.183974999999998
 30
0.0
 11
58.52886752691897
 21
8.999999999999991
 31
0.0
  0
LINE
  5
726
330
18
100
AcDbEntity
  8
1
 62
     1
100
AcDbLine
 10
58.47113247308103
 20
8.999999999999996
 30
0.0
 11
58.0
 21
8.183975
 31
0.0
  0
LINE
  5
727
330
18
100
AcDbEntity
  8
1
 62
     1
100
AcDbLine
 10
58.00000000000001
 20
8.183975000000002
 30
0.0
 11
57.52886752691899
 21
8.999999999999996
 31
0.0
  0
LINE
  5
728
330
18
100
AcDbEntity
  8
1
 62
     1
100
AcDbLine
 10
57.47113247308106
 20
9.00000000000003
 30
0.0
 11
57.0
 21
8.183975
 31
0.0
  0
LINE
  5
729
330
18
100
AcDbEntity
  8
1
 62
     1
100
AcDbLine
 10
47.00000000000001
 20
8.183975000000002
 30
0.0
 11
46.52886752691897
 21
8.999999999999998
 31
0.0
  0
LINE
  5
72A
330
18
100
AcDbEntity
  8
1
 62
     1
100
AcDbLine
 10
42.47113247308103
 20
9.0
 30
0.0
 11
42.0
 21
8.183975
 31
0.0
  0
LINE
  5
72B
330
18
100
AcDbEntity
  8
1
 62
     1
100
AcDbLine
 10
41.99999999999999
 20
8.183975
 30
0.0
 11
41.63843325746407
 21
8.810226676409378
 31
0.0
  0
LINE
  5
72C
330
18
100
AcDbEntity
  8
1
 62
     1
100
AcDbLine
 10
43.47113247308103
 20
9.0
 30
0.0
 11
43.0
 21
8.183975
 31
0.0
  0
LINE
  5
72D
330
18
100
AcDbEntity
  8
1
 62
     1
100
AcDbLine
 10
44.0
 20
8.183975
 30
0.0
 11
43.52886752691897
 21
8.999999999999998
 31
0.0
  0
LINE
  5
72E
330
18
100
AcDbEntity
  8
1
 62
     1
100
AcDbLine
 10
44.47113247308103
 20
9.000000000000002
 30
0.0
 11
43.99999999999999
 21
8.183975
 31
0.0
  0
LINE
  5
72F
330
18
100
AcDbEntity
  8
1
 62
     1
100
AcDbLine
 10
45.0
 20
8.183975
 30
0.0
 11
44.52886752691897
 21
8.999999999999998
 31
0.0
  0
LINE
  5
730
330
18
100
AcDbEntity
  8
1
 62
     1
100
AcDbLine
 10
45.47113247308103
 20
9.0
 30
0.0
 11
45.0
 21
8.183975
 31
0.0
  0
LINE
  5
731
330
18
100
AcDbEntity
  8
1
 62
     1
100
AcDbLine
 10
46.0
 20
8.183975
 30
0.0
 11
45.52886752691897
 21
8.999999999999995
 31
0.0
  0
LINE
  5
732
330
18
100
AcDbEntity
  8
1
 62
     1
100
AcDbLine
 10
46.47113247308103
 20
8.999999999999998
 30
0.0
 11
46.00000000000001
 21
8.183975000000002
 31
0.0
  0
LINE
  5
733
330
18
100
AcDbEntity
  8
1
 62
     1
100
AcDbLine
 10
41.0
 20
8.183975
 30
0.0
 11
40.87099148005606
 21
8.407424206968898
 31
0.0
  0
LINE
  5
734
330
18
100
AcDbEntity
  8
1
 62
     1
100
AcDbLine
 10
41.24118991653859
 20
8.601727994940662
 30
0.0
 11
41.0
 21
8.183975
 31
0.0
  0
LINE
  5
735
330
18
100
AcDbEntity
  8
1
 62
     1
100
AcDbLine
 10
43.0
 20
8.183975
 30
0.0
 11
42.52886752691897
 21
8.999999999999996
 31
0.0
  0
LINE
  5
736
330
18
100
AcDbEntity
  8
1
 62
     1
100
AcDbLine
 10
65.17438813749041
 20
-8.486023973540272
 30
0.0
 11
65.883114818191
 21
-8.386425979152277
 31
0.0
  0
LINE
  5
737
330
18
100
AcDbEntity
  8
1
 62
     1
100
AcDbLine
 10
64.24943477227333
 20
-8.616008497316038
 30
0.0
 11
64.79481497057762
 21
-8.539365730211042
 31
0.0
  0
LINE
  5
738
330
18
100
AcDbEntity
  8
1
 62
     1
100
AcDbLine
 10
63.32448140705628
 20
-8.7459930210918
 30
0.0
 11
63.70651512296423
 21
-8.692305481269802
 31
0.0
  0
LINE
  5
739
330
18
100
AcDbEntity
  8
1
 62
     1
100
AcDbLine
 10
62.3995280418392
 20
-8.875977544867567
 30
0.0
 11
62.61821527535087
 21
-8.845245232328564
 31
0.0
  0
LINE
  5
73A
330
18
100
AcDbEntity
  8
1
 62
     1
100
AcDbLine
 10
61.517
 20
-9.0
 30
0.0
 11
61.52991542773748
 21
-8.998184983387326
 31
0.0
  0
LINE
  5
73B
330
18
100
AcDbEntity
  8
1
 62
     1
100
AcDbLine
 10
61.47113247308103
 20
-9.0
 30
0.0
 11
61.517
 21
-9.0
 31
0.0
  0
LINE
  5
73C
330
18
100
AcDbEntity
  8
1
 62
     1
100
AcDbLine
 10
60.47113247308103
 20
-9.0
 30
0.0
 11
60.52886752691898
 21
-9.0
 31
0.0
  0
LINE
  5
73D
330
18
100
AcDbEntity
  8
1
 62
     1
100
AcDbLine
 10
59.47113247308104
 20
-9.0
 30
0.0
 11
59.52886752691898
 21
-9.0
 31
0.0
  0
LINE
  5
73E
330
18
100
AcDbEntity
  8
1
 62
     1
100
AcDbLine
 10
58.47113247308101
 20
-9.0
 30
0.0
 11
58.52886752691899
 21
-9.0
 31
0.0
  0
LINE
  5
73F
330
18
100
AcDbEntity
  8
1
 62
     1
100
AcDbLine
 10
57.47113247308106
 20
-9.0
 30
0.0
 11
57.52886752691899
 21
-9.0
 31
0.0
  0
LINE
  5
740
330
18
100
AcDbEntity
  8
1
 62
     1
100
AcDbLine
 10
56.47113247308104
 20
-9.0
 30
0.0
 11
56.52886752691899
 21
-9.0
 31
0.0
  0
LINE
  5
741
330
18
100
AcDbEntity
  8
1
 62
     1
100
AcDbLine
 10
55.47113247308104
 20
-9.0
 30
0.0
 11
55.52886752691897
 21
-9.0
 31
0.0
  0
LINE
  5
742
330
18
100
AcDbEntity
  8
1
 62
     1
100
AcDbLine
 10
54.47113247308104
 20
-9.0
 30
0.0
 11
54.52886752691901
 21
-9.0
 31
0.0
  0
LINE
  5
743
330
18
100
AcDbEntity
  8
1
 62
     1
100
AcDbLine
 10
53.47113247308104
 20
-9.0
 30
0.0
 11
53.52886752691899
 21
-9.0
 31
0.0
  0
LINE
  5
744
330
18
100
AcDbEntity
  8
1
 62
     1
100
AcDbLine
 10
52.47113247308104
 20
-9.0
 30
0.0
 11
52.528867526919
 21
-9.0
 31
0.0
  0
LINE
  5
745
330
18
100
AcDbEntity
  8
1
 62
     1
100
AcDbLine
 10
51.47113247308104
 20
-9.0
 30
0.0
 11
51.52886752691899
 21
-9.0
 31
0.0
  0
LINE
  5
746
330
18
100
AcDbEntity
  8
1
 62
     1
100
AcDbLine
 10
50.47113247308104
 20
-9.0
 30
0.0
 11
50.528867526919
 21
-9.0
 31
0.0
  0
LINE
  5
747
330
18
100
AcDbEntity
  8
1
 62
     1
100
AcDbLine
 10
49.47113247308104
 20
-9.0
 30
0.0
 11
49.52886752691899
 21
-8.999999999999998
 31
0.0
  0
LINE
  5
748
330
18
100
AcDbEntity
  8
1
 62
     1
100
AcDbLine
 10
48.47113247308103
 20
-8.999999999999998
 30
0.0
 11
48.52886752691899
 21
-9.0
 31
0.0
  0
LINE
  5
749
330
18
100
AcDbEntity
  8
1
 62
     1
100
AcDbLine
 10
47.47113247308103
 20
-9.0
 30
0.0
 11
47.52886752691899
 21
-9.0
 31
0.0
  0
LINE
  5
74A
330
18
100
AcDbEntity
  8
1
 62
     1
100
AcDbLine
 10
46.47113247308103
 20
-9.0
 30
0.0
 11
46.52886752691897
 21
-9.0
 31
0.0
  0
LINE
  5
74B
330
18
100
AcDbEntity
  8
1
 62
     1
100
AcDbLine
 10
45.47113247308103
 20
-9.0
 30
0.0
 11
45.52886752691898
 21
-9.0
 31
0.0
  0
LINE
  5
74C
330
18
100
AcDbEntity
  8
1
 62
     1
100
AcDbLine
 10
44.47113247308103
 20
-8.999999999999998
 30
0.0
 11
44.52886752691897
 21
-8.999999999999998
 31
0.0
  0
LINE
  5
74D
330
18
100
AcDbEntity
  8
1
 62
     1
100
AcDbLine
 10
43.47113247308103
 20
-9.0
 30
0.0
 11
43.52886752691897
 21
-9.0
 31
0.0
  0
LINE
  5
74E
330
18
100
AcDbEntity
  8
1
 62
     1
100
AcDbLine
 10
42.47113247308103
 20
-9.0
 30
0.0
 11
42.52886752691898
 21
-9.0
 31
0.0
  0
LINE
  5
74F
330
18
100
AcDbEntity
  8
1
 62
     1
100
AcDbLine
 10
41.24118991653859
 20
-8.60172799494066
 30
0.0
 11
41.63843325746406
 21
-8.810226676409359
 31
0.0
  0
LINE
  5
750
330
18
100
AcDbEntity
  8
1
 62
     1
100
AcDbLine
 10
38.18948822000001
 20
-7.0
 30
0.0
 11
40.87099148005606
 21
-8.40742420696889
 31
0.0
  0
LINE
  5
751
330
18
100
AcDbEntity
  8
SK1
100
AcDbLine
 10
0.0
 20
7.0
 30
0.0
 11
-30.0
 21
7.0
 31
0.0
  0
LINE
  5
752
330
18
100
AcDbEntity
  8
SK1
100
AcDbLine
 10
-30.0
 20
-5.499999999999998
 30
0.0
 11
-30.0
 21
-7.0
 31
0.0
  0
ARC
  5
753
330
18
100
AcDbEntity
  8
SK1
100
AcDbCircle
 10
-31.33934881264754
 20
-3.157451908537213
 30
0.0
 40
14.11051707472511
100
AcDbArc
 50
147.95270668743
 51
153.7996447978069
  0
LINE
  5
754
330
18
100
AcDbEntity
  8
SK1
100
AcDbLine
 10
-43.3
 20
5.5
 30
0.0
 11
-43.3
 21
4.330127018922247
 31
0.0
  0
LINE
  5
755
330
18
100
AcDbEntity
  8
SK1
100
AcDbLine
 10
-44.0
 20
5.5
 30
0.0
 11
-43.3
 21
5.500000000000002
 31
0.0
  0
LINE
  5
756
330
18
100
AcDbEntity
  8
SK1
100
AcDbLine
 10
-30.0
 20
7.0
 30
0.0
 11
-30.0
 21
6.999685093817071
 31
0.0
  0
LINE
  5
757
330
18
100
AcDbEntity
  8
SK1
100
AcDbLine
 10
-30.0
 20
6.999685093817071
 30
0.0
 11
-29.99999999999999
 21
6.903654873270403
 31
0.0
  0
LINE
  5
758
330
18
100
AcDbEntity
  8
SK1
100
AcDbLine
 10
-29.99999999999999
 20
6.903654873270403
 30
0.0
 11
-30.0
 21
5.5
 31
0.0
  0
LINE
  5
759
330
18
100
AcDbEntity
  8
SK1
100
AcDbLine
 10
-43.3
 20
5.5
 30
0.0
 11
-30.0
 21
5.5
 31
0.0
  0
LINE
  5
75A
330
18
100
AcDbEntity
  8
SK1
100
AcDbLine
 10
-43.3
 20
-4.330127018922194
 30
0.0
 11
-30.0
 21
-4.330127018922194
 31
0.0
  0
LINE
  5
75B
330
18
100
AcDbEntity
  8
SK1
100
AcDbLine
 10
-43.3
 20
-5.5
 30
0.0
 11
-30.0
 21
-5.5
 31
0.0
  0
LINE
  5
75C
330
18
100
AcDbEntity
  8
SK1
100
AcDbLine
 10
-43.99999999999999
 20
3.072458299147446
 30
0.0
 11
-44.0
 21
-3.072458299147444
 31
0.0
  0
LINE
  5
75D
330
18
100
AcDbEntity
  8
SK1
100
AcDbLine
 10
-44.0
 20
5.500000000000001
 30
0.0
 11
-43.99999999999999
 21
3.072458299147446
 31
0.0
  0
LINE
  5
75E
330
18
100
AcDbEntity
  8
SK1
100
AcDbLine
 10
-44.0
 20
-3.072458299147441
 30
0.0
 11
-44.0
 21
-5.499999999999997
 31
0.0
  0
ARC
  5
75F
330
18
100
AcDbEntity
  8
SK1
100
AcDbCircle
 10
-31.33934881265535
 20
3.157451908532931
 30
0.0
 40
14.11051707471622
100
AcDbArc
 50
206.2003552021914
 51
212.0472933125722
  0
LINE
  5
760
330
18
100
AcDbEntity
  8
SK1
100
AcDbLine
 10
-44.0
 20
-5.5
 30
0.0
 11
-43.3
 21
-5.5
 31
0.0
  0
LINE
  5
761
330
18
100
AcDbEntity
  8
SK1
100
AcDbLine
 10
-43.3
 20
-4.330127018922194
 30
0.0
 11
-43.3
 21
-5.499999999999997
 31
0.0
  0
LINE
  5
762
330
18
100
AcDbEntity
  8
SK1
100
AcDbLine
 10
-30.0
 20
4.330127018922412
 30
0.0
 11
-30.0
 21
-4.330127018922412
 31
0.0
  0
LINE
  5
763
330
18
100
AcDbEntity
  8
SK1
100
AcDbLine
 10
-43.3
 20
4.330127018922262
 30
0.0
 11
-30.0
 21
4.330127018922262
 31
0.0
  0
LINE
  5
764
330
18
100
AcDbEntity
  8
SK1
100
AcDbLine
 10
-30.0
 20
-7.0
 30
0.0
 11
0.0
 21
-7.0
 31
0.0
  0
DIMENSION
  5
765
330
18
100
AcDbEntity
  8
2
100
AcDbDimension
  2
*D0
 10
81.00000000000007
 20
-8.999999999999948
 30
0.0
 11
78.60925000000005
 21
0.0000000000000431
 31
0.0
 70
    32
  1
MF18x1
 71
     5
 42
18.0
  3
STANDARD
100
AcDbAlignedDimension
 13
66.0
 23
9.0
 33
0.0
 14
66.0
 24
-9.0
 34
0.0
 50
90.0000000000002
100
AcDbRotatedDimension
  0
DIMENSION
  5
772
330
18
100
AcDbEntity
  8
2
100
AcDbDimension
  2
*D1
 10
66.0
 20
75.0
 30
0.0
 11
33.0
 21
77.39075
 31
0.0
 70
    32
  1
<>
 71
     5
 42
66.0
  3
STANDARD
100
AcDbAlignedDimension
 13
0.0
 23
0.0
 33
0.0
 14
66.0
 24
0.0
 34
0.0
100
AcDbRotatedDimension
  0
DIMENSION
  5
77F
330
18
100
AcDbEntity
  8
SK2
100
AcDbDimension
  2
*D2
 10
-58.99999999996427
 20
-7.000000000147999
 30
0.0
 11
-61.431
 21
-0.0000000001604049
 31
0.0
 70
    32
  1
%%c<>
 71
     5
 42
14.0
  3
STANDARD
100
AcDbAlignedDimension
 13
-30.0
 23
7.0
 33
0.0
 14
-30.0
 24
-7.0
 34
0.0
 50
90.0000000002924
100
AcDbRotatedDimension
  0
DIMENSION
  5
78C
330
18
100
AcDbEntity
  8
2
100
AcDbDimension
  2
*D3
 10
66.0
 20
60.0
 30
0.0
 11
52.09474411
 21
62.39775
 31
0.0
 70
    32
  1
<>
 71
     5
 42
27.81051178
  3
STANDARD
100
AcDbAlignedDimension
 13
38.18948822
 23
6.8
 33
0.0
 14
66.0
 24
9.0
 34
0.0
100
AcDbRotatedDimension
  0
DIMENSION
  5
799
330
18
100
AcDbEntity
  8
SK2
100
AcDbDimension
  2
*D4
 10
66.0
 20
90.0
 30
0.0
 11
11.0
 21
92.39075
 31
0.0
 70
    32
  1
<>
 71
     5
 42
110.0
  3
STANDARD
100
AcDbAlignedDimension
 13
-44.0
 23
9.0
 33
0.0
 14
66.0
 24
9.0
 34
0.0
100
AcDbRotatedDimension
  0
ENDSEC
  0
SECTION
  2
OBJECTS
  0
DICTIONARY
  5
C
330
0
100
AcDbDictionary
281
     1
  3
ACAD_COLOR
350
387
  3
ACAD_GROUP
350
D
  3
ACAD_LAYOUT
350
301
  3
ACAD_MATERIAL
350
386
  3
ACAD_MLEADERSTYLE
350
7A6
  3
ACAD_MLINESTYLE
350
E
  3
ACAD_PLOTSETTINGS
350
302
  3
ACAD_PLOTSTYLENAME
350
2FF
  3
ACAD_SCALELIST
350
3A0
  3
ACAD_TABLESTYLE
350
388
  3
ACAD_VISUALSTYLE
350
3C5
  3
ACDBHEADERROUNDTRIPXREC
350
7A7
  3
AcDbVariableDictionary
350
357
  0
DICTIONARY
  5
387
102
{ACAD_REACTORS
330
C
102
}
330
C
100
AcDbDictionary
281
     1
  0
DICTIONARY
  5
D
102
{ACAD_REACTORS
330
C
102
}
330
C
100
AcDbDictionary
281
     1
  0
DICTIONARY
  5
301
102
{ACAD_REACTORS
330
C
102
}
330
C
100
AcDbDictionary
281
     1
  3
Layout1
350
33B
  3
Model
350
303
  0
DICTIONARY
  5
386
102
{ACAD_REACTORS
330
C
102
}
330
C
100
AcDbDictionary
281
     1
  3
ByBlock
350
3C3
  3
ByLayer
350
3C2
  3
Global
350
3C4
  0
DICTIONARY
  5
7A6
102
{ACAD_REACTORS
330
C
102
}
330
C
100
AcDbDictionary
281
     1
  0
DICTIONARY
  5
E
102
{ACAD_REACTORS
330
C
102
}
330
C
100
AcDbDictionary
281
     1
  3
STANDARD
350
1B
  0
DICTIONARY
  5
302
102
{ACAD_REACTORS
330
C
102
}
330
C
100
AcDbDictionary
281
     1
  0
ACDBDICTIONARYWDFLT
  5
2FF
102
{ACAD_REACTORS
330
C
102
}
330
C
100
AcDbDictionary
281
     1
  3
Normal
350
300
100
AcDbDictionaryWithDefault
340
300
  0
DICTIONARY
  5
3A0
102
{ACAD_REACTORS
330
C
102
}
330
C
100
AcDbDictionary
281
     1
  3
A0
350
3A1
  3
A1
350
3A2
  3
A2
350
3A3
  3
A3
350
3A4
  3
A4
350
3A5
  3
A5
350
3A6
  3
A6
350
3A7
  3
A7
350
3A8
  3
A8
350
3A9
  3
A9
350
3AA
  3
B0
350
3AB
  3
B1
350
3AC
  3
B2
350
3AD
  3
B3
350
3AE
  3
B4
350
3AF
  3
B5
350
3B0
  3
B6
350
3B1
  3
B7
350
3B2
  3
B8
350
3B3
  3
B9
350
3B4
  3
C0
350
3B5
  3
C1
350
3B6
  3
C2
350
3B7
  3
C3
350
3B8
  3
C4
350
3B9
  3
C5
350
3BA
  3
C6
350
3BB
  3
C7
350
3BC
  3
C8
350
3BD
  3
C9
350
3BE
  3
D0
350
3BF
  3
D1
350
3C0
  3
D2
350
3C1
  0
DICTIONARY
  5
388
102
{ACAD_REACTORS
330
C
102
}
330
C
100
AcDbDictionary
281
     1
  3
Standard
350
389
  0
DICTIONARY
  5
3C5
102
{ACAD_REACTORS
330
C
102
}
330
C
100
AcDbDictionary
281
     1
  3
2dWireframe
350
3CA
  3
3D Hidden
350
3CC
  3
3dWireframe
350
3CB
  3
Basic
350
3CD
  3
Brighten
350
3D1
  3
ColorChange
350
3D5
  3
Conceptual
350
3CF
  3
Dim
350
3D0
  3
Facepattern
350
3D4
  3
Flat
350
3C6
  3
FlatWithEdges
350
3C7
  3
Gouraud
350
3C8
  3
GouraudWithEdges
350
3C9
  3
Linepattern
350
3D3
  3
Realistic
350
3CE
  3
Thicken
350
3D2
  0
DICTIONARY
  5
7A7
102
{ACAD_REACTORS
330
C
102
}
330
C
100
AcDbDictionary
281
     1
  3
COLORDICT
350
7A8
  3
MATERIALDICT
350
7A9
  0
DICTIONARY
  5
357
102
{ACAD_REACTORS
330
C
102
}
330
C
100
AcDbDictionary
281
     1
  3
CANNOSCALE
350
7AA
  3
CTABLESTYLE
350
38D
  3
DIMASSOC
350
359
  3
HIDETEXT
350
358
  3
PROJECTNAME
350
38E
  0
LAYOUT
  5
33B
102
{ACAD_REACTORS
330
301
102
}
330
301
100
AcDbPlotSettings
  1

  2
Lexmark Optra PS2
  4

  6

 40
0.0
 41
0.0
 42
0.0
 43
0.0
 44
0.0
 45
0.0
 46
0.0
 47
0.0
 48
0.0
 49
0.0
140
0.0
141
0.0
142
1.0
143
1.0
 70
   688
 72
     0
 73
     0
 74
     5
  7
monochrome.ctb
 75
    16
147
1.0
148
0.0
149
0.0
100
AcDbLayout
  1
Layout1
 70
     1
 71
     1
 10
0.0
 20
0.0
 11
12.0
 21
9.0
 12
0.0
 22
0.0
 32
0.0
 14
0.0
 24
0.0
 34
0.0
 15
0.0
 25
0.0
 35
0.0
146
0.0
 13
0.0
 23
0.0
 33
0.0
 16
1.0
 26
0.0
 36
0.0
 17
0.0
 27
1.0
 37
0.0
 76
     0
330
338
  0
LAYOUT
  5
303
102
{ACAD_REACTORS
330
301
102
}
330
301
100
AcDbPlotSettings
  1

  2
Lexmark Optra Rx
  4
A4
  6

 40
6.805083274841307
 41
5.535083293914794
 42
6.974411010742187
 43
7.14373779296875
 44
209.9733276367186
 45
296.9259948730469
 46
0.0
 47
0.0
 48
0.0
 49
0.0
140
0.0
141
0.0
142
1.0
143
2.976565420630886
 70
 11952
 72
     1
 73
     1
 74
     0
  7
monochrome.ctb
 75
     0
147
0.335957675604539
148
204.1199660668592
149
172.3933209647495
100
AcDbLayout
  1
Model
 70
     1
 71
     0
 10
0.0
 20
0.0
 11
12.0
 21
9.0
 12
0.0
 22
0.0
 32
0.0
 14
0.0
 24
0.0
 34
0.0
 15
0.0
 25
0.0
 35
0.0
146
0.0
 13
0.0
 23
0.0
 33
0.0
 16
1.0
 26
0.0
 36
0.0
 17
0.0
 27
1.0
 37
0.0
 76
     0
330
18
331
39A
  0
MATERIAL
  5
3C3
102
{ACAD_REACTORS
330
386
102
}
102
{ACAD_XDICTIONARY
360
7AD
102
}
330
386
100
AcDbMaterial
  1
ByBlock
  0
MATERIAL
  5
3C2
102
{ACAD_REACTORS
330
386
102
}
102
{ACAD_XDICTIONARY
360
7AB
102
}
330
386
100
AcDbMaterial
  1
ByLayer
  0
MATERIAL
  5
3C4
102
{ACAD_REACTORS
330
386
102
}
102
{ACAD_XDICTIONARY
360
7AF
102
}
330
386
100
AcDbMaterial
  1
Global
  0
MLINESTYLE
  5
1B
102
{ACAD_REACTORS
330
E
102
}
330
E
100
AcDbMlineStyle
  2
STANDARD
 70
     0
  3

 62
     0
 51
90.0
 52
90.0
 71
     2
 49
0.5
 62
   256
  6
BYLAYER
 49
-0.5
 62
   256
  6
BYLAYER
  0
ACDBPLACEHOLDER
  5
300
102
{ACAD_REACTORS
330
2FF
102
}
330
2FF
  0
SCALE
  5
3A1
102
{ACAD_REACTORS
330
3A0
102
}
330
3A0
100
AcDbScale
 70
     0
300
1:1
140
1.0
141
1.0
290
     1
  0
SCALE
  5
3A2
102
{ACAD_REACTORS
330
3A0
102
}
330
3A0
100
AcDbScale
 70
     0
300
1:2
140
1.0
141
2.0
290
     0
  0
SCALE
  5
3A3
102
{ACAD_REACTORS
330
3A0
102
}
330
3A0
100
AcDbScale
 70
     0
300
1:4
140
1.0
141
4.0
290
     0
  0
SCALE
  5
3A4
102
{ACAD_REACTORS
330
3A0
102
}
330
3A0
100
AcDbScale
 70
     0
300
1:5
140
1.0
141
5.0
290
     0
  0
SCALE
  5
3A5
102
{ACAD_REACTORS
330
3A0
102
}
330
3A0
100
AcDbScale
 70
     0
300
1:8
140
1.0
141
8.0
290
     0
  0
SCALE
  5
3A6
102
{ACAD_REACTORS
330
3A0
102
}
330
3A0
100
AcDbScale
 70
     0
300
1:10
140
1.0
141
10.0
290
     0
  0
SCALE
  5
3A7
102
{ACAD_REACTORS
330
3A0
102
}
330
3A0
100
AcDbScale
 70
     0
300
1:16
140
1.0
141
16.0
290
     0
  0
SCALE
  5
3A8
102
{ACAD_REACTORS
330
3A0
102
}
330
3A0
100
AcDbScale
 70
     0
300
1:20
140
1.0
141
20.0
290
     0
  0
SCALE
  5
3A9
102
{ACAD_REACTORS
330
3A0
102
}
330
3A0
100
AcDbScale
 70
     0
300
1:30
140
1.0
141
30.0
290
     0
  0
SCALE
  5
3AA
102
{ACAD_REACTORS
330
3A0
102
}
330
3A0
100
AcDbScale
 70
     0
300
1:40
140
1.0
141
40.0
290
     0
  0
SCALE
  5
3AB
102
{ACAD_REACTORS
330
3A0
102
}
330
3A0
100
AcDbScale
 70
     0
300
1:50
140
1.0
141
50.0
290
     0
  0
SCALE
  5
3AC
102
{ACAD_REACTORS
330
3A0
102
}
330
3A0
100
AcDbScale
 70
     0
300
1:100
140
1.0
141
100.0
290
     0
  0
SCALE
  5
3AD
102
{ACAD_REACTORS
330
3A0
102
}
330
3A0
100
AcDbScale
 70
     0
300
2:1
140
2.0
141
1.0
290
     0
  0
SCALE
  5
3AE
102
{ACAD_REACTORS
330
3A0
102
}
330
3A0
100
AcDbScale
 70
     0
300
4:1
140
4.0
141
1.0
290
     0
  0
SCALE
  5
3AF
102
{ACAD_REACTORS
330
3A0
102
}
330
3A0
100
AcDbScale
 70
     0
300
8:1
140
8.0
141
1.0
290
     0
  0
SCALE
  5
3B0
102
{ACAD_REACTORS
330
3A0
102
}
330
3A0
100
AcDbScale
 70
     0
300
10:1
140
10.0
141
1.0
290
     0
  0
SCALE
  5
3B1
102
{ACAD_REACTORS
330
3A0
102
}
330
3A0
100
AcDbScale
 70
     0
300
100:1
140
100.0
141
1.0
290
     0
  0
SCALE
  5
3B2
102
{ACAD_REACTORS
330
3A0
102
}
330
3A0
100
AcDbScale
 70
     0
300
1/128" = 1'-0"
140
0.0078125
141
12.0
290
     0
  0
SCALE
  5
3B3
102
{ACAD_REACTORS
330
3A0
102
}
330
3A0
100
AcDbScale
 70
     0
300
1/64" = 1'-0"
140
0.015625
141
12.0
290
     0
  0
SCALE
  5
3B4
102
{ACAD_REACTORS
330
3A0
102
}
330
3A0
100
AcDbScale
 70
     0
300
1/32" = 1'-0"
140
0.03125
141
12.0
290
     0
  0
SCALE
  5
3B5
102
{ACAD_REACTORS
330
3A0
102
}
330
3A0
100
AcDbScale
 70
     0
300
1/16" = 1'-0"
140
0.0625
141
12.0
290
     0
  0
SCALE
  5
3B6
102
{ACAD_REACTORS
330
3A0
102
}
330
3A0
100
AcDbScale
 70
     0
300
3/32" = 1'-0"
140
0.09375
141
12.0
290
     0
  0
SCALE
  5
3B7
102
{ACAD_REACTORS
330
3A0
102
}
330
3A0
100
AcDbScale
 70
     0
300
1/8" = 1'-0"
140
0.125
141
12.0
290
     0
  0
SCALE
  5
3B8
102
{ACAD_REACTORS
330
3A0
102
}
330
3A0
100
AcDbScale
 70
     0
300
3/16" = 1'-0"
140
0.1875
141
12.0
290
     0
  0
SCALE
  5
3B9
102
{ACAD_REACTORS
330
3A0
102
}
330
3A0
100
AcDbScale
 70
     0
300
1/4" = 1'-0"
140
0.25
141
12.0
290
     0
  0
SCALE
  5
3BA
102
{ACAD_REACTORS
330
3A0
102
}
330
3A0
100
AcDbScale
 70
     0
300
3/8" = 1'-0"
140
0.375
141
12.0
290
     0
  0
SCALE
  5
3BB
102
{ACAD_REACTORS
330
3A0
102
}
330
3A0
100
AcDbScale
 70
     0
300
1/2" = 1'-0"
140
0.5
141
12.0
290
     0
  0
SCALE
  5
3BC
102
{ACAD_REACTORS
330
3A0
102
}
330
3A0
100
AcDbScale
 70
     0
300
3/4" = 1'-0"
140
0.75
141
12.0
290
     0
  0
SCALE
  5
3BD
102
{ACAD_REACTORS
330
3A0
102
}
330
3A0
100
AcDbScale
 70
     0
300
1" = 1'-0"
140
1.0
141
12.0
290
     0
  0
SCALE
  5
3BE
102
{ACAD_REACTORS
330
3A0
102
}
330
3A0
100
AcDbScale
 70
     0
300
1-1/2" = 1'-0"
140
1.5
141
12.0
290
     0
  0
SCALE
  5
3BF
102
{ACAD_REACTORS
330
3A0
102
}
330
3A0
100
AcDbScale
 70
     0
300
3" = 1'-0"
140
3.0
141
12.0
290
     0
  0
SCALE
  5
3C0
102
{ACAD_REACTORS
330
3A0
102
}
330
3A0
100
AcDbScale
 70
     0
300
6" = 1'-0"
140
6.0
141
12.0
290
     0
  0
SCALE
  5
3C1
102
{ACAD_REACTORS
330
3A0
102
}
330
3A0
100
AcDbScale
 70
     0
300
1'-0" = 1'-0"
140
12.0
141
12.0
290
     0
  0
TABLESTYLE
  5
389
102
{ACAD_REACTORS
330
388
102
}
330
388
100
AcDbTableStyle
  3
Standard
 70
     0
 71
     0
 40
1.5
 41
1.5
280
     0
281
     0
  7
STANDARD
140
4.5
170
     2
 62
     0
 63
   257
283
     0
274
    -2
284
     1
 64
     0
275
    -2
285
     1
 65
     0
276
    -2
286
     1
 66
     0
277
    -2
287
     1
 67
     0
278
    -2
288
     1
 68
     0
279
    -2
289
     1
 69
     0
  7
STANDARD
140
6.0
170
     5
 62
     0
 63
   257
283
     0
274
    -2
284
     1
 64
     0
275
    -2
285
     1
 65
     0
276
    -2
286
     1
 66
     0
277
    -2
287
     1
 67
     0
278
    -2
288
     1
 68
     0
279
    -2
289
     1
 69
     0
  7
STANDARD
140
4.5
170
     5
 62
     0
 63
   257
283
     0
274
    -2
284
     1
 64
     0
275
    -2
285
     1
 65
     0
276
    -2
286
     1
 66
     0
277
    -2
287
     1
 67
     0
278
    -2
288
     1
 68
     0
279
    -2
289
     1
 69
     0
  0
VISUALSTYLE
  5
3CA
102
{ACAD_REACTORS
330
3C5
102
}
102
{ACAD_XDICTIONARY
360
7B9
102
}
330
3C5
100
AcDbVisualStyle
  2
2dWireframe
 70
     4
 71
     0
 72
     2
 73
     0
 90
        0
 40
-0.6
 41
-30.0
 62
     5
 63
     7
 74
     1
 91
        4
 64
     7
 65
   257
 75
     1
175
     1
 42
1.0
 92
        0
 66
   257
 43
1.0
 76
     1
 77
     6
 78
     2
 67
     7
 79
     5
170
     0
171
     0
290
     0
174
     0
 93
        1
 44
0.0
173
     0
291
     0
 45
0.0
1001
ACAD
1000
AcDbSavedByObjectVersion
1070
     0
  0
VISUALSTYLE
  5
3CC
102
{ACAD_REACTORS
330
3C5
102
}
102
{ACAD_XDICTIONARY
360
7BD
102
}
330
3C5
100
AcDbVisualStyle
  2
3D Hidden
 70
     6
 71
     1
 72
     2
 73
     2
 90
        0
 40
-0.6
 41
-30.0
 62
     5
 63
     7
 74
     2
 91
        2
 64
     7
 65
   257
 75
     2
175
     1
 42
40.0
 92
        0
 66
   257
 43
1.0
 76
     1
 77
     6
 78
     2
 67
     7
 79
     3
170
     0
171
     0
290
     0
174
     0
 93
        1
 44
0.0
173
     0
291
     0
 45
0.0
1001
ACAD
1000
AcDbSavedByObjectVersion
1070
     0
  0
VISUALSTYLE
  5
3CB
102
{ACAD_REACTORS
330
3C5
102
}
102
{ACAD_XDICTIONARY
360
7BB
102
}
330
3C5
100
AcDbVisualStyle
  2
3dWireframe
 70
     5
 71
     0
 72
     2
 73
     0
 90
        0
 40
-0.6
 41
-30.0
 62
     5
 63
     7
 74
     1
 91
        4
 64
     7
 65
   257
 75
     1
175
     1
 42
1.0
 92
        0
 66
   257
 43
1.0
 76
     1
 77
     6
 78
     2
 67
     7
 79
     5
170
     0
171
     0
290
     0
174
     0
 93
        1
 44
0.0
173
     0
291
     0
 45
0.0
1001
ACAD
1000
AcDbSavedByObjectVersion
1070
     0
  0
VISUALSTYLE
  5
3CD
102
{ACAD_REACTORS
330
3C5
102
}
102
{ACAD_XDICTIONARY
360
7BF
102
}
330
3C5
100
AcDbVisualStyle
  2
Basic
 70
     7
 71
     1
 72
     0
 73
     1
 90
        0
 40
-0.6
 41
-30.0
 62
     5
 63
     7
 74
     0
 91
        4
 64
     7
 65
   257
 75
     1
175
     1
 42
1.0
 92
        8
 66
     7
 43
1.0
 76
     1
 77
     6
 78
     2
 67
     7
 79
     5
170
     0
171
     0
290
     0
174
     0
 93
        1
 44
0.0
173
     0
291
     1
 45
0.0
1001
ACAD
1000
AcDbSavedByObjectVersion
1070
     0
  0
VISUALSTYLE
  5
3D1
102
{ACAD_REACTORS
330
3C5
102
}
102
{ACAD_XDICTIONARY
360
7C7
102
}
330
3C5
100
AcDbVisualStyle
  2
Brighten
 70
    12
 71
     2
 72
     2
 73
     0
 90
        0
 40
-0.6
 41
-30.0
 62
     5
 63
     7
 74
     1
 91
        4
 64
     7
 65
   257
 75
     1
175
     1
 42
1.0
 92
        8
 66
     7
 43
1.0
 76
     1
 77
     6
 78
     2
 67
     7
 79
     5
170
     0
171
     0
290
     0
174
     0
 93
        1
 44
50.0
173
     0
291
     1
 45
0.0
1001
ACAD
1000
AcDbSavedByObjectVersion
1070
     0
  0
VISUALSTYLE
  5
3D5
102
{ACAD_REACTORS
330
3C5
102
}
102
{ACAD_XDICTIONARY
360
7CF
102
}
330
3C5
100
AcDbVisualStyle
  2
ColorChange
 70
    16
 71
     2
 72
     2
 73
     3
 90
        0
 40
-0.6
 41
-30.0
 62
     5
 63
     8
 74
     1
 91
        4
 64
     7
 65
   257
 75
     1
175
     1
 42
1.0
 92
        8
 66
     8
 43
1.0
 76
     1
 77
     6
 78
     2
 67
     7
 79
     5
170
     0
171
     0
290
     0
174
     0
 93
        1
 44
0.0
173
     0
291
     1
 45
0.0
1001
ACAD
1000
AcDbSavedByObjectVersion
1070
     0
  0
VISUALSTYLE
  5
3CF
102
{ACAD_REACTORS
330
3C5
102
}
102
{ACAD_XDICTIONARY
360
7C3
102
}
330
3C5
100
AcDbVisualStyle
  2
Conceptual
 70
     9
 71
     3
 72
     2
 73
     0
 90
        0
 40
-0.6
 41
-30.0
 62
     5
 63
     7
 74
     2
 91
        2
 64
     7
 65
   257
 75
     1
175
     1
 42
40.0
 92
        8
 66
     7
 43
1.0
 76
     1
 77
     6
 78
     2
 67
     7
 79
     3
170
     0
171
     0
290
     0
174
     0
 93
        1
 44
0.0
173
     0
291
     0
 45
0.0
1001
ACAD
1000
AcDbSavedByObjectVersion
1070
     0
  0
VISUALSTYLE
  5
3D0
102
{ACAD_REACTORS
330
3C5
102
}
102
{ACAD_XDICTIONARY
360
7C5
102
}
330
3C5
100
AcDbVisualStyle
  2
Dim
 70
    11
 71
     2
 72
     2
 73
     0
 90
        0
 40
-0.6
 41
-30.0
 62
     5
 63
     7
 74
     1
 91
        4
 64
     7
 65
   257
 75
     1
175
     1
 42
1.0
 92
        8
 66
     7
 43
1.0
 76
     1
 77
     6
 78
     2
 67
     7
 79
     5
170
     0
171
     0
290
     0
174
     0
 93
        1
 44
-50.0
173
     0
291
     1
 45
0.0
1001
ACAD
1000
AcDbSavedByObjectVersion
1070
     0
  0
VISUALSTYLE
  5
3D4
102
{ACAD_REACTORS
330
3C5
102
}
102
{ACAD_XDICTIONARY
360
7CD
102
}
330
3C5
100
AcDbVisualStyle
  2
Facepattern
 70
    15
 71
     2
 72
     2
 73
     0
 90
        0
 40
-0.6
 41
-30.0
 62
     5
 63
     7
 74
     1
 91
        4
 64
     7
 65
   257
 75
     1
175
     1
 42
1.0
 92
        8
 66
     7
 43
1.0
 76
     1
 77
     6
 78
     2
 67
     7
 79
     5
170
     0
171
     0
290
     0
174
     0
 93
        1
 44
0.0
173
     0
291
     1
 45
0.0
1001
ACAD
1000
AcDbSavedByObjectVersion
1070
     0
  0
VISUALSTYLE
  5
3C6
102
{ACAD_REACTORS
330
3C5
102
}
102
{ACAD_XDICTIONARY
360
7B1
102
}
330
3C5
100
AcDbVisualStyle
  2
Flat
 70
     0
 71
     2
 72
     1
 73
     1
 90
        2
 40
-0.6
 41
30.0
 62
     5
 63
     7
 74
     0
 91
        4
 64
     7
 65
   257
 75
     1
175
     1
 42
1.0
 92
        8
 66
     7
 43
1.0
 76
     1
 77
     6
 78
     2
 67
     7
 79
     5
170
     0
171
     0
290
     0
174
     0
 93
       13
 44
0.0
173
     0
291
     1
 45
0.0
1001
ACAD
1000
AcDbSavedByObjectVersion
1070
     0
  0
VISUALSTYLE
  5
3C7
102
{ACAD_REACTORS
330
3C5
102
}
102
{ACAD_XDICTIONARY
360
7B3
102
}
330
3C5
100
AcDbVisualStyle
  2
FlatWithEdges
 70
     1
 71
     2
 72
     1
 73
     1
 90
        2
 40
-0.6
 41
30.0
 62
     5
 63
     7
 74
     1
 91
        4
 64
     7
 65
   257
 75
     1
175
     1
 42
1.0
 92
        0
 66
   257
 43
1.0
 76
     1
 77
     6
 78
     2
 67
     7
 79
     5
170
     0
171
     0
290
     0
174
     0
 93
       13
 44
0.0
173
     0
291
     1
 45
0.0
1001
ACAD
1000
AcDbSavedByObjectVersion
1070
     0
  0
VISUALSTYLE
  5
3C8
102
{ACAD_REACTORS
330
3C5
102
}
102
{ACAD_XDICTIONARY
360
7B5
102
}
330
3C5
100
AcDbVisualStyle
  2
Gouraud
 70
     2
 71
     2
 72
     2
 73
     1
 90
        2
 40
-0.6
 41
30.0
 62
     5
 63
     7
 74
     0
 91
        4
 64
     7
 65
   257
 75
     1
175
     1
 42
1.0
 92
        0
 66
     7
 43
1.0
 76
     1
 77
     6
 78
     2
 67
     7
 79
     5
170
     0
171
     0
290
     0
174
     0
 93
       13
 44
0.0
173
     0
291
     1
 45
0.0
1001
ACAD
1000
AcDbSavedByObjectVersion
1070
     0
  0
VISUALSTYLE
  5
3C9
102
{ACAD_REACTORS
330
3C5
102
}
102
{ACAD_XDICTIONARY
360
7B7
102
}
330
3C5
100
AcDbVisualStyle
  2
GouraudWithEdges
 70
     3
 71
     2
 72
     2
 73
     1
 90
        2
 40
-0.6
 41
30.0
 62
     5
 63
     7
 74
     1
 91
        4
 64
     7
 65
   257
 75
     1
175
     1
 42
1.0
 92
        0
 66
   257
 43
1.0
 76
     1
 77
     6
 78
     2
 67
     7
 79
     5
170
     0
171
     0
290
     0
174
     0
 93
       13
 44
0.0
173
     0
291
     1
 45
0.0
1001
ACAD
1000
AcDbSavedByObjectVersion
1070
     0
  0
VISUALSTYLE
  5
3D3
102
{ACAD_REACTORS
330
3C5
102
}
102
{ACAD_XDICTIONARY
360
7CB
102
}
330
3C5
100
AcDbVisualStyle
  2
Linepattern
 70
    14
 71
     2
 72
     2
 73
     0
 90
        0
 40
-0.6
 41
-30.0
 62
     5
 63
     7
 74
     1
 91
        4
 64
     7
 65
   257
 75
     7
175
     7
 42
1.0
 92
        8
 66
     7
 43
1.0
 76
     1
 77
     6
 78
     2
 67
     7
 79
     5
170
     0
171
     0
290
     0
174
     0
 93
        1
 44
0.0
173
     0
291
     1
 45
0.0
1001
ACAD
1000
AcDbSavedByObjectVersion
1070
     0
  0
VISUALSTYLE
  5
3CE
102
{ACAD_REACTORS
330
3C5
102
}
102
{ACAD_XDICTIONARY
360
7C1
102
}
330
3C5
100
AcDbVisualStyle
  2
Realistic
 70
     8
 71
     2
 72
     2
 73
     0
 90
        0
 40
-0.6
 41
-30.0
 62
     5
 63
     7
 74
     1
 91
        0
 64
     7
 65
   257
 75
     1
175
     1
 42
1.0
 92
        8
 66
     8
 43
1.0
 76
     1
 77
     6
 78
     2
 67
     7
 79
     5
170
     0
171
     0
290
     0
174
     0
 93
       13
 44
0.0
173
     0
291
     0
 45
0.0
1001
ACAD
1000
AcDbSavedByObjectVersion
1070
     0
  0
VISUALSTYLE
  5
3D2
102
{ACAD_REACTORS
330
3C5
102
}
102
{ACAD_XDICTIONARY
360
7C9
102
}
330
3C5
100
AcDbVisualStyle
  2
Thicken
 70
    13
 71
     2
 72
     2
 73
     0
 90
        0
 40
-0.6
 41
-30.0
 62
     5
 63
     7
 74
     1
 91
        4
 64
     7
 65
   257
 75
     1
175
     1
 42
1.0
 92
       12
 66
     7
 43
1.0
 76
     1
 77
     6
 78
     2
 67
     7
 79
     5
170
     0
171
     0
290
     0
174
     0
 93
        1
 44
0.0
173
     0
291
     1
 45
0.0
1001
ACAD
1000
AcDbSavedByObjectVersion
1070
     0
  0
XRECORD
  5
7A8
102
{ACAD_REACTORS
330
7A7
102
}
330
7A7
100
AcDbXrecord
280
     1
340
387
  0
XRECORD
  5
7A9
102
{ACAD_REACTORS
330
7A7
102
}
330
7A7
100
AcDbXrecord
280
     1
340
386
  0
DICTIONARYVAR
  5
7AA
102
{ACAD_REACTORS
330
357
102
}
330
357
100
DictionaryVariables
280
     0
  1
1:1
  0
DICTIONARYVAR
  5
38D
102
{ACAD_REACTORS
330
357
102
}
330
357
100
DictionaryVariables
280
     0
  1
Standard
  0
DICTIONARYVAR
  5
359
102
{ACAD_REACTORS
330
357
102
}
330
357
100
DictionaryVariables
280
     0
  1
2
  0
DICTIONARYVAR
  5
358
102
{ACAD_REACTORS
330
357
102
}
330
357
100
DictionaryVariables
280
     0
  1
1
  0
DICTIONARYVAR
  5
38E
102
{ACAD_REACTORS
330
357
102
}
330
357
100
DictionaryVariables
280
     0
  1

  0
DICTIONARY
  5
7AD
330
3C3
100
AcDbDictionary
280
     1
281
     1
  3
ACAD_XREC_ROUNDTRIP
360
7AE
  0
DICTIONARY
  5
7AB
330
3C2
100
AcDbDictionary
280
     1
281
     1
  3
ACAD_XREC_ROUNDTRIP
360
7AC
  0
DICTIONARY
  5
7AF
330
3C4
100
AcDbDictionary
280
     1
281
     1
  3
ACAD_XREC_ROUNDTRIP
360
7B0
  0
DICTIONARY
  5
7B9
330
3CA
100
AcDbDictionary
280
     1
281
     1
  3
ACAD_XREC_ROUNDTRIP
360
7BA
  0
DICTIONARY
  5
7BD
330
3CC
100
AcDbDictionary
280
     1
281
     1
  3
ACAD_XREC_ROUNDTRIP
360
7BE
  0
DICTIONARY
  5
7BB
330
3CB
100
AcDbDictionary
280
     1
281
     1
  3
ACAD_XREC_ROUNDTRIP
360
7BC
  0
DICTIONARY
  5
7BF
330
3CD
100
AcDbDictionary
280
     1
281
     1
  3
ACAD_XREC_ROUNDTRIP
360
7C0
  0
DICTIONARY
  5
7C7
330
3D1
100
AcDbDictionary
280
     1
281
     1
  3
ACAD_XREC_ROUNDTRIP
360
7C8
  0
DICTIONARY
  5
7CF
330
3D5
100
AcDbDictionary
280
     1
281
     1
  3
ACAD_XREC_ROUNDTRIP
360
7D0
  0
DICTIONARY
  5
7C3
330
3CF
100
AcDbDictionary
280
     1
281
     1
  3
ACAD_XREC_ROUNDTRIP
360
7C4
  0
DICTIONARY
  5
7C5
330
3D0
100
AcDbDictionary
280
     1
281
     1
  3
ACAD_XREC_ROUNDTRIP
360
7C6
  0
DICTIONARY
  5
7CD
330
3D4
100
AcDbDictionary
280
     1
281
     1
  3
ACAD_XREC_ROUNDTRIP
360
7CE
  0
DICTIONARY
  5
7B1
330
3C6
100
AcDbDictionary
280
     1
281
     1
  3
ACAD_XREC_ROUNDTRIP
360
7B2
  0
DICTIONARY
  5
7B3
330
3C7
100
AcDbDictionary
280
     1
281
     1
  3
ACAD_XREC_ROUNDTRIP
360
7B4
  0
DICTIONARY
  5
7B5
330
3C8
100
AcDbDictionary
280
     1
281
     1
  3
ACAD_XREC_ROUNDTRIP
360
7B6
  0
DICTIONARY
  5
7B7
330
3C9
100
AcDbDictionary
280
     1
281
     1
  3
ACAD_XREC_ROUNDTRIP
360
7B8
  0
DICTIONARY
  5
7CB
330
3D3
100
AcDbDictionary
280
     1
281
     1
  3
ACAD_XREC_ROUNDTRIP
360
7CC
  0
DICTIONARY
  5
7C1
330
3CE
100
AcDbDictionary
280
     1
281
     1
  3
ACAD_XREC_ROUNDTRIP
360
7C2
  0
DICTIONARY
  5
7C9
330
3D2
100
AcDbDictionary
280
     1
281
     1
  3
ACAD_XREC_ROUNDTRIP
360
7CA
  0
XRECORD
  5
7AE
102
{ACAD_REACTORS
330
7AD
102
}
330
7AD
100
AcDbXrecord
280
     1
102
MATERIAL
148
0.0
149
0.0
149
0.0
 93
        0
 94
      127
282
     0
 72
     1
 77
     1
171
     1
175
     1
179
     1
273
     0
  0
XRECORD
  5
7AC
102
{ACAD_REACTORS
330
7AB
102
}
330
7AB
100
AcDbXrecord
280
     1
102
MATERIAL
148
0.0
149
0.0
149
0.0
 93
        0
 94
      127
282
     0
 72
     1
 77
     1
171
     1
175
     1
179
     1
273
     0
  0
XRECORD
  5
7B0
102
{ACAD_REACTORS
330
7AF
102
}
330
7AF
100
AcDbXrecord
280
     1
102
MATERIAL
148
0.0
149
0.0
149
0.0
 93
        0
 94
      127
282
     0
 72
     1
 77
     1
171
     1
175
     1
179
     1
273
     0
  0
XRECORD
  5
7BA
102
{ACAD_REACTORS
330
7B9
102
}
330
7B9
100
AcDbXrecord
280
     1
102
RTVSPropertyOp0
 70
     1
102
RTVSPropertyOp1
 70
     1
102
RTVSPropertyOp2
 70
     1
102
RTVSPropertyOp3
 70
     1
102
RTVSPropertyOp4
 70
     1
102
RTVSPropertyOp5
 70
     1
102
RTVSPropertyOp6
 70
     1
102
RTVSPropertyOp7
 70
     1
102
RTVSPropertyOp8
 70
     1
102
RTVSPropertyOp9
 70
     1
102
RTVSPropertyOp10
 70
     1
102
RTVSPropertyOp11
 70
     1
102
RTVSPropertyOp12
 70
     1
102
RTVSPropertyOp13
 70
     1
102
RTVSPropertyOp14
 70
     1
102
RTVSPropertyOp15
 70
     1
102
RTVSPropertyOp16
 70
     1
102
RTVSPropertyOp17
 70
     1
102
RTVSPropertyOp18
 70
     1
102
RTVSPropertyOp19
 70
     1
102
RTVSPropertyOp20
 70
     1
102
RTVSPropertyOp21
 70
     1
102
RTVSPropertyOp22
 70
     1
102
RTVSPropertyOp23
 70
     1
102
RTVSPropertyOp24
 70
     1
102
RTVSPropertyOp25
 70
     1
102
RTVSPropertyOp26
 70
     1
102
RTVSPropertyOp27
 70
     1
102
RTVSPropertyOp28
 70
     1
102
RTVSPropertyOp29
 70
     1
102
RTVSPropertyOp30
 70
     1
102
RTVSPropertyOp31
 70
     1
102
RTVSPropertyOp32
 70
     1
  0
XRECORD
  5
7BE
102
{ACAD_REACTORS
330
7BD
102
}
330
7BD
100
AcDbXrecord
280
     1
102
RTVSPropertyOp0
 70
     1
102
RTVSPropertyOp1
 70
     1
102
RTVSPropertyOp2
 70
     1
102
RTVSPropertyOp3
 70
     1
102
RTVSPropertyOp4
 70
     1
102
RTVSPropertyOp5
 70
     1
102
RTVSPropertyOp6
 70
     1
102
RTVSPropertyOp7
 70
     1
102
RTVSPropertyOp8
 70
     1
102
RTVSPropertyOp9
 70
     1
102
RTVSPropertyOp10
 70
     1
102
RTVSPropertyOp11
 70
     1
102
RTVSPropertyOp12
 70
     1
102
RTVSPropertyOp13
 70
     1
102
RTVSPropertyOp14
 70
     1
102
RTVSPropertyOp15
 70
     1
102
RTVSPropertyOp16
 70
     1
102
RTVSPropertyOp17
 70
     1
102
RTVSPropertyOp18
 70
     1
102
RTVSPropertyOp19
 70
     1
102
RTVSPropertyOp20
 70
     1
102
RTVSPropertyOp21
 70
     1
102
RTVSPropertyOp22
 70
     1
102
RTVSPropertyOp23
 70
     1
102
RTVSPropertyOp24
 70
     1
102
RTVSPropertyOp25
 70
     1
102
RTVSPropertyOp26
 70
     1
102
RTVSPropertyOp27
 70
     1
102
RTVSPropertyOp28
 70
     1
102
RTVSPropertyOp29
 70
     1
102
RTVSPropertyOp30
 70
     1
102
RTVSPropertyOp31
 70
     1
102
RTVSPropertyOp32
 70
     1
  0
XRECORD
  5
7BC
102
{ACAD_REACTORS
330
7BB
102
}
330
7BB
100
AcDbXrecord
280
     1
102
RTVSPropertyOp0
 70
     1
102
RTVSPropertyOp1
 70
     1
102
RTVSPropertyOp2
 70
     1
102
RTVSPropertyOp3
 70
     1
102
RTVSPropertyOp4
 70
     1
102
RTVSPropertyOp5
 70
     1
102
RTVSPropertyOp6
 70
     1
102
RTVSPropertyOp7
 70
     1
102
RTVSPropertyOp8
 70
     1
102
RTVSPropertyOp9
 70
     1
102
RTVSPropertyOp10
 70
     1
102
RTVSPropertyOp11
 70
     1
102
RTVSPropertyOp12
 70
     1
102
RTVSPropertyOp13
 70
     1
102
RTVSPropertyOp14
 70
     1
102
RTVSPropertyOp15
 70
     1
102
RTVSPropertyOp16
 70
     1
102
RTVSPropertyOp17
 70
     1
102
RTVSPropertyOp18
 70
     1
102
RTVSPropertyOp19
 70
     1
102
RTVSPropertyOp20
 70
     1
102
RTVSPropertyOp21
 70
     1
102
RTVSPropertyOp22
 70
     1
102
RTVSPropertyOp23
 70
     1
102
RTVSPropertyOp24
 70
     1
102
RTVSPropertyOp25
 70
     1
102
RTVSPropertyOp26
 70
     1
102
RTVSPropertyOp27
 70
     1
102
RTVSPropertyOp28
 70
     1
102
RTVSPropertyOp29
 70
     1
102
RTVSPropertyOp30
 70
     1
102
RTVSPropertyOp31
 70
     1
102
RTVSPropertyOp32
 70
     1
  0
XRECORD
  5
7C0
102
{ACAD_REACTORS
330
7BF
102
}
330
7BF
100
AcDbXrecord
280
     1
102
RTVSPropertyOp0
 70
     1
102
RTVSPropertyOp1
 70
     1
102
RTVSPropertyOp2
 70
     1
102
RTVSPropertyOp3
 70
     1
102
RTVSPropertyOp4
 70
     1
102
RTVSPropertyOp5
 70
     1
102
RTVSPropertyOp6
 70
     1
102
RTVSPropertyOp7
 70
     1
102
RTVSPropertyOp8
 70
     1
102
RTVSPropertyOp9
 70
     1
102
RTVSPropertyOp10
 70
     1
102
RTVSPropertyOp11
 70
     1
102
RTVSPropertyOp12
 70
     1
102
RTVSPropertyOp13
 70
     1
102
RTVSPropertyOp14
 70
     1
102
RTVSPropertyOp15
 70
     1
102
RTVSPropertyOp16
 70
     1
102
RTVSPropertyOp17
 70
     1
102
RTVSPropertyOp18
 70
     1
102
RTVSPropertyOp19
 70
     1
102
RTVSPropertyOp20
 70
     1
102
RTVSPropertyOp21
 70
     1
102
RTVSPropertyOp22
 70
     1
102
RTVSPropertyOp23
 70
     1
102
RTVSPropertyOp24
 70
     1
102
RTVSPropertyOp25
 70
     1
102
RTVSPropertyOp26
 70
     1
102
RTVSPropertyOp27
 70
     1
102
RTVSPropertyOp28
 70
     1
102
RTVSPropertyOp29
 70
     1
102
RTVSPropertyOp30
 70
     1
102
RTVSPropertyOp31
 70
     1
102
RTVSPropertyOp32
 70
     1
  0
XRECORD
  5
7C8
102
{ACAD_REACTORS
330
7C7
102
}
330
7C7
100
AcDbXrecord
280
     1
102
RTVSPropertyOp0
 70
     1
102
RTVSPropertyOp1
 70
     1
102
RTVSPropertyOp2
 70
     1
102
RTVSPropertyOp3
 70
     1
102
RTVSPropertyOp4
 70
     1
102
RTVSPropertyOp5
 70
     1
102
RTVSPropertyOp6
 70
     1
102
RTVSPropertyOp7
 70
     1
102
RTVSPropertyOp8
 70
     1
102
RTVSPropertyOp9
 70
     1
102
RTVSPropertyOp10
 70
     1
102
RTVSPropertyOp11
 70
     1
102
RTVSPropertyOp12
 70
     1
102
RTVSPropertyOp13
 70
     1
102
RTVSPropertyOp14
 70
     1
102
RTVSPropertyOp15
 70
     1
102
RTVSPropertyOp16
 70
     1
102
RTVSPropertyOp17
 70
     1
102
RTVSPropertyOp18
 70
     1
102
RTVSPropertyOp19
 70
     1
102
RTVSPropertyOp20
 70
     1
102
RTVSPropertyOp21
 70
     1
102
RTVSPropertyOp22
 70
     1
102
RTVSPropertyOp23
 70
     1
102
RTVSPropertyOp24
 70
     1
102
RTVSPropertyOp25
 70
     1
102
RTVSPropertyOp26
 70
     1
102
RTVSPropertyOp27
 70
     1
102
RTVSPropertyOp28
 70
     1
102
RTVSPropertyOp29
 70
     1
102
RTVSPropertyOp30
 70
     1
102
RTVSPropertyOp31
 70
     1
102
RTVSPropertyOp32
 70
     1
  0
XRECORD
  5
7D0
102
{ACAD_REACTORS
330
7CF
102
}
330
7CF
100
AcDbXrecord
280
     1
102
RTVSPropertyOp0
 70
     1
102
RTVSPropertyOp1
 70
     1
102
RTVSPropertyOp2
 70
     1
102
RTVSPropertyOp3
 70
     1
102
RTVSPropertyOp4
 70
     1
102
RTVSPropertyOp5
 70
     1
102
RTVSPropertyOp6
 70
     1
102
RTVSPropertyOp7
 70
     1
102
RTVSPropertyOp8
 70
     1
102
RTVSPropertyOp9
 70
     1
102
RTVSPropertyOp10
 70
     1
102
RTVSPropertyOp11
 70
     1
102
RTVSPropertyOp12
 70
     1
102
RTVSPropertyOp13
 70
     1
102
RTVSPropertyOp14
 70
     1
102
RTVSPropertyOp15
 70
     1
102
RTVSPropertyOp16
 70
     1
102
RTVSPropertyOp17
 70
     1
102
RTVSPropertyOp18
 70
     1
102
RTVSPropertyOp19
 70
     1
102
RTVSPropertyOp20
 70
     1
102
RTVSPropertyOp21
 70
     1
102
RTVSPropertyOp22
 70
     1
102
RTVSPropertyOp23
 70
     1
102
RTVSPropertyOp24
 70
     1
102
RTVSPropertyOp25
 70
     1
102
RTVSPropertyOp26
 70
     1
102
RTVSPropertyOp27
 70
     1
102
RTVSPropertyOp28
 70
     1
102
RTVSPropertyOp29
 70
     1
102
RTVSPropertyOp30
 70
     1
102
RTVSPropertyOp31
 70
     1
102
RTVSPropertyOp32
 70
     1
  0
XRECORD
  5
7C4
102
{ACAD_REACTORS
330
7C3
102
}
330
7C3
100
AcDbXrecord
280
     1
102
RTVSPropertyOp0
 70
     1
102
RTVSPropertyOp1
 70
     1
102
RTVSPropertyOp2
 70
     1
102
RTVSPropertyOp3
 70
     1
102
RTVSPropertyOp4
 70
     1
102
RTVSPropertyOp5
 70
     1
102
RTVSPropertyOp6
 70
     1
102
RTVSPropertyOp7
 70
     1
102
RTVSPropertyOp8
 70
     1
102
RTVSPropertyOp9
 70
     1
102
RTVSPropertyOp10
 70
     1
102
RTVSPropertyOp11
 70
     1
102
RTVSPropertyOp12
 70
     1
102
RTVSPropertyOp13
 70
     1
102
RTVSPropertyOp14
 70
     1
102
RTVSPropertyOp15
 70
     1
102
RTVSPropertyOp16
 70
     1
102
RTVSPropertyOp17
 70
     1
102
RTVSPropertyOp18
 70
     1
102
RTVSPropertyOp19
 70
     1
102
RTVSPropertyOp20
 70
     1
102
RTVSPropertyOp21
 70
     1
102
RTVSPropertyOp22
 70
     1
102
RTVSPropertyOp23
 70
     1
102
RTVSPropertyOp24
 70
     1
102
RTVSPropertyOp25
 70
     1
102
RTVSPropertyOp26
 70
     1
102
RTVSPropertyOp27
 70
     1
102
RTVSPropertyOp28
 70
     1
102
RTVSPropertyOp29
 70
     1
102
RTVSPropertyOp30
 70
     1
102
RTVSPropertyOp31
 70
     1
102
RTVSPropertyOp32
 70
     1
  0
XRECORD
  5
7C6
102
{ACAD_REACTORS
330
7C5
102
}
330
7C5
100
AcDbXrecord
280
     1
102
RTVSPropertyOp0
 70
     1
102
RTVSPropertyOp1
 70
     1
102
RTVSPropertyOp2
 70
     1
102
RTVSPropertyOp3
 70
     1
102
RTVSPropertyOp4
 70
     1
102
RTVSPropertyOp5
 70
     1
102
RTVSPropertyOp6
 70
     1
102
RTVSPropertyOp7
 70
     1
102
RTVSPropertyOp8
 70
     1
102
RTVSPropertyOp9
 70
     1
102
RTVSPropertyOp10
 70
     1
102
RTVSPropertyOp11
 70
     1
102
RTVSPropertyOp12
 70
     1
102
RTVSPropertyOp13
 70
     1
102
RTVSPropertyOp14
 70
     1
102
RTVSPropertyOp15
 70
     1
102
RTVSPropertyOp16
 70
     1
102
RTVSPropertyOp17
 70
     1
102
RTVSPropertyOp18
 70
     1
102
RTVSPropertyOp19
 70
     1
102
RTVSPropertyOp20
 70
     1
102
RTVSPropertyOp21
 70
     1
102
RTVSPropertyOp22
 70
     1
102
RTVSPropertyOp23
 70
     1
102
RTVSPropertyOp24
 70
     1
102
RTVSPropertyOp25
 70
     1
102
RTVSPropertyOp26
 70
     1
102
RTVSPropertyOp27
 70
     1
102
RTVSPropertyOp28
 70
     1
102
RTVSPropertyOp29
 70
     1
102
RTVSPropertyOp30
 70
     1
102
RTVSPropertyOp31
 70
     1
102
RTVSPropertyOp32
 70
     1
  0
XRECORD
  5
7CE
102
{ACAD_REACTORS
330
7CD
102
}
330
7CD
100
AcDbXrecord
280
     1
102
RTVSPropertyOp0
 70
     1
102
RTVSPropertyOp1
 70
     1
102
RTVSPropertyOp2
 70
     1
102
RTVSPropertyOp3
 70
     1
102
RTVSPropertyOp4
 70
     1
102
RTVSPropertyOp5
 70
     1
102
RTVSPropertyOp6
 70
     1
102
RTVSPropertyOp7
 70
     1
102
RTVSPropertyOp8
 70
     1
102
RTVSPropertyOp9
 70
     1
102
RTVSPropertyOp10
 70
     1
102
RTVSPropertyOp11
 70
     1
102
RTVSPropertyOp12
 70
     1
102
RTVSPropertyOp13
 70
     1
102
RTVSPropertyOp14
 70
     1
102
RTVSPropertyOp15
 70
     1
102
RTVSPropertyOp16
 70
     1
102
RTVSPropertyOp17
 70
     1
102
RTVSPropertyOp18
 70
     1
102
RTVSPropertyOp19
 70
     1
102
RTVSPropertyOp20
 70
     1
102
RTVSPropertyOp21
 70
     1
102
RTVSPropertyOp22
 70
     1
102
RTVSPropertyOp23
 70
     1
102
RTVSPropertyOp24
 70
     1
102
RTVSPropertyOp25
 70
     1
102
RTVSPropertyOp26
 70
     1
102
RTVSPropertyOp27
 70
     1
102
RTVSPropertyOp28
 70
     1
102
RTVSPropertyOp29
 70
     1
102
RTVSPropertyOp30
 70
     1
102
RTVSPropertyOp31
 70
     1
102
RTVSPropertyOp32
 70
     1
  0
XRECORD
  5
7B2
102
{ACAD_REACTORS
330
7B1
102
}
330
7B1
100
AcDbXrecord
280
     1
102
RTVSPropertyOp0
 70
     1
102
RTVSPropertyOp1
 70
     1
102
RTVSPropertyOp2
 70
     1
102
RTVSPropertyOp3
 70
     1
102
RTVSPropertyOp4
 70
     1
102
RTVSPropertyOp5
 70
     1
102
RTVSPropertyOp6
 70
     1
102
RTVSPropertyOp7
 70
     1
102
RTVSPropertyOp8
 70
     1
102
RTVSPropertyOp9
 70
     1
102
RTVSPropertyOp10
 70
     1
102
RTVSPropertyOp11
 70
     1
102
RTVSPropertyOp12
 70
     1
102
RTVSPropertyOp13
 70
     1
102
RTVSPropertyOp14
 70
     1
102
RTVSPropertyOp15
 70
     1
102
RTVSPropertyOp16
 70
     1
102
RTVSPropertyOp17
 70
     1
102
RTVSPropertyOp18
 70
     1
102
RTVSPropertyOp19
 70
     1
102
RTVSPropertyOp20
 70
     1
102
RTVSPropertyOp21
 70
     1
102
RTVSPropertyOp22
 70
     1
102
RTVSPropertyOp23
 70
     1
102
RTVSPropertyOp24
 70
     1
102
RTVSPropertyOp25
 70
     1
102
RTVSPropertyOp26
 70
     1
102
RTVSPropertyOp27
 70
     1
102
RTVSPropertyOp28
 70
     1
102
RTVSPropertyOp29
 70
     1
102
RTVSPropertyOp30
 70
     1
102
RTVSPropertyOp31
 70
     1
102
RTVSPropertyOp32
 70
     1
  0
XRECORD
  5
7B4
102
{ACAD_REACTORS
330
7B3
102
}
330
7B3
100
AcDbXrecord
280
     1
102
RTVSPropertyOp0
 70
     1
102
RTVSPropertyOp1
 70
     1
102
RTVSPropertyOp2
 70
     1
102
RTVSPropertyOp3
 70
     1
102
RTVSPropertyOp4
 70
     1
102
RTVSPropertyOp5
 70
     1
102
RTVSPropertyOp6
 70
     1
102
RTVSPropertyOp7
 70
     1
102
RTVSPropertyOp8
 70
     1
102
RTVSPropertyOp9
 70
     1
102
RTVSPropertyOp10
 70
     1
102
RTVSPropertyOp11
 70
     1
102
RTVSPropertyOp12
 70
     1
102
RTVSPropertyOp13
 70
     1
102
RTVSPropertyOp14
 70
     1
102
RTVSPropertyOp15
 70
     1
102
RTVSPropertyOp16
 70
     1
102
RTVSPropertyOp17
 70
     1
102
RTVSPropertyOp18
 70
     1
102
RTVSPropertyOp19
 70
     1
102
RTVSPropertyOp20
 70
     1
102
RTVSPropertyOp21
 70
     1
102
RTVSPropertyOp22
 70
     1
102
RTVSPropertyOp23
 70
     1
102
RTVSPropertyOp24
 70
     1
102
RTVSPropertyOp25
 70
     1
102
RTVSPropertyOp26
 70
     1
102
RTVSPropertyOp27
 70
     1
102
RTVSPropertyOp28
 70
     1
102
RTVSPropertyOp29
 70
     1
102
RTVSPropertyOp30
 70
     1
102
RTVSPropertyOp31
 70
     1
102
RTVSPropertyOp32
 70
     1
  0
XRECORD
  5
7B6
102
{ACAD_REACTORS
330
7B5
102
}
330
7B5
100
AcDbXrecord
280
     1
102
RTVSPropertyOp0
 70
     1
102
RTVSPropertyOp1
 70
     1
102
RTVSPropertyOp2
 70
     1
102
RTVSPropertyOp3
 70
     1
102
RTVSPropertyOp4
 70
     1
102
RTVSPropertyOp5
 70
     1
102
RTVSPropertyOp6
 70
     1
102
RTVSPropertyOp7
 70
     1
102
RTVSPropertyOp8
 70
     1
102
RTVSPropertyOp9
 70
     1
102
RTVSPropertyOp10
 70
     1
102
RTVSPropertyOp11
 70
     1
102
RTVSPropertyOp12
 70
     1
102
RTVSPropertyOp13
 70
     1
102
RTVSPropertyOp14
 70
     1
102
RTVSPropertyOp15
 70
     1
102
RTVSPropertyOp16
 70
     1
102
RTVSPropertyOp17
 70
     1
102
RTVSPropertyOp18
 70
     1
102
RTVSPropertyOp19
 70
     1
102
RTVSPropertyOp20
 70
     1
102
RTVSPropertyOp21
 70
     1
102
RTVSPropertyOp22
 70
     1
102
RTVSPropertyOp23
 70
     1
102
RTVSPropertyOp24
 70
     1
102
RTVSPropertyOp25
 70
     1
102
RTVSPropertyOp26
 70
     1
102
RTVSPropertyOp27
 70
     1
102
RTVSPropertyOp28
 70
     1
102
RTVSPropertyOp29
 70
     1
102
RTVSPropertyOp30
 70
     1
102
RTVSPropertyOp31
 70
     1
102
RTVSPropertyOp32
 70
     1
  0
XRECORD
  5
7B8
102
{ACAD_REACTORS
330
7B7
102
}
330
7B7
100
AcDbXrecord
280
     1
102
RTVSPropertyOp0
 70
     1
102
RTVSPropertyOp1
 70
     1
102
RTVSPropertyOp2
 70
     1
102
RTVSPropertyOp3
 70
     1
102
RTVSPropertyOp4
 70
     1
102
RTVSPropertyOp5
 70
     1
102
RTVSPropertyOp6
 70
     1
102
RTVSPropertyOp7
 70
     1
102
RTVSPropertyOp8
 70
     1
102
RTVSPropertyOp9
 70
     1
102
RTVSPropertyOp10
 70
     1
102
RTVSPropertyOp11
 70
     1
102
RTVSPropertyOp12
 70
     1
102
RTVSPropertyOp13
 70
     1
102
RTVSPropertyOp14
 70
     1
102
RTVSPropertyOp15
 70
     1
102
RTVSPropertyOp16
 70
     1
102
RTVSPropertyOp17
 70
     1
102
RTVSPropertyOp18
 70
     1
102
RTVSPropertyOp19
 70
     1
102
RTVSPropertyOp20
 70
     1
102
RTVSPropertyOp21
 70
     1
102
RTVSPropertyOp22
 70
     1
102
RTVSPropertyOp23
 70
     1
102
RTVSPropertyOp24
 70
     1
102
RTVSPropertyOp25
 70
     1
102
RTVSPropertyOp26
 70
     1
102
RTVSPropertyOp27
 70
     1
102
RTVSPropertyOp28
 70
     1
102
RTVSPropertyOp29
 70
     1
102
RTVSPropertyOp30
 70
     1
102
RTVSPropertyOp31
 70
     1
102
RTVSPropertyOp32
 70
     1
  0
XRECORD
  5
7CC
102
{ACAD_REACTORS
330
7CB
102
}
330
7CB
100
AcDbXrecord
280
     1
102
RTVSPropertyOp0
 70
     1
102
RTVSPropertyOp1
 70
     1
102
RTVSPropertyOp2
 70
     1
102
RTVSPropertyOp3
 70
     1
102
RTVSPropertyOp4
 70
     1
102
RTVSPropertyOp5
 70
     1
102
RTVSPropertyOp6
 70
     1
102
RTVSPropertyOp7
 70
     1
102
RTVSPropertyOp8
 70
     1
102
RTVSPropertyOp9
 70
     1
102
RTVSPropertyOp10
 70
     1
102
RTVSPropertyOp11
 70
     1
102
RTVSPropertyOp12
 70
     1
102
RTVSPropertyOp13
 70
     1
102
RTVSPropertyOp14
 70
     1
102
RTVSPropertyOp15
 70
     1
102
RTVSPropertyOp16
 70
     1
102
RTVSPropertyOp17
 70
     1
102
RTVSPropertyOp18
 70
     1
102
RTVSPropertyOp19
 70
     1
102
RTVSPropertyOp20
 70
     1
102
RTVSPropertyOp21
 70
     1
102
RTVSPropertyOp22
 70
     1
102
RTVSPropertyOp23
 70
     1
102
RTVSPropertyOp24
 70
     1
102
RTVSPropertyOp25
 70
     1
102
RTVSPropertyOp26
 70
     1
102
RTVSPropertyOp27
 70
     1
102
RTVSPropertyOp28
 70
     1
102
RTVSPropertyOp29
 70
     1
102
RTVSPropertyOp30
 70
     1
102
RTVSPropertyOp31
 70
     1
102
RTVSPropertyOp32
 70
     1
  0
XRECORD
  5
7C2
102
{ACAD_REACTORS
330
7C1
102
}
330
7C1
100
AcDbXrecord
280
     1
102
RTVSPropertyOp0
 70
     1
102
RTVSPropertyOp1
 70
     1
102
RTVSPropertyOp2
 70
     1
102
RTVSPropertyOp3
 70
     1
102
RTVSPropertyOp4
 70
     1
102
RTVSPropertyOp5
 70
     1
102
RTVSPropertyOp6
 70
     1
102
RTVSPropertyOp7
 70
     1
102
RTVSPropertyOp8
 70
     1
102
RTVSPropertyOp9
 70
     1
102
RTVSPropertyOp10
 70
     1
102
RTVSPropertyOp11
 70
     1
102
RTVSPropertyOp12
 70
     1
102
RTVSPropertyOp13
 70
     1
102
RTVSPropertyOp14
 70
     1
102
RTVSPropertyOp15
 70
     1
102
RTVSPropertyOp16
 70
     1
102
RTVSPropertyOp17
 70
     1
102
RTVSPropertyOp18
 70
     1
102
RTVSPropertyOp19
 70
     1
102
RTVSPropertyOp20
 70
     1
102
RTVSPropertyOp21
 70
     1
102
RTVSPropertyOp22
 70
     1
102
RTVSPropertyOp23
 70
     1
102
RTVSPropertyOp24
 70
     1
102
RTVSPropertyOp25
 70
     1
102
RTVSPropertyOp26
 70
     1
102
RTVSPropertyOp27
 70
     1
102
RTVSPropertyOp28
 70
     1
102
RTVSPropertyOp29
 70
     1
102
RTVSPropertyOp30
 70
     1
102
RTVSPropertyOp31
 70
     1
102
RTVSPropertyOp32
 70
     1
  0
XRECORD
  5
7CA
102
{ACAD_REACTORS
330
7C9
102
}
330
7C9
100
AcDbXrecord
280
     1
102
RTVSPropertyOp0
 70
     1
102
RTVSPropertyOp1
 70
     1
102
RTVSPropertyOp2
 70
     1
102
RTVSPropertyOp3
 70
     1
102
RTVSPropertyOp4
 70
     1
102
RTVSPropertyOp5
 70
     1
102
RTVSPropertyOp6
 70
     1
102
RTVSPropertyOp7
 70
     1
102
RTVSPropertyOp8
 70
     1
102
RTVSPropertyOp9
 70
     1
102
RTVSPropertyOp10
 70
     1
102
RTVSPropertyOp11
 70
     1
102
RTVSPropertyOp12
 70
     1
102
RTVSPropertyOp13
 70
     1
102
RTVSPropertyOp14
 70
     1
102
RTVSPropertyOp15
 70
     1
102
RTVSPropertyOp16
 70
     1
102
RTVSPropertyOp17
 70
     1
102
RTVSPropertyOp18
 70
     1
102
RTVSPropertyOp19
 70
     1
102
RTVSPropertyOp20
 70
     1
102
RTVSPropertyOp21
 70
     1
102
RTVSPropertyOp22
 70
     1
102
RTVSPropertyOp23
 70
     1
102
RTVSPropertyOp24
 70
     1
102
RTVSPropertyOp25
 70
     1
102
RTVSPropertyOp26
 70
     1
102
RTVSPropertyOp27
 70
     1
102
RTVSPropertyOp28
 70
     1
102
RTVSPropertyOp29
 70
     1
102
RTVSPropertyOp30
 70
     1
102
RTVSPropertyOp31
 70
     1
102
RTVSPropertyOp32
 70
     1
  0
ENDSEC
  0
EOF
