  0
SECTION
  2
HEADER
  9
$ACADVER
  1
AC1015
  9
$ACADMAINTVER
 70
     6
  9
$DWGCODEPAGE
  3
ANSI_1252
  9
$INSBASE
 10
0.0
 20
0.0
 30
0.0
  9
$EXTMIN
 10
1.000000000000000E+20
 20
1.000000000000000E+20
 30
1.000000000000000E+20
  9
$EXTMAX
 10
-1.000000000000000E+20
 20
-1.000000000000000E+20
 30
-1.000000000000000E+20
  9
$LIMMIN
 10
-170.0
 20
-170.0
  9
$LIMMAX
 10
519.0
 20
260.0
  9
$ORTHOMODE
 70
     0
  9
$REGENMODE
 70
     1
  9
$FILLMODE
 70
     1
  9
$QTEXTMODE
 70
     0
  9
$MIRRTEXT
 70
     0
  9
$LTSCALE
 40
1.0
  9
$ATTMODE
 70
     1
  9
$TEXTSIZE
 40
3.5
  9
$TRACEWID
 40
1.0
  9
$TEXTSTYLE
  7
SIMPLEX
  9
$CLAYER
  8
1
  9
$CELTYPE
  6
BYLAYER
  9
$CECOLOR
 62
   256
  9
$CELTSCALE
 40
1.0
  9
$DISPSILH
 70
     0
  9
$DIMSCALE
 40
1.0
  9
$DIMASZ
 40
2.5
  9
$DIMEXO
 40
0.0
  9
$DIMDLI
 40
3.75
  9
$DIMRND
 40
0.0
  9
$DIMDLE
 40
0.0
  9
$DIMEXE
 40
1.25
  9
$DIMTP
 40
0.0
  9
$DIMTM
 40
0.0
  9
$DIMTXT
 40
3.5
  9
$DIMCEN
 40
0.0
  9
$DIMTSZ
 40
0.0
  9
$DIMTOL
 70
     0
  9
$DIMLIM
 70
     0
  9
$DIMTIH
 70
     0
  9
$DIMTOH
 70
     0
  9
$DIMSE1
 70
     0
  9
$DIMSE2
 70
     0
  9
$DIMTAD
 70
     1
  9
$DIMZIN
 70
     8
  9
$DIMBLK
  1

  9
$DIMASO
 70
     1
  9
$DIMSHO
 70
     1
  9
$DIMPOST
  1

  9
$DIMAPOST
  1

  9
$DIMALT
 70
     0
  9
$DIMALTD
 70
     3
  9
$DIMALTF
 40
0.039370078
  9
$DIMLFAC
 40
1.0
  9
$DIMTOFL
 70
     0
  9
$DIMTVP
 40
0.0
  9
$DIMTIX
 70
     0
  9
$DIMSOXD
 70
     0
  9
$DIMSAH
 70
     0
  9
$DIMBLK1
  1

  9
$DIMBLK2
  1

  9
$DIMSTYLE
  2
STANDARD
  9
$DIMCLRD
 70
     0
  9
$DIMCLRE
 70
     0
  9
$DIMCLRT
 70
     0
  9
$DIMTFAC
 40
1.0
  9
$DIMGAP
 40
0.625
  9
$DIMJUST
 70
     0
  9
$DIMSD1
 70
     0
  9
$DIMSD2
 70
     0
  9
$DIMTOLJ
 70
     0
  9
$DIMTZIN
 70
     8
  9
$DIMALTZ
 70
     0
  9
$DIMALTTZ
 70
     0
  9
$DIMUPT
 70
     0
  9
$DIMDEC
 70
     2
  9
$DIMTDEC
 70
     2
  9
$DIMALTU
 70
     2
  9
$DIMALTTD
 70
     3
  9
$DIMTXSTY
  7
SIMPLEX
  9
$DIMAUNIT
 70
     0
  9
$DIMADEC
 70
     2
  9
$DIMALTRND
 40
0.0
  9
$DIMAZIN
 70
     2
  9
$DIMDSEP
 70
    46
  9
$DIMATFIT
 70
     3
  9
$DIMFRAC
 70
     0
  9
$DIMLDRBLK
  1

  9
$DIMLUNIT
 70
     2
  9
$DIMLWD
 70
    -2
  9
$DIMLWE
 70
    -2
  9
$DIMTMOVE
 70
     0
  9
$LUNITS
 70
     2
  9
$LUPREC
 70
     4
  9
$SKETCHINC
 40
1.0
  9
$FILLETRAD
 40
0.0
  9
$AUNITS
 70
     0
  9
$AUPREC
 70
     0
  9
$MENU
  1
c:\tdm21\cad\caduti13\tdm13
  9
$ELEVATION
 40
0.0
  9
$PELEVATION
 40
0.0
  9
$THICKNESS
 40
0.0
  9
$LIMCHECK
 70
     0
  9
$CHAMFERA
 40
0.0
  9
$CHAMFERB
 40
0.0
  9
$CHAMFERC
 40
0.0
  9
$CHAMFERD
 40
0.0
  9
$SKPOLY
 70
     0
  9
$TDCREATE
 40
2454957.593642639
  9
$TDUCREATE
 40
2454957.510309306
  9
$TDUPDATE
 40
2456860.762177465
  9
$TDUUPDATE
 40
2456860.678844132
  9
$TDINDWG
 40
0.0009643519
  9
$TDUSRTIMER
 40
0.0009475231
  9
$USRTIMER
 70
     1
  9
$ANGBASE
 50
0.0
  9
$ANGDIR
 70
     0
  9
$PDMODE
 70
     1
  9
$PDSIZE
 40
0.0
  9
$PLINEWID
 40
0.0
  9
$SPLFRAME
 70
     0
  9
$SPLINETYPE
 70
     6
  9
$SPLINESEGS
 70
     8
  9
$HANDSEED
  5
67A
  9
$SURFTAB1
 70
     6
  9
$SURFTAB2
 70
     6
  9
$SURFTYPE
 70
     6
  9
$SURFU
 70
     6
  9
$SURFV
 70
     6
  9
$UCSBASE
  2

  9
$UCSNAME
  2

  9
$UCSORG
 10
0.0
 20
0.0
 30
0.0
  9
$UCSXDIR
 10
1.0
 20
0.0
 30
0.0
  9
$UCSYDIR
 10
0.0
 20
1.0
 30
0.0
  9
$UCSORTHOREF
  2

  9
$UCSORTHOVIEW
 70
     0
  9
$UCSORGTOP
 10
0.0
 20
0.0
 30
0.0
  9
$UCSORGBOTTOM
 10
0.0
 20
0.0
 30
0.0
  9
$UCSORGLEFT
 10
0.0
 20
0.0
 30
0.0
  9
$UCSORGRIGHT
 10
0.0
 20
0.0
 30
0.0
  9
$UCSORGFRONT
 10
0.0
 20
0.0
 30
0.0
  9
$UCSORGBACK
 10
0.0
 20
0.0
 30
0.0
  9
$PUCSBASE
  2

  9
$PUCSNAME
  2

  9
$PUCSORG
 10
0.0
 20
0.0
 30
0.0
  9
$PUCSXDIR
 10
1.0
 20
0.0
 30
0.0
  9
$PUCSYDIR
 10
0.0
 20
1.0
 30
0.0
  9
$PUCSORTHOREF
  2

  9
$PUCSORTHOVIEW
 70
     0
  9
$PUCSORGTOP
 10
0.0
 20
0.0
 30
0.0
  9
$PUCSORGBOTTOM
 10
0.0
 20
0.0
 30
0.0
  9
$PUCSORGLEFT
 10
0.0
 20
0.0
 30
0.0
  9
$PUCSORGRIGHT
 10
0.0
 20
0.0
 30
0.0
  9
$PUCSORGFRONT
 10
0.0
 20
0.0
 30
0.0
  9
$PUCSORGBACK
 10
0.0
 20
0.0
 30
0.0
  9
$USERI1
 70
     0
  9
$USERI2
 70
     0
  9
$USERI3
 70
     0
  9
$USERI4
 70
     0
  9
$USERI5
 70
     0
  9
$USERR1
 40
0.0
  9
$USERR2
 40
0.0
  9
$USERR3
 40
0.0
  9
$USERR4
 40
0.0
  9
$USERR5
 40
0.0
  9
$WORLDVIEW
 70
     1
  9
$SHADEDGE
 70
     3
  9
$SHADEDIF
 70
    70
  9
$TILEMODE
 70
     1
  9
$MAXACTVP
 70
    64
  9
$PINSBASE
 10
0.0
 20
0.0
 30
0.0
  9
$PLIMCHECK
 70
     0
  9
$PEXTMIN
 10
0.0
 20
0.0
 30
0.0
  9
$PEXTMAX
 10
0.0
 20
0.0
 30
0.0
  9
$PLIMMIN
 10
0.0
 20
0.0
  9
$PLIMMAX
 10
12.0
 20
9.0
  9
$UNITMODE
 70
     0
  9
$VISRETAIN
 70
     0
  9
$PLINEGEN
 70
     0
  9
$PSLTSCALE
 70
     1
  9
$TREEDEPTH
 70
  3020
  9
$CMLSTYLE
  2
STANDARD
  9
$CMLJUST
 70
     0
  9
$CMLSCALE
 40
20.0
  9
$PROXYGRAPHICS
 70
     1
  9
$MEASUREMENT
 70
     1
  9
$CELWEIGHT
370
    -1
  9
$ENDCAPS
280
     0
  9
$JOINSTYLE
280
     0
  9
$LWDISPLAY
290
     0
  9
$INSUNITS
 70
     4
  9
$HYPERLINKBASE
  1

  9
$STYLESHEET
  1
MONOCHROME.CTB
  9
$XEDIT
290
     1
  9
$CEPSNTYPE
380
     0
  9
$PSTYLEMODE
290
     1
  9
$FINGERPRINTGUID
  2
{46B44192-1510-48B1-B61B-CBE2ADA013A7}
  9
$VERSIONGUID
  2
{6160D478-9A74-4C97-9D8A-D4A65CE74B12}
  9
$EXTNAMES
290
     1
  9
$PSVPSCALE
 40
0.0
  9
$OLESTARTUP
290
     0
  0
ENDSEC
  0
SECTION
  2
CLASSES
  0
CLASS
  1
ACDBDICTIONARYWDFLT
  2
AcDbDictionaryWithDefault
  3
ObjectDBX Classes
 90
        0
280
     0
281
     0
  0
CLASS
  1
ACDBPLACEHOLDER
  2
AcDbPlaceHolder
  3
ObjectDBX Classes
 90
        0
280
     0
281
     0
  0
CLASS
  1
LAYOUT
  2
AcDbLayout
  3
ObjectDBX Classes
 90
        0
280
     0
281
     0
  0
CLASS
  1
DICTIONARYVAR
  2
AcDbDictionaryVar
  3
ObjectDBX Classes
 90
        0
280
     0
281
     0
  0
CLASS
  1
TABLESTYLE
  2
AcDbTableStyle
  3
ObjectDBX Classes
 90
     4095
280
     0
281
     0
  0
CLASS
  1
SCALE
  2
AcDbScale
  3
ObjectDBX Classes
 90
     1153
280
     0
281
     0
  0
CLASS
  1
MATERIAL
  2
AcDbMaterial
  3
ObjectDBX Classes
 90
     1153
280
     0
281
     0
  0
CLASS
  1
VISUALSTYLE
  2
AcDbVisualStyle
  3
ObjectDBX Classes
 90
     4095
280
     0
281
     0
  0
ENDSEC
  0
SECTION
  2
TABLES
  0
TABLE
  2
VPORT
  5
8
330
0
100
AcDbSymbolTable
 70
     1
  0
VPORT
  5
39A
330
8
100
AcDbSymbolTableRecord
100
AcDbViewportTableRecord
  2
*Active
 70
     0
 10
0.0
 20
0.0
 11
1.0
 21
1.0
 12
218.9201881351169
 22
109.7549380673833
 13
0.0
 23
0.0
 14
5.0
 24
5.0
 15
5.0
 25
5.0
 16
0.0
 26
0.0
 36
1.0
 17
0.0
 27
0.0
 37
0.0
 40
564.6711112651689
 41
1.066073697585768
 42
50.0
 43
0.0
 44
0.0
 50
0.0
 51
0.0
 71
     0
 72
  2000
 73
     1
 74
     1
 75
     0
 76
     0
 77
     0
 78
     0
281
     0
 65
     1
110
0.0
120
0.0
130
0.0
111
1.0
121
0.0
131
0.0
112
0.0
122
1.0
132
0.0
 79
     0
146
0.0
  0
ENDTAB
  0
TABLE
  2
LTYPE
  5
5
330
0
100
AcDbSymbolTable
 70
     3
  0
LTYPE
  5
12
330
5
100
AcDbSymbolTableRecord
100
AcDbLinetypeTableRecord
  2
BYBLOCK
 70
     0
  3

 72
    65
 73
     0
 40
0.0
  0
LTYPE
  5
13
330
5
100
AcDbSymbolTableRecord
100
AcDbLinetypeTableRecord
  2
BYLAYER
 70
     0
  3

 72
    65
 73
     0
 40
0.0
  0
LTYPE
  5
14
330
5
100
AcDbSymbolTableRecord
100
AcDbLinetypeTableRecord
  2
CONTINUOUS
 70
     0
  3
Solid line
 72
    65
 73
     0
 40
0.0
  0
LTYPE
  5
20
330
5
100
AcDbSymbolTableRecord
100
AcDbLinetypeTableRecord
  2
HIDDEN
 70
     0
  3
Hidden __ __ __ __ __ __ __ __ __ __ __ __ __ _
 72
    65
 73
     2
 40
9.524999999999997
 49
6.349999999999998
 74
     0
 49
-3.174999999999998
 74
     0
  0
LTYPE
  5
351
330
5
100
AcDbSymbolTableRecord
100
AcDbLinetypeTableRecord
  2
CENTER
 70
     0
  3
Dash dot __ . __ . __ . __ . __ . __ . __ . __
 72
    65
 73
     4
 40
25.4
 49
12.7
 74
     0
 49
-6.349999999999998
 74
     0
 49
0.0
 74
     0
 49
-6.349999999999998
 74
     0
  0
ENDTAB
  0
TABLE
  2
LAYER
  5
2
330
0
100
AcDbSymbolTable
 70
    16
  0
LAYER
  5
F
330
2
100
AcDbSymbolTableRecord
100
AcDbLayerTableRecord
  2
0
 70
     0
 62
     7
  6
CONTINUOUS
370
    -3
390
300
  0
LAYER
  5
23
330
2
100
AcDbSymbolTableRecord
100
AcDbLayerTableRecord
  2
1
 70
     0
 62
     4
  6
CONTINUOUS
370
    -3
390
300
  0
LAYER
  5
24
330
2
100
AcDbSymbolTableRecord
100
AcDbLayerTableRecord
  2
SK1
 70
     0
 62
     4
  6
CONTINUOUS
370
    -3
390
300
  0
LAYER
  5
25
330
2
100
AcDbSymbolTableRecord
100
AcDbLayerTableRecord
  2
2
 70
     0
 62
     7
  6
CONTINUOUS
370
    -3
390
300
  0
LAYER
  5
26
330
2
100
AcDbSymbolTableRecord
100
AcDbLayerTableRecord
  2
2L
 70
     0
 62
     7
  6
CONTINUOUS
370
    -3
390
300
  0
LAYER
  5
27
330
2
100
AcDbSymbolTableRecord
100
AcDbLayerTableRecord
  2
SK2
 70
     0
 62
     7
  6
CONTINUOUS
370
    -3
390
300
  0
LAYER
  5
28
330
2
100
AcDbSymbolTableRecord
100
AcDbLayerTableRecord
  2
3
 70
     0
 62
     1
  6
HIDDEN
370
    -3
390
300
  0
LAYER
  5
29
330
2
100
AcDbSymbolTableRecord
100
AcDbLayerTableRecord
  2
SK3
 70
     0
 62
     1
  6
HIDDEN
370
    -3
390
300
  0
LAYER
  5
2A
330
2
100
AcDbSymbolTableRecord
100
AcDbLayerTableRecord
  2
4
 70
     0
 62
     2
  6
CENTER
370
    -3
390
300
  0
LAYER
  5
2B
330
2
100
AcDbSymbolTableRecord
100
AcDbLayerTableRecord
  2
SK4
 70
     0
 62
     2
  6
CENTER
370
    -3
390
300
  0
LAYER
  5
2C
330
2
100
AcDbSymbolTableRecord
100
AcDbLayerTableRecord
  2
5
 70
     0
 62
    -7
  6
CONTINUOUS
370
    -3
390
300
  0
LAYER
  5
2D
330
2
100
AcDbSymbolTableRecord
100
AcDbLayerTableRecord
  2
6
 70
     0
 62
     5
  6
CONTINUOUS
370
    -3
390
300
  0
LAYER
  5
2E
330
2
100
AcDbSymbolTableRecord
100
AcDbLayerTableRecord
  2
SK6
 70
     0
 62
     5
  6
CONTINUOUS
370
    -3
390
300
  0
LAYER
  5
2F
330
2
100
AcDbSymbolTableRecord
100
AcDbLayerTableRecord
  2
DEFPOINTS
 70
     0
 62
     7
  6
CONTINUOUS
290
     0
370
    -3
390
300
  0
LAYER
  5
375
330
2
100
AcDbSymbolTableRecord
100
AcDbLayerTableRecord
  2
CUT
 70
     0
 62
     1
  6
CONTINUOUS
370
    -3
390
300
  0
LAYER
  5
376
330
2
100
AcDbSymbolTableRecord
100
AcDbLayerTableRecord
  2
NOCUT
 70
     0
 62
     7
  6
CONTINUOUS
370
    -3
390
300
  0
ENDTAB
  0
TABLE
  2
STYLE
  5
3
330
0
100
AcDbSymbolTable
 70
     4
  0
STYLE
  5
10
330
3
100
AcDbSymbolTableRecord
100
AcDbTextStyleTableRecord
  2
STANDARD
 70
     0
 40
0.0
 41
1.0
 50
0.0
 71
     0
 42
5.0
  3
txt
  4

  0
STYLE
  5
1D
330
3
100
AcDbSymbolTableRecord
100
AcDbTextStyleTableRecord
  2
TXT
 70
     0
 40
8.0
 41
1.0
 50
0.0
 71
     0
 42
8.0
  3
txt
  4

  0
STYLE
  5
1E
330
3
100
AcDbSymbolTableRecord
100
AcDbTextStyleTableRecord
  2
SIMPLEX
 70
     0
 40
0.0
 41
1.0
 50
0.0
 71
     0
 42
3.5
  3
simplex
  4

  0
STYLE
  5
34C
330
3
100
AcDbSymbolTableRecord
100
AcDbTextStyleTableRecord
  2

 70
     1
 40
0.0
 41
1.0
 50
0.0
 71
     0
 42
2.5
  3
ltypeshp.shx
  4

  0
ENDTAB
  0
TABLE
  2
VIEW
  5
6
330
0
100
AcDbSymbolTable
 70
     0
  0
ENDTAB
  0
TABLE
  2
UCS
  5
7
330
0
100
AcDbSymbolTable
 70
     0
  0
ENDTAB
  0
TABLE
  2
APPID
  5
9
330
0
100
AcDbSymbolTable
 70
     1
  0
APPID
  5
11
330
9
100
AcDbSymbolTableRecord
100
AcDbRegAppTableRecord
  2
ACAD
 70
     0
  0
ENDTAB
  0
TABLE
  2
DIMSTYLE
  5
A
330
0
100
AcDbSymbolTable
 70
     1
100
AcDbDimStyleTable
  0
DIMSTYLE
105
3F
102
{ACAD_REACTORS
330
60E
330
61B
330
628
330
635
330
642
102
}
330
A
100
AcDbSymbolTableRecord
100
AcDbDimStyleTableRecord
  2
STANDARD
 70
     0
 41
2.5
 42
0.0
 43
3.75
 44
1.25
 73
     0
 74
     0
 77
     1
 78
     8
 79
     2
140
3.5
141
0.0
143
0.039370078
147
0.625
171
     3
178
     0
179
     2
271
     2
272
     2
274
     3
283
     0
284
     8
340
1E
  0
ENDTAB
  0
TABLE
  2
BLOCK_RECORD
  5
1
330
0
100
AcDbSymbolTable
 70
     5
  0
BLOCK_RECORD
  5
18
330
1
100
AcDbSymbolTableRecord
100
AcDbBlockTableRecord
  2
*MODEL_SPACE
340
303
  0
BLOCK_RECORD
  5
338
330
1
100
AcDbSymbolTableRecord
100
AcDbBlockTableRecord
  2
*Paper_Space
340
33B
  0
BLOCK_RECORD
  5
60F
330
1
100
AcDbSymbolTableRecord
100
AcDbBlockTableRecord
  2
*D0
340
0
  0
BLOCK_RECORD
  5
61C
330
1
100
AcDbSymbolTableRecord
100
AcDbBlockTableRecord
  2
*D1
340
0
  0
BLOCK_RECORD
  5
629
330
1
100
AcDbSymbolTableRecord
100
AcDbBlockTableRecord
  2
*D2
340
0
  0
BLOCK_RECORD
  5
636
330
1
100
AcDbSymbolTableRecord
100
AcDbBlockTableRecord
  2
*D3
340
0
  0
BLOCK_RECORD
  5
643
330
1
100
AcDbSymbolTableRecord
100
AcDbBlockTableRecord
  2
*D4
340
0
  0
ENDTAB
  0
ENDSEC
  0
SECTION
  2
BLOCKS
  0
BLOCK
  5
32
330
18
100
AcDbEntity
  8
0
100
AcDbBlockBegin
  2
*MODEL_SPACE
 70
     0
 10
0.0
 20
0.0
 30
0.0
  3
*MODEL_SPACE
  1

  0
ENDBLK
  5
33
330
18
100
AcDbEntity
  8
0
100
AcDbBlockEnd
  0
BLOCK
  5
339
330
338
100
AcDbEntity
 67
     1
  8
0
100
AcDbBlockBegin
  2
*Paper_Space
 70
     0
 10
0.0
 20
0.0
 30
0.0
  3
*Paper_Space
  1

  0
ENDBLK
  5
33A
330
338
100
AcDbEntity
 67
     1
  8
0
100
AcDbBlockEnd
  0
BLOCK
  5
610
330
60F
100
AcDbEntity
  8
0
100
AcDbBlockBegin
  2
*D0
 70
     1
 10
0.0
 20
0.0
 30
0.0
  3
*D0
  1

  0
LINE
  5
612
330
60F
100
AcDbEntity
  8
2
 62
     0
370
    -2
100
AcDbLine
 10
68.0
 20
6.0
 30
0.0
 11
84.25
 21
6.000000000000058
 31
0.0
  0
LINE
  5
613
330
60F
100
AcDbEntity
  8
2
 62
     0
370
    -2
100
AcDbLine
 10
68.0
 20
-6.0
 30
0.0
 11
84.25000000000004
 21
-5.999999999999943
 31
0.0
  0
LINE
  5
614
330
60F
100
AcDbEntity
  8
2
 62
     0
370
    -2
100
AcDbLine
 10
83.00000000000001
 20
3.500000000000053
 30
0.0
 11
83.00000000000003
 21
-3.499999999999948
 31
0.0
  0
SOLID
  5
615
330
60F
100
AcDbEntity
  8
2
 62
     0
100
AcDbTrace
 10
83.41666666666669
 20
3.500000000000055
 30
0.0
 11
82.58333333333334
 21
3.500000000000052
 31
0.0
 12
83.0
 22
6.000000000000053
 32
0.0
 13
83.0
 23
6.000000000000053
 33
0.0
  0
SOLID
  5
616
330
60F
100
AcDbEntity
  8
2
 62
     0
100
AcDbTrace
 10
82.58333333333336
 20
-3.499999999999949
 30
0.0
 11
83.4166666666667
 21
-3.499999999999946
 31
0.0
 12
83.00000000000004
 22
-5.999999999999948
 32
0.0
 13
83.00000000000004
 23
-5.999999999999948
 33
0.0
  0
MTEXT
  5
617
330
60F
100
AcDbEntity
  8
2
 62
     0
100
AcDbMText
 10
80.60925000000003
 20
0.0000000000000444
 30
0.0
 40
3.5
 41
0.0
 71
     5
 72
     1
  1
M12
  7
SIMPLEX
 11
-3.552713678800501E-15
 21
1.0
 31
0.0
 73
     1
 44
1.0
  0
POINT
  5
618
330
60F
100
AcDbEntity
  8
DEFPOINTS
 62
     0
100
AcDbPoint
 10
68.0
 20
6.0
 30
0.0
  0
POINT
  5
619
330
60F
100
AcDbEntity
  8
DEFPOINTS
 62
     0
100
AcDbPoint
 10
68.0
 20
-6.0
 30
0.0
  0
POINT
  5
61A
330
60F
100
AcDbEntity
  8
DEFPOINTS
 62
     0
100
AcDbPoint
 10
83.00000000000004
 20
-5.999999999999948
 30
0.0
  0
ENDBLK
  5
611
330
60F
100
AcDbEntity
  8
0
100
AcDbBlockEnd
  0
BLOCK
  5
61D
330
61C
100
AcDbEntity
  8
0
100
AcDbBlockBegin
  2
*D1
 70
     1
 10
0.0
 20
0.0
 30
0.0
  3
*D1
  1

  0
LINE
  5
61F
330
61C
100
AcDbEntity
  8
2
 62
     0
370
    -2
100
AcDbLine
 10
0.0
 20
0.0
 30
0.0
 11
0.0
 21
76.25
 31
0.0
  0
LINE
  5
620
330
61C
100
AcDbEntity
  8
2
 62
     0
370
    -2
100
AcDbLine
 10
68.0
 20
0.0
 30
0.0
 11
68.0
 21
76.25
 31
0.0
  0
LINE
  5
621
330
61C
100
AcDbEntity
  8
2
 62
     0
370
    -2
100
AcDbLine
 10
2.5
 20
75.0
 30
0.0
 11
65.5
 21
75.0
 31
0.0
  0
SOLID
  5
622
330
61C
100
AcDbEntity
  8
2
 62
     0
100
AcDbTrace
 10
2.5
 20
75.41666666666667
 30
0.0
 11
2.5
 21
74.58333333333333
 31
0.0
 12
0.0
 22
75.0
 32
0.0
 13
0.0
 23
75.0
 33
0.0
  0
SOLID
  5
623
330
61C
100
AcDbEntity
  8
2
 62
     0
100
AcDbTrace
 10
65.5
 20
74.58333333333333
 30
0.0
 11
65.5
 21
75.41666666666667
 31
0.0
 12
68.0
 22
75.0
 32
0.0
 13
68.0
 23
75.0
 33
0.0
  0
MTEXT
  5
624
330
61C
100
AcDbEntity
  8
2
 62
     0
100
AcDbMText
 10
34.0
 20
77.39075
 30
0.0
 40
3.5
 41
0.0
 71
     5
 72
     1
  1
68
  7
SIMPLEX
 73
     1
 44
1.0
  0
POINT
  5
625
330
61C
100
AcDbEntity
  8
DEFPOINTS
 62
     0
100
AcDbPoint
 10
0.0
 20
0.0
 30
0.0
  0
POINT
  5
626
330
61C
100
AcDbEntity
  8
DEFPOINTS
 62
     0
100
AcDbPoint
 10
68.0
 20
0.0
 30
0.0
  0
POINT
  5
627
330
61C
100
AcDbEntity
  8
DEFPOINTS
 62
     0
100
AcDbPoint
 10
68.0
 20
75.0
 30
0.0
  0
ENDBLK
  5
61E
330
61C
100
AcDbEntity
  8
0
100
AcDbBlockEnd
  0
BLOCK
  5
62A
330
629
100
AcDbEntity
  8
0
100
AcDbBlockBegin
  2
*D2
 70
     1
 10
0.0
 20
0.0
 30
0.0
  3
*D2
  1

  0
LINE
  5
62C
330
629
100
AcDbEntity
  8
SK2
 62
     0
370
    -2
100
AcDbLine
 10
-32.02
 20
6.0
 30
0.0
 11
-60.27000000003062
 21
5.999999999855829
 31
0.0
  0
LINE
  5
62D
330
629
100
AcDbEntity
  8
SK2
 62
     0
370
    -2
100
AcDbLine
 10
-32.02
 20
-6.0
 30
0.0
 11
-60.26999999996938
 21
-6.000000000144171
 31
0.0
  0
LINE
  5
62E
330
629
100
AcDbEntity
  8
SK2
 62
     0
370
    -2
100
AcDbLine
 10
-59.02000000001786
 20
3.499999999862208
 30
0.0
 11
-59.01999999998214
 21
-3.500000000137792
 31
0.0
  0
SOLID
  5
62F
330
629
100
AcDbEntity
  8
SK2
 62
     0
100
AcDbTrace
 10
-58.60333333335119
 20
3.499999999864334
 30
0.0
 11
-59.43666666668452
 21
3.499999999860082
 31
0.0
 12
-59.02000000003062
 22
5.999999999862208
 32
0.0
 13
-59.02000000003062
 23
5.999999999862208
 33
0.0
  0
SOLID
  5
630
330
629
100
AcDbEntity
  8
SK2
 62
     0
100
AcDbTrace
 10
-59.4366666666488
 20
-3.500000000139918
 30
0.0
 11
-58.60333333331548
 21
-3.500000000135666
 31
0.0
 12
-59.01999999996938
 22
-6.000000000137792
 32
0.0
 13
-59.01999999996938
 23
-6.000000000137792
 33
0.0
  0
MTEXT
  5
631
330
629
100
AcDbEntity
  8
SK2
 62
     0
100
AcDbMText
 10
-61.41074999999999
 20
-0.0000000001499931
 30
0.0
 40
3.5
 41
0.0
 71
     5
 72
     1
  1
%%c12
  7
SIMPLEX
 11
-5.103473199596920E-12
 21
1.0
 31
0.0
 73
     1
 44
1.0
  0
POINT
  5
632
330
629
100
AcDbEntity
  8
DEFPOINTS
 62
     0
100
AcDbPoint
 10
-32.02
 20
6.0
 30
0.0
  0
POINT
  5
633
330
629
100
AcDbEntity
  8
DEFPOINTS
 62
     0
100
AcDbPoint
 10
-32.02
 20
-6.0
 30
0.0
  0
POINT
  5
634
330
629
100
AcDbEntity
  8
DEFPOINTS
 62
     0
100
AcDbPoint
 10
-59.01999999996938
 20
-6.000000000137792
 30
0.0
  0
ENDBLK
  5
62B
330
629
100
AcDbEntity
  8
0
100
AcDbBlockEnd
  0
BLOCK
  5
637
330
636
100
AcDbEntity
  8
0
100
AcDbBlockBegin
  2
*D3
 70
     1
 10
0.0
 20
0.0
 30
0.0
  3
*D3
  1

  0
LINE
  5
639
330
636
100
AcDbEntity
  8
2
 62
     0
370
    -2
100
AcDbLine
 10
32.0
 20
6.0
 30
0.0
 11
32.0
 21
61.25
 31
0.0
  0
LINE
  5
63A
330
636
100
AcDbEntity
  8
2
 62
     0
370
    -2
100
AcDbLine
 10
68.0
 20
6.0
 30
0.0
 11
68.0
 21
61.25
 31
0.0
  0
LINE
  5
63B
330
636
100
AcDbEntity
  8
2
 62
     0
370
    -2
100
AcDbLine
 10
34.5
 20
60.0
 30
0.0
 11
65.5
 21
60.0
 31
0.0
  0
SOLID
  5
63C
330
636
100
AcDbEntity
  8
2
 62
     0
100
AcDbTrace
 10
34.5
 20
60.41666666666666
 30
0.0
 11
34.5
 21
59.58333333333334
 31
0.0
 12
32.0
 22
60.0
 32
0.0
 13
32.0
 23
60.0
 33
0.0
  0
SOLID
  5
63D
330
636
100
AcDbEntity
  8
2
 62
     0
100
AcDbTrace
 10
65.5
 20
59.58333333333334
 30
0.0
 11
65.5
 21
60.41666666666666
 31
0.0
 12
68.0
 22
60.0
 32
0.0
 13
68.0
 23
60.0
 33
0.0
  0
MTEXT
  5
63E
330
636
100
AcDbEntity
  8
2
 62
     0
100
AcDbMText
 10
50.0
 20
62.39075
 30
0.0
 40
3.5
 41
0.0
 71
     5
 72
     1
  1
36
  7
SIMPLEX
 73
     1
 44
1.0
  0
POINT
  5
63F
330
636
100
AcDbEntity
  8
DEFPOINTS
 62
     0
100
AcDbPoint
 10
32.0
 20
6.0
 30
0.0
  0
POINT
  5
640
330
636
100
AcDbEntity
  8
DEFPOINTS
 62
     0
100
AcDbPoint
 10
68.0
 20
6.0
 30
0.0
  0
POINT
  5
641
330
636
100
AcDbEntity
  8
DEFPOINTS
 62
     0
100
AcDbPoint
 10
68.0
 20
60.0
 30
0.0
  0
ENDBLK
  5
638
330
636
100
AcDbEntity
  8
0
100
AcDbBlockEnd
  0
BLOCK
  5
644
330
643
100
AcDbEntity
  8
0
100
AcDbBlockBegin
  2
*D4
 70
     1
 10
0.0
 20
0.0
 30
0.0
  3
*D4
  1

  0
LINE
  5
646
330
643
100
AcDbEntity
  8
SK2
 62
     0
370
    -2
100
AcDbLine
 10
-44.02
 20
6.0
 30
0.0
 11
-44.02
 21
91.25
 31
0.0
  0
LINE
  5
647
330
643
100
AcDbEntity
  8
SK2
 62
     0
370
    -2
100
AcDbLine
 10
68.0
 20
6.0
 30
0.0
 11
68.0
 21
91.25
 31
0.0
  0
LINE
  5
648
330
643
100
AcDbEntity
  8
SK2
 62
     0
370
    -2
100
AcDbLine
 10
-41.52
 20
90.0
 30
0.0
 11
65.5
 21
90.0
 31
0.0
  0
SOLID
  5
649
330
643
100
AcDbEntity
  8
SK2
 62
     0
100
AcDbTrace
 10
-41.52
 20
90.41666666666667
 30
0.0
 11
-41.52
 21
89.58333333333333
 31
0.0
 12
-44.02
 22
90.0
 32
0.0
 13
-44.02
 23
90.0
 33
0.0
  0
SOLID
  5
64A
330
643
100
AcDbEntity
  8
SK2
 62
     0
100
AcDbTrace
 10
65.5
 20
89.58333333333333
 30
0.0
 11
65.5
 21
90.41666666666667
 31
0.0
 12
68.0
 22
90.0
 32
0.0
 13
68.0
 23
90.0
 33
0.0
  0
MTEXT
  5
64B
330
643
100
AcDbEntity
  8
SK2
 62
     0
100
AcDbMText
 10
11.99
 20
92.39775
 30
0.0
 40
3.5
 41
0.0
 71
     5
 72
     1
  1
112.02
  7
SIMPLEX
 73
     1
 44
1.0
  0
POINT
  5
64C
330
643
100
AcDbEntity
  8
DEFPOINTS
 62
     0
100
AcDbPoint
 10
-44.02
 20
6.0
 30
0.0
  0
POINT
  5
64D
330
643
100
AcDbEntity
  8
DEFPOINTS
 62
     0
100
AcDbPoint
 10
68.0
 20
6.0
 30
0.0
  0
POINT
  5
64E
330
643
100
AcDbEntity
  8
DEFPOINTS
 62
     0
100
AcDbPoint
 10
68.0
 20
90.0
 30
0.0
  0
ENDBLK
  5
645
330
643
100
AcDbEntity
  8
0
100
AcDbBlockEnd
  0
ENDSEC
  0
SECTION
  2
ENTITIES
  0
LINE
  5
3D6
330
18
100
AcDbEntity
  8
SK4
100
AcDbLine
 10
-46.02
 20
0.0
 30
0.0
 11
32.0
 21
0.0
 31
0.0
  0
LINE
  5
3D7
330
18
100
AcDbEntity
  8
4
100
AcDbLine
 10
30.0
 20
0.0
 30
0.0
 11
70.0
 21
0.0
 31
0.0
  0
LINE
  5
3D8
330
18
100
AcDbEntity
  8
SK4
100
AcDbLine
 10
30.0
 20
0.0
 30
0.0
 11
70.0
 21
0.0
 31
0.0
  0
LINE
  5
3D9
330
18
100
AcDbEntity
  8
1
100
AcDbLine
 10
13.00000000000001
 20
-5.18549259128015
 30
0.0
 11
13.0
 21
-5.999999999999998
 31
0.0
  0
LINE
  5
3DA
330
18
100
AcDbEntity
  8
1
100
AcDbLine
 10
13.0
 20
5.206747049146724
 30
0.0
 11
13.0
 21
-1.888533775536206
 31
0.0
  0
LINE
  5
3DB
330
18
100
AcDbEntity
  8
1
100
AcDbLine
 10
32.00000000000001
 20
6.0
 30
0.0
 11
-0.0000000000000036
 21
6.0
 31
0.0
  0
LINE
  5
3DC
330
18
100
AcDbEntity
  8
1
100
AcDbLine
 10
13.0
 20
-5.18549259128025
 30
0.0
 11
32.00000000000001
 21
-5.185492591280261
 31
0.0
  0
LINE
  5
3DD
330
18
100
AcDbEntity
  8
1
100
AcDbLine
 10
32.0
 20
-0.6476802832335693
 30
0.0
 11
32.0
 21
-1.888533775536203
 31
0.0
  0
LINE
  5
3DE
330
18
100
AcDbEntity
  8
1
100
AcDbLine
 10
13.0
 20
-1.888533775536203
 30
0.0
 11
32.00000000000001
 21
-1.888533775536205
 31
0.0
  0
LINE
  5
3DF
330
18
100
AcDbEntity
  8
1
100
AcDbLine
 10
13.0
 20
5.206747049146727
 30
0.0
 11
32.00000000000001
 21
5.206747049146724
 31
0.0
  0
LINE
  5
3E0
330
18
100
AcDbEntity
  8
1
100
AcDbLine
 10
32.0
 20
5.999999999999999
 30
0.0
 11
32.0
 21
5.999831231518165
 31
0.0
  0
LINE
  5
3E1
330
18
100
AcDbEntity
  8
1
100
AcDbLine
 10
32.0
 20
5.999831231518165
 30
0.0
 11
32.0
 21
5.948925523189834
 31
0.0
  0
LINE
  5
3E2
330
18
100
AcDbEntity
  8
1
100
AcDbLine
 10
32.0
 20
5.948925523189834
 30
0.0
 11
32.00000000000001
 21
5.206747049146735
 31
0.0
  0
LINE
  5
3E3
330
18
100
AcDbEntity
  8
1
100
AcDbLine
 10
32.0
 20
5.206747049146718
 30
0.0
 11
32.0
 21
-0.6476802832335753
 31
0.0
  0
LINE
  5
3E4
330
18
100
AcDbEntity
  8
1
100
AcDbLine
 10
32.0
 20
-1.888533775536212
 30
0.0
 11
32.0
 21
-5.185492591280271
 31
0.0
  0
LINE
  5
3E5
330
18
100
AcDbEntity
  8
1
100
AcDbLine
 10
-0.0000000000000036
 20
-6.0
 30
0.0
 11
13.0
 21
-6.0
 31
0.0
  0
LINE
  5
3E6
330
18
100
AcDbEntity
  8
1
 62
     1
100
AcDbLine
 10
51.34613247308103
 20
5.206747049146722
 30
0.0
 11
51.40386752691899
 21
5.206747049146722
 31
0.0
  0
LINE
  5
3E7
330
18
100
AcDbEntity
  8
1
 62
     1
100
AcDbLine
 10
56.59613247308103
 20
5.206747049146722
 30
0.0
 11
56.65386752691901
 21
5.206747049146725
 31
0.0
  0
LINE
  5
3E8
330
18
100
AcDbEntity
  8
1
 62
     1
100
AcDbLine
 10
56.65386752691899
 20
6.0
 30
0.0
 11
56.59613247308104
 21
6.0
 31
0.0
  0
LINE
  5
3E9
330
18
100
AcDbEntity
  8
1
 62
     1
100
AcDbLine
 10
60.09613247308101
 20
5.206747049146723
 30
0.0
 11
60.15386752691897
 21
5.20674704914672
 31
0.0
  0
LINE
  5
3EA
330
18
100
AcDbEntity
  8
1
 62
     1
100
AcDbLine
 10
60.15386752691899
 20
6.0
 30
0.0
 11
60.09613247308103
 21
6.0
 31
0.0
  0
LINE
  5
3EB
330
18
100
AcDbEntity
  8
1
 62
     1
100
AcDbLine
 10
61.84613247308102
 20
5.206747049146722
 30
0.0
 11
61.90386752691899
 21
5.206747049146722
 31
0.0
  0
LINE
  5
3EC
330
18
100
AcDbEntity
  8
1
 62
     1
100
AcDbLine
 10
61.90386752691898
 20
6.0
 30
0.0
 11
61.84613247308104
 21
6.0
 31
0.0
  0
LINE
  5
3ED
330
18
100
AcDbEntity
  8
1
 62
     1
100
AcDbLine
 10
58.34613247308106
 20
5.206747049146723
 30
0.0
 11
58.40386752691897
 21
5.206747049146723
 31
0.0
  0
LINE
  5
3EE
330
18
100
AcDbEntity
  8
1
 62
     1
100
AcDbLine
 10
39.15386752691899
 20
6.0
 30
0.0
 11
39.09613247308103
 21
6.0
 31
0.0
  0
LINE
  5
3EF
330
18
100
AcDbEntity
  8
1
 62
     1
100
AcDbLine
 10
47.90386752691899
 20
6.0
 30
0.0
 11
47.84613247308103
 21
6.0
 31
0.0
  0
LINE
  5
3F0
330
18
100
AcDbEntity
  8
1
 62
     1
100
AcDbLine
 10
44.34613247308105
 20
5.206747049146723
 30
0.0
 11
44.40386752691897
 21
5.206747049146723
 31
0.0
  0
LINE
  5
3F1
330
18
100
AcDbEntity
  8
1
 62
     1
100
AcDbLine
 10
44.40386752691898
 20
6.0
 30
0.0
 11
44.34613247308103
 21
6.0
 31
0.0
  0
LINE
  5
3F2
330
18
100
AcDbEntity
  8
1
 62
     1
100
AcDbLine
 10
42.59613247308103
 20
5.206747049146724
 30
0.0
 11
42.65386752691896
 21
5.206747049146724
 31
0.0
  0
LINE
  5
3F3
330
18
100
AcDbEntity
  8
1
 62
     1
100
AcDbLine
 10
67.99999999999999
 20
4.025816498059227
 30
0.0
 11
68.0
 21
4.53445625
 31
0.0
  0
LINE
  5
3F4
330
18
100
AcDbEntity
  8
1
 62
     1
100
AcDbLine
 10
68.0
 20
4.02581649805925
 30
0.0
 11
68.0
 21
-0.6476802832335753
 31
0.0
  0
LINE
  5
3F5
330
18
100
AcDbEntity
  8
1
 62
     1
100
AcDbLine
 10
68.0
 20
-1.135116868053225
 30
0.0
 11
68.0
 21
-0.6476802832335748
 31
0.0
  0
LINE
  5
3F6
330
18
100
AcDbEntity
  8
1
 62
     1
100
AcDbLine
 10
68.0
 20
-3.819997415434432
 30
0.0
 11
68.0
 21
-1.135116868053224
 31
0.0
  0
LINE
  5
3F7
330
18
100
AcDbEntity
  8
1
 62
     1
100
AcDbLine
 10
63.46406224488688
 20
5.771247761256266
 30
0.0
 11
63.81698992456876
 21
5.717463851150693
 31
0.0
  0
LINE
  5
3F8
330
18
100
AcDbEntity
  8
1
 62
     1
100
AcDbLine
 10
67.65464404748788
 20
-1.444116721854028
 30
0.0
 11
66.68101980571008
 21
-1.520399601154618
 31
0.0
  0
LINE
  5
3F9
330
18
100
AcDbEntity
  8
1
 62
     1
100
AcDbLine
 10
66.6810198057101
 20
-1.520399601154616
 30
0.0
 11
66.68101980571008
 21
-4.475881539502347
 31
0.0
  0
LINE
  5
3FA
330
18
100
AcDbEntity
  8
1
 62
     1
100
AcDbLine
 10
67.65464404748788
 20
-4.338920580698239
 30
0.0
 11
66.68101980571006
 21
-4.475881539502351
 31
0.0
  0
LINE
  5
3FB
330
18
100
AcDbEntity
  8
1
 62
     1
100
AcDbLine
 10
65.7358169872549
 20
-1.594341581660957
 30
0.0
 11
65.07254102529846
 21
-1.646166697290486
 31
0.0
  0
LINE
  5
3FC
330
18
100
AcDbEntity
  8
1
 62
     1
100
AcDbLine
 10
65.73581698602833
 20
-4.611963589977249
 30
0.0
 11
65.07254102529848
 21
-4.709284892820359
 31
0.0
  0
LINE
  5
3FD
330
18
100
AcDbEntity
  8
1
 62
     1
100
AcDbLine
 10
65.73581698602831
 20
-1.594341579295501
 30
0.0
 11
65.73581698602831
 21
-4.611963589977248
 31
0.0
  0
LINE
  5
3FE
330
18
100
AcDbEntity
  8
1
 62
     1
100
AcDbLine
 10
63.81698992456876
 20
-1.744140304059721
 30
0.0
 11
63.46406224488688
 21
-1.771651600042826
 31
0.0
  0
ARC
  5
3FF
330
18
100
AcDbEntity
  8
1
 62
     1
100
AcDbCircle
 10
78.88527536181313
 20
-11.43731548919549
 30
0.0
 40
13.2858586824384
100
AcDbArc
 50
145.0163695019618
 51
147.704795257821
  0
LINE
  5
400
330
18
100
AcDbEntity
  8
1
 62
     1
100
AcDbLine
 10
63.81698992456876
 20
-4.897620736221243
 30
0.0
 11
63.46406224488688
 21
-4.951525601894415
 31
0.0
  0
LINE
  5
401
330
18
100
AcDbEntity
  8
1
 62
     1
100
AcDbLine
 10
60.09613247308103
 20
-5.185492591280282
 30
0.0
 11
60.15386752691901
 21
-5.185492591280282
 31
0.0
  0
LINE
  5
402
330
18
100
AcDbEntity
  8
1
 62
     1
100
AcDbLine
 10
54.84613247308105
 20
-5.185492591280281
 30
0.0
 11
54.90386752691897
 21
-5.185492591280283
 31
0.0
  0
LINE
  5
403
330
18
100
AcDbEntity
  8
1
 62
     1
100
AcDbLine
 10
53.09613247308108
 20
-5.18549259128028
 30
0.0
 11
53.15386752691898
 21
-5.18549259128028
 31
0.0
  0
LINE
  5
404
330
18
100
AcDbEntity
  8
1
 62
     1
100
AcDbLine
 10
51.34613247308102
 20
-5.18549259128028
 30
0.0
 11
51.40386752691899
 21
-5.18549259128028
 31
0.0
  0
LINE
  5
405
330
18
100
AcDbEntity
  8
1
 62
     1
100
AcDbLine
 10
49.59613247308103
 20
-5.185492591280278
 30
0.0
 11
49.65386752691899
 21
-5.185492591280278
 31
0.0
  0
LINE
  5
406
330
18
100
AcDbEntity
  8
1
 62
     1
100
AcDbLine
 10
46.09613247308103
 20
-5.185492591280275
 30
0.0
 11
46.15386752691896
 21
-5.185492591280275
 31
0.0
  0
LINE
  5
407
330
18
100
AcDbEntity
  8
1
 62
     1
100
AcDbLine
 10
44.34613247308102
 20
-5.185492591280274
 30
0.0
 11
44.40386752691899
 21
-5.185492591280274
 31
0.0
  0
LINE
  5
408
330
18
100
AcDbEntity
  8
1
 62
     1
100
AcDbLine
 10
42.59613247308105
 20
-5.185492591280271
 30
0.0
 11
42.65386752691896
 21
-5.185492591280271
 31
0.0
  0
LINE
  5
409
330
18
100
AcDbEntity
  8
1
 62
     1
100
AcDbLine
 10
40.84613247308103
 20
-5.18549259128027
 30
0.0
 11
40.90386752691899
 21
-5.18549259128027
 31
0.0
  0
LINE
  5
40A
330
18
100
AcDbEntity
  8
1
 62
     1
100
AcDbLine
 10
39.09613247308103
 20
-5.185492591280268
 30
0.0
 11
39.15386752691898
 21
-5.185492591280268
 31
0.0
  0
LINE
  5
40B
330
18
100
AcDbEntity
  8
1
 62
     1
100
AcDbLine
 10
37.34613247308103
 20
-5.185492591280267
 30
0.0
 11
37.40386752691897
 21
-5.185492591280267
 31
0.0
  0
LINE
  5
40C
330
18
100
AcDbEntity
  8
1
 62
     1
100
AcDbLine
 10
35.59613247308104
 20
-5.185492591280265
 30
0.0
 11
35.65386752691899
 21
-5.185492591280267
 31
0.0
  0
LINE
  5
40D
330
18
100
AcDbEntity
  8
1
 62
     1
100
AcDbLine
 10
33.84613247308104
 20
-5.185492591280264
 30
0.0
 11
33.90386752691897
 21
-5.185492591280264
 31
0.0
  0
LINE
  5
40E
330
18
100
AcDbEntity
  8
1
 62
     1
100
AcDbLine
 10
32.00000000000001
 20
-5.185492591280261
 30
0.0
 11
32.15386752691897
 21
-5.185492591280261
 31
0.0
  0
LINE
  5
40F
330
18
100
AcDbEntity
  8
1
 62
     1
100
AcDbLine
 10
33.84613247308105
 20
-1.888533775536205
 30
0.0
 11
33.90386752691898
 21
-1.888533775536205
 31
0.0
  0
LINE
  5
410
330
18
100
AcDbEntity
  8
1
 62
     1
100
AcDbLine
 10
37.34613247308104
 20
-1.888533775536205
 30
0.0
 11
37.40386752691899
 21
-1.888533775536205
 31
0.0
  0
LINE
  5
411
330
18
100
AcDbEntity
  8
1
 62
     1
100
AcDbLine
 10
40.84613247308104
 20
-1.888533775536205
 30
0.0
 11
40.90386752691897
 21
-1.888533775536205
 31
0.0
  0
LINE
  5
412
330
18
100
AcDbEntity
  8
1
 62
     1
100
AcDbLine
 10
42.59613247308103
 20
-1.888533775536205
 30
0.0
 11
42.65386752691897
 21
-1.888533775536205
 31
0.0
  0
LINE
  5
413
330
18
100
AcDbEntity
  8
1
 62
     1
100
AcDbLine
 10
44.34613247308104
 20
-1.888533775536206
 30
0.0
 11
44.40386752691898
 21
-1.888533775536206
 31
0.0
  0
LINE
  5
414
330
18
100
AcDbEntity
  8
1
 62
     1
100
AcDbLine
 10
46.09613247308103
 20
-1.888533775536206
 30
0.0
 11
46.15386752691896
 21
-1.888533775536205
 31
0.0
  0
LINE
  5
415
330
18
100
AcDbEntity
  8
1
 62
     1
100
AcDbLine
 10
47.84613247308102
 20
-1.888533775536206
 30
0.0
 11
47.90386752691899
 21
-1.888533775536206
 31
0.0
  0
LINE
  5
416
330
18
100
AcDbEntity
  8
1
 62
     1
100
AcDbLine
 10
47.84613247308103
 20
-5.185492591280276
 30
0.0
 11
47.90386752691898
 21
-5.185492591280276
 31
0.0
  0
LINE
  5
417
330
18
100
AcDbEntity
  8
1
 62
     1
100
AcDbLine
 10
49.59613247308103
 20
-1.888533775536206
 30
0.0
 11
49.65386752691901
 21
-1.888533775536206
 31
0.0
  0
LINE
  5
418
330
18
100
AcDbEntity
  8
1
 62
     1
100
AcDbLine
 10
53.09613247308106
 20
-1.888533775536206
 30
0.0
 11
53.15386752691897
 21
-1.888533775536206
 31
0.0
  0
LINE
  5
419
330
18
100
AcDbEntity
  8
1
 62
     1
100
AcDbLine
 10
54.84613247308106
 20
-1.888533775536206
 30
0.0
 11
54.90386752691899
 21
-1.888533775536206
 31
0.0
  0
LINE
  5
41A
330
18
100
AcDbEntity
  8
1
 62
     1
100
AcDbLine
 10
56.59613247308104
 20
-5.185492591280282
 30
0.0
 11
56.65386752691897
 21
-5.185492591280282
 31
0.0
  0
LINE
  5
41B
330
18
100
AcDbEntity
  8
1
 62
     1
100
AcDbLine
 10
58.34613247308106
 20
-5.185492591280283
 30
0.0
 11
58.40386752691899
 21
-5.185492591280283
 31
0.0
  0
LINE
  5
41C
330
18
100
AcDbEntity
  8
1
 62
     1
100
AcDbLine
 10
60.09613247308104
 20
-1.888533775536206
 30
0.0
 11
60.15386752691899
 21
-1.888533775536206
 31
0.0
  0
LINE
  5
41D
330
18
100
AcDbEntity
  8
1
 62
     1
100
AcDbLine
 10
61.84613247308103
 20
-1.888533775536206
 30
0.0
 11
61.903867526919
 21
-1.888533775536206
 31
0.0
  0
LINE
  5
41E
330
18
100
AcDbEntity
  8
1
 62
     1
100
AcDbLine
 10
61.84613247308104
 20
-5.185492591280283
 30
0.0
 11
61.90386752691897
 21
-5.185492591280283
 31
0.0
  0
LINE
  5
41F
330
18
100
AcDbEntity
  8
1
 62
     1
100
AcDbLine
 10
67.65464404748786
 20
4.54395905757673
 30
0.0
 11
66.68101980571012
 21
4.665206020379702
 31
0.0
  0
LINE
  5
420
330
18
100
AcDbEntity
  8
1
 62
     1
100
AcDbLine
 10
66.6810198057101
 20
5.281004104480158
 30
0.0
 11
67.65464404748786
 21
5.132630027548644
 31
0.0
  0
LINE
  5
421
330
18
100
AcDbEntity
  8
1
 62
     1
100
AcDbLine
 10
65.73581698602831
 20
4.779985554919788
 30
0.0
 11
65.07254102529846
 21
4.858744624463107
 31
0.0
  0
LINE
  5
422
330
18
100
AcDbEntity
  8
1
 62
     1
100
AcDbLine
 10
65.07254102529846
 20
5.526125932868215
 30
0.0
 11
65.73581698602831
 21
5.425046939349668
 31
0.0
  0
LINE
  5
423
330
18
100
AcDbEntity
  8
1
 62
     1
100
AcDbLine
 10
67.65464404748786
 20
-1.444116721854027
 30
0.0
 11
68.0
 21
-1.135116868053224
 31
0.0
  0
LINE
  5
424
330
18
100
AcDbEntity
  8
1
 62
     1
100
AcDbLine
 10
67.65464404748786
 20
-1.444116721854028
 30
0.0
 11
67.65464404748786
 21
-4.338920580698061
 31
0.0
  0
LINE
  5
425
330
18
100
AcDbEntity
  8
1
 62
     1
100
AcDbLine
 10
65.73581698602831
 20
-1.594341577532146
 30
0.0
 11
66.25
 21
-1.135116868053224
 31
0.0
  0
ARC
  5
426
330
18
100
AcDbEntity
  8
1
 62
     1
100
AcDbCircle
 10
77.80950068684655
 20
-11.88456011403383
 30
0.0
 40
14.09480951487774
100
AcDbArc
 50
145.0981885701468
 51
148.9372965879383
  0
LINE
  5
427
330
18
100
AcDbEntity
  8
1
 62
     1
100
AcDbLine
 10
66.25000000000001
 20
-3.819997415434432
 30
0.0
 11
66.25
 21
-1.135116868053225
 31
0.0
  0
LINE
  5
428
330
18
100
AcDbEntity
  8
1
 62
     1
100
AcDbLine
 10
66.25
 20
-1.135116868053225
 30
0.0
 11
66.6810198057101
 21
-1.52039960115462
 31
0.0
  0
ARC
  5
429
330
18
100
AcDbEntity
  8
1
 62
     1
100
AcDbCircle
 10
55.3361754912077
 20
-11.45930566502678
 30
0.0
 40
13.32182741920262
100
AcDbArc
 50
31.61476010674813
 51
34.99072038017387
  0
ARC
  5
42A
330
18
100
AcDbEntity
  8
1
 62
     1
100
AcDbCircle
 10
-37.67286506527183
 20
110.8096337891719
 30
0.0
 40
150.3874964480608
100
AcDbArc
 50
311.4628530589513
 51
311.8944943718972
  0
LINE
  5
42B
330
18
100
AcDbEntity
  8
1
 62
     1
100
AcDbLine
 10
61.90386752691898
 20
-1.888533775536206
 30
0.0
 11
61.90386752691899
 21
-5.185492591280283
 31
0.0
  0
ARC
  5
42C
330
18
100
AcDbEntity
  8
1
 62
     1
100
AcDbCircle
 10
75.78018057219015
 20
-12.82979030863179
 30
0.0
 40
15.84245319301339
100
AcDbArc
 50
145.3378581621957
 51
151.1501479042038
  0
ARC
  5
42D
330
18
100
AcDbEntity
  8
1
 62
     1
100
AcDbCircle
 10
153.0818377615012
 20
101.4382797709166
 30
0.0
 40
137.8418282412911
100
AcDbArc
 50
228.0851519081347
 51
228.5560790913585
  0
ARC
  5
42E
330
18
100
AcDbEntity
  8
1
 62
     1
100
AcDbCircle
 10
48.67312350651563
 20
-12.39405386036112
 30
0.0
 40
15.01566865818381
100
AcDbArc
 50
28.68845194259703
 51
34.82084937441857
  0
LINE
  5
42F
330
18
100
AcDbEntity
  8
1
 62
     1
100
AcDbLine
 10
61.84613247308103
 20
-1.888533775536206
 30
0.0
 11
61.84613247308105
 21
-5.185492591280283
 31
0.0
  0
ARC
  5
430
330
18
100
AcDbEntity
  8
1
 62
     1
100
AcDbCircle
 10
146.0818377619453
 20
101.4382797714129
 30
0.0
 40
137.8418282419571
100
AcDbArc
 50
228.0851519081351
 51
228.5560790913567
  0
LINE
  5
431
330
18
100
AcDbEntity
  8
1
 62
     1
100
AcDbLine
 10
54.00000000000001
 20
-3.819997415434432
 30
0.0
 11
54.00000000000001
 21
-1.135116868053224
 31
0.0
  0
ARC
  5
432
330
18
100
AcDbEntity
  8
1
 62
     1
100
AcDbCircle
 10
41.67312350652355
 20
-12.39405386035607
 30
0.0
 40
15.01566865817443
100
AcDbArc
 50
28.68845194259448
 51
34.82084937441999
  0
LINE
  5
433
330
18
100
AcDbEntity
  8
1
 62
     1
100
AcDbLine
 10
54.84613247308106
 20
-1.888533775536206
 30
0.0
 11
54.84613247308106
 21
-5.185492591280283
 31
0.0
  0
ARC
  5
434
330
18
100
AcDbEntity
  8
1
 62
     1
100
AcDbCircle
 10
-44.67286506298871
 20
110.8096337866037
 30
0.0
 40
150.3874964446244
100
AcDbArc
 50
311.4628530589473
 51
311.894494371903
  0
LINE
  5
435
330
18
100
AcDbEntity
  8
1
 62
     1
100
AcDbLine
 10
54.90386752691897
 20
-1.888533775536206
 30
0.0
 11
54.90386752691897
 21
-5.185492591280283
 31
0.0
  0
ARC
  5
436
330
18
100
AcDbEntity
  8
1
 62
     1
100
AcDbCircle
 10
68.78018057220783
 20
-12.82979030864256
 30
0.0
 40
15.84245319303409
100
AcDbArc
 50
145.3378581622
 51
151.1501479042006
  0
ARC
  5
437
330
18
100
AcDbEntity
  8
1
 62
     1
100
AcDbCircle
 10
147.8318377615826
 20
101.4382797710077
 30
0.0
 40
137.8418282414133
100
AcDbArc
 50
228.0851519081348
 51
228.5560790913582
  0
LINE
  5
438
330
18
100
AcDbEntity
  8
1
 62
     1
100
AcDbLine
 10
55.75000000000001
 20
-3.819997415434432
 30
0.0
 11
55.75000000000001
 21
-1.135116868053224
 31
0.0
  0
ARC
  5
439
330
18
100
AcDbEntity
  8
1
 62
     1
100
AcDbCircle
 10
43.42312350652703
 20
-12.39405386035408
 30
0.0
 40
15.01566865817042
100
AcDbArc
 50
28.68845194259433
 51
34.82084937442136
  0
LINE
  5
43A
330
18
100
AcDbEntity
  8
1
 62
     1
100
AcDbLine
 10
56.59613247308105
 20
-1.888533775536206
 30
0.0
 11
56.59613247308105
 21
-5.185492591280283
 31
0.0
  0
ARC
  5
43B
330
18
100
AcDbEntity
  8
1
 62
     1
100
AcDbCircle
 10
149.5818377628025
 20
101.4382797723732
 30
0.0
 40
137.8418282432444
100
AcDbArc
 50
228.0851519081366
 51
228.5560790913539
  0
LINE
  5
43C
330
18
100
AcDbEntity
  8
1
 62
     1
100
AcDbLine
 10
57.50000000000002
 20
-3.819997415434432
 30
0.0
 11
57.50000000000001
 21
-1.135116868053225
 31
0.0
  0
ARC
  5
43D
330
18
100
AcDbEntity
  8
1
 62
     1
100
AcDbCircle
 10
45.17312350651832
 20
-12.39405386035963
 30
0.0
 40
15.01566865818074
100
AcDbArc
 50
28.68845194259681
 51
34.8208493744198
  0
LINE
  5
43E
330
18
100
AcDbEntity
  8
1
 62
     1
100
AcDbLine
 10
58.34613247308106
 20
-1.888533775536206
 30
0.0
 11
58.34613247308106
 21
-5.185492591280283
 31
0.0
  0
ARC
  5
43F
330
18
100
AcDbEntity
  8
1
 62
     1
100
AcDbCircle
 10
151.3318377628844
 20
101.4382797724693
 30
0.0
 40
137.8418282433705
100
AcDbArc
 50
228.085151908138
 51
228.5560790913547
  0
LINE
  5
440
330
18
100
AcDbEntity
  8
1
 62
     1
100
AcDbLine
 10
59.25000000000001
 20
-3.819997415434432
 30
0.0
 11
59.25000000000001
 21
-1.135116868053224
 31
0.0
  0
ARC
  5
441
330
18
100
AcDbEntity
  8
1
 62
     1
100
AcDbCircle
 10
46.92312350652561
 20
-12.39405386035492
 30
0.0
 40
15.01566865817207
100
AcDbArc
 50
28.68845194259459
 51
34.82084937442092
  0
LINE
  5
442
330
18
100
AcDbEntity
  8
1
 62
     1
100
AcDbLine
 10
60.09613247308104
 20
-1.888533775536206
 30
0.0
 11
60.09613247308104
 21
-5.185492591280283
 31
0.0
  0
ARC
  5
443
330
18
100
AcDbEntity
  8
1
 62
     1
100
AcDbCircle
 10
-39.42286506338581
 20
110.8096337870498
 30
0.0
 40
150.3874964452217
100
AcDbArc
 50
311.4628530589482
 51
311.8944943719022
  0
LINE
  5
444
330
18
100
AcDbEntity
  8
1
 62
     1
100
AcDbLine
 10
60.15386752691899
 20
-1.888533775536206
 30
0.0
 11
60.153867526919
 21
-5.185492591280283
 31
0.0
  0
ARC
  5
445
330
18
100
AcDbEntity
  8
1
 62
     1
100
AcDbCircle
 10
74.03018057218108
 20
-12.82979030862641
 30
0.0
 40
15.84245319300287
100
AcDbArc
 50
145.337858162193
 51
151.1501479042051
  0
LINE
  5
446
330
18
100
AcDbEntity
  8
1
 62
     1
100
AcDbLine
 10
61.00000000000001
 20
-3.819997415434432
 30
0.0
 11
61.00000000000001
 21
-1.135116868053224
 31
0.0
  0
LINE
  5
447
330
18
100
AcDbEntity
  8
1
 62
     1
100
AcDbLine
 10
62.75000000000001
 20
-1.135116868053224
 30
0.0
 11
63.46406224488688
 21
-1.771651600042851
 31
0.0
  0
LINE
  5
448
330
18
100
AcDbEntity
  8
1
 62
     1
100
AcDbLine
 10
62.75000000000001
 20
-3.819997415434432
 30
0.0
 11
62.75000000000001
 21
-1.135116868053225
 31
0.0
  0
ARC
  5
449
330
18
100
AcDbEntity
  8
1
 62
     1
100
AcDbCircle
 10
50.89549121035265
 20
-12.08540671965461
 30
0.0
 40
14.45159890905965
100
AcDbArc
 50
29.5791069193749
 51
34.88565837037639
  0
LINE
  5
44A
330
18
100
AcDbEntity
  8
1
 62
     1
100
AcDbLine
 10
63.46406224488688
 20
-1.771651600042825
 30
0.0
 11
63.46406224488687
 21
-4.951525601894396
 31
0.0
  0
LINE
  5
44B
330
18
100
AcDbEntity
  8
1
 62
     1
100
AcDbLine
 10
63.81698992456877
 20
-1.744140304059728
 30
0.0
 11
64.5
 21
-1.135116868053224
 31
0.0
  0
LINE
  5
44C
330
18
100
AcDbEntity
  8
1
 62
     1
100
AcDbLine
 10
63.81698992456875
 20
-1.744140304059721
 30
0.0
 11
63.81698992456874
 21
-4.897620736221239
 31
0.0
  0
ARC
  5
44D
330
18
100
AcDbEntity
  8
1
 62
     1
100
AcDbCircle
 10
76.78198748961867
 20
-12.35376768045916
 30
0.0
 40
14.95604351365833
100
AcDbArc
 50
145.2076551573634
 51
150.0968693146833
  0
LINE
  5
44E
330
18
100
AcDbEntity
  8
1
 62
     1
100
AcDbLine
 10
64.5
 20
-1.135116868053224
 30
0.0
 11
65.07254102529846
 21
-1.646166697290506
 31
0.0
  0
LINE
  5
44F
330
18
100
AcDbEntity
  8
1
 62
     1
100
AcDbLine
 10
64.5
 20
-3.819997415434432
 30
0.0
 11
64.50000000000001
 21
-1.135116868053225
 31
0.0
  0
ARC
  5
450
330
18
100
AcDbEntity
  8
1
 62
     1
100
AcDbCircle
 10
53.12763294732805
 20
-11.76649430812052
 30
0.0
 40
13.87367028193028
100
AcDbArc
 50
30.57515464988502
 51
34.94411263089243
  0
LINE
  5
451
330
18
100
AcDbEntity
  8
1
 62
     1
100
AcDbLine
 10
65.07254102529846
 20
-1.646166697290488
 30
0.0
 11
65.07254102529848
 21
-4.70928489282036
 31
0.0
  0
ARC
  5
452
330
18
100
AcDbEntity
  8
1
 62
     1
100
AcDbCircle
 10
-42.92286506463345
 20
110.8096337884526
 30
0.0
 40
150.3874964470991
100
AcDbArc
 50
311.4628530589504
 51
311.8944943718991
  0
LINE
  5
453
330
18
100
AcDbEntity
  8
1
 62
     1
100
AcDbLine
 10
56.65386752691899
 20
-1.888533775536206
 30
0.0
 11
56.65386752691899
 21
-5.185492591280283
 31
0.0
  0
ARC
  5
454
330
18
100
AcDbEntity
  8
1
 62
     1
100
AcDbCircle
 10
70.53018057219704
 20
-12.82979030863586
 30
0.0
 40
15.84245319302139
100
AcDbArc
 50
145.3378581621978
 51
151.150147904203
  0
ARC
  5
455
330
18
100
AcDbEntity
  8
1
 62
     1
100
AcDbCircle
 10
-41.17286506439825
 20
110.8096337881925
 30
0.0
 40
150.3874964467483
100
AcDbArc
 50
311.462853058949
 51
311.8944943718986
  0
LINE
  5
456
330
18
100
AcDbEntity
  8
1
 62
     1
100
AcDbLine
 10
58.40386752691899
 20
-1.888533775536206
 30
0.0
 11
58.40386752691899
 21
-5.185492591280283
 31
0.0
  0
ARC
  5
457
330
18
100
AcDbEntity
  8
1
 62
     1
100
AcDbCircle
 10
72.28018057218776
 20
-12.82979030863044
 30
0.0
 40
15.84245319301066
100
AcDbArc
 50
145.3378581621948
 51
151.1501479042039
  0
ARC
  5
458
330
18
100
AcDbEntity
  8
1
 62
     1
100
AcDbCircle
 10
-46.42286506449686
 20
110.8096337883014
 30
0.0
 40
150.3874964468953
100
AcDbArc
 50
311.4628530589496
 51
311.8944943718989
  0
LINE
  5
459
330
18
100
AcDbEntity
  8
1
 62
     1
100
AcDbLine
 10
53.15386752691897
 20
-1.888533775536206
 30
0.0
 11
53.15386752691897
 21
-5.185492591280283
 31
0.0
  0
ARC
  5
45A
330
18
100
AcDbEntity
  8
1
 62
     1
100
AcDbCircle
 10
67.0301805721861
 20
-12.82979030862918
 30
0.0
 40
15.84245319300858
100
AcDbArc
 50
145.3378581621951
 51
151.1501479042051
  0
ARC
  5
45B
330
18
100
AcDbEntity
  8
1
 62
     1
100
AcDbCircle
 10
144.3318377622693
 20
101.4382797717748
 30
0.0
 40
137.8418282424429
100
AcDbArc
 50
228.0851519081354
 51
228.5560790913553
  0
ARC
  5
45C
330
18
100
AcDbEntity
  8
1
 62
     1
100
AcDbCircle
 10
39.92312350652107
 20
-12.39405386035781
 30
0.0
 40
15.01566865817744
100
AcDbArc
 50
28.68845194259571
 51
34.82084937442006
  0
LINE
  5
45D
330
18
100
AcDbEntity
  8
1
 62
     1
100
AcDbLine
 10
53.09613247308106
 20
-1.888533775536206
 30
0.0
 11
53.09613247308107
 21
-5.185492591280283
 31
0.0
  0
ARC
  5
45E
330
18
100
AcDbEntity
  8
1
 62
     1
100
AcDbCircle
 10
-48.17286506481393
 20
110.8096337886571
 30
0.0
 40
150.3874964473717
100
AcDbArc
 50
311.4628530589504
 51
311.8944943718982
  0
LINE
  5
45F
330
18
100
AcDbEntity
  8
1
 62
     1
100
AcDbLine
 10
51.40386752691901
 20
-1.888533775536206
 30
0.0
 11
51.403867526919
 21
-5.18549259128028
 31
0.0
  0
ARC
  5
460
330
18
100
AcDbEntity
  8
1
 62
     1
100
AcDbCircle
 10
65.28018057218748
 20
-12.82979030863031
 30
0.0
 40
15.84245319301035
100
AcDbArc
 50
145.3378581621946
 51
151.1501479042039
  0
LINE
  5
461
330
18
100
AcDbEntity
  8
1
 62
     1
100
AcDbLine
 10
52.25000000000001
 20
-3.819997415434432
 30
0.0
 11
52.25000000000001
 21
-1.135116868053225
 31
0.0
  0
ARC
  5
462
330
18
100
AcDbEntity
  8
1
 62
     1
100
AcDbCircle
 10
142.5818377624207
 20
101.4382797719468
 30
0.0
 40
137.8418282426719
100
AcDbArc
 50
228.0851519081363
 51
228.5560790913554
  0
LINE
  5
463
330
18
100
AcDbEntity
  8
1
 62
     1
100
AcDbLine
 10
50.50000000000001
 20
-3.819997415434432
 30
0.0
 11
50.5
 21
-1.135116868053224
 31
0.0
  0
ARC
  5
464
330
18
100
AcDbEntity
  8
1
 62
     1
100
AcDbCircle
 10
38.17312350651042
 20
-12.39405386036459
 30
0.0
 40
15.01566865819005
100
AcDbArc
 50
28.68845194259913
 51
34.82084937441811
  0
LINE
  5
465
330
18
100
AcDbEntity
  8
1
 62
     1
100
AcDbLine
 10
51.34613247308103
 20
-1.888533775536206
 30
0.0
 11
51.34613247308102
 21
-5.18549259128028
 31
0.0
  0
ARC
  5
466
330
18
100
AcDbEntity
  8
1
 62
     1
100
AcDbCircle
 10
-49.92286506491202
 20
110.809633788768
 30
0.0
 40
150.3874964475198
100
AcDbArc
 50
311.4628530589504
 51
311.8944943718978
  0
LINE
  5
467
330
18
100
AcDbEntity
  8
1
 62
     1
100
AcDbLine
 10
49.65386752691899
 20
-1.888533775536206
 30
0.0
 11
49.65386752691899
 21
-5.185492591280279
 31
0.0
  0
ARC
  5
468
330
18
100
AcDbEntity
  8
1
 62
     1
100
AcDbCircle
 10
63.53018057219694
 20
-12.82979030863617
 30
0.0
 40
15.84245319302148
100
AcDbArc
 50
145.3378581621967
 51
151.1501479042018
  0
ARC
  5
469
330
18
100
AcDbEntity
  8
1
 62
     1
100
AcDbCircle
 10
140.8318377629748
 20
101.4382797725667
 30
0.0
 40
137.8418282435034
100
AcDbArc
 50
228.085151908137
 51
228.5560790913534
  0
ARC
  5
46A
330
18
100
AcDbEntity
  8
1
 62
     1
100
AcDbCircle
 10
36.42312350651672
 20
-12.39405386036029
 30
0.0
 40
15.01566865818244
100
AcDbArc
 50
28.68845194259632
 51
34.82084937441838
  0
LINE
  5
46B
330
18
100
AcDbEntity
  8
1
 62
     1
100
AcDbLine
 10
49.59613247308103
 20
-1.888533775536206
 30
0.0
 11
49.59613247308103
 21
-5.18549259128028
 31
0.0
  0
ARC
  5
46C
330
18
100
AcDbEntity
  8
1
 62
     1
100
AcDbCircle
 10
-51.67286506511079
 20
110.8096337889915
 30
0.0
 40
150.3874964478189
100
AcDbArc
 50
311.4628530589508
 51
311.8944943718974
  0
LINE
  5
46D
330
18
100
AcDbEntity
  8
1
 62
     1
100
AcDbLine
 10
47.90386752691899
 20
-1.888533775536206
 30
0.0
 11
47.90386752691899
 21
-5.185492591280279
 31
0.0
  0
ARC
  5
46E
330
18
100
AcDbEntity
  8
1
 62
     1
100
AcDbCircle
 10
61.78018057218701
 20
-12.82979030862982
 30
0.0
 40
15.84245319300971
100
AcDbArc
 50
145.3378581621951
 51
151.1501479042046
  0
LINE
  5
46F
330
18
100
AcDbEntity
  8
1
 62
     1
100
AcDbLine
 10
48.75
 20
-3.819997415434432
 30
0.0
 11
48.74999999999999
 21
-1.135116868053224
 31
0.0
  0
ARC
  5
470
330
18
100
AcDbEntity
  8
1
 62
     1
100
AcDbCircle
 10
137.331837762329
 20
101.4382797718437
 30
0.0
 40
137.841828242534
100
AcDbArc
 50
228.0851519081361
 51
228.5560790913556
  0
LINE
  5
471
330
18
100
AcDbEntity
  8
1
 62
     1
100
AcDbLine
 10
45.25
 20
-3.819997415434432
 30
0.0
 11
45.25000000000001
 21
-1.135116868053224
 31
0.0
  0
ARC
  5
472
330
18
100
AcDbEntity
  8
1
 62
     1
100
AcDbCircle
 10
32.92312350652533
 20
-12.39405386035508
 30
0.0
 40
15.01566865817238
100
AcDbArc
 50
28.68845194259458
 51
34.82084937442081
  0
LINE
  5
473
330
18
100
AcDbEntity
  8
1
 62
     1
100
AcDbLine
 10
46.09613247308103
 20
-1.888533775536206
 30
0.0
 11
46.09613247308103
 21
-5.185492591280278
 31
0.0
  0
ARC
  5
474
330
18
100
AcDbEntity
  8
1
 62
     1
100
AcDbCircle
 10
-56.92286506481587
 20
110.8096337886606
 30
0.0
 40
150.3874964473757
100
AcDbArc
 50
311.4628530589501
 51
311.894494371898
  0
LINE
  5
475
330
18
100
AcDbEntity
  8
1
 62
     1
100
AcDbLine
 10
42.65386752691897
 20
-1.888533775536205
 30
0.0
 11
42.65386752691897
 21
-5.185492591280275
 31
0.0
  0
ARC
  5
476
330
18
100
AcDbEntity
  8
1
 62
     1
100
AcDbCircle
 10
56.53018057219341
 20
-12.82979030863389
 30
0.0
 40
15.84245319301728
100
AcDbArc
 50
145.3378581621962
 51
151.1501479042029
  0
ARC
  5
477
330
18
100
AcDbEntity
  8
1
 62
     1
100
AcDbCircle
 10
135.5818377619742
 20
101.4382797714455
 30
0.0
 40
137.8418282420006
100
AcDbArc
 50
228.0851519081352
 51
228.5560790913566
  0
LINE
  5
478
330
18
100
AcDbEntity
  8
1
 62
     1
100
AcDbLine
 10
43.50000000000001
 20
-3.819997415434432
 30
0.0
 11
43.5
 21
-1.135116868053223
 31
0.0
  0
ARC
  5
479
330
18
100
AcDbEntity
  8
1
 62
     1
100
AcDbCircle
 10
31.17312350651948
 20
-12.39405386035882
 30
0.0
 40
15.01566865817932
100
AcDbArc
 50
28.68845194259634
 51
34.82084937441978
  0
LINE
  5
47A
330
18
100
AcDbEntity
  8
1
 62
     1
100
AcDbLine
 10
44.34613247308103
 20
-1.888533775536206
 30
0.0
 11
44.34613247308104
 21
-5.185492591280277
 31
0.0
  0
ARC
  5
47B
330
18
100
AcDbEntity
  8
1
 62
     1
100
AcDbCircle
 10
-58.67286506359908
 20
110.8096337872905
 30
0.0
 40
150.3874964455433
100
AcDbArc
 50
311.4628530589483
 51
311.8944943719014
  0
LINE
  5
47C
330
18
100
AcDbEntity
  8
1
 62
     1
100
AcDbLine
 10
40.90386752691899
 20
-1.888533775536206
 30
0.0
 11
40.90386752691898
 21
-5.185492591280275
 31
0.0
  0
ARC
  5
47D
330
18
100
AcDbEntity
  8
1
 62
     1
100
AcDbCircle
 10
54.78018057219578
 20
-12.82979030863528
 30
0.0
 40
15.84245319302003
100
AcDbArc
 50
145.3378581621969
 51
151.1501479042026
  0
LINE
  5
47E
330
18
100
AcDbEntity
  8
1
 62
     1
100
AcDbLine
 10
41.75
 20
-3.819997415434432
 30
0.0
 11
41.74999999999999
 21
-1.135116868053223
 31
0.0
  0
ARC
  5
47F
330
18
100
AcDbEntity
  8
1
 62
     1
100
AcDbCircle
 10
-62.17286506469313
 20
110.8096337885204
 30
0.0
 40
150.3874964471893
100
AcDbArc
 50
311.4628530589504
 51
311.8944943718989
  0
LINE
  5
480
330
18
100
AcDbEntity
  8
1
 62
     1
100
AcDbLine
 10
37.40386752691899
 20
-1.888533775536206
 30
0.0
 11
37.40386752691899
 21
-5.185492591280273
 31
0.0
  0
ARC
  5
481
330
18
100
AcDbEntity
  8
1
 62
     1
100
AcDbCircle
 10
51.28018057219055
 20
-12.82979030863207
 30
0.0
 40
15.8424531930139
100
AcDbArc
 50
145.3378581621957
 51
151.1501479042037
  0
LINE
  5
482
330
18
100
AcDbEntity
  8
1
 62
     1
100
AcDbLine
 10
38.25
 20
-3.819997415434432
 30
0.0
 11
38.25000000000001
 21
-1.135116868053224
 31
0.0
  0
ARC
  5
483
330
18
100
AcDbEntity
  8
1
 62
     1
100
AcDbCircle
 10
130.3318377625188
 20
101.4382797720562
 30
0.0
 40
137.841828242819
100
AcDbArc
 50
228.0851519081363
 51
228.556079091355
  0
ARC
  5
484
330
18
100
AcDbEntity
  8
1
 62
     1
100
AcDbCircle
 10
25.92312350652867
 20
-12.39405386035304
 30
0.0
 40
15.01566865816848
100
AcDbArc
 50
28.68845194259389
 51
34.82084937442172
  0
LINE
  5
485
330
18
100
AcDbEntity
  8
1
 62
     1
100
AcDbLine
 10
39.09613247308104
 20
-1.888533775536206
 30
0.0
 11
39.09613247308103
 21
-5.185492591280274
 31
0.0
  0
ARC
  5
486
330
18
100
AcDbEntity
  8
1
 62
     1
100
AcDbCircle
 10
-60.42286506489784
 20
110.8096337887509
 30
0.0
 40
150.3874964474977
100
AcDbArc
 50
311.4628530589507
 51
311.8944943718982
  0
LINE
  5
487
330
18
100
AcDbEntity
  8
1
 62
     1
100
AcDbLine
 10
39.15386752691899
 20
-1.888533775536206
 30
0.0
 11
39.15386752691899
 21
-5.185492591280274
 31
0.0
  0
ARC
  5
488
330
18
100
AcDbEntity
  8
1
 62
     1
100
AcDbCircle
 10
53.0301805721971
 20
-12.82979030863608
 30
0.0
 40
15.84245319302157
100
AcDbArc
 50
145.3378581621973
 51
151.1501479042024
  0
LINE
  5
489
330
18
100
AcDbEntity
  8
1
 62
     1
100
AcDbLine
 10
40.00000000000001
 20
-3.819997415434432
 30
0.0
 11
40.0
 21
-1.135116868053224
 31
0.0
  0
ARC
  5
48A
330
18
100
AcDbEntity
  8
1
 62
     1
100
AcDbCircle
 10
132.0818377623512
 20
101.4382797718709
 30
0.0
 40
137.8418282425691
100
AcDbArc
 50
228.0851519081367
 51
228.5560790913562
  0
ARC
  5
48B
330
18
100
AcDbEntity
  8
1
 62
     1
100
AcDbCircle
 10
27.67312350651908
 20
-12.39405386035905
 30
0.0
 40
15.01566865817979
100
AcDbArc
 50
28.68845194259643
 51
34.82084937441963
  0
LINE
  5
48C
330
18
100
AcDbEntity
  8
1
 62
     1
100
AcDbLine
 10
40.84613247308103
 20
-1.888533775536206
 30
0.0
 11
40.84613247308104
 21
-5.185492591280275
 31
0.0
  0
ARC
  5
48D
330
18
100
AcDbEntity
  8
1
 62
     1
100
AcDbCircle
 10
133.8318377615402
 20
101.4382797709595
 30
0.0
 40
137.8418282413491
100
AcDbArc
 50
228.0851519081345
 51
228.5560790913581
  0
ARC
  5
48E
330
18
100
AcDbEntity
  8
1
 62
     1
100
AcDbCircle
 10
29.42312350652573
 20
-12.39405386035482
 30
0.0
 40
15.01566865817191
100
AcDbArc
 50
28.68845194259437
 51
34.82084937442085
  0
LINE
  5
48F
330
18
100
AcDbEntity
  8
1
 62
     1
100
AcDbLine
 10
42.59613247308104
 20
-1.888533775536206
 30
0.0
 11
42.59613247308105
 21
-5.185492591280276
 31
0.0
  0
ARC
  5
490
330
18
100
AcDbEntity
  8
1
 62
     1
100
AcDbCircle
 10
139.0818377624475
 20
101.4382797719771
 30
0.0
 40
137.8418282427124
100
AcDbArc
 50
228.0851519081365
 51
228.5560790913554
  0
LINE
  5
491
330
18
100
AcDbEntity
  8
1
 62
     1
100
AcDbLine
 10
47.0
 20
-3.819997415434432
 30
0.0
 11
47.00000000000001
 21
-1.135116868053224
 31
0.0
  0
ARC
  5
492
330
18
100
AcDbEntity
  8
1
 62
     1
100
AcDbCircle
 10
34.67312350652047
 20
-12.39405386035816
 30
0.0
 40
15.01566865817814
100
AcDbArc
 50
28.68845194259601
 51
34.82084937441984
  0
LINE
  5
493
330
18
100
AcDbEntity
  8
1
 62
     1
100
AcDbLine
 10
47.84613247308103
 20
-1.888533775536206
 30
0.0
 11
47.84613247308102
 21
-5.185492591280279
 31
0.0
  0
ARC
  5
494
330
18
100
AcDbEntity
  8
1
 62
     1
100
AcDbCircle
 10
-53.42286506390914
 20
110.8096337876395
 30
0.0
 40
150.3874964460101
100
AcDbArc
 50
311.4628530589488
 51
311.8944943719005
  0
LINE
  5
495
330
18
100
AcDbEntity
  8
1
 62
     1
100
AcDbLine
 10
46.15386752691897
 20
-1.888533775536205
 30
0.0
 11
46.15386752691896
 21
-5.185492591280277
 31
0.0
  0
ARC
  5
496
330
18
100
AcDbEntity
  8
1
 62
     1
100
AcDbCircle
 10
60.03018057219399
 20
-12.82979030863409
 30
0.0
 40
15.84245319301789
100
AcDbArc
 50
145.3378581621968
 51
151.1501479042033
  0
ARC
  5
497
330
18
100
AcDbEntity
  8
1
 62
     1
100
AcDbCircle
 10
-55.17286506386205
 20
110.8096337875854
 30
0.0
 40
150.3874964459384
100
AcDbArc
 50
311.462853058949
 51
311.894494371901
  0
LINE
  5
498
330
18
100
AcDbEntity
  8
1
 62
     1
100
AcDbLine
 10
44.40386752691898
 20
-1.888533775536206
 30
0.0
 11
44.40386752691899
 21
-5.185492591280277
 31
0.0
  0
ARC
  5
499
330
18
100
AcDbEntity
  8
1
 62
     1
100
AcDbCircle
 10
58.28018057221043
 20
-12.82979030864435
 30
0.0
 40
15.84245319303725
100
AcDbArc
 50
145.3378581622001
 51
151.1501479041995
  0
ARC
  5
49A
330
18
100
AcDbEntity
  8
1
 62
     1
100
AcDbCircle
 10
-67.42286506468632
 20
110.809633788513
 30
0.0
 40
150.3874964471793
100
AcDbArc
 50
311.4628530589504
 51
311.8944943718988
  0
LINE
  5
49B
330
18
100
AcDbEntity
  8
1
 62
     1
100
AcDbLine
 10
32.15386752691899
 20
-1.888533775536206
 30
0.0
 11
32.15386752691899
 21
-5.185492591280269
 31
0.0
  0
ARC
  5
49C
330
18
100
AcDbEntity
  8
1
 62
     1
100
AcDbCircle
 10
46.03018057219702
 20
-12.8297903086362
 30
0.0
 40
15.84245319302156
100
AcDbArc
 50
145.3378581621968
 51
151.1501479042019
  0
ARC
  5
49D
330
18
100
AcDbEntity
  8
1
 62
     1
100
AcDbCircle
 10
125.0818377624537
 20
101.4382797719834
 30
0.0
 40
137.8418282427212
100
AcDbArc
 50
228.0851519081363
 51
228.5560790913553
  0
LINE
  5
49E
330
18
100
AcDbEntity
  8
1
 62
     1
100
AcDbLine
 10
33.0
 20
-3.819997415434432
 30
0.0
 11
33.0
 21
-1.135116868053224
 31
0.0
  0
ARC
  5
49F
330
18
100
AcDbEntity
  8
1
 62
     1
100
AcDbCircle
 10
20.67312350651695
 20
-12.39405386036053
 30
0.0
 40
15.01566865818237
100
AcDbArc
 50
28.68845194259745
 51
34.82084937441962
  0
LINE
  5
4A0
330
18
100
AcDbEntity
  8
1
 62
     1
100
AcDbLine
 10
33.84613247308104
 20
-1.888533775536206
 30
0.0
 11
33.84613247308104
 21
-5.185492591280272
 31
0.0
  0
ARC
  5
4A1
330
18
100
AcDbEntity
  8
1
 62
     1
100
AcDbCircle
 10
-65.6728650638439
 20
110.809633787567
 30
0.0
 40
150.3874964459126
100
AcDbArc
 50
311.4628530589485
 51
311.8944943719005
  0
LINE
  5
4A2
330
18
100
AcDbEntity
  8
1
 62
     1
100
AcDbLine
 10
33.90386752691898
 20
-1.888533775536207
 30
0.0
 11
33.90386752691898
 21
-5.185492591280273
 31
0.0
  0
ARC
  5
4A3
330
18
100
AcDbEntity
  8
1
 62
     1
100
AcDbCircle
 10
47.78018057219354
 20
-12.82979030863398
 30
0.0
 40
15.84245319301743
100
AcDbArc
 50
145.3378581621962
 51
151.1501479042028
  0
ARC
  5
4A4
330
18
100
AcDbEntity
  8
1
 62
     1
100
AcDbCircle
 10
126.8318377614958
 20
101.4382797709106
 30
0.0
 40
137.841828241283
100
AcDbArc
 50
228.0851519081347
 51
228.5560790913585
  0
LINE
  5
4A5
330
18
100
AcDbEntity
  8
1
 62
     1
100
AcDbLine
 10
34.75
 20
-3.819997415434432
 30
0.0
 11
34.75000000000001
 21
-1.135116868053224
 31
0.0
  0
ARC
  5
4A6
330
18
100
AcDbEntity
  8
1
 62
     1
100
AcDbCircle
 10
22.4231235065232
 20
-12.39405386035639
 30
0.0
 40
15.01566865817489
100
AcDbArc
 50
28.68845194259506
 51
34.82084937442027
  0
LINE
  5
4A7
330
18
100
AcDbEntity
  8
1
 62
     1
100
AcDbLine
 10
35.59613247308104
 20
-1.888533775536206
 30
0.0
 11
35.59613247308105
 21
-5.185492591280273
 31
0.0
  0
ARC
  5
4A8
330
18
100
AcDbEntity
  8
1
 62
     1
100
AcDbCircle
 10
-63.9228650648266
 20
110.8096337886685
 30
0.0
 40
150.3874964473887
100
AcDbArc
 50
311.4628530589512
 51
311.8944943718989
  0
LINE
  5
4A9
330
18
100
AcDbEntity
  8
1
 62
     1
100
AcDbLine
 10
35.65386752691899
 20
-1.888533775536206
 30
0.0
 11
35.65386752691899
 21
-5.185492591280273
 31
0.0
  0
ARC
  5
4AA
330
18
100
AcDbEntity
  8
1
 62
     1
100
AcDbCircle
 10
49.53018057219584
 20
-12.82979030863514
 30
0.0
 40
15.84245319302
100
AcDbArc
 50
145.3378581621974
 51
151.1501479042031
  0
ARC
  5
4AB
330
18
100
AcDbEntity
  8
1
 62
     1
100
AcDbCircle
 10
128.5818377619602
 20
101.4382797714307
 30
0.0
 40
137.8418282419803
100
AcDbArc
 50
228.0851519081354
 51
228.5560790913569
  0
LINE
  5
4AC
330
18
100
AcDbEntity
  8
1
 62
     1
100
AcDbLine
 10
36.50000000000001
 20
-3.819997415434432
 30
0.0
 11
36.50000000000001
 21
-1.135116868053224
 31
0.0
  0
ARC
  5
4AD
330
18
100
AcDbEntity
  8
1
 62
     1
100
AcDbCircle
 10
24.17312350653786
 20
-12.39405386034728
 30
0.0
 40
15.01566865815764
100
AcDbArc
 50
28.68845194259134
 51
34.82084937442369
  0
LINE
  5
4AE
330
18
100
AcDbEntity
  8
1
 62
     1
100
AcDbLine
 10
37.34613247308103
 20
-1.888533775536206
 30
0.0
 11
37.34613247308103
 21
-5.185492591280273
 31
0.0
  0
LINE
  5
4AF
330
18
100
AcDbEntity
  8
1
 62
     1
100
AcDbLine
 10
32.0
 20
-0.6476802832335693
 30
0.0
 11
32.0
 21
-1.888533775536203
 31
0.0
  0
LINE
  5
4B0
330
18
100
AcDbEntity
  8
1
 62
     1
100
AcDbLine
 10
32.00000000000001
 20
-1.888533775536205
 30
0.0
 11
32.15386752691899
 21
-1.888533775536205
 31
0.0
  0
LINE
  5
4B1
330
18
100
AcDbEntity
  8
1
 62
     1
100
AcDbLine
 10
35.59613247308103
 20
-1.888533775536205
 30
0.0
 11
35.65386752691899
 21
-1.888533775536205
 31
0.0
  0
LINE
  5
4B2
330
18
100
AcDbEntity
  8
1
 62
     1
100
AcDbLine
 10
39.09613247308103
 20
-1.888533775536205
 30
0.0
 11
39.15386752691899
 21
-1.888533775536205
 31
0.0
  0
LINE
  5
4B3
330
18
100
AcDbEntity
  8
1
 62
     1
100
AcDbLine
 10
51.34613247308103
 20
-1.888533775536206
 30
0.0
 11
51.403867526919
 21
-1.888533775536207
 31
0.0
  0
LINE
  5
4B4
330
18
100
AcDbEntity
  8
1
 62
     1
100
AcDbLine
 10
56.59613247308104
 20
-1.888533775536206
 30
0.0
 11
56.65386752691899
 21
-1.888533775536206
 31
0.0
  0
LINE
  5
4B5
330
18
100
AcDbEntity
  8
1
 62
     1
100
AcDbLine
 10
58.34613247308104
 20
-1.888533775536206
 30
0.0
 11
58.40386752691899
 21
-1.888533775536206
 31
0.0
  0
ARC
  5
4B6
330
18
100
AcDbEntity
  8
1
 62
     1
100
AcDbCircle
 10
55.34308932108621
 20
-4.034668860646695
 30
0.0
 40
15.00558227561686
100
AcDbArc
 50
32.49080270220151
 51
34.86858511621287
  0
LINE
  5
4B7
330
18
100
AcDbEntity
  8
1
 62
     1
100
AcDbLine
 10
63.81698992456873
 20
5.003615254988087
 30
0.0
 11
63.46406224488688
 21
5.0433046607213
 31
0.0
  0
LINE
  5
4B8
330
18
100
AcDbEntity
  8
1
 62
     1
100
AcDbLine
 10
54.84613247308106
 20
5.206747049146722
 30
0.0
 11
54.90386752691899
 21
5.206747049146722
 31
0.0
  0
LINE
  5
4B9
330
18
100
AcDbEntity
  8
1
 62
     1
100
AcDbLine
 10
53.09613247308108
 20
5.206747049146722
 30
0.0
 11
53.15386752691898
 21
5.206747049146722
 31
0.0
  0
LINE
  5
4BA
330
18
100
AcDbEntity
  8
1
 62
     1
100
AcDbLine
 10
49.59613247308102
 20
5.206747049146722
 30
0.0
 11
49.65386752691902
 21
5.206747049146722
 31
0.0
  0
LINE
  5
4BB
330
18
100
AcDbEntity
  8
1
 62
     1
100
AcDbLine
 10
47.84613247308102
 20
5.206747049146724
 30
0.0
 11
47.903867526919
 21
5.206747049146724
 31
0.0
  0
LINE
  5
4BC
330
18
100
AcDbEntity
  8
1
 62
     1
100
AcDbLine
 10
46.09613247308103
 20
5.206747049146724
 30
0.0
 11
46.15386752691896
 21
5.206747049146724
 31
0.0
  0
LINE
  5
4BD
330
18
100
AcDbEntity
  8
1
 62
     1
100
AcDbLine
 10
40.84613247308103
 20
5.206747049146724
 30
0.0
 11
40.90386752691896
 21
5.206747049146721
 31
0.0
  0
LINE
  5
4BE
330
18
100
AcDbEntity
  8
1
 62
     1
100
AcDbLine
 10
39.09613247308104
 20
5.206747049146724
 30
0.0
 11
39.15386752691902
 21
5.206747049146724
 31
0.0
  0
LINE
  5
4BF
330
18
100
AcDbEntity
  8
1
 62
     1
100
AcDbLine
 10
37.34613247308101
 20
5.206747049146722
 30
0.0
 11
37.40386752691897
 21
5.206747049146722
 31
0.0
  0
LINE
  5
4C0
330
18
100
AcDbEntity
  8
1
 62
     1
100
AcDbLine
 10
35.59613247308103
 20
5.206747049146724
 30
0.0
 11
35.65386752691898
 21
5.206747049146724
 31
0.0
  0
LINE
  5
4C1
330
18
100
AcDbEntity
  8
1
 62
     1
100
AcDbLine
 10
33.84613247308104
 20
5.206747049146726
 30
0.0
 11
33.90386752691897
 21
5.206747049146726
 31
0.0
  0
LINE
  5
4C2
330
18
100
AcDbEntity
  8
1
 62
     1
100
AcDbLine
 10
32.00000000000001
 20
5.206747049146724
 30
0.0
 11
32.15386752691899
 21
5.206747049146724
 31
0.0
  0
LINE
  5
4C3
330
18
100
AcDbEntity
  8
1
 62
     1
100
AcDbLine
 10
33.90386752691897
 20
6.0
 30
0.0
 11
33.84613247308104
 21
6.0
 31
0.0
  0
LINE
  5
4C4
330
18
100
AcDbEntity
  8
1
 62
     1
100
AcDbLine
 10
35.65386752691899
 20
6.0
 30
0.0
 11
35.59613247308104
 21
6.0
 31
0.0
  0
LINE
  5
4C5
330
18
100
AcDbEntity
  8
1
 62
     1
100
AcDbLine
 10
37.40386752691899
 20
6.0
 30
0.0
 11
37.34613247308104
 21
6.0
 31
0.0
  0
LINE
  5
4C6
330
18
100
AcDbEntity
  8
1
 62
     1
100
AcDbLine
 10
40.90386752691899
 20
6.0
 30
0.0
 11
40.84613247308103
 21
6.0
 31
0.0
  0
LINE
  5
4C7
330
18
100
AcDbEntity
  8
1
 62
     1
100
AcDbLine
 10
42.65386752691897
 20
6.0
 30
0.0
 11
42.59613247308104
 21
6.0
 31
0.0
  0
LINE
  5
4C8
330
18
100
AcDbEntity
  8
1
 62
     1
100
AcDbLine
 10
46.15386752691897
 20
6.0
 30
0.0
 11
46.09613247308103
 21
6.0
 31
0.0
  0
LINE
  5
4C9
330
18
100
AcDbEntity
  8
1
 62
     1
100
AcDbLine
 10
49.65386752691899
 20
6.0
 30
0.0
 11
49.59613247308103
 21
6.0
 31
0.0
  0
LINE
  5
4CA
330
18
100
AcDbEntity
  8
1
 62
     1
100
AcDbLine
 10
51.403867526919
 20
6.0
 30
0.0
 11
51.34613247308103
 21
6.0
 31
0.0
  0
LINE
  5
4CB
330
18
100
AcDbEntity
  8
1
 62
     1
100
AcDbLine
 10
53.15386752691897
 20
6.0
 30
0.0
 11
53.09613247308106
 21
6.0
 31
0.0
  0
LINE
  5
4CC
330
18
100
AcDbEntity
  8
1
 62
     1
100
AcDbLine
 10
54.90386752691897
 20
6.0
 30
0.0
 11
54.84613247308106
 21
6.0
 31
0.0
  0
LINE
  5
4CD
330
18
100
AcDbEntity
  8
1
 62
     1
100
AcDbLine
 10
58.40386752691899
 20
6.0
 30
0.0
 11
58.34613247308106
 21
6.0
 31
0.0
  0
ARC
  5
4CE
330
18
100
AcDbEntity
  8
1
 62
     1
100
AcDbCircle
 10
78.84473485317079
 20
-3.996529718646197
 30
0.0
 40
14.93267608402537
100
AcDbArc
 50
144.5454749708178
 51
147.5044812688036
  0
LINE
  5
4CF
330
18
100
AcDbEntity
  8
1
 62
     1
100
AcDbLine
 10
66.6810198057101
 20
5.281004104480158
 30
0.0
 11
66.6810198057101
 21
5.280872512931305
 31
0.0
  0
LINE
  5
4D0
330
18
100
AcDbEntity
  8
1
 62
     1
100
AcDbLine
 10
66.6810198057101
 20
5.280872512931305
 30
0.0
 11
66.6810198057101
 21
5.241279901415993
 31
0.0
  0
LINE
  5
4D1
330
18
100
AcDbEntity
  8
1
 62
     1
100
AcDbLine
 10
66.6810198057101
 20
5.241279901415993
 30
0.0
 11
66.6810198057101
 21
4.665206020379701
 31
0.0
  0
LINE
  5
4D2
330
18
100
AcDbEntity
  8
1
 62
     1
100
AcDbLine
 10
65.73581698602831
 20
5.425046939349669
 30
0.0
 11
65.73581698602831
 21
5.424909190689375
 31
0.0
  0
LINE
  5
4D3
330
18
100
AcDbEntity
  8
1
 62
     1
100
AcDbLine
 10
65.73581698602831
 20
5.424909190689375
 30
0.0
 11
65.73581698602831
 21
5.383448254022491
 31
0.0
  0
LINE
  5
4D4
330
18
100
AcDbEntity
  8
1
 62
     1
100
AcDbLine
 10
65.73581698602831
 20
5.383448254022491
 30
0.0
 11
65.73581698602833
 21
4.779985554919785
 31
0.0
  0
ARC
  5
4D5
330
18
100
AcDbEntity
  8
1
 62
     1
100
AcDbCircle
 10
54.51538282689228
 20
-3.418421407434336
 30
0.0
 40
13.89651043388291
100
AcDbArc
 50
32.39033423768116
 51
36.15438689803356
  0
LINE
  5
4D6
330
18
100
AcDbEntity
  8
1
 62
     1
100
AcDbLine
 10
66.24999999999999
 20
4.025816498059227
 30
0.0
 11
66.25
 21
4.53445625
 31
0.0
  0
LINE
  5
4D7
330
18
100
AcDbEntity
  8
1
 62
     1
100
AcDbLine
 10
67.65464404748786
 20
5.132630027548644
 30
0.0
 11
67.65464404748788
 21
5.13250415784856
 31
0.0
  0
LINE
  5
4D8
330
18
100
AcDbEntity
  8
1
 62
     1
100
AcDbLine
 10
67.65464404748788
 20
5.13250415784856
 30
0.0
 11
67.65464404748786
 21
5.09464526217884
 31
0.0
  0
LINE
  5
4D9
330
18
100
AcDbEntity
  8
1
 62
     1
100
AcDbLine
 10
67.65464404748786
 20
5.09464526217884
 30
0.0
 11
67.65464404748786
 21
4.543959057576729
 31
0.0
  0
LINE
  5
4DA
330
18
100
AcDbEntity
  8
1
 62
     1
100
AcDbLine
 10
58.40386752691899
 20
6.0
 30
0.0
 11
58.40386752691899
 21
5.999831231518166
 31
0.0
  0
LINE
  5
4DB
330
18
100
AcDbEntity
  8
1
 62
     1
100
AcDbLine
 10
58.40386752691899
 20
5.999831231518166
 30
0.0
 11
58.40386752691897
 21
5.948925523189832
 31
0.0
  0
LINE
  5
4DC
330
18
100
AcDbEntity
  8
1
 62
     1
100
AcDbLine
 10
58.40386752691897
 20
5.948925523189832
 30
0.0
 11
58.40386752691899
 21
5.206747049146721
 31
0.0
  0
LINE
  5
4DD
330
18
100
AcDbEntity
  8
1
 62
     1
100
AcDbLine
 10
58.40386752691897
 20
5.206747049146717
 30
0.0
 11
58.61131563673312
 21
4.946164501322331
 31
0.0
  0
LINE
  5
4DE
330
18
100
AcDbEntity
  8
1
 62
     1
100
AcDbLine
 10
58.61131563673312
 20
4.946164501322331
 30
0.0
 11
58.82230335111858
 21
4.660558826736755
 31
0.0
  0
LINE
  5
4DF
330
18
100
AcDbEntity
  8
1
 62
     1
100
AcDbLine
 10
58.82230335111858
 20
4.660558826736755
 30
0.0
 11
59.25
 21
4.025816498059253
 31
0.0
  0
LINE
  5
4E0
330
18
100
AcDbEntity
  8
1
 62
     1
100
AcDbLine
 10
56.65386752691899
 20
6.0
 30
0.0
 11
56.65386752691899
 21
5.999831231518166
 31
0.0
  0
LINE
  5
4E1
330
18
100
AcDbEntity
  8
1
 62
     1
100
AcDbLine
 10
56.65386752691899
 20
5.999831231518166
 30
0.0
 11
56.65386752691899
 21
5.948925523189833
 31
0.0
  0
LINE
  5
4E2
330
18
100
AcDbEntity
  8
1
 62
     1
100
AcDbLine
 10
56.65386752691899
 20
5.948925523189833
 30
0.0
 11
56.65386752691899
 21
5.206747049146722
 31
0.0
  0
LINE
  5
4E3
330
18
100
AcDbEntity
  8
1
 62
     1
100
AcDbLine
 10
56.65386752691899
 20
5.206747049146719
 30
0.0
 11
56.86131563673312
 21
4.94616450132233
 31
0.0
  0
LINE
  5
4E4
330
18
100
AcDbEntity
  8
1
 62
     1
100
AcDbLine
 10
56.86131563673312
 20
4.94616450132233
 30
0.0
 11
57.07230335111859
 21
4.660558826736756
 31
0.0
  0
LINE
  5
4E5
330
18
100
AcDbEntity
  8
1
 62
     1
100
AcDbLine
 10
57.07230335111859
 20
4.660558826736756
 30
0.0
 11
57.5
 21
4.025816498059253
 31
0.0
  0
LINE
  5
4E6
330
18
100
AcDbEntity
  8
1
 62
     1
100
AcDbLine
 10
63.81698992456877
 20
5.717463851150693
 30
0.0
 11
63.81698992456876
 21
5.717311676094565
 31
0.0
  0
LINE
  5
4E7
330
18
100
AcDbEntity
  8
1
 62
     1
100
AcDbLine
 10
63.81698992456876
 20
5.717311676094565
 30
0.0
 11
63.81698992456876
 21
5.67146421362244
 31
0.0
  0
LINE
  5
4E8
330
18
100
AcDbEntity
  8
1
 62
     1
100
AcDbLine
 10
63.81698992456876
 20
5.67146421362244
 30
0.0
 11
63.81698992456877
 21
5.003615254988083
 31
0.0
  0
ARC
  5
4E9
330
18
100
AcDbEntity
  8
1
 62
     1
100
AcDbCircle
 10
53.76092715162732
 20
-2.740408711996905
 30
0.0
 40
12.69239282027719
100
AcDbArc
 50
32.21325485931398
 51
37.59933152618197
  0
LINE
  5
4EA
330
18
100
AcDbEntity
  8
1
 62
     1
100
AcDbLine
 10
64.49999999999999
 20
4.025816498059227
 30
0.0
 11
64.5
 21
4.53445625
 31
0.0
  0
ARC
  5
4EB
330
18
100
AcDbEntity
  8
1
 62
     1
100
AcDbCircle
 10
74.01439510069758
 20
-3.110020580300098
 30
0.0
 40
13.33430409602439
100
AcDbArc
 50
142.3030553178205
 51
147.6463121624454
  0
LINE
  5
4EC
330
18
100
AcDbEntity
  8
1
 62
     1
100
AcDbLine
 10
63.46406224488688
 20
5.771247761256266
 30
0.0
 11
63.46406224488688
 21
5.771092636746403
 31
0.0
  0
LINE
  5
4ED
330
18
100
AcDbEntity
  8
1
 62
     1
100
AcDbLine
 10
63.46406224488688
 20
5.771092636746403
 30
0.0
 11
63.46406224488688
 21
5.724347009785198
 31
0.0
  0
LINE
  5
4EE
330
18
100
AcDbEntity
  8
1
 62
     1
100
AcDbLine
 10
63.46406224488688
 20
5.724347009785198
 30
0.0
 11
63.46406224488686
 21
5.043304660721299
 31
0.0
  0
LINE
  5
4EF
330
18
100
AcDbEntity
  8
1
 62
     1
100
AcDbLine
 10
60.15386752691899
 20
6.0
 30
0.0
 11
60.15386752691899
 21
5.999831231518166
 31
0.0
  0
LINE
  5
4F0
330
18
100
AcDbEntity
  8
1
 62
     1
100
AcDbLine
 10
60.15386752691899
 20
5.999831231518166
 30
0.0
 11
60.15386752691899
 21
5.948925523189833
 31
0.0
  0
LINE
  5
4F1
330
18
100
AcDbEntity
  8
1
 62
     1
100
AcDbLine
 10
60.15386752691899
 20
5.948925523189833
 30
0.0
 11
60.153867526919
 21
5.206747049146723
 31
0.0
  0
LINE
  5
4F2
330
18
100
AcDbEntity
  8
1
 62
     1
100
AcDbLine
 10
60.15386752691899
 20
5.206747049146719
 30
0.0
 11
60.36131563673312
 21
4.946164501322329
 31
0.0
  0
LINE
  5
4F3
330
18
100
AcDbEntity
  8
1
 62
     1
100
AcDbLine
 10
60.36131563673312
 20
4.946164501322329
 30
0.0
 11
60.57230335111859
 21
4.660558826736754
 31
0.0
  0
LINE
  5
4F4
330
18
100
AcDbEntity
  8
1
 62
     1
100
AcDbLine
 10
60.57230335111859
 20
4.660558826736754
 30
0.0
 11
61.00000000000001
 21
4.025816498059253
 31
0.0
  0
LINE
  5
4F5
330
18
100
AcDbEntity
  8
1
 62
     1
100
AcDbLine
 10
59.24999999999999
 20
4.025816498059227
 30
0.0
 11
59.25000000000001
 21
4.53445625
 31
0.0
  0
LINE
  5
4F6
330
18
100
AcDbEntity
  8
1
 62
     1
100
AcDbLine
 10
59.25
 20
4.025816498059253
 30
0.0
 11
59.67770692955686
 21
4.660573216907957
 31
0.0
  0
LINE
  5
4F7
330
18
100
AcDbEntity
  8
1
 62
     1
100
AcDbLine
 10
59.67770692955686
 20
4.660573216907957
 30
0.0
 11
59.88868898384853
 21
4.946170542918614
 31
0.0
  0
LINE
  5
4F8
330
18
100
AcDbEntity
  8
1
 62
     1
100
AcDbLine
 10
59.88868898384853
 20
4.946170542918614
 30
0.0
 11
60.09613247308102
 21
5.20674704914672
 31
0.0
  0
LINE
  5
4F9
330
18
100
AcDbEntity
  8
1
 62
     1
100
AcDbLine
 10
60.09613247308103
 20
6.0
 30
0.0
 11
60.09613247308103
 21
5.999831231518166
 31
0.0
  0
LINE
  5
4FA
330
18
100
AcDbEntity
  8
1
 62
     1
100
AcDbLine
 10
60.09613247308103
 20
5.999831231518166
 30
0.0
 11
60.09613247308104
 21
5.948925523189833
 31
0.0
  0
LINE
  5
4FB
330
18
100
AcDbEntity
  8
1
 62
     1
100
AcDbLine
 10
60.09613247308104
 20
5.948925523189833
 30
0.0
 11
60.09613247308104
 21
5.206747049146723
 31
0.0
  0
LINE
  5
4FC
330
18
100
AcDbEntity
  8
1
 62
     1
100
AcDbLine
 10
57.5
 20
4.025816498059227
 30
0.0
 11
57.50000000000001
 21
4.53445625
 31
0.0
  0
LINE
  5
4FD
330
18
100
AcDbEntity
  8
1
 62
     1
100
AcDbLine
 10
57.5
 20
4.025816498059253
 30
0.0
 11
57.92770692955686
 21
4.660573216907975
 31
0.0
  0
LINE
  5
4FE
330
18
100
AcDbEntity
  8
1
 62
     1
100
AcDbLine
 10
57.92770692955686
 20
4.660573216907975
 30
0.0
 11
58.13868898384853
 21
4.946170542918642
 31
0.0
  0
LINE
  5
4FF
330
18
100
AcDbEntity
  8
1
 62
     1
100
AcDbLine
 10
58.13868898384853
 20
4.946170542918642
 30
0.0
 11
58.34613247308105
 21
5.206747049146751
 31
0.0
  0
LINE
  5
500
330
18
100
AcDbEntity
  8
1
 62
     1
100
AcDbLine
 10
58.34613247308106
 20
6.0
 30
0.0
 11
58.34613247308106
 21
5.999831231518166
 31
0.0
  0
LINE
  5
501
330
18
100
AcDbEntity
  8
1
 62
     1
100
AcDbLine
 10
58.34613247308106
 20
5.999831231518166
 30
0.0
 11
58.34613247308106
 21
5.948925523189833
 31
0.0
  0
LINE
  5
502
330
18
100
AcDbEntity
  8
1
 62
     1
100
AcDbLine
 10
58.34613247308106
 20
5.948925523189833
 30
0.0
 11
58.34613247308106
 21
5.206747049146722
 31
0.0
  0
LINE
  5
503
330
18
100
AcDbEntity
  8
1
 62
     1
100
AcDbLine
 10
61.90386752691898
 20
6.0
 30
0.0
 11
61.90386752691898
 21
5.999831231518166
 31
0.0
  0
LINE
  5
504
330
18
100
AcDbEntity
  8
1
 62
     1
100
AcDbLine
 10
61.90386752691898
 20
5.999831231518166
 30
0.0
 11
61.90386752691897
 21
5.948925523189832
 31
0.0
  0
LINE
  5
505
330
18
100
AcDbEntity
  8
1
 62
     1
100
AcDbLine
 10
61.90386752691897
 20
5.948925523189832
 30
0.0
 11
61.90386752691898
 21
5.206747049146721
 31
0.0
  0
LINE
  5
506
330
18
100
AcDbEntity
  8
1
 62
     1
100
AcDbLine
 10
61.90386752691899
 20
5.206747049146719
 30
0.0
 11
62.11131563673312
 21
4.946164501322328
 31
0.0
  0
LINE
  5
507
330
18
100
AcDbEntity
  8
1
 62
     1
100
AcDbLine
 10
62.11131563673312
 20
4.946164501322328
 30
0.0
 11
62.32230335111857
 21
4.660558826736754
 31
0.0
  0
LINE
  5
508
330
18
100
AcDbEntity
  8
1
 62
     1
100
AcDbLine
 10
62.32230335111857
 20
4.660558826736754
 30
0.0
 11
62.75
 21
4.025816498059253
 31
0.0
  0
LINE
  5
509
330
18
100
AcDbEntity
  8
1
 62
     1
100
AcDbLine
 10
62.75000000000001
 20
4.025816498059227
 30
0.0
 11
62.75000000000001
 21
4.53445625
 31
0.0
  0
LINE
  5
50A
330
18
100
AcDbEntity
  8
1
 62
     1
100
AcDbLine
 10
61.0
 20
4.025816498059227
 30
0.0
 11
61.00000000000001
 21
4.53445625
 31
0.0
  0
LINE
  5
50B
330
18
100
AcDbEntity
  8
1
 62
     1
100
AcDbLine
 10
61.00000000000001
 20
4.025816498059253
 30
0.0
 11
61.42770692955685
 21
4.660573216907963
 31
0.0
  0
LINE
  5
50C
330
18
100
AcDbEntity
  8
1
 62
     1
100
AcDbLine
 10
61.42770692955685
 20
4.660573216907963
 30
0.0
 11
61.63868898384854
 21
4.946170542918629
 31
0.0
  0
LINE
  5
50D
330
18
100
AcDbEntity
  8
1
 62
     1
100
AcDbLine
 10
61.63868898384854
 20
4.946170542918629
 30
0.0
 11
61.84613247308104
 21
5.206747049146726
 31
0.0
  0
LINE
  5
50E
330
18
100
AcDbEntity
  8
1
 62
     1
100
AcDbLine
 10
61.84613247308104
 20
6.0
 30
0.0
 11
61.84613247308104
 21
5.999831231518166
 31
0.0
  0
LINE
  5
50F
330
18
100
AcDbEntity
  8
1
 62
     1
100
AcDbLine
 10
61.84613247308104
 20
5.999831231518166
 30
0.0
 11
61.84613247308103
 21
5.948925523189832
 31
0.0
  0
LINE
  5
510
330
18
100
AcDbEntity
  8
1
 62
     1
100
AcDbLine
 10
61.84613247308103
 20
5.948925523189832
 30
0.0
 11
61.84613247308104
 21
5.206747049146721
 31
0.0
  0
LINE
  5
511
330
18
100
AcDbEntity
  8
1
 62
     1
100
AcDbLine
 10
54.00000000000001
 20
4.025816498059227
 30
0.0
 11
54.00000000000001
 21
4.53445625
 31
0.0
  0
LINE
  5
512
330
18
100
AcDbEntity
  8
1
 62
     1
100
AcDbLine
 10
54.00000000000001
 20
4.025816498059253
 30
0.0
 11
54.42770692955686
 21
4.660573216907973
 31
0.0
  0
LINE
  5
513
330
18
100
AcDbEntity
  8
1
 62
     1
100
AcDbLine
 10
54.42770692955686
 20
4.660573216907973
 30
0.0
 11
54.63868898384852
 21
4.946170542918636
 31
0.0
  0
LINE
  5
514
330
18
100
AcDbEntity
  8
1
 62
     1
100
AcDbLine
 10
54.63868898384852
 20
4.946170542918636
 30
0.0
 11
54.84613247308106
 21
5.206747049146743
 31
0.0
  0
LINE
  5
515
330
18
100
AcDbEntity
  8
1
 62
     1
100
AcDbLine
 10
54.84613247308106
 20
6.0
 30
0.0
 11
54.84613247308106
 21
5.999831231518166
 31
0.0
  0
LINE
  5
516
330
18
100
AcDbEntity
  8
1
 62
     1
100
AcDbLine
 10
54.84613247308106
 20
5.999831231518166
 30
0.0
 11
54.84613247308106
 21
5.948925523189833
 31
0.0
  0
LINE
  5
517
330
18
100
AcDbEntity
  8
1
 62
     1
100
AcDbLine
 10
54.84613247308106
 20
5.948925523189833
 30
0.0
 11
54.84613247308106
 21
5.206747049146724
 31
0.0
  0
LINE
  5
518
330
18
100
AcDbEntity
  8
1
 62
     1
100
AcDbLine
 10
54.90386752691897
 20
6.0
 30
0.0
 11
54.90386752691897
 21
5.999831231518166
 31
0.0
  0
LINE
  5
519
330
18
100
AcDbEntity
  8
1
 62
     1
100
AcDbLine
 10
54.90386752691897
 20
5.999831231518166
 30
0.0
 11
54.90386752691897
 21
5.948925523189833
 31
0.0
  0
LINE
  5
51A
330
18
100
AcDbEntity
  8
1
 62
     1
100
AcDbLine
 10
54.90386752691897
 20
5.948925523189833
 30
0.0
 11
54.90386752691897
 21
5.206747049146724
 31
0.0
  0
LINE
  5
51B
330
18
100
AcDbEntity
  8
1
 62
     1
100
AcDbLine
 10
54.90386752691897
 20
5.206747049146726
 30
0.0
 11
55.1113156367331
 21
4.946164501322335
 31
0.0
  0
LINE
  5
51C
330
18
100
AcDbEntity
  8
1
 62
     1
100
AcDbLine
 10
55.1113156367331
 20
4.946164501322335
 30
0.0
 11
55.32230335111858
 21
4.660558826736763
 31
0.0
  0
LINE
  5
51D
330
18
100
AcDbEntity
  8
1
 62
     1
100
AcDbLine
 10
55.32230335111858
 20
4.660558826736763
 30
0.0
 11
55.75
 21
4.025816498059253
 31
0.0
  0
LINE
  5
51E
330
18
100
AcDbEntity
  8
1
 62
     1
100
AcDbLine
 10
55.75000000000001
 20
4.025816498059227
 30
0.0
 11
55.75000000000001
 21
4.53445625
 31
0.0
  0
LINE
  5
51F
330
18
100
AcDbEntity
  8
1
 62
     1
100
AcDbLine
 10
55.75
 20
4.025816498059253
 30
0.0
 11
56.17770692955685
 21
4.660573216907959
 31
0.0
  0
LINE
  5
520
330
18
100
AcDbEntity
  8
1
 62
     1
100
AcDbLine
 10
56.17770692955685
 20
4.660573216907959
 30
0.0
 11
56.38868898384852
 21
4.946170542918624
 31
0.0
  0
LINE
  5
521
330
18
100
AcDbEntity
  8
1
 62
     1
100
AcDbLine
 10
56.38868898384852
 20
4.946170542918624
 30
0.0
 11
56.59613247308104
 21
5.206747049146726
 31
0.0
  0
LINE
  5
522
330
18
100
AcDbEntity
  8
1
 62
     1
100
AcDbLine
 10
56.59613247308104
 20
6.0
 30
0.0
 11
56.59613247308105
 21
5.999831231518166
 31
0.0
  0
LINE
  5
523
330
18
100
AcDbEntity
  8
1
 62
     1
100
AcDbLine
 10
56.59613247308105
 20
5.999831231518166
 30
0.0
 11
56.59613247308104
 21
5.948925523189833
 31
0.0
  0
LINE
  5
524
330
18
100
AcDbEntity
  8
1
 62
     1
100
AcDbLine
 10
56.59613247308104
 20
5.948925523189833
 30
0.0
 11
56.59613247308105
 21
5.206747049146723
 31
0.0
  0
ARC
  5
525
330
18
100
AcDbEntity
  8
1
 62
     1
100
AcDbCircle
 10
76.4518784551926
 20
-3.570600859646259
 30
0.0
 40
14.16161983506321
100
AcDbArc
 50
143.4704727945073
 51
147.5606316727816
  0
LINE
  5
526
330
18
100
AcDbEntity
  8
1
 62
     1
100
AcDbLine
 10
65.07254102529846
 20
5.526125932868215
 30
0.0
 11
65.07254102529846
 21
5.525983496735289
 31
0.0
  0
LINE
  5
527
330
18
100
AcDbEntity
  8
1
 62
     1
100
AcDbLine
 10
65.07254102529846
 20
5.525983496735289
 30
0.0
 11
65.07254102529846
 21
5.483098554596889
 31
0.0
  0
LINE
  5
528
330
18
100
AcDbEntity
  8
1
 62
     1
100
AcDbLine
 10
65.07254102529846
 20
5.483098554596889
 30
0.0
 11
65.07254102529848
 21
4.858744624463104
 31
0.0
  0
LINE
  5
529
330
18
100
AcDbEntity
  8
1
 62
     1
100
AcDbLine
 10
47.90386752691899
 20
6.0
 30
0.0
 11
47.90386752691899
 21
5.999831231518166
 31
0.0
  0
LINE
  5
52A
330
18
100
AcDbEntity
  8
1
 62
     1
100
AcDbLine
 10
47.90386752691899
 20
5.999831231518166
 30
0.0
 11
47.903867526919
 21
5.948925523189833
 31
0.0
  0
LINE
  5
52B
330
18
100
AcDbEntity
  8
1
 62
     1
100
AcDbLine
 10
47.903867526919
 20
5.948925523189833
 30
0.0
 11
47.90386752691899
 21
5.206747049146727
 31
0.0
  0
LINE
  5
52C
330
18
100
AcDbEntity
  8
1
 62
     1
100
AcDbLine
 10
47.90386752691897
 20
5.206747049146715
 30
0.0
 11
48.11131563673311
 21
4.946164501322328
 31
0.0
  0
LINE
  5
52D
330
18
100
AcDbEntity
  8
1
 62
     1
100
AcDbLine
 10
48.11131563673311
 20
4.946164501322328
 30
0.0
 11
48.32230335111856
 21
4.66055882673675
 31
0.0
  0
LINE
  5
52E
330
18
100
AcDbEntity
  8
1
 62
     1
100
AcDbLine
 10
48.32230335111856
 20
4.66055882673675
 30
0.0
 11
48.75
 21
4.025816498059253
 31
0.0
  0
LINE
  5
52F
330
18
100
AcDbEntity
  8
1
 62
     1
100
AcDbLine
 10
48.74999999999999
 20
4.025816498059227
 30
0.0
 11
48.75
 21
4.53445625
 31
0.0
  0
LINE
  5
530
330
18
100
AcDbEntity
  8
1
 62
     1
100
AcDbLine
 10
48.75
 20
4.025816498059253
 30
0.0
 11
49.17770692955686
 21
4.660573216907956
 31
0.0
  0
LINE
  5
531
330
18
100
AcDbEntity
  8
1
 62
     1
100
AcDbLine
 10
49.17770692955686
 20
4.660573216907956
 30
0.0
 11
49.38868898384851
 21
4.946170542918622
 31
0.0
  0
LINE
  5
532
330
18
100
AcDbEntity
  8
1
 62
     1
100
AcDbLine
 10
49.38868898384851
 20
4.946170542918622
 30
0.0
 11
49.59613247308103
 21
5.206747049146722
 31
0.0
  0
LINE
  5
533
330
18
100
AcDbEntity
  8
1
 62
     1
100
AcDbLine
 10
49.59613247308103
 20
6.0
 30
0.0
 11
49.59613247308103
 21
5.999831231518166
 31
0.0
  0
LINE
  5
534
330
18
100
AcDbEntity
  8
1
 62
     1
100
AcDbLine
 10
49.59613247308103
 20
5.999831231518166
 30
0.0
 11
49.59613247308103
 21
5.948925523189833
 31
0.0
  0
LINE
  5
535
330
18
100
AcDbEntity
  8
1
 62
     1
100
AcDbLine
 10
49.59613247308103
 20
5.948925523189833
 30
0.0
 11
49.59613247308103
 21
5.206747049146724
 31
0.0
  0
LINE
  5
536
330
18
100
AcDbEntity
  8
1
 62
     1
100
AcDbLine
 10
49.65386752691899
 20
6.0
 30
0.0
 11
49.65386752691899
 21
5.999831231518166
 31
0.0
  0
LINE
  5
537
330
18
100
AcDbEntity
  8
1
 62
     1
100
AcDbLine
 10
49.65386752691899
 20
5.999831231518166
 30
0.0
 11
49.65386752691899
 21
5.948925523189833
 31
0.0
  0
LINE
  5
538
330
18
100
AcDbEntity
  8
1
 62
     1
100
AcDbLine
 10
49.65386752691899
 20
5.948925523189833
 30
0.0
 11
49.65386752691899
 21
5.206747049146726
 31
0.0
  0
LINE
  5
539
330
18
100
AcDbEntity
  8
1
 62
     1
100
AcDbLine
 10
49.65386752691898
 20
5.206747049146716
 30
0.0
 11
49.86131563673311
 21
4.946164501322326
 31
0.0
  0
LINE
  5
53A
330
18
100
AcDbEntity
  8
1
 62
     1
100
AcDbLine
 10
49.86131563673311
 20
4.946164501322326
 30
0.0
 11
50.07230335111858
 21
4.660558826736753
 31
0.0
  0
LINE
  5
53B
330
18
100
AcDbEntity
  8
1
 62
     1
100
AcDbLine
 10
50.07230335111858
 20
4.660558826736753
 30
0.0
 11
50.5
 21
4.025816498059253
 31
0.0
  0
LINE
  5
53C
330
18
100
AcDbEntity
  8
1
 62
     1
100
AcDbLine
 10
50.5
 20
4.025816498059227
 30
0.0
 11
50.5
 21
4.53445625
 31
0.0
  0
LINE
  5
53D
330
18
100
AcDbEntity
  8
1
 62
     1
100
AcDbLine
 10
50.5
 20
4.025816498059253
 30
0.0
 11
50.92770692955685
 21
4.660573216907959
 31
0.0
  0
LINE
  5
53E
330
18
100
AcDbEntity
  8
1
 62
     1
100
AcDbLine
 10
50.92770692955685
 20
4.660573216907959
 30
0.0
 11
51.1386889838485
 21
4.946170542918621
 31
0.0
  0
LINE
  5
53F
330
18
100
AcDbEntity
  8
1
 62
     1
100
AcDbLine
 10
51.1386889838485
 20
4.946170542918621
 30
0.0
 11
51.34613247308103
 21
5.20674704914672
 31
0.0
  0
LINE
  5
540
330
18
100
AcDbEntity
  8
1
 62
     1
100
AcDbLine
 10
51.34613247308103
 20
6.0
 30
0.0
 11
51.34613247308103
 21
5.999831231518166
 31
0.0
  0
LINE
  5
541
330
18
100
AcDbEntity
  8
1
 62
     1
100
AcDbLine
 10
51.34613247308103
 20
5.999831231518166
 30
0.0
 11
51.34613247308103
 21
5.948925523189833
 31
0.0
  0
LINE
  5
542
330
18
100
AcDbEntity
  8
1
 62
     1
100
AcDbLine
 10
51.34613247308103
 20
5.948925523189833
 30
0.0
 11
51.34613247308102
 21
5.206747049146724
 31
0.0
  0
LINE
  5
543
330
18
100
AcDbEntity
  8
1
 62
     1
100
AcDbLine
 10
51.403867526919
 20
6.0
 30
0.0
 11
51.40386752691899
 21
5.999831231518166
 31
0.0
  0
LINE
  5
544
330
18
100
AcDbEntity
  8
1
 62
     1
100
AcDbLine
 10
51.40386752691899
 20
5.999831231518166
 30
0.0
 11
51.403867526919
 21
5.948925523189833
 31
0.0
  0
LINE
  5
545
330
18
100
AcDbEntity
  8
1
 62
     1
100
AcDbLine
 10
51.403867526919
 20
5.948925523189833
 30
0.0
 11
51.40386752691899
 21
5.206747049146723
 31
0.0
  0
LINE
  5
546
330
18
100
AcDbEntity
  8
1
 62
     1
100
AcDbLine
 10
51.40386752691897
 20
5.206747049146712
 30
0.0
 11
51.61131563673312
 21
4.946164501322328
 31
0.0
  0
LINE
  5
547
330
18
100
AcDbEntity
  8
1
 62
     1
100
AcDbLine
 10
51.61131563673312
 20
4.946164501322328
 30
0.0
 11
51.82230335111858
 21
4.660558826736752
 31
0.0
  0
LINE
  5
548
330
18
100
AcDbEntity
  8
1
 62
     1
100
AcDbLine
 10
51.82230335111858
 20
4.660558826736752
 30
0.0
 11
52.25
 21
4.025816498059253
 31
0.0
  0
LINE
  5
549
330
18
100
AcDbEntity
  8
1
 62
     1
100
AcDbLine
 10
52.24999999999999
 20
4.025816498059227
 30
0.0
 11
52.25000000000001
 21
4.53445625
 31
0.0
  0
LINE
  5
54A
330
18
100
AcDbEntity
  8
1
 62
     1
100
AcDbLine
 10
52.25
 20
4.025816498059253
 30
0.0
 11
52.67770692955688
 21
4.660573216907977
 31
0.0
  0
LINE
  5
54B
330
18
100
AcDbEntity
  8
1
 62
     1
100
AcDbLine
 10
52.67770692955688
 20
4.660573216907977
 30
0.0
 11
52.88868898384854
 21
4.946170542918646
 31
0.0
  0
LINE
  5
54C
330
18
100
AcDbEntity
  8
1
 62
     1
100
AcDbLine
 10
52.88868898384854
 20
4.946170542918646
 30
0.0
 11
53.09613247308106
 21
5.206747049146752
 31
0.0
  0
LINE
  5
54D
330
18
100
AcDbEntity
  8
1
 62
     1
100
AcDbLine
 10
53.09613247308106
 20
6.000000000000001
 30
0.0
 11
53.09613247308106
 21
5.999831231518167
 31
0.0
  0
LINE
  5
54E
330
18
100
AcDbEntity
  8
1
 62
     1
100
AcDbLine
 10
53.09613247308106
 20
5.999831231518167
 30
0.0
 11
53.09613247308106
 21
5.948925523189833
 31
0.0
  0
LINE
  5
54F
330
18
100
AcDbEntity
  8
1
 62
     1
100
AcDbLine
 10
53.09613247308106
 20
5.948925523189833
 30
0.0
 11
53.09613247308106
 21
5.206747049146724
 31
0.0
  0
LINE
  5
550
330
18
100
AcDbEntity
  8
1
 62
     1
100
AcDbLine
 10
53.15386752691897
 20
6.0
 30
0.0
 11
53.15386752691897
 21
5.999831231518166
 31
0.0
  0
LINE
  5
551
330
18
100
AcDbEntity
  8
1
 62
     1
100
AcDbLine
 10
53.15386752691897
 20
5.999831231518166
 30
0.0
 11
53.15386752691897
 21
5.948925523189833
 31
0.0
  0
LINE
  5
552
330
18
100
AcDbEntity
  8
1
 62
     1
100
AcDbLine
 10
53.15386752691897
 20
5.948925523189833
 30
0.0
 11
53.15386752691896
 21
5.206747049146723
 31
0.0
  0
LINE
  5
553
330
18
100
AcDbEntity
  8
1
 62
     1
100
AcDbLine
 10
53.15386752691897
 20
5.206747049146735
 30
0.0
 11
53.36131563673309
 21
4.946164501322339
 31
0.0
  0
LINE
  5
554
330
18
100
AcDbEntity
  8
1
 62
     1
100
AcDbLine
 10
53.36131563673309
 20
4.946164501322339
 30
0.0
 11
53.57230335111857
 21
4.660558826736763
 31
0.0
  0
LINE
  5
555
330
18
100
AcDbEntity
  8
1
 62
     1
100
AcDbLine
 10
53.57230335111857
 20
4.660558826736763
 30
0.0
 11
54.00000000000001
 21
4.025816498059253
 31
0.0
  0
LINE
  5
556
330
18
100
AcDbEntity
  8
1
 62
     1
100
AcDbLine
 10
46.15386752691897
 20
5.999999999999999
 30
0.0
 11
46.15386752691896
 21
5.999831231518165
 31
0.0
  0
LINE
  5
557
330
18
100
AcDbEntity
  8
1
 62
     1
100
AcDbLine
 10
46.15386752691896
 20
5.999831231518165
 30
0.0
 11
46.15386752691897
 21
5.948925523189831
 31
0.0
  0
LINE
  5
558
330
18
100
AcDbEntity
  8
1
 62
     1
100
AcDbLine
 10
46.15386752691897
 20
5.948925523189831
 30
0.0
 11
46.15386752691897
 21
5.206747049146727
 31
0.0
  0
LINE
  5
559
330
18
100
AcDbEntity
  8
1
 62
     1
100
AcDbLine
 10
46.15386752691897
 20
5.206747049146726
 30
0.0
 11
46.36131563673309
 21
4.946164501322331
 31
0.0
  0
LINE
  5
55A
330
18
100
AcDbEntity
  8
1
 62
     1
100
AcDbLine
 10
46.36131563673309
 20
4.946164501322331
 30
0.0
 11
46.57230335111856
 21
4.660558826736757
 31
0.0
  0
LINE
  5
55B
330
18
100
AcDbEntity
  8
1
 62
     1
100
AcDbLine
 10
46.57230335111856
 20
4.660558826736757
 30
0.0
 11
47.0
 21
4.025816498059253
 31
0.0
  0
LINE
  5
55C
330
18
100
AcDbEntity
  8
1
 62
     1
100
AcDbLine
 10
46.99999999999999
 20
4.025816498059227
 30
0.0
 11
47.0
 21
4.53445625
 31
0.0
  0
LINE
  5
55D
330
18
100
AcDbEntity
  8
1
 62
     1
100
AcDbLine
 10
45.25000000000001
 20
4.025816498059253
 30
0.0
 11
45.67770692955686
 21
4.660573216907966
 31
0.0
  0
LINE
  5
55E
330
18
100
AcDbEntity
  8
1
 62
     1
100
AcDbLine
 10
45.67770692955686
 20
4.660573216907966
 30
0.0
 11
45.88868898384853
 21
4.946170542918625
 31
0.0
  0
LINE
  5
55F
330
18
100
AcDbEntity
  8
1
 62
     1
100
AcDbLine
 10
45.88868898384853
 20
4.946170542918625
 30
0.0
 11
46.09613247308103
 21
5.206747049146725
 31
0.0
  0
LINE
  5
560
330
18
100
AcDbEntity
  8
1
 62
     1
100
AcDbLine
 10
46.09613247308103
 20
6.0
 30
0.0
 11
46.09613247308103
 21
5.999831231518166
 31
0.0
  0
LINE
  5
561
330
18
100
AcDbEntity
  8
1
 62
     1
100
AcDbLine
 10
46.09613247308103
 20
5.999831231518166
 30
0.0
 11
46.09613247308104
 21
5.948925523189833
 31
0.0
  0
LINE
  5
562
330
18
100
AcDbEntity
  8
1
 62
     1
100
AcDbLine
 10
46.09613247308104
 20
5.948925523189833
 30
0.0
 11
46.09613247308103
 21
5.206747049146727
 31
0.0
  0
LINE
  5
563
330
18
100
AcDbEntity
  8
1
 62
     1
100
AcDbLine
 10
42.65386752691897
 20
5.999999999999999
 30
0.0
 11
42.65386752691897
 21
5.999831231518165
 31
0.0
  0
LINE
  5
564
330
18
100
AcDbEntity
  8
1
 62
     1
100
AcDbLine
 10
42.65386752691897
 20
5.999831231518165
 30
0.0
 11
42.65386752691897
 21
5.948925523189832
 31
0.0
  0
LINE
  5
565
330
18
100
AcDbEntity
  8
1
 62
     1
100
AcDbLine
 10
42.65386752691897
 20
5.948925523189832
 30
0.0
 11
42.65386752691897
 21
5.206747049146728
 31
0.0
  0
LINE
  5
566
330
18
100
AcDbEntity
  8
1
 62
     1
100
AcDbLine
 10
42.65386752691897
 20
5.206747049146719
 30
0.0
 11
42.8613156367331
 21
4.946164501322329
 31
0.0
  0
LINE
  5
567
330
18
100
AcDbEntity
  8
1
 62
     1
100
AcDbLine
 10
42.8613156367331
 20
4.946164501322329
 30
0.0
 11
43.07230335111857
 21
4.660558826736753
 31
0.0
  0
LINE
  5
568
330
18
100
AcDbEntity
  8
1
 62
     1
100
AcDbLine
 10
43.07230335111857
 20
4.660558826736753
 30
0.0
 11
43.49999999999999
 21
4.025816498059252
 31
0.0
  0
LINE
  5
569
330
18
100
AcDbEntity
  8
1
 62
     1
100
AcDbLine
 10
43.49999999999999
 20
4.025816498059227
 30
0.0
 11
43.5
 21
4.53445625
 31
0.0
  0
LINE
  5
56A
330
18
100
AcDbEntity
  8
1
 62
     1
100
AcDbLine
 10
43.49999999999999
 20
4.025816498059252
 30
0.0
 11
43.92770692955685
 21
4.660573216907961
 31
0.0
  0
LINE
  5
56B
330
18
100
AcDbEntity
  8
1
 62
     1
100
AcDbLine
 10
43.92770692955685
 20
4.660573216907961
 30
0.0
 11
44.13868898384852
 21
4.946170542918624
 31
0.0
  0
LINE
  5
56C
330
18
100
AcDbEntity
  8
1
 62
     1
100
AcDbLine
 10
44.13868898384852
 20
4.946170542918624
 30
0.0
 11
44.34613247308103
 21
5.206747049146726
 31
0.0
  0
LINE
  5
56D
330
18
100
AcDbEntity
  8
1
 62
     1
100
AcDbLine
 10
44.34613247308103
 20
6.0
 30
0.0
 11
44.34613247308103
 21
5.999831231518166
 31
0.0
  0
LINE
  5
56E
330
18
100
AcDbEntity
  8
1
 62
     1
100
AcDbLine
 10
44.34613247308103
 20
5.999831231518166
 30
0.0
 11
44.34613247308103
 21
5.948925523189833
 31
0.0
  0
LINE
  5
56F
330
18
100
AcDbEntity
  8
1
 62
     1
100
AcDbLine
 10
44.34613247308103
 20
5.948925523189833
 30
0.0
 11
44.34613247308103
 21
5.206747049146727
 31
0.0
  0
LINE
  5
570
330
18
100
AcDbEntity
  8
1
 62
     1
100
AcDbLine
 10
40.90386752691899
 20
6.0
 30
0.0
 11
40.90386752691899
 21
5.999831231518166
 31
0.0
  0
LINE
  5
571
330
18
100
AcDbEntity
  8
1
 62
     1
100
AcDbLine
 10
40.90386752691899
 20
5.999831231518166
 30
0.0
 11
40.90386752691898
 21
5.948925523189834
 31
0.0
  0
LINE
  5
572
330
18
100
AcDbEntity
  8
1
 62
     1
100
AcDbLine
 10
40.90386752691898
 20
5.948925523189834
 30
0.0
 11
40.90386752691899
 21
5.206747049146729
 31
0.0
  0
LINE
  5
573
330
18
100
AcDbEntity
  8
1
 62
     1
100
AcDbLine
 10
40.90386752691897
 20
5.206747049146719
 30
0.0
 11
41.1113156367331
 21
4.946164501322327
 31
0.0
  0
LINE
  5
574
330
18
100
AcDbEntity
  8
1
 62
     1
100
AcDbLine
 10
41.1113156367331
 20
4.946164501322327
 30
0.0
 11
41.32230335111856
 21
4.66055882673675
 31
0.0
  0
LINE
  5
575
330
18
100
AcDbEntity
  8
1
 62
     1
100
AcDbLine
 10
41.32230335111856
 20
4.66055882673675
 30
0.0
 11
41.75
 21
4.025816498059253
 31
0.0
  0
LINE
  5
576
330
18
100
AcDbEntity
  8
1
 62
     1
100
AcDbLine
 10
41.74999999999999
 20
4.025816498059227
 30
0.0
 11
41.75
 21
4.53445625
 31
0.0
  0
LINE
  5
577
330
18
100
AcDbEntity
  8
1
 62
     1
100
AcDbLine
 10
37.40386752691899
 20
6.0
 30
0.0
 11
37.40386752691899
 21
5.999831231518166
 31
0.0
  0
LINE
  5
578
330
18
100
AcDbEntity
  8
1
 62
     1
100
AcDbLine
 10
37.40386752691899
 20
5.999831231518166
 30
0.0
 11
37.40386752691898
 21
5.948925523189834
 31
0.0
  0
LINE
  5
579
330
18
100
AcDbEntity
  8
1
 62
     1
100
AcDbLine
 10
37.40386752691898
 20
5.948925523189834
 30
0.0
 11
37.40386752691899
 21
5.206747049146731
 31
0.0
  0
LINE
  5
57A
330
18
100
AcDbEntity
  8
1
 62
     1
100
AcDbLine
 10
37.40386752691897
 20
5.206747049146718
 30
0.0
 11
37.61131563673311
 21
4.946164501322329
 31
0.0
  0
LINE
  5
57B
330
18
100
AcDbEntity
  8
1
 62
     1
100
AcDbLine
 10
37.61131563673311
 20
4.946164501322329
 30
0.0
 11
37.82230335111857
 21
4.660558826736754
 31
0.0
  0
LINE
  5
57C
330
18
100
AcDbEntity
  8
1
 62
     1
100
AcDbLine
 10
37.82230335111857
 20
4.660558826736754
 30
0.0
 11
38.25
 21
4.025816498059253
 31
0.0
  0
LINE
  5
57D
330
18
100
AcDbEntity
  8
1
 62
     1
100
AcDbLine
 10
38.25
 20
4.025816498059227
 30
0.0
 11
38.25
 21
4.53445625
 31
0.0
  0
LINE
  5
57E
330
18
100
AcDbEntity
  8
1
 62
     1
100
AcDbLine
 10
38.25
 20
4.025816498059253
 30
0.0
 11
38.67770692955685
 21
4.660573216907963
 31
0.0
  0
LINE
  5
57F
330
18
100
AcDbEntity
  8
1
 62
     1
100
AcDbLine
 10
38.67770692955685
 20
4.660573216907963
 30
0.0
 11
38.88868898384852
 21
4.946170542918624
 31
0.0
  0
LINE
  5
580
330
18
100
AcDbEntity
  8
1
 62
     1
100
AcDbLine
 10
38.88868898384852
 20
4.946170542918624
 30
0.0
 11
39.09613247308103
 21
5.206747049146726
 31
0.0
  0
LINE
  5
581
330
18
100
AcDbEntity
  8
1
 62
     1
100
AcDbLine
 10
39.09613247308103
 20
6.0
 30
0.0
 11
39.09613247308103
 21
5.999831231518166
 31
0.0
  0
LINE
  5
582
330
18
100
AcDbEntity
  8
1
 62
     1
100
AcDbLine
 10
39.09613247308103
 20
5.999831231518166
 30
0.0
 11
39.09613247308103
 21
5.948925523189834
 31
0.0
  0
LINE
  5
583
330
18
100
AcDbEntity
  8
1
 62
     1
100
AcDbLine
 10
39.09613247308103
 20
5.948925523189834
 30
0.0
 11
39.09613247308104
 21
5.206747049146732
 31
0.0
  0
LINE
  5
584
330
18
100
AcDbEntity
  8
1
 62
     1
100
AcDbLine
 10
39.15386752691899
 20
6.0
 30
0.0
 11
39.15386752691899
 21
5.999831231518166
 31
0.0
  0
LINE
  5
585
330
18
100
AcDbEntity
  8
1
 62
     1
100
AcDbLine
 10
39.15386752691899
 20
5.999831231518166
 30
0.0
 11
39.15386752691899
 21
5.948925523189834
 31
0.0
  0
LINE
  5
586
330
18
100
AcDbEntity
  8
1
 62
     1
100
AcDbLine
 10
39.15386752691899
 20
5.948925523189834
 30
0.0
 11
39.15386752691898
 21
5.20674704914673
 31
0.0
  0
LINE
  5
587
330
18
100
AcDbEntity
  8
1
 62
     1
100
AcDbLine
 10
39.15386752691897
 20
5.206747049146715
 30
0.0
 11
39.36131563673311
 21
4.946164501322328
 31
0.0
  0
LINE
  5
588
330
18
100
AcDbEntity
  8
1
 62
     1
100
AcDbLine
 10
39.36131563673311
 20
4.946164501322328
 30
0.0
 11
39.57230335111857
 21
4.66055882673675
 31
0.0
  0
LINE
  5
589
330
18
100
AcDbEntity
  8
1
 62
     1
100
AcDbLine
 10
39.57230335111857
 20
4.66055882673675
 30
0.0
 11
40.0
 21
4.025816498059253
 31
0.0
  0
LINE
  5
58A
330
18
100
AcDbEntity
  8
1
 62
     1
100
AcDbLine
 10
39.99999999999999
 20
4.025816498059227
 30
0.0
 11
40.0
 21
4.53445625
 31
0.0
  0
LINE
  5
58B
330
18
100
AcDbEntity
  8
1
 62
     1
100
AcDbLine
 10
40.0
 20
4.025816498059253
 30
0.0
 11
40.42770692955686
 21
4.660573216907962
 31
0.0
  0
LINE
  5
58C
330
18
100
AcDbEntity
  8
1
 62
     1
100
AcDbLine
 10
40.42770692955686
 20
4.660573216907962
 30
0.0
 11
40.63868898384853
 21
4.946170542918626
 31
0.0
  0
LINE
  5
58D
330
18
100
AcDbEntity
  8
1
 62
     1
100
AcDbLine
 10
40.63868898384853
 20
4.946170542918626
 30
0.0
 11
40.84613247308104
 21
5.206747049146726
 31
0.0
  0
LINE
  5
58E
330
18
100
AcDbEntity
  8
1
 62
     1
100
AcDbLine
 10
40.84613247308103
 20
6.0
 30
0.0
 11
40.84613247308103
 21
5.999831231518166
 31
0.0
  0
LINE
  5
58F
330
18
100
AcDbEntity
  8
1
 62
     1
100
AcDbLine
 10
40.84613247308103
 20
5.999831231518166
 30
0.0
 11
40.84613247308103
 21
5.948925523189834
 31
0.0
  0
LINE
  5
590
330
18
100
AcDbEntity
  8
1
 62
     1
100
AcDbLine
 10
40.84613247308103
 20
5.948925523189834
 30
0.0
 11
40.84613247308103
 21
5.206747049146729
 31
0.0
  0
LINE
  5
591
330
18
100
AcDbEntity
  8
1
 62
     1
100
AcDbLine
 10
41.75
 20
4.025816498059253
 30
0.0
 11
42.17770692955686
 21
4.660573216907969
 31
0.0
  0
LINE
  5
592
330
18
100
AcDbEntity
  8
1
 62
     1
100
AcDbLine
 10
42.17770692955686
 20
4.660573216907969
 30
0.0
 11
42.38868898384853
 21
4.946170542918634
 31
0.0
  0
LINE
  5
593
330
18
100
AcDbEntity
  8
1
 62
     1
100
AcDbLine
 10
42.38868898384853
 20
4.946170542918634
 30
0.0
 11
42.59613247308105
 21
5.206747049146735
 31
0.0
  0
LINE
  5
594
330
18
100
AcDbEntity
  8
1
 62
     1
100
AcDbLine
 10
42.59613247308104
 20
6.0
 30
0.0
 11
42.59613247308104
 21
5.999831231518166
 31
0.0
  0
LINE
  5
595
330
18
100
AcDbEntity
  8
1
 62
     1
100
AcDbLine
 10
42.59613247308104
 20
5.999831231518166
 30
0.0
 11
42.59613247308104
 21
5.948925523189834
 31
0.0
  0
LINE
  5
596
330
18
100
AcDbEntity
  8
1
 62
     1
100
AcDbLine
 10
42.59613247308104
 20
5.948925523189834
 30
0.0
 11
42.59613247308104
 21
5.206747049146728
 31
0.0
  0
LINE
  5
597
330
18
100
AcDbEntity
  8
1
 62
     1
100
AcDbLine
 10
47.0
 20
4.025816498059253
 30
0.0
 11
47.42770692955684
 21
4.660573216907963
 31
0.0
  0
LINE
  5
598
330
18
100
AcDbEntity
  8
1
 62
     1
100
AcDbLine
 10
47.42770692955684
 20
4.660573216907963
 30
0.0
 11
47.63868898384852
 21
4.946170542918622
 31
0.0
  0
LINE
  5
599
330
18
100
AcDbEntity
  8
1
 62
     1
100
AcDbLine
 10
47.63868898384852
 20
4.946170542918622
 30
0.0
 11
47.84613247308104
 21
5.206747049146721
 31
0.0
  0
LINE
  5
59A
330
18
100
AcDbEntity
  8
1
 62
     1
100
AcDbLine
 10
47.84613247308103
 20
6.0
 30
0.0
 11
47.84613247308103
 21
5.999831231518166
 31
0.0
  0
LINE
  5
59B
330
18
100
AcDbEntity
  8
1
 62
     1
100
AcDbLine
 10
47.84613247308103
 20
5.999831231518166
 30
0.0
 11
47.84613247308103
 21
5.948925523189832
 31
0.0
  0
LINE
  5
59C
330
18
100
AcDbEntity
  8
1
 62
     1
100
AcDbLine
 10
47.84613247308103
 20
5.948925523189832
 30
0.0
 11
47.84613247308103
 21
5.206747049146727
 31
0.0
  0
LINE
  5
59D
330
18
100
AcDbEntity
  8
1
 62
     1
100
AcDbLine
 10
44.40386752691898
 20
6.0
 30
0.0
 11
44.40386752691898
 21
5.999831231518166
 31
0.0
  0
LINE
  5
59E
330
18
100
AcDbEntity
  8
1
 62
     1
100
AcDbLine
 10
44.40386752691898
 20
5.999831231518166
 30
0.0
 11
44.40386752691897
 21
5.948925523189833
 31
0.0
  0
LINE
  5
59F
330
18
100
AcDbEntity
  8
1
 62
     1
100
AcDbLine
 10
44.40386752691897
 20
5.948925523189833
 30
0.0
 11
44.40386752691898
 21
5.206747049146727
 31
0.0
  0
LINE
  5
5A0
330
18
100
AcDbEntity
  8
1
 62
     1
100
AcDbLine
 10
44.40386752691897
 20
5.206747049146717
 30
0.0
 11
44.61131563673311
 21
4.946164501322327
 31
0.0
  0
LINE
  5
5A1
330
18
100
AcDbEntity
  8
1
 62
     1
100
AcDbLine
 10
44.61131563673311
 20
4.946164501322327
 30
0.0
 11
44.82230335111858
 21
4.660558826736752
 31
0.0
  0
LINE
  5
5A2
330
18
100
AcDbEntity
  8
1
 62
     1
100
AcDbLine
 10
44.82230335111858
 20
4.660558826736752
 30
0.0
 11
45.25000000000001
 21
4.025816498059253
 31
0.0
  0
LINE
  5
5A3
330
18
100
AcDbEntity
  8
1
 62
     1
100
AcDbLine
 10
45.24999999999999
 20
4.025816498059227
 30
0.0
 11
45.25
 21
4.53445625
 31
0.0
  0
LINE
  5
5A4
330
18
100
AcDbEntity
  8
1
 62
     1
100
AcDbLine
 10
36.5
 20
4.025816498059253
 30
0.0
 11
36.92770692955685
 21
4.660573216907967
 31
0.0
  0
LINE
  5
5A5
330
18
100
AcDbEntity
  8
1
 62
     1
100
AcDbLine
 10
36.92770692955685
 20
4.660573216907967
 30
0.0
 11
37.13868898384852
 21
4.946170542918632
 31
0.0
  0
LINE
  5
5A6
330
18
100
AcDbEntity
  8
1
 62
     1
100
AcDbLine
 10
37.13868898384852
 20
4.946170542918632
 30
0.0
 11
37.34613247308104
 21
5.206747049146735
 31
0.0
  0
LINE
  5
5A7
330
18
100
AcDbEntity
  8
1
 62
     1
100
AcDbLine
 10
37.34613247308104
 20
6.0
 30
0.0
 11
37.34613247308104
 21
5.999831231518166
 31
0.0
  0
LINE
  5
5A8
330
18
100
AcDbEntity
  8
1
 62
     1
100
AcDbLine
 10
37.34613247308104
 20
5.999831231518166
 30
0.0
 11
37.34613247308104
 21
5.948925523189834
 31
0.0
  0
LINE
  5
5A9
330
18
100
AcDbEntity
  8
1
 62
     1
100
AcDbLine
 10
37.34613247308104
 20
5.948925523189834
 30
0.0
 11
37.34613247308103
 21
5.206747049146731
 31
0.0
  0
LINE
  5
5AA
330
18
100
AcDbEntity
  8
1
 62
     1
100
AcDbLine
 10
35.65386752691899
 20
6.0
 30
0.0
 11
35.65386752691899
 21
5.999831231518166
 31
0.0
  0
LINE
  5
5AB
330
18
100
AcDbEntity
  8
1
 62
     1
100
AcDbLine
 10
35.65386752691899
 20
5.999831231518166
 30
0.0
 11
35.65386752691899
 21
5.948925523189834
 31
0.0
  0
LINE
  5
5AC
330
18
100
AcDbEntity
  8
1
 62
     1
100
AcDbLine
 10
35.65386752691899
 20
5.948925523189834
 30
0.0
 11
35.65386752691899
 21
5.206747049146734
 31
0.0
  0
LINE
  5
5AD
330
18
100
AcDbEntity
  8
1
 62
     1
100
AcDbLine
 10
35.65386752691897
 20
5.206747049146717
 30
0.0
 11
35.8613156367331
 21
4.946164501322327
 31
0.0
  0
LINE
  5
5AE
330
18
100
AcDbEntity
  8
1
 62
     1
100
AcDbLine
 10
35.8613156367331
 20
4.946164501322327
 30
0.0
 11
36.07230335111858
 21
4.66055882673675
 31
0.0
  0
LINE
  5
5AF
330
18
100
AcDbEntity
  8
1
 62
     1
100
AcDbLine
 10
36.07230335111858
 20
4.66055882673675
 30
0.0
 11
36.5
 21
4.025816498059253
 31
0.0
  0
LINE
  5
5B0
330
18
100
AcDbEntity
  8
1
 62
     1
100
AcDbLine
 10
36.49999999999999
 20
4.025816498059227
 30
0.0
 11
36.5
 21
4.53445625
 31
0.0
  0
LINE
  5
5B1
330
18
100
AcDbEntity
  8
1
 62
     1
100
AcDbLine
 10
34.74999999999999
 20
4.025816498059227
 30
0.0
 11
34.75
 21
4.53445625
 31
0.0
  0
LINE
  5
5B2
330
18
100
AcDbEntity
  8
1
 62
     1
100
AcDbLine
 10
34.75
 20
4.025816498059253
 30
0.0
 11
35.17770692955686
 21
4.660573216907961
 31
0.0
  0
LINE
  5
5B3
330
18
100
AcDbEntity
  8
1
 62
     1
100
AcDbLine
 10
35.17770692955686
 20
4.660573216907961
 30
0.0
 11
35.38868898384852
 21
4.946170542918624
 31
0.0
  0
LINE
  5
5B4
330
18
100
AcDbEntity
  8
1
 62
     1
100
AcDbLine
 10
35.38868898384852
 20
4.946170542918624
 30
0.0
 11
35.59613247308104
 21
5.206747049146726
 31
0.0
  0
LINE
  5
5B5
330
18
100
AcDbEntity
  8
1
 62
     1
100
AcDbLine
 10
35.59613247308104
 20
6.0
 30
0.0
 11
35.59613247308104
 21
5.999831231518166
 31
0.0
  0
LINE
  5
5B6
330
18
100
AcDbEntity
  8
1
 62
     1
100
AcDbLine
 10
35.59613247308104
 20
5.999831231518166
 30
0.0
 11
35.59613247308104
 21
5.948925523189834
 31
0.0
  0
LINE
  5
5B7
330
18
100
AcDbEntity
  8
1
 62
     1
100
AcDbLine
 10
35.59613247308104
 20
5.948925523189834
 30
0.0
 11
35.59613247308105
 21
5.206747049146734
 31
0.0
  0
LINE
  5
5B8
330
18
100
AcDbEntity
  8
1
 62
     1
100
AcDbLine
 10
33.90386752691898
 20
6.000000000000001
 30
0.0
 11
33.90386752691898
 21
5.999831231518167
 31
0.0
  0
LINE
  5
5B9
330
18
100
AcDbEntity
  8
1
 62
     1
100
AcDbLine
 10
33.90386752691898
 20
5.999831231518167
 30
0.0
 11
33.90386752691898
 21
5.948925523189834
 31
0.0
  0
LINE
  5
5BA
330
18
100
AcDbEntity
  8
1
 62
     1
100
AcDbLine
 10
33.90386752691898
 20
5.948925523189834
 30
0.0
 11
33.90386752691898
 21
5.206747049146734
 31
0.0
  0
LINE
  5
5BB
330
18
100
AcDbEntity
  8
1
 62
     1
100
AcDbLine
 10
33.90386752691897
 20
5.20674704914672
 30
0.0
 11
34.1113156367331
 21
4.946164501322328
 31
0.0
  0
LINE
  5
5BC
330
18
100
AcDbEntity
  8
1
 62
     1
100
AcDbLine
 10
34.1113156367331
 20
4.946164501322328
 30
0.0
 11
34.32230335111856
 21
4.660558826736753
 31
0.0
  0
LINE
  5
5BD
330
18
100
AcDbEntity
  8
1
 62
     1
100
AcDbLine
 10
34.32230335111856
 20
4.660558826736753
 30
0.0
 11
34.75
 21
4.025816498059253
 31
0.0
  0
LINE
  5
5BE
330
18
100
AcDbEntity
  8
1
 62
     1
100
AcDbLine
 10
33.0
 20
4.025816498059227
 30
0.0
 11
33.0
 21
4.53445625
 31
0.0
  0
LINE
  5
5BF
330
18
100
AcDbEntity
  8
1
 62
     1
100
AcDbLine
 10
33.0
 20
4.025816498059253
 30
0.0
 11
33.42770692955686
 21
4.660573216907963
 31
0.0
  0
LINE
  5
5C0
330
18
100
AcDbEntity
  8
1
 62
     1
100
AcDbLine
 10
33.42770692955686
 20
4.660573216907963
 30
0.0
 11
33.63868898384852
 21
4.946170542918625
 31
0.0
  0
LINE
  5
5C1
330
18
100
AcDbEntity
  8
1
 62
     1
100
AcDbLine
 10
33.63868898384852
 20
4.946170542918625
 30
0.0
 11
33.84613247308104
 21
5.206747049146726
 31
0.0
  0
LINE
  5
5C2
330
18
100
AcDbEntity
  8
1
 62
     1
100
AcDbLine
 10
33.84613247308104
 20
6.0
 30
0.0
 11
33.84613247308103
 21
5.999831231518166
 31
0.0
  0
LINE
  5
5C3
330
18
100
AcDbEntity
  8
1
 62
     1
100
AcDbLine
 10
33.84613247308103
 20
5.999831231518166
 30
0.0
 11
33.84613247308104
 21
5.948925523189834
 31
0.0
  0
LINE
  5
5C4
330
18
100
AcDbEntity
  8
1
 62
     1
100
AcDbLine
 10
33.84613247308104
 20
5.948925523189834
 30
0.0
 11
33.84613247308104
 21
5.206747049146733
 31
0.0
  0
LINE
  5
5C5
330
18
100
AcDbEntity
  8
1
 62
     1
100
AcDbLine
 10
32.15386752691899
 20
6.0
 30
0.0
 11
32.15386752691899
 21
5.999831231518166
 31
0.0
  0
LINE
  5
5C6
330
18
100
AcDbEntity
  8
1
 62
     1
100
AcDbLine
 10
32.15386752691899
 20
5.999831231518166
 30
0.0
 11
32.15386752691899
 21
5.948925523189834
 31
0.0
  0
LINE
  5
5C7
330
18
100
AcDbEntity
  8
1
 62
     1
100
AcDbLine
 10
32.15386752691899
 20
5.948925523189834
 30
0.0
 11
32.15386752691899
 21
5.206747049146733
 31
0.0
  0
LINE
  5
5C8
330
18
100
AcDbEntity
  8
1
 62
     1
100
AcDbLine
 10
32.15386752691897
 20
5.206747049146719
 30
0.0
 11
32.36131563673312
 21
4.946164501322333
 31
0.0
  0
LINE
  5
5C9
330
18
100
AcDbEntity
  8
1
 62
     1
100
AcDbLine
 10
32.36131563673312
 20
4.946164501322333
 30
0.0
 11
32.57230335111858
 21
4.660558826736757
 31
0.0
  0
LINE
  5
5CA
330
18
100
AcDbEntity
  8
1
 62
     1
100
AcDbLine
 10
32.57230335111858
 20
4.660558826736757
 30
0.0
 11
33.0
 21
4.025816498059253
 31
0.0
  0
LINE
  5
5CB
330
18
100
AcDbEntity
  8
1
 62
     1
100
AcDbLine
 10
32.15386752691899
 20
6.0
 30
0.0
 11
32.00000000000001
 21
6.0
 31
0.0
  0
LINE
  5
5CC
330
18
100
AcDbEntity
  8
1
 62
     1
100
AcDbLine
 10
32.0
 20
-1.888533775536212
 30
0.0
 11
32.0
 21
-5.185492591280271
 31
0.0
  0
LINE
  5
5CD
330
18
100
AcDbEntity
  8
1
 62
     1
100
AcDbLine
 10
32.0
 20
5.206747049146718
 30
0.0
 11
32.0
 21
-0.6476802832335753
 31
0.0
  0
LINE
  5
5CE
330
18
100
AcDbEntity
  8
1
 62
     1
100
AcDbLine
 10
32.0
 20
5.999999999999999
 30
0.0
 11
32.0
 21
5.999831231518165
 31
0.0
  0
LINE
  5
5CF
330
18
100
AcDbEntity
  8
1
 62
     1
100
AcDbLine
 10
32.0
 20
5.999831231518165
 30
0.0
 11
32.0
 21
5.948925523189834
 31
0.0
  0
LINE
  5
5D0
330
18
100
AcDbEntity
  8
1
 62
     1
100
AcDbLine
 10
32.0
 20
5.948925523189834
 30
0.0
 11
32.00000000000001
 21
5.206747049146735
 31
0.0
  0
LINE
  5
5D1
330
18
100
AcDbEntity
  8
1
 62
     1
100
AcDbLine
 10
66.6810198057101
 20
5.281004104480168
 30
0.0
 11
66.25000000000001
 21
4.53445625
 31
0.0
  0
LINE
  5
5D2
330
18
100
AcDbEntity
  8
1
 62
     1
100
AcDbLine
 10
66.25
 20
4.534456249999999
 30
0.0
 11
65.73581698602831
 21
5.425046939349667
 31
0.0
  0
LINE
  5
5D3
330
18
100
AcDbEntity
  8
1
 62
     1
100
AcDbLine
 10
68.00000000000001
 20
4.53445625
 30
0.0
 11
67.65464404748786
 21
5.132630027548645
 31
0.0
  0
LINE
  5
5D4
330
18
100
AcDbEntity
  8
1
 62
     1
100
AcDbLine
 10
59.25000000000001
 20
4.53445625
 30
0.0
 11
58.40386752691898
 21
5.999999999999994
 31
0.0
  0
LINE
  5
5D5
330
18
100
AcDbEntity
  8
1
 62
     1
100
AcDbLine
 10
57.50000000000001
 20
4.53445625
 30
0.0
 11
56.65386752691897
 21
5.999999999999994
 31
0.0
  0
LINE
  5
5D6
330
18
100
AcDbEntity
  8
1
 62
     1
100
AcDbLine
 10
64.5
 20
4.53445625
 30
0.0
 11
63.81698992456877
 21
5.717463851150691
 31
0.0
  0
LINE
  5
5D7
330
18
100
AcDbEntity
  8
1
 62
     1
100
AcDbLine
 10
63.46406224488688
 20
5.7712477612563
 30
0.0
 11
62.75000000000001
 21
4.53445625
 31
0.0
  0
LINE
  5
5D8
330
18
100
AcDbEntity
  8
1
 62
     1
100
AcDbLine
 10
61.00000000000001
 20
4.53445625
 30
0.0
 11
60.15386752691898
 21
5.999999999999994
 31
0.0
  0
LINE
  5
5D9
330
18
100
AcDbEntity
  8
1
 62
     1
100
AcDbLine
 10
60.09613247308103
 20
5.999999999999999
 30
0.0
 11
59.25000000000001
 21
4.53445625
 31
0.0
  0
LINE
  5
5DA
330
18
100
AcDbEntity
  8
1
 62
     1
100
AcDbLine
 10
58.34613247308106
 20
6.000000000000042
 30
0.0
 11
57.50000000000001
 21
4.53445625
 31
0.0
  0
LINE
  5
5DB
330
18
100
AcDbEntity
  8
1
 62
     1
100
AcDbLine
 10
62.75
 20
4.53445625
 30
0.0
 11
61.90386752691898
 21
5.999999999999996
 31
0.0
  0
LINE
  5
5DC
330
18
100
AcDbEntity
  8
1
 62
     1
100
AcDbLine
 10
61.84613247308104
 20
6.000000000000006
 30
0.0
 11
61.00000000000001
 21
4.53445625
 31
0.0
  0
LINE
  5
5DD
330
18
100
AcDbEntity
  8
1
 62
     1
100
AcDbLine
 10
54.84613247308106
 20
6.00000000000003
 30
0.0
 11
54.0
 21
4.53445625
 31
0.0
  0
LINE
  5
5DE
330
18
100
AcDbEntity
  8
1
 62
     1
100
AcDbLine
 10
55.75000000000001
 20
4.534456250000001
 30
0.0
 11
54.90386752691898
 21
6.000000000000006
 31
0.0
  0
LINE
  5
5DF
330
18
100
AcDbEntity
  8
1
 62
     1
100
AcDbLine
 10
56.59613247308104
 20
6.000000000000006
 30
0.0
 11
55.75000000000001
 21
4.53445625
 31
0.0
  0
LINE
  5
5E0
330
18
100
AcDbEntity
  8
1
 62
     1
100
AcDbLine
 10
65.07254102529846
 20
5.526125932868213
 30
0.0
 11
64.5
 21
4.53445625
 31
0.0
  0
LINE
  5
5E1
330
18
100
AcDbEntity
  8
1
 62
     1
100
AcDbLine
 10
48.75
 20
4.534456249999999
 30
0.0
 11
47.90386752691897
 21
5.999999999999991
 31
0.0
  0
LINE
  5
5E2
330
18
100
AcDbEntity
  8
1
 62
     1
100
AcDbLine
 10
49.59613247308103
 20
6.0
 30
0.0
 11
48.75
 21
4.53445625
 31
0.0
  0
LINE
  5
5E3
330
18
100
AcDbEntity
  8
1
 62
     1
100
AcDbLine
 10
50.5
 20
4.53445625
 30
0.0
 11
49.65386752691897
 21
5.99999999999999
 31
0.0
  0
LINE
  5
5E4
330
18
100
AcDbEntity
  8
1
 62
     1
100
AcDbLine
 10
51.34613247308103
 20
6.0
 30
0.0
 11
50.5
 21
4.53445625
 31
0.0
  0
LINE
  5
5E5
330
18
100
AcDbEntity
  8
1
 62
     1
100
AcDbLine
 10
52.25000000000001
 20
4.53445625
 30
0.0
 11
51.40386752691898
 21
5.999999999999988
 31
0.0
  0
LINE
  5
5E6
330
18
100
AcDbEntity
  8
1
 62
     1
100
AcDbLine
 10
53.09613247308106
 20
6.000000000000042
 30
0.0
 11
52.25000000000001
 21
4.53445625
 31
0.0
  0
LINE
  5
5E7
330
18
100
AcDbEntity
  8
1
 62
     1
100
AcDbLine
 10
54.00000000000001
 20
4.53445625
 30
0.0
 11
53.15386752691897
 21
6.000000000000017
 31
0.0
  0
LINE
  5
5E8
330
18
100
AcDbEntity
  8
1
 62
     1
100
AcDbLine
 10
47.0
 20
4.53445625
 30
0.0
 11
46.15386752691897
 21
6.000000000000006
 31
0.0
  0
LINE
  5
5E9
330
18
100
AcDbEntity
  8
1
 62
     1
100
AcDbLine
 10
46.09613247308103
 20
6.000000000000006
 30
0.0
 11
45.25
 21
4.53445625
 31
0.0
  0
LINE
  5
5EA
330
18
100
AcDbEntity
  8
1
 62
     1
100
AcDbLine
 10
43.5
 20
4.53445625
 30
0.0
 11
42.65386752691897
 21
5.999999999999996
 31
0.0
  0
LINE
  5
5EB
330
18
100
AcDbEntity
  8
1
 62
     1
100
AcDbLine
 10
44.34613247308104
 20
6.000000000000007
 30
0.0
 11
43.5
 21
4.53445625
 31
0.0
  0
LINE
  5
5EC
330
18
100
AcDbEntity
  8
1
 62
     1
100
AcDbLine
 10
41.75
 20
4.53445625
 30
0.0
 11
40.90386752691897
 21
5.999999999999994
 31
0.0
  0
LINE
  5
5ED
330
18
100
AcDbEntity
  8
1
 62
     1
100
AcDbLine
 10
38.25
 20
4.53445625
 30
0.0
 11
37.40386752691897
 21
5.999999999999994
 31
0.0
  0
LINE
  5
5EE
330
18
100
AcDbEntity
  8
1
 62
     1
100
AcDbLine
 10
39.09613247308103
 20
6.000000000000006
 30
0.0
 11
38.25
 21
4.53445625
 31
0.0
  0
LINE
  5
5EF
330
18
100
AcDbEntity
  8
1
 62
     1
100
AcDbLine
 10
40.00000000000001
 20
4.53445625
 30
0.0
 11
39.15386752691898
 21
5.999999999999991
 31
0.0
  0
LINE
  5
5F0
330
18
100
AcDbEntity
  8
1
 62
     1
100
AcDbLine
 10
40.84613247308104
 20
6.000000000000006
 30
0.0
 11
40.0
 21
4.53445625
 31
0.0
  0
LINE
  5
5F1
330
18
100
AcDbEntity
  8
1
 62
     1
100
AcDbLine
 10
42.59613247308104
 20
6.000000000000018
 30
0.0
 11
41.75000000000001
 21
4.534456250000001
 31
0.0
  0
LINE
  5
5F2
330
18
100
AcDbEntity
  8
1
 62
     1
100
AcDbLine
 10
47.84613247308103
 20
5.999999999999999
 30
0.0
 11
47.0
 21
4.53445625
 31
0.0
  0
LINE
  5
5F3
330
18
100
AcDbEntity
  8
1
 62
     1
100
AcDbLine
 10
45.24999999999999
 20
4.53445625
 30
0.0
 11
44.40386752691897
 21
5.999999999999994
 31
0.0
  0
LINE
  5
5F4
330
18
100
AcDbEntity
  8
1
 62
     1
100
AcDbLine
 10
37.34613247308104
 20
6.000000000000019
 30
0.0
 11
36.5
 21
4.534456250000001
 31
0.0
  0
LINE
  5
5F5
330
18
100
AcDbEntity
  8
1
 62
     1
100
AcDbLine
 10
36.5
 20
4.534456250000001
 30
0.0
 11
35.65386752691898
 21
5.999999999999994
 31
0.0
  0
LINE
  5
5F6
330
18
100
AcDbEntity
  8
1
 62
     1
100
AcDbLine
 10
35.59613247308103
 20
6.000000000000006
 30
0.0
 11
34.75
 21
4.53445625
 31
0.0
  0
LINE
  5
5F7
330
18
100
AcDbEntity
  8
1
 62
     1
100
AcDbLine
 10
34.75
 20
4.534456249999999
 30
0.0
 11
33.90386752691898
 21
5.999999999999996
 31
0.0
  0
LINE
  5
5F8
330
18
100
AcDbEntity
  8
1
 62
     1
100
AcDbLine
 10
33.84613247308103
 20
6.000000000000006
 30
0.0
 11
33.0
 21
4.53445625
 31
0.0
  0
LINE
  5
5F9
330
18
100
AcDbEntity
  8
1
 62
     1
100
AcDbLine
 10
33.0
 20
4.534456250000001
 30
0.0
 11
32.15386752691898
 21
5.999999999999994
 31
0.0
  0
LINE
  5
5FA
330
18
100
AcDbEntity
  8
SK1
100
AcDbLine
 10
-32.02
 20
-4.499999999999998
 30
0.0
 11
-32.02
 21
-6.0
 31
0.0
  0
LINE
  5
5FB
330
18
100
AcDbEntity
  8
SK1
100
AcDbLine
 10
-43.41999999999999
 20
3.968626966596887
 30
0.0
 11
-32.02
 21
3.968626966596887
 31
0.0
  0
LINE
  5
5FC
330
18
100
AcDbEntity
  8
SK1
100
AcDbLine
 10
-43.42
 20
4.500000000000001
 30
0.0
 11
-32.02
 21
4.500000000000001
 31
0.0
  0
ARC
  5
5FD
330
18
100
AcDbEntity
  8
SK1
100
AcDbCircle
 10
-31.55085183010716
 20
-3.951274661352266
 30
0.0
 40
14.26859395825881
100
AcDbArc
 50
146.286090204458
 51
150.9140411966221
  0
LINE
  5
5FE
330
18
100
AcDbEntity
  8
SK1
100
AcDbLine
 10
-43.42
 20
4.500000000000002
 30
0.0
 11
-43.42000000000001
 21
3.968626966596888
 31
0.0
  0
LINE
  5
5FF
330
18
100
AcDbEntity
  8
SK1
100
AcDbLine
 10
-44.02
 20
4.500000000000001
 30
0.0
 11
-43.42
 21
4.500000000000002
 31
0.0
  0
LINE
  5
600
330
18
100
AcDbEntity
  8
SK1
100
AcDbLine
 10
-32.02
 20
6.0
 30
0.0
 11
-32.02
 21
5.999685792802129
 31
0.0
  0
LINE
  5
601
330
18
100
AcDbEntity
  8
SK1
100
AcDbLine
 10
-32.02
 20
5.999685792802129
 30
0.0
 11
-32.02
 21
5.903486979349213
 31
0.0
  0
LINE
  5
602
330
18
100
AcDbEntity
  8
SK1
100
AcDbLine
 10
-32.02
 20
5.903486979349213
 30
0.0
 11
-32.02
 21
4.500000000000001
 31
0.0
  0
LINE
  5
603
330
18
100
AcDbEntity
  8
SK1
100
AcDbLine
 10
-43.41999999999999
 20
-3.968626966596884
 30
0.0
 11
-32.02
 21
-3.968626966596884
 31
0.0
  0
LINE
  5
604
330
18
100
AcDbEntity
  8
SK1
100
AcDbLine
 10
-43.42
 20
-3.968626966596885
 30
0.0
 11
-43.42
 21
-4.500000000000001
 31
0.0
  0
LINE
  5
605
330
18
100
AcDbEntity
  8
SK1
100
AcDbLine
 10
-43.42
 20
-4.5
 30
0.0
 11
-32.02
 21
-4.5
 31
0.0
  0
LINE
  5
606
330
18
100
AcDbEntity
  8
SK1
100
AcDbLine
 10
-44.02
 20
4.5
 30
0.0
 11
-44.02
 21
2.984962311319863
 31
0.0
  0
LINE
  5
607
330
18
100
AcDbEntity
  8
SK1
100
AcDbLine
 10
-44.02
 20
-2.984962311319861
 30
0.0
 11
-44.01999999999999
 21
-4.499999999999999
 31
0.0
  0
ARC
  5
608
330
18
100
AcDbEntity
  8
SK1
100
AcDbCircle
 10
-31.55085183012813
 20
3.95127466133967
 30
0.0
 40
14.26859395823436
100
AcDbArc
 50
209.0859588033746
 51
213.7139097955467
  0
LINE
  5
609
330
18
100
AcDbEntity
  8
SK1
100
AcDbLine
 10
-44.02
 20
-4.5
 30
0.0
 11
-43.42
 21
-4.5
 31
0.0
  0
LINE
  5
60A
330
18
100
AcDbEntity
  8
SK1
100
AcDbLine
 10
-32.02
 20
3.968626966596887
 30
0.0
 11
-32.02
 21
-3.968626966596892
 31
0.0
  0
LINE
  5
60B
330
18
100
AcDbEntity
  8
SK1
100
AcDbLine
 10
-44.02
 20
2.984962311319863
 30
0.0
 11
-44.02
 21
-2.984962311319861
 31
0.0
  0
LINE
  5
60C
330
18
100
AcDbEntity
  8
SK1
100
AcDbLine
 10
0.0000000000000071
 20
6.0
 30
0.0
 11
-32.02
 21
6.0
 31
0.0
  0
LINE
  5
60D
330
18
100
AcDbEntity
  8
SK1
100
AcDbLine
 10
-32.02
 20
-5.999999999999998
 30
0.0
 11
-0.0000000000000036
 21
-6.0
 31
0.0
  0
DIMENSION
  5
60E
330
18
100
AcDbEntity
  8
2
100
AcDbDimension
  2
*D0
 10
83.00000000000004
 20
-5.999999999999948
 30
0.0
 11
80.60925000000003
 21
0.0000000000000444
 31
0.0
 70
    32
  1
M12
 71
     5
 42
12.0
  3
STANDARD
100
AcDbAlignedDimension
 13
68.0
 23
6.0
 33
0.0
 14
68.0
 24
-6.0
 34
0.0
 50
90.0000000000002
100
AcDbRotatedDimension
  0
DIMENSION
  5
61B
330
18
100
AcDbEntity
  8
2
100
AcDbDimension
  2
*D1
 10
68.0
 20
75.0
 30
0.0
 11
34.0
 21
77.39075
 31
0.0
 70
    32
  1
<>
 71
     5
 42
68.0
  3
STANDARD
100
AcDbAlignedDimension
 13
0.0
 23
0.0
 33
0.0
 14
68.0
 24
0.0
 34
0.0
100
AcDbRotatedDimension
  0
DIMENSION
  5
628
330
18
100
AcDbEntity
  8
SK2
100
AcDbDimension
  2
*D2
 10
-59.01999999996938
 20
-6.000000000137792
 30
0.0
 11
-61.41074999999999
 21
-0.0000000001499931
 31
0.0
 70
    32
  1
%%c<>
 71
     5
 42
12.0
  3
STANDARD
100
AcDbAlignedDimension
 13
-32.02
 23
6.0
 33
0.0
 14
-32.02
 24
-6.0
 34
0.0
 50
90.0000000002924
100
AcDbRotatedDimension
  0
DIMENSION
  5
635
330
18
100
AcDbEntity
  8
2
100
AcDbDimension
  2
*D3
 10
68.0
 20
60.0
 30
0.0
 11
50.0
 21
62.39075
 31
0.0
 70
    32
  1
<>
 71
     5
 42
36.0
  3
STANDARD
100
AcDbAlignedDimension
 13
32.0
 23
6.0
 33
0.0
 14
68.0
 24
6.0
 34
0.0
100
AcDbRotatedDimension
  0
DIMENSION
  5
642
330
18
100
AcDbEntity
  8
SK2
100
AcDbDimension
  2
*D4
 10
68.0
 20
90.0
 30
0.0
 11
11.99
 21
92.39775
 31
0.0
 70
    32
  1
<>
 71
     5
 42
112.02
  3
STANDARD
100
AcDbAlignedDimension
 13
-44.02
 23
6.0
 33
0.0
 14
68.0
 24
6.0
 34
0.0
100
AcDbRotatedDimension
  0
ENDSEC
  0
SECTION
  2
OBJECTS
  0
DICTIONARY
  5
C
330
0
100
AcDbDictionary
281
     1
  3
ACAD_COLOR
350
387
  3
ACAD_GROUP
350
D
  3
ACAD_LAYOUT
350
301
  3
ACAD_MATERIAL
350
386
  3
ACAD_MLEADERSTYLE
350
64F
  3
ACAD_MLINESTYLE
350
E
  3
ACAD_PLOTSETTINGS
350
302
  3
ACAD_PLOTSTYLENAME
350
2FF
  3
ACAD_SCALELIST
350
3A0
  3
ACAD_TABLESTYLE
350
388
  3
ACAD_VISUALSTYLE
350
3C5
  3
ACDBHEADERROUNDTRIPXREC
350
650
  3
AcDbVariableDictionary
350
357
  0
DICTIONARY
  5
387
102
{ACAD_REACTORS
330
C
102
}
330
C
100
AcDbDictionary
281
     1
  0
DICTIONARY
  5
D
102
{ACAD_REACTORS
330
C
102
}
330
C
100
AcDbDictionary
281
     1
  0
DICTIONARY
  5
301
102
{ACAD_REACTORS
330
C
102
}
330
C
100
AcDbDictionary
281
     1
  3
Layout1
350
33B
  3
Model
350
303
  0
DICTIONARY
  5
386
102
{ACAD_REACTORS
330
C
102
}
330
C
100
AcDbDictionary
281
     1
  3
ByBlock
350
3C3
  3
ByLayer
350
3C2
  3
Global
350
3C4
  0
DICTIONARY
  5
64F
102
{ACAD_REACTORS
330
C
102
}
330
C
100
AcDbDictionary
281
     1
  0
DICTIONARY
  5
E
102
{ACAD_REACTORS
330
C
102
}
330
C
100
AcDbDictionary
281
     1
  3
STANDARD
350
1B
  0
DICTIONARY
  5
302
102
{ACAD_REACTORS
330
C
102
}
330
C
100
AcDbDictionary
281
     1
  0
ACDBDICTIONARYWDFLT
  5
2FF
102
{ACAD_REACTORS
330
C
102
}
330
C
100
AcDbDictionary
281
     1
  3
Normal
350
300
100
AcDbDictionaryWithDefault
340
300
  0
DICTIONARY
  5
3A0
102
{ACAD_REACTORS
330
C
102
}
330
C
100
AcDbDictionary
281
     1
  3
A0
350
3A1
  3
A1
350
3A2
  3
A2
350
3A3
  3
A3
350
3A4
  3
A4
350
3A5
  3
A5
350
3A6
  3
A6
350
3A7
  3
A7
350
3A8
  3
A8
350
3A9
  3
A9
350
3AA
  3
B0
350
3AB
  3
B1
350
3AC
  3
B2
350
3AD
  3
B3
350
3AE
  3
B4
350
3AF
  3
B5
350
3B0
  3
B6
350
3B1
  3
B7
350
3B2
  3
B8
350
3B3
  3
B9
350
3B4
  3
C0
350
3B5
  3
C1
350
3B6
  3
C2
350
3B7
  3
C3
350
3B8
  3
C4
350
3B9
  3
C5
350
3BA
  3
C6
350
3BB
  3
C7
350
3BC
  3
C8
350
3BD
  3
C9
350
3BE
  3
D0
350
3BF
  3
D1
350
3C0
  3
D2
350
3C1
  0
DICTIONARY
  5
388
102
{ACAD_REACTORS
330
C
102
}
330
C
100
AcDbDictionary
281
     1
  3
Standard
350
389
  0
DICTIONARY
  5
3C5
102
{ACAD_REACTORS
330
C
102
}
330
C
100
AcDbDictionary
281
     1
  3
2dWireframe
350
3CA
  3
3D Hidden
350
3CC
  3
3dWireframe
350
3CB
  3
Basic
350
3CD
  3
Brighten
350
3D1
  3
ColorChange
350
3D5
  3
Conceptual
350
3CF
  3
Dim
350
3D0
  3
Facepattern
350
3D4
  3
Flat
350
3C6
  3
FlatWithEdges
350
3C7
  3
Gouraud
350
3C8
  3
GouraudWithEdges
350
3C9
  3
Linepattern
350
3D3
  3
Realistic
350
3CE
  3
Thicken
350
3D2
  0
DICTIONARY
  5
650
102
{ACAD_REACTORS
330
C
102
}
330
C
100
AcDbDictionary
281
     1
  3
COLORDICT
350
651
  3
MATERIALDICT
350
652
  0
DICTIONARY
  5
357
102
{ACAD_REACTORS
330
C
102
}
330
C
100
AcDbDictionary
281
     1
  3
CANNOSCALE
350
653
  3
CTABLESTYLE
350
38D
  3
DIMASSOC
350
359
  3
HIDETEXT
350
358
  3
PROJECTNAME
350
38E
  0
LAYOUT
  5
33B
102
{ACAD_REACTORS
330
301
102
}
330
301
100
AcDbPlotSettings
  1

  2
Lexmark Optra PS2
  4

  6

 40
0.0
 41
0.0
 42
0.0
 43
0.0
 44
0.0
 45
0.0
 46
0.0
 47
0.0
 48
0.0
 49
0.0
140
0.0
141
0.0
142
1.0
143
1.0
 70
   688
 72
     0
 73
     0
 74
     5
  7
monochrome.ctb
 75
    16
147
1.0
148
0.0
149
0.0
100
AcDbLayout
  1
Layout1
 70
     1
 71
     1
 10
0.0
 20
0.0
 11
12.0
 21
9.0
 12
0.0
 22
0.0
 32
0.0
 14
0.0
 24
0.0
 34
0.0
 15
0.0
 25
0.0
 35
0.0
146
0.0
 13
0.0
 23
0.0
 33
0.0
 16
1.0
 26
0.0
 36
0.0
 17
0.0
 27
1.0
 37
0.0
 76
     0
330
338
  0
LAYOUT
  5
303
102
{ACAD_REACTORS
330
301
102
}
330
301
100
AcDbPlotSettings
  1

  2
Lexmark Optra Rx
  4
A4
  6

 40
6.805083274841307
 41
5.535083293914794
 42
6.974411010742187
 43
7.14373779296875
 44
209.9733276367186
 45
296.9259948730469
 46
0.0
 47
0.0
 48
0.0
 49
0.0
140
0.0
141
0.0
142
1.0
143
2.976565420630886
 70
 11952
 72
     1
 73
     1
 74
     0
  7
monochrome.ctb
 75
     0
147
0.335957675604539
148
204.1199660668592
149
172.3933209647495
100
AcDbLayout
  1
Model
 70
     1
 71
     0
 10
0.0
 20
0.0
 11
12.0
 21
9.0
 12
0.0
 22
0.0
 32
0.0
 14
0.0
 24
0.0
 34
0.0
 15
0.0
 25
0.0
 35
0.0
146
0.0
 13
0.0
 23
0.0
 33
0.0
 16
1.0
 26
0.0
 36
0.0
 17
0.0
 27
1.0
 37
0.0
 76
     0
330
18
331
39A
  0
MATERIAL
  5
3C3
102
{ACAD_REACTORS
330
386
102
}
102
{ACAD_XDICTIONARY
360
656
102
}
330
386
100
AcDbMaterial
  1
ByBlock
  0
MATERIAL
  5
3C2
102
{ACAD_REACTORS
330
386
102
}
102
{ACAD_XDICTIONARY
360
654
102
}
330
386
100
AcDbMaterial
  1
ByLayer
  0
MATERIAL
  5
3C4
102
{ACAD_REACTORS
330
386
102
}
102
{ACAD_XDICTIONARY
360
658
102
}
330
386
100
AcDbMaterial
  1
Global
  0
MLINESTYLE
  5
1B
102
{ACAD_REACTORS
330
E
102
}
330
E
100
AcDbMlineStyle
  2
STANDARD
 70
     0
  3

 62
     0
 51
90.0
 52
90.0
 71
     2
 49
0.5
 62
   256
  6
BYLAYER
 49
-0.5
 62
   256
  6
BYLAYER
  0
ACDBPLACEHOLDER
  5
300
102
{ACAD_REACTORS
330
2FF
102
}
330
2FF
  0
SCALE
  5
3A1
102
{ACAD_REACTORS
330
3A0
102
}
330
3A0
100
AcDbScale
 70
     0
300
1:1
140
1.0
141
1.0
290
     1
  0
SCALE
  5
3A2
102
{ACAD_REACTORS
330
3A0
102
}
330
3A0
100
AcDbScale
 70
     0
300
1:2
140
1.0
141
2.0
290
     0
  0
SCALE
  5
3A3
102
{ACAD_REACTORS
330
3A0
102
}
330
3A0
100
AcDbScale
 70
     0
300
1:4
140
1.0
141
4.0
290
     0
  0
SCALE
  5
3A4
102
{ACAD_REACTORS
330
3A0
102
}
330
3A0
100
AcDbScale
 70
     0
300
1:5
140
1.0
141
5.0
290
     0
  0
SCALE
  5
3A5
102
{ACAD_REACTORS
330
3A0
102
}
330
3A0
100
AcDbScale
 70
     0
300
1:8
140
1.0
141
8.0
290
     0
  0
SCALE
  5
3A6
102
{ACAD_REACTORS
330
3A0
102
}
330
3A0
100
AcDbScale
 70
     0
300
1:10
140
1.0
141
10.0
290
     0
  0
SCALE
  5
3A7
102
{ACAD_REACTORS
330
3A0
102
}
330
3A0
100
AcDbScale
 70
     0
300
1:16
140
1.0
141
16.0
290
     0
  0
SCALE
  5
3A8
102
{ACAD_REACTORS
330
3A0
102
}
330
3A0
100
AcDbScale
 70
     0
300
1:20
140
1.0
141
20.0
290
     0
  0
SCALE
  5
3A9
102
{ACAD_REACTORS
330
3A0
102
}
330
3A0
100
AcDbScale
 70
     0
300
1:30
140
1.0
141
30.0
290
     0
  0
SCALE
  5
3AA
102
{ACAD_REACTORS
330
3A0
102
}
330
3A0
100
AcDbScale
 70
     0
300
1:40
140
1.0
141
40.0
290
     0
  0
SCALE
  5
3AB
102
{ACAD_REACTORS
330
3A0
102
}
330
3A0
100
AcDbScale
 70
     0
300
1:50
140
1.0
141
50.0
290
     0
  0
SCALE
  5
3AC
102
{ACAD_REACTORS
330
3A0
102
}
330
3A0
100
AcDbScale
 70
     0
300
1:100
140
1.0
141
100.0
290
     0
  0
SCALE
  5
3AD
102
{ACAD_REACTORS
330
3A0
102
}
330
3A0
100
AcDbScale
 70
     0
300
2:1
140
2.0
141
1.0
290
     0
  0
SCALE
  5
3AE
102
{ACAD_REACTORS
330
3A0
102
}
330
3A0
100
AcDbScale
 70
     0
300
4:1
140
4.0
141
1.0
290
     0
  0
SCALE
  5
3AF
102
{ACAD_REACTORS
330
3A0
102
}
330
3A0
100
AcDbScale
 70
     0
300
8:1
140
8.0
141
1.0
290
     0
  0
SCALE
  5
3B0
102
{ACAD_REACTORS
330
3A0
102
}
330
3A0
100
AcDbScale
 70
     0
300
10:1
140
10.0
141
1.0
290
     0
  0
SCALE
  5
3B1
102
{ACAD_REACTORS
330
3A0
102
}
330
3A0
100
AcDbScale
 70
     0
300
100:1
140
100.0
141
1.0
290
     0
  0
SCALE
  5
3B2
102
{ACAD_REACTORS
330
3A0
102
}
330
3A0
100
AcDbScale
 70
     0
300
1/128" = 1'-0"
140
0.0078125
141
12.0
290
     0
  0
SCALE
  5
3B3
102
{ACAD_REACTORS
330
3A0
102
}
330
3A0
100
AcDbScale
 70
     0
300
1/64" = 1'-0"
140
0.015625
141
12.0
290
     0
  0
SCALE
  5
3B4
102
{ACAD_REACTORS
330
3A0
102
}
330
3A0
100
AcDbScale
 70
     0
300
1/32" = 1'-0"
140
0.03125
141
12.0
290
     0
  0
SCALE
  5
3B5
102
{ACAD_REACTORS
330
3A0
102
}
330
3A0
100
AcDbScale
 70
     0
300
1/16" = 1'-0"
140
0.0625
141
12.0
290
     0
  0
SCALE
  5
3B6
102
{ACAD_REACTORS
330
3A0
102
}
330
3A0
100
AcDbScale
 70
     0
300
3/32" = 1'-0"
140
0.09375
141
12.0
290
     0
  0
SCALE
  5
3B7
102
{ACAD_REACTORS
330
3A0
102
}
330
3A0
100
AcDbScale
 70
     0
300
1/8" = 1'-0"
140
0.125
141
12.0
290
     0
  0
SCALE
  5
3B8
102
{ACAD_REACTORS
330
3A0
102
}
330
3A0
100
AcDbScale
 70
     0
300
3/16" = 1'-0"
140
0.1875
141
12.0
290
     0
  0
SCALE
  5
3B9
102
{ACAD_REACTORS
330
3A0
102
}
330
3A0
100
AcDbScale
 70
     0
300
1/4" = 1'-0"
140
0.25
141
12.0
290
     0
  0
SCALE
  5
3BA
102
{ACAD_REACTORS
330
3A0
102
}
330
3A0
100
AcDbScale
 70
     0
300
3/8" = 1'-0"
140
0.375
141
12.0
290
     0
  0
SCALE
  5
3BB
102
{ACAD_REACTORS
330
3A0
102
}
330
3A0
100
AcDbScale
 70
     0
300
1/2" = 1'-0"
140
0.5
141
12.0
290
     0
  0
SCALE
  5
3BC
102
{ACAD_REACTORS
330
3A0
102
}
330
3A0
100
AcDbScale
 70
     0
300
3/4" = 1'-0"
140
0.75
141
12.0
290
     0
  0
SCALE
  5
3BD
102
{ACAD_REACTORS
330
3A0
102
}
330
3A0
100
AcDbScale
 70
     0
300
1" = 1'-0"
140
1.0
141
12.0
290
     0
  0
SCALE
  5
3BE
102
{ACAD_REACTORS
330
3A0
102
}
330
3A0
100
AcDbScale
 70
     0
300
1-1/2" = 1'-0"
140
1.5
141
12.0
290
     0
  0
SCALE
  5
3BF
102
{ACAD_REACTORS
330
3A0
102
}
330
3A0
100
AcDbScale
 70
     0
300
3" = 1'-0"
140
3.0
141
12.0
290
     0
  0
SCALE
  5
3C0
102
{ACAD_REACTORS
330
3A0
102
}
330
3A0
100
AcDbScale
 70
     0
300
6" = 1'-0"
140
6.0
141
12.0
290
     0
  0
SCALE
  5
3C1
102
{ACAD_REACTORS
330
3A0
102
}
330
3A0
100
AcDbScale
 70
     0
300
1'-0" = 1'-0"
140
12.0
141
12.0
290
     0
  0
TABLESTYLE
  5
389
102
{ACAD_REACTORS
330
388
102
}
330
388
100
AcDbTableStyle
  3
Standard
 70
     0
 71
     0
 40
1.5
 41
1.5
280
     0
281
     0
  7
STANDARD
140
4.5
170
     2
 62
     0
 63
   257
283
     0
274
    -2
284
     1
 64
     0
275
    -2
285
     1
 65
     0
276
    -2
286
     1
 66
     0
277
    -2
287
     1
 67
     0
278
    -2
288
     1
 68
     0
279
    -2
289
     1
 69
     0
  7
STANDARD
140
6.0
170
     5
 62
     0
 63
   257
283
     0
274
    -2
284
     1
 64
     0
275
    -2
285
     1
 65
     0
276
    -2
286
     1
 66
     0
277
    -2
287
     1
 67
     0
278
    -2
288
     1
 68
     0
279
    -2
289
     1
 69
     0
  7
STANDARD
140
4.5
170
     5
 62
     0
 63
   257
283
     0
274
    -2
284
     1
 64
     0
275
    -2
285
     1
 65
     0
276
    -2
286
     1
 66
     0
277
    -2
287
     1
 67
     0
278
    -2
288
     1
 68
     0
279
    -2
289
     1
 69
     0
  0
VISUALSTYLE
  5
3CA
102
{ACAD_REACTORS
330
3C5
102
}
102
{ACAD_XDICTIONARY
360
662
102
}
330
3C5
100
AcDbVisualStyle
  2
2dWireframe
 70
     4
 71
     0
 72
     2
 73
     0
 90
        0
 40
-0.6
 41
-30.0
 62
     5
 63
     7
 74
     1
 91
        4
 64
     7
 65
   257
 75
     1
175
     1
 42
1.0
 92
        0
 66
   257
 43
1.0
 76
     1
 77
     6
 78
     2
 67
     7
 79
     5
170
     0
171
     0
290
     0
174
     0
 93
        1
 44
0.0
173
     0
291
     0
 45
0.0
1001
ACAD
1000
AcDbSavedByObjectVersion
1070
     0
  0
VISUALSTYLE
  5
3CC
102
{ACAD_REACTORS
330
3C5
102
}
102
{ACAD_XDICTIONARY
360
666
102
}
330
3C5
100
AcDbVisualStyle
  2
3D Hidden
 70
     6
 71
     1
 72
     2
 73
     2
 90
        0
 40
-0.6
 41
-30.0
 62
     5
 63
     7
 74
     2
 91
        2
 64
     7
 65
   257
 75
     2
175
     1
 42
40.0
 92
        0
 66
   257
 43
1.0
 76
     1
 77
     6
 78
     2
 67
     7
 79
     3
170
     0
171
     0
290
     0
174
     0
 93
        1
 44
0.0
173
     0
291
     0
 45
0.0
1001
ACAD
1000
AcDbSavedByObjectVersion
1070
     0
  0
VISUALSTYLE
  5
3CB
102
{ACAD_REACTORS
330
3C5
102
}
102
{ACAD_XDICTIONARY
360
664
102
}
330
3C5
100
AcDbVisualStyle
  2
3dWireframe
 70
     5
 71
     0
 72
     2
 73
     0
 90
        0
 40
-0.6
 41
-30.0
 62
     5
 63
     7
 74
     1
 91
        4
 64
     7
 65
   257
 75
     1
175
     1
 42
1.0
 92
        0
 66
   257
 43
1.0
 76
     1
 77
     6
 78
     2
 67
     7
 79
     5
170
     0
171
     0
290
     0
174
     0
 93
        1
 44
0.0
173
     0
291
     0
 45
0.0
1001
ACAD
1000
AcDbSavedByObjectVersion
1070
     0
  0
VISUALSTYLE
  5
3CD
102
{ACAD_REACTORS
330
3C5
102
}
102
{ACAD_XDICTIONARY
360
668
102
}
330
3C5
100
AcDbVisualStyle
  2
Basic
 70
     7
 71
     1
 72
     0
 73
     1
 90
        0
 40
-0.6
 41
-30.0
 62
     5
 63
     7
 74
     0
 91
        4
 64
     7
 65
   257
 75
     1
175
     1
 42
1.0
 92
        8
 66
     7
 43
1.0
 76
     1
 77
     6
 78
     2
 67
     7
 79
     5
170
     0
171
     0
290
     0
174
     0
 93
        1
 44
0.0
173
     0
291
     1
 45
0.0
1001
ACAD
1000
AcDbSavedByObjectVersion
1070
     0
  0
VISUALSTYLE
  5
3D1
102
{ACAD_REACTORS
330
3C5
102
}
102
{ACAD_XDICTIONARY
360
670
102
}
330
3C5
100
AcDbVisualStyle
  2
Brighten
 70
    12
 71
     2
 72
     2
 73
     0
 90
        0
 40
-0.6
 41
-30.0
 62
     5
 63
     7
 74
     1
 91
        4
 64
     7
 65
   257
 75
     1
175
     1
 42
1.0
 92
        8
 66
     7
 43
1.0
 76
     1
 77
     6
 78
     2
 67
     7
 79
     5
170
     0
171
     0
290
     0
174
     0
 93
        1
 44
50.0
173
     0
291
     1
 45
0.0
1001
ACAD
1000
AcDbSavedByObjectVersion
1070
     0
  0
VISUALSTYLE
  5
3D5
102
{ACAD_REACTORS
330
3C5
102
}
102
{ACAD_XDICTIONARY
360
678
102
}
330
3C5
100
AcDbVisualStyle
  2
ColorChange
 70
    16
 71
     2
 72
     2
 73
     3
 90
        0
 40
-0.6
 41
-30.0
 62
     5
 63
     8
 74
     1
 91
        4
 64
     7
 65
   257
 75
     1
175
     1
 42
1.0
 92
        8
 66
     8
 43
1.0
 76
     1
 77
     6
 78
     2
 67
     7
 79
     5
170
     0
171
     0
290
     0
174
     0
 93
        1
 44
0.0
173
     0
291
     1
 45
0.0
1001
ACAD
1000
AcDbSavedByObjectVersion
1070
     0
  0
VISUALSTYLE
  5
3CF
102
{ACAD_REACTORS
330
3C5
102
}
102
{ACAD_XDICTIONARY
360
66C
102
}
330
3C5
100
AcDbVisualStyle
  2
Conceptual
 70
     9
 71
     3
 72
     2
 73
     0
 90
        0
 40
-0.6
 41
-30.0
 62
     5
 63
     7
 74
     2
 91
        2
 64
     7
 65
   257
 75
     1
175
     1
 42
40.0
 92
        8
 66
     7
 43
1.0
 76
     1
 77
     6
 78
     2
 67
     7
 79
     3
170
     0
171
     0
290
     0
174
     0
 93
        1
 44
0.0
173
     0
291
     0
 45
0.0
1001
ACAD
1000
AcDbSavedByObjectVersion
1070
     0
  0
VISUALSTYLE
  5
3D0
102
{ACAD_REACTORS
330
3C5
102
}
102
{ACAD_XDICTIONARY
360
66E
102
}
330
3C5
100
AcDbVisualStyle
  2
Dim
 70
    11
 71
     2
 72
     2
 73
     0
 90
        0
 40
-0.6
 41
-30.0
 62
     5
 63
     7
 74
     1
 91
        4
 64
     7
 65
   257
 75
     1
175
     1
 42
1.0
 92
        8
 66
     7
 43
1.0
 76
     1
 77
     6
 78
     2
 67
     7
 79
     5
170
     0
171
     0
290
     0
174
     0
 93
        1
 44
-50.0
173
     0
291
     1
 45
0.0
1001
ACAD
1000
AcDbSavedByObjectVersion
1070
     0
  0
VISUALSTYLE
  5
3D4
102
{ACAD_REACTORS
330
3C5
102
}
102
{ACAD_XDICTIONARY
360
676
102
}
330
3C5
100
AcDbVisualStyle
  2
Facepattern
 70
    15
 71
     2
 72
     2
 73
     0
 90
        0
 40
-0.6
 41
-30.0
 62
     5
 63
     7
 74
     1
 91
        4
 64
     7
 65
   257
 75
     1
175
     1
 42
1.0
 92
        8
 66
     7
 43
1.0
 76
     1
 77
     6
 78
     2
 67
     7
 79
     5
170
     0
171
     0
290
     0
174
     0
 93
        1
 44
0.0
173
     0
291
     1
 45
0.0
1001
ACAD
1000
AcDbSavedByObjectVersion
1070
     0
  0
VISUALSTYLE
  5
3C6
102
{ACAD_REACTORS
330
3C5
102
}
102
{ACAD_XDICTIONARY
360
65A
102
}
330
3C5
100
AcDbVisualStyle
  2
Flat
 70
     0
 71
     2
 72
     1
 73
     1
 90
        2
 40
-0.6
 41
30.0
 62
     5
 63
     7
 74
     0
 91
        4
 64
     7
 65
   257
 75
     1
175
     1
 42
1.0
 92
        8
 66
     7
 43
1.0
 76
     1
 77
     6
 78
     2
 67
     7
 79
     5
170
     0
171
     0
290
     0
174
     0
 93
       13
 44
0.0
173
     0
291
     1
 45
0.0
1001
ACAD
1000
AcDbSavedByObjectVersion
1070
     0
  0
VISUALSTYLE
  5
3C7
102
{ACAD_REACTORS
330
3C5
102
}
102
{ACAD_XDICTIONARY
360
65C
102
}
330
3C5
100
AcDbVisualStyle
  2
FlatWithEdges
 70
     1
 71
     2
 72
     1
 73
     1
 90
        2
 40
-0.6
 41
30.0
 62
     5
 63
     7
 74
     1
 91
        4
 64
     7
 65
   257
 75
     1
175
     1
 42
1.0
 92
        0
 66
   257
 43
1.0
 76
     1
 77
     6
 78
     2
 67
     7
 79
     5
170
     0
171
     0
290
     0
174
     0
 93
       13
 44
0.0
173
     0
291
     1
 45
0.0
1001
ACAD
1000
AcDbSavedByObjectVersion
1070
     0
  0
VISUALSTYLE
  5
3C8
102
{ACAD_REACTORS
330
3C5
102
}
102
{ACAD_XDICTIONARY
360
65E
102
}
330
3C5
100
AcDbVisualStyle
  2
Gouraud
 70
     2
 71
     2
 72
     2
 73
     1
 90
        2
 40
-0.6
 41
30.0
 62
     5
 63
     7
 74
     0
 91
        4
 64
     7
 65
   257
 75
     1
175
     1
 42
1.0
 92
        0
 66
     7
 43
1.0
 76
     1
 77
     6
 78
     2
 67
     7
 79
     5
170
     0
171
     0
290
     0
174
     0
 93
       13
 44
0.0
173
     0
291
     1
 45
0.0
1001
ACAD
1000
AcDbSavedByObjectVersion
1070
     0
  0
VISUALSTYLE
  5
3C9
102
{ACAD_REACTORS
330
3C5
102
}
102
{ACAD_XDICTIONARY
360
660
102
}
330
3C5
100
AcDbVisualStyle
  2
GouraudWithEdges
 70
     3
 71
     2
 72
     2
 73
     1
 90
        2
 40
-0.6
 41
30.0
 62
     5
 63
     7
 74
     1
 91
        4
 64
     7
 65
   257
 75
     1
175
     1
 42
1.0
 92
        0
 66
   257
 43
1.0
 76
     1
 77
     6
 78
     2
 67
     7
 79
     5
170
     0
171
     0
290
     0
174
     0
 93
       13
 44
0.0
173
     0
291
     1
 45
0.0
1001
ACAD
1000
AcDbSavedByObjectVersion
1070
     0
  0
VISUALSTYLE
  5
3D3
102
{ACAD_REACTORS
330
3C5
102
}
102
{ACAD_XDICTIONARY
360
674
102
}
330
3C5
100
AcDbVisualStyle
  2
Linepattern
 70
    14
 71
     2
 72
     2
 73
     0
 90
        0
 40
-0.6
 41
-30.0
 62
     5
 63
     7
 74
     1
 91
        4
 64
     7
 65
   257
 75
     7
175
     7
 42
1.0
 92
        8
 66
     7
 43
1.0
 76
     1
 77
     6
 78
     2
 67
     7
 79
     5
170
     0
171
     0
290
     0
174
     0
 93
        1
 44
0.0
173
     0
291
     1
 45
0.0
1001
ACAD
1000
AcDbSavedByObjectVersion
1070
     0
  0
VISUALSTYLE
  5
3CE
102
{ACAD_REACTORS
330
3C5
102
}
102
{ACAD_XDICTIONARY
360
66A
102
}
330
3C5
100
AcDbVisualStyle
  2
Realistic
 70
     8
 71
     2
 72
     2
 73
     0
 90
        0
 40
-0.6
 41
-30.0
 62
     5
 63
     7
 74
     1
 91
        0
 64
     7
 65
   257
 75
     1
175
     1
 42
1.0
 92
        8
 66
     8
 43
1.0
 76
     1
 77
     6
 78
     2
 67
     7
 79
     5
170
     0
171
     0
290
     0
174
     0
 93
       13
 44
0.0
173
     0
291
     0
 45
0.0
1001
ACAD
1000
AcDbSavedByObjectVersion
1070
     0
  0
VISUALSTYLE
  5
3D2
102
{ACAD_REACTORS
330
3C5
102
}
102
{ACAD_XDICTIONARY
360
672
102
}
330
3C5
100
AcDbVisualStyle
  2
Thicken
 70
    13
 71
     2
 72
     2
 73
     0
 90
        0
 40
-0.6
 41
-30.0
 62
     5
 63
     7
 74
     1
 91
        4
 64
     7
 65
   257
 75
     1
175
     1
 42
1.0
 92
       12
 66
     7
 43
1.0
 76
     1
 77
     6
 78
     2
 67
     7
 79
     5
170
     0
171
     0
290
     0
174
     0
 93
        1
 44
0.0
173
     0
291
     1
 45
0.0
1001
ACAD
1000
AcDbSavedByObjectVersion
1070
     0
  0
XRECORD
  5
651
102
{ACAD_REACTORS
330
650
102
}
330
650
100
AcDbXrecord
280
     1
340
387
  0
XRECORD
  5
652
102
{ACAD_REACTORS
330
650
102
}
330
650
100
AcDbXrecord
280
     1
340
386
  0
DICTIONARYVAR
  5
653
102
{ACAD_REACTORS
330
357
102
}
330
357
100
DictionaryVariables
280
     0
  1
1:1
  0
DICTIONARYVAR
  5
38D
102
{ACAD_REACTORS
330
357
102
}
330
357
100
DictionaryVariables
280
     0
  1
Standard
  0
DICTIONARYVAR
  5
359
102
{ACAD_REACTORS
330
357
102
}
330
357
100
DictionaryVariables
280
     0
  1
2
  0
DICTIONARYVAR
  5
358
102
{ACAD_REACTORS
330
357
102
}
330
357
100
DictionaryVariables
280
     0
  1
1
  0
DICTIONARYVAR
  5
38E
102
{ACAD_REACTORS
330
357
102
}
330
357
100
DictionaryVariables
280
     0
  1

  0
DICTIONARY
  5
656
330
3C3
100
AcDbDictionary
280
     1
281
     1
  3
ACAD_XREC_ROUNDTRIP
360
657
  0
DICTIONARY
  5
654
330
3C2
100
AcDbDictionary
280
     1
281
     1
  3
ACAD_XREC_ROUNDTRIP
360
655
  0
DICTIONARY
  5
658
330
3C4
100
AcDbDictionary
280
     1
281
     1
  3
ACAD_XREC_ROUNDTRIP
360
659
  0
DICTIONARY
  5
662
330
3CA
100
AcDbDictionary
280
     1
281
     1
  3
ACAD_XREC_ROUNDTRIP
360
663
  0
DICTIONARY
  5
666
330
3CC
100
AcDbDictionary
280
     1
281
     1
  3
ACAD_XREC_ROUNDTRIP
360
667
  0
DICTIONARY
  5
664
330
3CB
100
AcDbDictionary
280
     1
281
     1
  3
ACAD_XREC_ROUNDTRIP
360
665
  0
DICTIONARY
  5
668
330
3CD
100
AcDbDictionary
280
     1
281
     1
  3
ACAD_XREC_ROUNDTRIP
360
669
  0
DICTIONARY
  5
670
330
3D1
100
AcDbDictionary
280
     1
281
     1
  3
ACAD_XREC_ROUNDTRIP
360
671
  0
DICTIONARY
  5
678
330
3D5
100
AcDbDictionary
280
     1
281
     1
  3
ACAD_XREC_ROUNDTRIP
360
679
  0
DICTIONARY
  5
66C
330
3CF
100
AcDbDictionary
280
     1
281
     1
  3
ACAD_XREC_ROUNDTRIP
360
66D
  0
DICTIONARY
  5
66E
330
3D0
100
AcDbDictionary
280
     1
281
     1
  3
ACAD_XREC_ROUNDTRIP
360
66F
  0
DICTIONARY
  5
676
330
3D4
100
AcDbDictionary
280
     1
281
     1
  3
ACAD_XREC_ROUNDTRIP
360
677
  0
DICTIONARY
  5
65A
330
3C6
100
AcDbDictionary
280
     1
281
     1
  3
ACAD_XREC_ROUNDTRIP
360
65B
  0
DICTIONARY
  5
65C
330
3C7
100
AcDbDictionary
280
     1
281
     1
  3
ACAD_XREC_ROUNDTRIP
360
65D
  0
DICTIONARY
  5
65E
330
3C8
100
AcDbDictionary
280
     1
281
     1
  3
ACAD_XREC_ROUNDTRIP
360
65F
  0
DICTIONARY
  5
660
330
3C9
100
AcDbDictionary
280
     1
281
     1
  3
ACAD_XREC_ROUNDTRIP
360
661
  0
DICTIONARY
  5
674
330
3D3
100
AcDbDictionary
280
     1
281
     1
  3
ACAD_XREC_ROUNDTRIP
360
675
  0
DICTIONARY
  5
66A
330
3CE
100
AcDbDictionary
280
     1
281
     1
  3
ACAD_XREC_ROUNDTRIP
360
66B
  0
DICTIONARY
  5
672
330
3D2
100
AcDbDictionary
280
     1
281
     1
  3
ACAD_XREC_ROUNDTRIP
360
673
  0
XRECORD
  5
657
102
{ACAD_REACTORS
330
656
102
}
330
656
100
AcDbXrecord
280
     1
102
MATERIAL
148
0.0
149
0.0
149
0.0
 93
        0
 94
      127
282
     0
 72
     1
 77
     1
171
     1
175
     1
179
     1
273
     0
  0
XRECORD
  5
655
102
{ACAD_REACTORS
330
654
102
}
330
654
100
AcDbXrecord
280
     1
102
MATERIAL
148
0.0
149
0.0
149
0.0
 93
        0
 94
      127
282
     0
 72
     1
 77
     1
171
     1
175
     1
179
     1
273
     0
  0
XRECORD
  5
659
102
{ACAD_REACTORS
330
658
102
}
330
658
100
AcDbXrecord
280
     1
102
MATERIAL
148
0.0
149
0.0
149
0.0
 93
        0
 94
      127
282
     0
 72
     1
 77
     1
171
     1
175
     1
179
     1
273
     0
  0
XRECORD
  5
663
102
{ACAD_REACTORS
330
662
102
}
330
662
100
AcDbXrecord
280
     1
102
RTVSPropertyOp0
 70
     1
102
RTVSPropertyOp1
 70
     1
102
RTVSPropertyOp2
 70
     1
102
RTVSPropertyOp3
 70
     1
102
RTVSPropertyOp4
 70
     1
102
RTVSPropertyOp5
 70
     1
102
RTVSPropertyOp6
 70
     1
102
RTVSPropertyOp7
 70
     1
102
RTVSPropertyOp8
 70
     1
102
RTVSPropertyOp9
 70
     1
102
RTVSPropertyOp10
 70
     1
102
RTVSPropertyOp11
 70
     1
102
RTVSPropertyOp12
 70
     1
102
RTVSPropertyOp13
 70
     1
102
RTVSPropertyOp14
 70
     1
102
RTVSPropertyOp15
 70
     1
102
RTVSPropertyOp16
 70
     1
102
RTVSPropertyOp17
 70
     1
102
RTVSPropertyOp18
 70
     1
102
RTVSPropertyOp19
 70
     1
102
RTVSPropertyOp20
 70
     1
102
RTVSPropertyOp21
 70
     1
102
RTVSPropertyOp22
 70
     1
102
RTVSPropertyOp23
 70
     1
102
RTVSPropertyOp24
 70
     1
102
RTVSPropertyOp25
 70
     1
102
RTVSPropertyOp26
 70
     1
102
RTVSPropertyOp27
 70
     1
102
RTVSPropertyOp28
 70
     1
102
RTVSPropertyOp29
 70
     1
102
RTVSPropertyOp30
 70
     1
102
RTVSPropertyOp31
 70
     1
102
RTVSPropertyOp32
 70
     1
  0
XRECORD
  5
667
102
{ACAD_REACTORS
330
666
102
}
330
666
100
AcDbXrecord
280
     1
102
RTVSPropertyOp0
 70
     1
102
RTVSPropertyOp1
 70
     1
102
RTVSPropertyOp2
 70
     1
102
RTVSPropertyOp3
 70
     1
102
RTVSPropertyOp4
 70
     1
102
RTVSPropertyOp5
 70
     1
102
RTVSPropertyOp6
 70
     1
102
RTVSPropertyOp7
 70
     1
102
RTVSPropertyOp8
 70
     1
102
RTVSPropertyOp9
 70
     1
102
RTVSPropertyOp10
 70
     1
102
RTVSPropertyOp11
 70
     1
102
RTVSPropertyOp12
 70
     1
102
RTVSPropertyOp13
 70
     1
102
RTVSPropertyOp14
 70
     1
102
RTVSPropertyOp15
 70
     1
102
RTVSPropertyOp16
 70
     1
102
RTVSPropertyOp17
 70
     1
102
RTVSPropertyOp18
 70
     1
102
RTVSPropertyOp19
 70
     1
102
RTVSPropertyOp20
 70
     1
102
RTVSPropertyOp21
 70
     1
102
RTVSPropertyOp22
 70
     1
102
RTVSPropertyOp23
 70
     1
102
RTVSPropertyOp24
 70
     1
102
RTVSPropertyOp25
 70
     1
102
RTVSPropertyOp26
 70
     1
102
RTVSPropertyOp27
 70
     1
102
RTVSPropertyOp28
 70
     1
102
RTVSPropertyOp29
 70
     1
102
RTVSPropertyOp30
 70
     1
102
RTVSPropertyOp31
 70
     1
102
RTVSPropertyOp32
 70
     1
  0
XRECORD
  5
665
102
{ACAD_REACTORS
330
664
102
}
330
664
100
AcDbXrecord
280
     1
102
RTVSPropertyOp0
 70
     1
102
RTVSPropertyOp1
 70
     1
102
RTVSPropertyOp2
 70
     1
102
RTVSPropertyOp3
 70
     1
102
RTVSPropertyOp4
 70
     1
102
RTVSPropertyOp5
 70
     1
102
RTVSPropertyOp6
 70
     1
102
RTVSPropertyOp7
 70
     1
102
RTVSPropertyOp8
 70
     1
102
RTVSPropertyOp9
 70
     1
102
RTVSPropertyOp10
 70
     1
102
RTVSPropertyOp11
 70
     1
102
RTVSPropertyOp12
 70
     1
102
RTVSPropertyOp13
 70
     1
102
RTVSPropertyOp14
 70
     1
102
RTVSPropertyOp15
 70
     1
102
RTVSPropertyOp16
 70
     1
102
RTVSPropertyOp17
 70
     1
102
RTVSPropertyOp18
 70
     1
102
RTVSPropertyOp19
 70
     1
102
RTVSPropertyOp20
 70
     1
102
RTVSPropertyOp21
 70
     1
102
RTVSPropertyOp22
 70
     1
102
RTVSPropertyOp23
 70
     1
102
RTVSPropertyOp24
 70
     1
102
RTVSPropertyOp25
 70
     1
102
RTVSPropertyOp26
 70
     1
102
RTVSPropertyOp27
 70
     1
102
RTVSPropertyOp28
 70
     1
102
RTVSPropertyOp29
 70
     1
102
RTVSPropertyOp30
 70
     1
102
RTVSPropertyOp31
 70
     1
102
RTVSPropertyOp32
 70
     1
  0
XRECORD
  5
669
102
{ACAD_REACTORS
330
668
102
}
330
668
100
AcDbXrecord
280
     1
102
RTVSPropertyOp0
 70
     1
102
RTVSPropertyOp1
 70
     1
102
RTVSPropertyOp2
 70
     1
102
RTVSPropertyOp3
 70
     1
102
RTVSPropertyOp4
 70
     1
102
RTVSPropertyOp5
 70
     1
102
RTVSPropertyOp6
 70
     1
102
RTVSPropertyOp7
 70
     1
102
RTVSPropertyOp8
 70
     1
102
RTVSPropertyOp9
 70
     1
102
RTVSPropertyOp10
 70
     1
102
RTVSPropertyOp11
 70
     1
102
RTVSPropertyOp12
 70
     1
102
RTVSPropertyOp13
 70
     1
102
RTVSPropertyOp14
 70
     1
102
RTVSPropertyOp15
 70
     1
102
RTVSPropertyOp16
 70
     1
102
RTVSPropertyOp17
 70
     1
102
RTVSPropertyOp18
 70
     1
102
RTVSPropertyOp19
 70
     1
102
RTVSPropertyOp20
 70
     1
102
RTVSPropertyOp21
 70
     1
102
RTVSPropertyOp22
 70
     1
102
RTVSPropertyOp23
 70
     1
102
RTVSPropertyOp24
 70
     1
102
RTVSPropertyOp25
 70
     1
102
RTVSPropertyOp26
 70
     1
102
RTVSPropertyOp27
 70
     1
102
RTVSPropertyOp28
 70
     1
102
RTVSPropertyOp29
 70
     1
102
RTVSPropertyOp30
 70
     1
102
RTVSPropertyOp31
 70
     1
102
RTVSPropertyOp32
 70
     1
  0
XRECORD
  5
671
102
{ACAD_REACTORS
330
670
102
}
330
670
100
AcDbXrecord
280
     1
102
RTVSPropertyOp0
 70
     1
102
RTVSPropertyOp1
 70
     1
102
RTVSPropertyOp2
 70
     1
102
RTVSPropertyOp3
 70
     1
102
RTVSPropertyOp4
 70
     1
102
RTVSPropertyOp5
 70
     1
102
RTVSPropertyOp6
 70
     1
102
RTVSPropertyOp7
 70
     1
102
RTVSPropertyOp8
 70
     1
102
RTVSPropertyOp9
 70
     1
102
RTVSPropertyOp10
 70
     1
102
RTVSPropertyOp11
 70
     1
102
RTVSPropertyOp12
 70
     1
102
RTVSPropertyOp13
 70
     1
102
RTVSPropertyOp14
 70
     1
102
RTVSPropertyOp15
 70
     1
102
RTVSPropertyOp16
 70
     1
102
RTVSPropertyOp17
 70
     1
102
RTVSPropertyOp18
 70
     1
102
RTVSPropertyOp19
 70
     1
102
RTVSPropertyOp20
 70
     1
102
RTVSPropertyOp21
 70
     1
102
RTVSPropertyOp22
 70
     1
102
RTVSPropertyOp23
 70
     1
102
RTVSPropertyOp24
 70
     1
102
RTVSPropertyOp25
 70
     1
102
RTVSPropertyOp26
 70
     1
102
RTVSPropertyOp27
 70
     1
102
RTVSPropertyOp28
 70
     1
102
RTVSPropertyOp29
 70
     1
102
RTVSPropertyOp30
 70
     1
102
RTVSPropertyOp31
 70
     1
102
RTVSPropertyOp32
 70
     1
  0
XRECORD
  5
679
102
{ACAD_REACTORS
330
678
102
}
330
678
100
AcDbXrecord
280
     1
102
RTVSPropertyOp0
 70
     1
102
RTVSPropertyOp1
 70
     1
102
RTVSPropertyOp2
 70
     1
102
RTVSPropertyOp3
 70
     1
102
RTVSPropertyOp4
 70
     1
102
RTVSPropertyOp5
 70
     1
102
RTVSPropertyOp6
 70
     1
102
RTVSPropertyOp7
 70
     1
102
RTVSPropertyOp8
 70
     1
102
RTVSPropertyOp9
 70
     1
102
RTVSPropertyOp10
 70
     1
102
RTVSPropertyOp11
 70
     1
102
RTVSPropertyOp12
 70
     1
102
RTVSPropertyOp13
 70
     1
102
RTVSPropertyOp14
 70
     1
102
RTVSPropertyOp15
 70
     1
102
RTVSPropertyOp16
 70
     1
102
RTVSPropertyOp17
 70
     1
102
RTVSPropertyOp18
 70
     1
102
RTVSPropertyOp19
 70
     1
102
RTVSPropertyOp20
 70
     1
102
RTVSPropertyOp21
 70
     1
102
RTVSPropertyOp22
 70
     1
102
RTVSPropertyOp23
 70
     1
102
RTVSPropertyOp24
 70
     1
102
RTVSPropertyOp25
 70
     1
102
RTVSPropertyOp26
 70
     1
102
RTVSPropertyOp27
 70
     1
102
RTVSPropertyOp28
 70
     1
102
RTVSPropertyOp29
 70
     1
102
RTVSPropertyOp30
 70
     1
102
RTVSPropertyOp31
 70
     1
102
RTVSPropertyOp32
 70
     1
  0
XRECORD
  5
66D
102
{ACAD_REACTORS
330
66C
102
}
330
66C
100
AcDbXrecord
280
     1
102
RTVSPropertyOp0
 70
     1
102
RTVSPropertyOp1
 70
     1
102
RTVSPropertyOp2
 70
     1
102
RTVSPropertyOp3
 70
     1
102
RTVSPropertyOp4
 70
     1
102
RTVSPropertyOp5
 70
     1
102
RTVSPropertyOp6
 70
     1
102
RTVSPropertyOp7
 70
     1
102
RTVSPropertyOp8
 70
     1
102
RTVSPropertyOp9
 70
     1
102
RTVSPropertyOp10
 70
     1
102
RTVSPropertyOp11
 70
     1
102
RTVSPropertyOp12
 70
     1
102
RTVSPropertyOp13
 70
     1
102
RTVSPropertyOp14
 70
     1
102
RTVSPropertyOp15
 70
     1
102
RTVSPropertyOp16
 70
     1
102
RTVSPropertyOp17
 70
     1
102
RTVSPropertyOp18
 70
     1
102
RTVSPropertyOp19
 70
     1
102
RTVSPropertyOp20
 70
     1
102
RTVSPropertyOp21
 70
     1
102
RTVSPropertyOp22
 70
     1
102
RTVSPropertyOp23
 70
     1
102
RTVSPropertyOp24
 70
     1
102
RTVSPropertyOp25
 70
     1
102
RTVSPropertyOp26
 70
     1
102
RTVSPropertyOp27
 70
     1
102
RTVSPropertyOp28
 70
     1
102
RTVSPropertyOp29
 70
     1
102
RTVSPropertyOp30
 70
     1
102
RTVSPropertyOp31
 70
     1
102
RTVSPropertyOp32
 70
     1
  0
XRECORD
  5
66F
102
{ACAD_REACTORS
330
66E
102
}
330
66E
100
AcDbXrecord
280
     1
102
RTVSPropertyOp0
 70
     1
102
RTVSPropertyOp1
 70
     1
102
RTVSPropertyOp2
 70
     1
102
RTVSPropertyOp3
 70
     1
102
RTVSPropertyOp4
 70
     1
102
RTVSPropertyOp5
 70
     1
102
RTVSPropertyOp6
 70
     1
102
RTVSPropertyOp7
 70
     1
102
RTVSPropertyOp8
 70
     1
102
RTVSPropertyOp9
 70
     1
102
RTVSPropertyOp10
 70
     1
102
RTVSPropertyOp11
 70
     1
102
RTVSPropertyOp12
 70
     1
102
RTVSPropertyOp13
 70
     1
102
RTVSPropertyOp14
 70
     1
102
RTVSPropertyOp15
 70
     1
102
RTVSPropertyOp16
 70
     1
102
RTVSPropertyOp17
 70
     1
102
RTVSPropertyOp18
 70
     1
102
RTVSPropertyOp19
 70
     1
102
RTVSPropertyOp20
 70
     1
102
RTVSPropertyOp21
 70
     1
102
RTVSPropertyOp22
 70
     1
102
RTVSPropertyOp23
 70
     1
102
RTVSPropertyOp24
 70
     1
102
RTVSPropertyOp25
 70
     1
102
RTVSPropertyOp26
 70
     1
102
RTVSPropertyOp27
 70
     1
102
RTVSPropertyOp28
 70
     1
102
RTVSPropertyOp29
 70
     1
102
RTVSPropertyOp30
 70
     1
102
RTVSPropertyOp31
 70
     1
102
RTVSPropertyOp32
 70
     1
  0
XRECORD
  5
677
102
{ACAD_REACTORS
330
676
102
}
330
676
100
AcDbXrecord
280
     1
102
RTVSPropertyOp0
 70
     1
102
RTVSPropertyOp1
 70
     1
102
RTVSPropertyOp2
 70
     1
102
RTVSPropertyOp3
 70
     1
102
RTVSPropertyOp4
 70
     1
102
RTVSPropertyOp5
 70
     1
102
RTVSPropertyOp6
 70
     1
102
RTVSPropertyOp7
 70
     1
102
RTVSPropertyOp8
 70
     1
102
RTVSPropertyOp9
 70
     1
102
RTVSPropertyOp10
 70
     1
102
RTVSPropertyOp11
 70
     1
102
RTVSPropertyOp12
 70
     1
102
RTVSPropertyOp13
 70
     1
102
RTVSPropertyOp14
 70
     1
102
RTVSPropertyOp15
 70
     1
102
RTVSPropertyOp16
 70
     1
102
RTVSPropertyOp17
 70
     1
102
RTVSPropertyOp18
 70
     1
102
RTVSPropertyOp19
 70
     1
102
RTVSPropertyOp20
 70
     1
102
RTVSPropertyOp21
 70
     1
102
RTVSPropertyOp22
 70
     1
102
RTVSPropertyOp23
 70
     1
102
RTVSPropertyOp24
 70
     1
102
RTVSPropertyOp25
 70
     1
102
RTVSPropertyOp26
 70
     1
102
RTVSPropertyOp27
 70
     1
102
RTVSPropertyOp28
 70
     1
102
RTVSPropertyOp29
 70
     1
102
RTVSPropertyOp30
 70
     1
102
RTVSPropertyOp31
 70
     1
102
RTVSPropertyOp32
 70
     1
  0
XRECORD
  5
65B
102
{ACAD_REACTORS
330
65A
102
}
330
65A
100
AcDbXrecord
280
     1
102
RTVSPropertyOp0
 70
     1
102
RTVSPropertyOp1
 70
     1
102
RTVSPropertyOp2
 70
     1
102
RTVSPropertyOp3
 70
     1
102
RTVSPropertyOp4
 70
     1
102
RTVSPropertyOp5
 70
     1
102
RTVSPropertyOp6
 70
     1
102
RTVSPropertyOp7
 70
     1
102
RTVSPropertyOp8
 70
     1
102
RTVSPropertyOp9
 70
     1
102
RTVSPropertyOp10
 70
     1
102
RTVSPropertyOp11
 70
     1
102
RTVSPropertyOp12
 70
     1
102
RTVSPropertyOp13
 70
     1
102
RTVSPropertyOp14
 70
     1
102
RTVSPropertyOp15
 70
     1
102
RTVSPropertyOp16
 70
     1
102
RTVSPropertyOp17
 70
     1
102
RTVSPropertyOp18
 70
     1
102
RTVSPropertyOp19
 70
     1
102
RTVSPropertyOp20
 70
     1
102
RTVSPropertyOp21
 70
     1
102
RTVSPropertyOp22
 70
     1
102
RTVSPropertyOp23
 70
     1
102
RTVSPropertyOp24
 70
     1
102
RTVSPropertyOp25
 70
     1
102
RTVSPropertyOp26
 70
     1
102
RTVSPropertyOp27
 70
     1
102
RTVSPropertyOp28
 70
     1
102
RTVSPropertyOp29
 70
     1
102
RTVSPropertyOp30
 70
     1
102
RTVSPropertyOp31
 70
     1
102
RTVSPropertyOp32
 70
     1
  0
XRECORD
  5
65D
102
{ACAD_REACTORS
330
65C
102
}
330
65C
100
AcDbXrecord
280
     1
102
RTVSPropertyOp0
 70
     1
102
RTVSPropertyOp1
 70
     1
102
RTVSPropertyOp2
 70
     1
102
RTVSPropertyOp3
 70
     1
102
RTVSPropertyOp4
 70
     1
102
RTVSPropertyOp5
 70
     1
102
RTVSPropertyOp6
 70
     1
102
RTVSPropertyOp7
 70
     1
102
RTVSPropertyOp8
 70
     1
102
RTVSPropertyOp9
 70
     1
102
RTVSPropertyOp10
 70
     1
102
RTVSPropertyOp11
 70
     1
102
RTVSPropertyOp12
 70
     1
102
RTVSPropertyOp13
 70
     1
102
RTVSPropertyOp14
 70
     1
102
RTVSPropertyOp15
 70
     1
102
RTVSPropertyOp16
 70
     1
102
RTVSPropertyOp17
 70
     1
102
RTVSPropertyOp18
 70
     1
102
RTVSPropertyOp19
 70
     1
102
RTVSPropertyOp20
 70
     1
102
RTVSPropertyOp21
 70
     1
102
RTVSPropertyOp22
 70
     1
102
RTVSPropertyOp23
 70
     1
102
RTVSPropertyOp24
 70
     1
102
RTVSPropertyOp25
 70
     1
102
RTVSPropertyOp26
 70
     1
102
RTVSPropertyOp27
 70
     1
102
RTVSPropertyOp28
 70
     1
102
RTVSPropertyOp29
 70
     1
102
RTVSPropertyOp30
 70
     1
102
RTVSPropertyOp31
 70
     1
102
RTVSPropertyOp32
 70
     1
  0
XRECORD
  5
65F
102
{ACAD_REACTORS
330
65E
102
}
330
65E
100
AcDbXrecord
280
     1
102
RTVSPropertyOp0
 70
     1
102
RTVSPropertyOp1
 70
     1
102
RTVSPropertyOp2
 70
     1
102
RTVSPropertyOp3
 70
     1
102
RTVSPropertyOp4
 70
     1
102
RTVSPropertyOp5
 70
     1
102
RTVSPropertyOp6
 70
     1
102
RTVSPropertyOp7
 70
     1
102
RTVSPropertyOp8
 70
     1
102
RTVSPropertyOp9
 70
     1
102
RTVSPropertyOp10
 70
     1
102
RTVSPropertyOp11
 70
     1
102
RTVSPropertyOp12
 70
     1
102
RTVSPropertyOp13
 70
     1
102
RTVSPropertyOp14
 70
     1
102
RTVSPropertyOp15
 70
     1
102
RTVSPropertyOp16
 70
     1
102
RTVSPropertyOp17
 70
     1
102
RTVSPropertyOp18
 70
     1
102
RTVSPropertyOp19
 70
     1
102
RTVSPropertyOp20
 70
     1
102
RTVSPropertyOp21
 70
     1
102
RTVSPropertyOp22
 70
     1
102
RTVSPropertyOp23
 70
     1
102
RTVSPropertyOp24
 70
     1
102
RTVSPropertyOp25
 70
     1
102
RTVSPropertyOp26
 70
     1
102
RTVSPropertyOp27
 70
     1
102
RTVSPropertyOp28
 70
     1
102
RTVSPropertyOp29
 70
     1
102
RTVSPropertyOp30
 70
     1
102
RTVSPropertyOp31
 70
     1
102
RTVSPropertyOp32
 70
     1
  0
XRECORD
  5
661
102
{ACAD_REACTORS
330
660
102
}
330
660
100
AcDbXrecord
280
     1
102
RTVSPropertyOp0
 70
     1
102
RTVSPropertyOp1
 70
     1
102
RTVSPropertyOp2
 70
     1
102
RTVSPropertyOp3
 70
     1
102
RTVSPropertyOp4
 70
     1
102
RTVSPropertyOp5
 70
     1
102
RTVSPropertyOp6
 70
     1
102
RTVSPropertyOp7
 70
     1
102
RTVSPropertyOp8
 70
     1
102
RTVSPropertyOp9
 70
     1
102
RTVSPropertyOp10
 70
     1
102
RTVSPropertyOp11
 70
     1
102
RTVSPropertyOp12
 70
     1
102
RTVSPropertyOp13
 70
     1
102
RTVSPropertyOp14
 70
     1
102
RTVSPropertyOp15
 70
     1
102
RTVSPropertyOp16
 70
     1
102
RTVSPropertyOp17
 70
     1
102
RTVSPropertyOp18
 70
     1
102
RTVSPropertyOp19
 70
     1
102
RTVSPropertyOp20
 70
     1
102
RTVSPropertyOp21
 70
     1
102
RTVSPropertyOp22
 70
     1
102
RTVSPropertyOp23
 70
     1
102
RTVSPropertyOp24
 70
     1
102
RTVSPropertyOp25
 70
     1
102
RTVSPropertyOp26
 70
     1
102
RTVSPropertyOp27
 70
     1
102
RTVSPropertyOp28
 70
     1
102
RTVSPropertyOp29
 70
     1
102
RTVSPropertyOp30
 70
     1
102
RTVSPropertyOp31
 70
     1
102
RTVSPropertyOp32
 70
     1
  0
XRECORD
  5
675
102
{ACAD_REACTORS
330
674
102
}
330
674
100
AcDbXrecord
280
     1
102
RTVSPropertyOp0
 70
     1
102
RTVSPropertyOp1
 70
     1
102
RTVSPropertyOp2
 70
     1
102
RTVSPropertyOp3
 70
     1
102
RTVSPropertyOp4
 70
     1
102
RTVSPropertyOp5
 70
     1
102
RTVSPropertyOp6
 70
     1
102
RTVSPropertyOp7
 70
     1
102
RTVSPropertyOp8
 70
     1
102
RTVSPropertyOp9
 70
     1
102
RTVSPropertyOp10
 70
     1
102
RTVSPropertyOp11
 70
     1
102
RTVSPropertyOp12
 70
     1
102
RTVSPropertyOp13
 70
     1
102
RTVSPropertyOp14
 70
     1
102
RTVSPropertyOp15
 70
     1
102
RTVSPropertyOp16
 70
     1
102
RTVSPropertyOp17
 70
     1
102
RTVSPropertyOp18
 70
     1
102
RTVSPropertyOp19
 70
     1
102
RTVSPropertyOp20
 70
     1
102
RTVSPropertyOp21
 70
     1
102
RTVSPropertyOp22
 70
     1
102
RTVSPropertyOp23
 70
     1
102
RTVSPropertyOp24
 70
     1
102
RTVSPropertyOp25
 70
     1
102
RTVSPropertyOp26
 70
     1
102
RTVSPropertyOp27
 70
     1
102
RTVSPropertyOp28
 70
     1
102
RTVSPropertyOp29
 70
     1
102
RTVSPropertyOp30
 70
     1
102
RTVSPropertyOp31
 70
     1
102
RTVSPropertyOp32
 70
     1
  0
XRECORD
  5
66B
102
{ACAD_REACTORS
330
66A
102
}
330
66A
100
AcDbXrecord
280
     1
102
RTVSPropertyOp0
 70
     1
102
RTVSPropertyOp1
 70
     1
102
RTVSPropertyOp2
 70
     1
102
RTVSPropertyOp3
 70
     1
102
RTVSPropertyOp4
 70
     1
102
RTVSPropertyOp5
 70
     1
102
RTVSPropertyOp6
 70
     1
102
RTVSPropertyOp7
 70
     1
102
RTVSPropertyOp8
 70
     1
102
RTVSPropertyOp9
 70
     1
102
RTVSPropertyOp10
 70
     1
102
RTVSPropertyOp11
 70
     1
102
RTVSPropertyOp12
 70
     1
102
RTVSPropertyOp13
 70
     1
102
RTVSPropertyOp14
 70
     1
102
RTVSPropertyOp15
 70
     1
102
RTVSPropertyOp16
 70
     1
102
RTVSPropertyOp17
 70
     1
102
RTVSPropertyOp18
 70
     1
102
RTVSPropertyOp19
 70
     1
102
RTVSPropertyOp20
 70
     1
102
RTVSPropertyOp21
 70
     1
102
RTVSPropertyOp22
 70
     1
102
RTVSPropertyOp23
 70
     1
102
RTVSPropertyOp24
 70
     1
102
RTVSPropertyOp25
 70
     1
102
RTVSPropertyOp26
 70
     1
102
RTVSPropertyOp27
 70
     1
102
RTVSPropertyOp28
 70
     1
102
RTVSPropertyOp29
 70
     1
102
RTVSPropertyOp30
 70
     1
102
RTVSPropertyOp31
 70
     1
102
RTVSPropertyOp32
 70
     1
  0
XRECORD
  5
673
102
{ACAD_REACTORS
330
672
102
}
330
672
100
AcDbXrecord
280
     1
102
RTVSPropertyOp0
 70
     1
102
RTVSPropertyOp1
 70
     1
102
RTVSPropertyOp2
 70
     1
102
RTVSPropertyOp3
 70
     1
102
RTVSPropertyOp4
 70
     1
102
RTVSPropertyOp5
 70
     1
102
RTVSPropertyOp6
 70
     1
102
RTVSPropertyOp7
 70
     1
102
RTVSPropertyOp8
 70
     1
102
RTVSPropertyOp9
 70
     1
102
RTVSPropertyOp10
 70
     1
102
RTVSPropertyOp11
 70
     1
102
RTVSPropertyOp12
 70
     1
102
RTVSPropertyOp13
 70
     1
102
RTVSPropertyOp14
 70
     1
102
RTVSPropertyOp15
 70
     1
102
RTVSPropertyOp16
 70
     1
102
RTVSPropertyOp17
 70
     1
102
RTVSPropertyOp18
 70
     1
102
RTVSPropertyOp19
 70
     1
102
RTVSPropertyOp20
 70
     1
102
RTVSPropertyOp21
 70
     1
102
RTVSPropertyOp22
 70
     1
102
RTVSPropertyOp23
 70
     1
102
RTVSPropertyOp24
 70
     1
102
RTVSPropertyOp25
 70
     1
102
RTVSPropertyOp26
 70
     1
102
RTVSPropertyOp27
 70
     1
102
RTVSPropertyOp28
 70
     1
102
RTVSPropertyOp29
 70
     1
102
RTVSPropertyOp30
 70
     1
102
RTVSPropertyOp31
 70
     1
102
RTVSPropertyOp32
 70
     1
  0
ENDSEC
  0
EOF
