0
SECTION
2
HEADER
9
$ACADVER
1
AC1015
9
$DWGCODEPAGE
3
ANSI_1252
9
$HANDSEED
5
13f
9
$ANGBASE
50
0
9
$ANGDIR
70
0
9
$ATTMODE
70
1
9
$AUNITS
70
0
9
$AUPREC
70
0
9
$CECOLOR
62
256
9
$CELTSCALE
40
1
9
$CELTYPE
6
ByLayer
9
$CELWEIGHT
370
-1
9
$CLAYER
8
0
9
$CMLJUST
70
0
9
$CMLSCALE
40
1
9
$CMLSTYLE
2
Standard
9
$DIMSTYLE
2
Standard
9
$TEXTSIZE
40
0.2
9
$TEXTSTYLE
7
Standard
9
$LUNITS
70
2
9
$LUPREC
70
4
9
$EXTNAMES
290
1
9
$INSUNITS
70
4
9
$LTSCALE
40
1
9
$LWDISPLAY
290
0
9
$PDMODE
70
0
9
$PDSIZE
40
0
9
$PLINEGEN
70
0
0
ENDSEC
0
SECTION
2
CLASSES
0
CLASS
1
RASTERVARIABLES
2
AcDbRasterVariables
3
ISM
90
0
280
0
281
0
0
ENDSEC
0
SECTION
2
TABLES
0
TABLE
2
VPORT
5
135
100
AcDbSymbolTable
0
VPORT
5
1
100
AcDbSymbolTableRecord
100
AcDbViewportTableRecord
2
*Active
70
0
10
0
20
0
11
1
21
1
12
-1
22
1
13
0
23
0
14
0.5
24
0.5
15
10
25
10
16
0
26
0
36
1
17
0
27
0
37
0
0
ENDTAB
0
TABLE
2
LTYPE
5
136
100
AcDbSymbolTable
0
LTYPE
5
14
100
AcDbSymbolTableRecord
100
AcDbLinetypeTableRecord
70
0
2
ByBlock
3

72
65
73
0
40
0
0
LTYPE
5
15
100
AcDbSymbolTableRecord
100
AcDbLinetypeTableRecord
70
0
2
ByLayer
3

72
65
73
0
40
0
0
LTYPE
5
16
100
AcDbSymbolTableRecord
100
AcDbLinetypeTableRecord
70
0
2
CONTINUOUS
3
Solid line
72
65
73
0
40
0
0
LTYPE
5
3B
100
AcDbSymbolTableRecord
100
AcDbLinetypeTableRecord
70
0
2
DASHED
3
__ __ __ __ __ __ __ __ __
72
65
73
2
40
25.72
49
12.86
74
0
49
-12.86
74
0
0
LTYPE
5
3C
100
AcDbSymbolTableRecord
100
AcDbLinetypeTableRecord
70
0
2
HIDDEN
3
_ _ _ _ _ _ _ _ _ _ _ _ _ _ _
72
65
73
2
40
0.5
49
0.25
74
0
49
-0.25
74
0
0
LTYPE
5
3D
100
AcDbSymbolTableRecord
100
AcDbLinetypeTableRecord
70
0
2
PHANTOM
3
____ _ _ ____ _ _ _____ _ _ ____
72
65
73
6
40
50.5
49
18
74
0
49
-6.5
74
0
49
6.5
74
0
49
-6.5
74
0
49
6.5
74
0
49
-6.5
74
0
0
LTYPE
5
3E
100
AcDbSymbolTableRecord
100
AcDbLinetypeTableRecord
70
0
2
CENTER
3
____ _ ____ _ ____ _ ____
72
65
73
4
40
47.5
49
22
74
0
49
-8.5
74
0
49
8.5
74
0
49
-8.5
74
0
0
LTYPE
5
3F
100
AcDbSymbolTableRecord
100
AcDbLinetypeTableRecord
70
0
2
DOT
3
.........................
72
65
73
2
40
10
49
0
74
0
49
-10
74
0
0
LTYPE
5
40
100
AcDbSymbolTableRecord
100
AcDbLinetypeTableRecord
70
0
2
DASHDOT
3
_._._._._._._._._._._._._._._._.
72
65
73
4
40
70
49
31
74
0
49
-13
74
0
49
13
74
0
49
-13
74
0
0
ENDTAB
0
TABLE
2
LAYER
5
137
100
AcDbSymbolTable
0
LAYER
5
10
100
AcDbSymbolTableRecord
100
AcDbLayerTableRecord
2
0
70
0
62
7
6
CONTINUOUS
290
1
370
-3
390
0
0
LAYER
5
42
100
AcDbSymbolTableRecord
100
AcDbLayerTableRecord
2
2
70
0
62
7
6
CONTINUOUS
290
1
370
-3
390
0
0
LAYER
5
46
100
AcDbSymbolTableRecord
100
AcDbLayerTableRecord
2
81
70
0
62
-3
6
CONTINUOUS
290
1
370
-3
390
0
0
LAYER
5
49
100
AcDbSymbolTableRecord
100
AcDbLayerTableRecord
2
80
70
0
62
-6
6
CONTINUOUS
290
1
370
-3
390
0
0
LAYER
5
4F
100
AcDbSymbolTableRecord
100
AcDbLayerTableRecord
2
1
70
0
62
4
6
CONTINUOUS
290
1
370
-3
390
0
0
LAYER
5
122
100
AcDbSymbolTableRecord
100
AcDbLayerTableRecord
2
SK2
70
0
62
7
6
CONTINUOUS
290
1
370
-3
390
0
0
LAYER
5
123
100
AcDbSymbolTableRecord
100
AcDbLayerTableRecord
2
SK1
70
0
62
4
6
CONTINUOUS
290
1
370
-3
390
0
0
LAYER
5
124
100
AcDbSymbolTableRecord
100
AcDbLayerTableRecord
2
SK6
70
0
62
5
6
CONTINUOUS
290
1
370
-3
390
0
0
ENDTAB
0
TABLE
2
STYLE
5
138
100
AcDbSymbolTable
0
STYLE
5
11
100
AcDbSymbolTableRecord
100
AcDbTextStyleTableRecord
2
Standard
3
txt
70
0
71
0
40
0
41
1
42
0
50
0
0
STYLE
5
9F
100
AcDbSymbolTableRecord
100
AcDbTextStyleTableRecord
2
DEFAULT
3
simplex.shx
70
0
71
0
40
0
41
1
42
0
50
0
0
STYLE
5
C2
100
AcDbSymbolTableRecord
100
AcDbTextStyleTableRecord
2
DWGDirectTextStyle
3
SIMPLEX
70
0
71
0
40
0
41
1
42
0
50
0
0
ENDTAB
0
TABLE
2
DIMSTYLE
5
139
100
AcDbSymbolTable
100
AcDbDimStyleTable
0
DIMSTYLE
105
27
100
AcDbSymbolTableRecord
100
AcDbDimStyleTableRecord
2
Standard
70
0
3
<>
41
0.18
42
0.0625
44
0.18
140
0.18
147
0.09
73
0
74
0
77
1
271
2
275
0
278
52
280
0
340
11
0
ENDTAB
0
TABLE
2
VIEW
5
13a
100
AcDbSymbolTable
0
ENDTAB
0
TABLE
2
UCS
5
13b
100
AcDbSymbolTable
0
ENDTAB
0
TABLE
2
APPID
5
13c
100
AcDbSymbolTable
0
APPID
5
12
100
AcDbSymbolTableRecord
100
AcDbRegAppTableRecord
2
ACAD
70
0
0
ENDTAB
0
TABLE
2
BLOCK_RECORD
5
13d
100
AcDbSymbolTable
0
BLOCK_RECORD
5
1F
100
AcDbSymbolTableRecord
100
AcDbBlockTableRecord
2
*Model_Space
340
0
70
0
0
BLOCK_RECORD
5
1B
100
AcDbSymbolTableRecord
100
AcDbBlockTableRecord
2
*Paper_Space
340
0
70
0
0
BLOCK_RECORD
5
23
100
AcDbSymbolTableRecord
100
AcDbBlockTableRecord
2
*Paper_Space0
340
0
70
0
0
BLOCK_RECORD
5
C4
100
AcDbSymbolTableRecord
100
AcDbBlockTableRecord
2
DimnDraft3D1
340
0
70
0
0
BLOCK_RECORD
5
D2
100
AcDbSymbolTableRecord
100
AcDbBlockTableRecord
2
_CLOSED
340
0
70
0
0
BLOCK_RECORD
5
D9
100
AcDbSymbolTableRecord
100
AcDbBlockTableRecord
2
DimnDraft3D2
340
0
70
0
0
BLOCK_RECORD
5
E7
100
AcDbSymbolTableRecord
100
AcDbBlockTableRecord
2
DimnDraft3D3
340
0
70
0
0
BLOCK_RECORD
5
F5
100
AcDbSymbolTableRecord
100
AcDbBlockTableRecord
2
DimnDraft3D4
340
0
70
0
0
ENDTAB
0
ENDSEC
0
SECTION
2
BLOCKS
0
BLOCK
5
20
100
AcDbEntity
8
0
100
AcDbBlockBegin
2
*Model_Space
70
0
10
0
20
0
30
0
3
*Model_Space
0
ENDBLK
5
21
100
AcDbEntity
8
0
100
AcDbBlockEnd
0
BLOCK
5
1C
100
AcDbEntity
8
0
100
AcDbBlockBegin
2
*Paper_Space
70
0
10
0
20
0
30
0
3
*Paper_Space
0
ENDBLK
5
1D
100
AcDbEntity
8
0
100
AcDbBlockEnd
0
BLOCK
5
24
100
AcDbEntity
8
0
100
AcDbBlockBegin
2
*Paper_Space0
70
0
10
0
20
0
30
0
3
*Paper_Space0
0
ENDBLK
5
25
100
AcDbEntity
8
0
100
AcDbBlockEnd
0
BLOCK
5
CF
100
AcDbEntity
8
0
100
AcDbBlockBegin
2
DimnDraft3D1
70
0
10
0
20
0
30
0
3
DimnDraft3D1
0
MTEXT
5
C5
100
AcDbEntity
8
2
62
256
6
ByLayer
370
-1
48
1
60
0
100
AcDbMText
10
17.809013
20
7.650975
30
0
210
0
220
0
230
1
1
\W01.000;\fsimplex.shx,bigfont.shx;72%%d30' 
40
4.5
41
0
44
1.084337
50
36.2500000000009
71
7
72
5
7
DEFAULT
0
LINE
5
C6
100
AcDbEntity
8
2
62
256
6
ByLayer
370
-1
48
1
60
0
100
AcDbLine
10
31.5
20
2.856248
30
0
11
31.5
21
15.265446
31
0
39
0
210
0
220
0
230
1
0
LINE
5
C7
100
AcDbEntity
8
2
62
256
6
ByLayer
370
-1
48
1
60
0
100
AcDbLine
10
28.083784
20
1.721629
30
0
11
17.555756
21
5.041103
31
0
39
0
210
0
220
0
230
1
0
ARC
5
C8
100
AcDbEntity
8
2
62
256
6
ByLayer
370
-1
48
1
60
0
100
AcDbCircle
39
0
10
31.5
20
0.6445
30
0
40
12.6209462198654
210
0
220
0
230
1
100
AcDbArc
50
48.286977
51
204.213023
0
LINE
5
C9
100
AcDbEntity
8
2
62
256
6
ByLayer
370
-1
48
1
60
0
100
AcDbLine
10
31.5
20
13.265446
30
0
11
34.694921
21
13.484118
31
0
39
0
210
0
220
0
230
1
0
LINE
5
CA
100
AcDbEntity
8
2
62
256
6
ByLayer
370
-1
48
1
60
0
100
AcDbLine
10
31.5
20
13.265446
30
0
11
34.642656
21
12.64976
31
0
39
0
210
0
220
0
230
1
0
LINE
5
CB
100
AcDbEntity
8
2
62
256
6
ByLayer
370
-1
48
1
60
0
100
AcDbLine
10
34.694921
20
13.484118
30
0
11
34.642656
21
12.64976
31
0
39
0
210
0
220
0
230
1
0
LINE
5
CC
100
AcDbEntity
8
2
62
256
6
ByLayer
370
-1
48
1
60
0
100
AcDbLine
10
19.46319
20
4.439692
30
0
11
19.105366
21
1.25735
31
0
39
0
210
0
220
0
230
1
0
LINE
5
CD
100
AcDbEntity
8
2
62
256
6
ByLayer
370
-1
48
1
60
0
100
AcDbLine
10
19.46319
20
4.439692
30
0
11
18.293907
21
1.458394
31
0
39
0
210
0
220
0
230
1
0
LINE
5
CE
100
AcDbEntity
8
2
62
256
6
ByLayer
370
-1
48
1
60
0
100
AcDbLine
10
19.105366
20
1.25735
30
0
11
18.293907
21
1.458394
31
0
39
0
210
0
220
0
230
1
0
ENDBLK
5
D0
100
AcDbEntity
8
0
100
AcDbBlockEnd
0
BLOCK
5
D3
100
AcDbEntity
8
0
100
AcDbBlockBegin
2
_CLOSED
70
0
10
0
20
0
30
0
3
_CLOSED
0
LINE
5
D5
100
AcDbEntity
8
0
62
256
6
ByLayer
370
-2
48
1
60
0
100
AcDbLine
10
-1
20
0.166667
30
0
11
0
21
0
31
0
39
0
210
0
220
0
230
1
0
LINE
5
D6
100
AcDbEntity
8
0
62
256
6
ByLayer
370
-2
48
1
60
0
100
AcDbLine
10
0
20
0
30
0
11
-1
21
-0.166667
31
0
39
0
210
0
220
0
230
1
0
LINE
5
D7
100
AcDbEntity
8
0
62
256
6
ByLayer
370
-2
48
1
60
0
100
AcDbLine
10
-1
20
0.166667
30
0
11
-1
21
-0.166667
31
0
39
0
210
0
220
0
230
1
0
LINE
5
D8
100
AcDbEntity
8
0
62
256
6
ByLayer
370
-2
48
1
60
0
100
AcDbLine
10
0
20
0
30
0
11
-1
21
0
31
0
39
0
210
0
220
0
230
1
0
ENDBLK
5
D4
100
AcDbEntity
8
0
100
AcDbBlockEnd
0
BLOCK
5
E4
100
AcDbEntity
8
0
100
AcDbBlockBegin
2
DimnDraft3D2
70
0
10
0
20
0
30
0
3
DimnDraft3D2
0
MTEXT
5
DA
100
AcDbEntity
8
SK2
62
256
6
ByLayer
370
-1
48
1
60
0
100
AcDbMText
10
-130.725
20
-1.503947
30
0
210
0
220
0
230
1
1
\W01.000;\fsimplex.shx,bigfont.shx;25 
40
4.5
41
0
44
1.084337
50
90
71
7
72
5
7
DEFAULT
0
LINE
5
DB
100
AcDbEntity
8
SK2
62
256
6
ByLayer
370
-1
48
1
60
0
100
AcDbLine
10
-121.85
20
-12.4375
30
0
11
-131.6
21
-12.4375
31
0
39
0
210
0
220
0
230
1
0
LINE
5
DC
100
AcDbEntity
8
SK2
62
256
6
ByLayer
370
-1
48
1
60
0
100
AcDbLine
10
-121.85
20
12.4375
30
0
11
-131.6
21
12.4375
31
0
39
0
210
0
220
0
230
1
0
LINE
5
DD
100
AcDbEntity
8
SK2
62
256
6
ByLayer
370
-1
48
1
60
0
100
AcDbLine
10
-129.6
20
-12.4375
30
0
11
-129.6
21
12.4375
31
0
39
0
210
0
220
0
230
1
0
LINE
5
DE
100
AcDbEntity
8
SK2
62
256
6
ByLayer
370
-1
48
1
60
0
100
AcDbLine
10
-129.6
20
-12.4375
30
0
11
-130.017997
21
-9.262502
31
0
39
0
210
0
220
0
230
1
0
LINE
5
DF
100
AcDbEntity
8
SK2
62
256
6
ByLayer
370
-1
48
1
60
0
100
AcDbLine
10
-129.6
20
-12.4375
30
0
11
-129.182003
21
-9.262498
31
0
39
0
210
0
220
0
230
1
0
LINE
5
E0
100
AcDbEntity
8
SK2
62
256
6
ByLayer
370
-1
48
1
60
0
100
AcDbLine
10
-130.017997
20
-9.262502
30
0
11
-129.182003
21
-9.262498
31
0
39
0
210
0
220
0
230
1
0
LINE
5
E1
100
AcDbEntity
8
SK2
62
256
6
ByLayer
370
-1
48
1
60
0
100
AcDbLine
10
-129.6
20
12.4375
30
0
11
-129.182003
21
9.262502
31
0
39
0
210
0
220
0
230
1
0
LINE
5
E2
100
AcDbEntity
8
SK2
62
256
6
ByLayer
370
-1
48
1
60
0
100
AcDbLine
10
-129.6
20
12.4375
30
0
11
-130.017997
21
9.262498
31
0
39
0
210
0
220
0
230
1
0
LINE
5
E3
100
AcDbEntity
8
SK2
62
256
6
ByLayer
370
-1
48
1
60
0
100
AcDbLine
10
-129.182003
20
9.262502
30
0
11
-130.017997
21
9.262498
31
0
39
0
210
0
220
0
230
1
0
ENDBLK
5
E5
100
AcDbEntity
8
0
100
AcDbBlockEnd
0
BLOCK
5
F2
100
AcDbEntity
8
0
100
AcDbBlockBegin
2
DimnDraft3D3
70
0
10
0
20
0
30
0
3
DimnDraft3D3
0
MTEXT
5
E8
100
AcDbEntity
8
2
62
256
6
ByLayer
370
-1
48
1
60
0
100
AcDbMText
10
57.625
20
12.0245
30
0
210
0
220
0
230
1
1
\W01.000;\fsimplex.shx,bigfont.shx;13.02 
40
4.5
41
0
44
1.084337
50
90
71
7
72
5
7
DEFAULT
0
LINE
5
E9
100
AcDbEntity
8
2
62
256
6
ByLayer
370
-1
48
1
60
0
100
AcDbLine
10
2
20
-12.4375
30
0
11
60.75
21
-12.4375
31
0
39
0
210
0
220
0
230
1
0
LINE
5
EA
100
AcDbEntity
8
2
62
256
6
ByLayer
370
-1
48
1
60
0
100
AcDbLine
10
33.5
20
0.6445
30
0
11
60.75
21
0.6445
31
0
39
0
210
0
220
0
230
1
0
LINE
5
EB
100
AcDbEntity
8
2
62
256
6
ByLayer
370
-1
48
1
60
0
100
AcDbLine
10
58.75
20
-12.4375
30
0
11
58.75
21
23.404763
31
0
39
0
210
0
220
0
230
1
0
LINE
5
EC
100
AcDbEntity
8
2
62
256
6
ByLayer
370
-1
48
1
60
0
100
AcDbLine
10
58.75
20
-12.4375
30
0
11
58.332003
21
-9.262502
31
0
39
0
210
0
220
0
230
1
0
LINE
5
ED
100
AcDbEntity
8
2
62
256
6
ByLayer
370
-1
48
1
60
0
100
AcDbLine
10
58.75
20
-12.4375
30
0
11
59.167997
21
-9.262498
31
0
39
0
210
0
220
0
230
1
0
LINE
5
EE
100
AcDbEntity
8
2
62
256
6
ByLayer
370
-1
48
1
60
0
100
AcDbLine
10
58.332003
20
-9.262502
30
0
11
59.167997
21
-9.262498
31
0
39
0
210
0
220
0
230
1
0
LINE
5
EF
100
AcDbEntity
8
2
62
256
6
ByLayer
370
-1
48
1
60
0
100
AcDbLine
10
58.75
20
0.6445
30
0
11
59.167997
21
-2.530498
31
0
39
0
210
0
220
0
230
1
0
LINE
5
F0
100
AcDbEntity
8
2
62
256
6
ByLayer
370
-1
48
1
60
0
100
AcDbLine
10
58.75
20
0.6445
30
0
11
58.332003
21
-2.530502
31
0
39
0
210
0
220
0
230
1
0
LINE
5
F1
100
AcDbEntity
8
2
62
256
6
ByLayer
370
-1
48
1
60
0
100
AcDbLine
10
59.167997
20
-2.530498
30
0
11
58.332003
21
-2.530502
31
0
39
0
210
0
220
0
230
1
0
ENDBLK
5
F3
100
AcDbEntity
8
0
100
AcDbBlockEnd
0
BLOCK
5
100
100
AcDbEntity
8
0
100
AcDbBlockBegin
2
DimnDraft3D4
70
0
10
0
20
0
30
0
3
DimnDraft3D4
0
MTEXT
5
F6
100
AcDbEntity
8
SK2
62
256
6
ByLayer
370
-1
48
1
60
0
100
AcDbMText
10
-46.768421
20
21.731248
30
0
210
0
220
0
230
1
1
\W01.000;\fsimplex.shx,bigfont.shx;150 
40
4.5
41
0
44
1.084337
50
0
71
7
72
5
7
DEFAULT
0
LINE
5
F7
100
AcDbEntity
8
SK2
62
256
6
ByLayer
370
-1
48
1
60
0
100
AcDbLine
10
31.5
20
2.856248
30
0
11
31.5
21
22.606248
31
0
39
0
210
0
220
0
230
1
0
LINE
5
F8
100
AcDbEntity
8
SK2
62
256
6
ByLayer
370
-1
48
1
60
0
100
AcDbLine
10
-119.85
20
14.4375
30
0
11
-119.85
21
22.606248
31
0
39
0
210
0
220
0
230
1
0
LINE
5
F9
100
AcDbEntity
8
SK2
62
256
6
ByLayer
370
-1
48
1
60
0
100
AcDbLine
10
31.5
20
20.606248
30
0
11
-119.85
21
20.606248
31
0
39
0
210
0
220
0
230
1
0
LINE
5
FA
100
AcDbEntity
8
SK2
62
256
6
ByLayer
370
-1
48
1
60
0
100
AcDbLine
10
31.5
20
20.606248
30
0
11
28.325002
21
20.188252
31
0
39
0
210
0
220
0
230
1
0
LINE
5
FB
100
AcDbEntity
8
SK2
62
256
6
ByLayer
370
-1
48
1
60
0
100
AcDbLine
10
31.5
20
20.606248
30
0
11
28.324998
21
21.024245
31
0
39
0
210
0
220
0
230
1
0
LINE
5
FC
100
AcDbEntity
8
SK2
62
256
6
ByLayer
370
-1
48
1
60
0
100
AcDbLine
10
28.325002
20
20.188252
30
0
11
28.324998
21
21.024245
31
0
39
0
210
0
220
0
230
1
0
LINE
5
FD
100
AcDbEntity
8
SK2
62
256
6
ByLayer
370
-1
48
1
60
0
100
AcDbLine
10
-119.85
20
20.606248
30
0
11
-116.675002
21
21.024245
31
0
39
0
210
0
220
0
230
1
0
LINE
5
FE
100
AcDbEntity
8
SK2
62
256
6
ByLayer
370
-1
48
1
60
0
100
AcDbLine
10
-119.85
20
20.606248
30
0
11
-116.674998
21
20.188252
31
0
39
0
210
0
220
0
230
1
0
LINE
5
FF
100
AcDbEntity
8
SK2
62
256
6
ByLayer
370
-1
48
1
60
0
100
AcDbLine
10
-116.675002
20
21.024245
30
0
11
-116.674998
21
20.188252
31
0
39
0
210
0
220
0
230
1
0
ENDBLK
5
101
100
AcDbEntity
8
0
100
AcDbBlockEnd
0
ENDSEC
0
SECTION
2
ENTITIES
0
ARC
5
68
100
AcDbEntity
8
1
62
256
6
ByLayer
370
-1
48
1
60
0
100
AcDbCircle
39
0
10
-22.283575
20
11.003401
30
0
40
8.1
210
0
220
0
230
-1
100
AcDbArc
50
318.487429
51
325.527047
0
ARC
5
69
100
AcDbEntity
8
1
62
256
6
ByLayer
370
-1
48
1
60
0
100
AcDbCircle
39
0
10
4.343361
20
-1.262139
30
0
40
1.625
210
0
220
0
230
1
100
AcDbArc
50
188.390012
51
287.5
0
ARC
5
6A
100
AcDbEntity
8
1
62
256
6
ByLayer
370
-1
48
1
60
0
100
AcDbCircle
39
0
10
22.283575
20
11.003401
30
0
40
8.1
210
0
220
0
230
1
100
AcDbArc
50
225.021245
51
229.527763
0
ARC
5
6B
100
AcDbEntity
8
1
62
256
6
ByLayer
370
-1
48
1
60
0
100
AcDbCircle
39
0
10
-2.688134
20
0
30
0
40
1.5
210
0
220
0
230
-1
100
AcDbArc
50
281.485292
51
150.724408
0
ARC
5
6C
100
AcDbEntity
8
1
62
256
6
ByLayer
370
-1
48
1
60
0
100
AcDbCircle
39
0
10
-22.283575
20
-11.003401
30
0
40
8.09999999999997
210
0
220
0
230
-1
100
AcDbArc
50
34.472953
51
41.512571
0
ARC
5
6D
100
AcDbEntity
8
1
62
256
6
ByLayer
370
-1
48
1
60
0
100
AcDbCircle
39
0
10
22.283575
20
-11.003401
30
0
40
8.09999999999997
210
0
220
0
230
1
100
AcDbArc
50
130.472237
51
134.978755
0
ARC
5
6E
100
AcDbEntity
8
1
62
256
6
ByLayer
370
-1
48
1
60
0
100
AcDbCircle
39
0
10
2.688134
20
0
30
0
40
1.5
210
0
220
0
230
1
100
AcDbArc
50
271.819174
51
330.727371
0
ARC
5
6F
100
AcDbEntity
8
1
62
256
6
ByLayer
370
-1
48
1
60
0
100
AcDbCircle
39
0
10
4.343361
20
-1.262139
30
0
40
1.9649227615765
210
0
220
0
230
1
100
AcDbArc
50
186.071372
51
287.5
0
ARC
5
70
100
AcDbEntity
8
1
62
256
6
ByLayer
370
-1
48
1
60
0
100
AcDbCircle
39
0
10
17.508134
20
0
30
0
40
1.2065
210
0
220
0
230
1
100
AcDbArc
50
330.079943
51
29.920057
0
ARC
5
71
100
AcDbEntity
8
1
62
256
6
ByLayer
370
-1
48
1
60
0
100
AcDbCircle
39
0
10
-17.508134
20
0
30
0
40
1.6765
210
0
220
0
230
-1
100
AcDbArc
50
180
51
239.840113
0
ARC
5
74
100
AcDbEntity
8
1
62
256
6
ByLayer
370
-1
48
1
60
0
100
AcDbCircle
39
0
10
-17.508134
20
0
30
0
40
1.2065
210
0
220
0
230
-1
100
AcDbArc
50
29.920057
51
86.044721
0
ARC
5
75
100
AcDbEntity
8
1
62
256
6
ByLayer
370
-1
48
1
60
0
100
AcDbCircle
39
0
10
-17.508134
20
0
30
0
40
1.6765
210
0
220
0
230
-1
100
AcDbArc
50
300.159887
51
0
0
ARC
5
76
100
AcDbEntity
8
1
62
256
6
ByLayer
370
-1
48
1
60
0
100
AcDbCircle
39
0
10
17.508134
20
0
30
0
40
1.2065
210
0
220
0
230
1
100
AcDbArc
50
150.079943
51
209.920057
0
ARC
5
78
100
AcDbEntity
8
1
62
256
6
ByLayer
370
-1
48
1
60
0
100
AcDbCircle
39
0
10
-17.508134
20
0
30
0
40
1.6765
210
0
220
0
230
-1
100
AcDbArc
50
59.840113
51
120.159887
0
ARC
5
79
100
AcDbEntity
8
1
62
256
6
ByLayer
370
-1
48
1
60
0
100
AcDbCircle
39
0
10
17.508134
20
0
30
0
40
1.2065
210
0
220
0
230
1
100
AcDbArc
50
29.920057
51
86.044721
0
ARC
5
7A
100
AcDbEntity
8
1
62
256
6
ByLayer
370
-1
48
1
60
0
100
AcDbCircle
39
0
10
-17.508134
20
0
30
0
40
1.6765
210
0
220
0
230
-1
100
AcDbArc
50
120.159887
51
180
0
ARC
5
7C
100
AcDbEntity
8
1
62
256
6
ByLayer
370
-1
48
1
60
0
100
AcDbCircle
39
0
10
-17.508134
20
0
30
0
40
1.6765
210
0
220
0
230
-1
100
AcDbArc
50
0
51
59.840113
0
ARC
5
7D
100
AcDbEntity
8
1
62
256
6
ByLayer
370
-1
48
1
60
0
100
AcDbCircle
39
0
10
-17.508134
20
0
30
0
40
1.2065
210
0
220
0
230
-1
100
AcDbArc
50
86.044721
51
93.955279
0
ARC
5
7E
100
AcDbEntity
8
1
62
256
6
ByLayer
370
-1
48
1
60
0
100
AcDbCircle
39
0
10
-17.508134
20
0
30
0
40
1.2065
210
0
220
0
230
-1
100
AcDbArc
50
266.044721
51
273.955279
0
ARC
5
7F
100
AcDbEntity
8
1
62
256
6
ByLayer
370
-1
48
1
60
0
100
AcDbCircle
39
0
10
17.508134
20
0
30
0
40
1.2065
210
0
220
0
230
1
100
AcDbArc
50
209.920057
51
266.044721
0
ARC
5
80
100
AcDbEntity
8
1
62
256
6
ByLayer
370
-1
48
1
60
0
100
AcDbCircle
39
0
10
-17.508134
20
0
30
0
40
1.6765
210
0
220
0
230
-1
100
AcDbArc
50
239.840113
51
300.159887
0
ARC
5
81
100
AcDbEntity
8
1
62
256
6
ByLayer
370
-1
48
1
60
0
100
AcDbCircle
39
0
10
17.508134
20
0
30
0
40
1.2065
210
0
220
0
230
1
100
AcDbArc
50
273.955279
51
330.079943
0
CIRCLE
5
72
100
AcDbEntity
8
1
62
256
6
ByLayer
370
-1
48
1
60
0
100
AcDbCircle
10
-17.508134
20
0
30
0
40
3
39
0
210
0
220
0
230
-1
0
CIRCLE
5
73
100
AcDbEntity
8
1
62
256
6
ByLayer
370
-1
48
1
60
0
100
AcDbCircle
10
-17.508134
20
0
30
0
40
2.62500000000002
39
0
210
0
220
0
230
-1
0
CIRCLE
5
77
100
AcDbEntity
8
1
62
256
6
ByLayer
370
-1
48
1
60
0
100
AcDbCircle
10
-17.508134
20
0
30
0
40
3.04453416176668
39
0
210
0
220
0
230
-1
0
CIRCLE
5
7B
100
AcDbEntity
8
1
62
256
6
ByLayer
370
-1
48
1
60
0
100
AcDbCircle
10
-17.508134
20
0
30
0
40
2.94445165909343
39
0
210
0
220
0
230
-1
0
CIRCLE
5
82
100
AcDbEntity
8
1
62
256
6
ByLayer
370
-1
48
1
60
0
100
AcDbCircle
10
-17.508134
20
0
30
0
40
1.80000000000002
39
0
210
0
220
0
230
-1
0
ELLIPSE
5
83
100
AcDbEntity
8
1
62
256
6
ByLayer
370
-1
48
1
60
0
100
AcDbEllipse
10
22.283575
20
11.003401
30
0
11
-5.72756485385751
21
5.72756485385751
31
0
210
0
220
0
230
1
40
1
41
1.50992921156164
42
1.57116711648938
0
ELLIPSE
5
84
100
AcDbEntity
8
1
62
256
6
ByLayer
370
-1
48
1
60
0
100
AcDbEllipse
10
22.283575
20
-11.003401
30
0
11
-5.72756489937089
21
-5.72756489937089
31
0
210
0
220
0
230
1
40
1
41
-1.57116711648616
42
-1.50992921204563
0
ELLIPSE
5
85
100
AcDbEntity
8
1
62
256
6
ByLayer
370
-1
48
1
60
0
100
AcDbEllipse
10
4.291929
20
0
30
0
11
-0.797032951009418
21
0
31
0
210
0
220
0
230
-1
40
0.996195
41
-1.14164284817892
42
1.14164284817398
0
ELLIPSE
5
86
100
AcDbEntity
8
1
62
256
6
ByLayer
370
-1
48
1
60
0
100
AcDbEllipse
10
17.508134
20
4.572606
30
0
11
2.45949642829371E-17
21
0.401679514501433
31
0
210
0
220
0
230
1
40
0.995819
41
-0.304233038584719
42
0.304233038584717
0
ELLIPSE
5
87
100
AcDbEntity
8
1
62
256
6
ByLayer
370
-1
48
1
60
0
100
AcDbEllipse
10
30.724339
20
0
30
0
11
0.797032951009418
21
9.76051616011933E-17
31
0
210
0
220
0
230
-1
40
0.996195
41
-1.14164284817913
42
1.14164284817385
0
ELLIPSE
5
88
100
AcDbEntity
8
1
62
256
6
ByLayer
370
-1
48
1
60
0
100
AcDbEllipse
10
17.508134
20
-4.572606
30
0
11
2.82978183566985E-16
21
-0.401679514501433
31
0
210
0
220
0
230
1
40
0.995819
41
-0.304233038584717
42
0.304233038584715
0
POINT
5
41
100
AcDbEntity
8
2
62
256
6
ByLayer
370
-1
48
1
60
0
100
AcDbPoint
10
31.5
20
0.582002
30
0
39
0
210
0
220
0
230
1
50
360
0
POINT
5
43
100
AcDbEntity
8
SK2
62
256
6
ByLayer
370
-1
48
1
60
0
100
AcDbPoint
10
31.5
20
0.582002
30
0
39
0
210
0
220
0
230
1
50
360
0
POINT
5
45
100
AcDbEntity
8
81
62
256
6
ByLayer
370
-1
48
1
60
0
100
AcDbPoint
10
31.5
20
0.582002
30
0
39
0
210
0
220
0
230
1
50
360
0
POINT
5
47
100
AcDbEntity
8
SK2
62
256
6
ByLayer
370
-1
48
1
60
0
100
AcDbPoint
10
31.5
20
0.582002
30
0
39
0
210
0
220
0
230
1
50
360
0
POINT
5
48
100
AcDbEntity
8
80
62
256
6
ByLayer
370
-1
48
1
60
0
100
AcDbPoint
10
0
20
0
30
0
39
0
210
0
220
0
230
1
50
360
0
POINT
5
4A
100
AcDbEntity
8
SK2
62
256
6
ByLayer
370
-1
48
1
60
0
100
AcDbPoint
10
31.5
20
0.582002
30
0
39
0
210
0
220
0
230
1
50
360
0
POINT
5
4B
100
AcDbEntity
8
SK2
62
256
6
ByLayer
370
-1
48
1
60
0
100
AcDbPoint
10
31.5
20
0.582002
30
0
39
0
210
0
220
0
230
1
50
360
0
SPLINE
5
89
100
AcDbEntity
8
1
62
256
6
ByLayer
370
-1
48
1
60
0
100
AcDbSpline
70
4
71
3
72
10
73
6
40
0
40
0
40
0
40
0
40
0.452027044333859
40
0.452027044333859
40
1
40
1
40
1
40
1
41
1
10
2.38945950137796
20
-1.46996377395018
30
0
41
1
10
2.44209606497375
20
-1.48065873369921
30
0
41
1
10
2.49462036653469
20
-1.48839164813558
30
0
41
1
10
2.61026933323674
20
-1.49932955102801
30
0
41
1
10
2.6732766293963
20
-1.50122828327127
30
0
41
1
10
2.73575194359364
20
-1.4992439891345
30
0
0
SPLINE
5
8A
100
AcDbEntity
8
1
62
256
6
ByLayer
370
-1
48
1
60
0
100
AcDbSpline
70
4
71
3
72
14
73
10
40
0
40
0
40
0
40
0
40
0.282169922576049
40
0.282169922576049
40
0.566902245317938
40
0.566902245317938
40
0.824523972080197
40
0.824523972080197
40
1
40
1
40
1
40
1
41
1
10
17.0202231015508
20
1.40233678765259
30
0
41
1
10
16.9966096217825
20
1.42622880348165
30
0
41
1
10
16.968031450512
20
1.4466909539874
30
0
41
1
10
16.9045374862175
20
1.4764275995237
30
0
41
1
10
16.868554862125
20
1.48600316007526
30
0
41
1
10
16.7986183112113
20
1.49063981766281
30
0
41
1
10
16.7637353740868
20
1.48700486817597
30
0
41
1
10
16.7082922367642
20
1.47083834363136
30
0
41
1
10
16.6862419700298
20
1.46140433355328
30
0
41
1
10
16.6658357752545
20
1.44954676283939
30
0
0
SPLINE
5
8B
100
AcDbEntity
8
1
62
256
6
ByLayer
370
-1
48
1
60
0
100
AcDbSpline
70
4
71
3
72
16
73
12
40
0
40
0
40
0
40
0
40
0.0624450082614425
40
0.0624450082614425
40
0.283207995985821
40
0.283207995985821
40
0.506745688833533
40
0.506745688833533
40
0.744607284736935
40
0.744607284736935
40
1
40
1
40
1
40
1
41
1
10
18.3504323825751
20
1.44954676283939
30
0
41
1
10
18.3431403957302
20
1.4537839687766
30
0
41
1
10
18.3356559843834
20
1.45770925194813
30
0
41
1
10
18.3012534511947
20
1.47389408653848
30
0
41
1
10
18.2722392148979
20
1.48241558863111
30
0
41
1
10
18.2141277404339
20
1.49038000158393
30
0
41
1
10
18.184297622341
20
1.48983232118161
30
0
41
1
10
18.1259867865593
20
1.48018142672061
30
0
41
1
10
18.0969795778381
20
1.47044293260629
30
0
41
1
10
18.0428094369137
20
1.44276136963694
30
0
41
1
10
18.0174186933204
20
1.4239625403809
30
0
41
1
10
17.9960450562787
20
1.40233678765256
30
0
0
SPLINE
5
8C
100
AcDbEntity
8
1
62
256
6
ByLayer
370
-1
48
1
60
0
100
AcDbSpline
70
4
71
3
72
16
73
12
40
0
40
0
40
0
40
0
40
0.0624450082614421
40
0.0624450082614421
40
0.283207995985819
40
0.283207995985819
40
0.50674568883353
40
0.50674568883353
40
0.74460728473693
40
0.74460728473693
40
1
40
1
40
1
40
1
41
1
10
16.6658357752545
20
-1.44954676283442
30
0
41
1
10
16.6731277620993
20
-1.4537839687716
30
0
41
1
10
16.6806121734462
20
-1.45770925194316
30
0
41
1
10
16.7150147066348
20
-1.47389408653348
30
0
41
1
10
16.7440289429317
20
-1.48241558862614
30
0
41
1
10
16.8021404173956
20
-1.49038000157896
30
0
41
1
10
16.8319705354885
20
-1.48983232117661
30
0
41
1
10
16.8902813712702
20
-1.4801814267156
30
0
41
1
10
16.9192885799914
20
-1.47044293260129
30
0
41
1
10
16.9734587209158
20
-1.44276136963194
30
0
41
1
10
16.9988494645091
20
-1.4239625403759
30
0
41
1
10
17.0202231015508
20
-1.40233678764758
30
0
0
SPLINE
5
8D
100
AcDbEntity
8
1
62
256
6
ByLayer
370
-1
48
1
60
0
100
AcDbSpline
70
4
71
3
72
14
73
10
40
0
40
0
40
0
40
0
40
0.282169922576048
40
0.282169922576048
40
0.566902245317937
40
0.566902245317937
40
0.824523972080197
40
0.824523972080197
40
1
40
1
40
1
40
1
41
1
10
17.9960450562787
20
-1.40233678764758
30
0
41
1
10
18.019658536047
20
-1.42622880347665
30
0
41
1
10
18.0482367073175
20
-1.44669095398243
30
0
41
1
10
18.1117306716121
20
-1.4764275995187
30
0
41
1
10
18.1477132957045
20
-1.48600316007028
30
0
41
1
10
18.2176498466182
20
-1.49063981765781
30
0
41
1
10
18.2525327837427
20
-1.487004868171
30
0
41
1
10
18.3079759210653
20
-1.47083834362638
30
0
41
1
10
18.3300261877998
20
-1.4614043335483
30
0
41
1
10
18.3504323825751
20
-1.44954676283442
30
0
0
SPLINE
5
8E
100
AcDbEntity
8
1
62
256
6
ByLayer
370
-1
48
1
60
0
100
AcDbSpline
70
4
71
3
72
16
73
12
40
0
40
0
40
0
40
0
40
0.0569446172824488
40
0.0569446172824488
40
0.279906644834054
40
0.279906644834054
40
0.505321967306591
40
0.505321967306591
40
0.744915047128688
40
0.744915047128688
40
1
40
1
40
1
40
1
41
1
10
16.6658357752545
20
1.44954676283939
30
0
41
1
10
16.6592445174225
20
1.44571673442417
30
0
41
1
10
16.6527974041961
20
1.44162442622363
30
0
41
1
10
16.6221704620757
20
1.42045865075161
30
0
41
1
10
16.6002064119086
20
1.39963106376408
30
0
41
1
10
16.5641264425214
20
1.35336102380606
30
0
41
1
10
16.5496215248315
20
1.32729536171809
30
0
41
1
10
16.5286971966935
20
1.27206196334532
30
0
41
1
10
16.5225518785284
20
1.24212170469568
30
0
41
1
10
16.5192811779254
20
1.18170391695628
30
0
41
1
10
16.5226935576904
20
1.15060073485716
30
0
41
1
10
16.530489611206
20
1.12150404177834
30
0
0
SPLINE
5
8F
100
AcDbEntity
8
1
62
256
6
ByLayer
370
-1
48
1
60
0
100
AcDbSpline
70
4
71
3
72
16
73
12
40
0
40
0
40
0
40
0
40
0.0569446172824492
40
0.0569446172824492
40
0.279906644834056
40
0.279906644834056
40
0.505321967306596
40
0.505321967306596
40
0.744915047128698
40
0.744915047128698
40
1
40
1
40
1
40
1
41
1
10
18.3504323825751
20
-1.44954676283442
30
0
41
1
10
18.3570236404071
20
-1.44571673441917
30
0
41
1
10
18.3634707536335
20
-1.44162442621862
30
0
41
1
10
18.3940976957538
20
-1.42045865074661
30
0
41
1
10
18.4160617459209
20
-1.39963106375907
30
0
41
1
10
18.4521417153081
20
-1.35336102380106
30
0
41
1
10
18.466646632998
20
-1.32729536171311
30
0
41
1
10
18.487570961136
20
-1.27206196334032
30
0
41
1
10
18.4937162793011
20
-1.2421217046907
30
0
41
1
10
18.4969869799042
20
-1.18170391695128
30
0
41
1
10
18.4935746001391
20
-1.15060073485216
30
0
41
1
10
18.4857785466236
20
-1.12150404177336
30
0
0
SPLINE
5
90
100
AcDbEntity
8
1
62
256
6
ByLayer
370
-1
48
1
60
0
100
AcDbSpline
70
4
71
3
72
18
73
14
40
0
40
0
40
0
40
0
40
0.212491592102414
40
0.212491592102414
40
0.386618191488459
40
0.386618191488459
40
0.562426295050793
40
0.562426295050793
40
0.71538835446943
40
0.71538835446943
40
0.918249128147126
40
0.918249128147126
40
1
40
1
40
1
40
1
41
1
10
16.0472686867294
20
0.281837412132916
30
0
41
1
10
16.1157718023993
20
0.300398706939404
30
0
41
1
10
16.1836622481954
20
0.330381808913103
30
0
41
1
10
16.2974383449082
20
0.40559652365414
30
0
41
1
10
16.346278785694
20
0.44808064342061
30
0
41
1
10
16.4307925002448
20
0.546545944414959
30
0
41
1
10
16.4674425431325
20
0.604236286895855
30
0
41
1
10
16.517673861709
20
0.716703910715069
30
0
41
1
10
16.5343129340623
20
0.772190714039937
30
0
41
1
10
16.5562800889827
20
0.898862337761358
30
0
41
1
10
16.5567716244912
20
0.971419161562835
30
0
41
1
10
16.543230192846
20
1.06750657274702
30
0
41
1
10
16.5376326785351
20
1.09484444570194
30
0
41
1
10
16.530489611206
20
1.12150404177834
30
0
0
SPLINE
5
91
100
AcDbEntity
8
1
62
256
6
ByLayer
370
-1
48
1
60
0
100
AcDbSpline
70
4
71
3
72
14
73
10
40
0
40
0
40
0
40
0
40
0.283961749036736
40
0.283961749036736
40
0.570285189259069
40
0.570285189259069
40
0.829451094335698
40
0.829451094335698
40
1
40
1
40
1
40
1
41
1
10
18.4857785466236
20
1.12150404177834
30
0
41
1
10
18.4944554073188
20
1.15388811303103
30
0
41
1
10
18.4976879387184
20
1.18882554196142
30
0
41
1
10
18.491340444399
20
1.25850421461652
30
0
41
1
10
18.4814930966717
20
1.29431482284446
30
0
41
1
10
18.4503486702845
20
1.35690846987279
30
0
41
1
10
18.4297018275152
20
1.38514373353578
30
0
41
1
10
18.3885362382514
20
1.42427613243424
30
0
41
1
10
18.3700850296789
20
1.43812706135591
30
0
41
1
10
18.3504323825751
20
1.44954676283939
30
0
0
SPLINE
5
92
100
AcDbEntity
8
1
62
256
6
ByLayer
370
-1
48
1
60
0
100
AcDbSpline
70
4
71
3
72
18
73
14
40
0
40
0
40
0
40
0
40
0.212491695755309
40
0.212491695755309
40
0.386618276853804
40
0.386618276853804
40
0.562426360907927
40
0.562426360907927
40
0.71538841664594
40
0.71538841664594
40
0.918249208689875
40
0.918249208689875
40
1
40
1
40
1
40
1
41
1
10
16.530489611206
20
-1.12150404177336
30
0
41
1
10
16.5488580027247
20
-1.05294891329635
30
0
41
1
10
16.5570429697616
20
-0.979185025509082
30
0
41
1
10
16.5491730780609
20
-0.843022153370327
30
0
41
1
10
16.5369783194711
20
-0.779448760078594
30
0
41
1
10
16.4943035072919
20
-0.65690553952868
30
0
41
1
10
16.4628364105755
20
-0.596232464319598
30
0
41
1
10
16.3908308425757
20
-0.496295746401216
30
0
41
1
10
16.3512151800253
20
-0.454031777742728
30
0
41
1
10
16.2527281164343
20
-0.371396705689108
30
0
41
1
10
16.1902404913857
20
-0.334518098056066
30
0
41
1
10
16.1003573469967
20
-0.2979506707984
30
0
41
1
10
16.0739080428351
20
-0.289055491733478
30
0
41
1
10
16.0472686867295
20
-0.281837412127942
30
0
0
SPLINE
5
93
100
AcDbEntity
8
1
62
256
6
ByLayer
370
-1
48
1
60
0
100
AcDbSpline
70
4
71
3
72
12
73
8
40
0
40
0
40
0
40
0
40
0.42211864122993
40
0.42211864122993
40
0.843213633747509
40
0.843213633747509
40
1
40
1
40
1
40
1
41
1
10
17.5913558154321
20
1.20362635089842
30
0
41
1
10
17.658803280466
20
1.21186958891241
30
0
41
1
10
17.7247924380585
20
1.23046260794382
30
0
41
1
10
17.8434068608081
20
1.28256908028374
30
0
41
1
10
17.8977764902029
20
1.31660935904523
30
0
41
1
10
17.9630610783562
20
1.37058295421642
30
0
41
1
10
17.9800157248166
20
1.38611837999815
30
0
41
1
10
17.9960450562787
20
1.40233678765259
30
0
0
SPLINE
5
94
100
AcDbEntity
8
1
62
256
6
ByLayer
370
-1
48
1
60
0
100
AcDbSpline
70
4
71
3
72
12
73
8
40
0
40
0
40
0
40
0
40
0.495785575728958
40
0.495785575728958
40
0.900238279923934
40
0.900238279923934
40
1
40
1
40
1
40
1
41
1
10
17.9960450562787
20
-1.40233678764758
30
0
41
1
10
17.9459076838834
20
-1.35160801295413
30
0
41
1
10
17.8860630906426
20
-1.3071233514506
30
0
41
1
10
17.7641503676724
20
-1.24516073117263
30
0
41
1
10
17.7030803130992
20
-1.22366365063286
30
0
41
1
10
17.6236513355352
20
-1.20816202596242
30
0
41
1
10
17.6075583593663
20
-1.20560657989114
30
0
41
1
10
17.591355815432
20
-1.20362635089344
30
0
0
SPLINE
5
95
100
AcDbEntity
8
1
62
256
6
ByLayer
370
-1
48
1
60
0
100
AcDbSpline
70
4
71
3
72
14
73
10
40
0
40
0
40
0
40
0
40
0.283961457856598
40
0.283961457856598
40
0.570284934646647
40
0.570284934646647
40
0.829450869060463
40
0.829450869060463
40
1
40
1
40
1
40
1
41
1
10
18.9689994711001
20
-0.281837412127942
30
0
41
1
10
19.0013589552798
20
-0.273069432456197
30
0
41
1
10
19.0331908301271
20
-0.258311308206657
30
0
41
1
10
19.0902477874885
20
-0.217815543951161
30
0
41
1
10
19.1162631568269
20
-0.191309493307273
30
0
41
1
10
19.1547359034368
20
-0.132933226213595
30
0
41
1
10
19.1687756016961
20
-0.100895602607864
30
0
41
1
10
19.1819283469357
20
-0.0456420108758095
30
0
41
1
10
19.1846340789147
20
-0.0227296607930896
30
0
41
1
10
19.1846340789147
20
2.5011E-12
30
0
0
SPLINE
5
96
100
AcDbEntity
8
1
62
256
6
ByLayer
370
-1
48
1
60
0
100
AcDbSpline
70
4
71
3
72
18
73
14
40
0
40
0
40
0
40
0
40
0.212491592102395
40
0.212491592102395
40
0.386618191488444
40
0.386618191488444
40
0.562426295050772
40
0.562426295050772
40
0.715388354469419
40
0.715388354469419
40
0.918249128147117
40
0.918249128147117
40
1
40
1
40
1
40
1
41
1
10
18.9689994711001
20
-0.281837412127942
30
0
41
1
10
18.9004963554302
20
-0.30039870693443
30
0
41
1
10
18.8326059096342
20
-0.3303818089081
30
0
41
1
10
18.7188298129214
20
-0.405596523649138
30
0
41
1
10
18.6699893721356
20
-0.448080643415608
30
0
41
1
10
18.5854756575847
20
-0.546545944409985
30
0
41
1
10
18.5488256146971
20
-0.604236286890881
30
0
41
1
10
18.4985942961206
20
-0.716703910710066
30
0
41
1
10
18.4819552237672
20
-0.772190714034934
30
0
41
1
10
18.4599880688469
20
-0.898862337756384
30
0
41
1
10
18.4594965333383
20
-0.971419161557833
30
0
41
1
10
18.4730379649836
20
-1.06750657274202
30
0
41
1
10
18.4786354792945
20
-1.09484444569694
30
0
41
1
10
18.4857785466236
20
-1.12150404177334
30
0
0
SPLINE
5
97
100
AcDbEntity
8
1
62
256
6
ByLayer
370
-1
48
1
60
0
100
AcDbSpline
70
4
71
3
72
16
73
12
40
0
40
0
40
0
40
0
40
0.0630415689509389
40
0.0630415689509389
40
0.285914332024976
40
0.285914332024976
40
0.511588305408896
40
0.511588305408896
40
0.751723061839389
40
0.751723061839389
40
1
40
1
40
1
40
1
41
1
10
19.1846340789147
20
2.5011E-12
30
0
41
1
10
19.1846340789147
20
0.0084336538353966
30
0
41
1
10
19.1842677076634
20
0.016876968352932
30
0
41
1
10
19.1809772223299
20
0.0547537924340133
30
0
41
1
10
19.1737679693257
20
0.0841216087730174
30
0
41
1
10
19.1514581676077
20
0.138367789845802
30
0
41
1
10
19.1359975448347
20
0.163884549646326
30
0
41
1
10
19.0983569137346
20
0.20945291650429
30
0
41
1
10
19.0753631086949
20
0.229640568255661
30
0
41
1
10
19.0251736971182
20
0.261951448650137
30
0
41
1
10
18.9973127924316
20
0.274165762470773
30
0
41
1
10
18.9689994711001
20
0.281837412132916
30
0
0
SPLINE
5
98
100
AcDbEntity
8
1
62
256
6
ByLayer
370
-1
48
1
60
0
100
AcDbSpline
70
4
71
3
72
16
73
12
40
0
40
0
40
0
40
0
40
0.0630415689509015
40
0.0630415689509015
40
0.285914332024909
40
0.285914332024909
40
0.511588305408807
40
0.511588305408807
40
0.751723061839186
40
0.751723061839186
40
1
40
1
40
1
40
1
41
1
10
15.8316340789147
20
2.5011E-12
30
0
41
1
10
15.8316340789147
20
-0.0084336538304228
30
0
41
1
10
15.8320004501661
20
-0.0168769683479582
30
0
41
1
10
15.8352909354996
20
-0.0547537924290111
30
0
41
1
10
15.8425001885038
20
-0.0841216087680436
30
0
41
1
10
15.8648099902218
20
-0.138367789840828
30
0
41
1
10
15.8802706129947
20
-0.163884549641324
30
0
41
1
10
15.9179112440948
20
-0.209452916499288
30
0
41
1
10
15.9409050491345
20
-0.229640568250687
30
0
41
1
10
15.9910944607113
20
-0.261951448645164
30
0
41
1
10
16.0189553653979
20
-0.274165762465827
30
0
41
1
10
16.0472686867295
20
-0.28183741212797
30
0
0
SPLINE
5
99
100
AcDbEntity
8
1
62
256
6
ByLayer
370
-1
48
1
60
0
100
AcDbSpline
70
4
71
3
72
14
73
10
40
0
40
0
40
0
40
0
40
0.283961457856625
40
0.283961457856625
40
0.570284934646643
40
0.570284934646643
40
0.829450869060458
40
0.829450869060458
40
1
40
1
40
1
40
1
41
1
10
16.0472686867294
20
0.281837412132944
30
0
41
1
10
16.0149092025498
20
0.273069432461199
30
0
41
1
10
15.9830773277024
20
0.25831130821166
30
0
41
1
10
15.926020370341
20
0.217815543956164
30
0
41
1
10
15.9000050010027
20
0.191309493312275
30
0
41
1
10
15.8615322543927
20
0.132933226218597
30
0
41
1
10
15.8474925561334
20
0.100895602612866
30
0
41
1
10
15.8343398108937
20
0.0456420108808118
30
0
41
1
10
15.8316340789147
20
0.0227296607980634
30
0
41
1
10
15.8316340789147
20
2.5011E-12
30
0
0
SPLINE
5
9A
100
AcDbEntity
8
1
62
256
6
ByLayer
370
-1
48
1
60
0
100
AcDbSpline
70
4
71
3
72
12
73
8
40
0
40
0
40
0
40
0
40
0.49578557572892
40
0.49578557572892
40
0.900238279923973
40
0.900238279923973
40
1
40
1
40
1
40
1
41
1
10
17.0202231015508
20
1.40233678765256
30
0
41
1
10
17.0703604739461
20
1.35160801295911
30
0
41
1
10
17.1302050671869
20
1.30712335145557
30
0
41
1
10
17.2521177901571
20
1.24516073117763
30
0
41
1
10
17.3131878447303
20
1.22366365063786
30
0
41
1
10
17.3926168222943
20
1.2081620259674
30
0
41
1
10
17.4087097984632
20
1.20560657989611
30
0
41
1
10
17.4249123423974
20
1.20362635089842
30
0
0
SPLINE
5
9B
100
AcDbEntity
8
1
62
256
6
ByLayer
370
-1
48
1
60
0
100
AcDbSpline
70
4
71
3
72
18
73
14
40
0
40
0
40
0
40
0
40
0.212491695755316
40
0.212491695755316
40
0.386618276853814
40
0.386618276853814
40
0.562426360907946
40
0.562426360907946
40
0.715388416645957
40
0.715388416645957
40
0.9182492086899
40
0.9182492086899
40
1
40
1
40
1
40
1
41
1
10
18.4857785466236
20
1.12150404177834
30
0
41
1
10
18.4674101551048
20
1.05294891330132
30
0
41
1
10
18.459225188068
20
0.979185025514056
30
0
41
1
10
18.4670950797687
20
0.843022153375301
30
0
41
1
10
18.4792898383584
20
0.779448760083568
30
0
41
1
10
18.5219646505377
20
0.656905539533653
30
0
41
1
10
18.553431747254
20
0.596232464324572
30
0
41
1
10
18.6254373152538
20
0.496295746406218
30
0
41
1
10
18.6650529778043
20
0.454031777747701
30
0
41
1
10
18.7635400413952
20
0.371396705694082
30
0
41
1
10
18.8260276664438
20
0.334518098061068
30
0
41
1
10
18.9159108108328
20
0.297950670803374
30
0
41
1
10
18.9423601149944
20
0.28905549173848
30
0
41
1
10
18.9689994711001
20
0.281837412132944
30
0
0
SPLINE
5
9C
100
AcDbEntity
8
1
62
256
6
ByLayer
370
-1
48
1
60
0
100
AcDbSpline
70
4
71
3
72
14
73
10
40
0
40
0
40
0
40
0
40
0.283961749036728
40
0.283961749036728
40
0.57028518925906
40
0.57028518925906
40
0.829451094335696
40
0.829451094335696
40
1
40
1
40
1
40
1
41
1
10
16.530489611206
20
-1.12150404177336
30
0
41
1
10
16.5218127505107
20
-1.15388811302606
30
0
41
1
10
16.5185802191111
20
-1.18882554195645
30
0
41
1
10
16.5249277134306
20
-1.25850421461152
30
0
41
1
10
16.5347750611579
20
-1.29431482283945
30
0
41
1
10
16.5659194875451
20
-1.35690846986782
30
0
41
1
10
16.5865663303143
20
-1.38514373353081
30
0
41
1
10
16.6277319195781
20
-1.42427613242927
30
0
41
1
10
16.6461831281507
20
-1.43812706135091
30
0
41
1
10
16.6658357752545
20
-1.44954676283442
30
0
0
SPLINE
5
9D
100
AcDbEntity
8
1
62
256
6
ByLayer
370
-1
48
1
60
0
100
AcDbSpline
70
4
71
3
72
12
73
8
40
0
40
0
40
0
40
0
40
0.422118641229844
40
0.422118641229844
40
0.843213633747368
40
0.843213633747368
40
1
40
1
40
1
40
1
41
1
10
17.4249123423975
20
-1.20362635089344
30
0
41
1
10
17.3574648773636
20
-1.2118695889074
30
0
41
1
10
17.291475719771
20
-1.23046260793882
30
0
41
1
10
17.1728612970214
20
-1.28256908027871
30
0
41
1
10
17.1184916676266
20
-1.3166093590402
30
0
41
1
10
17.0532070794733
20
-1.37058295421139
30
0
41
1
10
17.036252433013
20
-1.38611837999312
30
0
41
1
10
17.0202231015508
20
-1.40233678764756
30
0
0
LINE
5
4C
100
AcDbEntity
8
81
62
256
6
ByLayer
370
-1
48
1
60
0
100
AcDbLine
10
31.5
20
0.582002
30
0
11
41.5
21
0.582002
31
0
39
0
210
0
220
0
230
1
0
LINE
5
4D
100
AcDbEntity
8
80
62
256
6
ByLayer
370
-1
48
1
60
0
100
AcDbLine
10
0
20
0
30
0
11
-5
21
0
31
0
39
0
210
0
220
0
230
1
0
LINE
5
4E
100
AcDbEntity
8
1
62
256
6
ByLayer
370
-1
48
1
60
0
100
AcDbLine
10
16.558134
20
5.273713
30
0
11
16.558134
21
4.694095
31
0
39
0
210
0
220
0
230
1
0
LINE
5
50
100
AcDbEntity
8
1
62
256
6
ByLayer
370
-1
48
1
60
0
100
AcDbLine
10
4.934225
20
-3.136119
30
0
11
8.275539
21
-2.082607
31
0
39
0
210
0
220
0
230
1
0
LINE
5
51
100
AcDbEntity
8
1
62
256
6
ByLayer
370
-1
48
1
60
0
100
AcDbLine
10
0
20
11.337381
30
0
11
0
21
-11.337381
31
0
39
0
210
0
220
0
230
1
0
LINE
5
52
100
AcDbEntity
8
1
62
256
6
ByLayer
370
-1
48
1
60
0
100
AcDbLine
10
0
20
-11.337381
30
0
11
15.605988
21
-6.418662
31
0
39
0
210
0
220
0
230
1
0
LINE
5
53
100
AcDbEntity
8
1
62
256
6
ByLayer
370
-1
48
1
60
0
100
AcDbLine
10
4.832008
20
-2.811929
30
0
11
7.71035
21
-1.904391
31
0
39
0
210
0
220
0
230
1
0
LINE
5
54
100
AcDbEntity
8
1
62
256
6
ByLayer
370
-1
48
1
60
0
100
AcDbLine
10
16.558134
20
-4.694094
30
0
11
16.558134
21
-5.273713
31
0
39
0
210
0
220
0
230
1
0
LINE
5
55
100
AcDbEntity
8
1
62
256
6
ByLayer
370
-1
48
1
60
0
100
AcDbLine
10
16.218211
20
-4.586922
30
0
11
16.218211
21
-5.634848
31
0
39
0
210
0
220
0
230
1
0
LINE
5
56
100
AcDbEntity
8
1
62
256
6
ByLayer
370
-1
48
1
60
0
100
AcDbLine
10
4.934225
20
-3.136119
30
0
11
4.832008
21
-2.811929
31
0
39
0
210
0
220
0
230
1
0
LINE
5
57
100
AcDbEntity
8
1
62
256
6
ByLayer
370
-1
48
1
60
0
100
AcDbLine
10
16.218211
20
5.634848
30
0
11
16.218211
21
4.586925
31
0
39
0
210
0
220
0
230
1
0
LINE
5
58
100
AcDbEntity
8
1
62
256
6
ByLayer
370
-1
48
1
60
0
100
AcDbLine
10
15.605988
20
6.418662
30
0
11
0
21
11.337381
31
0
39
0
210
0
220
0
230
1
0
LINE
5
59
100
AcDbEntity
8
1
62
256
6
ByLayer
370
-1
48
1
60
0
100
AcDbLine
10
17.627959
20
4.955839
30
0
11
31.055986
21
0.721999
31
0
39
0
210
0
220
0
230
1
0
LINE
5
5A
100
AcDbEntity
8
1
62
256
6
ByLayer
370
-1
48
1
60
0
100
AcDbLine
10
3.960282
20
0.721999
30
0
11
17.388309
21
4.955839
31
0
39
0
210
0
220
0
230
1
0
LINE
5
5B
100
AcDbEntity
8
1
62
256
6
ByLayer
370
-1
48
1
60
0
100
AcDbLine
10
17.388309
20
-4.955839
30
0
11
3.960282
21
-0.721999
31
0
39
0
210
0
220
0
230
1
0
LINE
5
5C
100
AcDbEntity
8
SK1
62
256
6
ByLayer
370
-1
48
1
60
0
100
AcDbLine
10
-3.49043
20
-12.4375
30
0
11
-0.15
21
-11.384658
31
0
39
0
210
0
220
0
230
1
0
LINE
5
5E
100
AcDbEntity
8
SK1
62
256
6
ByLayer
370
-1
48
1
60
0
100
AcDbLine
10
0
20
11.337381
30
0
11
-0.15
21
11.384658
31
0
39
0
210
0
220
0
230
1
0
LINE
5
5F
100
AcDbEntity
8
1
62
256
6
ByLayer
370
-1
48
1
60
0
100
AcDbLine
10
31.055986
20
-0.721999
30
0
11
17.627959
21
-4.955839
31
0
39
0
210
0
220
0
230
1
0
LINE
5
60
100
AcDbEntity
8
SK1
62
256
6
ByLayer
370
-1
48
1
60
0
100
AcDbLine
10
-0.15
20
11.384658
30
0
11
-0.15
21
-11.384658
31
0
39
0
210
0
220
0
230
1
0
LINE
5
61
100
AcDbEntity
8
SK1
62
256
6
ByLayer
370
-1
48
1
60
0
100
AcDbLine
10
-119.85
20
12.4375
30
0
11
-119.85
21
-12.4375
31
0
39
0
210
0
220
0
230
1
0
LINE
5
62
100
AcDbEntity
8
SK1
62
256
6
ByLayer
370
-1
48
1
60
0
100
AcDbLine
10
-0.15
20
-11.384658
30
0
11
0
21
-11.337381
31
0
39
0
210
0
220
0
230
1
0
LINE
5
63
100
AcDbEntity
8
SK1
62
256
6
ByLayer
370
-1
48
1
60
0
100
AcDbLine
10
-3.49043
20
12.4375
30
0
11
-119.85
21
12.4375
31
0
39
0
210
0
220
0
230
1
0
LINE
5
64
100
AcDbEntity
8
SK1
62
256
6
ByLayer
370
-1
48
1
60
0
100
AcDbLine
10
-119.85
20
-12.4375
30
0
11
-3.49043
21
-12.4375
31
0
39
0
210
0
220
0
230
1
0
LINE
5
65
100
AcDbEntity
8
SK1
62
256
6
ByLayer
370
-1
48
1
60
0
100
AcDbLine
10
0
20
11.337381
30
0
11
0
21
-11.337381
31
0
39
0
210
0
220
0
230
1
0
LINE
5
66
100
AcDbEntity
8
SK1
62
256
6
ByLayer
370
-1
48
1
60
0
100
AcDbLine
10
-0.15
20
11.384658
30
0
11
-3.49043
21
12.4375
31
0
39
0
210
0
220
0
230
1
0
LINE
5
67
100
AcDbEntity
8
2
62
256
6
ByLayer
370
-1
48
1
60
1
100
AcDbLine
10
31.5
20
0.6445
30
0
11
31.500954
21
0.644199
31
0
39
0
210
0
220
0
230
1
0
MTEXT
5
9E
100
AcDbEntity
8
SK6
62
256
6
ByLayer
370
-1
48
1
60
0
100
AcDbMText
10
-68.015727
20
-20.912993
30
0
210
0
220
0
230
1
1
\W00.776;\fsimplex.shx,bigfont.shx;SVVBN 2525M 16 
40
3.5
41
0
44
1.084337
50
0
71
7
72
5
7
DEFAULT
0
DIMENSION
5
D1
100
AcDbEntity
8
2
62
256
6
ByLayer
370
-3
48
1
60
0
100
AcDbDimension
2
DimnDraft3D1
10
17.555756
20
5.041103
30
0
11
16.23654
21
7.893001
31
0
70
34
71
5
72
1
41
1
210
0
220
0
230
1
3
Standard
100
AcDb2LineAngularDimension
13
31.5
23
2.856248
33
0
14
31.5
24
15.265446
34
0
15
28.083784
25
1.721629
35
0
16
21.376219
26
14.451595
36
0
40
0
0
DIMENSION
5
E6
100
AcDbEntity
8
SK2
62
256
6
ByLayer
370
-3
48
1
60
0
100
AcDbDimension
2
DimnDraft3D2
10
-129.6
20
12.4375
30
0
11
-129.6
21
-2.628947
31
0
70
32
71
5
72
1
41
1
210
0
220
0
230
1
3
Standard
100
AcDbAlignedDimension
13
-121.85
23
-12.4375
33
0
14
-121.85
24
12.4375
34
0
50
90
100
AcDbRotatedDimension
1001
ACAD
1000
DSTYLE
1002
{
1070
    74
1070
     0
1070
   279
1070
     0
1070
   172
1070
     1
1070
   173
1070
     1
1070
   340
1005
9F
1070
    77
1070
     1
1070
    73
1070
     0
1070
   171
1070
     3
1070
   274
1070
     4
1070
   177
1070
     2
1070
   176
1070
     2
1070
   178
1070
     7
1070
    78
1070
     8
1070
    41
1041
3.175
1070
   147
1041
2.25
1070
    42
1041
2.0
1070
    44
1041
2.0
1070
   140
1041
4.5
1070
   343
1005
D2
1070
   344
1005
D2
1002
}
0
DIMENSION
5
F4
100
AcDbEntity
8
2
62
256
6
ByLayer
370
-3
48
1
60
0
100
AcDbDimension
2
DimnDraft3D3
10
58.75
20
0.6445
30
0
11
58.75
21
10.8995
31
0
70
32
71
5
72
1
41
1
210
0
220
0
230
1
3
Standard
100
AcDbAlignedDimension
13
2
23
-12.4375
33
0
14
33.5
24
0.6445
34
0
50
90
100
AcDbRotatedDimension
1001
ACAD
1000
DSTYLE
1002
{
1070
    74
1070
     0
1070
   279
1070
     0
1070
   172
1070
     1
1070
   173
1070
     1
1070
   340
1005
9F
1070
    77
1070
     1
1070
    73
1070
     0
1070
   171
1070
     3
1070
   274
1070
     4
1070
   177
1070
     2
1070
   176
1070
     2
1070
   178
1070
     7
1070
    78
1070
     8
1070
    41
1041
3.175
1070
   147
1041
2.25
1070
    42
1041
2.0
1070
    44
1041
2.0
1070
   140
1041
4.5
1070
   343
1005
D2
1070
   344
1005
D2
1002
}
0
DIMENSION
5
102
100
AcDbEntity
8
SK2
62
256
6
ByLayer
370
-3
48
1
60
0
100
AcDbDimension
2
DimnDraft3D4
10
-119.85
20
20.606248
30
0
11
-47.893421
21
20.606248
31
0
70
32
71
5
72
1
41
1
210
0
220
0
230
1
3
Standard
100
AcDbAlignedDimension
13
31.5
23
2.856248
33
0
14
-119.85
24
14.4375
34
0
50
0
100
AcDbRotatedDimension
1001
ACAD
1000
DSTYLE
1002
{
1070
   279
1070
     0
1070
   172
1070
     1
1070
   173
1070
     1
1070
   340
1005
9F
1070
    77
1070
     1
1070
    73
1070
     0
1070
   171
1070
     3
1070
   274
1070
     4
1070
   177
1070
     2
1070
   176
1070
     2
1070
   178
1070
     7
1070
    78
1070
     8
1070
    41
1041
3.175
1070
   147
1041
2.25
1070
    42
1041
2.0
1070
    44
1041
2.0
1070
   140
1041
4.5
1070
   343
1005
D2
1070
   344
1005
D2
1002
}
0
ENDSEC
0
SECTION
2
OBJECTS
0
DICTIONARY
5
132
330
0
100
AcDbDictionary
280
0
281
1
3
ACAD_GROUP
350
133
3
ACAD_MLINESTYLE
350
134
0
DICTIONARY
5
133
330
0
100
AcDbDictionary
280
0
281
1
0
DICTIONARY
5
134
330
0
100
AcDbDictionary
280
0
281
1
3
Standard
350
18
0
MLINESTYLE
5
18
330
134
100
AcDbMlineStyle
2
Standard
70
0
3

62
256
51
90
52
90
71
2
49
-0.5
62
256
6
ByLayer
49
0.5
62
256
6
ByLayer
0
RASTERVARIABLES
5
121
330

100
AcDbRasterVariables
90
0
70
1
71
1
72
1
0
ENDSEC
0
EOF
