0
SECTION
2
HEADER
9
$ACADVER
1
AC1015
9
$DWGCODEPAGE
3
ANSI_1252
9
$HANDSEED
5
13f
9
$ANGBASE
50
0
9
$ANGDIR
70
0
9
$ATTMODE
70
1
9
$AUNITS
70
0
9
$AUPREC
70
0
9
$CECOLOR
62
256
9
$CELTSCALE
40
1
9
$CELTYPE
6
ByLayer
9
$CELWEIGHT
370
-1
9
$CLAYER
8
0
9
$CMLJUST
70
0
9
$CMLSCALE
40
1
9
$CMLSTYLE
2
Standard
9
$DIMSTYLE
2
Standard
9
$TEXTSIZE
40
0.2
9
$TEXTSTYLE
7
Standard
9
$LUNITS
70
2
9
$LUPREC
70
4
9
$EXTNAMES
290
1
9
$INSUNITS
70
4
9
$LTSCALE
40
1
9
$LWDISPLAY
290
0
9
$PDMODE
70
0
9
$PDSIZE
40
0
9
$PLINEGEN
70
0
0
ENDSEC
0
SECTION
2
CLASSES
0
CLASS
1
RASTERVARIABLES
2
AcDbRasterVariables
3
ISM
90
0
280
0
281
0
0
ENDSEC
0
SECTION
2
TABLES
0
TABLE
2
VPORT
5
135
100
AcDbSymbolTable
0
VPORT
5
1
100
AcDbSymbolTableRecord
100
AcDbViewportTableRecord
2
*Active
70
0
10
0
20
0
11
1
21
1
12
-1
22
1
13
0
23
0
14
0.5
24
0.5
15
10
25
10
16
0
26
0
36
1
17
0
27
0
37
0
0
ENDTAB
0
TABLE
2
LTYPE
5
136
100
AcDbSymbolTable
0
LTYPE
5
14
100
AcDbSymbolTableRecord
100
AcDbLinetypeTableRecord
70
0
2
ByBlock
3

72
65
73
0
40
0
0
LTYPE
5
15
100
AcDbSymbolTableRecord
100
AcDbLinetypeTableRecord
70
0
2
ByLayer
3

72
65
73
0
40
0
0
LTYPE
5
16
100
AcDbSymbolTableRecord
100
AcDbLinetypeTableRecord
70
0
2
CONTINUOUS
3
Solid line
72
65
73
0
40
0
0
LTYPE
5
3B
100
AcDbSymbolTableRecord
100
AcDbLinetypeTableRecord
70
0
2
DASHED
3
__ __ __ __ __ __ __ __ __
72
65
73
2
40
25.72
49
12.86
74
0
49
-12.86
74
0
0
LTYPE
5
3C
100
AcDbSymbolTableRecord
100
AcDbLinetypeTableRecord
70
0
2
HIDDEN
3
_ _ _ _ _ _ _ _ _ _ _ _ _ _ _
72
65
73
2
40
0.5
49
0.25
74
0
49
-0.25
74
0
0
LTYPE
5
3D
100
AcDbSymbolTableRecord
100
AcDbLinetypeTableRecord
70
0
2
PHANTOM
3
____ _ _ ____ _ _ _____ _ _ ____
72
65
73
6
40
50.5
49
18
74
0
49
-6.5
74
0
49
6.5
74
0
49
-6.5
74
0
49
6.5
74
0
49
-6.5
74
0
0
LTYPE
5
3E
100
AcDbSymbolTableRecord
100
AcDbLinetypeTableRecord
70
0
2
CENTER
3
____ _ ____ _ ____ _ ____
72
65
73
4
40
47.5
49
22
74
0
49
-8.5
74
0
49
8.5
74
0
49
-8.5
74
0
0
LTYPE
5
3F
100
AcDbSymbolTableRecord
100
AcDbLinetypeTableRecord
70
0
2
DOT
3
.........................
72
65
73
2
40
10
49
0
74
0
49
-10
74
0
0
LTYPE
5
40
100
AcDbSymbolTableRecord
100
AcDbLinetypeTableRecord
70
0
2
DASHDOT
3
_._._._._._._._._._._._._._._._.
72
65
73
4
40
70
49
31
74
0
49
-13
74
0
49
13
74
0
49
-13
74
0
0
ENDTAB
0
TABLE
2
LAYER
5
137
100
AcDbSymbolTable
0
LAYER
5
10
100
AcDbSymbolTableRecord
100
AcDbLayerTableRecord
2
0
70
0
62
7
6
CONTINUOUS
290
1
370
-3
390
0
0
LAYER
5
44
100
AcDbSymbolTableRecord
100
AcDbLayerTableRecord
2
2
70
0
62
7
6
CONTINUOUS
290
1
370
-3
390
0
0
LAYER
5
48
100
AcDbSymbolTableRecord
100
AcDbLayerTableRecord
2
80
70
0
62
-6
6
CONTINUOUS
290
1
370
-3
390
0
0
LAYER
5
4B
100
AcDbSymbolTableRecord
100
AcDbLayerTableRecord
2
81
70
0
62
-3
6
CONTINUOUS
290
1
370
-3
390
0
0
LAYER
5
4F
100
AcDbSymbolTableRecord
100
AcDbLayerTableRecord
2
1
70
0
62
4
6
CONTINUOUS
290
1
370
-3
390
0
0
LAYER
5
122
100
AcDbSymbolTableRecord
100
AcDbLayerTableRecord
2
SK2
70
0
62
7
6
CONTINUOUS
290
1
370
-3
390
0
0
LAYER
5
123
100
AcDbSymbolTableRecord
100
AcDbLayerTableRecord
2
SK1
70
0
62
4
6
CONTINUOUS
290
1
370
-3
390
0
0
LAYER
5
124
100
AcDbSymbolTableRecord
100
AcDbLayerTableRecord
2
SK6
70
0
62
5
6
CONTINUOUS
290
1
370
-3
390
0
0
ENDTAB
0
TABLE
2
STYLE
5
138
100
AcDbSymbolTable
0
STYLE
5
11
100
AcDbSymbolTableRecord
100
AcDbTextStyleTableRecord
2
Standard
3
txt
70
0
71
0
40
0
41
1
42
0
50
0
0
STYLE
5
9F
100
AcDbSymbolTableRecord
100
AcDbTextStyleTableRecord
2
DEFAULT
3
simplex.shx
70
0
71
0
40
0
41
1
42
0
50
0
0
STYLE
5
C2
100
AcDbSymbolTableRecord
100
AcDbTextStyleTableRecord
2
DWGDirectTextStyle
3
SIMPLEX
70
0
71
0
40
0
41
1
42
0
50
0
0
ENDTAB
0
TABLE
2
DIMSTYLE
5
139
100
AcDbSymbolTable
100
AcDbDimStyleTable
0
DIMSTYLE
105
27
100
AcDbSymbolTableRecord
100
AcDbDimStyleTableRecord
2
Standard
70
0
3
<>
41
0.18
42
0.0625
44
0.18
140
0.18
147
0.09
73
0
74
0
77
1
271
2
275
0
278
52
280
0
340
11
0
ENDTAB
0
TABLE
2
VIEW
5
13a
100
AcDbSymbolTable
0
ENDTAB
0
TABLE
2
UCS
5
13b
100
AcDbSymbolTable
0
ENDTAB
0
TABLE
2
APPID
5
13c
100
AcDbSymbolTable
0
APPID
5
12
100
AcDbSymbolTableRecord
100
AcDbRegAppTableRecord
2
ACAD
70
0
0
ENDTAB
0
TABLE
2
BLOCK_RECORD
5
13d
100
AcDbSymbolTable
0
BLOCK_RECORD
5
1F
100
AcDbSymbolTableRecord
100
AcDbBlockTableRecord
2
*Model_Space
340
0
70
0
0
BLOCK_RECORD
5
1B
100
AcDbSymbolTableRecord
100
AcDbBlockTableRecord
2
*Paper_Space
340
0
70
0
0
BLOCK_RECORD
5
23
100
AcDbSymbolTableRecord
100
AcDbBlockTableRecord
2
*Paper_Space0
340
0
70
0
0
BLOCK_RECORD
5
C4
100
AcDbSymbolTableRecord
100
AcDbBlockTableRecord
2
DimnDraft3D1
340
0
70
0
0
BLOCK_RECORD
5
D2
100
AcDbSymbolTableRecord
100
AcDbBlockTableRecord
2
_CLOSED
340
0
70
0
0
BLOCK_RECORD
5
D9
100
AcDbSymbolTableRecord
100
AcDbBlockTableRecord
2
DimnDraft3D2
340
0
70
0
0
BLOCK_RECORD
5
E7
100
AcDbSymbolTableRecord
100
AcDbBlockTableRecord
2
DimnDraft3D3
340
0
70
0
0
BLOCK_RECORD
5
F5
100
AcDbSymbolTableRecord
100
AcDbBlockTableRecord
2
DimnDraft3D4
340
0
70
0
0
ENDTAB
0
ENDSEC
0
SECTION
2
BLOCKS
0
BLOCK
5
20
100
AcDbEntity
8
0
100
AcDbBlockBegin
2
*Model_Space
70
0
10
0
20
0
30
0
3
*Model_Space
0
ENDBLK
5
21
100
AcDbEntity
8
0
100
AcDbBlockEnd
0
BLOCK
5
1C
100
AcDbEntity
8
0
100
AcDbBlockBegin
2
*Paper_Space
70
0
10
0
20
0
30
0
3
*Paper_Space
0
ENDBLK
5
1D
100
AcDbEntity
8
0
100
AcDbBlockEnd
0
BLOCK
5
24
100
AcDbEntity
8
0
100
AcDbBlockBegin
2
*Paper_Space0
70
0
10
0
20
0
30
0
3
*Paper_Space0
0
ENDBLK
5
25
100
AcDbEntity
8
0
100
AcDbBlockEnd
0
BLOCK
5
CF
100
AcDbEntity
8
0
100
AcDbBlockBegin
2
DimnDraft3D1
70
0
10
0
20
0
30
0
3
DimnDraft3D1
0
MTEXT
5
C5
100
AcDbEntity
8
2
62
256
6
ByLayer
370
-1
48
1
60
0
100
AcDbMText
10
8.537926
20
20.976675
30
0
210
0
220
0
230
1
1
\W01.000;\fsimplex.shx,bigfont.shx;93%%d0' 
40
4.5
41
0
44
1.084337
50
46.5000000000004
71
7
72
5
7
DEFAULT
0
LINE
5
C6
100
AcDbEntity
8
2
62
256
6
ByLayer
370
-1
48
1
60
0
100
AcDbLine
10
22
20
17.4125
30
0
11
22
21
29.889321
31
0
39
0
210
0
220
0
230
1
0
LINE
5
C7
100
AcDbEntity
8
2
62
256
6
ByLayer
370
-1
48
1
60
0
100
AcDbLine
10
18.586466
20
15.254948
30
0
11
7.564334
21
14.677303
31
0
39
0
210
0
220
0
230
1
0
ARC
5
C8
100
AcDbEntity
8
2
62
256
6
ByLayer
370
-1
48
1
60
0
100
AcDbCircle
39
0
10
22
20
15.433844
30
0
40
12.455476986756
210
0
220
0
230
1
100
AcDbArc
50
90
51
183
0
LINE
5
C9
100
AcDbEntity
8
2
62
256
6
ByLayer
370
-1
48
1
60
0
100
AcDbLine
10
22
20
27.889321
30
0
11
18.857855
21
27.27105
31
0
39
0
210
0
220
0
230
1
0
LINE
5
CA
100
AcDbEntity
8
2
62
256
6
ByLayer
370
-1
48
1
60
0
100
AcDbLine
10
22
20
27.889321
30
0
11
18.804897
21
28.105365
31
0
39
0
210
0
220
0
230
1
0
LINE
5
CB
100
AcDbEntity
8
2
62
256
6
ByLayer
370
-1
48
1
60
0
100
AcDbLine
10
18.857855
20
27.27105
30
0
11
18.804897
21
28.105365
31
0
39
0
210
0
220
0
230
1
0
LINE
5
CC
100
AcDbEntity
8
2
62
256
6
ByLayer
370
-1
48
1
60
0
100
AcDbLine
10
9.561593
20
14.781975
30
0
11
9.178626
21
17.961389
31
0
39
0
210
0
220
0
230
1
0
LINE
5
CD
100
AcDbEntity
8
2
62
256
6
ByLayer
370
-1
48
1
60
0
100
AcDbLine
10
9.561593
20
14.781975
30
0
11
10.014569
21
17.952175
31
0
39
0
210
0
220
0
230
1
0
LINE
5
CE
100
AcDbEntity
8
2
62
256
6
ByLayer
370
-1
48
1
60
0
100
AcDbLine
10
9.178626
20
17.961389
30
0
11
10.014569
21
17.952175
31
0
39
0
210
0
220
0
230
1
0
ENDBLK
5
D0
100
AcDbEntity
8
0
100
AcDbBlockEnd
0
BLOCK
5
D3
100
AcDbEntity
8
0
100
AcDbBlockBegin
2
_CLOSED
70
0
10
0
20
0
30
0
3
_CLOSED
0
LINE
5
D5
100
AcDbEntity
8
0
62
256
6
ByLayer
370
-2
48
1
60
0
100
AcDbLine
10
-1
20
0.166667
30
0
11
0
21
0
31
0
39
0
210
0
220
0
230
1
0
LINE
5
D6
100
AcDbEntity
8
0
62
256
6
ByLayer
370
-2
48
1
60
0
100
AcDbLine
10
0
20
0
30
0
11
-1
21
-0.166667
31
0
39
0
210
0
220
0
230
1
0
LINE
5
D7
100
AcDbEntity
8
0
62
256
6
ByLayer
370
-2
48
1
60
0
100
AcDbLine
10
-1
20
0.166667
30
0
11
-1
21
-0.166667
31
0
39
0
210
0
220
0
230
1
0
LINE
5
D8
100
AcDbEntity
8
0
62
256
6
ByLayer
370
-2
48
1
60
0
100
AcDbLine
10
0
20
0
30
0
11
-1
21
0
31
0
39
0
210
0
220
0
230
1
0
ENDBLK
5
D4
100
AcDbEntity
8
0
100
AcDbBlockEnd
0
BLOCK
5
E4
100
AcDbEntity
8
0
100
AcDbBlockBegin
2
DimnDraft3D2
70
0
10
0
20
0
30
0
3
DimnDraft3D2
0
MTEXT
5
DA
100
AcDbEntity
8
SK2
62
256
6
ByLayer
370
-1
48
1
60
0
100
AcDbMText
10
-115.225
20
-1.503947
30
0
210
0
220
0
230
1
1
\W01.000;\fsimplex.shx,bigfont.shx;20 
40
4.5
41
0
44
1.084337
50
90
71
7
72
5
7
DEFAULT
0
LINE
5
DB
100
AcDbEntity
8
SK2
62
256
6
ByLayer
370
-1
48
1
60
0
100
AcDbLine
10
-106.35
20
-9.9375
30
0
11
-116.1
21
-9.9375
31
0
39
0
210
0
220
0
230
1
0
LINE
5
DC
100
AcDbEntity
8
SK2
62
256
6
ByLayer
370
-1
48
1
60
0
100
AcDbLine
10
-106.35
20
9.9375
30
0
11
-116.1
21
9.9375
31
0
39
0
210
0
220
0
230
1
0
LINE
5
DD
100
AcDbEntity
8
SK2
62
256
6
ByLayer
370
-1
48
1
60
0
100
AcDbLine
10
-114.1
20
-9.9375
30
0
11
-114.1
21
9.9375
31
0
39
0
210
0
220
0
230
1
0
LINE
5
DE
100
AcDbEntity
8
SK2
62
256
6
ByLayer
370
-1
48
1
60
0
100
AcDbLine
10
-114.1
20
-9.9375
30
0
11
-114.517997
21
-6.762502
31
0
39
0
210
0
220
0
230
1
0
LINE
5
DF
100
AcDbEntity
8
SK2
62
256
6
ByLayer
370
-1
48
1
60
0
100
AcDbLine
10
-114.1
20
-9.9375
30
0
11
-113.682003
21
-6.762498
31
0
39
0
210
0
220
0
230
1
0
LINE
5
E0
100
AcDbEntity
8
SK2
62
256
6
ByLayer
370
-1
48
1
60
0
100
AcDbLine
10
-114.517997
20
-6.762502
30
0
11
-113.682003
21
-6.762498
31
0
39
0
210
0
220
0
230
1
0
LINE
5
E1
100
AcDbEntity
8
SK2
62
256
6
ByLayer
370
-1
48
1
60
0
100
AcDbLine
10
-114.1
20
9.9375
30
0
11
-113.682003
21
6.762502
31
0
39
0
210
0
220
0
230
1
0
LINE
5
E2
100
AcDbEntity
8
SK2
62
256
6
ByLayer
370
-1
48
1
60
0
100
AcDbLine
10
-114.1
20
9.9375
30
0
11
-114.517997
21
6.762498
31
0
39
0
210
0
220
0
230
1
0
LINE
5
E3
100
AcDbEntity
8
SK2
62
256
6
ByLayer
370
-1
48
1
60
0
100
AcDbLine
10
-113.682003
20
6.762502
30
0
11
-114.517997
21
6.762498
31
0
39
0
210
0
220
0
230
1
0
ENDBLK
5
E5
100
AcDbEntity
8
0
100
AcDbBlockEnd
0
BLOCK
5
F2
100
AcDbEntity
8
0
100
AcDbBlockBegin
2
DimnDraft3D3
70
0
10
0
20
0
30
0
3
DimnDraft3D3
0
MTEXT
5
E8
100
AcDbEntity
8
2
62
256
6
ByLayer
370
-1
48
1
60
0
100
AcDbMText
10
48.125
20
1.233553
30
0
210
0
220
0
230
1
1
\W01.000;\fsimplex.shx,bigfont.shx;25 
40
4.5
41
0
44
1.084337
50
90
71
7
72
5
7
DEFAULT
0
LINE
5
E9
100
AcDbEntity
8
2
62
256
6
ByLayer
370
-1
48
1
60
0
100
AcDbLine
10
2
20
-9.9375
30
0
11
51.25
21
-9.9375
31
0
39
0
210
0
220
0
230
1
0
LINE
5
EA
100
AcDbEntity
8
2
62
256
6
ByLayer
370
-1
48
1
60
0
100
AcDbLine
10
24
20
15.4125
30
0
11
51.25
21
15.4125
31
0
39
0
210
0
220
0
230
1
0
LINE
5
EB
100
AcDbEntity
8
2
62
256
6
ByLayer
370
-1
48
1
60
0
100
AcDbLine
10
49.25
20
-9.9375
30
0
11
49.25
21
15.4125
31
0
39
0
210
0
220
0
230
1
0
LINE
5
EC
100
AcDbEntity
8
2
62
256
6
ByLayer
370
-1
48
1
60
0
100
AcDbLine
10
49.25
20
-9.9375
30
0
11
48.832003
21
-6.762502
31
0
39
0
210
0
220
0
230
1
0
LINE
5
ED
100
AcDbEntity
8
2
62
256
6
ByLayer
370
-1
48
1
60
0
100
AcDbLine
10
49.25
20
-9.9375
30
0
11
49.667997
21
-6.762498
31
0
39
0
210
0
220
0
230
1
0
LINE
5
EE
100
AcDbEntity
8
2
62
256
6
ByLayer
370
-1
48
1
60
0
100
AcDbLine
10
48.832003
20
-6.762502
30
0
11
49.667997
21
-6.762498
31
0
39
0
210
0
220
0
230
1
0
LINE
5
EF
100
AcDbEntity
8
2
62
256
6
ByLayer
370
-1
48
1
60
0
100
AcDbLine
10
49.25
20
15.4125
30
0
11
49.667997
21
12.237502
31
0
39
0
210
0
220
0
230
1
0
LINE
5
F0
100
AcDbEntity
8
2
62
256
6
ByLayer
370
-1
48
1
60
0
100
AcDbLine
10
49.25
20
15.4125
30
0
11
48.832003
21
12.237498
31
0
39
0
210
0
220
0
230
1
0
LINE
5
F1
100
AcDbEntity
8
2
62
256
6
ByLayer
370
-1
48
1
60
0
100
AcDbLine
10
49.667997
20
12.237502
30
0
11
48.832003
21
12.237498
31
0
39
0
210
0
220
0
230
1
0
ENDBLK
5
F3
100
AcDbEntity
8
0
100
AcDbBlockEnd
0
BLOCK
5
100
100
AcDbEntity
8
0
100
AcDbBlockBegin
2
DimnDraft3D4
70
0
10
0
20
0
30
0
3
DimnDraft3D4
0
MTEXT
5
F6
100
AcDbEntity
8
SK2
62
256
6
ByLayer
370
-1
48
1
60
0
100
AcDbMText
10
-43.768421
20
36.2875
30
0
210
0
220
0
230
1
1
\W01.000;\fsimplex.shx,bigfont.shx;125 
40
4.5
41
0
44
1.084337
50
0
71
7
72
5
7
DEFAULT
0
LINE
5
F7
100
AcDbEntity
8
SK2
62
256
6
ByLayer
370
-1
48
1
60
0
100
AcDbLine
10
22
20
17.4125
30
0
11
22
21
37.1625
31
0
39
0
210
0
220
0
230
1
0
LINE
5
F8
100
AcDbEntity
8
SK2
62
256
6
ByLayer
370
-1
48
1
60
0
100
AcDbLine
10
-104.35
20
11.9375
30
0
11
-104.35
21
37.1625
31
0
39
0
210
0
220
0
230
1
0
LINE
5
F9
100
AcDbEntity
8
SK2
62
256
6
ByLayer
370
-1
48
1
60
0
100
AcDbLine
10
22
20
35.1625
30
0
11
-104.35
21
35.1625
31
0
39
0
210
0
220
0
230
1
0
LINE
5
FA
100
AcDbEntity
8
SK2
62
256
6
ByLayer
370
-1
48
1
60
0
100
AcDbLine
10
22
20
35.1625
30
0
11
18.825002
21
34.744503
31
0
39
0
210
0
220
0
230
1
0
LINE
5
FB
100
AcDbEntity
8
SK2
62
256
6
ByLayer
370
-1
48
1
60
0
100
AcDbLine
10
22
20
35.1625
30
0
11
18.824998
21
35.580497
31
0
39
0
210
0
220
0
230
1
0
LINE
5
FC
100
AcDbEntity
8
SK2
62
256
6
ByLayer
370
-1
48
1
60
0
100
AcDbLine
10
18.825002
20
34.744503
30
0
11
18.824998
21
35.580497
31
0
39
0
210
0
220
0
230
1
0
LINE
5
FD
100
AcDbEntity
8
SK2
62
256
6
ByLayer
370
-1
48
1
60
0
100
AcDbLine
10
-104.35
20
35.1625
30
0
11
-101.175002
21
35.580497
31
0
39
0
210
0
220
0
230
1
0
LINE
5
FE
100
AcDbEntity
8
SK2
62
256
6
ByLayer
370
-1
48
1
60
0
100
AcDbLine
10
-104.35
20
35.1625
30
0
11
-101.174998
21
34.744503
31
0
39
0
210
0
220
0
230
1
0
LINE
5
FF
100
AcDbEntity
8
SK2
62
256
6
ByLayer
370
-1
48
1
60
0
100
AcDbLine
10
-101.175002
20
35.580497
30
0
11
-101.174998
21
34.744503
31
0
39
0
210
0
220
0
230
1
0
ENDBLK
5
101
100
AcDbEntity
8
0
100
AcDbBlockEnd
0
ENDSEC
0
SECTION
2
ENTITIES
0
ARC
5
6E
100
AcDbEntity
8
1
62
256
6
ByLayer
370
-1
48
1
60
0
100
AcDbCircle
39
0
10
-20.211301
20
3.843484
30
0
40
8.1
210
0
220
0
230
-1
100
AcDbArc
50
34.497476
51
36.304613
0
ARC
5
6F
100
AcDbEntity
8
1
62
256
6
ByLayer
370
-1
48
1
60
0
100
AcDbCircle
39
0
10
-13.223118
20
22.534228
30
0
40
8.10000000000002
210
0
220
0
230
-1
100
AcDbArc
50
282.695387
51
284.502524
0
ARC
5
70
100
AcDbEntity
8
1
62
256
6
ByLayer
370
-1
48
1
60
0
100
AcDbCircle
39
0
10
4.541132
20
7.761553
30
0
40
1.49999999999999
210
0
220
0
230
1
100
AcDbArc
50
340.849766
51
18.390228
0
ARC
5
71
100
AcDbEntity
8
1
62
256
6
ByLayer
370
-1
48
1
60
0
100
AcDbCircle
39
0
10
-4.541132
20
7.761553
30
0
40
1.49999999999999
210
0
220
0
230
-1
100
AcDbArc
50
209.428876
51
91.042428
0
ARC
5
72
100
AcDbEntity
8
1
62
256
6
ByLayer
370
-1
48
1
60
0
100
AcDbCircle
39
0
10
-11.929374
20
14.508645
30
0
40
0.396874999999999
210
0
220
0
230
-1
100
AcDbArc
50
52
51
87
0
ARC
5
73
100
AcDbEntity
8
1
62
256
6
ByLayer
370
-1
48
1
60
0
100
AcDbCircle
39
0
10
12.949509
20
11.780171
30
0
40
0.748000000000004
210
0
220
0
230
1
100
AcDbArc
50
350.524579
51
50.475421
0
ARC
5
74
100
AcDbEntity
8
1
62
256
6
ByLayer
370
-1
48
1
60
0
100
AcDbCircle
39
0
10
12.949509
20
11.780171
30
0
40
0.748000000000004
210
0
220
0
230
1
100
AcDbArc
50
292.661847
51
350.524579
0
ARC
5
76
100
AcDbEntity
8
1
62
256
6
ByLayer
370
-1
48
1
60
0
100
AcDbCircle
39
0
10
-12.949509
20
11.780171
30
0
40
1.03499999999999
210
0
220
0
230
-1
100
AcDbArc
50
39.450841
51
99.549159
0
ARC
5
77
100
AcDbEntity
8
1
62
256
6
ByLayer
370
-1
48
1
60
0
100
AcDbCircle
39
0
10
12.949509
20
11.780171
30
0
40
0.748000000000004
210
0
220
0
230
1
100
AcDbArc
50
50.475421
51
108.338153
0
ARC
5
78
100
AcDbEntity
8
1
62
256
6
ByLayer
370
-1
48
1
60
0
100
AcDbCircle
39
0
10
-12.949509
20
11.780171
30
0
40
0.748000000000004
210
0
220
0
230
-1
100
AcDbArc
50
67.338153
51
71.661847
0
ARC
5
79
100
AcDbEntity
8
1
62
256
6
ByLayer
370
-1
48
1
60
0
100
AcDbCircle
39
0
10
12.949509
20
11.780171
30
0
40
0.748000000000004
210
0
220
0
230
1
100
AcDbArc
50
230.475421
51
288.338153
0
ARC
5
7A
100
AcDbEntity
8
1
62
256
6
ByLayer
370
-1
48
1
60
0
100
AcDbCircle
39
0
10
-12.949509
20
11.780171
30
0
40
0.748000000000004
210
0
220
0
230
-1
100
AcDbArc
50
9.475421
51
67.338153
0
ARC
5
7B
100
AcDbEntity
8
1
62
256
6
ByLayer
370
-1
48
1
60
0
100
AcDbCircle
39
0
10
-13.969644
20
9.051696
30
0
40
0.396874999999999
210
0
220
0
230
-1
100
AcDbArc
50
232
51
267
0
ARC
5
7C
100
AcDbEntity
8
1
62
256
6
ByLayer
370
-1
48
1
60
0
100
AcDbCircle
39
0
10
-21.603125
20
15.015625
30
0
40
0.396875000000005
210
0
220
0
230
-1
100
AcDbArc
50
87
51
232
0
ARC
5
7D
100
AcDbEntity
8
1
62
256
6
ByLayer
370
-1
48
1
60
0
100
AcDbCircle
39
0
10
-12.949509
20
11.780171
30
0
40
1.03499999999999
210
0
220
0
230
-1
100
AcDbArc
50
219.450841
51
279.549159
0
ARC
5
7F
100
AcDbEntity
8
1
62
256
6
ByLayer
370
-1
48
1
60
0
100
AcDbCircle
39
0
10
-4.295894
20
8.544716
30
0
40
0.396875000000005
210
0
220
0
230
-1
100
AcDbArc
50
267
51
52
0
ARC
5
81
100
AcDbEntity
8
1
62
256
6
ByLayer
370
-1
48
1
60
0
100
AcDbCircle
39
0
10
-12.949509
20
11.780171
30
0
40
1.03499999999999
210
0
220
0
230
-1
100
AcDbArc
50
99.549159
51
159.5
0
ARC
5
82
100
AcDbEntity
8
1
62
256
6
ByLayer
370
-1
48
1
60
0
100
AcDbCircle
39
0
10
12.949509
20
11.780171
30
0
40
0.748000000000004
210
0
220
0
230
1
100
AcDbArc
50
170.524579
51
230.475421
0
ARC
5
83
100
AcDbEntity
8
1
62
256
6
ByLayer
370
-1
48
1
60
0
100
AcDbCircle
39
0
10
-12.949509
20
11.780171
30
0
40
1.03499999999999
210
0
220
0
230
-1
100
AcDbArc
50
279.549159
51
339.5
0
ARC
5
85
100
AcDbEntity
8
1
62
256
6
ByLayer
370
-1
48
1
60
0
100
AcDbCircle
39
0
10
-12.949509
20
11.780171
30
0
40
1.03499999999999
210
0
220
0
230
-1
100
AcDbArc
50
159.5
51
219.450841
0
ARC
5
86
100
AcDbEntity
8
1
62
256
6
ByLayer
370
-1
48
1
60
0
100
AcDbCircle
39
0
10
-12.949509
20
11.780171
30
0
40
1.03499999999999
210
0
220
0
230
-1
100
AcDbArc
50
339.5
51
39.450841
0
ARC
5
87
100
AcDbEntity
8
1
62
256
6
ByLayer
370
-1
48
1
60
0
100
AcDbCircle
39
0
10
-12.949509
20
11.780171
30
0
40
0.748000000000004
210
0
220
0
230
-1
100
AcDbArc
50
247.338153
51
251.661847
0
CIRCLE
5
75
100
AcDbEntity
8
1
62
256
6
ByLayer
370
-1
48
1
60
0
100
AcDbCircle
10
-12.949509
20
11.780171
30
0
40
1.725
39
0
210
0
220
0
230
-1
0
CIRCLE
5
7E
100
AcDbEntity
8
1
62
256
6
ByLayer
370
-1
48
1
60
0
100
AcDbCircle
10
-12.949509
20
11.780171
30
0
40
1.3
39
0
210
0
220
0
230
-1
0
CIRCLE
5
80
100
AcDbEntity
8
1
62
256
6
ByLayer
370
-1
48
1
60
0
100
AcDbCircle
10
12.949509
20
11.780171
30
0
40
1.80141464041839
39
0
210
0
220
0
230
1
0
CIRCLE
5
84
100
AcDbEntity
8
1
62
256
6
ByLayer
370
-1
48
1
60
0
100
AcDbCircle
10
12.949509
20
11.780171
30
0
40
1.90468944117779
39
0
210
0
220
0
230
1
0
CIRCLE
5
88
100
AcDbEntity
8
1
62
256
6
ByLayer
370
-1
48
1
60
0
100
AcDbCircle
10
-12.949509
20
11.780171
30
0
40
1.88122167929294
39
0
210
0
220
0
230
-1
0
ELLIPSE
5
89
100
AcDbEntity
8
1
62
256
6
ByLayer
370
-1
48
1
60
0
100
AcDbEllipse
10
4.541132
20
7.761553
30
0
11
-1.37965714660577
21
0.588681719603399
31
0
210
0
220
0
230
1
40
1
41
3.0312605285394
42
-3.07253879103508
0
POINT
5
41
100
AcDbEntity
8
SK2
62
256
6
ByLayer
370
-1
48
1
60
0
100
AcDbPoint
10
22
20
15.4125
30
0
39
0
210
0
220
0
230
1
50
360
0
POINT
5
43
100
AcDbEntity
8
2
62
256
6
ByLayer
370
-1
48
1
60
0
100
AcDbPoint
10
22
20
15.4125
30
0
39
0
210
0
220
0
230
1
50
360
0
POINT
5
45
100
AcDbEntity
8
SK2
62
256
6
ByLayer
370
-1
48
1
60
0
100
AcDbPoint
10
22
20
15.4125
30
0
39
0
210
0
220
0
230
1
50
360
0
POINT
5
46
100
AcDbEntity
8
SK2
62
256
6
ByLayer
370
-1
48
1
60
0
100
AcDbPoint
10
22
20
15.4125
30
0
39
0
210
0
220
0
230
1
50
360
0
POINT
5
47
100
AcDbEntity
8
80
62
256
6
ByLayer
370
-1
48
1
60
0
100
AcDbPoint
10
0
20
0
30
0
39
0
210
0
220
0
230
1
50
360
0
POINT
5
49
100
AcDbEntity
8
SK2
62
256
6
ByLayer
370
-1
48
1
60
0
100
AcDbPoint
10
22
20
15.4125
30
0
39
0
210
0
220
0
230
1
50
360
0
POINT
5
4A
100
AcDbEntity
8
81
62
256
6
ByLayer
370
-1
48
1
60
0
100
AcDbPoint
10
22
20
15.4125
30
0
39
0
210
0
220
0
230
1
50
360
0
SPLINE
5
8A
100
AcDbEntity
8
1
62
256
6
ByLayer
370
-1
48
1
60
0
100
AcDbSpline
70
4
71
3
72
18
73
14
40
0
40
0
40
0
40
0
40
0.213401032662303
40
0.213401032662303
40
0.389009763545768
40
0.389009763545768
40
0.566256681222302
40
0.566256681222302
40
0.721179527483691
40
0.721179527483691
40
0.927421658996494
40
0.927421658996494
40
1
40
1
40
1
40
1
41
1
10
12.6245391940398
20
10.9223637783746
30
0
41
1
10
12.6199488789182
20
10.9654806885763
30
0
41
1
10
12.6084524177328
20
11.0093509725857
30
0
41
1
10
12.574138400041
20
11.0854803936846
30
0
41
1
10
12.5532086011429
20
11.1192384494185
30
0
41
1
10
12.5019487971075
20
11.1800859582701
30
0
41
1
10
12.4706947199981
20
11.2079318107418
30
0
41
1
10
12.4075885452171
20
11.2495170685215
30
0
41
1
10
12.3755859836372
20
11.2651330404794
30
0
41
1
10
12.3007694069072
20
11.2911319761087
30
0
41
1
10
12.2566344273135
20
11.2986632365734
30
0
41
1
10
12.198956036762
20
11.2999188579975
30
0
41
1
10
12.1839122478941
20
11.2994301415547
30
0
41
1
10
12.1690561243675
20
11.2981633381762
30
0
0
SPLINE
5
8B
100
AcDbEntity
8
1
62
256
6
ByLayer
370
-1
48
1
60
0
100
AcDbSpline
70
4
71
3
72
12
73
8
40
0
40
0
40
0
40
0
40
0.377026769291604
40
0.377026769291604
40
0.761057337838276
40
0.761057337838276
40
1
40
1
40
1
40
1
41
1
10
12.7141701049848
20
12.4901843743007
30
0
41
1
10
12.750175536056
20
12.5064670657845
30
0
41
1
10
12.7839635719256
20
12.5280683361648
30
0
41
1
10
12.8426517435966
20
12.5777600103752
30
0
41
1
10
12.8682304149232
20
12.6065602046203
30
0
41
1
10
12.9020149366151
20
12.6561339723197
30
0
41
1
10
12.9133021152572
20
12.6760750572358
30
0
41
1
10
12.9228196527666
20
12.6965075995072
30
0
0
SPLINE
5
8C
100
AcDbEntity
8
1
62
256
6
ByLayer
370
-1
48
1
60
0
100
AcDbSpline
70
4
71
3
72
18
73
14
40
0
40
0
40
0
40
0
40
0.213344534360652
40
0.213344534360652
40
0.38896297448868
40
0.38896297448868
40
0.566220263555541
40
0.566220263555541
40
0.721144845531712
40
0.721144845531712
40
0.92737677980977
40
0.92737677980977
40
1
40
1
40
1
40
1
41
1
10
12.0442685509131
20
11.6319228643123
30
0
41
1
10
12.0792825321099
20
11.6574799336775
30
0
41
1
10
12.1114917638248
20
11.6893886126857
30
0
41
1
10
12.1602058138157
20
11.7571983561154
30
0
41
1
10
12.1789498475311
20
11.7922190189203
30
0
41
1
10
12.2059581915635
20
11.8670596917064
30
0
41
1
10
12.2144145734709
20
11.9080585256311
30
0
41
1
10
12.218815354156
20
11.9835093353418
30
0
41
1
10
12.2163094300967
20
12.0190311885221
30
0
41
1
10
12.2013545887357
20
12.0968108194623
30
0
41
1
10
12.1857764613651
20
12.1387845522851
30
0
41
1
10
12.1579808330275
20
12.1893482464787
30
0
41
1
10
12.1500201850136
20
12.2021335873823
30
0
41
1
10
12.1414792929256
20
12.2143661727488
30
0
0
SPLINE
5
8D
100
AcDbEntity
8
1
62
256
6
ByLayer
370
-1
48
1
60
0
100
AcDbSpline
70
4
71
3
72
16
73
12
40
0
40
0
40
0
40
0
40
0.0666801185230025
40
0.0666801185230025
40
0.291327849312131
40
0.291327849312131
40
0.518943310444971
40
0.518943310444971
40
0.761116805784628
40
0.761116805784628
40
1
40
1
40
1
40
1
41
1
10
13.9189650222422
20
12.142635309606
30
0
41
1
10
13.9170005246168
20
12.1478895971796
30
0
41
1
10
13.9147938593001
20
12.1530608836354
30
0
41
1
10
13.9042224961181
20
12.1750142827742
30
0
41
1
10
13.8933520595224
20
12.1908036540248
30
0
41
1
10
13.8679318891152
20
12.2179551450154
30
0
41
1
10
13.8530227077318
20
12.2296119487352
30
0
41
1
10
13.8204459820788
20
12.2481661854254
30
0
41
1
10
13.802264830371
20
12.2549615067923
30
0
41
1
10
13.7660733200007
20
12.2626365398157
30
0
41
1
10
13.7476918075896
20
12.2636898068056
30
0
41
1
10
13.7299624883727
20
12.2621780018289
30
0
0
SPLINE
5
8E
100
AcDbEntity
8
1
62
256
6
ByLayer
370
-1
48
1
60
0
100
AcDbSpline
70
4
71
3
72
16
73
12
40
0
40
0
40
0
40
0
40
0.0668780938433846
40
0.0668780938433846
40
0.290864569546888
40
0.290864569546888
40
0.517832136788115
40
0.517832136788115
40
0.759333160551484
40
0.759333160551484
40
1
40
1
40
1
40
1
41
1
10
13.1212093458935
20
12.8008293281384
30
0
41
1
10
13.1156451023453
20
12.8017653715741
30
0
41
1
10
13.1100308167727
20
12.8024472762635
30
0
41
1
10
13.0857014962456
20
12.8042791976445
30
0
41
1
10
13.0665929114812
20
12.8027661670115
30
0
41
1
10
13.0303667743707
20
12.7943399038324
30
0
41
1
10
13.0128144907454
20
12.7872623668047
30
0
41
1
10
12.9804498988639
20
12.7683372364124
30
0
41
1
10
12.9654693436053
20
12.7559935167776
30
0
41
1
10
12.9405936580568
20
12.728357646267
30
0
41
1
10
12.930406381252
20
12.7127950215768
30
0
41
1
10
12.9228196527666
20
12.6965075995072
30
0
0
SPLINE
5
8F
100
AcDbEntity
8
1
62
256
6
ByLayer
370
-1
48
1
60
0
100
AcDbSpline
70
4
71
3
72
12
73
8
40
0
40
0
40
0
40
0
40
0.464554249887329
40
0.464554249887329
40
0.846536430465631
40
0.846536430465631
40
1
40
1
40
1
40
1
41
1
10
13.5305374853017
20
11.0710924223662
30
0
41
1
10
13.4908752436784
20
11.0887709012631
30
0
41
1
10
13.4470918573821
20
11.1008337310142
30
0
41
1
10
13.3639302516229
20
11.1092995365715
30
0
41
1
10
13.3242036023618
20
11.1081017558451
30
0
41
1
10
13.2692279812324
20
11.0983613824792
30
0
41
1
10
13.2533343149522
20
11.0945983373936
30
0
41
1
10
13.2377074578944
20
11.0899201173349
30
0
0
SPLINE
5
90
100
AcDbEntity
8
1
62
256
6
ByLayer
370
-1
48
1
60
0
100
AcDbSpline
70
4
71
3
72
14
73
10
40
0
40
0
40
0
40
0
40
0.283980725520055
40
0.283980725520055
40
0.570701471413915
40
0.570701471413915
40
0.830482212433033
40
0.830482212433033
40
1
40
1
40
1
40
1
41
1
10
12.3684811274385
20
12.4892489176388
30
0
41
1
10
12.3491400138087
20
12.4978697483118
30
0
41
1
10
12.3276692483084
20
12.5033586888986
30
0
41
1
10
12.2835486255405
20
12.5063517799492
30
0
41
1
10
12.2602046662244
20
12.5037853317402
30
0
41
1
10
12.2179905048669
20
12.4906156384918
30
0
41
1
10
12.1982810851827
20
12.4805559686837
30
0
41
1
10
12.1697958365488
20
12.4588595828592
30
0
41
1
10
12.1593707587658
20
12.4488329631399
30
0
41
1
10
12.1503133134298
20
12.4378261762275
30
0
0
SPLINE
5
91
100
AcDbEntity
8
1
62
256
6
ByLayer
370
-1
48
1
60
0
100
AcDbSpline
70
4
71
3
72
12
73
8
40
0
40
0
40
0
40
0
40
0.464554249887507
40
0.464554249887507
40
0.846536430465943
40
0.846536430465943
40
1
40
1
40
1
40
1
41
1
10
12.3684811274385
20
12.4892489176388
30
0
41
1
10
12.4081433690618
20
12.4715704387419
30
0
41
1
10
12.4519267553582
20
12.4595076089908
30
0
41
1
10
12.5350883611174
20
12.4510418034336
30
0
41
1
10
12.5748150103784
20
12.4522395841599
30
0
41
1
10
12.6297906315078
20
12.4619799575258
30
0
41
1
10
12.6456842977879
20
12.4657430026114
30
0
41
1
10
12.6613111548457
20
12.4704212226701
30
0
0
SPLINE
5
92
100
AcDbEntity
8
1
62
256
6
ByLayer
370
-1
48
1
60
0
100
AcDbSpline
70
4
71
3
72
14
73
10
40
0
40
0
40
0
40
0
40
0.284544925007721
40
0.284544925007721
40
0.571755524855746
40
0.571755524855746
40
0.832016155851741
40
0.832016155851741
40
1
40
1
40
1
40
1
41
1
10
12.6245391940398
20
10.9223637783746
30
0
41
1
10
12.6267796781432
20
10.9013188720152
30
0
41
1
10
12.6327940110388
20
10.8800005227303
30
0
41
1
10
12.6523131208522
20
10.8403495222695
30
0
41
1
10
12.6662243961966
20
10.8214514496484
30
0
41
1
10
12.6987505182536
20
10.7915428313025
30
0
41
1
10
12.7173165833126
20
10.7795355739184
30
0
41
1
10
12.7501926993323
20
10.7658195482692
30
0
41
1
10
12.7639184713682
20
10.7618487873534
30
0
41
1
10
12.7778092668467
20
10.7595120118667
30
0
0
SPLINE
5
93
100
AcDbEntity
8
1
62
256
6
ByLayer
370
-1
48
1
60
0
100
AcDbSpline
70
4
71
3
72
18
73
14
40
0
40
0
40
0
40
0
40
0.213344534360665
40
0.213344534360665
40
0.388962974488682
40
0.388962974488682
40
0.566220263555532
40
0.566220263555532
40
0.721144845531712
40
0.721144845531712
40
0.927376779809786
40
0.927376779809786
40
1
40
1
40
1
40
1
41
1
10
13.8547500618272
20
11.9284184756927
30
0
41
1
10
13.8197360806303
20
11.9028614063275
30
0
41
1
10
13.7875268489154
20
11.8709527273193
30
0
41
1
10
13.7388127989246
20
11.8031429838896
30
0
41
1
10
13.7200687652092
20
11.7681223210847
30
0
41
1
10
13.6930604211767
20
11.6932816482986
30
0
41
1
10
13.6846040392693
20
11.6522828143739
30
0
41
1
10
13.6802032585842
20
11.5768320046632
30
0
41
1
10
13.6827091826436
20
11.5413101514829
30
0
41
1
10
13.6976640240046
20
11.4635305205427
30
0
41
1
10
13.7132421513751
20
11.42155678772
30
0
41
1
10
13.7410377797127
20
11.3709930935263
30
0
41
1
10
13.7489984277267
20
11.3582077526228
30
0
41
1
10
13.7575393198146
20
11.3459751672562
30
0
0
SPLINE
5
94
100
AcDbEntity
8
1
62
256
6
ByLayer
370
-1
48
1
60
0
100
AcDbSpline
70
4
71
3
72
12
73
8
40
0
40
0
40
0
40
0
40
0.377026770614173
40
0.377026770614173
40
0.761057339373687
40
0.761057339373687
40
1
40
1
40
1
40
1
41
1
10
13.1848485077555
20
11.0701569657043
30
0
41
1
10
13.1488430765584
20
11.0538742741636
30
0
41
1
10
13.1150550405783
20
11.0322730036879
30
0
41
1
10
13.0563668688482
20
10.9825813293307
30
0
41
1
10
13.030788197542
20
10.9537811350503
30
0
41
1
10
12.9970036759804
20
10.9042073674297
30
0
41
1
10
12.9857164974221
20
10.8842662826384
30
0
41
1
10
12.9761989599735
20
10.8638337404977
30
0
0
SPLINE
5
95
100
AcDbEntity
8
1
62
256
6
ByLayer
370
-1
48
1
60
0
100
AcDbSpline
70
4
71
3
72
14
73
10
40
0
40
0
40
0
40
0
40
0.284544925007716
40
0.284544925007716
40
0.571755524855776
40
0.571755524855776
40
0.832016155851781
40
0.832016155851781
40
1
40
1
40
1
40
1
41
1
10
13.2744794187004
20
12.6379775616304
30
0
41
1
10
13.272238934597
20
12.6590224679897
30
0
41
1
10
13.2662246017013
20
12.6803408172747
30
0
41
1
10
13.246705491888
20
12.7199918177355
30
0
41
1
10
13.2327942165436
20
12.7388898903566
30
0
41
1
10
13.2002680944866
20
12.7687985087025
30
0
41
1
10
13.1817020294276
20
12.7808057660866
30
0
41
1
10
13.1488259134079
20
12.7945217917358
30
0
41
1
10
13.135100141372
20
12.7984925526516
30
0
41
1
10
13.1212093458935
20
12.8008293281384
30
0
0
SPLINE
5
96
100
AcDbEntity
8
1
62
256
6
ByLayer
370
-1
48
1
60
0
100
AcDbSpline
70
4
71
3
72
14
73
10
40
0
40
0
40
0
40
0
40
0.283999679271281
40
0.283999679271281
40
0.571278515706073
40
0.571278515706073
40
0.831593340341225
40
0.831593340341225
40
1
40
1
40
1
40
1
41
1
10
13.8547500618271
20
11.9284184756927
30
0
41
1
10
13.8718118861109
20
11.9408720788482
30
0
41
1
10
13.8872266167495
20
11.9567154838517
30
0
41
1
10
13.9117772389445
20
11.9934154757914
30
0
41
1
10
13.9211852410802
20
12.014917384655
30
0
41
1
10
13.9308155775434
20
12.058049281349
30
0
41
1
10
13.9319258404926
20
12.080135587671
30
0
41
1
10
13.9273512109537
20
12.1155022244811
30
0
41
1
10
13.9239104029868
20
12.129408287971
30
0
41
1
10
13.9189650222422
20
12.142635309606
30
0
0
SPLINE
5
97
100
AcDbEntity
8
1
62
256
6
ByLayer
370
-1
48
1
60
0
100
AcDbSpline
70
4
71
3
72
16
73
12
40
0
40
0
40
0
40
0
40
0.0666801185229393
40
0.0666801185229393
40
0.291327849312032
40
0.291327849312032
40
0.518943310444853
40
0.518943310444853
40
0.761116805784552
40
0.761116805784552
40
1
40
1
40
1
40
1
41
1
10
11.980053590498
20
11.417706030399
30
0
41
1
10
11.9820180881234
20
11.4124517428254
30
0
41
1
10
11.9842247534402
20
11.4072804563696
30
0
41
1
10
11.9947961166222
20
11.3853270572308
30
0
41
1
10
12.0056665532178
20
11.3695376859802
30
0
41
1
10
12.031086723625
20
11.3423861949896
30
0
41
1
10
12.0459959050084
20
11.3307293912698
30
0
41
1
10
12.0785726306614
20
11.3121751545796
30
0
41
1
10
12.0967537823692
20
11.3053798332128
30
0
41
1
10
12.1329452927395
20
11.2977048001894
30
0
41
1
10
12.1513268051506
20
11.2966515331994
30
0
41
1
10
12.1690561243675
20
11.2981633381762
30
0
0
SPLINE
5
98
100
AcDbEntity
8
1
62
256
6
ByLayer
370
-1
48
1
60
0
100
AcDbSpline
70
4
71
3
72
16
73
12
40
0
40
0
40
0
40
0
40
0.0651963742943598
40
0.0651963742943598
40
0.28986352335063
40
0.28986352335063
40
0.517415117715285
40
0.517415117715285
40
0.759456886687444
40
0.759456886687444
40
1
40
1
40
1
40
1
41
1
10
13.7487052993104
20
11.1225151637775
30
0
41
1
10
13.7521909232741
20
11.1267509630344
30
0
41
1
10
13.7554918084923
20
11.1311473405998
30
0
41
1
10
13.7691732450292
20
11.1511633811097
30
0
41
1
10
13.7774335662705
20
11.1684666169311
30
0
41
1
10
13.7882769698551
20
11.2040477084066
30
0
41
1
10
13.7909381530642
20
11.2227839857724
30
0
41
1
10
13.7907598396258
20
11.2602673703663
30
0
41
1
10
13.78757717256
20
11.2794089321657
30
0
41
1
10
13.7761317063633
20
11.3147216388869
30
0
41
1
10
13.7677951746689
20
11.3312863480181
30
0
41
1
10
13.7575393198146
20
11.3459751672562
30
0
0
SPLINE
5
99
100
AcDbEntity
8
1
62
256
6
ByLayer
370
-1
48
1
60
0
100
AcDbSpline
70
4
71
3
72
18
73
14
40
0
40
0
40
0
40
0
40
0.213401032662311
40
0.213401032662311
40
0.38900976354579
40
0.38900976354579
40
0.566256681222337
40
0.566256681222337
40
0.721179527483737
40
0.721179527483737
40
0.927421658996579
40
0.927421658996579
40
1
40
1
40
1
40
1
41
1
10
13.2744794187004
20
12.6379775616304
30
0
41
1
10
13.279069733822
20
12.5948606514287
30
0
41
1
10
13.2905661950075
20
12.5509903674193
30
0
41
1
10
13.3248802126993
20
12.4748609463205
30
0
41
1
10
13.3458100115974
20
12.4411028905865
30
0
41
1
10
13.3970698156328
20
12.3802553817349
30
0
41
1
10
13.4283238927421
20
12.3524095292632
30
0
41
1
10
13.4914300675232
20
12.3108242714835
30
0
41
1
10
13.523432629103
20
12.2952082995256
30
0
41
1
10
13.5982492058331
20
12.2692093638963
30
0
41
1
10
13.6423841854268
20
12.2616781034316
30
0
41
1
10
13.7000625759783
20
12.2604224820076
30
0
41
1
10
13.7151063648462
20
12.2609111984503
30
0
41
1
10
13.7299624883727
20
12.2621780018289
30
0
0
SPLINE
5
9A
100
AcDbEntity
8
1
62
256
6
ByLayer
370
-1
48
1
60
0
100
AcDbSpline
70
4
71
3
72
14
73
10
40
0
40
0
40
0
40
0
40
0.283980725520082
40
0.283980725520082
40
0.570701471413909
40
0.570701471413909
40
0.830482212432984
40
0.830482212432984
40
1
40
1
40
1
40
1
41
1
10
13.5305374853017
20
11.0710924223662
30
0
41
1
10
13.5498785989315
20
11.0624715916932
30
0
41
1
10
13.5713493644318
20
11.0569826511064
30
0
41
1
10
13.6154699871998
20
11.0539895600558
30
0
41
1
10
13.6388139465158
20
11.0565560082648
30
0
41
1
10
13.6810281078733
20
11.0697257015132
30
0
41
1
10
13.7007375275575
20
11.0797853713213
30
0
41
1
10
13.7292227761914
20
11.1014817571458
30
0
41
1
10
13.7396478539745
20
11.111508376865
30
0
41
1
10
13.7487052993104
20
11.1225151637775
30
0
0
SPLINE
5
9B
100
AcDbEntity
8
1
62
256
6
ByLayer
370
-1
48
1
60
0
100
AcDbSpline
70
4
71
3
72
16
73
12
40
0
40
0
40
0
40
0
40
0.0668780938433692
40
0.0668780938433692
40
0.290864569547002
40
0.290864569547002
40
0.517832136788419
40
0.517832136788419
40
0.75933316055188
40
0.75933316055188
40
1
40
1
40
1
40
1
41
1
10
12.7778092668467
20
10.7595120118667
30
0
41
1
10
12.7833735103949
20
10.7585759684309
30
0
41
1
10
12.7889877959675
20
10.7578940637415
30
0
41
1
10
12.8133171164946
20
10.7560621423605
30
0
41
1
10
12.832425701259
20
10.7575751729935
30
0
41
1
10
12.8686518383695
20
10.7660014361726
30
0
41
1
10
12.8862041219948
20
10.7730789732003
30
0
41
1
10
12.9185687138763
20
10.7920041035926
30
0
41
1
10
12.9335492691349
20
10.8043478232273
30
0
41
1
10
12.9584249546834
20
10.8319836937379
30
0
41
1
10
12.9686122314881
20
10.8475463184281
30
0
41
1
10
12.9761989599735
20
10.8638337404977
30
0
0
SPLINE
5
9C
100
AcDbEntity
8
1
62
256
6
ByLayer
370
-1
48
1
60
0
100
AcDbSpline
70
4
71
3
72
16
73
12
40
0
40
0
40
0
40
0
40
0.0651963742943666
40
0.0651963742943666
40
0.289863523350771
40
0.289863523350771
40
0.517415117715375
40
0.517415117715375
40
0.759456886687608
40
0.759456886687608
40
1
40
1
40
1
40
1
41
1
10
12.1503133134298
20
12.4378261762275
30
0
41
1
10
12.1468276894662
20
12.4335903769706
30
0
41
1
10
12.1435268042479
20
12.4291939994052
30
0
41
1
10
12.1298453677111
20
12.4091779588952
30
0
41
1
10
12.1215850464698
20
12.3918747230739
30
0
41
1
10
12.1107416428851
20
12.3562936315983
30
0
41
1
10
12.1080804596761
20
12.3375573542326
30
0
41
1
10
12.1082587731144
20
12.3000739696387
30
0
41
1
10
12.1114414401803
20
12.2809324078393
30
0
41
1
10
12.122886906377
20
12.2456197011181
30
0
41
1
10
12.1312234380714
20
12.2290549919869
30
0
41
1
10
12.1414792929256
20
12.2143661727488
30
0
0
SPLINE
5
9D
100
AcDbEntity
8
1
62
256
6
ByLayer
370
-1
48
1
60
0
100
AcDbSpline
70
4
71
3
72
14
73
10
40
0
40
0
40
0
40
0
40
0.283999679271161
40
0.283999679271161
40
0.571278515705981
40
0.571278515705981
40
0.831593340341153
40
0.831593340341153
40
1
40
1
40
1
40
1
41
1
10
12.0442685509131
20
11.6319228643123
30
0
41
1
10
12.0272067266293
20
11.6194692611568
30
0
41
1
10
12.0117919959907
20
11.6036258561533
30
0
41
1
10
11.9872413737957
20
11.5669258642136
30
0
41
1
10
11.97783337166
20
11.54542395535
30
0
41
1
10
11.9682030351969
20
11.502292058656
30
0
41
1
10
11.9670927722476
20
11.480205752334
30
0
41
1
10
11.9716674017866
20
11.4448391155239
30
0
41
1
10
11.9751082097535
20
11.430933052034
30
0
41
1
10
11.980053590498
20
11.417706030399
30
0
0
LINE
5
4C
100
AcDbEntity
8
80
62
256
6
ByLayer
370
-1
48
1
60
0
100
AcDbLine
10
0
20
0
30
0
11
-5
21
0
31
0
39
0
210
0
220
0
230
1
0
LINE
5
4D
100
AcDbEntity
8
81
62
256
6
ByLayer
370
-1
48
1
60
0
100
AcDbLine
10
22
20
15.4125
30
0
11
32
21
15.4125
31
0
39
0
210
0
220
0
230
1
0
LINE
5
4E
100
AcDbEntity
8
1
62
256
6
ByLayer
370
-1
48
1
60
0
100
AcDbLine
10
0
20
-2.144149
30
0
11
12.873746
21
7.913923
31
0
39
0
210
0
220
0
230
1
0
LINE
5
50
100
AcDbEntity
8
1
62
256
6
ByLayer
370
-1
48
1
60
0
100
AcDbLine
10
12.873746
20
7.913923
30
0
11
12.976989
21
7.994586
31
0
39
0
210
0
220
0
230
1
0
LINE
5
51
100
AcDbEntity
8
1
62
256
6
ByLayer
370
-1
48
1
60
0
100
AcDbLine
10
12.976989
20
7.994586
30
0
11
12.754161
21
8.590567
31
0
39
0
210
0
220
0
230
1
0
LINE
5
52
100
AcDbEntity
8
1
62
256
6
ByLayer
370
-1
48
1
60
0
100
AcDbLine
10
0
20
14.105633
30
0
11
0
21
-2.144149
31
0
39
0
210
0
220
0
230
1
0
LINE
5
53
100
AcDbEntity
8
1
62
256
6
ByLayer
370
-1
48
1
60
0
100
AcDbLine
10
12.976999
20
7.994593
30
0
11
13.535677
21
8.43108
31
0
39
0
210
0
220
0
230
1
0
LINE
5
54
100
AcDbEntity
8
1
62
256
6
ByLayer
370
-1
48
1
60
0
100
AcDbLine
10
10.355844
20
14.648359
30
0
11
0
21
14.105633
31
0
39
0
210
0
220
0
230
1
0
LINE
5
55
100
AcDbEntity
8
1
62
256
6
ByLayer
370
-1
48
1
60
0
100
AcDbLine
10
7.493501
20
8.310472
30
0
11
7.491875
21
8.314792
31
0
39
0
210
0
220
0
230
1
0
LINE
5
56
100
AcDbEntity
8
1
62
256
6
ByLayer
370
-1
48
1
60
0
100
AcDbLine
10
10.486682
20
14.655216
30
0
11
10.355844
21
14.648359
31
0
39
0
210
0
220
0
230
1
0
LINE
5
57
100
AcDbEntity
8
1
62
256
6
ByLayer
370
-1
48
1
60
0
100
AcDbLine
10
10.709511
20
14.059232
30
0
11
10.486682
21
14.655216
31
0
39
0
210
0
220
0
230
1
0
LINE
5
58
100
AcDbEntity
8
1
62
256
6
ByLayer
370
-1
48
1
60
0
100
AcDbLine
10
5.847581
20
7.024539
30
0
11
7.493501
21
8.310472
31
0
39
0
210
0
220
0
230
1
0
LINE
5
59
100
AcDbEntity
8
1
62
256
6
ByLayer
370
-1
48
1
60
0
100
AcDbLine
10
5.958119
20
7.269469
30
0
11
7.28198
21
8.303783
31
0
39
0
210
0
220
0
230
1
0
LINE
5
5A
100
AcDbEntity
8
1
62
256
6
ByLayer
370
-1
48
1
60
0
100
AcDbLine
10
11.194694
20
14.692322
30
0
11
10.486693
21
14.655217
31
0
39
0
210
0
220
0
230
1
0
LINE
5
5B
100
AcDbEntity
8
1
62
256
6
ByLayer
370
-1
48
1
60
0
100
AcDbLine
10
12.873746
20
7.913923
30
0
11
12.623324
21
8.583708
31
0
39
0
210
0
220
0
230
1
0
LINE
5
5C
100
AcDbEntity
8
1
62
256
6
ByLayer
370
-1
48
1
60
0
100
AcDbLine
10
10.60627
20
13.978565
30
0
11
10.355844
21
14.648359
31
0
39
0
210
0
220
0
230
1
0
LINE
5
5D
100
AcDbEntity
8
1
62
256
6
ByLayer
370
-1
48
1
60
0
100
AcDbLine
10
7.493501
20
8.310472
30
0
11
8.499892
21
8.367619
31
0
39
0
210
0
220
0
230
1
0
LINE
5
5E
100
AcDbEntity
8
SK1
62
256
6
ByLayer
370
-1
48
1
60
0
100
AcDbLine
10
-0.106
20
14.100077
30
0
11
-8.613111
21
13.654239
31
0
39
0
210
0
220
0
230
1
0
LINE
5
60
100
AcDbEntity
8
SK1
62
256
6
ByLayer
370
-1
48
1
60
0
100
AcDbLine
10
0
20
14.105633
30
0
11
-0.106
21
14.100077
31
0
39
0
210
0
220
0
230
1
0
LINE
5
61
100
AcDbEntity
8
SK1
62
256
6
ByLayer
370
-1
48
1
60
0
100
AcDbLine
10
-9.975034
20
9.9375
30
0
11
-9.475034
21
10.4375
31
0
39
0
210
0
220
0
230
1
0
LINE
5
62
100
AcDbEntity
8
SK1
62
256
6
ByLayer
370
-1
48
1
60
0
100
AcDbLine
10
-9.975034
20
-9.9375
30
0
11
-0.106
21
-2.226966
31
0
39
0
210
0
220
0
230
1
0
LINE
5
63
100
AcDbEntity
8
SK1
62
256
6
ByLayer
370
-1
48
1
60
0
100
AcDbLine
10
-104.35
20
-9.9375
30
0
11
-9.975034
21
-9.9375
31
0
39
0
210
0
220
0
230
1
0
LINE
5
64
100
AcDbEntity
8
SK1
62
256
6
ByLayer
370
-1
48
1
60
0
100
AcDbLine
10
-9.975034
20
9.9375
30
0
11
-104.35
21
9.9375
31
0
39
0
210
0
220
0
230
1
0
LINE
5
65
100
AcDbEntity
8
SK1
62
256
6
ByLayer
370
-1
48
1
60
0
100
AcDbLine
10
-8.613111
20
13.654239
30
0
11
-9.475034
21
10.4375
31
0
39
0
210
0
220
0
230
1
0
LINE
5
66
100
AcDbEntity
8
1
62
256
6
ByLayer
370
-1
48
1
60
0
100
AcDbLine
10
13.990415
20
8.655365
30
0
11
4.316664
21
8.148385
31
0
39
0
210
0
220
0
230
1
0
LINE
5
67
100
AcDbEntity
8
1
62
256
6
ByLayer
370
-1
48
1
60
0
100
AcDbLine
10
21.847466
20
14.702883
30
0
11
14.213985
21
8.738954
31
0
39
0
210
0
220
0
230
1
0
LINE
5
68
100
AcDbEntity
8
1
62
256
6
ByLayer
370
-1
48
1
60
0
100
AcDbLine
10
4.051553
20
8.857458
30
0
11
11.685034
21
14.821387
31
0
39
0
210
0
220
0
230
1
0
LINE
5
69
100
AcDbEntity
8
1
62
256
6
ByLayer
370
-1
48
1
60
0
100
AcDbLine
10
11.908604
20
14.904976
30
0
11
21.582354
21
15.411956
31
0
39
0
210
0
220
0
230
1
0
LINE
5
6A
100
AcDbEntity
8
SK1
62
256
6
ByLayer
370
-1
48
1
60
0
100
AcDbLine
10
0
20
14.105633
30
0
11
0
21
-2.144149
31
0
39
0
210
0
220
0
230
1
0
LINE
5
6B
100
AcDbEntity
8
SK1
62
256
6
ByLayer
370
-1
48
1
60
0
100
AcDbLine
10
-0.106
20
-2.226966
30
0
11
0
21
-2.144149
31
0
39
0
210
0
220
0
230
1
0
LINE
5
6C
100
AcDbEntity
8
SK1
62
256
6
ByLayer
370
-1
48
1
60
0
100
AcDbLine
10
-0.106
20
14.100077
30
0
11
-0.106
21
-2.226966
31
0
39
0
210
0
220
0
230
1
0
LINE
5
6D
100
AcDbEntity
8
SK1
62
256
6
ByLayer
370
-1
48
1
60
0
100
AcDbLine
10
-104.35
20
9.9375
30
0
11
-104.35
21
-9.9375
31
0
39
0
210
0
220
0
230
1
0
MTEXT
5
9E
100
AcDbEntity
8
SK6
62
256
6
ByLayer
370
-1
48
1
60
0
100
AcDbMText
10
-60.849061
20
-18.412993
30
0
210
0
220
0
230
1
1
\W00.733;\fsimplex.shx,bigfont.shx;SVJBR 2020K 11-B1 
40
3.5
41
0
44
1.084337
50
0
71
7
72
5
7
DEFAULT
0
DIMENSION
5
D1
100
AcDbEntity
8
2
62
256
6
ByLayer
370
-3
48
1
60
0
100
AcDbDimension
2
DimnDraft3D1
10
7.564334
20
14.677303
30
0
11
6.947481
21
20.935028
31
0
70
34
71
5
72
1
41
1
210
0
220
0
230
1
3
Standard
100
AcDb2LineAngularDimension
13
22
23
17.4125
33
0
14
22
24
29.889321
34
0
15
18.586466
25
15.254948
35
0
16
9.700932
26
27.105224
36
0
40
0
0
DIMENSION
5
E6
100
AcDbEntity
8
SK2
62
256
6
ByLayer
370
-3
48
1
60
0
100
AcDbDimension
2
DimnDraft3D2
10
-114.1
20
9.9375
30
0
11
-114.1
21
-2.628947
31
0
70
32
71
5
72
1
41
1
210
0
220
0
230
1
3
Standard
100
AcDbAlignedDimension
13
-106.35
23
-9.9375
33
0
14
-106.35
24
9.9375
34
0
50
90
100
AcDbRotatedDimension
1001
ACAD
1000
DSTYLE
1002
{
1070
    74
1070
     0
1070
   279
1070
     0
1070
   172
1070
     1
1070
   173
1070
     1
1070
   340
1005
9F
1070
    77
1070
     1
1070
    73
1070
     0
1070
   171
1070
     3
1070
   274
1070
     4
1070
   177
1070
     2
1070
   176
1070
     2
1070
   178
1070
     7
1070
    78
1070
     8
1070
    41
1041
3.175
1070
   147
1041
2.25
1070
    42
1041
2.0
1070
    44
1041
2.0
1070
   140
1041
4.5
1070
   343
1005
D2
1070
   344
1005
D2
1002
}
0
DIMENSION
5
F4
100
AcDbEntity
8
2
62
256
6
ByLayer
370
-3
48
1
60
0
100
AcDbDimension
2
DimnDraft3D3
10
49.25
20
15.4125
30
0
11
49.25
21
0.108553
31
0
70
32
71
5
72
1
41
1
210
0
220
0
230
1
3
Standard
100
AcDbAlignedDimension
13
2
23
-9.9375
33
0
14
24
24
15.4125
34
0
50
90
100
AcDbRotatedDimension
1001
ACAD
1000
DSTYLE
1002
{
1070
    74
1070
     0
1070
   279
1070
     0
1070
   172
1070
     1
1070
   173
1070
     1
1070
   340
1005
9F
1070
    77
1070
     1
1070
    73
1070
     0
1070
   171
1070
     3
1070
   274
1070
     4
1070
   177
1070
     2
1070
   176
1070
     2
1070
   178
1070
     7
1070
    78
1070
     8
1070
    41
1041
3.175
1070
   147
1041
2.25
1070
    42
1041
2.0
1070
    44
1041
2.0
1070
   140
1041
4.5
1070
   343
1005
D2
1070
   344
1005
D2
1002
}
0
DIMENSION
5
102
100
AcDbEntity
8
SK2
62
256
6
ByLayer
370
-3
48
1
60
0
100
AcDbDimension
2
DimnDraft3D4
10
-104.35
20
35.1625
30
0
11
-44.893421
21
35.1625
31
0
70
32
71
5
72
1
41
1
210
0
220
0
230
1
3
Standard
100
AcDbAlignedDimension
13
22
23
17.4125
33
0
14
-104.35
24
11.9375
34
0
50
0
100
AcDbRotatedDimension
1001
ACAD
1000
DSTYLE
1002
{
1070
   279
1070
     0
1070
   172
1070
     1
1070
   173
1070
     1
1070
   340
1005
9F
1070
    77
1070
     1
1070
    73
1070
     0
1070
   171
1070
     3
1070
   274
1070
     4
1070
   177
1070
     2
1070
   176
1070
     2
1070
   178
1070
     7
1070
    78
1070
     8
1070
    41
1041
3.175
1070
   147
1041
2.25
1070
    42
1041
2.0
1070
    44
1041
2.0
1070
   140
1041
4.5
1070
   343
1005
D2
1070
   344
1005
D2
1002
}
0
ENDSEC
0
SECTION
2
OBJECTS
0
DICTIONARY
5
132
330
0
100
AcDbDictionary
280
0
281
1
3
ACAD_GROUP
350
133
3
ACAD_MLINESTYLE
350
134
0
DICTIONARY
5
133
330
0
100
AcDbDictionary
280
0
281
1
0
DICTIONARY
5
134
330
0
100
AcDbDictionary
280
0
281
1
3
Standard
350
18
0
MLINESTYLE
5
18
330
134
100
AcDbMlineStyle
2
Standard
70
0
3

62
256
51
90
52
90
71
2
49
-0.5
62
256
6
ByLayer
49
0.5
62
256
6
ByLayer
0
RASTERVARIABLES
5
121
330

100
AcDbRasterVariables
90
0
70
1
71
1
72
1
0
ENDSEC
0
EOF
