0
SECTION
2
HEADER
9
$ACADVER
1
AC1015
9
$DWGCODEPAGE
3
ANSI_1252
9
$HANDSEED
5
13f
9
$ANGBASE
50
0
9
$ANGDIR
70
0
9
$ATTMODE
70
1
9
$AUNITS
70
0
9
$AUPREC
70
0
9
$CECOLOR
62
256
9
$CELTSCALE
40
1
9
$CELTYPE
6
ByLayer
9
$CELWEIGHT
370
-1
9
$CLAYER
8
0
9
$CMLJUST
70
0
9
$CMLSCALE
40
1
9
$CMLSTYLE
2
Standard
9
$DIMSTYLE
2
Standard
9
$TEXTSIZE
40
0.2
9
$TEXTSTYLE
7
Standard
9
$LUNITS
70
2
9
$LUPREC
70
4
9
$EXTNAMES
290
1
9
$INSUNITS
70
4
9
$LTSCALE
40
1
9
$LWDISPLAY
290
0
9
$PDMODE
70
0
9
$PDSIZE
40
0
9
$PLINEGEN
70
0
0
ENDSEC
0
SECTION
2
CLASSES
0
CLASS
1
RASTERVARIABLES
2
AcDbRasterVariables
3
ISM
90
0
280
0
281
0
0
ENDSEC
0
SECTION
2
TABLES
0
TABLE
2
VPORT
5
135
100
AcDbSymbolTable
0
VPORT
5
1
100
AcDbSymbolTableRecord
100
AcDbViewportTableRecord
2
*Active
70
0
10
0
20
0
11
1
21
1
12
-1
22
1
13
0
23
0
14
0.5
24
0.5
15
10
25
10
16
0
26
0
36
1
17
0
27
0
37
0
0
ENDTAB
0
TABLE
2
LTYPE
5
136
100
AcDbSymbolTable
0
LTYPE
5
14
100
AcDbSymbolTableRecord
100
AcDbLinetypeTableRecord
70
0
2
ByBlock
3

72
65
73
0
40
0
0
LTYPE
5
15
100
AcDbSymbolTableRecord
100
AcDbLinetypeTableRecord
70
0
2
ByLayer
3

72
65
73
0
40
0
0
LTYPE
5
16
100
AcDbSymbolTableRecord
100
AcDbLinetypeTableRecord
70
0
2
CONTINUOUS
3
Solid line
72
65
73
0
40
0
0
LTYPE
5
3B
100
AcDbSymbolTableRecord
100
AcDbLinetypeTableRecord
70
0
2
DASHED
3
__ __ __ __ __ __ __ __ __
72
65
73
2
40
25.72
49
12.86
74
0
49
-12.86
74
0
0
LTYPE
5
3C
100
AcDbSymbolTableRecord
100
AcDbLinetypeTableRecord
70
0
2
HIDDEN
3
_ _ _ _ _ _ _ _ _ _ _ _ _ _ _
72
65
73
2
40
0.5
49
0.25
74
0
49
-0.25
74
0
0
LTYPE
5
3D
100
AcDbSymbolTableRecord
100
AcDbLinetypeTableRecord
70
0
2
PHANTOM
3
____ _ _ ____ _ _ _____ _ _ ____
72
65
73
6
40
50.5
49
18
74
0
49
-6.5
74
0
49
6.5
74
0
49
-6.5
74
0
49
6.5
74
0
49
-6.5
74
0
0
LTYPE
5
3E
100
AcDbSymbolTableRecord
100
AcDbLinetypeTableRecord
70
0
2
CENTER
3
____ _ ____ _ ____ _ ____
72
65
73
4
40
47.5
49
22
74
0
49
-8.5
74
0
49
8.5
74
0
49
-8.5
74
0
0
LTYPE
5
3F
100
AcDbSymbolTableRecord
100
AcDbLinetypeTableRecord
70
0
2
DOT
3
.........................
72
65
73
2
40
10
49
0
74
0
49
-10
74
0
0
LTYPE
5
40
100
AcDbSymbolTableRecord
100
AcDbLinetypeTableRecord
70
0
2
DASHDOT
3
_._._._._._._._._._._._._._._._.
72
65
73
4
40
70
49
31
74
0
49
-13
74
0
49
13
74
0
49
-13
74
0
0
ENDTAB
0
TABLE
2
LAYER
5
137
100
AcDbSymbolTable
0
LAYER
5
10
100
AcDbSymbolTableRecord
100
AcDbLayerTableRecord
2
0
70
0
62
7
6
CONTINUOUS
290
1
370
-3
390
0
0
LAYER
5
44
100
AcDbSymbolTableRecord
100
AcDbLayerTableRecord
2
2
70
0
62
7
6
CONTINUOUS
290
1
370
-3
390
0
0
LAYER
5
48
100
AcDbSymbolTableRecord
100
AcDbLayerTableRecord
2
81
70
0
62
-3
6
CONTINUOUS
290
1
370
-3
390
0
0
LAYER
5
4A
100
AcDbSymbolTableRecord
100
AcDbLayerTableRecord
2
80
70
0
62
-6
6
CONTINUOUS
290
1
370
-3
390
0
0
LAYER
5
4F
100
AcDbSymbolTableRecord
100
AcDbLayerTableRecord
2
1
70
0
62
4
6
CONTINUOUS
290
1
370
-3
390
0
0
LAYER
5
122
100
AcDbSymbolTableRecord
100
AcDbLayerTableRecord
2
SK2
70
0
62
7
6
CONTINUOUS
290
1
370
-3
390
0
0
LAYER
5
123
100
AcDbSymbolTableRecord
100
AcDbLayerTableRecord
2
SK1
70
0
62
4
6
CONTINUOUS
290
1
370
-3
390
0
0
LAYER
5
124
100
AcDbSymbolTableRecord
100
AcDbLayerTableRecord
2
SK6
70
0
62
5
6
CONTINUOUS
290
1
370
-3
390
0
0
ENDTAB
0
TABLE
2
STYLE
5
138
100
AcDbSymbolTable
0
STYLE
5
11
100
AcDbSymbolTableRecord
100
AcDbTextStyleTableRecord
2
Standard
3
txt
70
0
71
0
40
0
41
1
42
0
50
0
0
STYLE
5
9F
100
AcDbSymbolTableRecord
100
AcDbTextStyleTableRecord
2
DEFAULT
3
simplex.shx
70
0
71
0
40
0
41
1
42
0
50
0
0
STYLE
5
C2
100
AcDbSymbolTableRecord
100
AcDbTextStyleTableRecord
2
DWGDirectTextStyle
3
SIMPLEX
70
0
71
0
40
0
41
1
42
0
50
0
0
ENDTAB
0
TABLE
2
DIMSTYLE
5
139
100
AcDbSymbolTable
100
AcDbDimStyleTable
0
DIMSTYLE
105
27
100
AcDbSymbolTableRecord
100
AcDbDimStyleTableRecord
2
Standard
70
0
3
<>
41
0.18
42
0.0625
44
0.18
140
0.18
147
0.09
73
0
74
0
77
1
271
2
275
0
278
52
280
0
340
11
0
ENDTAB
0
TABLE
2
VIEW
5
13a
100
AcDbSymbolTable
0
ENDTAB
0
TABLE
2
UCS
5
13b
100
AcDbSymbolTable
0
ENDTAB
0
TABLE
2
APPID
5
13c
100
AcDbSymbolTable
0
APPID
5
12
100
AcDbSymbolTableRecord
100
AcDbRegAppTableRecord
2
ACAD
70
0
0
ENDTAB
0
TABLE
2
BLOCK_RECORD
5
13d
100
AcDbSymbolTable
0
BLOCK_RECORD
5
1F
100
AcDbSymbolTableRecord
100
AcDbBlockTableRecord
2
*Model_Space
340
0
70
0
0
BLOCK_RECORD
5
1B
100
AcDbSymbolTableRecord
100
AcDbBlockTableRecord
2
*Paper_Space
340
0
70
0
0
BLOCK_RECORD
5
23
100
AcDbSymbolTableRecord
100
AcDbBlockTableRecord
2
*Paper_Space0
340
0
70
0
0
BLOCK_RECORD
5
C4
100
AcDbSymbolTableRecord
100
AcDbBlockTableRecord
2
DimnDraft3D1
340
0
70
0
0
BLOCK_RECORD
5
D2
100
AcDbSymbolTableRecord
100
AcDbBlockTableRecord
2
_CLOSED
340
0
70
0
0
BLOCK_RECORD
5
D9
100
AcDbSymbolTableRecord
100
AcDbBlockTableRecord
2
DimnDraft3D2
340
0
70
0
0
BLOCK_RECORD
5
E7
100
AcDbSymbolTableRecord
100
AcDbBlockTableRecord
2
DimnDraft3D3
340
0
70
0
0
BLOCK_RECORD
5
F5
100
AcDbSymbolTableRecord
100
AcDbBlockTableRecord
2
DimnDraft3D4
340
0
70
0
0
ENDTAB
0
ENDSEC
0
SECTION
2
BLOCKS
0
BLOCK
5
20
100
AcDbEntity
8
0
100
AcDbBlockBegin
2
*Model_Space
70
0
10
0
20
0
30
0
3
*Model_Space
0
ENDBLK
5
21
100
AcDbEntity
8
0
100
AcDbBlockEnd
0
BLOCK
5
1C
100
AcDbEntity
8
0
100
AcDbBlockBegin
2
*Paper_Space
70
0
10
0
20
0
30
0
3
*Paper_Space
0
ENDBLK
5
1D
100
AcDbEntity
8
0
100
AcDbBlockEnd
0
BLOCK
5
24
100
AcDbEntity
8
0
100
AcDbBlockBegin
2
*Paper_Space0
70
0
10
0
20
0
30
0
3
*Paper_Space0
0
ENDBLK
5
25
100
AcDbEntity
8
0
100
AcDbBlockEnd
0
BLOCK
5
CF
100
AcDbEntity
8
0
100
AcDbBlockBegin
2
DimnDraft3D1
70
0
10
0
20
0
30
0
3
DimnDraft3D1
0
MTEXT
5
C5
100
AcDbEntity
8
2
62
256
6
ByLayer
370
-1
48
1
60
0
100
AcDbMText
10
8.537926
20
17.976675
30
0
210
0
220
0
230
1
1
\W01.000;\fsimplex.shx,bigfont.shx;93%%d0' 
40
4.5
41
0
44
1.084337
50
46.5000000000004
71
7
72
5
7
DEFAULT
0
LINE
5
C6
100
AcDbEntity
8
2
62
256
6
ByLayer
370
-1
48
1
60
0
100
AcDbLine
10
22
20
14.4125
30
0
11
22
21
26.889321
31
0
39
0
210
0
220
0
230
1
0
LINE
5
C7
100
AcDbEntity
8
2
62
256
6
ByLayer
370
-1
48
1
60
0
100
AcDbLine
10
18.586466
20
12.254948
30
0
11
7.564334
21
11.677303
31
0
39
0
210
0
220
0
230
1
0
ARC
5
C8
100
AcDbEntity
8
2
62
256
6
ByLayer
370
-1
48
1
60
0
100
AcDbCircle
39
0
10
22
20
12.433844
30
0
40
12.455476986756
210
0
220
0
230
1
100
AcDbArc
50
90
51
183
0
LINE
5
C9
100
AcDbEntity
8
2
62
256
6
ByLayer
370
-1
48
1
60
0
100
AcDbLine
10
22
20
24.889321
30
0
11
18.857855
21
24.27105
31
0
39
0
210
0
220
0
230
1
0
LINE
5
CA
100
AcDbEntity
8
2
62
256
6
ByLayer
370
-1
48
1
60
0
100
AcDbLine
10
22
20
24.889321
30
0
11
18.804897
21
25.105365
31
0
39
0
210
0
220
0
230
1
0
LINE
5
CB
100
AcDbEntity
8
2
62
256
6
ByLayer
370
-1
48
1
60
0
100
AcDbLine
10
18.857855
20
24.27105
30
0
11
18.804897
21
25.105365
31
0
39
0
210
0
220
0
230
1
0
LINE
5
CC
100
AcDbEntity
8
2
62
256
6
ByLayer
370
-1
48
1
60
0
100
AcDbLine
10
9.561593
20
11.781975
30
0
11
9.178626
21
14.961389
31
0
39
0
210
0
220
0
230
1
0
LINE
5
CD
100
AcDbEntity
8
2
62
256
6
ByLayer
370
-1
48
1
60
0
100
AcDbLine
10
9.561593
20
11.781975
30
0
11
10.014569
21
14.952175
31
0
39
0
210
0
220
0
230
1
0
LINE
5
CE
100
AcDbEntity
8
2
62
256
6
ByLayer
370
-1
48
1
60
0
100
AcDbLine
10
9.178626
20
14.961389
30
0
11
10.014569
21
14.952175
31
0
39
0
210
0
220
0
230
1
0
ENDBLK
5
D0
100
AcDbEntity
8
0
100
AcDbBlockEnd
0
BLOCK
5
D3
100
AcDbEntity
8
0
100
AcDbBlockBegin
2
_CLOSED
70
0
10
0
20
0
30
0
3
_CLOSED
0
LINE
5
D5
100
AcDbEntity
8
0
62
256
6
ByLayer
370
-2
48
1
60
0
100
AcDbLine
10
-1
20
0.166667
30
0
11
0
21
0
31
0
39
0
210
0
220
0
230
1
0
LINE
5
D6
100
AcDbEntity
8
0
62
256
6
ByLayer
370
-2
48
1
60
0
100
AcDbLine
10
0
20
0
30
0
11
-1
21
-0.166667
31
0
39
0
210
0
220
0
230
1
0
LINE
5
D7
100
AcDbEntity
8
0
62
256
6
ByLayer
370
-2
48
1
60
0
100
AcDbLine
10
-1
20
0.166667
30
0
11
-1
21
-0.166667
31
0
39
0
210
0
220
0
230
1
0
LINE
5
D8
100
AcDbEntity
8
0
62
256
6
ByLayer
370
-2
48
1
60
0
100
AcDbLine
10
0
20
0
30
0
11
-1
21
0
31
0
39
0
210
0
220
0
230
1
0
ENDBLK
5
D4
100
AcDbEntity
8
0
100
AcDbBlockEnd
0
BLOCK
5
E4
100
AcDbEntity
8
0
100
AcDbBlockBegin
2
DimnDraft3D2
70
0
10
0
20
0
30
0
3
DimnDraft3D2
0
MTEXT
5
DA
100
AcDbEntity
8
SK2
62
256
6
ByLayer
370
-1
48
1
60
0
100
AcDbMText
10
-90.225
20
-0.941447
30
0
210
0
220
0
230
1
1
\W01.000;\fsimplex.shx,bigfont.shx;16 
40
4.5
41
0
44
1.084337
50
90
71
7
72
5
7
DEFAULT
0
LINE
5
DB
100
AcDbEntity
8
SK2
62
256
6
ByLayer
370
-1
48
1
60
0
100
AcDbLine
10
-81.35
20
-7.9375
30
0
11
-91.1
21
-7.9375
31
0
39
0
210
0
220
0
230
1
0
LINE
5
DC
100
AcDbEntity
8
SK2
62
256
6
ByLayer
370
-1
48
1
60
0
100
AcDbLine
10
-81.35
20
7.9375
30
0
11
-91.1
21
7.9375
31
0
39
0
210
0
220
0
230
1
0
LINE
5
DD
100
AcDbEntity
8
SK2
62
256
6
ByLayer
370
-1
48
1
60
0
100
AcDbLine
10
-89.1
20
-7.9375
30
0
11
-89.1
21
7.9375
31
0
39
0
210
0
220
0
230
1
0
LINE
5
DE
100
AcDbEntity
8
SK2
62
256
6
ByLayer
370
-1
48
1
60
0
100
AcDbLine
10
-89.1
20
-7.9375
30
0
11
-89.517997
21
-4.762502
31
0
39
0
210
0
220
0
230
1
0
LINE
5
DF
100
AcDbEntity
8
SK2
62
256
6
ByLayer
370
-1
48
1
60
0
100
AcDbLine
10
-89.1
20
-7.9375
30
0
11
-88.682003
21
-4.762498
31
0
39
0
210
0
220
0
230
1
0
LINE
5
E0
100
AcDbEntity
8
SK2
62
256
6
ByLayer
370
-1
48
1
60
0
100
AcDbLine
10
-89.517997
20
-4.762502
30
0
11
-88.682003
21
-4.762498
31
0
39
0
210
0
220
0
230
1
0
LINE
5
E1
100
AcDbEntity
8
SK2
62
256
6
ByLayer
370
-1
48
1
60
0
100
AcDbLine
10
-89.1
20
7.9375
30
0
11
-88.682003
21
4.762502
31
0
39
0
210
0
220
0
230
1
0
LINE
5
E2
100
AcDbEntity
8
SK2
62
256
6
ByLayer
370
-1
48
1
60
0
100
AcDbLine
10
-89.1
20
7.9375
30
0
11
-89.517997
21
4.762498
31
0
39
0
210
0
220
0
230
1
0
LINE
5
E3
100
AcDbEntity
8
SK2
62
256
6
ByLayer
370
-1
48
1
60
0
100
AcDbLine
10
-88.682003
20
4.762502
30
0
11
-89.517997
21
4.762498
31
0
39
0
210
0
220
0
230
1
0
ENDBLK
5
E5
100
AcDbEntity
8
0
100
AcDbBlockEnd
0
BLOCK
5
F2
100
AcDbEntity
8
0
100
AcDbBlockBegin
2
DimnDraft3D3
70
0
10
0
20
0
30
0
3
DimnDraft3D3
0
MTEXT
5
E8
100
AcDbEntity
8
2
62
256
6
ByLayer
370
-1
48
1
60
0
100
AcDbMText
10
48.125
20
0.733553
30
0
210
0
220
0
230
1
1
\W01.000;\fsimplex.shx,bigfont.shx;20 
40
4.5
41
0
44
1.084337
50
90
71
7
72
5
7
DEFAULT
0
LINE
5
E9
100
AcDbEntity
8
2
62
256
6
ByLayer
370
-1
48
1
60
0
100
AcDbLine
10
2
20
-7.9375
30
0
11
51.25
21
-7.9375
31
0
39
0
210
0
220
0
230
1
0
LINE
5
EA
100
AcDbEntity
8
2
62
256
6
ByLayer
370
-1
48
1
60
0
100
AcDbLine
10
24
20
12.4125
30
0
11
51.25
21
12.4125
31
0
39
0
210
0
220
0
230
1
0
LINE
5
EB
100
AcDbEntity
8
2
62
256
6
ByLayer
370
-1
48
1
60
0
100
AcDbLine
10
49.25
20
-7.9375
30
0
11
49.25
21
12.4125
31
0
39
0
210
0
220
0
230
1
0
LINE
5
EC
100
AcDbEntity
8
2
62
256
6
ByLayer
370
-1
48
1
60
0
100
AcDbLine
10
49.25
20
-7.9375
30
0
11
48.832003
21
-4.762502
31
0
39
0
210
0
220
0
230
1
0
LINE
5
ED
100
AcDbEntity
8
2
62
256
6
ByLayer
370
-1
48
1
60
0
100
AcDbLine
10
49.25
20
-7.9375
30
0
11
49.667997
21
-4.762498
31
0
39
0
210
0
220
0
230
1
0
LINE
5
EE
100
AcDbEntity
8
2
62
256
6
ByLayer
370
-1
48
1
60
0
100
AcDbLine
10
48.832003
20
-4.762502
30
0
11
49.667997
21
-4.762498
31
0
39
0
210
0
220
0
230
1
0
LINE
5
EF
100
AcDbEntity
8
2
62
256
6
ByLayer
370
-1
48
1
60
0
100
AcDbLine
10
49.25
20
12.4125
30
0
11
49.667997
21
9.237502
31
0
39
0
210
0
220
0
230
1
0
LINE
5
F0
100
AcDbEntity
8
2
62
256
6
ByLayer
370
-1
48
1
60
0
100
AcDbLine
10
49.25
20
12.4125
30
0
11
48.832003
21
9.237498
31
0
39
0
210
0
220
0
230
1
0
LINE
5
F1
100
AcDbEntity
8
2
62
256
6
ByLayer
370
-1
48
1
60
0
100
AcDbLine
10
49.667997
20
9.237502
30
0
11
48.832003
21
9.237498
31
0
39
0
210
0
220
0
230
1
0
ENDBLK
5
F3
100
AcDbEntity
8
0
100
AcDbBlockEnd
0
BLOCK
5
100
100
AcDbEntity
8
0
100
AcDbBlockBegin
2
DimnDraft3D4
70
0
10
0
20
0
30
0
3
DimnDraft3D4
0
MTEXT
5
F6
100
AcDbEntity
8
SK2
62
256
6
ByLayer
370
-1
48
1
60
0
100
AcDbMText
10
-31.268421
20
33.2875
30
0
210
0
220
0
230
1
1
\W01.000;\fsimplex.shx,bigfont.shx;100 
40
4.5
41
0
44
1.084337
50
0
71
7
72
5
7
DEFAULT
0
LINE
5
F7
100
AcDbEntity
8
SK2
62
256
6
ByLayer
370
-1
48
1
60
0
100
AcDbLine
10
22
20
14.4125
30
0
11
22
21
34.1625
31
0
39
0
210
0
220
0
230
1
0
LINE
5
F8
100
AcDbEntity
8
SK2
62
256
6
ByLayer
370
-1
48
1
60
0
100
AcDbLine
10
-79.35
20
9.9375
30
0
11
-79.35
21
34.1625
31
0
39
0
210
0
220
0
230
1
0
LINE
5
F9
100
AcDbEntity
8
SK2
62
256
6
ByLayer
370
-1
48
1
60
0
100
AcDbLine
10
22
20
32.1625
30
0
11
-79.35
21
32.1625
31
0
39
0
210
0
220
0
230
1
0
LINE
5
FA
100
AcDbEntity
8
SK2
62
256
6
ByLayer
370
-1
48
1
60
0
100
AcDbLine
10
22
20
32.1625
30
0
11
18.825002
21
31.744503
31
0
39
0
210
0
220
0
230
1
0
LINE
5
FB
100
AcDbEntity
8
SK2
62
256
6
ByLayer
370
-1
48
1
60
0
100
AcDbLine
10
22
20
32.1625
30
0
11
18.824998
21
32.580497
31
0
39
0
210
0
220
0
230
1
0
LINE
5
FC
100
AcDbEntity
8
SK2
62
256
6
ByLayer
370
-1
48
1
60
0
100
AcDbLine
10
18.825002
20
31.744503
30
0
11
18.824998
21
32.580497
31
0
39
0
210
0
220
0
230
1
0
LINE
5
FD
100
AcDbEntity
8
SK2
62
256
6
ByLayer
370
-1
48
1
60
0
100
AcDbLine
10
-79.35
20
32.1625
30
0
11
-76.175002
21
32.580497
31
0
39
0
210
0
220
0
230
1
0
LINE
5
FE
100
AcDbEntity
8
SK2
62
256
6
ByLayer
370
-1
48
1
60
0
100
AcDbLine
10
-79.35
20
32.1625
30
0
11
-76.174998
21
31.744503
31
0
39
0
210
0
220
0
230
1
0
LINE
5
FF
100
AcDbEntity
8
SK2
62
256
6
ByLayer
370
-1
48
1
60
0
100
AcDbLine
10
-76.175002
20
32.580497
30
0
11
-76.174998
21
31.744503
31
0
39
0
210
0
220
0
230
1
0
ENDBLK
5
101
100
AcDbEntity
8
0
100
AcDbBlockEnd
0
ENDSEC
0
SECTION
2
ENTITIES
0
ARC
5
6E
100
AcDbEntity
8
1
62
256
6
ByLayer
370
-1
48
1
60
0
100
AcDbCircle
39
0
10
-19.566223
20
0.244317
30
0
40
8.09999999999999
210
0
220
0
230
-1
100
AcDbArc
50
36.357529
51
41.679635
0
ARC
5
6F
100
AcDbEntity
8
1
62
256
6
ByLayer
370
-1
48
1
60
0
100
AcDbCircle
39
0
10
-4.783692
20
4.938371
30
0
40
1.5
210
0
220
0
230
-1
100
AcDbArc
50
200.120606
51
90.432307
0
ARC
5
70
100
AcDbEntity
8
1
62
256
6
ByLayer
370
-1
48
1
60
0
100
AcDbCircle
39
0
10
-12.343183
20
19.563216
30
0
40
8.1
210
0
220
0
230
-1
100
AcDbArc
50
277.320365
51
282.642471
0
ARC
5
71
100
AcDbEntity
8
1
62
256
6
ByLayer
370
-1
48
1
60
0
100
AcDbCircle
39
0
10
4.783692
20
4.938371
30
0
40
1.5
210
0
220
0
230
1
100
AcDbArc
50
344.266807
51
11.982686
0
ARC
5
72
100
AcDbEntity
8
1
62
256
6
ByLayer
370
-1
48
1
60
0
100
AcDbCircle
39
0
10
21.602736
20
12.015479
30
0
40
0.396999999999988
210
0
220
0
230
1
100
AcDbArc
50
308
51
93
0
ARC
5
73
100
AcDbEntity
8
1
62
256
6
ByLayer
370
-1
48
1
60
0
100
AcDbCircle
39
0
10
13.969598
20
6.051819
30
0
40
0.396999999999994
210
0
220
0
230
1
100
AcDbArc
50
273
51
308
0
ARC
5
74
100
AcDbEntity
8
1
62
256
6
ByLayer
370
-1
48
1
60
0
100
AcDbCircle
39
0
10
12.949509
20
8.780171
30
0
40
0.748000000000004
210
0
220
0
230
1
100
AcDbArc
50
50.475421
51
108.338153
0
ARC
5
75
100
AcDbEntity
8
1
62
256
6
ByLayer
370
-1
48
1
60
0
100
AcDbCircle
39
0
10
12.949509
20
8.780171
30
0
40
0.748000000000004
210
0
220
0
230
1
100
AcDbArc
50
350.524579
51
50.475421
0
ARC
5
77
100
AcDbEntity
8
1
62
256
6
ByLayer
370
-1
48
1
60
0
100
AcDbCircle
39
0
10
12.949509
20
8.780171
30
0
40
0.748000000000004
210
0
220
0
230
1
100
AcDbArc
50
230.475421
51
288.338153
0
ARC
5
79
100
AcDbEntity
8
1
62
256
6
ByLayer
370
-1
48
1
60
0
100
AcDbCircle
39
0
10
12.949509
20
8.780171
30
0
40
0.748000000000004
210
0
220
0
230
1
100
AcDbArc
50
292.661847
51
350.524579
0
ARC
5
7A
100
AcDbEntity
8
1
62
256
6
ByLayer
370
-1
48
1
60
0
100
AcDbCircle
39
0
10
-12.949509
20
8.780171
30
0
40
0.748000000000004
210
0
220
0
230
-1
100
AcDbArc
50
9.475421
51
67.338153
0
ARC
5
7B
100
AcDbEntity
8
1
62
256
6
ByLayer
370
-1
48
1
60
0
100
AcDbCircle
39
0
10
-12.949509
20
8.780171
30
0
40
1.035
210
0
220
0
230
-1
100
AcDbArc
50
279.549159
51
339.5
0
ARC
5
7C
100
AcDbEntity
8
1
62
256
6
ByLayer
370
-1
48
1
60
0
100
AcDbCircle
39
0
10
-12.949509
20
8.780171
30
0
40
1.035
210
0
220
0
230
-1
100
AcDbArc
50
219.450841
51
279.549159
0
ARC
5
7D
100
AcDbEntity
8
1
62
256
6
ByLayer
370
-1
48
1
60
0
100
AcDbCircle
39
0
10
-12.949509
20
8.780171
30
0
40
0.748000000000004
210
0
220
0
230
-1
100
AcDbArc
50
67.338153
51
71.661847
0
ARC
5
7E
100
AcDbEntity
8
1
62
256
6
ByLayer
370
-1
48
1
60
0
100
AcDbCircle
39
0
10
12.949509
20
8.780171
30
0
40
0.748000000000004
210
0
220
0
230
1
100
AcDbArc
50
170.524579
51
230.475421
0
ARC
5
80
100
AcDbEntity
8
1
62
256
6
ByLayer
370
-1
48
1
60
0
100
AcDbCircle
39
0
10
-12.949509
20
8.780171
30
0
40
1.035
210
0
220
0
230
-1
100
AcDbArc
50
159.5
51
219.450841
0
ARC
5
81
100
AcDbEntity
8
1
62
256
6
ByLayer
370
-1
48
1
60
0
100
AcDbCircle
39
0
10
-12.949509
20
8.780171
30
0
40
1.035
210
0
220
0
230
-1
100
AcDbArc
50
339.5
51
39.450841
0
ARC
5
82
100
AcDbEntity
8
1
62
256
6
ByLayer
370
-1
48
1
60
0
100
AcDbCircle
39
0
10
-12.949509
20
8.780171
30
0
40
1.035
210
0
220
0
230
-1
100
AcDbArc
50
99.549159
51
159.5
0
ARC
5
83
100
AcDbEntity
8
1
62
256
6
ByLayer
370
-1
48
1
60
0
100
AcDbCircle
39
0
10
-12.949509
20
8.780171
30
0
40
1.035
210
0
220
0
230
-1
100
AcDbArc
50
39.450841
51
99.549159
0
ARC
5
85
100
AcDbEntity
8
1
62
256
6
ByLayer
370
-1
48
1
60
0
100
AcDbCircle
39
0
10
4.296283
20
5.544862
30
0
40
0.396999999999989
210
0
220
0
230
1
100
AcDbArc
50
128
51
273
0
ARC
5
86
100
AcDbEntity
8
1
62
256
6
ByLayer
370
-1
48
1
60
0
100
AcDbCircle
39
0
10
11.92942
20
11.508522
30
0
40
0.396999999999996
210
0
220
0
230
1
100
AcDbArc
50
93
51
128
0
ARC
5
88
100
AcDbEntity
8
1
62
256
6
ByLayer
370
-1
48
1
60
0
100
AcDbCircle
39
0
10
-12.949509
20
8.780171
30
0
40
0.748000000000004
210
0
220
0
230
-1
100
AcDbArc
50
247.338153
51
251.661847
0
CIRCLE
5
76
100
AcDbEntity
8
1
62
256
6
ByLayer
370
-1
48
1
60
0
100
AcDbCircle
10
-12.949509
20
8.780171
30
0
40
1.82436208350486
39
0
210
0
220
0
230
-1
0
CIRCLE
5
78
100
AcDbEntity
8
1
62
256
6
ByLayer
370
-1
48
1
60
0
100
AcDbCircle
10
-12.949509
20
8.780171
30
0
40
1.3
39
0
210
0
220
0
230
-1
0
CIRCLE
5
7F
100
AcDbEntity
8
1
62
256
6
ByLayer
370
-1
48
1
60
0
100
AcDbCircle
10
-12.949509
20
8.780171
30
0
40
1.87500000000001
39
0
210
0
220
0
230
-1
0
CIRCLE
5
84
100
AcDbEntity
8
1
62
256
6
ByLayer
370
-1
48
1
60
0
100
AcDbCircle
10
-12.949509
20
8.780171
30
0
40
1.725
39
0
210
0
220
0
230
-1
0
CIRCLE
5
87
100
AcDbEntity
8
1
62
256
6
ByLayer
370
-1
48
1
60
0
100
AcDbCircle
10
-12.949509
20
8.780171
30
0
40
1.90468944117779
39
0
210
0
220
0
230
-1
0
ELLIPSE
5
89
100
AcDbEntity
8
1
62
256
6
ByLayer
370
-1
48
1
60
0
100
AcDbEllipse
10
4.783692
20
4.938371
30
0
11
-1.43962818519509
21
0.421272794435948
31
0
210
0
220
0
230
1
40
1
41
3.07509993613202
42
-3.13151335853607
0
POINT
5
41
100
AcDbEntity
8
SK2
62
256
6
ByLayer
370
-1
48
1
60
0
100
AcDbPoint
10
22
20
12.4125
30
0
39
0
210
0
220
0
230
1
50
360
0
POINT
5
43
100
AcDbEntity
8
2
62
256
6
ByLayer
370
-1
48
1
60
0
100
AcDbPoint
10
22
20
12.4125
30
0
39
0
210
0
220
0
230
1
50
360
0
POINT
5
45
100
AcDbEntity
8
SK2
62
256
6
ByLayer
370
-1
48
1
60
0
100
AcDbPoint
10
22
20
12.4125
30
0
39
0
210
0
220
0
230
1
50
360
0
POINT
5
46
100
AcDbEntity
8
SK2
62
256
6
ByLayer
370
-1
48
1
60
0
100
AcDbPoint
10
22
20
12.4125
30
0
39
0
210
0
220
0
230
1
50
360
0
POINT
5
47
100
AcDbEntity
8
81
62
256
6
ByLayer
370
-1
48
1
60
0
100
AcDbPoint
10
22
20
12.4125
30
0
39
0
210
0
220
0
230
1
50
360
0
POINT
5
49
100
AcDbEntity
8
80
62
256
6
ByLayer
370
-1
48
1
60
0
100
AcDbPoint
10
0
20
0
30
0
39
0
210
0
220
0
230
1
50
360
0
POINT
5
4B
100
AcDbEntity
8
SK2
62
256
6
ByLayer
370
-1
48
1
60
0
100
AcDbPoint
10
22
20
12.4125
30
0
39
0
210
0
220
0
230
1
50
360
0
SPLINE
5
8A
100
AcDbEntity
8
1
62
256
6
ByLayer
370
-1
48
1
60
0
100
AcDbSpline
70
4
71
3
72
14
73
10
40
0
40
0
40
0
40
0
40
0.283999679271262
40
0.283999679271262
40
0.571278515706012
40
0.571278515706012
40
0.831593340341182
40
0.831593340341182
40
1
40
1
40
1
40
1
41
1
10
13.8547500618271
20
8.92841847569272
30
0
41
1
10
13.8718118861109
20
8.94087207884817
30
0
41
1
10
13.8872266167496
20
8.95671548385167
30
0
41
1
10
13.9117772389445
20
8.99341547579138
30
0
41
1
10
13.9211852410802
20
9.01491738465504
30
0
41
1
10
13.9308155775434
20
9.05804928134899
30
0
41
1
10
13.9319258404926
20
9.08013558767101
30
0
41
1
10
13.9273512109537
20
9.11550222448113
30
0
41
1
10
13.9239104029868
20
9.12940828797102
30
0
41
1
10
13.9189650222422
20
9.14263530960605
30
0
0
SPLINE
5
8B
100
AcDbEntity
8
1
62
256
6
ByLayer
370
-1
48
1
60
0
100
AcDbSpline
70
4
71
3
72
14
73
10
40
0
40
0
40
0
40
0
40
0.283980725520038
40
0.283980725520038
40
0.57070147141388
40
0.57070147141388
40
0.830482212432973
40
0.830482212432973
40
1
40
1
40
1
40
1
41
1
10
12.3684811274385
20
9.48924891763878
30
0
41
1
10
12.3491400138087
20
9.49786974831179
30
0
41
1
10
12.3276692483084
20
9.5033586888986
30
0
41
1
10
12.2835486255405
20
9.50635177994923
30
0
41
1
10
12.2602046662244
20
9.50378533174018
30
0
41
1
10
12.2179905048669
20
9.49061563849182
30
0
41
1
10
12.1982810851827
20
9.48055596868369
30
0
41
1
10
12.1697958365488
20
9.45885958285922
30
0
41
1
10
12.1593707587658
20
9.44883296313995
30
0
41
1
10
12.1503133134298
20
9.43782617622756
30
0
0
SPLINE
5
8C
100
AcDbEntity
8
1
62
256
6
ByLayer
370
-1
48
1
60
0
100
AcDbSpline
70
4
71
3
72
18
73
14
40
0
40
0
40
0
40
0
40
0.213344534360643
40
0.213344534360643
40
0.388962974488673
40
0.388962974488673
40
0.566220263555533
40
0.566220263555533
40
0.721144845531709
40
0.721144845531709
40
0.927376779809783
40
0.927376779809783
40
1
40
1
40
1
40
1
41
1
10
12.0442685509131
20
8.63192286431229
30
0
41
1
10
12.0792825321099
20
8.65747993367748
30
0
41
1
10
12.1114917638248
20
8.68938861268566
30
0
41
1
10
12.1602058138157
20
8.75719835611534
30
0
41
1
10
12.1789498475311
20
8.79221901892032
30
0
41
1
10
12.2059581915635
20
8.86705969170643
30
0
41
1
10
12.2144145734709
20
8.90805852563113
30
0
41
1
10
12.218815354156
20
8.98350933534181
30
0
41
1
10
12.2163094300967
20
9.01903118852209
30
0
41
1
10
12.2013545887357
20
9.09681081946232
30
0
41
1
10
12.1857764613651
20
9.13878455228507
30
0
41
1
10
12.1579808330275
20
9.18934824647869
30
0
41
1
10
12.1500201850136
20
9.20213358738226
30
0
41
1
10
12.1414792929256
20
9.21436617274884
30
0
0
SPLINE
5
8D
100
AcDbEntity
8
1
62
256
6
ByLayer
370
-1
48
1
60
0
100
AcDbSpline
70
4
71
3
72
12
73
8
40
0
40
0
40
0
40
0
40
0.377026770614337
40
0.377026770614337
40
0.761057339374064
40
0.761057339374064
40
1
40
1
40
1
40
1
41
1
10
13.1848485077554
20
8.07015696570423
30
0
41
1
10
13.1488430765583
20
8.05387427416352
30
0
41
1
10
13.1150550405782
20
8.03227300368786
30
0
41
1
10
13.0563668688481
20
7.98258132933066
30
0
41
1
10
13.030788197542
20
7.95378113505021
30
0
41
1
10
12.9970036759804
20
7.90420736742968
30
0
41
1
10
12.985716497422
20
7.88426628263841
30
0
41
1
10
12.9761989599735
20
7.86383374049774
30
0
0
SPLINE
5
8E
100
AcDbEntity
8
1
62
256
6
ByLayer
370
-1
48
1
60
0
100
AcDbSpline
70
4
71
3
72
14
73
10
40
0
40
0
40
0
40
0
40
0.284544925007715
40
0.284544925007715
40
0.57175552485577
40
0.57175552485577
40
0.832016155851777
40
0.832016155851777
40
1
40
1
40
1
40
1
41
1
10
13.2744794187004
20
9.63797756163041
30
0
41
1
10
13.272238934597
20
9.65902246798973
30
0
41
1
10
13.2662246017013
20
9.6803408172747
30
0
41
1
10
13.246705491888
20
9.71999181773552
30
0
41
1
10
13.2327942165436
20
9.73888989035657
30
0
41
1
10
13.2002680944866
20
9.7687985087025
30
0
41
1
10
13.1817020294276
20
9.78080576608656
30
0
41
1
10
13.1488259134079
20
9.79452179173575
30
0
41
1
10
13.135100141372
20
9.7984925526516
30
0
41
1
10
13.1212093458936
20
9.80082932813832
30
0
0
SPLINE
5
8F
100
AcDbEntity
8
1
62
256
6
ByLayer
370
-1
48
1
60
0
100
AcDbSpline
70
4
71
3
72
16
73
12
40
0
40
0
40
0
40
0
40
0.0651963742942612
40
0.0651963742942612
40
0.289863523350606
40
0.289863523350606
40
0.517415117715216
40
0.517415117715216
40
0.759456886687407
40
0.759456886687407
40
1
40
1
40
1
40
1
41
1
10
13.7487052993104
20
8.12251516377745
30
0
41
1
10
13.752190923274
20
8.1267509630344
30
0
41
1
10
13.7554918084923
20
8.13114734059982
30
0
41
1
10
13.7691732450292
20
8.15116338110971
30
0
41
1
10
13.7774335662705
20
8.16846661693108
30
0
41
1
10
13.7882769698551
20
8.20404770840665
30
0
41
1
10
13.7909381530642
20
8.22278398577237
30
0
41
1
10
13.7907598396258
20
8.26026737036628
30
0
41
1
10
13.78757717256
20
8.27940893216564
30
0
41
1
10
13.7761317063633
20
8.31472163888688
30
0
41
1
10
13.7677951746689
20
8.3312863480181
30
0
41
1
10
13.7575393198146
20
8.34597516725617
30
0
0
SPLINE
5
90
100
AcDbEntity
8
1
62
256
6
ByLayer
370
-1
48
1
60
0
100
AcDbSpline
70
4
71
3
72
18
73
14
40
0
40
0
40
0
40
0
40
0.213344534360646
40
0.213344534360646
40
0.388962974488683
40
0.388962974488683
40
0.566220263555542
40
0.566220263555542
40
0.721144845531734
40
0.721144845531734
40
0.927376779809804
40
0.927376779809804
40
1
40
1
40
1
40
1
41
1
10
13.8547500618271
20
8.92841847569272
30
0
41
1
10
13.8197360806303
20
8.90286140632753
30
0
41
1
10
13.7875268489154
20
8.87095272731935
30
0
41
1
10
13.7388127989246
20
8.80314298388964
30
0
41
1
10
13.7200687652092
20
8.76812232108469
30
0
41
1
10
13.6930604211767
20
8.69328164829858
30
0
41
1
10
13.6846040392693
20
8.65228281437388
30
0
41
1
10
13.6802032585842
20
8.5768320046632
30
0
41
1
10
13.6827091826435
20
8.54131015148292
30
0
41
1
10
13.6976640240046
20
8.46353052054269
30
0
41
1
10
13.7132421513751
20
8.42155678771994
30
0
41
1
10
13.7410377797127
20
8.37099309352632
30
0
41
1
10
13.7489984277267
20
8.35820775262275
30
0
41
1
10
13.7575393198146
20
8.34597516725617
30
0
0
SPLINE
5
91
100
AcDbEntity
8
1
62
256
6
ByLayer
370
-1
48
1
60
0
100
AcDbSpline
70
4
71
3
72
18
73
14
40
0
40
0
40
0
40
0
40
0.213401032662298
40
0.213401032662298
40
0.389009763545777
40
0.389009763545777
40
0.566256681222325
40
0.566256681222325
40
0.72117952748372
40
0.72117952748372
40
0.927421658996535
40
0.927421658996535
40
1
40
1
40
1
40
1
41
1
10
12.6245391940398
20
7.9223637783746
30
0
41
1
10
12.6199488789182
20
7.96548068857626
30
0
41
1
10
12.6084524177327
20
8.00935097258571
30
0
41
1
10
12.5741384000409
20
8.08548039368455
30
0
41
1
10
12.5532086011429
20
8.11923844941848
30
0
41
1
10
12.5019487971075
20
8.1800859582701
30
0
41
1
10
12.4706947199981
20
8.20793181074177
30
0
41
1
10
12.407588545217
20
8.24951706852153
30
0
41
1
10
12.3755859836372
20
8.26513304047936
30
0
41
1
10
12.3007694069071
20
8.29113197610874
30
0
41
1
10
12.2566344273135
20
8.29866323657339
30
0
41
1
10
12.198956036762
20
8.29991885799748
30
0
41
1
10
12.183912247894
20
8.29943014155469
30
0
41
1
10
12.1690561243675
20
8.29816333817615
30
0
0
SPLINE
5
92
100
AcDbEntity
8
1
62
256
6
ByLayer
370
-1
48
1
60
0
100
AcDbSpline
70
4
71
3
72
18
73
14
40
0
40
0
40
0
40
0
40
0.213401032662306
40
0.213401032662306
40
0.389009763545762
40
0.389009763545762
40
0.566256681222287
40
0.566256681222287
40
0.721179527483683
40
0.721179527483683
40
0.927421658996515
40
0.927421658996515
40
1
40
1
40
1
40
1
41
1
10
13.2744794187004
20
9.63797756163041
30
0
41
1
10
13.279069733822
20
9.59486065142875
30
0
41
1
10
13.2905661950075
20
9.5509903674193
30
0
41
1
10
13.3248802126993
20
9.47486094632043
30
0
41
1
10
13.3458100115973
20
9.44110289058654
30
0
41
1
10
13.3970698156327
20
9.38025538173488
30
0
41
1
10
13.4283238927421
20
9.35240952926324
30
0
41
1
10
13.4914300675232
20
9.31082427148348
30
0
41
1
10
13.523432629103
20
9.29520829952565
30
0
41
1
10
13.5982492058331
20
9.26920936389627
30
0
41
1
10
13.6423841854268
20
9.26167810343159
30
0
41
1
10
13.7000625759783
20
9.26042248200753
30
0
41
1
10
13.7151063648462
20
9.26091119845029
30
0
41
1
10
13.7299624883727
20
9.26217800182883
30
0
0
SPLINE
5
93
100
AcDbEntity
8
1
62
256
6
ByLayer
370
-1
48
1
60
0
100
AcDbSpline
70
4
71
3
72
12
73
8
40
0
40
0
40
0
40
0
40
0.377026769291779
40
0.377026769291779
40
0.761057337838482
40
0.761057337838482
40
1
40
1
40
1
40
1
41
1
10
12.7141701049849
20
9.49018437430078
30
0
41
1
10
12.750175536056
20
9.50646706578456
30
0
41
1
10
12.7839635719256
20
9.52806833616478
30
0
41
1
10
12.8426517435966
20
9.5777600103753
30
0
41
1
10
12.8682304149233
20
9.60656020462034
30
0
41
1
10
12.9020149366151
20
9.65613397231976
30
0
41
1
10
12.9133021152572
20
9.67607505723583
30
0
41
1
10
12.9228196527666
20
9.69650759950716
30
0
0
SPLINE
5
94
100
AcDbEntity
8
1
62
256
6
ByLayer
370
-1
48
1
60
0
100
AcDbSpline
70
4
71
3
72
16
73
12
40
0
40
0
40
0
40
0
40
0.0668780938433182
40
0.0668780938433182
40
0.290864569546971
40
0.290864569546971
40
0.517832136788409
40
0.517832136788409
40
0.759333160551888
40
0.759333160551888
40
1
40
1
40
1
40
1
41
1
10
12.7778092668467
20
7.75951201186666
30
0
41
1
10
12.7833735103949
20
7.75857596843085
30
0
41
1
10
12.7889877959675
20
7.75789406374156
30
0
41
1
10
12.8133171164946
20
7.75606214236052
30
0
41
1
10
12.832425701259
20
7.75757517299348
30
0
41
1
10
12.8686518383695
20
7.76600143617262
30
0
41
1
10
12.8862041219948
20
7.77307897320031
30
0
41
1
10
12.9185687138763
20
7.79200410359255
30
0
41
1
10
12.9335492691349
20
7.80434782322735
30
0
41
1
10
12.9584249546834
20
7.83198369373795
30
0
41
1
10
12.9686122314881
20
7.84754631842813
30
0
41
1
10
12.9761989599735
20
7.86383374049771
30
0
0
SPLINE
5
95
100
AcDbEntity
8
1
62
256
6
ByLayer
370
-1
48
1
60
0
100
AcDbSpline
70
4
71
3
72
16
73
12
40
0
40
0
40
0
40
0
40
0.0668780938433849
40
0.0668780938433849
40
0.290864569546891
40
0.290864569546891
40
0.517832136788192
40
0.517832136788192
40
0.759333160551488
40
0.759333160551488
40
1
40
1
40
1
40
1
41
1
10
13.1212093458936
20
9.80082932813832
30
0
41
1
10
13.1156451023453
20
9.80176537157413
30
0
41
1
10
13.1100308167727
20
9.80244727626345
30
0
41
1
10
13.0857014962456
20
9.80427919764449
30
0
41
1
10
13.0665929114812
20
9.8027661670115
30
0
41
1
10
13.0303667743707
20
9.79433990383237
30
0
41
1
10
13.0128144907454
20
9.78726236680467
30
0
41
1
10
12.9804498988639
20
9.76833723641244
30
0
41
1
10
12.9654693436053
20
9.75599351677764
30
0
41
1
10
12.9405936580568
20
9.72835764626703
30
0
41
1
10
12.930406381252
20
9.7127950215768
30
0
41
1
10
12.9228196527666
20
9.69650759950716
30
0
0
SPLINE
5
96
100
AcDbEntity
8
1
62
256
6
ByLayer
370
-1
48
1
60
0
100
AcDbSpline
70
4
71
3
72
16
73
12
40
0
40
0
40
0
40
0
40
0.065196374294365
40
0.065196374294365
40
0.289863523350654
40
0.289863523350654
40
0.517415117715313
40
0.517415117715313
40
0.759456886687524
40
0.759456886687524
40
1
40
1
40
1
40
1
41
1
10
12.1503133134298
20
9.43782617622756
30
0
41
1
10
12.1468276894662
20
9.43359037697059
30
0
41
1
10
12.1435268042479
20
9.42919399940519
30
0
41
1
10
12.1298453677111
20
9.40917795889527
30
0
41
1
10
12.1215850464698
20
9.39187472307393
30
0
41
1
10
12.1107416428851
20
9.35629363159833
30
0
41
1
10
12.108080459676
20
9.33755735423264
30
0
41
1
10
12.1082587731144
20
9.3000739696387
30
0
41
1
10
12.1114414401802
20
9.28093240783934
30
0
41
1
10
12.1228869063769
20
9.24561970111813
30
0
41
1
10
12.1312234380714
20
9.22905499198691
30
0
41
1
10
12.1414792929256
20
9.21436617274884
30
0
0
SPLINE
5
97
100
AcDbEntity
8
1
62
256
6
ByLayer
370
-1
48
1
60
0
100
AcDbSpline
70
4
71
3
72
14
73
10
40
0
40
0
40
0
40
0
40
0.284544925007713
40
0.284544925007713
40
0.571755524855715
40
0.571755524855715
40
0.832016155851694
40
0.832016155851694
40
1
40
1
40
1
40
1
41
1
10
12.6245391940398
20
7.9223637783746
30
0
41
1
10
12.6267796781432
20
7.90131887201528
30
0
41
1
10
12.6327940110389
20
7.88000052273034
30
0
41
1
10
12.6523131208522
20
7.84034952226949
30
0
41
1
10
12.6662243961966
20
7.82145144964844
30
0
41
1
10
12.6987505182537
20
7.79154283130251
30
0
41
1
10
12.7173165833126
20
7.77953557391842
30
0
41
1
10
12.7501926993323
20
7.76581954826923
30
0
41
1
10
12.7639184713682
20
7.76184878735339
30
0
41
1
10
12.7778092668467
20
7.75951201186666
30
0
0
SPLINE
5
98
100
AcDbEntity
8
1
62
256
6
ByLayer
370
-1
48
1
60
0
100
AcDbSpline
70
4
71
3
72
12
73
8
40
0
40
0
40
0
40
0
40
0.464554249887584
40
0.464554249887584
40
0.846536430466062
40
0.846536430466062
40
1
40
1
40
1
40
1
41
1
10
12.3684811274385
20
9.48924891763878
30
0
41
1
10
12.4081433690618
20
9.47157043874188
30
0
41
1
10
12.4519267553582
20
9.4595076089908
30
0
41
1
10
12.5350883611174
20
9.45104180343353
30
0
41
1
10
12.5748150103784
20
9.45223958415991
30
0
41
1
10
12.6297906315078
20
9.46197995752581
30
0
41
1
10
12.6456842977879
20
9.46574300261136
30
0
41
1
10
12.6613111548457
20
9.47042122267007
30
0
0
SPLINE
5
99
100
AcDbEntity
8
1
62
256
6
ByLayer
370
-1
48
1
60
0
100
AcDbSpline
70
4
71
3
72
16
73
12
40
0
40
0
40
0
40
0
40
0.0666801185229557
40
0.0666801185229557
40
0.291327849312015
40
0.291327849312015
40
0.518943310444801
40
0.518943310444801
40
0.761116805784412
40
0.761116805784412
40
1
40
1
40
1
40
1
41
1
10
13.9189650222422
20
9.14263530960605
30
0
41
1
10
13.9170005246169
20
9.14788959717956
30
0
41
1
10
13.9147938593001
20
9.15306088363539
30
0
41
1
10
13.9042224961181
20
9.17501428277416
30
0
41
1
10
13.8933520595224
20
9.19080365402479
30
0
41
1
10
13.8679318891153
20
9.2179551450154
30
0
41
1
10
13.8530227077318
20
9.2296119487352
30
0
41
1
10
13.8204459820789
20
9.24816618542542
30
0
41
1
10
13.8022648303711
20
9.25496150679226
30
0
41
1
10
13.7660733200007
20
9.26263653981565
30
0
41
1
10
13.7476918075896
20
9.26368980680564
30
0
41
1
10
13.7299624883727
20
9.26217800182886
30
0
0
SPLINE
5
9A
100
AcDbEntity
8
1
62
256
6
ByLayer
370
-1
48
1
60
0
100
AcDbSpline
70
4
71
3
72
14
73
10
40
0
40
0
40
0
40
0
40
0.283980725520025
40
0.283980725520025
40
0.570701471413851
40
0.570701471413851
40
0.830482212432917
40
0.830482212432917
40
1
40
1
40
1
40
1
41
1
10
13.5305374853017
20
8.07109242236623
30
0
41
1
10
13.5498785989315
20
8.06247159169322
30
0
41
1
10
13.5713493644318
20
8.05698265110641
30
0
41
1
10
13.6154699871998
20
8.05398956005578
30
0
41
1
10
13.6388139465158
20
8.05655600826483
30
0
41
1
10
13.6810281078733
20
8.06972570151319
30
0
41
1
10
13.7007375275575
20
8.07978537132129
30
0
41
1
10
13.7292227761914
20
8.10148175714579
30
0
41
1
10
13.7396478539745
20
8.11150837686503
30
0
41
1
10
13.7487052993104
20
8.12251516377745
30
0
0
SPLINE
5
9B
100
AcDbEntity
8
1
62
256
6
ByLayer
370
-1
48
1
60
0
100
AcDbSpline
70
4
71
3
72
16
73
12
40
0
40
0
40
0
40
0
40
0.0666801185229857
40
0.0666801185229857
40
0.291327849312114
40
0.291327849312114
40
0.518943310444937
40
0.518943310444937
40
0.761116805784516
40
0.761116805784516
40
1
40
1
40
1
40
1
41
1
10
11.980053590498
20
8.41770603039896
30
0
41
1
10
11.9820180881234
20
8.41245174282545
30
0
41
1
10
11.9842247534402
20
8.40728045636959
30
0
41
1
10
11.9947961166221
20
8.38532705723085
30
0
41
1
10
12.0056665532178
20
8.36953768598019
30
0
41
1
10
12.031086723625
20
8.34238619498962
30
0
41
1
10
12.0459959050084
20
8.33072939126978
30
0
41
1
10
12.0785726306614
20
8.31217515457962
30
0
41
1
10
12.0967537823692
20
8.30537983321275
30
0
41
1
10
12.1329452927395
20
8.29770480018937
30
0
41
1
10
12.1513268051506
20
8.29665153319937
30
0
41
1
10
12.1690561243675
20
8.29816333817618
30
0
0
SPLINE
5
9C
100
AcDbEntity
8
1
62
256
6
ByLayer
370
-1
48
1
60
0
100
AcDbSpline
70
4
71
3
72
12
73
8
40
0
40
0
40
0
40
0
40
0.464554249887479
40
0.464554249887479
40
0.846536430465947
40
0.846536430465947
40
1
40
1
40
1
40
1
41
1
10
13.5305374853017
20
8.07109242236623
30
0
41
1
10
13.4908752436784
20
8.08877090126313
30
0
41
1
10
13.4470918573821
20
8.10083373101421
30
0
41
1
10
13.3639302516228
20
8.10929953657146
30
0
41
1
10
13.3242036023618
20
8.1081017558451
30
0
41
1
10
13.2692279812324
20
8.0983613824792
30
0
41
1
10
13.2533343149523
20
8.09459833739365
30
0
41
1
10
13.2377074578945
20
8.08992011733491
30
0
0
SPLINE
5
9D
100
AcDbEntity
8
1
62
256
6
ByLayer
370
-1
48
1
60
0
100
AcDbSpline
70
4
71
3
72
14
73
10
40
0
40
0
40
0
40
0
40
0.283999679271272
40
0.283999679271272
40
0.571278515706024
40
0.571278515706024
40
0.831593340341209
40
0.831593340341209
40
1
40
1
40
1
40
1
41
1
10
12.0442685509131
20
8.63192286431229
30
0
41
1
10
12.0272067266293
20
8.61946926115684
30
0
41
1
10
12.0117919959907
20
8.60362585615331
30
0
41
1
10
11.9872413737957
20
8.56692586421363
30
0
41
1
10
11.97783337166
20
8.54542395534997
30
0
41
1
10
11.9682030351969
20
8.50229205865602
30
0
41
1
10
11.9670927722476
20
8.48020575233397
30
0
41
1
10
11.9716674017866
20
8.44483911552388
30
0
41
1
10
11.9751082097535
20
8.43093305203399
30
0
41
1
10
11.980053590498
20
8.41770603039896
30
0
0
LINE
5
4C
100
AcDbEntity
8
80
62
256
6
ByLayer
370
-1
48
1
60
0
100
AcDbLine
10
0
20
0
30
0
11
-5
21
0
31
0
39
0
210
0
220
0
230
1
0
LINE
5
4D
100
AcDbEntity
8
81
62
256
6
ByLayer
370
-1
48
1
60
0
100
AcDbLine
10
22
20
12.4125
30
0
11
32
21
12.4125
31
0
39
0
210
0
220
0
230
1
0
LINE
5
4E
100
AcDbEntity
8
1
62
256
6
ByLayer
370
-1
48
1
60
0
100
AcDbLine
10
7.315787
20
5.300258
30
0
11
7.313829
21
5.30546
31
0
39
0
210
0
220
0
230
1
0
LINE
5
50
100
AcDbEntity
8
1
62
256
6
ByLayer
370
-1
48
1
60
0
100
AcDbLine
10
12.976989
20
4.994586
30
0
11
12.754159
21
5.590573
31
0
39
0
210
0
220
0
230
1
0
LINE
5
51
100
AcDbEntity
8
1
62
256
6
ByLayer
370
-1
48
1
60
0
100
AcDbLine
10
10.656355
20
11.017703
30
0
11
10.419319
21
11.651686
31
0
39
0
210
0
220
0
230
1
0
LINE
5
52
100
AcDbEntity
8
1
62
256
6
ByLayer
370
-1
48
1
60
0
100
AcDbLine
10
12.923834
20
4.953056
30
0
11
12.976989
21
4.994586
31
0
39
0
210
0
220
0
230
1
0
LINE
5
53
100
AcDbEntity
8
1
62
256
6
ByLayer
370
-1
48
1
60
0
100
AcDbLine
10
10.486682
20
11.655216
30
0
11
10.419319
21
11.651686
31
0
39
0
210
0
220
0
230
1
0
LINE
5
54
100
AcDbEntity
8
1
62
256
6
ByLayer
370
-1
48
1
60
0
100
AcDbLine
10
12.976987
20
4.994584
30
0
11
13.043022
21
5.046176
31
0
39
0
210
0
220
0
230
1
0
LINE
5
55
100
AcDbEntity
8
1
62
256
6
ByLayer
370
-1
48
1
60
0
100
AcDbLine
10
10.70951
20
11.059236
30
0
11
10.486682
21
11.655216
31
0
39
0
210
0
220
0
230
1
0
LINE
5
56
100
AcDbEntity
8
1
62
256
6
ByLayer
370
-1
48
1
60
0
100
AcDbLine
10
7.315787
20
5.300258
30
0
11
8.527877
21
5.369086
31
0
39
0
210
0
220
0
230
1
0
LINE
5
57
100
AcDbEntity
8
1
62
256
6
ByLayer
370
-1
48
1
60
0
100
AcDbLine
10
0
20
11.105633
30
0
11
0
21
-5.144149
31
0
39
0
210
0
220
0
230
1
0
LINE
5
58
100
AcDbEntity
8
1
62
256
6
ByLayer
370
-1
48
1
60
0
100
AcDbLine
10
12.923834
20
4.953056
30
0
11
12.686795
21
5.587045
31
0
39
0
210
0
220
0
230
1
0
LINE
5
59
100
AcDbEntity
8
1
62
256
6
ByLayer
370
-1
48
1
60
0
100
AcDbLine
10
0
20
-5.144149
30
0
11
12.923834
21
4.953056
31
0
39
0
210
0
220
0
230
1
0
LINE
5
5A
100
AcDbEntity
8
1
62
256
6
ByLayer
370
-1
48
1
60
0
100
AcDbLine
10
6.192148
20
4.422375
30
0
11
7.315787
21
5.300258
31
0
39
0
210
0
220
0
230
1
0
LINE
5
5B
100
AcDbEntity
8
1
62
256
6
ByLayer
370
-1
48
1
60
0
100
AcDbLine
10
10.419319
20
11.651686
30
0
11
0
21
11.105633
31
0
39
0
210
0
220
0
230
1
0
LINE
5
5C
100
AcDbEntity
8
1
62
256
6
ByLayer
370
-1
48
1
60
0
100
AcDbLine
10
6.227493
20
4.53163
30
0
11
7.211053
21
5.300071
31
0
39
0
210
0
220
0
230
1
0
LINE
5
5D
100
AcDbEntity
8
1
62
256
6
ByLayer
370
-1
48
1
60
0
100
AcDbLine
10
10.570364
20
11.659602
30
0
11
10.486679
21
11.655216
31
0
39
0
210
0
220
0
230
1
0
LINE
5
5E
100
AcDbEntity
8
SK1
62
256
6
ByLayer
370
-1
48
1
60
0
100
AcDbLine
10
-79.35
20
7.9375
30
0
11
-79.35
21
-7.9375
31
0
39
0
210
0
220
0
230
1
0
LINE
5
60
100
AcDbEntity
8
1
62
256
6
ByLayer
370
-1
48
1
60
0
100
AcDbLine
10
11.908643
20
11.904978
30
0
11
21.581958
21
12.411935
31
0
39
0
210
0
220
0
230
1
0
LINE
5
61
100
AcDbEntity
8
SK1
62
256
6
ByLayer
370
-1
48
1
60
0
100
AcDbLine
10
0
20
11.105633
30
0
11
-0.106
21
11.100077
31
0
39
0
210
0
220
0
230
1
0
LINE
5
62
100
AcDbEntity
8
SK1
62
256
6
ByLayer
370
-1
48
1
60
0
100
AcDbLine
10
-0.106
20
-5.226966
30
0
11
0
21
-5.144149
31
0
39
0
210
0
220
0
230
1
0
LINE
5
63
100
AcDbEntity
8
SK1
62
256
6
ByLayer
370
-1
48
1
60
0
100
AcDbLine
10
-0.106
20
11.100077
30
0
11
-0.106
21
-5.226966
31
0
39
0
210
0
220
0
230
1
0
LINE
5
64
100
AcDbEntity
8
SK1
62
256
6
ByLayer
370
-1
48
1
60
0
100
AcDbLine
10
-3.575326
20
-7.9375
30
0
11
-0.106
21
-5.226966
31
0
39
0
210
0
220
0
230
1
0
LINE
5
65
100
AcDbEntity
8
SK1
62
256
6
ByLayer
370
-1
48
1
60
0
100
AcDbLine
10
0
20
11.105633
30
0
11
0
21
-5.144149
31
0
39
0
210
0
220
0
230
1
0
LINE
5
66
100
AcDbEntity
8
1
62
256
6
ByLayer
370
-1
48
1
60
0
100
AcDbLine
10
21.847153
20
11.702639
30
0
11
14.214016
21
5.738979
31
0
39
0
210
0
220
0
230
1
0
LINE
5
67
100
AcDbEntity
8
SK1
62
256
6
ByLayer
370
-1
48
1
60
0
100
AcDbLine
10
-3.575326
20
7.9375
30
0
11
-3.075326
21
8.4375
31
0
39
0
210
0
220
0
230
1
0
LINE
5
68
100
AcDbEntity
8
SK1
62
256
6
ByLayer
370
-1
48
1
60
0
100
AcDbLine
10
-79.35
20
-7.9375
30
0
11
-3.575326
21
-7.9375
31
0
39
0
210
0
220
0
230
1
0
LINE
5
69
100
AcDbEntity
8
SK1
62
256
6
ByLayer
370
-1
48
1
60
0
100
AcDbLine
10
-2.39402
20
10.980167
30
0
11
-3.075326
21
8.4375
31
0
39
0
210
0
220
0
230
1
0
LINE
5
6A
100
AcDbEntity
8
SK1
62
256
6
ByLayer
370
-1
48
1
60
0
100
AcDbLine
10
-0.106
20
11.100077
30
0
11
-2.39402
21
10.980167
31
0
39
0
210
0
220
0
230
1
0
LINE
5
6B
100
AcDbEntity
8
1
62
256
6
ByLayer
370
-1
48
1
60
0
100
AcDbLine
10
4.051865
20
5.857702
30
0
11
11.685003
21
11.821363
31
0
39
0
210
0
220
0
230
1
0
LINE
5
6C
100
AcDbEntity
8
SK1
62
256
6
ByLayer
370
-1
48
1
60
0
100
AcDbLine
10
-3.575326
20
7.9375
30
0
11
-79.35
21
7.9375
31
0
39
0
210
0
220
0
230
1
0
LINE
5
6D
100
AcDbEntity
8
1
62
256
6
ByLayer
370
-1
48
1
60
0
100
AcDbLine
10
13.990376
20
5.655363
30
0
11
4.31706
21
5.148406
31
0
39
0
210
0
220
0
230
1
0
MTEXT
5
9E
100
AcDbEntity
8
SK6
62
256
6
ByLayer
370
-1
48
1
60
0
100
AcDbMText
10
-44.182394
20
-16.412993
30
0
210
0
220
0
230
1
1
\W00.713;\fsimplex.shx,bigfont.shx;SVJBR 1616H 11 
40
3.5
41
0
44
1.084337
50
0
71
7
72
5
7
DEFAULT
0
DIMENSION
5
D1
100
AcDbEntity
8
2
62
256
6
ByLayer
370
-3
48
1
60
0
100
AcDbDimension
2
DimnDraft3D1
10
7.564334
20
11.677303
30
0
11
6.947481
21
17.935028
31
0
70
34
71
5
72
1
41
1
210
0
220
0
230
1
3
Standard
100
AcDb2LineAngularDimension
13
22
23
14.4125
33
0
14
22
24
26.889321
34
0
15
18.586466
25
12.254948
35
0
16
9.700932
26
24.105224
36
0
40
0
0
DIMENSION
5
E6
100
AcDbEntity
8
SK2
62
256
6
ByLayer
370
-3
48
1
60
0
100
AcDbDimension
2
DimnDraft3D2
10
-89.1
20
7.9375
30
0
11
-89.1
21
-2.066447
31
0
70
32
71
5
72
1
41
1
210
0
220
0
230
1
3
Standard
100
AcDbAlignedDimension
13
-81.35
23
-7.9375
33
0
14
-81.35
24
7.9375
34
0
50
90
100
AcDbRotatedDimension
1001
ACAD
1000
DSTYLE
1002
{
1070
    74
1070
     0
1070
   279
1070
     0
1070
   172
1070
     1
1070
   173
1070
     1
1070
   340
1005
9F
1070
    77
1070
     1
1070
    73
1070
     0
1070
   171
1070
     3
1070
   274
1070
     4
1070
   177
1070
     2
1070
   176
1070
     2
1070
   178
1070
     7
1070
    78
1070
     8
1070
    41
1041
3.175
1070
   147
1041
2.25
1070
    42
1041
2.0
1070
    44
1041
2.0
1070
   140
1041
4.5
1070
   343
1005
D2
1070
   344
1005
D2
1002
}
0
DIMENSION
5
F4
100
AcDbEntity
8
2
62
256
6
ByLayer
370
-3
48
1
60
0
100
AcDbDimension
2
DimnDraft3D3
10
49.25
20
12.4125
30
0
11
49.25
21
-0.391447
31
0
70
32
71
5
72
1
41
1
210
0
220
0
230
1
3
Standard
100
AcDbAlignedDimension
13
2
23
-7.9375
33
0
14
24
24
12.4125
34
0
50
90
100
AcDbRotatedDimension
1001
ACAD
1000
DSTYLE
1002
{
1070
    74
1070
     0
1070
   279
1070
     0
1070
   172
1070
     1
1070
   173
1070
     1
1070
   340
1005
9F
1070
    77
1070
     1
1070
    73
1070
     0
1070
   171
1070
     3
1070
   274
1070
     4
1070
   177
1070
     2
1070
   176
1070
     2
1070
   178
1070
     7
1070
    78
1070
     8
1070
    41
1041
3.175
1070
   147
1041
2.25
1070
    42
1041
2.0
1070
    44
1041
2.0
1070
   140
1041
4.5
1070
   343
1005
D2
1070
   344
1005
D2
1002
}
0
DIMENSION
5
102
100
AcDbEntity
8
SK2
62
256
6
ByLayer
370
-3
48
1
60
0
100
AcDbDimension
2
DimnDraft3D4
10
-79.35
20
32.1625
30
0
11
-32.393421
21
32.1625
31
0
70
32
71
5
72
1
41
1
210
0
220
0
230
1
3
Standard
100
AcDbAlignedDimension
13
22
23
14.4125
33
0
14
-79.35
24
9.9375
34
0
50
0
100
AcDbRotatedDimension
1001
ACAD
1000
DSTYLE
1002
{
1070
   279
1070
     0
1070
   172
1070
     1
1070
   173
1070
     1
1070
   340
1005
9F
1070
    77
1070
     1
1070
    73
1070
     0
1070
   171
1070
     3
1070
   274
1070
     4
1070
   177
1070
     2
1070
   176
1070
     2
1070
   178
1070
     7
1070
    78
1070
     8
1070
    41
1041
3.175
1070
   147
1041
2.25
1070
    42
1041
2.0
1070
    44
1041
2.0
1070
   140
1041
4.5
1070
   343
1005
D2
1070
   344
1005
D2
1002
}
0
ENDSEC
0
SECTION
2
OBJECTS
0
DICTIONARY
5
132
330
0
100
AcDbDictionary
280
0
281
1
3
ACAD_GROUP
350
133
3
ACAD_MLINESTYLE
350
134
0
DICTIONARY
5
133
330
0
100
AcDbDictionary
280
0
281
1
0
DICTIONARY
5
134
330
0
100
AcDbDictionary
280
0
281
1
3
Standard
350
18
0
MLINESTYLE
5
18
330
134
100
AcDbMlineStyle
2
Standard
70
0
3

62
256
51
90
52
90
71
2
49
-0.5
62
256
6
ByLayer
49
0.5
62
256
6
ByLayer
0
RASTERVARIABLES
5
121
330

100
AcDbRasterVariables
90
0
70
1
71
1
72
1
0
ENDSEC
0
EOF
