0
SECTION
2
HEADER
9
$ACADVER
1
AC1015
9
$DWGCODEPAGE
3
ANSI_1252
9
$HANDSEED
5
13f
9
$ANGBASE
50
0
9
$ANGDIR
70
0
9
$ATTMODE
70
1
9
$AUNITS
70
0
9
$AUPREC
70
0
9
$CECOLOR
62
256
9
$CELTSCALE
40
1
9
$CELTYPE
6
ByLayer
9
$CELWEIGHT
370
-1
9
$CLAYER
8
0
9
$CMLJUST
70
0
9
$CMLSCALE
40
1
9
$CMLSTYLE
2
Standard
9
$DIMSTYLE
2
Standard
9
$TEXTSIZE
40
0.2
9
$TEXTSTYLE
7
Standard
9
$LUNITS
70
2
9
$LUPREC
70
4
9
$EXTNAMES
290
1
9
$INSUNITS
70
4
9
$LTSCALE
40
1
9
$LWDISPLAY
290
0
9
$PDMODE
70
0
9
$PDSIZE
40
0
9
$PLINEGEN
70
0
0
ENDSEC
0
SECTION
2
CLASSES
0
CLASS
1
RASTERVARIABLES
2
AcDbRasterVariables
3
ISM
90
0
280
0
281
0
0
ENDSEC
0
SECTION
2
TABLES
0
TABLE
2
VPORT
5
135
100
AcDbSymbolTable
0
VPORT
5
1
100
AcDbSymbolTableRecord
100
AcDbViewportTableRecord
2
*Active
70
0
10
0
20
0
11
1
21
1
12
-1
22
1
13
0
23
0
14
0.5
24
0.5
15
10
25
10
16
0
26
0
36
1
17
0
27
0
37
0
0
ENDTAB
0
TABLE
2
LTYPE
5
136
100
AcDbSymbolTable
0
LTYPE
5
14
100
AcDbSymbolTableRecord
100
AcDbLinetypeTableRecord
70
0
2
ByBlock
3

72
65
73
0
40
0
0
LTYPE
5
15
100
AcDbSymbolTableRecord
100
AcDbLinetypeTableRecord
70
0
2
ByLayer
3

72
65
73
0
40
0
0
LTYPE
5
16
100
AcDbSymbolTableRecord
100
AcDbLinetypeTableRecord
70
0
2
CONTINUOUS
3
Solid line
72
65
73
0
40
0
0
LTYPE
5
3B
100
AcDbSymbolTableRecord
100
AcDbLinetypeTableRecord
70
0
2
DASHED
3
__ __ __ __ __ __ __ __ __
72
65
73
2
40
25.72
49
12.86
74
0
49
-12.86
74
0
0
LTYPE
5
3C
100
AcDbSymbolTableRecord
100
AcDbLinetypeTableRecord
70
0
2
HIDDEN
3
_ _ _ _ _ _ _ _ _ _ _ _ _ _ _
72
65
73
2
40
0.5
49
0.25
74
0
49
-0.25
74
0
0
LTYPE
5
3D
100
AcDbSymbolTableRecord
100
AcDbLinetypeTableRecord
70
0
2
PHANTOM
3
____ _ _ ____ _ _ _____ _ _ ____
72
65
73
6
40
50.5
49
18
74
0
49
-6.5
74
0
49
6.5
74
0
49
-6.5
74
0
49
6.5
74
0
49
-6.5
74
0
0
LTYPE
5
3E
100
AcDbSymbolTableRecord
100
AcDbLinetypeTableRecord
70
0
2
CENTER
3
____ _ ____ _ ____ _ ____
72
65
73
4
40
47.5
49
22
74
0
49
-8.5
74
0
49
8.5
74
0
49
-8.5
74
0
0
LTYPE
5
3F
100
AcDbSymbolTableRecord
100
AcDbLinetypeTableRecord
70
0
2
DOT
3
.........................
72
65
73
2
40
10
49
0
74
0
49
-10
74
0
0
LTYPE
5
40
100
AcDbSymbolTableRecord
100
AcDbLinetypeTableRecord
70
0
2
DASHDOT
3
_._._._._._._._._._._._._._._._.
72
65
73
4
40
70
49
31
74
0
49
-13
74
0
49
13
74
0
49
-13
74
0
0
ENDTAB
0
TABLE
2
LAYER
5
137
100
AcDbSymbolTable
0
LAYER
5
10
100
AcDbSymbolTableRecord
100
AcDbLayerTableRecord
2
0
70
0
62
7
6
CONTINUOUS
290
1
370
-3
390
0
0
LAYER
5
45
100
AcDbSymbolTableRecord
100
AcDbLayerTableRecord
2
2
70
0
62
7
6
CONTINUOUS
290
1
370
-3
390
0
0
LAYER
5
47
100
AcDbSymbolTableRecord
100
AcDbLayerTableRecord
2
80
70
0
62
-6
6
CONTINUOUS
290
1
370
-3
390
0
0
LAYER
5
4B
100
AcDbSymbolTableRecord
100
AcDbLayerTableRecord
2
81
70
0
62
-3
6
CONTINUOUS
290
1
370
-3
390
0
0
LAYER
5
4F
100
AcDbSymbolTableRecord
100
AcDbLayerTableRecord
2
1
70
0
62
4
6
CONTINUOUS
290
1
370
-3
390
0
0
LAYER
5
122
100
AcDbSymbolTableRecord
100
AcDbLayerTableRecord
2
SK2
70
0
62
7
6
CONTINUOUS
290
1
370
-3
390
0
0
LAYER
5
123
100
AcDbSymbolTableRecord
100
AcDbLayerTableRecord
2
SK1
70
0
62
4
6
CONTINUOUS
290
1
370
-3
390
0
0
LAYER
5
124
100
AcDbSymbolTableRecord
100
AcDbLayerTableRecord
2
SK6
70
0
62
5
6
CONTINUOUS
290
1
370
-3
390
0
0
ENDTAB
0
TABLE
2
STYLE
5
138
100
AcDbSymbolTable
0
STYLE
5
11
100
AcDbSymbolTableRecord
100
AcDbTextStyleTableRecord
2
Standard
3
txt
70
0
71
0
40
0
41
1
42
0
50
0
0
STYLE
5
9F
100
AcDbSymbolTableRecord
100
AcDbTextStyleTableRecord
2
DEFAULT
3
simplex.shx
70
0
71
0
40
0
41
1
42
0
50
0
0
STYLE
5
C2
100
AcDbSymbolTableRecord
100
AcDbTextStyleTableRecord
2
DWGDirectTextStyle
3
SIMPLEX
70
0
71
0
40
0
41
1
42
0
50
0
0
ENDTAB
0
TABLE
2
DIMSTYLE
5
139
100
AcDbSymbolTable
100
AcDbDimStyleTable
0
DIMSTYLE
105
27
100
AcDbSymbolTableRecord
100
AcDbDimStyleTableRecord
2
Standard
70
0
3
<>
41
0.18
42
0.0625
44
0.18
140
0.18
147
0.09
73
0
74
0
77
1
271
2
275
0
278
52
280
0
340
11
0
ENDTAB
0
TABLE
2
VIEW
5
13a
100
AcDbSymbolTable
0
ENDTAB
0
TABLE
2
UCS
5
13b
100
AcDbSymbolTable
0
ENDTAB
0
TABLE
2
APPID
5
13c
100
AcDbSymbolTable
0
APPID
5
12
100
AcDbSymbolTableRecord
100
AcDbRegAppTableRecord
2
ACAD
70
0
0
ENDTAB
0
TABLE
2
BLOCK_RECORD
5
13d
100
AcDbSymbolTable
0
BLOCK_RECORD
5
1F
100
AcDbSymbolTableRecord
100
AcDbBlockTableRecord
2
*Model_Space
340
0
70
0
0
BLOCK_RECORD
5
1B
100
AcDbSymbolTableRecord
100
AcDbBlockTableRecord
2
*Paper_Space
340
0
70
0
0
BLOCK_RECORD
5
23
100
AcDbSymbolTableRecord
100
AcDbBlockTableRecord
2
*Paper_Space0
340
0
70
0
0
BLOCK_RECORD
5
C4
100
AcDbSymbolTableRecord
100
AcDbBlockTableRecord
2
DimnDraft3D11
340
0
70
0
0
BLOCK_RECORD
5
D2
100
AcDbSymbolTableRecord
100
AcDbBlockTableRecord
2
DimnDraft3D2
340
0
70
0
0
BLOCK_RECORD
5
E0
100
AcDbSymbolTableRecord
100
AcDbBlockTableRecord
2
_CLOSED
340
0
70
0
0
BLOCK_RECORD
5
E7
100
AcDbSymbolTableRecord
100
AcDbBlockTableRecord
2
DimnDraft3D3
340
0
70
0
0
BLOCK_RECORD
5
F5
100
AcDbSymbolTableRecord
100
AcDbBlockTableRecord
2
DimnDraft3D4
340
0
70
0
0
ENDTAB
0
ENDSEC
0
SECTION
2
BLOCKS
0
BLOCK
5
20
100
AcDbEntity
8
0
100
AcDbBlockBegin
2
*Model_Space
70
0
10
0
20
0
30
0
3
*Model_Space
0
ENDBLK
5
21
100
AcDbEntity
8
0
100
AcDbBlockEnd
0
BLOCK
5
1C
100
AcDbEntity
8
0
100
AcDbBlockBegin
2
*Paper_Space
70
0
10
0
20
0
30
0
3
*Paper_Space
0
ENDBLK
5
1D
100
AcDbEntity
8
0
100
AcDbBlockEnd
0
BLOCK
5
24
100
AcDbEntity
8
0
100
AcDbBlockBegin
2
*Paper_Space0
70
0
10
0
20
0
30
0
3
*Paper_Space0
0
ENDBLK
5
25
100
AcDbEntity
8
0
100
AcDbBlockEnd
0
BLOCK
5
C5
100
AcDbEntity
8
0
100
AcDbBlockBegin
2
DimnDraft3D11
70
0
10
0
20
0
30
0
3
DimnDraft3D11
0
LINE
5
C7
100
AcDbEntity
8
SK2
62
256
6
ByLayer
370
-1
48
1
60
0
100
AcDbLine
10
22
20
-21.9125
30
0
11
22
21
-46.1625
31
0
39
0
210
0
220
0
230
1
0
LINE
5
C8
100
AcDbEntity
8
SK2
62
256
6
ByLayer
370
-1
48
1
60
0
100
AcDbLine
10
-129.35
20
-14.4375
30
0
11
-129.35
21
-46.1625
31
0
39
0
210
0
220
0
230
1
0
LINE
5
C9
100
AcDbEntity
8
SK2
62
256
6
ByLayer
370
-1
48
1
60
0
100
AcDbLine
10
22
20
-44.1625
30
0
11
-129.35
21
-44.1625
31
0
39
0
210
0
220
0
230
1
0
LINE
5
CA
100
AcDbEntity
8
SK2
62
256
6
ByLayer
370
-1
48
1
60
0
100
AcDbLine
10
22
20
-44.1625
30
0
11
18.825002
21
-44.580497
31
0
39
0
210
0
220
0
230
1
0
LINE
5
CB
100
AcDbEntity
8
SK2
62
256
6
ByLayer
370
-1
48
1
60
0
100
AcDbLine
10
22
20
-44.1625
30
0
11
18.824998
21
-43.744503
31
0
39
0
210
0
220
0
230
1
0
LINE
5
CC
100
AcDbEntity
8
SK2
62
256
6
ByLayer
370
-1
48
1
60
0
100
AcDbLine
10
18.825002
20
-44.580497
30
0
11
18.824998
21
-43.744503
31
0
39
0
210
0
220
0
230
1
0
LINE
5
CD
100
AcDbEntity
8
SK2
62
256
6
ByLayer
370
-1
48
1
60
0
100
AcDbLine
10
-129.35
20
-44.1625
30
0
11
-126.175002
21
-43.744503
31
0
39
0
210
0
220
0
230
1
0
LINE
5
CE
100
AcDbEntity
8
SK2
62
256
6
ByLayer
370
-1
48
1
60
0
100
AcDbLine
10
-129.35
20
-44.1625
30
0
11
-126.174998
21
-44.580497
31
0
39
0
210
0
220
0
230
1
0
LINE
5
CF
100
AcDbEntity
8
SK2
62
256
6
ByLayer
370
-1
48
1
60
0
100
AcDbLine
10
-126.175002
20
-43.744503
30
0
11
-126.174998
21
-44.580497
31
0
39
0
210
0
220
0
230
1
0
MTEXT
5
D0
100
AcDbEntity
8
SK2
62
256
6
ByLayer
370
-1
48
1
60
0
100
AcDbMText
10
-56.268421
20
-43.0375
30
0
210
0
220
0
230
1
1
\W00.604;\fsimplex.shx,bigfont.shx;150 
40
4.5
41
0
44
1.084337
50
0
71
7
72
5
7
DEFAULT
0
ENDBLK
5
C6
100
AcDbEntity
8
0
100
AcDbBlockEnd
0
BLOCK
5
DD
100
AcDbEntity
8
0
100
AcDbBlockBegin
2
DimnDraft3D2
70
0
10
0
20
0
30
0
3
DimnDraft3D2
0
MTEXT
5
D3
100
AcDbEntity
8
2
62
256
6
ByLayer
370
-1
48
1
60
0
100
AcDbMText
10
3.641649
20
-30.123069
30
0
210
0
220
0
230
1
1
\W01.000;\fsimplex.shx,bigfont.shx;93%%d0' 
40
4.5
41
0
44
1.084337
50
313.5
71
7
72
5
7
DEFAULT
0
LINE
5
D4
100
AcDbEntity
8
2
62
256
6
ByLayer
370
-1
48
1
60
0
100
AcDbLine
10
22
20
-21.9125
30
0
11
22
21
-43.389321
31
0
39
0
210
0
220
0
230
1
0
LINE
5
D5
100
AcDbEntity
8
2
62
256
6
ByLayer
370
-1
48
1
60
0
100
AcDbLine
10
18.586466
20
-19.754948
30
0
11
-1.423332
21
-18.706279
31
0
39
0
210
0
220
0
230
1
0
ARC
5
D6
100
AcDbEntity
8
2
62
256
6
ByLayer
370
-1
48
1
60
0
100
AcDbCircle
39
0
10
22
20
-19.933844
30
0
40
21.455476988176
210
0
220
0
230
1
100
AcDbArc
50
177
51
270
0
LINE
5
D7
100
AcDbEntity
8
2
62
256
6
ByLayer
370
-1
48
1
60
0
100
AcDbLine
10
22
20
-41.389321
30
0
11
18.811734
21
-41.689813
31
0
39
0
210
0
220
0
230
1
0
LINE
5
D8
100
AcDbEntity
8
2
62
256
6
ByLayer
370
-1
48
1
60
0
100
AcDbLine
10
22
20
-41.389321
30
0
11
18.842595
21
-40.85439
31
0
39
0
210
0
220
0
230
1
0
LINE
5
D9
100
AcDbEntity
8
2
62
256
6
ByLayer
370
-1
48
1
60
0
100
AcDbLine
10
18.811734
20
-41.689813
30
0
11
18.842595
21
-40.85439
31
0
39
0
210
0
220
0
230
1
0
LINE
5
DA
100
AcDbEntity
8
2
62
256
6
ByLayer
370
-1
48
1
60
0
100
AcDbLine
10
0.573927
20
-18.810951
30
0
11
0.942879
21
-21.992022
31
0
39
0
210
0
220
0
230
1
0
LINE
5
DB
100
AcDbEntity
8
2
62
256
6
ByLayer
370
-1
48
1
60
0
100
AcDbLine
10
0.573927
20
-18.810951
30
0
11
0.106986
21
-21.979124
31
0
39
0
210
0
220
0
230
1
0
LINE
5
DC
100
AcDbEntity
8
2
62
256
6
ByLayer
370
-1
48
1
60
0
100
AcDbLine
10
0.942879
20
-21.992022
30
0
11
0.106986
21
-21.979124
31
0
39
0
210
0
220
0
230
1
0
ENDBLK
5
DE
100
AcDbEntity
8
0
100
AcDbBlockEnd
0
BLOCK
5
E1
100
AcDbEntity
8
0
100
AcDbBlockBegin
2
_CLOSED
70
0
10
0
20
0
30
0
3
_CLOSED
0
LINE
5
E3
100
AcDbEntity
8
0
62
256
6
ByLayer
370
-2
48
1
60
0
100
AcDbLine
10
-1
20
0.166667
30
0
11
0
21
0
31
0
39
0
210
0
220
0
230
1
0
LINE
5
E4
100
AcDbEntity
8
0
62
256
6
ByLayer
370
-2
48
1
60
0
100
AcDbLine
10
0
20
0
30
0
11
-1
21
-0.166667
31
0
39
0
210
0
220
0
230
1
0
LINE
5
E5
100
AcDbEntity
8
0
62
256
6
ByLayer
370
-2
48
1
60
0
100
AcDbLine
10
-1
20
0.166667
30
0
11
-1
21
-0.166667
31
0
39
0
210
0
220
0
230
1
0
LINE
5
E6
100
AcDbEntity
8
0
62
256
6
ByLayer
370
-2
48
1
60
0
100
AcDbLine
10
0
20
0
30
0
11
-1
21
0
31
0
39
0
210
0
220
0
230
1
0
ENDBLK
5
E2
100
AcDbEntity
8
0
100
AcDbBlockEnd
0
BLOCK
5
F2
100
AcDbEntity
8
0
100
AcDbBlockBegin
2
DimnDraft3D3
70
0
10
0
20
0
30
0
3
DimnDraft3D3
0
MTEXT
5
E8
100
AcDbEntity
8
2
62
256
6
ByLayer
370
-1
48
1
60
0
100
AcDbMText
10
48.125
20
-5.241447
30
0
210
0
220
0
230
1
1
\W01.000;\fsimplex.shx,bigfont.shx;32 
40
4.5
41
0
44
1.084337
50
90
71
7
72
5
7
DEFAULT
0
LINE
5
E9
100
AcDbEntity
8
2
62
256
6
ByLayer
370
-1
48
1
60
0
100
AcDbLine
10
2
20
12.4375
30
0
11
51.25
21
12.4375
31
0
39
0
210
0
220
0
230
1
0
LINE
5
EA
100
AcDbEntity
8
2
62
256
6
ByLayer
370
-1
48
1
60
0
100
AcDbLine
10
24
20
-19.9125
30
0
11
51.25
21
-19.9125
31
0
39
0
210
0
220
0
230
1
0
LINE
5
EB
100
AcDbEntity
8
2
62
256
6
ByLayer
370
-1
48
1
60
0
100
AcDbLine
10
49.25
20
12.4375
30
0
11
49.25
21
-19.9125
31
0
39
0
210
0
220
0
230
1
0
LINE
5
EC
100
AcDbEntity
8
2
62
256
6
ByLayer
370
-1
48
1
60
0
100
AcDbLine
10
49.25
20
12.4375
30
0
11
49.667997
21
9.262502
31
0
39
0
210
0
220
0
230
1
0
LINE
5
ED
100
AcDbEntity
8
2
62
256
6
ByLayer
370
-1
48
1
60
0
100
AcDbLine
10
49.25
20
12.4375
30
0
11
48.832003
21
9.262498
31
0
39
0
210
0
220
0
230
1
0
LINE
5
EE
100
AcDbEntity
8
2
62
256
6
ByLayer
370
-1
48
1
60
0
100
AcDbLine
10
49.667997
20
9.262502
30
0
11
48.832003
21
9.262498
31
0
39
0
210
0
220
0
230
1
0
LINE
5
EF
100
AcDbEntity
8
2
62
256
6
ByLayer
370
-1
48
1
60
0
100
AcDbLine
10
49.25
20
-19.9125
30
0
11
48.832003
21
-16.737502
31
0
39
0
210
0
220
0
230
1
0
LINE
5
F0
100
AcDbEntity
8
2
62
256
6
ByLayer
370
-1
48
1
60
0
100
AcDbLine
10
49.25
20
-19.9125
30
0
11
49.667997
21
-16.737498
31
0
39
0
210
0
220
0
230
1
0
LINE
5
F1
100
AcDbEntity
8
2
62
256
6
ByLayer
370
-1
48
1
60
0
100
AcDbLine
10
48.832003
20
-16.737502
30
0
11
49.667997
21
-16.737498
31
0
39
0
210
0
220
0
230
1
0
ENDBLK
5
F3
100
AcDbEntity
8
0
100
AcDbBlockEnd
0
BLOCK
5
100
100
AcDbEntity
8
0
100
AcDbBlockBegin
2
DimnDraft3D4
70
0
10
0
20
0
30
0
3
DimnDraft3D4
0
MTEXT
5
F6
100
AcDbEntity
8
SK2
62
256
6
ByLayer
370
-1
48
1
60
0
100
AcDbMText
10
-140.225
20
-1.503947
30
0
210
0
220
0
230
1
1
\W01.000;\fsimplex.shx,bigfont.shx;25 
40
4.5
41
0
44
1.084337
50
90
71
7
72
5
7
DEFAULT
0
LINE
5
F7
100
AcDbEntity
8
SK2
62
256
6
ByLayer
370
-1
48
1
60
0
100
AcDbLine
10
-131.35
20
12.4375
30
0
11
-141.1
21
12.4375
31
0
39
0
210
0
220
0
230
1
0
LINE
5
F8
100
AcDbEntity
8
SK2
62
256
6
ByLayer
370
-1
48
1
60
0
100
AcDbLine
10
-131.35
20
-12.4375
30
0
11
-141.1
21
-12.4375
31
0
39
0
210
0
220
0
230
1
0
LINE
5
F9
100
AcDbEntity
8
SK2
62
256
6
ByLayer
370
-1
48
1
60
0
100
AcDbLine
10
-139.1
20
12.4375
30
0
11
-139.1
21
-12.4375
31
0
39
0
210
0
220
0
230
1
0
LINE
5
FA
100
AcDbEntity
8
SK2
62
256
6
ByLayer
370
-1
48
1
60
0
100
AcDbLine
10
-139.1
20
12.4375
30
0
11
-138.682003
21
9.262502
31
0
39
0
210
0
220
0
230
1
0
LINE
5
FB
100
AcDbEntity
8
SK2
62
256
6
ByLayer
370
-1
48
1
60
0
100
AcDbLine
10
-139.1
20
12.4375
30
0
11
-139.517997
21
9.262498
31
0
39
0
210
0
220
0
230
1
0
LINE
5
FC
100
AcDbEntity
8
SK2
62
256
6
ByLayer
370
-1
48
1
60
0
100
AcDbLine
10
-138.682003
20
9.262502
30
0
11
-139.517997
21
9.262498
31
0
39
0
210
0
220
0
230
1
0
LINE
5
FD
100
AcDbEntity
8
SK2
62
256
6
ByLayer
370
-1
48
1
60
0
100
AcDbLine
10
-139.1
20
-12.4375
30
0
11
-139.517997
21
-9.262502
31
0
39
0
210
0
220
0
230
1
0
LINE
5
FE
100
AcDbEntity
8
SK2
62
256
6
ByLayer
370
-1
48
1
60
0
100
AcDbLine
10
-139.1
20
-12.4375
30
0
11
-138.682003
21
-9.262498
31
0
39
0
210
0
220
0
230
1
0
LINE
5
FF
100
AcDbEntity
8
SK2
62
256
6
ByLayer
370
-1
48
1
60
0
100
AcDbLine
10
-139.517997
20
-9.262502
30
0
11
-138.682003
21
-9.262498
31
0
39
0
210
0
220
0
230
1
0
ENDBLK
5
101
100
AcDbEntity
8
0
100
AcDbBlockEnd
0
ENDSEC
0
SECTION
2
ENTITIES
0
ARC
5
6E
100
AcDbEntity
8
1
62
256
6
ByLayer
370
-1
48
1
60
0
100
AcDbCircle
39
0
10
19.566223
20
-7.744317
30
0
40
8.09999999999998
210
0
220
0
230
1
100
AcDbArc
50
216.357529
51
221.679635
0
ARC
5
6F
100
AcDbEntity
8
1
62
256
6
ByLayer
370
-1
48
1
60
0
100
AcDbCircle
39
0
10
4.783692
20
-12.438371
30
0
40
1.50000000000002
210
0
220
0
230
1
100
AcDbArc
50
20.120606
51
270.432307
0
ARC
5
70
100
AcDbEntity
8
1
62
256
6
ByLayer
370
-1
48
1
60
0
100
AcDbCircle
39
0
10
12.343183
20
-27.063216
30
0
40
8.1
210
0
220
0
230
1
100
AcDbArc
50
97.320365
51
102.642471
0
ARC
5
71
100
AcDbEntity
8
1
62
256
6
ByLayer
370
-1
48
1
60
0
100
AcDbCircle
39
0
10
-4.783692
20
-12.438371
30
0
40
1.50000000000002
210
0
220
0
230
-1
100
AcDbArc
50
164.266807
51
191.982686
0
ARC
5
72
100
AcDbEntity
8
1
62
256
6
ByLayer
370
-1
48
1
60
0
100
AcDbCircle
39
0
10
-4.296283
20
-13.044862
30
0
40
0.397000000000039
210
0
220
0
230
-1
100
AcDbArc
50
308
51
93
0
ARC
5
73
100
AcDbEntity
8
1
62
256
6
ByLayer
370
-1
48
1
60
0
100
AcDbCircle
39
0
10
12.949509
20
-16.280171
30
0
40
1.035
210
0
220
0
230
1
100
AcDbArc
50
39.450841
51
99.549159
0
ARC
5
74
100
AcDbEntity
8
1
62
256
6
ByLayer
370
-1
48
1
60
0
100
AcDbCircle
39
0
10
12.949509
20
-16.280171
30
0
40
1.035
210
0
220
0
230
1
100
AcDbArc
50
159.5
51
219.450841
0
ARC
5
76
100
AcDbEntity
8
1
62
256
6
ByLayer
370
-1
48
1
60
0
100
AcDbCircle
39
0
10
-13.969598
20
-13.551819
30
0
40
0.397000000000047
210
0
220
0
230
-1
100
AcDbArc
50
93
51
128
0
ARC
5
77
100
AcDbEntity
8
1
62
256
6
ByLayer
370
-1
48
1
60
0
100
AcDbCircle
39
0
10
-12.949509
20
-16.280171
30
0
40
0.748000000000004
210
0
220
0
230
-1
100
AcDbArc
50
170.524579
51
230.475421
0
ARC
5
78
100
AcDbEntity
8
1
62
256
6
ByLayer
370
-1
48
1
60
0
100
AcDbCircle
39
0
10
12.949509
20
-16.280171
30
0
40
1.035
210
0
220
0
230
1
100
AcDbArc
50
99.549159
51
159.5
0
ARC
5
7A
100
AcDbEntity
8
1
62
256
6
ByLayer
370
-1
48
1
60
0
100
AcDbCircle
39
0
10
12.949509
20
-16.280171
30
0
40
1.035
210
0
220
0
230
1
100
AcDbArc
50
219.450841
51
279.549159
0
ARC
5
7B
100
AcDbEntity
8
1
62
256
6
ByLayer
370
-1
48
1
60
0
100
AcDbCircle
39
0
10
12.949509
20
-16.280171
30
0
40
1.035
210
0
220
0
230
1
100
AcDbArc
50
279.549159
51
339.5
0
ARC
5
7C
100
AcDbEntity
8
1
62
256
6
ByLayer
370
-1
48
1
60
0
100
AcDbCircle
39
0
10
-21.602736
20
-19.515479
30
0
40
0.397000000000067
210
0
220
0
230
-1
100
AcDbArc
50
128
51
273
0
ARC
5
7D
100
AcDbEntity
8
1
62
256
6
ByLayer
370
-1
48
1
60
0
100
AcDbCircle
39
0
10
-12.949509
20
-16.280171
30
0
40
0.748000000000004
210
0
220
0
230
-1
100
AcDbArc
50
112.661847
51
170.524579
0
ARC
5
7E
100
AcDbEntity
8
1
62
256
6
ByLayer
370
-1
48
1
60
0
100
AcDbCircle
39
0
10
12.949509
20
-16.280171
30
0
40
0.748000000000004
210
0
220
0
230
1
100
AcDbArc
50
247.338153
51
251.661847
0
ARC
5
7F
100
AcDbEntity
8
1
62
256
6
ByLayer
370
-1
48
1
60
0
100
AcDbCircle
39
0
10
12.949509
20
-16.280171
30
0
40
0.748000000000004
210
0
220
0
230
1
100
AcDbArc
50
189.475421
51
247.338153
0
ARC
5
81
100
AcDbEntity
8
1
62
256
6
ByLayer
370
-1
48
1
60
0
100
AcDbCircle
39
0
10
12.949509
20
-16.280171
30
0
40
0.748000000000004
210
0
220
0
230
1
100
AcDbArc
50
67.338153
51
71.661847
0
ARC
5
82
100
AcDbEntity
8
1
62
256
6
ByLayer
370
-1
48
1
60
0
100
AcDbCircle
39
0
10
-11.92942
20
-19.008522
30
0
40
0.39699999999999
210
0
220
0
230
-1
100
AcDbArc
50
273
51
308
0
ARC
5
83
100
AcDbEntity
8
1
62
256
6
ByLayer
370
-1
48
1
60
0
100
AcDbCircle
39
0
10
-12.949509
20
-16.280171
30
0
40
0.748000000000004
210
0
220
0
230
-1
100
AcDbArc
50
50.475421
51
108.338153
0
ARC
5
85
100
AcDbEntity
8
1
62
256
6
ByLayer
370
-1
48
1
60
0
100
AcDbCircle
39
0
10
-12.949509
20
-16.280171
30
0
40
0.748000000000004
210
0
220
0
230
-1
100
AcDbArc
50
350.524579
51
50.475421
0
ARC
5
86
100
AcDbEntity
8
1
62
256
6
ByLayer
370
-1
48
1
60
0
100
AcDbCircle
39
0
10
12.949509
20
-16.280171
30
0
40
1.035
210
0
220
0
230
1
100
AcDbArc
50
339.5
51
39.450841
0
ARC
5
87
100
AcDbEntity
8
1
62
256
6
ByLayer
370
-1
48
1
60
0
100
AcDbCircle
39
0
10
-12.949509
20
-16.280171
30
0
40
0.748000000000004
210
0
220
0
230
-1
100
AcDbArc
50
230.475421
51
288.338153
0
CIRCLE
5
75
100
AcDbEntity
8
1
62
256
6
ByLayer
370
-1
48
1
60
0
100
AcDbCircle
10
12.949509
20
-16.280171
30
0
40
1.90468944117779
39
0
210
0
220
0
230
1
0
CIRCLE
5
79
100
AcDbEntity
8
1
62
256
6
ByLayer
370
-1
48
1
60
0
100
AcDbCircle
10
12.949509
20
-16.280171
30
0
40
1.875
39
0
210
0
220
0
230
1
0
CIRCLE
5
80
100
AcDbEntity
8
1
62
256
6
ByLayer
370
-1
48
1
60
0
100
AcDbCircle
10
12.949509
20
-16.280171
30
0
40
1.30000000000003
39
0
210
0
220
0
230
1
0
CIRCLE
5
84
100
AcDbEntity
8
1
62
256
6
ByLayer
370
-1
48
1
60
0
100
AcDbCircle
10
12.949509
20
-16.280171
30
0
40
1.725
39
0
210
0
220
0
230
1
0
CIRCLE
5
88
100
AcDbEntity
8
1
62
256
6
ByLayer
370
-1
48
1
60
0
100
AcDbCircle
10
12.949509
20
-16.280171
30
0
40
1.82436208350487
39
0
210
0
220
0
230
1
0
ELLIPSE
5
89
100
AcDbEntity
8
1
62
256
6
ByLayer
370
-1
48
1
60
0
100
AcDbEllipse
10
4.783691
20
-12.438371
30
0
11
-1.42677099356528
21
-0.462953286937202
31
0
210
0
220
0
230
1
40
1
41
3.10243336399202
42
-3.10417994033399
0
POINT
5
41
100
AcDbEntity
8
SK2
62
256
6
ByLayer
370
-1
48
1
60
0
100
AcDbPoint
10
22
20
44.7875
30
0
39
0
210
0
220
0
230
1
50
360
0
POINT
5
43
100
AcDbEntity
8
SK2
62
256
6
ByLayer
370
-1
48
1
60
0
100
AcDbPoint
10
22
20
44.7875
30
0
39
0
210
0
220
0
230
1
50
360
0
POINT
5
44
100
AcDbEntity
8
2
62
256
6
ByLayer
370
-1
48
1
60
0
100
AcDbPoint
10
22
20
44.7875
30
0
39
0
210
0
220
0
230
1
50
360
0
POINT
5
46
100
AcDbEntity
8
80
62
256
6
ByLayer
370
-1
48
1
60
0
100
AcDbPoint
10
0
20
0
30
0
39
0
210
0
220
0
230
1
50
360
0
POINT
5
48
100
AcDbEntity
8
SK2
62
256
6
ByLayer
370
-1
48
1
60
0
100
AcDbPoint
10
22
20
44.7875
30
0
39
0
210
0
220
0
230
1
50
360
0
POINT
5
49
100
AcDbEntity
8
SK2
62
256
6
ByLayer
370
-1
48
1
60
0
100
AcDbPoint
10
22
20
44.7875
30
0
39
0
210
0
220
0
230
1
50
360
0
POINT
5
4A
100
AcDbEntity
8
81
62
256
6
ByLayer
370
-1
48
1
60
0
100
AcDbPoint
10
22
20
-19.9125
30
0
39
0
210
0
220
0
230
1
50
360
0
SPLINE
5
8A
100
AcDbEntity
8
1
62
256
6
ByLayer
370
-1
48
1
60
0
100
AcDbSpline
70
4
71
3
72
18
73
14
40
0
40
0
40
0
40
0
40
0.213401032662309
40
0.213401032662309
40
0.389009763545784
40
0.389009763545784
40
0.566256681222308
40
0.566256681222308
40
0.72117952748372
40
0.72117952748372
40
0.927421658996553
40
0.927421658996553
40
1
40
1
40
1
40
1
41
1
10
12.6245391940398
20
-15.4223637783746
30
0
41
1
10
12.6199488789182
20
-15.4654806885763
30
0
41
1
10
12.6084524177327
20
-15.5093509725857
30
0
41
1
10
12.574138400041
20
-15.5854803936846
30
0
41
1
10
12.5532086011429
20
-15.6192384494185
30
0
41
1
10
12.5019487971075
20
-15.6800859582701
30
0
41
1
10
12.4706947199981
20
-15.7079318107418
30
0
41
1
10
12.4075885452171
20
-15.7495170685215
30
0
41
1
10
12.3755859836372
20
-15.7651330404794
30
0
41
1
10
12.3007694069072
20
-15.7911319761087
30
0
41
1
10
12.2566344273135
20
-15.7986632365734
30
0
41
1
10
12.198956036762
20
-15.7999188579975
30
0
41
1
10
12.1839122478941
20
-15.7994301415547
30
0
41
1
10
12.1690561243676
20
-15.7981633381762
30
0
0
SPLINE
5
8B
100
AcDbEntity
8
1
62
256
6
ByLayer
370
-1
48
1
60
0
100
AcDbSpline
70
4
71
3
72
14
73
10
40
0
40
0
40
0
40
0
40
0.284544925007713
40
0.284544925007713
40
0.571755524855741
40
0.571755524855741
40
0.832016155851942
40
0.832016155851942
40
1
40
1
40
1
40
1
41
1
10
13.2744794187004
20
-17.1379775616304
30
0
41
1
10
13.272238934597
20
-17.1590224679898
30
0
41
1
10
13.2662246017013
20
-17.1803408172747
30
0
41
1
10
13.2467054918881
20
-17.2199918177355
30
0
41
1
10
13.2327942165436
20
-17.2388898903566
30
0
41
1
10
13.2002680944866
20
-17.2687985087025
30
0
41
1
10
13.1817020294276
20
-17.2808057660866
30
0
41
1
10
13.1488259134079
20
-17.2945217917358
30
0
41
1
10
13.135100141372
20
-17.2984925526516
30
0
41
1
10
13.1212093458936
20
-17.3008293281383
30
0
0
SPLINE
5
8C
100
AcDbEntity
8
1
62
256
6
ByLayer
370
-1
48
1
60
0
100
AcDbSpline
70
4
71
3
72
12
73
8
40
0
40
0
40
0
40
0
40
0.464554249887524
40
0.464554249887524
40
0.846536430465982
40
0.846536430465982
40
1
40
1
40
1
40
1
41
1
10
13.5305374853017
20
-15.5710924223663
30
0
41
1
10
13.4908752436784
20
-15.5887709012631
30
0
41
1
10
13.447091857382
20
-15.6008337310142
30
0
41
1
10
13.3639302516228
20
-15.6092995365715
30
0
41
1
10
13.3242036023618
20
-15.6081017558451
30
0
41
1
10
13.2692279812324
20
-15.5983613824792
30
0
41
1
10
13.2533343149523
20
-15.5945983373937
30
0
41
1
10
13.2377074578945
20
-15.5899201173349
30
0
0
SPLINE
5
8D
100
AcDbEntity
8
1
62
256
6
ByLayer
370
-1
48
1
60
0
100
AcDbSpline
70
4
71
3
72
12
73
8
40
0
40
0
40
0
40
0
40
0.464554249887481
40
0.464554249887481
40
0.846536430465903
40
0.846536430465903
40
1
40
1
40
1
40
1
41
1
10
12.3684811274385
20
-16.9892489176388
30
0
41
1
10
12.4081433690618
20
-16.9715704387419
30
0
41
1
10
12.4519267553582
20
-16.9595076089908
30
0
41
1
10
12.5350883611174
20
-16.9510418034336
30
0
41
1
10
12.5748150103785
20
-16.9522395841599
30
0
41
1
10
12.6297906315078
20
-16.9619799575258
30
0
41
1
10
12.6456842977879
20
-16.9657430026114
30
0
41
1
10
12.6613111548457
20
-16.9704212226701
30
0
0
SPLINE
5
8E
100
AcDbEntity
8
1
62
256
6
ByLayer
370
-1
48
1
60
0
100
AcDbSpline
70
4
71
3
72
14
73
10
40
0
40
0
40
0
40
0
40
0.283999679271315
40
0.283999679271315
40
0.571278515706088
40
0.571278515706088
40
0.831593340341311
40
0.831593340341311
40
1
40
1
40
1
40
1
41
1
10
13.8547500618271
20
-16.4284184756927
30
0
41
1
10
13.8718118861109
20
-16.4408720788482
30
0
41
1
10
13.8872266167495
20
-16.4567154838517
30
0
41
1
10
13.9117772389445
20
-16.4934154757913
30
0
41
1
10
13.9211852410802
20
-16.514917384655
30
0
41
1
10
13.9308155775433
20
-16.558049281349
30
0
41
1
10
13.9319258404925
20
-16.580135587671
30
0
41
1
10
13.9273512109536
20
-16.6155022244811
30
0
41
1
10
13.9239104029867
20
-16.629408287971
30
0
41
1
10
13.9189650222422
20
-16.642635309606
30
0
0
SPLINE
5
8F
100
AcDbEntity
8
1
62
256
6
ByLayer
370
-1
48
1
60
0
100
AcDbSpline
70
4
71
3
72
12
73
8
40
0
40
0
40
0
40
0
40
0.377026769291565
40
0.377026769291565
40
0.761057337838209
40
0.761057337838209
40
1
40
1
40
1
40
1
41
1
10
12.7141701049848
20
-16.9901843743008
30
0
41
1
10
12.750175536056
20
-17.0064670657845
30
0
41
1
10
12.7839635719256
20
-17.0280683361647
30
0
41
1
10
12.8426517435966
20
-17.0777600103752
30
0
41
1
10
12.8682304149232
20
-17.1065602046203
30
0
41
1
10
12.9020149366151
20
-17.1561339723197
30
0
41
1
10
12.9133021152572
20
-17.1760750572358
30
0
41
1
10
12.9228196527666
20
-17.1965075995072
30
0
0
SPLINE
5
90
100
AcDbEntity
8
1
62
256
6
ByLayer
370
-1
48
1
60
0
100
AcDbSpline
70
4
71
3
72
18
73
14
40
0
40
0
40
0
40
0
40
0.213344534360682
40
0.213344534360682
40
0.38896297448871
40
0.38896297448871
40
0.566220263555534
40
0.566220263555534
40
0.721144845531747
40
0.721144845531747
40
0.927376779809824
40
0.927376779809824
40
1
40
1
40
1
40
1
41
1
10
13.8547500618271
20
-16.4284184756927
30
0
41
1
10
13.8197360806302
20
-16.4028614063275
30
0
41
1
10
13.7875268489154
20
-16.3709527273193
30
0
41
1
10
13.7388127989245
20
-16.3031429838896
30
0
41
1
10
13.7200687652091
20
-16.2681223210846
30
0
41
1
10
13.6930604211766
20
-16.1932816482986
30
0
41
1
10
13.6846040392693
20
-16.1522828143739
30
0
41
1
10
13.6802032585842
20
-16.0768320046632
30
0
41
1
10
13.6827091826435
20
-16.0413101514829
30
0
41
1
10
13.6976640240046
20
-15.9635305205427
30
0
41
1
10
13.7132421513751
20
-15.9215567877199
30
0
41
1
10
13.7410377797127
20
-15.8709930935263
30
0
41
1
10
13.7489984277267
20
-15.8582077526227
30
0
41
1
10
13.7575393198146
20
-15.8459751672561
30
0
0
SPLINE
5
91
100
AcDbEntity
8
1
62
256
6
ByLayer
370
-1
48
1
60
0
100
AcDbSpline
70
4
71
3
72
16
73
12
40
0
40
0
40
0
40
0
40
0.0651963742942215
40
0.0651963742942215
40
0.289863523350694
40
0.289863523350694
40
0.517415117715232
40
0.517415117715232
40
0.759456886687391
40
0.759456886687391
40
1
40
1
40
1
40
1
41
1
10
13.7487052993104
20
-15.6225151637775
30
0
41
1
10
13.752190923274
20
-15.6267509630344
30
0
41
1
10
13.7554918084923
20
-15.6311473405998
30
0
41
1
10
13.7691732450291
20
-15.6511633811097
30
0
41
1
10
13.7774335662704
20
-15.6684666169311
30
0
41
1
10
13.7882769698551
20
-15.7040477084067
30
0
41
1
10
13.7909381530642
20
-15.7227839857724
30
0
41
1
10
13.7907598396258
20
-15.7602673703663
30
0
41
1
10
13.78757717256
20
-15.7794089321657
30
0
41
1
10
13.7761317063633
20
-15.8147216388869
30
0
41
1
10
13.7677951746689
20
-15.8312863480181
30
0
41
1
10
13.7575393198146
20
-15.8459751672562
30
0
0
SPLINE
5
92
100
AcDbEntity
8
1
62
256
6
ByLayer
370
-1
48
1
60
0
100
AcDbSpline
70
4
71
3
72
12
73
8
40
0
40
0
40
0
40
0
40
0.377026770614547
40
0.377026770614547
40
0.761057339374314
40
0.761057339374314
40
1
40
1
40
1
40
1
41
1
10
13.1848485077554
20
-15.5701569657042
30
0
41
1
10
13.1488430765583
20
-15.5538742741635
30
0
41
1
10
13.1150550405782
20
-15.5322730036878
30
0
41
1
10
13.056366868848
20
-15.4825813293306
30
0
41
1
10
13.0307881975419
20
-15.4537811350501
30
0
41
1
10
12.9970036759804
20
-15.4042073674296
30
0
41
1
10
12.9857164974221
20
-15.3842662826384
30
0
41
1
10
12.9761989599735
20
-15.3638337404977
30
0
0
SPLINE
5
93
100
AcDbEntity
8
1
62
256
6
ByLayer
370
-1
48
1
60
0
100
AcDbSpline
70
4
71
3
72
14
73
10
40
0
40
0
40
0
40
0
40
0.28454492500773
40
0.28454492500773
40
0.571755524855705
40
0.571755524855705
40
0.832016155851859
40
0.832016155851859
40
1
40
1
40
1
40
1
41
1
10
12.6245391940398
20
-15.4223637783746
30
0
41
1
10
12.6267796781432
20
-15.4013188720152
30
0
41
1
10
12.6327940110389
20
-15.3800005227303
30
0
41
1
10
12.6523131208522
20
-15.3403495222695
30
0
41
1
10
12.6662243961966
20
-15.3214514496484
30
0
41
1
10
12.6987505182536
20
-15.2915428313025
30
0
41
1
10
12.7173165833126
20
-15.2795355739184
30
0
41
1
10
12.7501926993323
20
-15.2658195482693
30
0
41
1
10
12.7639184713682
20
-15.2618487873534
30
0
41
1
10
12.7778092668466
20
-15.2595120118667
30
0
0
SPLINE
5
94
100
AcDbEntity
8
1
62
256
6
ByLayer
370
-1
48
1
60
0
100
AcDbSpline
70
4
71
3
72
16
73
12
40
0
40
0
40
0
40
0
40
0.0668780938434381
40
0.0668780938434381
40
0.290864569547101
40
0.290864569547101
40
0.517832136788288
40
0.517832136788288
40
0.759333160551509
40
0.759333160551509
40
1
40
1
40
1
40
1
41
1
10
13.1212093458936
20
-17.3008293281383
30
0
41
1
10
13.1156451023454
20
-17.3017653715741
30
0
41
1
10
13.1100308167727
20
-17.3024472762635
30
0
41
1
10
13.0857014962456
20
-17.3042791976445
30
0
41
1
10
13.0665929114812
20
-17.3027661670115
30
0
41
1
10
13.0303667743707
20
-17.2943399038324
30
0
41
1
10
13.0128144907454
20
-17.2872623668047
30
0
41
1
10
12.9804498988639
20
-17.2683372364124
30
0
41
1
10
12.9654693436053
20
-17.2559935167776
30
0
41
1
10
12.9405936580568
20
-17.228357646267
30
0
41
1
10
12.9304063812521
20
-17.2127950215768
30
0
41
1
10
12.9228196527666
20
-17.1965075995072
30
0
0
SPLINE
5
95
100
AcDbEntity
8
1
62
256
6
ByLayer
370
-1
48
1
60
0
100
AcDbSpline
70
4
71
3
72
16
73
12
40
0
40
0
40
0
40
0
40
0.0668780938434854
40
0.0668780938434854
40
0.290864569547078
40
0.290864569547078
40
0.517832136788536
40
0.517832136788536
40
0.759333160551921
40
0.759333160551921
40
1
40
1
40
1
40
1
41
1
10
12.7778092668466
20
-15.2595120118667
30
0
41
1
10
12.7833735103949
20
-15.2585759684309
30
0
41
1
10
12.7889877959675
20
-15.2578940637416
30
0
41
1
10
12.8133171164946
20
-15.2560621423605
30
0
41
1
10
12.8324257012591
20
-15.2575751729935
30
0
41
1
10
12.8686518383695
20
-15.2660014361726
30
0
41
1
10
12.8862041219948
20
-15.2730789732003
30
0
41
1
10
12.9185687138763
20
-15.2920041035926
30
0
41
1
10
12.9335492691349
20
-15.3043478232274
30
0
41
1
10
12.9584249546834
20
-15.3319836937379
30
0
41
1
10
12.9686122314881
20
-15.3475463184281
30
0
41
1
10
12.9761989599735
20
-15.3638337404977
30
0
0
SPLINE
5
96
100
AcDbEntity
8
1
62
256
6
ByLayer
370
-1
48
1
60
0
100
AcDbSpline
70
4
71
3
72
16
73
12
40
0
40
0
40
0
40
0
40
0.0666801185228852
40
0.0666801185228852
40
0.291327849312003
40
0.291327849312003
40
0.518943310444845
40
0.518943310444845
40
0.761116805784416
40
0.761116805784416
40
1
40
1
40
1
40
1
41
1
10
11.980053590498
20
-15.917706030399
30
0
41
1
10
11.9820180881234
20
-15.9124517428254
30
0
41
1
10
11.9842247534402
20
-15.9072804563696
30
0
41
1
10
11.9947961166221
20
-15.8853270572309
30
0
41
1
10
12.0056665532178
20
-15.8695376859802
30
0
41
1
10
12.031086723625
20
-15.8423861949896
30
0
41
1
10
12.0459959050084
20
-15.8307293912698
30
0
41
1
10
12.0785726306614
20
-15.8121751545796
30
0
41
1
10
12.0967537823692
20
-15.8053798332128
30
0
41
1
10
12.1329452927395
20
-15.7977048001894
30
0
41
1
10
12.1513268051506
20
-15.7966515331994
30
0
41
1
10
12.1690561243676
20
-15.7981633381762
30
0
0
SPLINE
5
97
100
AcDbEntity
8
1
62
256
6
ByLayer
370
-1
48
1
60
0
100
AcDbSpline
70
4
71
3
72
18
73
14
40
0
40
0
40
0
40
0
40
0.213401032662297
40
0.213401032662297
40
0.389009763545764
40
0.389009763545764
40
0.56625668122228
40
0.56625668122228
40
0.721179527483686
40
0.721179527483686
40
0.92742165899651
40
0.92742165899651
40
1
40
1
40
1
40
1
41
1
10
13.2744794187004
20
-17.1379775616304
30
0
41
1
10
13.279069733822
20
-17.0948606514288
30
0
41
1
10
13.2905661950075
20
-17.0509903674193
30
0
41
1
10
13.3248802126993
20
-16.9748609463205
30
0
41
1
10
13.3458100115973
20
-16.9411028905866
30
0
41
1
10
13.3970698156327
20
-16.8802553817349
30
0
41
1
10
13.4283238927421
20
-16.8524095292633
30
0
41
1
10
13.4914300675231
20
-16.8108242714835
30
0
41
1
10
13.523432629103
20
-16.7952082995257
30
0
41
1
10
13.598249205833
20
-16.7692093638963
30
0
41
1
10
13.6423841854267
20
-16.7616781034316
30
0
41
1
10
13.7000625759783
20
-16.7604224820076
30
0
41
1
10
13.7151063648462
20
-16.7609111984503
30
0
41
1
10
13.7299624883727
20
-16.7621780018289
30
0
0
SPLINE
5
98
100
AcDbEntity
8
1
62
256
6
ByLayer
370
-1
48
1
60
0
100
AcDbSpline
70
4
71
3
72
14
73
10
40
0
40
0
40
0
40
0
40
0.283999679271275
40
0.283999679271275
40
0.57127851570601
40
0.57127851570601
40
0.831593340341157
40
0.831593340341157
40
1
40
1
40
1
40
1
41
1
10
12.0442685509131
20
-16.1319228643123
30
0
41
1
10
12.0272067266293
20
-16.1194692611568
30
0
41
1
10
12.0117919959907
20
-16.1036258561533
30
0
41
1
10
11.9872413737957
20
-16.0669258642137
30
0
41
1
10
11.9778333716601
20
-16.04542395535
30
0
41
1
10
11.9682030351969
20
-16.0022920586561
30
0
41
1
10
11.9670927722476
20
-15.980205752334
30
0
41
1
10
11.9716674017866
20
-15.9448391155239
30
0
41
1
10
11.9751082097535
20
-15.930933052034
30
0
41
1
10
11.980053590498
20
-15.917706030399
30
0
0
SPLINE
5
99
100
AcDbEntity
8
1
62
256
6
ByLayer
370
-1
48
1
60
0
100
AcDbSpline
70
4
71
3
72
16
73
12
40
0
40
0
40
0
40
0
40
0.0666801185230883
40
0.0666801185230883
40
0.291327849312085
40
0.291327849312085
40
0.518943310444927
40
0.518943310444927
40
0.761116805784647
40
0.761116805784647
40
1
40
1
40
1
40
1
41
1
10
13.9189650222422
20
-16.642635309606
30
0
41
1
10
13.9170005246168
20
-16.6478895971796
30
0
41
1
10
13.9147938593001
20
-16.6530608836354
30
0
41
1
10
13.904222496118
20
-16.6750142827741
30
0
41
1
10
13.8933520595224
20
-16.6908036540248
30
0
41
1
10
13.8679318891152
20
-16.7179551450154
30
0
41
1
10
13.8530227077318
20
-16.7296119487352
30
0
41
1
10
13.8204459820788
20
-16.7481661854254
30
0
41
1
10
13.802264830371
20
-16.7549615067922
30
0
41
1
10
13.7660733200007
20
-16.7626365398156
30
0
41
1
10
13.7476918075896
20
-16.7636898068056
30
0
41
1
10
13.7299624883727
20
-16.7621780018288
30
0
0
SPLINE
5
9A
100
AcDbEntity
8
1
62
256
6
ByLayer
370
-1
48
1
60
0
100
AcDbSpline
70
4
71
3
72
18
73
14
40
0
40
0
40
0
40
0
40
0.213344534360691
40
0.213344534360691
40
0.388962974488735
40
0.388962974488735
40
0.566220263555571
40
0.566220263555571
40
0.721144845531796
40
0.721144845531796
40
0.927376779809883
40
0.927376779809883
40
1
40
1
40
1
40
1
41
1
10
12.0442685509131
20
-16.1319228643123
30
0
41
1
10
12.07928253211
20
-16.1574799336775
30
0
41
1
10
12.1114917638249
20
-16.1893886126857
30
0
41
1
10
12.1602058138157
20
-16.2571983561154
30
0
41
1
10
12.1789498475311
20
-16.2922190189204
30
0
41
1
10
12.2059581915636
20
-16.3670596917065
30
0
41
1
10
12.2144145734709
20
-16.4080585256312
30
0
41
1
10
12.218815354156
20
-16.4835093353418
30
0
41
1
10
12.2163094300967
20
-16.5190311885221
30
0
41
1
10
12.2013545887357
20
-16.5968108194623
30
0
41
1
10
12.1857764613651
20
-16.6387845522851
30
0
41
1
10
12.1579808330275
20
-16.6893482464787
30
0
41
1
10
12.1500201850136
20
-16.7021335873823
30
0
41
1
10
12.1414792929256
20
-16.7143661727488
30
0
0
SPLINE
5
9B
100
AcDbEntity
8
1
62
256
6
ByLayer
370
-1
48
1
60
0
100
AcDbSpline
70
4
71
3
72
16
73
12
40
0
40
0
40
0
40
0
40
0.0651963742941802
40
0.0651963742941802
40
0.289863523350548
40
0.289863523350548
40
0.517415117715117
40
0.517415117715117
40
0.759456886687237
40
0.759456886687237
40
1
40
1
40
1
40
1
41
1
10
12.1503133134298
20
-16.9378261762276
30
0
41
1
10
12.1468276894662
20
-16.9335903769706
30
0
41
1
10
12.1435268042479
20
-16.9291939994052
30
0
41
1
10
12.1298453677111
20
-16.9091779588953
30
0
41
1
10
12.1215850464698
20
-16.891874723074
30
0
41
1
10
12.1107416428851
20
-16.8562936315984
30
0
41
1
10
12.108080459676
20
-16.8375573542327
30
0
41
1
10
12.1082587731144
20
-16.8000739696387
30
0
41
1
10
12.1114414401802
20
-16.7809324078394
30
0
41
1
10
12.1228869063769
20
-16.7456197011181
30
0
41
1
10
12.1312234380713
20
-16.7290549919869
30
0
41
1
10
12.1414792929256
20
-16.7143661727488
30
0
0
SPLINE
5
9C
100
AcDbEntity
8
1
62
256
6
ByLayer
370
-1
48
1
60
0
100
AcDbSpline
70
4
71
3
72
14
73
10
40
0
40
0
40
0
40
0
40
0.283980725520095
40
0.283980725520095
40
0.570701471413818
40
0.570701471413818
40
0.830482212432931
40
0.830482212432931
40
1
40
1
40
1
40
1
41
1
10
13.5305374853017
20
-15.5710924223662
30
0
41
1
10
13.5498785989315
20
-15.5624715916932
30
0
41
1
10
13.5713493644318
20
-15.5569826511064
30
0
41
1
10
13.6154699871997
20
-15.5539895600558
30
0
41
1
10
13.6388139465157
20
-15.5565560082648
30
0
41
1
10
13.6810281078733
20
-15.5697257015132
30
0
41
1
10
13.7007375275575
20
-15.5797853713213
30
0
41
1
10
13.7292227761914
20
-15.6014817571458
30
0
41
1
10
13.7396478539745
20
-15.611508376865
30
0
41
1
10
13.7487052993104
20
-15.6225151637775
30
0
0
SPLINE
5
9D
100
AcDbEntity
8
1
62
256
6
ByLayer
370
-1
48
1
60
0
100
AcDbSpline
70
4
71
3
72
14
73
10
40
0
40
0
40
0
40
0
40
0.283980725520068
40
0.283980725520068
40
0.570701471413749
40
0.570701471413749
40
0.830482212432939
40
0.830482212432939
40
1
40
1
40
1
40
1
41
1
10
12.3684811274385
20
-16.9892489176388
30
0
41
1
10
12.3491400138088
20
-16.9978697483118
30
0
41
1
10
12.3276692483084
20
-17.0033586888986
30
0
41
1
10
12.2835486255405
20
-17.0063517799492
30
0
41
1
10
12.2602046662245
20
-17.0037853317402
30
0
41
1
10
12.217990504867
20
-16.9906156384919
30
0
41
1
10
12.1982810851827
20
-16.9805559686837
30
0
41
1
10
12.1697958365488
20
-16.9588595828593
30
0
41
1
10
12.1593707587658
20
-16.94883296314
30
0
41
1
10
12.1503133134298
20
-16.9378261762276
30
0
0
INSERT
5
D1
100
AcDbEntity
8
SK2
62
256
6
ByLayer
370
-1
48
1
60
0
100
AcDbBlockReference
2
DimnDraft3D11
10
0
20
0
30
0
41
1
42
1
43
1
50
0
210
0
220
0
230
1
0
LINE
5
4C
100
AcDbEntity
8
80
62
256
6
ByLayer
370
-1
48
1
60
0
100
AcDbLine
10
0
20
0
30
0
11
-5
21
0
31
0
39
0
210
0
220
0
230
1
0
LINE
5
4D
100
AcDbEntity
8
81
62
256
6
ByLayer
370
-1
48
1
60
0
100
AcDbLine
10
22
20
-19.9125
30
0
11
32
21
-19.9125
31
0
39
0
210
0
220
0
230
1
0
LINE
5
4E
100
AcDbEntity
8
1
62
256
6
ByLayer
370
-1
48
1
60
0
100
AcDbLine
10
6.227493
20
-12.03163
30
0
11
7.211053
21
-12.800071
31
0
39
0
210
0
220
0
230
1
0
LINE
5
50
100
AcDbEntity
8
1
62
256
6
ByLayer
370
-1
48
1
60
0
100
AcDbLine
10
12.923834
20
-12.453056
30
0
11
12.976989
21
-12.494586
31
0
39
0
210
0
220
0
230
1
0
LINE
5
51
100
AcDbEntity
8
1
62
256
6
ByLayer
370
-1
48
1
60
0
100
AcDbLine
10
10.70951
20
-18.559236
30
0
11
10.486682
21
-19.155216
31
0
39
0
210
0
220
0
230
1
0
LINE
5
52
100
AcDbEntity
8
1
62
256
6
ByLayer
370
-1
48
1
60
0
100
AcDbLine
10
12.976989
20
-12.494586
30
0
11
12.754159
21
-13.090573
31
0
39
0
210
0
220
0
230
1
0
LINE
5
53
100
AcDbEntity
8
1
62
256
6
ByLayer
370
-1
48
1
60
0
100
AcDbLine
10
0
20
-2.355851
30
0
11
12.923834
21
-12.453056
31
0
39
0
210
0
220
0
230
1
0
LINE
5
54
100
AcDbEntity
8
1
62
256
6
ByLayer
370
-1
48
1
60
0
100
AcDbLine
10
7.315787
20
-12.800258
30
0
11
7.313829
21
-12.80546
31
0
39
0
210
0
220
0
230
1
0
LINE
5
55
100
AcDbEntity
8
1
62
256
6
ByLayer
370
-1
48
1
60
0
100
AcDbLine
10
12.923834
20
-12.453056
30
0
11
12.686795
21
-13.087045
31
0
39
0
210
0
220
0
230
1
0
LINE
5
56
100
AcDbEntity
8
1
62
256
6
ByLayer
370
-1
48
1
60
0
100
AcDbLine
10
12.976987
20
-12.494584
30
0
11
13.043022
21
-12.546176
31
0
39
0
210
0
220
0
230
1
0
LINE
5
57
100
AcDbEntity
8
1
62
256
6
ByLayer
370
-1
48
1
60
0
100
AcDbLine
10
6.192148
20
-11.922375
30
0
11
7.315787
21
-12.800258
31
0
39
0
210
0
220
0
230
1
0
LINE
5
58
100
AcDbEntity
8
1
62
256
6
ByLayer
370
-1
48
1
60
0
100
AcDbLine
10
10.486682
20
-19.155216
30
0
11
10.419319
21
-19.151686
31
0
39
0
210
0
220
0
230
1
0
LINE
5
59
100
AcDbEntity
8
1
62
256
6
ByLayer
370
-1
48
1
60
0
100
AcDbLine
10
7.315787
20
-12.800258
30
0
11
8.527877
21
-12.869086
31
0
39
0
210
0
220
0
230
1
0
LINE
5
5A
100
AcDbEntity
8
1
62
256
6
ByLayer
370
-1
48
1
60
0
100
AcDbLine
10
10.570364
20
-19.159602
30
0
11
10.486679
21
-19.155216
31
0
39
0
210
0
220
0
230
1
0
LINE
5
5B
100
AcDbEntity
8
1
62
256
6
ByLayer
370
-1
48
1
60
0
100
AcDbLine
10
10.656355
20
-18.517703
30
0
11
10.419319
21
-19.151686
31
0
39
0
210
0
220
0
230
1
0
LINE
5
5C
100
AcDbEntity
8
1
62
256
6
ByLayer
370
-1
48
1
60
0
100
AcDbLine
10
0
20
-2.355851
30
0
11
0
21
-18.605633
31
0
39
0
210
0
220
0
230
1
0
LINE
5
5D
100
AcDbEntity
8
1
62
256
6
ByLayer
370
-1
48
1
60
0
100
AcDbLine
10
10.419319
20
-19.151686
30
0
11
0
21
-18.605633
31
0
39
0
210
0
220
0
230
1
0
LINE
5
5E
100
AcDbEntity
8
SK1
62
256
6
ByLayer
370
-1
48
1
60
0
100
AcDbLine
10
0
20
-18.605633
30
0
11
-0.106
21
-18.600077
31
0
39
0
210
0
220
0
230
1
0
LINE
5
60
100
AcDbEntity
8
SK1
62
256
6
ByLayer
370
-1
48
1
60
0
100
AcDbLine
10
-0.106
20
-18.600077
30
0
11
-0.106
21
-2.273034
31
0
39
0
210
0
220
0
230
1
0
LINE
5
61
100
AcDbEntity
8
SK1
62
256
6
ByLayer
370
-1
48
1
60
0
100
AcDbLine
10
-129.35
20
12.4375
30
0
11
-18.934625
21
12.4375
31
0
39
0
210
0
220
0
230
1
0
LINE
5
62
100
AcDbEntity
8
SK1
62
256
6
ByLayer
370
-1
48
1
60
0
100
AcDbLine
10
-0.106
20
-2.273034
30
0
11
0
21
-2.355851
31
0
39
0
210
0
220
0
230
1
0
LINE
5
63
100
AcDbEntity
8
1
62
256
6
ByLayer
370
-1
48
1
60
0
100
AcDbLine
10
13.990376
20
-13.155363
30
0
11
4.31706
21
-12.648406
31
0
39
0
210
0
220
0
230
1
0
LINE
5
64
100
AcDbEntity
8
SK1
62
256
6
ByLayer
370
-1
48
1
60
0
100
AcDbLine
10
-129.35
20
-12.4375
30
0
11
-129.35
21
12.4375
31
0
39
0
210
0
220
0
230
1
0
LINE
5
65
100
AcDbEntity
8
SK1
62
256
6
ByLayer
370
-1
48
1
60
0
100
AcDbLine
10
0
20
-18.605633
30
0
11
0
21
-2.355851
31
0
39
0
210
0
220
0
230
1
0
LINE
5
66
100
AcDbEntity
8
SK1
62
256
6
ByLayer
370
-1
48
1
60
0
100
AcDbLine
10
-17.15678
20
-17.706484
30
0
11
-18.434625
21
-12.9375
31
0
39
0
210
0
220
0
230
1
0
LINE
5
67
100
AcDbEntity
8
SK1
62
256
6
ByLayer
370
-1
48
1
60
0
100
AcDbLine
10
-18.934625
20
-12.4375
30
0
11
-18.434625
21
-12.9375
31
0
39
0
210
0
220
0
230
1
0
LINE
5
68
100
AcDbEntity
8
1
62
256
6
ByLayer
370
-1
48
1
60
0
100
AcDbLine
10
21.847153
20
-19.202639
30
0
11
14.214016
21
-13.238979
31
0
39
0
210
0
220
0
230
1
0
LINE
5
69
100
AcDbEntity
8
SK1
62
256
6
ByLayer
370
-1
48
1
60
0
100
AcDbLine
10
-0.106
20
-18.600077
30
0
11
-17.15678
21
-17.706484
31
0
39
0
210
0
220
0
230
1
0
LINE
5
6A
100
AcDbEntity
8
1
62
256
6
ByLayer
370
-1
48
1
60
0
100
AcDbLine
10
4.051865
20
-13.357702
30
0
11
11.685003
21
-19.321363
31
0
39
0
210
0
220
0
230
1
0
LINE
5
6B
100
AcDbEntity
8
SK1
62
256
6
ByLayer
370
-1
48
1
60
0
100
AcDbLine
10
-18.934625
20
-12.4375
30
0
11
-129.35
21
-12.4375
31
0
39
0
210
0
220
0
230
1
0
LINE
5
6C
100
AcDbEntity
8
SK1
62
256
6
ByLayer
370
-1
48
1
60
0
100
AcDbLine
10
-18.934625
20
12.4375
30
0
11
-0.106
21
-2.273034
31
0
39
0
210
0
220
0
230
1
0
LINE
5
6D
100
AcDbEntity
8
1
62
256
6
ByLayer
370
-1
48
1
60
0
100
AcDbLine
10
11.908643
20
-19.404978
30
0
11
21.581958
21
-19.911935
31
0
39
0
210
0
220
0
230
1
0
MTEXT
5
9E
100
AcDbEntity
8
SK6
62
256
6
ByLayer
370
-1
48
1
60
0
100
AcDbMText
10
-76.857913
20
22.895841
30
0
210
0
220
0
230
1
1
\W00.759;\fsimplex.shx,bigfont.shx;SVJBL 2525M 11 
40
3.5
41
0
44
1.084337
50
0
71
7
72
5
7
DEFAULT
0
DIMENSION
5
DF
100
AcDbEntity
8
2
62
256
6
ByLayer
370
-3
48
1
60
0
100
AcDbDimension
2
DimnDraft3D2
10
-1.423332
20
-18.706279
30
0
11
3.683296
21
-28.532624
31
0
70
34
71
5
72
1
41
1
210
0
220
0
230
1
3
Standard
100
AcDb2LineAngularDimension
13
22
23
-21.9125
33
0
14
22
24
-43.389321
34
0
15
18.586466
25
-19.754948
35
0
16
9.700932
26
-31.605224
36
0
40
0
0
DIMENSION
5
F4
100
AcDbEntity
8
2
62
256
6
ByLayer
370
-3
48
1
60
0
100
AcDbDimension
2
DimnDraft3D3
10
49.25
20
-19.9125
30
0
11
49.25
21
-6.366447
31
0
70
32
71
5
72
1
41
1
210
0
220
0
230
1
3
Standard
100
AcDbAlignedDimension
13
2
23
12.4375
33
0
14
24
24
-19.9125
34
0
50
90
100
AcDbRotatedDimension
1001
ACAD
1000
DSTYLE
1002
{
1070
    74
1070
     0
1070
   279
1070
     0
1070
   172
1070
     1
1070
   173
1070
     1
1070
   340
1005
9F
1070
    77
1070
     1
1070
    73
1070
     0
1070
   171
1070
     3
1070
   274
1070
     4
1070
   177
1070
     2
1070
   176
1070
     2
1070
   178
1070
     7
1070
    78
1070
     8
1070
    41
1041
3.175
1070
   147
1041
2.25
1070
    42
1041
2.0
1070
    44
1041
2.0
1070
   140
1041
4.5
1070
   343
1005
E0
1070
   344
1005
E0
1002
}
0
DIMENSION
5
102
100
AcDbEntity
8
SK2
62
256
6
ByLayer
370
-3
48
1
60
0
100
AcDbDimension
2
DimnDraft3D4
10
-139.1
20
-12.4375
30
0
11
-139.1
21
-2.628947
31
0
70
32
71
5
72
1
41
1
210
0
220
0
230
1
3
Standard
100
AcDbAlignedDimension
13
-131.35
23
12.4375
33
0
14
-131.35
24
-12.4375
34
0
50
90
100
AcDbRotatedDimension
1001
ACAD
1000
DSTYLE
1002
{
1070
    74
1070
     0
1070
   279
1070
     0
1070
   172
1070
     1
1070
   173
1070
     1
1070
   340
1005
9F
1070
    77
1070
     1
1070
    73
1070
     0
1070
   171
1070
     3
1070
   274
1070
     4
1070
   177
1070
     2
1070
   176
1070
     2
1070
   178
1070
     7
1070
    78
1070
     8
1070
    41
1041
3.175
1070
   147
1041
2.25
1070
    42
1041
2.0
1070
    44
1041
2.0
1070
   140
1041
4.5
1070
   343
1005
E0
1070
   344
1005
E0
1002
}
0
ENDSEC
0
SECTION
2
OBJECTS
0
DICTIONARY
5
132
330
0
100
AcDbDictionary
280
0
281
1
3
ACAD_GROUP
350
133
3
ACAD_MLINESTYLE
350
134
0
DICTIONARY
5
133
330
0
100
AcDbDictionary
280
0
281
1
0
DICTIONARY
5
134
330
0
100
AcDbDictionary
280
0
281
1
3
Standard
350
18
0
MLINESTYLE
5
18
330
134
100
AcDbMlineStyle
2
Standard
70
0
3

62
256
51
90
52
90
71
2
49
-0.5
62
256
6
ByLayer
49
0.5
62
256
6
ByLayer
0
RASTERVARIABLES
5
121
330

100
AcDbRasterVariables
90
0
70
1
71
1
72
1
0
ENDSEC
0
EOF
