0
SECTION
2
HEADER
9
$ACADVER
1
AC1015
9
$DWGCODEPAGE
3
ANSI_1252
9
$HANDSEED
5
13d
9
$ANGBASE
50
0
9
$ANGDIR
70
0
9
$ATTMODE
70
1
9
$AUNITS
70
0
9
$AUPREC
70
0
9
$CECOLOR
62
256
9
$CELTSCALE
40
1
9
$CELTYPE
6
ByLayer
9
$CELWEIGHT
370
-1
9
$CLAYER
8
0
9
$CMLJUST
70
0
9
$CMLSCALE
40
1
9
$CMLSTYLE
2
Standard
9
$DIMSTYLE
2
Standard
9
$TEXTSIZE
40
0.2
9
$TEXTSTYLE
7
Standard
9
$LUNITS
70
2
9
$LUPREC
70
4
9
$EXTNAMES
290
1
9
$INSUNITS
70
4
9
$LTSCALE
40
1
9
$LWDISPLAY
290
0
9
$PDMODE
70
0
9
$PDSIZE
40
0
9
$PLINEGEN
70
0
0
ENDSEC
0
SECTION
2
CLASSES
0
CLASS
1
RASTERVARIABLES
2
AcDbRasterVariables
3
ISM
90
0
280
0
281
0
0
ENDSEC
0
SECTION
2
TABLES
0
TABLE
2
VPORT
5
133
100
AcDbSymbolTable
0
VPORT
5
1
100
AcDbSymbolTableRecord
100
AcDbViewportTableRecord
2
*Active
70
0
10
0
20
0
11
1
21
1
12
-1
22
1
13
0
23
0
14
0.5
24
0.5
15
10
25
10
16
0
26
0
36
1
17
0
27
0
37
0
0
ENDTAB
0
TABLE
2
LTYPE
5
134
100
AcDbSymbolTable
0
LTYPE
5
14
100
AcDbSymbolTableRecord
100
AcDbLinetypeTableRecord
70
0
2
ByBlock
3

72
65
73
0
40
0
0
LTYPE
5
15
100
AcDbSymbolTableRecord
100
AcDbLinetypeTableRecord
70
0
2
ByLayer
3

72
65
73
0
40
0
0
LTYPE
5
16
100
AcDbSymbolTableRecord
100
AcDbLinetypeTableRecord
70
0
2
CONTINUOUS
3
Solid line
72
65
73
0
40
0
0
LTYPE
5
3B
100
AcDbSymbolTableRecord
100
AcDbLinetypeTableRecord
70
0
2
DASHED
3
__ __ __ __ __ __ __ __ __
72
65
73
2
40
25.72
49
12.86
74
0
49
-12.86
74
0
0
LTYPE
5
3C
100
AcDbSymbolTableRecord
100
AcDbLinetypeTableRecord
70
0
2
HIDDEN
3
_ _ _ _ _ _ _ _ _ _ _ _ _ _ _
72
65
73
2
40
0.5
49
0.25
74
0
49
-0.25
74
0
0
LTYPE
5
3D
100
AcDbSymbolTableRecord
100
AcDbLinetypeTableRecord
70
0
2
PHANTOM
3
____ _ _ ____ _ _ _____ _ _ ____
72
65
73
6
40
50.5
49
18
74
0
49
-6.5
74
0
49
6.5
74
0
49
-6.5
74
0
49
6.5
74
0
49
-6.5
74
0
0
LTYPE
5
3E
100
AcDbSymbolTableRecord
100
AcDbLinetypeTableRecord
70
0
2
CENTER
3
____ _ ____ _ ____ _ ____
72
65
73
4
40
47.5
49
22
74
0
49
-8.5
74
0
49
8.5
74
0
49
-8.5
74
0
0
LTYPE
5
3F
100
AcDbSymbolTableRecord
100
AcDbLinetypeTableRecord
70
0
2
DOT
3
.........................
72
65
73
2
40
10
49
0
74
0
49
-10
74
0
0
LTYPE
5
40
100
AcDbSymbolTableRecord
100
AcDbLinetypeTableRecord
70
0
2
DASHDOT
3
_._._._._._._._._._._._._._._._.
72
65
73
4
40
70
49
31
74
0
49
-13
74
0
49
13
74
0
49
-13
74
0
0
ENDTAB
0
TABLE
2
LAYER
5
135
100
AcDbSymbolTable
0
LAYER
5
10
100
AcDbSymbolTableRecord
100
AcDbLayerTableRecord
2
0
70
0
62
7
6
CONTINUOUS
290
1
370
-3
390
0
0
LAYER
5
46
100
AcDbSymbolTableRecord
100
AcDbLayerTableRecord
2
80
70
0
62
-6
6
CONTINUOUS
290
1
370
-3
390
0
0
LAYER
5
48
100
AcDbSymbolTableRecord
100
AcDbLayerTableRecord
2
2
70
0
62
7
6
CONTINUOUS
290
1
370
-3
390
0
0
LAYER
5
4B
100
AcDbSymbolTableRecord
100
AcDbLayerTableRecord
2
81
70
0
62
-3
6
CONTINUOUS
290
1
370
-3
390
0
0
LAYER
5
4F
100
AcDbSymbolTableRecord
100
AcDbLayerTableRecord
2
1
70
0
62
4
6
CONTINUOUS
290
1
370
-3
390
0
0
LAYER
5
120
100
AcDbSymbolTableRecord
100
AcDbLayerTableRecord
2
SK2
70
0
62
7
6
CONTINUOUS
290
1
370
-3
390
0
0
LAYER
5
121
100
AcDbSymbolTableRecord
100
AcDbLayerTableRecord
2
SK1
70
0
62
4
6
CONTINUOUS
290
1
370
-3
390
0
0
LAYER
5
122
100
AcDbSymbolTableRecord
100
AcDbLayerTableRecord
2
SK6
70
0
62
5
6
CONTINUOUS
290
1
370
-3
390
0
0
ENDTAB
0
TABLE
2
STYLE
5
136
100
AcDbSymbolTable
0
STYLE
5
11
100
AcDbSymbolTableRecord
100
AcDbTextStyleTableRecord
2
Standard
3
txt
70
0
71
0
40
0
41
1
42
0
50
0
0
STYLE
5
9D
100
AcDbSymbolTableRecord
100
AcDbTextStyleTableRecord
2
DEFAULT
3
simplex.shx
70
0
71
0
40
0
41
1
42
0
50
0
0
STYLE
5
C0
100
AcDbSymbolTableRecord
100
AcDbTextStyleTableRecord
2
DWGDirectTextStyle
3
SIMPLEX
70
0
71
0
40
0
41
1
42
0
50
0
0
ENDTAB
0
TABLE
2
DIMSTYLE
5
137
100
AcDbSymbolTable
100
AcDbDimStyleTable
0
DIMSTYLE
105
27
100
AcDbSymbolTableRecord
100
AcDbDimStyleTableRecord
2
Standard
70
0
3
<>
41
0.18
42
0.0625
44
0.18
140
0.18
147
0.09
73
0
74
0
77
1
271
2
275
0
278
52
280
0
340
11
0
ENDTAB
0
TABLE
2
VIEW
5
138
100
AcDbSymbolTable
0
ENDTAB
0
TABLE
2
UCS
5
139
100
AcDbSymbolTable
0
ENDTAB
0
TABLE
2
APPID
5
13a
100
AcDbSymbolTable
0
APPID
5
12
100
AcDbSymbolTableRecord
100
AcDbRegAppTableRecord
2
ACAD
70
0
0
ENDTAB
0
TABLE
2
BLOCK_RECORD
5
13b
100
AcDbSymbolTable
0
BLOCK_RECORD
5
1F
100
AcDbSymbolTableRecord
100
AcDbBlockTableRecord
2
*Model_Space
340
0
70
0
0
BLOCK_RECORD
5
1B
100
AcDbSymbolTableRecord
100
AcDbBlockTableRecord
2
*Paper_Space
340
0
70
0
0
BLOCK_RECORD
5
23
100
AcDbSymbolTableRecord
100
AcDbBlockTableRecord
2
*Paper_Space0
340
0
70
0
0
BLOCK_RECORD
5
C2
100
AcDbSymbolTableRecord
100
AcDbBlockTableRecord
2
DimnDraft3D1
340
0
70
0
0
BLOCK_RECORD
5
D0
100
AcDbSymbolTableRecord
100
AcDbBlockTableRecord
2
_CLOSED
340
0
70
0
0
BLOCK_RECORD
5
D7
100
AcDbSymbolTableRecord
100
AcDbBlockTableRecord
2
DimnDraft3D2
340
0
70
0
0
BLOCK_RECORD
5
E5
100
AcDbSymbolTableRecord
100
AcDbBlockTableRecord
2
DimnDraft3D3
340
0
70
0
0
BLOCK_RECORD
5
F3
100
AcDbSymbolTableRecord
100
AcDbBlockTableRecord
2
DimnDraft3D4
340
0
70
0
0
ENDTAB
0
ENDSEC
0
SECTION
2
BLOCKS
0
BLOCK
5
20
100
AcDbEntity
8
0
100
AcDbBlockBegin
2
*Model_Space
70
0
10
0
20
0
30
0
3
*Model_Space
0
ENDBLK
5
21
100
AcDbEntity
8
0
100
AcDbBlockEnd
0
BLOCK
5
1C
100
AcDbEntity
8
0
100
AcDbBlockBegin
2
*Paper_Space
70
0
10
0
20
0
30
0
3
*Paper_Space
0
ENDBLK
5
1D
100
AcDbEntity
8
0
100
AcDbBlockEnd
0
BLOCK
5
24
100
AcDbEntity
8
0
100
AcDbBlockBegin
2
*Paper_Space0
70
0
10
0
20
0
30
0
3
*Paper_Space0
0
ENDBLK
5
25
100
AcDbEntity
8
0
100
AcDbBlockEnd
0
BLOCK
5
CD
100
AcDbEntity
8
0
100
AcDbBlockBegin
2
DimnDraft3D1
70
0
10
0
20
0
30
0
3
DimnDraft3D1
0
MTEXT
5
C3
100
AcDbEntity
8
2
62
256
6
ByLayer
370
-1
48
1
60
0
100
AcDbMText
10
19.951431
20
21.938375
30
0
210
0
220
0
230
1
1
\W01.000;\fsimplex.shx,bigfont.shx;107%%d30' 
40
4.5
41
0
44
1.084337
50
53.7499999999999
71
7
72
5
7
DEFAULT
0
LINE
5
C4
100
AcDbEntity
8
2
62
256
6
ByLayer
370
-1
48
1
60
0
100
AcDbLine
10
35.23013
20
21.9125
30
0
11
35.23013
21
34.60423
31
0
39
0
210
0
220
0
230
1
0
LINE
5
C5
100
AcDbEntity
8
2
62
256
6
ByLayer
370
-1
48
1
60
0
100
AcDbLine
10
29.767568
20
18.917817
30
0
11
21.912356
21
16.441078
31
0
39
0
210
0
220
0
230
1
0
ARC
5
C6
100
AcDbEntity
8
2
62
256
6
ByLayer
370
-1
48
1
60
0
100
AcDbCircle
39
0
10
35.23013
20
20.640156
30
0
40
11.9640743167586
210
0
220
0
230
1
100
AcDbArc
50
90
51
197.5
0
LINE
5
C7
100
AcDbEntity
8
2
62
256
6
ByLayer
370
-1
48
1
60
0
100
AcDbLine
10
35.23013
20
32.60423
30
0
11
32.089587
21
31.977874
31
0
39
0
210
0
220
0
230
1
0
LINE
5
C8
100
AcDbEntity
8
2
62
256
6
ByLayer
370
-1
48
1
60
0
100
AcDbLine
10
35.23013
20
32.60423
30
0
11
32.034482
21
32.812049
31
0
39
0
210
0
220
0
230
1
0
LINE
5
C9
100
AcDbEntity
8
2
62
256
6
ByLayer
370
-1
48
1
60
0
100
AcDbLine
10
32.089587
20
31.977874
30
0
11
32.034482
21
32.812049
31
0
39
0
210
0
220
0
230
1
0
LINE
5
CA
100
AcDbEntity
8
2
62
256
6
ByLayer
370
-1
48
1
60
0
100
AcDbLine
10
23.81979
20
17.042489
30
0
11
22.66064
21
20.027738
31
0
39
0
210
0
220
0
230
1
0
LINE
5
CB
100
AcDbEntity
8
2
62
256
6
ByLayer
370
-1
48
1
60
0
100
AcDbLine
10
23.81979
20
17.042489
30
0
11
23.472776
21
20.226031
31
0
39
0
210
0
220
0
230
1
0
LINE
5
CC
100
AcDbEntity
8
2
62
256
6
ByLayer
370
-1
48
1
60
0
100
AcDbLine
10
22.66064
20
20.027738
30
0
11
23.472776
21
20.226031
31
0
39
0
210
0
220
0
230
1
0
ENDBLK
5
CE
100
AcDbEntity
8
0
100
AcDbBlockEnd
0
BLOCK
5
D1
100
AcDbEntity
8
0
100
AcDbBlockBegin
2
_CLOSED
70
0
10
0
20
0
30
0
3
_CLOSED
0
LINE
5
D3
100
AcDbEntity
8
0
62
256
6
ByLayer
370
-2
48
1
60
0
100
AcDbLine
10
-1
20
0.166667
30
0
11
0
21
0
31
0
39
0
210
0
220
0
230
1
0
LINE
5
D4
100
AcDbEntity
8
0
62
256
6
ByLayer
370
-2
48
1
60
0
100
AcDbLine
10
0
20
0
30
0
11
-1
21
-0.166667
31
0
39
0
210
0
220
0
230
1
0
LINE
5
D5
100
AcDbEntity
8
0
62
256
6
ByLayer
370
-2
48
1
60
0
100
AcDbLine
10
-1
20
0.166667
30
0
11
-1
21
-0.166667
31
0
39
0
210
0
220
0
230
1
0
LINE
5
D6
100
AcDbEntity
8
0
62
256
6
ByLayer
370
-2
48
1
60
0
100
AcDbLine
10
0
20
0
30
0
11
-1
21
0
31
0
39
0
210
0
220
0
230
1
0
ENDBLK
5
D2
100
AcDbEntity
8
0
100
AcDbBlockEnd
0
BLOCK
5
E2
100
AcDbEntity
8
0
100
AcDbBlockBegin
2
DimnDraft3D2
70
0
10
0
20
0
30
0
3
DimnDraft3D2
0
MTEXT
5
D8
100
AcDbEntity
8
SK2
62
256
6
ByLayer
370
-1
48
1
60
0
100
AcDbMText
10
-126.99487
20
-1.503947
30
0
210
0
220
0
230
1
1
\W01.000;\fsimplex.shx,bigfont.shx;25 
40
4.5
41
0
44
1.084337
50
90
71
7
72
5
7
DEFAULT
0
LINE
5
D9
100
AcDbEntity
8
SK2
62
256
6
ByLayer
370
-1
48
1
60
0
100
AcDbLine
10
-118.11987
20
-12.4375
30
0
11
-127.86987
21
-12.4375
31
0
39
0
210
0
220
0
230
1
0
LINE
5
DA
100
AcDbEntity
8
SK2
62
256
6
ByLayer
370
-1
48
1
60
0
100
AcDbLine
10
-118.11987
20
12.4375
30
0
11
-127.86987
21
12.4375
31
0
39
0
210
0
220
0
230
1
0
LINE
5
DB
100
AcDbEntity
8
SK2
62
256
6
ByLayer
370
-1
48
1
60
0
100
AcDbLine
10
-125.86987
20
-12.4375
30
0
11
-125.86987
21
12.4375
31
0
39
0
210
0
220
0
230
1
0
LINE
5
DC
100
AcDbEntity
8
SK2
62
256
6
ByLayer
370
-1
48
1
60
0
100
AcDbLine
10
-125.86987
20
-12.4375
30
0
11
-126.287866
21
-9.262502
31
0
39
0
210
0
220
0
230
1
0
LINE
5
DD
100
AcDbEntity
8
SK2
62
256
6
ByLayer
370
-1
48
1
60
0
100
AcDbLine
10
-125.86987
20
-12.4375
30
0
11
-125.451873
21
-9.262498
31
0
39
0
210
0
220
0
230
1
0
LINE
5
DE
100
AcDbEntity
8
SK2
62
256
6
ByLayer
370
-1
48
1
60
0
100
AcDbLine
10
-126.287866
20
-9.262502
30
0
11
-125.451873
21
-9.262498
31
0
39
0
210
0
220
0
230
1
0
LINE
5
DF
100
AcDbEntity
8
SK2
62
256
6
ByLayer
370
-1
48
1
60
0
100
AcDbLine
10
-125.86987
20
12.4375
30
0
11
-125.451873
21
9.262502
31
0
39
0
210
0
220
0
230
1
0
LINE
5
E0
100
AcDbEntity
8
SK2
62
256
6
ByLayer
370
-1
48
1
60
0
100
AcDbLine
10
-125.86987
20
12.4375
30
0
11
-126.287866
21
9.262498
31
0
39
0
210
0
220
0
230
1
0
LINE
5
E1
100
AcDbEntity
8
SK2
62
256
6
ByLayer
370
-1
48
1
60
0
100
AcDbLine
10
-125.451873
20
9.262502
30
0
11
-126.287866
21
9.262498
31
0
39
0
210
0
220
0
230
1
0
ENDBLK
5
E3
100
AcDbEntity
8
0
100
AcDbBlockEnd
0
BLOCK
5
F0
100
AcDbEntity
8
0
100
AcDbBlockBegin
2
DimnDraft3D3
70
0
10
0
20
0
30
0
3
DimnDraft3D3
0
MTEXT
5
E6
100
AcDbEntity
8
2
62
256
6
ByLayer
370
-1
48
1
60
0
100
AcDbMText
10
61.35513
20
2.233553
30
0
210
0
220
0
230
1
1
\W01.000;\fsimplex.shx,bigfont.shx;32 
40
4.5
41
0
44
1.084337
50
90
71
7
72
5
7
DEFAULT
0
LINE
5
E7
100
AcDbEntity
8
2
62
256
6
ByLayer
370
-1
48
1
60
0
100
AcDbLine
10
2
20
-12.4375
30
0
11
64.48013
21
-12.4375
31
0
39
0
210
0
220
0
230
1
0
LINE
5
E8
100
AcDbEntity
8
2
62
256
6
ByLayer
370
-1
48
1
60
0
100
AcDbLine
10
37.23013
20
19.9125
30
0
11
64.48013
21
19.9125
31
0
39
0
210
0
220
0
230
1
0
LINE
5
E9
100
AcDbEntity
8
2
62
256
6
ByLayer
370
-1
48
1
60
0
100
AcDbLine
10
62.48013
20
-12.4375
30
0
11
62.48013
21
19.9125
31
0
39
0
210
0
220
0
230
1
0
LINE
5
EA
100
AcDbEntity
8
2
62
256
6
ByLayer
370
-1
48
1
60
0
100
AcDbLine
10
62.48013
20
-12.4375
30
0
11
62.062134
21
-9.262502
31
0
39
0
210
0
220
0
230
1
0
LINE
5
EB
100
AcDbEntity
8
2
62
256
6
ByLayer
370
-1
48
1
60
0
100
AcDbLine
10
62.48013
20
-12.4375
30
0
11
62.898127
21
-9.262498
31
0
39
0
210
0
220
0
230
1
0
LINE
5
EC
100
AcDbEntity
8
2
62
256
6
ByLayer
370
-1
48
1
60
0
100
AcDbLine
10
62.062134
20
-9.262502
30
0
11
62.898127
21
-9.262498
31
0
39
0
210
0
220
0
230
1
0
LINE
5
ED
100
AcDbEntity
8
2
62
256
6
ByLayer
370
-1
48
1
60
0
100
AcDbLine
10
62.48013
20
19.9125
30
0
11
62.898127
21
16.737502
31
0
39
0
210
0
220
0
230
1
0
LINE
5
EE
100
AcDbEntity
8
2
62
256
6
ByLayer
370
-1
48
1
60
0
100
AcDbLine
10
62.48013
20
19.9125
30
0
11
62.062134
21
16.737498
31
0
39
0
210
0
220
0
230
1
0
LINE
5
EF
100
AcDbEntity
8
2
62
256
6
ByLayer
370
-1
48
1
60
0
100
AcDbLine
10
62.898127
20
16.737502
30
0
11
62.062134
21
16.737498
31
0
39
0
210
0
220
0
230
1
0
ENDBLK
5
F1
100
AcDbEntity
8
0
100
AcDbBlockEnd
0
BLOCK
5
FE
100
AcDbEntity
8
0
100
AcDbBlockBegin
2
DimnDraft3D4
70
0
10
0
20
0
30
0
3
DimnDraft3D4
0
MTEXT
5
F4
100
AcDbEntity
8
SK2
62
256
6
ByLayer
370
-1
48
1
60
0
100
AcDbMText
10
-43.038291
20
40.7875
30
0
210
0
220
0
230
1
1
\W01.000;\fsimplex.shx,bigfont.shx;150 
40
4.5
41
0
44
1.084337
50
0
71
7
72
5
7
DEFAULT
0
LINE
5
F5
100
AcDbEntity
8
SK2
62
256
6
ByLayer
370
-1
48
1
60
0
100
AcDbLine
10
35.23013
20
21.9125
30
0
11
35.23013
21
41.6625
31
0
39
0
210
0
220
0
230
1
0
LINE
5
F6
100
AcDbEntity
8
SK2
62
256
6
ByLayer
370
-1
48
1
60
0
100
AcDbLine
10
-116.11987
20
14.4375
30
0
11
-116.11987
21
41.6625
31
0
39
0
210
0
220
0
230
1
0
LINE
5
F7
100
AcDbEntity
8
SK2
62
256
6
ByLayer
370
-1
48
1
60
0
100
AcDbLine
10
35.23013
20
39.6625
30
0
11
-116.11987
21
39.6625
31
0
39
0
210
0
220
0
230
1
0
LINE
5
F8
100
AcDbEntity
8
SK2
62
256
6
ByLayer
370
-1
48
1
60
0
100
AcDbLine
10
35.23013
20
39.6625
30
0
11
32.055132
21
39.244503
31
0
39
0
210
0
220
0
230
1
0
LINE
5
F9
100
AcDbEntity
8
SK2
62
256
6
ByLayer
370
-1
48
1
60
0
100
AcDbLine
10
35.23013
20
39.6625
30
0
11
32.055129
21
40.080497
31
0
39
0
210
0
220
0
230
1
0
LINE
5
FA
100
AcDbEntity
8
SK2
62
256
6
ByLayer
370
-1
48
1
60
0
100
AcDbLine
10
32.055132
20
39.244503
30
0
11
32.055129
21
40.080497
31
0
39
0
210
0
220
0
230
1
0
LINE
5
FB
100
AcDbEntity
8
SK2
62
256
6
ByLayer
370
-1
48
1
60
0
100
AcDbLine
10
-116.11987
20
39.6625
30
0
11
-112.944871
21
40.080497
31
0
39
0
210
0
220
0
230
1
0
LINE
5
FC
100
AcDbEntity
8
SK2
62
256
6
ByLayer
370
-1
48
1
60
0
100
AcDbLine
10
-116.11987
20
39.6625
30
0
11
-112.944868
21
39.244503
31
0
39
0
210
0
220
0
230
1
0
LINE
5
FD
100
AcDbEntity
8
SK2
62
256
6
ByLayer
370
-1
48
1
60
0
100
AcDbLine
10
-112.944871
20
40.080497
30
0
11
-112.944868
21
39.244503
31
0
39
0
210
0
220
0
230
1
0
ENDBLK
5
FF
100
AcDbEntity
8
0
100
AcDbBlockEnd
0
ENDSEC
0
SECTION
2
ENTITIES
0
ARC
5
69
100
AcDbEntity
8
1
62
256
6
ByLayer
370
-1
48
1
60
0
100
AcDbCircle
39
0
10
-7.634933
20
-0.00945
30
0
40
2.59999999999999
210
0
220
0
230
-1
100
AcDbArc
50
219.259601
51
97.392121
0
ARC
5
6A
100
AcDbEntity
8
1
62
256
6
ByLayer
370
-1
48
1
60
0
100
AcDbCircle
39
0
10
-33.056833
20
2.988113
30
0
40
8.09999999999999
210
0
220
0
230
-1
100
AcDbArc
50
0.277866
51
1.145418
0
ARC
5
6B
100
AcDbEntity
8
1
62
256
6
ByLayer
370
-1
48
1
60
0
100
AcDbCircle
39
0
10
9.967246
20
0.852144
30
0
40
2.52720025227213
210
0
220
0
230
1
100
AcDbArc
50
262.744566
51
322.5
0
ARC
5
6C
100
AcDbEntity
8
1
62
256
6
ByLayer
370
-1
48
1
60
0
100
AcDbCircle
39
0
10
33.056833
20
2.988113
30
0
40
8.09999999999999
210
0
220
0
230
1
100
AcDbArc
50
171.959384
51
174.006308
0
ARC
5
6D
100
AcDbEntity
8
1
62
256
6
ByLayer
370
-1
48
1
60
0
100
AcDbCircle
39
0
10
7.634933
20
-0.00945
30
0
40
2.59999999999999
210
0
220
0
230
1
100
AcDbArc
50
331.567897
51
347.3946
0
ARC
5
6E
100
AcDbEntity
8
1
62
256
6
ByLayer
370
-1
48
1
60
0
100
AcDbCircle
39
0
10
9.967246
20
0.852144
30
0
40
2.1
210
0
220
0
230
1
100
AcDbArc
50
268.747034
51
322.5
0
ARC
5
70
100
AcDbEntity
8
1
62
256
6
ByLayer
370
-1
48
1
60
0
100
AcDbCircle
39
0
10
-21.380304
20
9.615163
30
0
40
1.6765
210
0
220
0
230
-1
100
AcDbArc
50
24.840113
51
85.159887
0
ARC
5
73
100
AcDbEntity
8
1
62
256
6
ByLayer
370
-1
48
1
60
0
100
AcDbCircle
39
0
10
-21.380304
20
9.615163
30
0
40
1.6765
210
0
220
0
230
-1
100
AcDbArc
50
145
51
204.840113
0
ARC
5
75
100
AcDbEntity
8
1
62
256
6
ByLayer
370
-1
48
1
60
0
100
AcDbCircle
39
0
10
-21.380304
20
9.615163
30
0
40
1.6765
210
0
220
0
230
-1
100
AcDbArc
50
85.159887
51
145
0
ARC
5
76
100
AcDbEntity
8
1
62
256
6
ByLayer
370
-1
48
1
60
0
100
AcDbCircle
39
0
10
21.380304
20
9.615163
30
0
40
1.2065
210
0
220
0
230
1
100
AcDbArc
50
185.079943
51
244.920057
0
ARC
5
77
100
AcDbEntity
8
1
62
256
6
ByLayer
370
-1
48
1
60
0
100
AcDbCircle
39
0
10
21.380304
20
9.615163
30
0
40
1.2065
210
0
220
0
230
1
100
AcDbArc
50
64.920057
51
121.044721
0
ARC
5
78
100
AcDbEntity
8
1
62
256
6
ByLayer
370
-1
48
1
60
0
100
AcDbCircle
39
0
10
21.380304
20
9.615163
30
0
40
1.2065
210
0
220
0
230
1
100
AcDbArc
50
308.955279
51
5.079943
0
ARC
5
79
100
AcDbEntity
8
1
62
256
6
ByLayer
370
-1
48
1
60
0
100
AcDbCircle
39
0
10
-21.380304
20
9.615163
30
0
40
1.6765
210
0
220
0
230
-1
100
AcDbArc
50
204.840113
51
265.159887
0
ARC
5
7A
100
AcDbEntity
8
1
62
256
6
ByLayer
370
-1
48
1
60
0
100
AcDbCircle
39
0
10
21.380304
20
9.615163
30
0
40
1.2065
210
0
220
0
230
1
100
AcDbArc
50
5.079943
51
64.920057
0
ARC
5
7B
100
AcDbEntity
8
1
62
256
6
ByLayer
370
-1
48
1
60
0
100
AcDbCircle
39
0
10
-21.380304
20
9.615163
30
0
40
1.6765
210
0
220
0
230
-1
100
AcDbArc
50
265.159887
51
325
0
ARC
5
7C
100
AcDbEntity
8
1
62
256
6
ByLayer
370
-1
48
1
60
0
100
AcDbCircle
39
0
10
21.380304
20
9.615163
30
0
40
1.2065
210
0
220
0
230
1
100
AcDbArc
50
128.955279
51
185.079943
0
ARC
5
7D
100
AcDbEntity
8
1
62
256
6
ByLayer
370
-1
48
1
60
0
100
AcDbCircle
39
0
10
21.380304
20
9.615163
30
0
40
1.2065
210
0
220
0
230
1
100
AcDbArc
50
244.920057
51
301.044721
0
ARC
5
7E
100
AcDbEntity
8
1
62
256
6
ByLayer
370
-1
48
1
60
0
100
AcDbCircle
39
0
10
-21.380304
20
9.615163
30
0
40
1.2065
210
0
220
0
230
-1
100
AcDbArc
50
51.044721
51
58.955279
0
ARC
5
80
100
AcDbEntity
8
1
62
256
6
ByLayer
370
-1
48
1
60
0
100
AcDbCircle
39
0
10
-21.380304
20
9.615163
30
0
40
1.6765
210
0
220
0
230
-1
100
AcDbArc
50
325
51
24.840113
0
ARC
5
81
100
AcDbEntity
8
1
62
256
6
ByLayer
370
-1
48
1
60
0
100
AcDbCircle
39
0
10
-21.380304
20
9.615163
30
0
40
1.2065
210
0
220
0
230
-1
100
AcDbArc
50
231.044721
51
238.955279
0
CIRCLE
5
6F
100
AcDbEntity
8
1
62
256
6
ByLayer
370
-1
48
1
60
0
100
AcDbCircle
10
-21.380304
20
9.615163
30
0
40
4.00000000000002
39
0
210
0
220
0
230
-1
0
CIRCLE
5
71
100
AcDbEntity
8
1
62
256
6
ByLayer
370
-1
48
1
60
0
100
AcDbCircle
10
-21.380304
20
9.615163
30
0
40
3.42500000000002
39
0
210
0
220
0
230
-1
0
CIRCLE
5
72
100
AcDbEntity
8
1
62
256
6
ByLayer
370
-1
48
1
60
0
100
AcDbCircle
10
-21.380304
20
9.615163
30
0
40
3.92951465426932
39
0
210
0
220
0
230
-1
0
CIRCLE
5
74
100
AcDbEntity
8
1
62
256
6
ByLayer
370
-1
48
1
60
0
100
AcDbCircle
10
-21.380304
20
9.615163
30
0
40
2.40000000000002
39
0
210
0
220
0
230
-1
0
CIRCLE
5
7F
100
AcDbEntity
8
1
62
256
6
ByLayer
370
-1
48
1
60
0
100
AcDbCircle
10
-21.380304
20
9.615163
30
0
40
4.04453416176669
39
0
210
0
220
0
230
-1
0
ELLIPSE
5
82
100
AcDbEntity
8
1
62
256
6
ByLayer
370
-1
48
1
60
0
100
AcDbEllipse
10
33.056833
20
2.988113
30
0
11
-8.1000000378488
21
8.18617638441861E-15
31
0
210
0
220
0
230
1
40
1
41
-0.10460966114318
42
-0.0199913193753967
0
ELLIPSE
5
83
100
AcDbEntity
8
1
62
256
6
ByLayer
370
-1
48
1
60
0
100
AcDbEllipse
10
9.511322
20
1.304412
30
0
11
-1.65060746633172
21
-1.1557677905507
31
0
210
0
220
0
230
1
40
0.992546
41
-1.17158641913697
42
1.17158641914109
0
ELLIPSE
5
84
100
AcDbEntity
8
1
62
256
6
ByLayer
370
-1
48
1
60
0
100
AcDbEllipse
10
18.167269
20
14.203853
30
0
11
-0.578310360794652
21
0.825912789047199
31
0
210
0
220
0
230
1
40
0.991814
41
-0.303083297693557
42
0.303083297693583
0
ELLIPSE
5
85
100
AcDbEntity
8
1
62
256
6
ByLayer
370
-1
48
1
60
0
100
AcDbEllipse
10
24.59334
20
5.026472
30
0
11
0.578310360794654
21
-0.825912789047197
31
0
210
0
220
0
230
1
40
0.991814
41
-0.30308329769356
42
0.303083297693594
0
ELLIPSE
5
86
100
AcDbEntity
8
1
62
256
6
ByLayer
370
-1
48
1
60
0
100
AcDbEllipse
10
33.249287
20
17.925913
30
0
11
1.65060746633172
21
1.1557677905507
31
0
210
0
220
0
230
1
40
0.992546
41
-1.17158641913729
42
1.17158641914079
0
POINT
5
41
100
AcDbEntity
8
SK2
62
256
6
ByLayer
370
-1
48
1
60
0
100
AcDbPoint
10
35.23013
20
19.9125
30
0
39
0
210
0
220
0
230
1
50
360
0
POINT
5
43
100
AcDbEntity
8
SK2
62
256
6
ByLayer
370
-1
48
1
60
0
100
AcDbPoint
10
35.23013
20
19.9125
30
0
39
0
210
0
220
0
230
1
50
360
0
POINT
5
44
100
AcDbEntity
8
SK2
62
256
6
ByLayer
370
-1
48
1
60
0
100
AcDbPoint
10
35.23013
20
19.9125
30
0
39
0
210
0
220
0
230
1
50
360
0
POINT
5
45
100
AcDbEntity
8
80
62
256
6
ByLayer
370
-1
48
1
60
0
100
AcDbPoint
10
0
20
0
30
0
39
0
210
0
220
0
230
1
50
360
0
POINT
5
47
100
AcDbEntity
8
2
62
256
6
ByLayer
370
-1
48
1
60
0
100
AcDbPoint
10
35.23013
20
19.9125
30
0
39
0
210
0
220
0
230
1
50
360
0
POINT
5
49
100
AcDbEntity
8
SK2
62
256
6
ByLayer
370
-1
48
1
60
0
100
AcDbPoint
10
35.23013
20
19.9125
30
0
39
0
210
0
220
0
230
1
50
360
0
POINT
5
4A
100
AcDbEntity
8
81
62
256
6
ByLayer
370
-1
48
1
60
0
100
AcDbPoint
10
35.23013
20
19.9125
30
0
39
0
210
0
220
0
230
1
50
360
0
SPLINE
5
87
100
AcDbEntity
8
1
62
256
6
ByLayer
370
-1
48
1
60
0
100
AcDbSpline
70
4
71
3
72
10
73
6
40
0
40
0
40
0
40
0
40
0.756274752930622
40
0.756274752930622
40
1
40
1
40
1
40
1
41
1
10
9.6480783552056
20
-1.65482128712901
30
0
41
1
10
9.72840990495402
20
-1.55653399979551
30
0
41
1
10
9.79990893754933
20
-1.45438920181562
30
0
41
1
10
9.8832947757318
20
-1.31575212407705
30
0
41
1
10
9.90274291485824
20
-1.28167738813545
30
0
41
1
10
9.92132621769122
20
-1.24735426786188
30
0
0
SPLINE
5
88
100
AcDbEntity
8
1
62
256
6
ByLayer
370
-1
48
1
60
0
100
AcDbSpline
70
4
71
3
72
12
73
8
40
0
40
0
40
0
40
0
40
0.422118807842354
40
0.422118807842354
40
0.843213966567597
40
0.843213966567597
40
1
40
1
40
1
40
1
41
1
10
22.0025049225253
20
8.58147551553537
30
0
41
1
10
21.9519833207447
20
8.53603677362952
30
0
41
1
10
21.9085926849988
20
8.48295643823059
30
0
41
1
10
21.8413164828368
20
8.37223887699196
30
0
41
1
10
21.8163041915552
20
8.31316957478228
30
0
41
1
10
21.7937841700843
20
8.2315112925387
30
0
41
1
10
21.7888064909332
20
8.20906063105443
30
0
41
1
10
21.7849785277632
20
8.18658124245215
30
0
0
SPLINE
5
89
100
AcDbEntity
8
1
62
256
6
ByLayer
370
-1
48
1
60
0
100
AcDbSpline
70
4
71
3
72
16
73
12
40
0
40
0
40
0
40
0
40
0.0570890854677275
40
0.0570890854677275
40
0.280047480033259
40
0.280047480033259
40
0.505467437587933
40
0.505467437587933
40
0.745071805089012
40
0.745071805089012
40
1
40
1
40
1
40
1
41
1
10
22.9017007089742
20
8.91088579377802
30
0
41
1
10
22.9049112285565
20
8.91782123860068
30
0
41
1
10
22.9078518801977
20
8.92488953894815
30
0
41
1
10
22.9207994316623
20
8.95981459168701
30
0
41
1
10
22.9268391504014
20
8.9894741096837
30
0
41
1
10
22.9298434839373
20
9.04807101739632
30
0
41
1
10
22.9267688183448
20
9.0777419616129
30
0
41
1
10
22.9122171676348
20
9.13498631301587
30
0
41
1
10
22.9000722305221
20
9.16303507814041
30
0
41
1
10
22.8680971124631
20
9.21437955004163
30
0
41
1
10
22.8474732242071
20
9.23788306928711
30
0
41
1
10
22.8244122210242
20
9.25723402979801
30
0
0
SPLINE
5
8A
100
AcDbEntity
8
1
62
256
6
ByLayer
370
-1
48
1
60
0
100
AcDbSpline
70
4
71
3
72
14
73
10
40
0
40
0
40
0
40
0
40
0.282369857467412
40
0.282369857467412
40
0.567077141419038
40
0.567077141419038
40
0.824678567700378
40
0.824678567700378
40
1
40
1
40
1
40
1
41
1
10
22.5843250768406
20
8.7462897217581
30
0
41
1
10
22.6173953567307
20
8.74025840474863
30
0
41
1
10
22.6525686269606
20
8.73989244821402
30
0
41
1
10
22.7216563819503
20
8.75197412254516
30
0
41
1
10
22.7566186559978
20
8.76477695677383
30
0
41
1
10
22.816554693549
20
8.80110470464294
30
0
41
1
10
22.84303731757
20
8.82409487163011
30
0
41
1
10
22.8791571352981
20
8.8691286079364
30
0
41
1
10
22.8917948602987
20
8.88948693133557
30
0
41
1
10
22.9017007089742
20
8.91088579377802
30
0
0
SPLINE
5
8B
100
AcDbEntity
8
1
62
256
6
ByLayer
370
-1
48
1
60
0
100
AcDbSpline
70
4
71
3
72
14
73
10
40
0
40
0
40
0
40
0
40
0.283829207301493
40
0.283829207301493
40
0.570169292743823
40
0.570169292743823
40
0.829348552935748
40
0.829348552935748
40
1
40
1
40
1
40
1
41
1
10
22.7386306359974
20
10.2222128018249
30
0
41
1
10
22.7600988928099
20
10.2479437931538
30
0
41
1
10
22.7777026763212
20
10.2782744043144
30
0
41
1
10
22.8012194692615
20
10.3441544727715
30
0
41
1
10
22.8073329640028
20
10.380789237574
30
0
41
1
10
22.8053754276248
20
10.4506783932064
30
0
41
1
10
22.7985048650111
20
10.4849773601556
30
0
41
1
10
22.777588710223
20
10.5377993252542
30
0
41
1
10
22.7666578571657
20
10.5581332477983
30
0
41
1
10
22.7536128673281
20
10.5767634240329
30
0
0
SPLINE
5
8C
100
AcDbEntity
8
1
62
256
6
ByLayer
370
-1
48
1
60
0
100
AcDbSpline
70
4
71
3
72
12
73
8
40
0
40
0
40
0
40
0
40
0.495919298548515
40
0.495919298548515
40
0.900357394013715
40
0.900357394013715
40
1
40
1
40
1
40
1
41
1
10
22.5843250768406
20
8.7462897217581
30
0
41
1
10
22.5141391647096
20
8.75909014216788
30
0
41
1
10
22.439580259946
20
8.76120203095587
30
0
41
1
10
22.3041563036294
20
8.74201748934064
30
0
41
1
10
22.24180306167
20
8.72459332358659
30
0
41
1
10
22.1678690045735
20
8.69173509630625
30
0
41
1
10
22.1532384247562
20
8.68460571738711
30
0
41
1
10
22.1388474337201
20
8.67694356965234
30
0
0
SPLINE
5
8D
100
AcDbEntity
8
1
62
256
6
ByLayer
370
-1
48
1
60
0
100
AcDbSpline
70
4
71
3
72
16
73
12
40
0
40
0
40
0
40
0
40
0.0629464292354422
40
0.0629464292354422
40
0.285820458820315
40
0.285820458820315
40
0.51149028251085
40
0.51149028251085
40
0.751616482466075
40
0.751616482466075
40
1
40
1
40
1
40
1
41
1
10
22.7536128673281
20
10.5767634240329
30
0
41
1
10
22.7487827707037
20
10.5836615168993
30
0
41
1
10
22.7436479451215
20
10.5903579770277
30
0
41
1
10
22.7192389868434
20
10.6194912302086
30
0
41
1
10
22.6964910565578
20
10.6394161068207
30
0
41
1
10
22.6471053381854
20
10.6710619692254
30
0
41
1
10
22.6198065381943
20
10.6830996581751
30
0
41
1
10
22.5628388086058
20
10.6988443619599
30
0
41
1
10
22.5324251911865
20
10.7021963087191
30
0
41
1
10
22.4727666463021
20
10.6998837763292
30
0
41
1
10
22.4429248280113
20
10.6939079768713
30
0
41
1
10
22.4153200390371
20
10.6839481864324
30
0
0
SPLINE
5
8E
100
AcDbEntity
8
1
62
256
6
ByLayer
370
-1
48
1
60
0
100
AcDbSpline
70
4
71
3
72
16
73
12
40
0
40
0
40
0
40
0
40
0.0570890854676016
40
0.0570890854676016
40
0.280047480033109
40
0.280047480033109
40
0.505467437587719
40
0.505467437587719
40
0.745071805088765
40
0.745071805088765
40
1
40
1
40
1
40
1
41
1
10
19.8589082211809
20
10.3194392632027
30
0
41
1
10
19.8556977015986
20
10.3125038183801
30
0
41
1
10
19.8527570499574
20
10.3054355180326
30
0
41
1
10
19.8398094984929
20
10.2705104652938
30
0
41
1
10
19.8337697797537
20
10.2408509472971
30
0
41
1
10
19.8307654462178
20
10.1822540395845
30
0
41
1
10
19.8338401118103
20
10.1525830953679
30
0
41
1
10
19.8483917625204
20
10.0953387439649
30
0
41
1
10
19.860536699633
20
10.0672899788404
30
0
41
1
10
19.892511817692
20
10.0159455069392
30
0
41
1
10
19.9131357059481
20
9.99244198769361
30
0
41
1
10
19.936196709131
20
9.9730910271827
30
0
0
SPLINE
5
8F
100
AcDbEntity
8
1
62
256
6
ByLayer
370
-1
48
1
60
0
100
AcDbSpline
70
4
71
3
72
18
73
14
40
0
40
0
40
0
40
0
40
0.212487430164462
40
0.212487430164462
40
0.386614756164421
40
0.386614756164421
40
0.562423635201132
40
0.562423635201132
40
0.715385836585618
40
0.715385836585618
40
0.918245866817192
40
0.918245866817192
40
1
40
1
40
1
40
1
41
1
10
21.5378756377539
20
11.0945986867962
30
0
41
1
10
21.562150250984
20
11.0279072762072
30
0
41
1
10
21.5977537848167
20
10.9627900337798
30
0
41
1
10
21.6822986417356
20
10.8557664755212
30
0
41
1
10
21.7287520585902
20
10.8106843962488
30
0
41
1
10
21.8339970608411
20
10.7347792503621
30
0
41
1
10
21.8945741486446
20
10.7031270956338
30
0
41
1
10
22.0108791908794
20
10.6625637673918
30
0
41
1
10
22.0675721123035
20
10.6506654904942
30
0
41
1
10
22.1956453679308
20
10.6394641409978
30
0
41
1
10
22.2679847630009
20
10.6450960358791
30
0
41
1
10
22.3625879916599
20
10.6666963494702
30
0
41
1
10
22.3893571808136
20
10.6745808035721
30
0
41
1
10
22.4153200390371
20
10.6839481864324
30
0
0
SPLINE
5
90
100
AcDbEntity
8
1
62
256
6
ByLayer
370
-1
48
1
60
0
100
AcDbSpline
70
4
71
3
72
12
73
8
40
0
40
0
40
0
40
0
40
0.422118808090273
40
0.422118808090273
40
0.843213966860821
40
0.843213966860821
40
1
40
1
40
1
40
1
41
1
10
20.7581040076299
20
10.6488495414454
30
0
41
1
10
20.8086256094402
20
10.6942882833779
30
0
41
1
10
20.8520162452072
20
10.7473686188128
30
0
41
1
10
20.9192924473716
20
10.8580861800973
30
0
41
1
10
20.9443047386444
20
10.9171554823157
30
0
41
1
10
20.9668247600894
20
10.9988137645259
30
0
41
1
10
20.9718024392291
20
11.0212644259683
30
0
41
1
10
20.975630402392
20
11.0437438145286
30
0
0
SPLINE
5
91
100
AcDbEntity
8
1
62
256
6
ByLayer
370
-1
48
1
60
0
100
AcDbSpline
70
4
71
3
72
18
73
14
40
0
40
0
40
0
40
0
40
0.212452122156558
40
0.212452122156558
40
0.386585611958151
40
0.386585611958151
40
0.56240106928218
40
0.56240106928218
40
0.715364474961974
40
0.715364474961974
40
0.918218197940718
40
0.918218197940718
40
1
40
1
40
1
40
1
41
1
10
22.7386306359974
20
10.2222128018249
30
0
41
1
10
22.6931709401672
20
10.1677266342037
30
0
41
1
10
22.6547618838046
20
10.1042392961708
30
0
41
1
10
22.6047003505504
20
9.97738305539681
30
0
41
1
10
22.5890563769023
20
9.91456753482487
30
0
41
1
10
22.5762968235157
20
9.78543079159482
30
0
41
1
10
22.5793614441346
20
9.71714902133073
30
0
41
1
10
22.6027187389246
20
9.59620487534318
30
0
41
1
10
22.6209128135545
20
9.54120727527231
30
0
41
1
10
22.675569354682
20
9.42484292678623
30
0
41
1
10
22.7167800211576
20
9.36512567599601
30
0
41
1
10
22.7829888218915
20
9.29417290665322
30
0
41
1
10
22.8032616990339
20
9.27498186637612
30
0
41
1
10
22.8244122210242
20
9.25723402979801
30
0
0
SPLINE
5
92
100
AcDbEntity
8
1
62
256
6
ByLayer
370
-1
48
1
60
0
100
AcDbSpline
70
4
71
3
72
14
73
10
40
0
40
0
40
0
40
0
40
0.282369857467367
40
0.282369857467367
40
0.567077141418926
40
0.567077141418926
40
0.824678567700271
40
0.824678567700271
40
1
40
1
40
1
40
1
41
1
10
20.1762838533145
20
10.4840353352226
30
0
41
1
10
20.1432135734245
20
10.4900666522321
30
0
41
1
10
20.1080403031945
20
10.4904326087667
30
0
41
1
10
20.0389525482049
20
10.4783509344356
30
0
41
1
10
20.0039902741574
20
10.465548100207
30
0
41
1
10
19.9440542366062
20
10.4292203523378
30
0
41
1
10
19.9175716125851
20
10.4062301853507
30
0
41
1
10
19.8814517948571
20
10.3611964490443
30
0
41
1
10
19.8688140698564
20
10.3408381256451
30
0
41
1
10
19.8589082211809
20
10.3194392632027
30
0
0
SPLINE
5
93
100
AcDbEntity
8
1
62
256
6
ByLayer
370
-1
48
1
60
0
100
AcDbSpline
70
4
71
3
72
16
73
12
40
0
40
0
40
0
40
0
40
0.0629464292353107
40
0.0629464292353107
40
0.285820458820191
40
0.285820458820191
40
0.511490282510715
40
0.511490282510715
40
0.751616482465847
40
0.751616482465847
40
1
40
1
40
1
40
1
41
1
10
20.0069960628271
20
8.65356163294783
30
0
41
1
10
20.0118261594514
20
8.64666354008142
30
0
41
1
10
20.0169609850336
20
8.63996707995307
30
0
41
1
10
20.0413699433117
20
8.61083382677211
30
0
41
1
10
20.0641178735974
20
8.59090895016001
30
0
41
1
10
20.1135035919697
20
8.55926308775537
30
0
41
1
10
20.1408023919608
20
8.54722539880567
30
0
41
1
10
20.1977701215493
20
8.53148069502086
30
0
41
1
10
20.2281837389686
20
8.52812874826162
30
0
41
1
10
20.287842283853
20
8.53044128065144
30
0
41
1
10
20.3176841021439
20
8.53641708010946
30
0
41
1
10
20.3452888911181
20
8.54637687054836
30
0
0
SPLINE
5
94
100
AcDbEntity
8
1
62
256
6
ByLayer
370
-1
48
1
60
0
100
AcDbSpline
70
4
71
3
72
18
73
14
40
0
40
0
40
0
40
0
40
0.212452122156503
40
0.212452122156503
40
0.386585611958117
40
0.386585611958117
40
0.56240106928217
40
0.56240106928217
40
0.715364474961995
40
0.715364474961995
40
0.918218197940767
40
0.918218197940767
40
1
40
1
40
1
40
1
41
1
10
20.0219782941577
20
9.00811225515591
30
0
41
1
10
20.0674379899879
20
9.06259842277706
30
0
41
1
10
20.1058470463505
20
9.12608576080987
30
0
41
1
10
20.1559085796048
20
9.25294200158388
30
0
41
1
10
20.1715525532527
20
9.31575752215585
30
0
41
1
10
20.1843121066394
20
9.4448942653859
30
0
41
1
10
20.1812474860205
20
9.51317603564999
30
0
41
1
10
20.1578901912305
20
9.63412018163754
30
0
41
1
10
20.1396961166007
20
9.6891177817084
30
0
41
1
10
20.0850395754731
20
9.80548213019452
30
0
41
1
10
20.0438289089975
20
9.86519938098471
30
0
41
1
10
19.9776201082637
20
9.9361521503275
30
0
41
1
10
19.9573472311213
20
9.95534319060459
30
0
41
1
10
19.936196709131
20
9.97309102718268
30
0
0
SPLINE
5
95
100
AcDbEntity
8
1
62
256
6
ByLayer
370
-1
48
1
60
0
100
AcDbSpline
70
4
71
3
72
14
73
10
40
0
40
0
40
0
40
0
40
0.283021860096048
40
0.283021860096048
40
0.569463337138308
40
0.569463337138308
40
0.82872399771531
40
0.82872399771531
40
1
40
1
40
1
40
1
41
1
10
21.5378756377539
20
11.0945986867962
30
0
41
1
10
21.5264464109835
20
11.12599903283
30
0
41
1
10
21.5091336583018
20
11.1563734791299
30
0
41
1
10
21.4641035669553
20
11.2097796203261
30
0
41
1
10
21.4355161983924
20
11.2335055192673
30
0
41
1
10
21.3741213553444
20
11.2669920898813
30
0
41
1
10
21.3410155783629
20
11.2783168335684
30
0
41
1
10
21.2847530997072
20
11.2868322639364
30
0
41
1
10
21.2615937476315
20
11.2876101508578
30
0
41
1
10
21.2388489758699
20
11.2856841819188
30
0
0
SPLINE
5
96
100
AcDbEntity
8
1
62
256
6
ByLayer
370
-1
48
1
60
0
100
AcDbSpline
70
4
71
3
72
18
73
14
40
0
40
0
40
0
40
0
40
0.212487430164392
40
0.212487430164392
40
0.38661475616437
40
0.38661475616437
40
0.562423635201108
40
0.562423635201108
40
0.715385836585613
40
0.715385836585613
40
0.918245866817239
40
0.918245866817239
40
1
40
1
40
1
40
1
41
1
10
21.2227332924012
20
8.13572637018459
30
0
41
1
10
21.1984586791711
20
8.20241778077357
30
0
41
1
10
21.1628551453385
20
8.26753502320091
30
0
41
1
10
21.0783102884195
20
8.37455858145952
30
0
41
1
10
21.0318568715649
20
8.41964066073191
30
0
41
1
10
20.9266118693141
20
8.49554580661865
30
0
41
1
10
20.8660347815106
20
8.5271979613469
30
0
41
1
10
20.7497297392758
20
8.56776128958899
30
0
41
1
10
20.6930368178516
20
8.57965956648655
30
0
41
1
10
20.5649635622243
20
8.59086091598297
30
0
41
1
10
20.4926241671542
20
8.58522902110164
30
0
41
1
10
20.3980209384953
20
8.56362870751053
30
0
41
1
10
20.3712517493416
20
8.5557442534087
30
0
41
1
10
20.3452888911181
20
8.54637687054836
30
0
0
SPLINE
5
97
100
AcDbEntity
8
1
62
256
6
ByLayer
370
-1
48
1
60
0
100
AcDbSpline
70
4
71
3
72
16
73
12
40
0
40
0
40
0
40
0
40
0.0617757523322947
40
0.0617757523322947
40
0.282549042166301
40
0.282549042166301
40
0.506058923778611
40
0.506058923778611
40
0.743861769983075
40
0.743861769983075
40
1
40
1
40
1
40
1
41
1
10
21.5217599542853
20
7.94464087506202
30
0
41
1
10
21.5300740806453
20
7.94534489395886
30
0
41
1
10
21.5383672737793
20
7.94640701596785
30
0
41
1
10
21.5757510294374
20
7.95283223905852
30
0
41
1
10
21.6044176912418
20
7.96246847893238
30
0
41
1
10
21.6566138183239
20
7.98923011176939
30
0
41
1
10
21.6807504050674
20
8.00676643443813
30
0
41
1
10
21.7230143687244
20
8.0480764439834
30
0
41
1
10
21.7412103858145
20
8.07267175657597
30
0
41
1
10
21.7697995153396
20
8.12647095989641
30
0
41
1
10
21.7798596160991
20
8.15652086846058
30
0
41
1
10
21.7849785277631
20
8.18658124245215
30
0
0
SPLINE
5
98
100
AcDbEntity
8
1
62
256
6
ByLayer
370
-1
48
1
60
0
100
AcDbSpline
70
4
71
3
72
14
73
10
40
0
40
0
40
0
40
0
40
0.283021860096151
40
0.283021860096151
40
0.569463337138366
40
0.569463337138366
40
0.828723997715403
40
0.828723997715403
40
1
40
1
40
1
40
1
41
1
10
21.2227332924012
20
8.13572637018459
30
0
41
1
10
21.2341625191717
20
8.10432602415082
30
0
41
1
10
21.2514752718533
20
8.07395157785089
30
0
41
1
10
21.2965053631999
20
8.02054543665469
30
0
41
1
10
21.3250927317628
20
7.99681953771344
30
0
41
1
10
21.3864875748108
20
7.96333296709952
30
0
41
1
10
21.4195933517923
20
7.95200822341238
30
0
41
1
10
21.475855830448
20
7.94349279304436
30
0
41
1
10
21.4990151825236
20
7.942714906123
30
0
41
1
10
21.5217599542853
20
7.94464087506202
30
0
0
SPLINE
5
99
100
AcDbEntity
8
1
62
256
6
ByLayer
370
-1
48
1
60
0
100
AcDbSpline
70
4
71
3
72
14
73
10
40
0
40
0
40
0
40
0
40
0.283829207301462
40
0.283829207301462
40
0.570169292743741
40
0.570169292743741
40
0.829348552935638
40
0.829348552935638
40
1
40
1
40
1
40
1
41
1
10
20.0219782941578
20
9.00811225515588
30
0
41
1
10
20.0005100373452
20
8.98238126382697
30
0
41
1
10
19.982906253834
20
8.95205065266634
30
0
41
1
10
19.9593894608937
20
8.88617058420922
30
0
41
1
10
19.9532759661524
20
8.8495358194067
30
0
41
1
10
19.9552335025304
20
8.77964666377432
30
0
41
1
10
19.9621040651441
20
8.74534769682512
30
0
41
1
10
19.9830202199321
20
8.69252573172653
30
0
41
1
10
19.9939510729895
20
8.67219180918238
30
0
41
1
10
20.0069960628271
20
8.65356163294783
30
0
0
SPLINE
5
9A
100
AcDbEntity
8
1
62
256
6
ByLayer
370
-1
48
1
60
0
100
AcDbSpline
70
4
71
3
72
16
73
12
40
0
40
0
40
0
40
0
40
0.0617757523322216
40
0.0617757523322216
40
0.282549042166284
40
0.282549042166284
40
0.50605892377858
40
0.50605892377858
40
0.743861769983025
40
0.743861769983025
40
1
40
1
40
1
40
1
41
1
10
21.2388489758699
20
11.2856841819188
30
0
41
1
10
21.2305348495098
20
11.2849801630219
30
0
41
1
10
21.2222416563758
20
11.2839180410129
30
0
41
1
10
21.1848579007178
20
11.2774928179222
30
0
41
1
10
21.1561912389133
20
11.2678565780484
30
0
41
1
10
21.1039951118313
20
11.2410949452114
30
0
41
1
10
21.0798585250878
20
11.2235586225426
30
0
41
1
10
21.0375945614307
20
11.1822486129973
30
0
41
1
10
21.0193985443407
20
11.1576533004048
30
0
41
1
10
20.9908094148155
20
11.1038540970843
30
0
41
1
10
20.980749314056
20
11.0738041885202
30
0
41
1
10
20.9756304023919
20
11.0437438145286
30
0
0
SPLINE
5
9B
100
AcDbEntity
8
1
62
256
6
ByLayer
370
-1
48
1
60
0
100
AcDbSpline
70
4
71
3
72
12
73
8
40
0
40
0
40
0
40
0
40
0.495919298548639
40
0.495919298548639
40
0.900357394034366
40
0.900357394034366
40
1
40
1
40
1
40
1
41
1
10
20.1762838533145
20
10.4840353352226
30
0
41
1
10
20.2464697654456
20
10.4712349148128
30
0
41
1
10
20.3210286702092
20
10.4691230260248
30
0
41
1
10
20.4564526265288
20
10.4883075676405
30
0
41
1
10
20.5188058684914
20
10.5057317333959
30
0
41
1
10
20.5927399255874
20
10.5385899606773
30
0
41
1
10
20.6073705054018
20
10.5457193395951
30
0
41
1
10
20.621761496435
20
10.5533814873283
30
0
0
LINE
5
4C
100
AcDbEntity
8
81
62
256
6
ByLayer
370
-1
48
1
60
0
100
AcDbLine
10
35.23013
20
19.9125
30
0
11
45.23013
21
19.9125
31
0
39
0
210
0
220
0
230
1
0
LINE
5
4D
100
AcDbEntity
8
80
62
256
6
ByLayer
370
-1
48
1
60
0
100
AcDbLine
10
0
20
0
30
0
11
-5
21
0
31
0
39
0
210
0
220
0
230
1
0
LINE
5
4E
100
AcDbEntity
8
1
62
256
6
ByLayer
370
-1
48
1
60
0
100
AcDbLine
10
16.824953
20
14.765872
30
0
11
17.065249
21
14.422693
31
0
39
0
210
0
220
0
230
1
0
LINE
5
50
100
AcDbEntity
8
1
62
256
6
ByLayer
370
-1
48
1
60
0
100
AcDbLine
10
24.422069
20
3.916065
30
0
11
24.958451
21
3.150032
31
0
39
0
210
0
220
0
230
1
0
LINE
5
51
100
AcDbEntity
8
1
62
256
6
ByLayer
370
-1
48
1
60
0
100
AcDbLine
10
3.328372
20
14.765872
30
0
11
1
21
12.4375
31
0
39
0
210
0
220
0
230
1
0
LINE
5
52
100
AcDbEntity
8
1
62
256
6
ByLayer
370
-1
48
1
60
0
100
AcDbLine
10
0
20
-12.434201
30
0
11
5.012661
21
-12.434201
31
0
39
0
210
0
220
0
230
1
0
LINE
5
53
100
AcDbEntity
8
1
62
256
6
ByLayer
370
-1
48
1
60
0
100
AcDbLine
10
11.972209
20
-0.686318
30
0
11
11.633288
21
-0.426255
31
0
39
0
210
0
220
0
230
1
0
LINE
5
54
100
AcDbEntity
8
1
62
256
6
ByLayer
370
-1
48
1
60
0
100
AcDbLine
10
0
20
12.4375
30
0
11
0
21
-12.434201
31
0
39
0
210
0
220
0
230
1
0
LINE
5
55
100
AcDbEntity
8
1
62
256
6
ByLayer
370
-1
48
1
60
0
100
AcDbLine
10
11.633288
20
-0.426255
30
0
11
11.94712
21
-0.017262
31
0
39
0
210
0
220
0
230
1
0
LINE
5
56
100
AcDbEntity
8
1
62
256
6
ByLayer
370
-1
48
1
60
0
100
AcDbLine
10
11.972209
20
-0.686318
30
0
11
12.657436
21
0.206687
31
0
39
0
210
0
220
0
230
1
0
LINE
5
57
100
AcDbEntity
8
1
62
256
6
ByLayer
370
-1
48
1
60
0
100
AcDbLine
10
5.012661
20
-12.434201
30
0
11
15.111848
21
-9.802963
31
0
39
0
210
0
220
0
230
1
0
LINE
5
58
100
AcDbEntity
8
1
62
256
6
ByLayer
370
-1
48
1
60
0
100
AcDbLine
10
3.328372
20
14.765872
30
0
11
16.824953
21
14.765872
31
0
39
0
210
0
220
0
230
1
0
LINE
5
59
100
AcDbEntity
8
1
62
256
6
ByLayer
370
-1
48
1
60
0
100
AcDbLine
10
15.111848
20
-9.802963
30
0
11
24.956928
21
3.027395
31
0
39
0
210
0
220
0
230
1
0
LINE
5
5A
100
AcDbEntity
8
1
62
256
6
ByLayer
370
-1
48
1
60
0
100
AcDbLine
10
17.328581
20
14.765872
30
0
11
16.824953
21
14.765872
31
0
39
0
210
0
220
0
230
1
0
LINE
5
5B
100
AcDbEntity
8
1
62
256
6
ByLayer
370
-1
48
1
60
0
100
AcDbLine
10
1
20
12.4375
30
0
11
0
21
12.4375
31
0
39
0
210
0
220
0
230
1
0
LINE
5
5C
100
AcDbEntity
8
1
62
256
6
ByLayer
370
-1
48
1
60
0
100
AcDbLine
10
24.849265
20
4.050767
30
0
11
25.001112
21
3.833906
31
0
39
0
210
0
220
0
230
1
0
LINE
5
5D
100
AcDbEntity
8
SK1
62
256
6
ByLayer
370
-1
48
1
60
0
100
AcDbLine
10
-116.11987
20
12.4375
30
0
11
-116.11987
21
-12.4375
31
0
39
0
210
0
220
0
230
1
0
LINE
5
5F
100
AcDbEntity
8
SK1
62
256
6
ByLayer
370
-1
48
1
60
0
100
AcDbLine
10
-0.15
20
12.4375
30
0
11
-0.15
21
-12.4375
31
0
39
0
210
0
220
0
230
1
0
LINE
5
60
100
AcDbEntity
8
1
62
256
6
ByLayer
370
-1
48
1
60
0
100
AcDbLine
10
34.947813
20
16.865668
30
0
11
25.389779
21
4.409396
31
0
39
0
210
0
220
0
230
1
0
LINE
5
61
100
AcDbEntity
8
SK1
62
256
6
ByLayer
370
-1
48
1
60
0
100
AcDbLine
10
0
20
12.4375
30
0
11
-0.15
21
12.4375
31
0
39
0
210
0
220
0
230
1
0
LINE
5
62
100
AcDbEntity
8
SK1
62
256
6
ByLayer
370
-1
48
1
60
0
100
AcDbLine
10
-0.15
20
12.4375
30
0
11
-116.11987
21
12.4375
31
0
39
0
210
0
220
0
230
1
0
LINE
5
63
100
AcDbEntity
8
1
62
256
6
ByLayer
370
-1
48
1
60
0
100
AcDbLine
10
24.900804
20
4.067012
30
0
11
9.926697
21
-0.654306
31
0
39
0
210
0
220
0
230
1
0
LINE
5
64
100
AcDbEntity
8
SK1
62
256
6
ByLayer
370
-1
48
1
60
0
100
AcDbLine
10
-116.11987
20
-12.4375
30
0
11
-0.15
21
-12.4375
31
0
39
0
210
0
220
0
230
1
0
LINE
5
65
100
AcDbEntity
8
1
62
256
6
ByLayer
370
-1
48
1
60
0
100
AcDbLine
10
17.859805
20
15.163313
30
0
11
32.833912
21
19.884631
31
0
39
0
210
0
220
0
230
1
0
LINE
5
66
100
AcDbEntity
8
SK1
62
256
6
ByLayer
370
-1
48
1
60
0
100
AcDbLine
10
0
20
12.4375
30
0
11
0
21
-12.434201
31
0
39
0
210
0
220
0
230
1
0
LINE
5
67
100
AcDbEntity
8
SK1
62
256
6
ByLayer
370
-1
48
1
60
0
100
AcDbLine
10
-0.15
20
-12.434856
30
0
11
0
21
-12.434201
31
0
39
0
210
0
220
0
230
1
0
LINE
5
68
100
AcDbEntity
8
1
62
256
6
ByLayer
370
-1
48
1
60
0
100
AcDbLine
10
7.812796
20
2.364657
30
0
11
17.37083
21
14.820929
31
0
39
0
210
0
220
0
230
1
0
MTEXT
5
9C
100
AcDbEntity
8
SK6
62
256
6
ByLayer
370
-1
48
1
60
0
100
AcDbMText
10
-64.285597
20
-20.912993
30
0
210
0
220
0
230
1
1
\W00.761;\fsimplex.shx,bigfont.shx;SVHCR 2525M 22-R2 
40
3.5
41
0
44
1.084337
50
0
71
7
72
5
7
DEFAULT
0
DIMENSION
5
CF
100
AcDbEntity
8
2
62
256
6
ByLayer
370
-3
48
1
60
0
100
AcDbDimension
2
DimnDraft3D1
10
21.912356
20
16.441078
30
0
11
18.378958
21
21.696349
31
0
70
34
71
5
72
1
41
1
210
0
220
0
230
1
3
Standard
100
AcDb2LineAngularDimension
13
35.23013
23
21.9125
33
0
14
35.23013
24
34.60423
34
0
15
29.767568
25
18.917817
35
0
16
21.952767
26
30.375522
36
0
40
0
0
DIMENSION
5
E4
100
AcDbEntity
8
SK2
62
256
6
ByLayer
370
-3
48
1
60
0
100
AcDbDimension
2
DimnDraft3D2
10
-125.86987
20
12.4375
30
0
11
-125.86987
21
-2.628947
31
0
70
32
71
5
72
1
41
1
210
0
220
0
230
1
3
Standard
100
AcDbAlignedDimension
13
-118.11987
23
-12.4375
33
0
14
-118.11987
24
12.4375
34
0
50
90
100
AcDbRotatedDimension
1001
ACAD
1000
DSTYLE
1002
{
1070
    74
1070
     0
1070
   279
1070
     0
1070
   172
1070
     1
1070
   173
1070
     1
1070
   340
1005
9D
1070
    77
1070
     1
1070
    73
1070
     0
1070
   171
1070
     3
1070
   274
1070
     4
1070
   177
1070
     2
1070
   176
1070
     2
1070
   178
1070
     7
1070
    78
1070
     8
1070
    41
1041
3.175
1070
   147
1041
2.25
1070
    42
1041
2.0
1070
    44
1041
2.0
1070
   140
1041
4.5
1070
   343
1005
D0
1070
   344
1005
D0
1002
}
0
DIMENSION
5
F2
100
AcDbEntity
8
2
62
256
6
ByLayer
370
-3
48
1
60
0
100
AcDbDimension
2
DimnDraft3D3
10
62.48013
20
19.9125
30
0
11
62.48013
21
1.108553
31
0
70
32
71
5
72
1
41
1
210
0
220
0
230
1
3
Standard
100
AcDbAlignedDimension
13
2
23
-12.4375
33
0
14
37.23013
24
19.9125
34
0
50
90
100
AcDbRotatedDimension
1001
ACAD
1000
DSTYLE
1002
{
1070
    74
1070
     0
1070
   279
1070
     0
1070
   172
1070
     1
1070
   173
1070
     1
1070
   340
1005
9D
1070
    77
1070
     1
1070
    73
1070
     0
1070
   171
1070
     3
1070
   274
1070
     4
1070
   177
1070
     2
1070
   176
1070
     2
1070
   178
1070
     7
1070
    78
1070
     8
1070
    41
1041
3.175
1070
   147
1041
2.25
1070
    42
1041
2.0
1070
    44
1041
2.0
1070
   140
1041
4.5
1070
   343
1005
D0
1070
   344
1005
D0
1002
}
0
DIMENSION
5
100
100
AcDbEntity
8
SK2
62
256
6
ByLayer
370
-3
48
1
60
0
100
AcDbDimension
2
DimnDraft3D4
10
-116.11987
20
39.6625
30
0
11
-44.163291
21
39.6625
31
0
70
32
71
5
72
1
41
1
210
0
220
0
230
1
3
Standard
100
AcDbAlignedDimension
13
35.23013
23
21.9125
33
0
14
-116.11987
24
14.4375
34
0
50
0
100
AcDbRotatedDimension
1001
ACAD
1000
DSTYLE
1002
{
1070
   279
1070
     0
1070
   172
1070
     1
1070
   173
1070
     1
1070
   340
1005
9D
1070
    77
1070
     1
1070
    73
1070
     0
1070
   171
1070
     3
1070
   274
1070
     4
1070
   177
1070
     2
1070
   176
1070
     2
1070
   178
1070
     7
1070
    78
1070
     8
1070
    41
1041
3.175
1070
   147
1041
2.25
1070
    42
1041
2.0
1070
    44
1041
2.0
1070
   140
1041
4.5
1070
   343
1005
D0
1070
   344
1005
D0
1002
}
0
ENDSEC
0
SECTION
2
OBJECTS
0
DICTIONARY
5
130
330
0
100
AcDbDictionary
280
0
281
1
3
ACAD_GROUP
350
131
3
ACAD_MLINESTYLE
350
132
0
DICTIONARY
5
131
330
0
100
AcDbDictionary
280
0
281
1
0
DICTIONARY
5
132
330
0
100
AcDbDictionary
280
0
281
1
3
Standard
350
18
0
MLINESTYLE
5
18
330
132
100
AcDbMlineStyle
2
Standard
70
0
3

62
256
51
90
52
90
71
2
49
-0.5
62
256
6
ByLayer
49
0.5
62
256
6
ByLayer
0
RASTERVARIABLES
5
11f
330

100
AcDbRasterVariables
90
0
70
1
71
1
72
1
0
ENDSEC
0
EOF
