0
SECTION
2
HEADER
9
$ACADVER
1
AC1015
9
$DWGCODEPAGE
3
ANSI_1252
9
$HANDSEED
5
138
9
$ANGBASE
50
0
9
$ANGDIR
70
0
9
$ATTMODE
70
1
9
$AUNITS
70
0
9
$AUPREC
70
0
9
$CECOLOR
62
256
9
$CELTSCALE
40
1
9
$CELTYPE
6
ByLayer
9
$CELWEIGHT
370
-1
9
$CLAYER
8
0
9
$CMLJUST
70
0
9
$CMLSCALE
40
1
9
$CMLSTYLE
2
Standard
9
$DIMSTYLE
2
Standard
9
$TEXTSIZE
40
0.2
9
$TEXTSTYLE
7
Standard
9
$LUNITS
70
2
9
$LUPREC
70
4
9
$EXTNAMES
290
1
9
$INSUNITS
70
4
9
$LTSCALE
40
1
9
$LWDISPLAY
290
0
9
$PDMODE
70
0
9
$PDSIZE
40
0
9
$PLINEGEN
70
0
0
ENDSEC
0
SECTION
2
CLASSES
0
CLASS
1
RASTERVARIABLES
2
AcDbRasterVariables
3
ISM
90
0
280
0
281
0
0
ENDSEC
0
SECTION
2
TABLES
0
TABLE
2
VPORT
5
12e
100
AcDbSymbolTable
0
VPORT
5
1
100
AcDbSymbolTableRecord
100
AcDbViewportTableRecord
2
*Active
70
0
10
0
20
0
11
1
21
1
12
-1
22
1
13
0
23
0
14
0.5
24
0.5
15
10
25
10
16
0
26
0
36
1
17
0
27
0
37
0
0
ENDTAB
0
TABLE
2
LTYPE
5
12f
100
AcDbSymbolTable
0
LTYPE
5
14
100
AcDbSymbolTableRecord
100
AcDbLinetypeTableRecord
70
0
2
ByBlock
3

72
65
73
0
40
0
0
LTYPE
5
15
100
AcDbSymbolTableRecord
100
AcDbLinetypeTableRecord
70
0
2
ByLayer
3

72
65
73
0
40
0
0
LTYPE
5
16
100
AcDbSymbolTableRecord
100
AcDbLinetypeTableRecord
70
0
2
CONTINUOUS
3
Solid line
72
65
73
0
40
0
0
LTYPE
5
3B
100
AcDbSymbolTableRecord
100
AcDbLinetypeTableRecord
70
0
2
DASHED
3
__ __ __ __ __ __ __ __ __
72
65
73
2
40
25.72
49
12.86
74
0
49
-12.86
74
0
0
LTYPE
5
3C
100
AcDbSymbolTableRecord
100
AcDbLinetypeTableRecord
70
0
2
HIDDEN
3
_ _ _ _ _ _ _ _ _ _ _ _ _ _ _
72
65
73
2
40
0.5
49
0.25
74
0
49
-0.25
74
0
0
LTYPE
5
3D
100
AcDbSymbolTableRecord
100
AcDbLinetypeTableRecord
70
0
2
PHANTOM
3
____ _ _ ____ _ _ _____ _ _ ____
72
65
73
6
40
50.5
49
18
74
0
49
-6.5
74
0
49
6.5
74
0
49
-6.5
74
0
49
6.5
74
0
49
-6.5
74
0
0
LTYPE
5
3E
100
AcDbSymbolTableRecord
100
AcDbLinetypeTableRecord
70
0
2
CENTER
3
____ _ ____ _ ____ _ ____
72
65
73
4
40
47.5
49
22
74
0
49
-8.5
74
0
49
8.5
74
0
49
-8.5
74
0
0
LTYPE
5
3F
100
AcDbSymbolTableRecord
100
AcDbLinetypeTableRecord
70
0
2
DOT
3
.........................
72
65
73
2
40
10
49
0
74
0
49
-10
74
0
0
LTYPE
5
40
100
AcDbSymbolTableRecord
100
AcDbLinetypeTableRecord
70
0
2
DASHDOT
3
_._._._._._._._._._._._._._._._.
72
65
73
4
40
70
49
31
74
0
49
-13
74
0
49
13
74
0
49
-13
74
0
0
ENDTAB
0
TABLE
2
LAYER
5
130
100
AcDbSymbolTable
0
LAYER
5
10
100
AcDbSymbolTableRecord
100
AcDbLayerTableRecord
2
0
70
0
62
7
6
CONTINUOUS
290
1
370
-3
390
0
0
LAYER
5
44
100
AcDbSymbolTableRecord
100
AcDbLayerTableRecord
2
80
70
0
62
-6
6
CONTINUOUS
290
1
370
-3
390
0
0
LAYER
5
48
100
AcDbSymbolTableRecord
100
AcDbLayerTableRecord
2
81
70
0
62
-3
6
CONTINUOUS
290
1
370
-3
390
0
0
LAYER
5
4A
100
AcDbSymbolTableRecord
100
AcDbLayerTableRecord
2
2
70
0
62
7
6
CONTINUOUS
290
1
370
-3
390
0
0
LAYER
5
4F
100
AcDbSymbolTableRecord
100
AcDbLayerTableRecord
2
1
70
0
62
4
6
CONTINUOUS
290
1
370
-3
390
0
0
LAYER
5
11b
100
AcDbSymbolTableRecord
100
AcDbLayerTableRecord
2
SK2
70
0
62
7
6
CONTINUOUS
290
1
370
-3
390
0
0
LAYER
5
11c
100
AcDbSymbolTableRecord
100
AcDbLayerTableRecord
2
SK1
70
0
62
4
6
CONTINUOUS
290
1
370
-3
390
0
0
LAYER
5
11d
100
AcDbSymbolTableRecord
100
AcDbLayerTableRecord
2
SK6
70
0
62
5
6
CONTINUOUS
290
1
370
-3
390
0
0
ENDTAB
0
TABLE
2
STYLE
5
131
100
AcDbSymbolTable
0
STYLE
5
11
100
AcDbSymbolTableRecord
100
AcDbTextStyleTableRecord
2
Standard
3
txt
70
0
71
0
40
0
41
1
42
0
50
0
0
STYLE
5
98
100
AcDbSymbolTableRecord
100
AcDbTextStyleTableRecord
2
DEFAULT
3
simplex.shx
70
0
71
0
40
0
41
1
42
0
50
0
0
STYLE
5
BB
100
AcDbSymbolTableRecord
100
AcDbTextStyleTableRecord
2
DWGDirectTextStyle
3
SIMPLEX
70
0
71
0
40
0
41
1
42
0
50
0
0
ENDTAB
0
TABLE
2
DIMSTYLE
5
132
100
AcDbSymbolTable
100
AcDbDimStyleTable
0
DIMSTYLE
105
27
100
AcDbSymbolTableRecord
100
AcDbDimStyleTableRecord
2
Standard
70
0
3
<>
41
0.18
42
0.0625
44
0.18
140
0.18
147
0.09
73
0
74
0
77
1
271
2
275
0
278
52
280
0
340
11
0
ENDTAB
0
TABLE
2
VIEW
5
133
100
AcDbSymbolTable
0
ENDTAB
0
TABLE
2
UCS
5
134
100
AcDbSymbolTable
0
ENDTAB
0
TABLE
2
APPID
5
135
100
AcDbSymbolTable
0
APPID
5
12
100
AcDbSymbolTableRecord
100
AcDbRegAppTableRecord
2
ACAD
70
0
0
ENDTAB
0
TABLE
2
BLOCK_RECORD
5
136
100
AcDbSymbolTable
0
BLOCK_RECORD
5
1F
100
AcDbSymbolTableRecord
100
AcDbBlockTableRecord
2
*Model_Space
340
0
70
0
0
BLOCK_RECORD
5
1B
100
AcDbSymbolTableRecord
100
AcDbBlockTableRecord
2
*Paper_Space
340
0
70
0
0
BLOCK_RECORD
5
23
100
AcDbSymbolTableRecord
100
AcDbBlockTableRecord
2
*Paper_Space0
340
0
70
0
0
BLOCK_RECORD
5
BD
100
AcDbSymbolTableRecord
100
AcDbBlockTableRecord
2
DimnDraft3D1
340
0
70
0
0
BLOCK_RECORD
5
CB
100
AcDbSymbolTableRecord
100
AcDbBlockTableRecord
2
_CLOSED
340
0
70
0
0
BLOCK_RECORD
5
D2
100
AcDbSymbolTableRecord
100
AcDbBlockTableRecord
2
DimnDraft3D2
340
0
70
0
0
BLOCK_RECORD
5
E0
100
AcDbSymbolTableRecord
100
AcDbBlockTableRecord
2
DimnDraft3D3
340
0
70
0
0
BLOCK_RECORD
5
EE
100
AcDbSymbolTableRecord
100
AcDbBlockTableRecord
2
DimnDraft3D4
340
0
70
0
0
ENDTAB
0
ENDSEC
0
SECTION
2
BLOCKS
0
BLOCK
5
20
100
AcDbEntity
8
0
100
AcDbBlockBegin
2
*Model_Space
70
0
10
0
20
0
30
0
3
*Model_Space
0
ENDBLK
5
21
100
AcDbEntity
8
0
100
AcDbBlockEnd
0
BLOCK
5
1C
100
AcDbEntity
8
0
100
AcDbBlockBegin
2
*Paper_Space
70
0
10
0
20
0
30
0
3
*Paper_Space
0
ENDBLK
5
1D
100
AcDbEntity
8
0
100
AcDbBlockEnd
0
BLOCK
5
24
100
AcDbEntity
8
0
100
AcDbBlockBegin
2
*Paper_Space0
70
0
10
0
20
0
30
0
3
*Paper_Space0
0
ENDBLK
5
25
100
AcDbEntity
8
0
100
AcDbBlockEnd
0
BLOCK
5
C8
100
AcDbEntity
8
0
100
AcDbBlockBegin
2
DimnDraft3D1
70
0
10
0
20
0
30
0
3
DimnDraft3D1
0
MTEXT
5
BE
100
AcDbEntity
8
2
62
256
6
ByLayer
370
-1
48
1
60
0
100
AcDbMText
10
9.795827
20
19.27043
30
0
210
0
220
0
230
1
1
\W01.000;\fsimplex.shx,bigfont.shx;60%%d0' 
40
4.5
41
0
44
1.084337
50
29.9999999999995
71
7
72
5
7
DEFAULT
0
LINE
5
BF
100
AcDbEntity
8
2
62
256
6
ByLayer
370
-1
48
1
60
0
100
AcDbLine
10
21.25625
20
12.247978
30
0
11
21.25625
21
24.621917
31
0
39
0
210
0
220
0
230
1
0
LINE
5
C0
100
AcDbEntity
8
2
62
256
6
ByLayer
370
-1
48
1
60
0
100
AcDbLine
10
18.261299
20
11.641636
30
0
11
8.517521
21
17.267208
31
0
39
0
210
0
220
0
230
1
0
ARC
5
C1
100
AcDbEntity
8
2
62
256
6
ByLayer
370
-1
48
1
60
0
100
AcDbCircle
39
0
10
21.25625
20
9.9125
30
0
40
12.7094166951168
210
0
220
0
230
1
100
AcDbArc
50
48.485695
51
191.514305
0
LINE
5
C2
100
AcDbEntity
8
2
62
256
6
ByLayer
370
-1
48
1
60
0
100
AcDbLine
10
21.25625
20
22.621917
30
0
11
24.451076
21
22.841965
31
0
39
0
210
0
220
0
230
1
0
LINE
5
C3
100
AcDbEntity
8
2
62
256
6
ByLayer
370
-1
48
1
60
0
100
AcDbLine
10
21.25625
20
22.621917
30
0
11
24.399171
21
22.007585
31
0
39
0
210
0
220
0
230
1
0
LINE
5
C4
100
AcDbEntity
8
2
62
256
6
ByLayer
370
-1
48
1
60
0
100
AcDbLine
10
24.451076
20
22.841965
30
0
11
24.399171
21
22.007585
31
0
39
0
210
0
220
0
230
1
0
LINE
5
C5
100
AcDbEntity
8
2
62
256
6
ByLayer
370
-1
48
1
60
0
100
AcDbLine
10
10.249572
20
16.267208
30
0
11
9.21014
21
13.238196
31
0
39
0
210
0
220
0
230
1
0
LINE
5
C6
100
AcDbEntity
8
2
62
256
6
ByLayer
370
-1
48
1
60
0
100
AcDbLine
10
10.249572
20
16.267208
30
0
11
8.46159
21
13.610429
31
0
39
0
210
0
220
0
230
1
0
LINE
5
C7
100
AcDbEntity
8
2
62
256
6
ByLayer
370
-1
48
1
60
0
100
AcDbLine
10
9.21014
20
13.238196
30
0
11
8.46159
21
13.610429
31
0
39
0
210
0
220
0
230
1
0
ENDBLK
5
C9
100
AcDbEntity
8
0
100
AcDbBlockEnd
0
BLOCK
5
CC
100
AcDbEntity
8
0
100
AcDbBlockBegin
2
_CLOSED
70
0
10
0
20
0
30
0
3
_CLOSED
0
LINE
5
CE
100
AcDbEntity
8
0
62
256
6
ByLayer
370
-2
48
1
60
0
100
AcDbLine
10
-1
20
0.166667
30
0
11
0
21
0
31
0
39
0
210
0
220
0
230
1
0
LINE
5
CF
100
AcDbEntity
8
0
62
256
6
ByLayer
370
-2
48
1
60
0
100
AcDbLine
10
0
20
0
30
0
11
-1
21
-0.166667
31
0
39
0
210
0
220
0
230
1
0
LINE
5
D0
100
AcDbEntity
8
0
62
256
6
ByLayer
370
-2
48
1
60
0
100
AcDbLine
10
-1
20
0.166667
30
0
11
-1
21
-0.166667
31
0
39
0
210
0
220
0
230
1
0
LINE
5
D1
100
AcDbEntity
8
0
62
256
6
ByLayer
370
-2
48
1
60
0
100
AcDbLine
10
0
20
0
30
0
11
-1
21
0
31
0
39
0
210
0
220
0
230
1
0
ENDBLK
5
CD
100
AcDbEntity
8
0
100
AcDbBlockEnd
0
BLOCK
5
DD
100
AcDbEntity
8
0
100
AcDbBlockBegin
2
DimnDraft3D2
70
0
10
0
20
0
30
0
3
DimnDraft3D2
0
MTEXT
5
D3
100
AcDbEntity
8
SK2
62
256
6
ByLayer
370
-1
48
1
60
0
100
AcDbMText
10
-140.96875
20
-1.503947
30
0
210
0
220
0
230
1
1
\W01.000;\fsimplex.shx,bigfont.shx;25 
40
4.5
41
0
44
1.084337
50
90
71
7
72
5
7
DEFAULT
0
LINE
5
D4
100
AcDbEntity
8
SK2
62
256
6
ByLayer
370
-1
48
1
60
0
100
AcDbLine
10
-132.09375
20
-12.4375
30
0
11
-141.84375
21
-12.4375
31
0
39
0
210
0
220
0
230
1
0
LINE
5
D5
100
AcDbEntity
8
SK2
62
256
6
ByLayer
370
-1
48
1
60
0
100
AcDbLine
10
-132.09375
20
12.4375
30
0
11
-141.84375
21
12.4375
31
0
39
0
210
0
220
0
230
1
0
LINE
5
D6
100
AcDbEntity
8
SK2
62
256
6
ByLayer
370
-1
48
1
60
0
100
AcDbLine
10
-139.84375
20
-12.4375
30
0
11
-139.84375
21
12.4375
31
0
39
0
210
0
220
0
230
1
0
LINE
5
D7
100
AcDbEntity
8
SK2
62
256
6
ByLayer
370
-1
48
1
60
0
100
AcDbLine
10
-139.84375
20
-12.4375
30
0
11
-140.261747
21
-9.262502
31
0
39
0
210
0
220
0
230
1
0
LINE
5
D8
100
AcDbEntity
8
SK2
62
256
6
ByLayer
370
-1
48
1
60
0
100
AcDbLine
10
-139.84375
20
-12.4375
30
0
11
-139.425753
21
-9.262498
31
0
39
0
210
0
220
0
230
1
0
LINE
5
D9
100
AcDbEntity
8
SK2
62
256
6
ByLayer
370
-1
48
1
60
0
100
AcDbLine
10
-140.261747
20
-9.262502
30
0
11
-139.425753
21
-9.262498
31
0
39
0
210
0
220
0
230
1
0
LINE
5
DA
100
AcDbEntity
8
SK2
62
256
6
ByLayer
370
-1
48
1
60
0
100
AcDbLine
10
-139.84375
20
12.4375
30
0
11
-139.425753
21
9.262502
31
0
39
0
210
0
220
0
230
1
0
LINE
5
DB
100
AcDbEntity
8
SK2
62
256
6
ByLayer
370
-1
48
1
60
0
100
AcDbLine
10
-139.84375
20
12.4375
30
0
11
-140.261747
21
9.262498
31
0
39
0
210
0
220
0
230
1
0
LINE
5
DC
100
AcDbEntity
8
SK2
62
256
6
ByLayer
370
-1
48
1
60
0
100
AcDbLine
10
-139.425753
20
9.262502
30
0
11
-140.261747
21
9.262498
31
0
39
0
210
0
220
0
230
1
0
ENDBLK
5
DE
100
AcDbEntity
8
0
100
AcDbBlockEnd
0
BLOCK
5
EB
100
AcDbEntity
8
0
100
AcDbBlockBegin
2
DimnDraft3D3
70
0
10
0
20
0
30
0
3
DimnDraft3D3
0
MTEXT
5
E1
100
AcDbEntity
8
2
62
256
6
ByLayer
370
-1
48
1
60
0
100
AcDbMText
10
47.38125
20
-2.766447
30
0
210
0
220
0
230
1
1
\W01.000;\fsimplex.shx,bigfont.shx;22 
40
4.5
41
0
44
1.084337
50
90
71
7
72
5
7
DEFAULT
0
LINE
5
E2
100
AcDbEntity
8
2
62
256
6
ByLayer
370
-1
48
1
60
0
100
AcDbLine
10
2
20
-12.4375
30
0
11
50.50625
21
-12.4375
31
0
39
0
210
0
220
0
230
1
0
LINE
5
E3
100
AcDbEntity
8
2
62
256
6
ByLayer
370
-1
48
1
60
0
100
AcDbLine
10
23.25625
20
9.9125
30
0
11
50.50625
21
9.9125
31
0
39
0
210
0
220
0
230
1
0
LINE
5
E4
100
AcDbEntity
8
2
62
256
6
ByLayer
370
-1
48
1
60
0
100
AcDbLine
10
48.50625
20
-12.4375
30
0
11
48.50625
21
9.9125
31
0
39
0
210
0
220
0
230
1
0
LINE
5
E5
100
AcDbEntity
8
2
62
256
6
ByLayer
370
-1
48
1
60
0
100
AcDbLine
10
48.50625
20
-12.4375
30
0
11
48.088253
21
-9.262502
31
0
39
0
210
0
220
0
230
1
0
LINE
5
E6
100
AcDbEntity
8
2
62
256
6
ByLayer
370
-1
48
1
60
0
100
AcDbLine
10
48.50625
20
-12.4375
30
0
11
48.924247
21
-9.262498
31
0
39
0
210
0
220
0
230
1
0
LINE
5
E7
100
AcDbEntity
8
2
62
256
6
ByLayer
370
-1
48
1
60
0
100
AcDbLine
10
48.088253
20
-9.262502
30
0
11
48.924247
21
-9.262498
31
0
39
0
210
0
220
0
230
1
0
LINE
5
E8
100
AcDbEntity
8
2
62
256
6
ByLayer
370
-1
48
1
60
0
100
AcDbLine
10
48.50625
20
9.9125
30
0
11
48.924247
21
6.737502
31
0
39
0
210
0
220
0
230
1
0
LINE
5
E9
100
AcDbEntity
8
2
62
256
6
ByLayer
370
-1
48
1
60
0
100
AcDbLine
10
48.50625
20
9.9125
30
0
11
48.088253
21
6.737498
31
0
39
0
210
0
220
0
230
1
0
LINE
5
EA
100
AcDbEntity
8
2
62
256
6
ByLayer
370
-1
48
1
60
0
100
AcDbLine
10
48.924247
20
6.737502
30
0
11
48.088253
21
6.737498
31
0
39
0
210
0
220
0
230
1
0
ENDBLK
5
EC
100
AcDbEntity
8
0
100
AcDbBlockEnd
0
BLOCK
5
F9
100
AcDbEntity
8
0
100
AcDbBlockBegin
2
DimnDraft3D4
70
0
10
0
20
0
30
0
3
DimnDraft3D4
0
MTEXT
5
EF
100
AcDbEntity
8
SK2
62
256
6
ByLayer
370
-1
48
1
60
0
100
AcDbMText
10
-57.012171
20
31.122978
30
0
210
0
220
0
230
1
1
\W01.000;\fsimplex.shx,bigfont.shx;150 
40
4.5
41
0
44
1.084337
50
0
71
7
72
5
7
DEFAULT
0
LINE
5
F0
100
AcDbEntity
8
SK2
62
256
6
ByLayer
370
-1
48
1
60
0
100
AcDbLine
10
21.25625
20
12.247978
30
0
11
21.25625
21
31.997978
31
0
39
0
210
0
220
0
230
1
0
LINE
5
F1
100
AcDbEntity
8
SK2
62
256
6
ByLayer
370
-1
48
1
60
0
100
AcDbLine
10
-130.09375
20
14.4375
30
0
11
-130.09375
21
31.997978
31
0
39
0
210
0
220
0
230
1
0
LINE
5
F2
100
AcDbEntity
8
SK2
62
256
6
ByLayer
370
-1
48
1
60
0
100
AcDbLine
10
21.25625
20
29.997978
30
0
11
-130.09375
21
29.997978
31
0
39
0
210
0
220
0
230
1
0
LINE
5
F3
100
AcDbEntity
8
SK2
62
256
6
ByLayer
370
-1
48
1
60
0
100
AcDbLine
10
21.25625
20
29.997978
30
0
11
18.081252
21
29.579982
31
0
39
0
210
0
220
0
230
1
0
LINE
5
F4
100
AcDbEntity
8
SK2
62
256
6
ByLayer
370
-1
48
1
60
0
100
AcDbLine
10
21.25625
20
29.997978
30
0
11
18.081248
21
30.415975
31
0
39
0
210
0
220
0
230
1
0
LINE
5
F5
100
AcDbEntity
8
SK2
62
256
6
ByLayer
370
-1
48
1
60
0
100
AcDbLine
10
18.081252
20
29.579982
30
0
11
18.081248
21
30.415975
31
0
39
0
210
0
220
0
230
1
0
LINE
5
F6
100
AcDbEntity
8
SK2
62
256
6
ByLayer
370
-1
48
1
60
0
100
AcDbLine
10
-130.09375
20
29.997978
30
0
11
-126.918752
21
30.415975
31
0
39
0
210
0
220
0
230
1
0
LINE
5
F7
100
AcDbEntity
8
SK2
62
256
6
ByLayer
370
-1
48
1
60
0
100
AcDbLine
10
-130.09375
20
29.997978
30
0
11
-126.918748
21
29.579982
31
0
39
0
210
0
220
0
230
1
0
LINE
5
F8
100
AcDbEntity
8
SK2
62
256
6
ByLayer
370
-1
48
1
60
0
100
AcDbLine
10
-126.918752
20
30.415975
30
0
11
-126.918748
21
29.579982
31
0
39
0
210
0
220
0
230
1
0
ENDBLK
5
FA
100
AcDbEntity
8
0
100
AcDbBlockEnd
0
ENDSEC
0
SECTION
2
ENTITIES
0
ARC
5
68
100
AcDbEntity
8
1
62
256
6
ByLayer
370
-1
48
1
60
0
100
AcDbCircle
39
0
10
9.67
20
2.679228
30
0
40
1.859889010067
210
0
220
0
230
1
100
AcDbArc
50
257.957942
51
0
0
ARC
5
69
100
AcDbEntity
8
1
62
256
6
ByLayer
370
-1
48
1
60
0
100
AcDbCircle
39
0
10
-7.9
20
1.443493
30
0
40
1.5
210
0
220
0
230
-1
100
AcDbArc
50
202.880957
51
84.736794
0
ARC
5
6A
100
AcDbEntity
8
1
62
256
6
ByLayer
370
-1
48
1
60
0
100
AcDbCircle
39
0
10
9.67
20
2.679228
30
0
40
1.625
210
0
220
0
230
1
100
AcDbArc
50
258.87558
51
0
0
ARC
5
6B
100
AcDbEntity
8
1
62
256
6
ByLayer
370
-1
48
1
60
0
100
AcDbCircle
39
0
10
7.9
20
1.443493
30
0
40
1.5
210
0
220
0
230
1
100
AcDbArc
50
346.163342
51
24.741927
0
ARC
5
6C
100
AcDbEntity
8
1
62
256
6
ByLayer
370
-1
48
1
60
0
100
AcDbCircle
39
0
10
-12.525
20
9.454228
30
0
40
1.6765
210
0
220
0
230
-1
100
AcDbArc
50
0
51
59.840113
0
ARC
5
6D
100
AcDbEntity
8
1
62
256
6
ByLayer
370
-1
48
1
60
0
100
AcDbCircle
39
0
10
-12.525
20
9.454228
30
0
40
1.2065
210
0
220
0
230
-1
100
AcDbArc
50
266.044721
51
273.955279
0
ARC
5
6E
100
AcDbEntity
8
1
62
256
6
ByLayer
370
-1
48
1
60
0
100
AcDbCircle
39
0
10
-12.525
20
9.454228
30
0
40
1.6765
210
0
220
0
230
-1
100
AcDbArc
50
120.159887
51
180
0
ARC
5
70
100
AcDbEntity
8
1
62
256
6
ByLayer
370
-1
48
1
60
0
100
AcDbCircle
39
0
10
12.525
20
9.454228
30
0
40
1.2065
210
0
220
0
230
1
100
AcDbArc
50
29.920057
51
86.044721
0
ARC
5
71
100
AcDbEntity
8
1
62
256
6
ByLayer
370
-1
48
1
60
0
100
AcDbCircle
39
0
10
-12.525
20
9.454228
30
0
40
1.2065
210
0
220
0
230
-1
100
AcDbArc
50
29.920057
51
86.044721
0
ARC
5
72
100
AcDbEntity
8
1
62
256
6
ByLayer
370
-1
48
1
60
0
100
AcDbCircle
39
0
10
-12.525
20
9.454228
30
0
40
1.6765
210
0
220
0
230
-1
100
AcDbArc
50
300.159887
51
0
0
ARC
5
73
100
AcDbEntity
8
1
62
256
6
ByLayer
370
-1
48
1
60
0
100
AcDbCircle
39
0
10
-12.525
20
9.454228
30
0
40
1.6765
210
0
220
0
230
-1
100
AcDbArc
50
239.840113
51
300.159887
0
ARC
5
75
100
AcDbEntity
8
1
62
256
6
ByLayer
370
-1
48
1
60
0
100
AcDbCircle
39
0
10
-12.525
20
9.454228
30
0
40
1.2065
210
0
220
0
230
-1
100
AcDbArc
50
86.044721
51
93.955279
0
ARC
5
76
100
AcDbEntity
8
1
62
256
6
ByLayer
370
-1
48
1
60
0
100
AcDbCircle
39
0
10
12.525
20
9.454228
30
0
40
1.2065
210
0
220
0
230
1
100
AcDbArc
50
150.079943
51
209.920057
0
ARC
5
77
100
AcDbEntity
8
1
62
256
6
ByLayer
370
-1
48
1
60
0
100
AcDbCircle
39
0
10
-8.5565
20
2.580585
30
0
40
0.794000000000011
210
0
220
0
230
-1
100
AcDbArc
50
240
51
0
0
ARC
5
78
100
AcDbEntity
8
1
62
256
6
ByLayer
370
-1
48
1
60
0
100
AcDbCircle
39
0
10
-12.525
20
9.454228
30
0
40
1.6765
210
0
220
0
230
-1
100
AcDbArc
50
59.840113
51
120.159887
0
ARC
5
79
100
AcDbEntity
8
1
62
256
6
ByLayer
370
-1
48
1
60
0
100
AcDbCircle
39
0
10
12.525
20
9.454228
30
0
40
1.2065
210
0
220
0
230
1
100
AcDbArc
50
273.955279
51
330.079943
0
ARC
5
7B
100
AcDbEntity
8
1
62
256
6
ByLayer
370
-1
48
1
60
0
100
AcDbCircle
39
0
10
12.525
20
9.454228
30
0
40
1.2065
210
0
220
0
230
1
100
AcDbArc
50
209.920057
51
266.044721
0
ARC
5
7C
100
AcDbEntity
8
1
62
256
6
ByLayer
370
-1
48
1
60
0
100
AcDbCircle
39
0
10
-12.525
20
9.454228
30
0
40
1.6765
210
0
220
0
230
-1
100
AcDbArc
50
180
51
239.840113
0
ARC
5
7F
100
AcDbEntity
8
1
62
256
6
ByLayer
370
-1
48
1
60
0
100
AcDbCircle
39
0
10
12.525
20
9.454228
30
0
40
1.2065
210
0
220
0
230
1
100
AcDbArc
50
330.079943
51
29.920057
0
ARC
5
80
100
AcDbEntity
8
1
62
256
6
ByLayer
370
-1
48
1
60
0
100
AcDbCircle
39
0
10
-8.5565
20
16.327872
30
0
40
0.793999999999989
210
0
220
0
230
-1
100
AcDbArc
50
0
51
120
0
ARC
5
81
100
AcDbEntity
8
1
62
256
6
ByLayer
370
-1
48
1
60
0
100
AcDbCircle
39
0
10
-20.462
20
9.454228
30
0
40
0.793999999999984
210
0
220
0
230
-1
100
AcDbArc
50
120
51
240
0
CIRCLE
5
6F
100
AcDbEntity
8
1
62
256
6
ByLayer
370
-1
48
1
60
0
100
AcDbCircle
10
-12.525
20
9.454228
30
0
40
2.62499999999999
39
0
210
0
220
0
230
-1
0
CIRCLE
5
74
100
AcDbEntity
8
1
62
256
6
ByLayer
370
-1
48
1
60
0
100
AcDbCircle
10
-12.525
20
9.454228
30
0
40
1.8
39
0
210
0
220
0
230
-1
0
CIRCLE
5
7A
100
AcDbEntity
8
1
62
256
6
ByLayer
370
-1
48
1
60
0
100
AcDbCircle
10
12.525
20
9.454228
30
0
40
2.95049568210608
39
0
210
0
220
0
230
1
0
CIRCLE
5
7D
100
AcDbEntity
8
1
62
256
6
ByLayer
370
-1
48
1
60
0
100
AcDbCircle
10
-12.525
20
9.454228
30
0
40
3.00605207334198
39
0
210
0
220
0
230
-1
0
CIRCLE
5
7E
100
AcDbEntity
8
1
62
256
6
ByLayer
370
-1
48
1
60
0
100
AcDbCircle
10
-12.525
20
9.454228
30
0
40
3.07132534818237
39
0
210
0
220
0
230
-1
0
POINT
5
41
100
AcDbEntity
8
SK2
62
256
6
ByLayer
370
-1
48
1
60
0
100
AcDbPoint
10
21.25625
20
9.9125
30
0
39
0
210
0
220
0
230
1
50
360
0
POINT
5
43
100
AcDbEntity
8
80
62
256
6
ByLayer
370
-1
48
1
60
0
100
AcDbPoint
10
0
20
0
30
0
39
0
210
0
220
0
230
1
50
360
0
POINT
5
45
100
AcDbEntity
8
SK2
62
256
6
ByLayer
370
-1
48
1
60
0
100
AcDbPoint
10
21.25625
20
9.9125
30
0
39
0
210
0
220
0
230
1
50
360
0
POINT
5
46
100
AcDbEntity
8
SK2
62
256
6
ByLayer
370
-1
48
1
60
0
100
AcDbPoint
10
21.25625
20
9.9125
30
0
39
0
210
0
220
0
230
1
50
360
0
POINT
5
47
100
AcDbEntity
8
81
62
256
6
ByLayer
370
-1
48
1
60
0
100
AcDbPoint
10
21.25625
20
9.9125
30
0
39
0
210
0
220
0
230
1
50
360
0
POINT
5
49
100
AcDbEntity
8
2
62
256
6
ByLayer
370
-1
48
1
60
0
100
AcDbPoint
10
21.25625
20
9.9125
30
0
39
0
210
0
220
0
230
1
50
360
0
POINT
5
4B
100
AcDbEntity
8
SK2
62
256
6
ByLayer
370
-1
48
1
60
0
100
AcDbPoint
10
21.25625
20
9.9125
30
0
39
0
210
0
220
0
230
1
50
360
0
SPLINE
5
82
100
AcDbEntity
8
1
62
256
6
ByLayer
370
-1
48
1
60
0
100
AcDbSpline
70
4
71
3
72
8
73
4
40
0
40
0
40
0
40
0
40
1
40
1
40
1
40
1
41
1
10
9.28197202493672
20
0.860266591377695
30
0
41
1
10
9.31296374385076
20
0.933702345267477
30
0
41
1
10
9.33772491513133
20
1.00864611044932
30
0
41
1
10
9.35647220115499
20
1.08476112810311
30
0
0
SPLINE
5
83
100
AcDbEntity
8
1
62
256
6
ByLayer
370
-1
48
1
60
0
100
AcDbSpline
70
4
71
3
72
16
73
12
40
0
40
0
40
0
40
0
40
0.0569446172824435
40
0.0569446172824435
40
0.279906644834042
40
0.279906644834042
40
0.505321967306574
40
0.505321967306574
40
0.744915047128676
40
0.744915047128676
40
1
40
1
40
1
40
1
41
1
10
11.6827016963397
20
10.9037749866676
30
0
41
1
10
11.6761104385076
20
10.8999449582524
30
0
41
1
10
11.6696633252813
20
10.8958526500519
30
0
41
1
10
11.6390363831609
20
10.8746868745798
30
0
41
1
10
11.6170723329938
20
10.8538592875923
30
0
41
1
10
11.5809923636066
20
10.8075892476343
30
0
41
1
10
11.5664874459167
20
10.7815235855463
30
0
41
1
10
11.5455631177788
20
10.7262901871735
30
0
41
1
10
11.5394177996136
20
10.6963499285239
30
0
41
1
10
11.5361470990106
20
10.6359321407845
30
0
41
1
10
11.5395594787757
20
10.6048289586854
30
0
41
1
10
11.5473555322912
20
10.5757322656066
30
0
0
SPLINE
5
84
100
AcDbEntity
8
1
62
256
6
ByLayer
370
-1
48
1
60
0
100
AcDbSpline
70
4
71
3
72
18
73
14
40
0
40
0
40
0
40
0
40
0.21249169575531
40
0.21249169575531
40
0.3866182768538
40
0.3866182768538
40
0.562426360907919
40
0.562426360907919
40
0.715388416645922
40
0.715388416645922
40
0.91824920868985
40
0.91824920868985
40
1
40
1
40
1
40
1
41
1
10
13.5026444677088
20
10.5757322656066
30
0
41
1
10
13.48427607619
20
10.5071771371296
30
0
41
1
10
13.4760911091532
20
10.4334132493423
30
0
41
1
10
13.4839610008539
20
10.2972503772035
30
0
41
1
10
13.4961557594436
20
10.2336769839118
30
0
41
1
10
13.5388305716229
20
10.1111337633619
30
0
41
1
10
13.5702976683392
20
10.0504606881528
30
0
41
1
10
13.642303236339
20
9.95052397023443
30
0
41
1
10
13.6819188988894
20
9.90826000157591
30
0
41
1
10
13.7804059624804
20
9.82562492952232
30
0
41
1
10
13.842893587529
20
9.78874632188928
30
0
41
1
10
13.932776731918
20
9.75217889463158
30
0
41
1
10
13.9592260360796
20
9.74328371556669
30
0
41
1
10
13.9858653921853
20
9.73606563596115
30
0
0
SPLINE
5
85
100
AcDbEntity
8
1
62
256
6
ByLayer
370
-1
48
1
60
0
100
AcDbSpline
70
4
71
3
72
18
73
14
40
0
40
0
40
0
40
0
40
0.212491695755299
40
0.212491695755299
40
0.386618276853796
40
0.386618276853796
40
0.562426360907932
40
0.562426360907932
40
0.715388416645947
40
0.715388416645947
40
0.918249208689898
40
0.918249208689898
40
1
40
1
40
1
40
1
41
1
10
11.5473555322912
20
8.33272418205488
30
0
41
1
10
11.5657239238099
20
8.40127931053189
30
0
41
1
10
11.5739088908468
20
8.47504319831916
30
0
41
1
10
11.566038999146
20
8.61120607045791
30
0
41
1
10
11.5538442405563
20
8.67477946374964
30
0
41
1
10
11.511169428377
20
8.79732268429953
30
0
41
1
10
11.4797023316607
20
8.85799575950864
30
0
41
1
10
11.4076967636609
20
8.95793247742699
30
0
41
1
10
11.3680811011104
20
9.00019644608551
30
0
41
1
10
11.2695940375195
20
9.0828315181391
30
0
41
1
10
11.2071064124709
20
9.11971012577214
30
0
41
1
10
11.1172232680819
20
9.15627755302984
30
0
41
1
10
11.0907739639203
20
9.16517273209473
30
0
41
1
10
11.0641346078147
20
9.17239081170027
30
0
0
SPLINE
5
86
100
AcDbEntity
8
1
62
256
6
ByLayer
370
-1
48
1
60
0
100
AcDbSpline
70
4
71
3
72
16
73
12
40
0
40
0
40
0
40
0
40
0.0624450082613721
40
0.0624450082613721
40
0.283207995985755
40
0.283207995985755
40
0.506745688833466
40
0.506745688833466
40
0.744607284736945
40
0.744607284736945
40
1
40
1
40
1
40
1
41
1
10
11.6827016963397
20
8.00468146099379
30
0
41
1
10
11.6899936831845
20
8.00044425505661
30
0
41
1
10
11.6974780945313
20
7.99651897188508
30
0
41
1
10
11.73188062772
20
7.98033413729476
30
0
41
1
10
11.7608948640168
20
7.9718126352021
30
0
41
1
10
11.8190063384807
20
7.96384822224925
30
0
41
1
10
11.8488364565736
20
7.9643959026516
30
0
41
1
10
11.9071472923554
20
7.97404679711261
30
0
41
1
10
11.9361545010765
20
7.98378529122692
30
0
41
1
10
11.990324642001
20
8.01146685419627
30
0
41
1
10
12.0157153855943
20
8.03026568345231
30
0
41
1
10
12.037089022636
20
8.05189143618063
30
0
0
SPLINE
5
87
100
AcDbEntity
8
1
62
256
6
ByLayer
370
-1
48
1
60
0
100
AcDbSpline
70
4
71
3
72
14
73
10
40
0
40
0
40
0
40
0
40
0.283961457856564
40
0.283961457856564
40
0.570284934646606
40
0.570284934646606
40
0.829450869060431
40
0.829450869060431
40
1
40
1
40
1
40
1
41
1
10
11.0641346078146
20
9.73606563596115
30
0
41
1
10
11.031775123635
20
9.72729765628944
30
0
41
1
10
10.9999432487876
20
9.71253953203987
30
0
41
1
10
10.9428862914263
20
9.6720437677844
30
0
41
1
10
10.9168709220879
20
9.64553771714051
30
0
41
1
10
10.8783981754779
20
9.58716145004684
30
0
41
1
10
10.8643584772186
20
9.5551238264411
30
0
41
1
10
10.851205731979
20
9.49987023470905
30
0
41
1
10
10.8485
20
9.4769578846263
30
0
41
1
10
10.8485
20
9.45422822383071
30
0
0
SPLINE
5
88
100
AcDbEntity
8
1
62
256
6
ByLayer
370
-1
48
1
60
0
100
AcDbSpline
70
4
71
3
72
14
73
10
40
0
40
0
40
0
40
0
40
0.283961749036703
40
0.283961749036703
40
0.570285189259034
40
0.570285189259034
40
0.829451094335662
40
0.829451094335662
40
1
40
1
40
1
40
1
41
1
10
13.5026444677088
20
10.5757322656066
30
0
41
1
10
13.511321328404
20
10.6081163368593
30
0
41
1
10
13.5145538598036
20
10.6430537657897
30
0
41
1
10
13.5082063654841
20
10.7127324384448
30
0
41
1
10
13.4983590177569
20
10.7485430466727
30
0
41
1
10
13.4672145913697
20
10.811136693701
30
0
41
1
10
13.4465677486004
20
10.839371957364
30
0
41
1
10
13.4054021593366
20
10.8785043562625
30
0
41
1
10
13.3869509507641
20
10.8923552851841
30
0
41
1
10
13.3672983036603
20
10.9037749866676
30
0
0
SPLINE
5
89
100
AcDbEntity
8
1
62
256
6
ByLayer
370
-1
48
1
60
0
100
AcDbSpline
70
4
71
3
72
14
73
10
40
0
40
0
40
0
40
0
40
0.283961749036754
40
0.283961749036754
40
0.570285189259066
40
0.570285189259066
40
0.829451094335681
40
0.829451094335681
40
1
40
1
40
1
40
1
41
1
10
11.5473555322912
20
8.33272418205488
30
0
41
1
10
11.5386786715959
20
8.30034011080218
30
0
41
1
10
11.5354461401963
20
8.26540268187179
30
0
41
1
10
11.5417936345158
20
8.19572400921669
30
0
41
1
10
11.551640982243
20
8.15991340098876
30
0
41
1
10
11.5827854086303
20
8.09731975396042
30
0
41
1
10
11.6034322513995
20
8.06908449029743
30
0
41
1
10
11.6445978406633
20
8.02995209139897
30
0
41
1
10
11.6630490492359
20
8.0161011624773
30
0
41
1
10
11.6827016963397
20
8.00468146099379
30
0
0
SPLINE
5
8A
100
AcDbEntity
8
1
62
256
6
ByLayer
370
-1
48
1
60
0
100
AcDbSpline
70
4
71
3
72
16
73
12
40
0
40
0
40
0
40
0
40
0.056944617282614
40
0.056944617282614
40
0.279906644834177
40
0.279906644834177
40
0.50532196730676
40
0.50532196730676
40
0.744915047128881
40
0.744915047128881
40
1
40
1
40
1
40
1
41
1
10
13.3672983036603
20
8.00468146099382
30
0
41
1
10
13.3738895614923
20
8.00851148940907
30
0
41
1
10
13.3803366747187
20
8.01260379760961
30
0
41
1
10
13.4109636168391
20
8.03376957308166
30
0
41
1
10
13.4329276670061
20
8.05459716006916
30
0
41
1
10
13.4690076363933
20
8.10086720002721
30
0
41
1
10
13.4835125540832
20
8.12693286211518
30
0
41
1
10
13.5044368822211
20
8.18216626048797
30
0
41
1
10
13.5105822003864
20
8.21210651913756
30
0
41
1
10
13.5138529009894
20
8.27252430687696
30
0
41
1
10
13.5104405212243
20
8.30362748897608
30
0
41
1
10
13.5026444677088
20
8.33272418205485
30
0
0
SPLINE
5
8B
100
AcDbEntity
8
1
62
256
6
ByLayer
370
-1
48
1
60
0
100
AcDbSpline
70
4
71
3
72
16
73
12
40
0
40
0
40
0
40
0
40
0.0630415689508848
40
0.0630415689508848
40
0.285914332024917
40
0.285914332024917
40
0.511588305408791
40
0.511588305408791
40
0.751723061839249
40
0.751723061839249
40
1
40
1
40
1
40
1
41
1
10
10.8485
20
9.45422822383071
30
0
41
1
10
10.8485
20
9.44579456999782
30
0
41
1
10
10.8488663712513
20
9.43735125548028
30
0
41
1
10
10.8521568565848
20
9.39947443139923
30
0
41
1
10
10.859366109589
20
9.37010661506019
30
0
41
1
10
10.881675911307
20
9.31586043398741
30
0
41
1
10
10.8971365340799
20
9.29034367418691
30
0
41
1
10
10.9347771651801
20
9.24477530732892
30
0
41
1
10
10.9577709702197
20
9.22458765557755
30
0
41
1
10
11.0079603817965
20
9.19227677518305
30
0
41
1
10
11.0358212864832
20
9.18006246136241
30
0
41
1
10
11.0641346078147
20
9.17239081170027
30
0
0
SPLINE
5
8C
100
AcDbEntity
8
1
62
256
6
ByLayer
370
-1
48
1
60
0
100
AcDbSpline
70
4
71
3
72
18
73
14
40
0
40
0
40
0
40
0
40
0.212491592102403
40
0.212491592102403
40
0.386618191488472
40
0.386618191488472
40
0.562426295050836
40
0.562426295050836
40
0.715388354469454
40
0.715388354469454
40
0.918249128147145
40
0.918249128147145
40
1
40
1
40
1
40
1
41
1
10
13.9858653921853
20
9.1723908117003
30
0
41
1
10
13.9173622765154
20
9.15382951689381
30
0
41
1
10
13.8494718307194
20
9.12384641492011
30
0
41
1
10
13.7356957340066
20
9.04863170017907
30
0
41
1
10
13.6868552932207
20
9.0061475804126
30
0
41
1
10
13.6023415786699
20
8.90768227941822
30
0
41
1
10
13.5656915357822
20
8.8499919369373
30
0
41
1
10
13.5154602172057
20
8.73752431311812
30
0
41
1
10
13.4988211448524
20
8.68203750979325
30
0
41
1
10
13.4768539899321
20
8.5553658860718
30
0
41
1
10
13.4763624544235
20
8.48280906227035
30
0
41
1
10
13.4899038860688
20
8.38672165108616
30
0
41
1
10
13.4955014003797
20
8.35938377813127
30
0
41
1
10
13.5026444677088
20
8.33272418205485
30
0
0
SPLINE
5
8D
100
AcDbEntity
8
1
62
256
6
ByLayer
370
-1
48
1
60
0
100
AcDbSpline
70
4
71
3
72
16
73
12
40
0
40
0
40
0
40
0
40
0.0630415689509434
40
0.0630415689509434
40
0.285914332024984
40
0.285914332024984
40
0.511588305408896
40
0.511588305408896
40
0.751723061839395
40
0.751723061839395
40
1
40
1
40
1
40
1
41
1
10
14.2014999999999
20
9.45422822383071
30
0
41
1
10
14.2014999999999
20
9.46266187766363
30
0
41
1
10
14.2011336287486
20
9.47110519218117
30
0
41
1
10
14.1978431434151
20
9.50898201626225
30
0
41
1
10
14.190633890411
20
9.53834983260126
30
0
41
1
10
14.1683240886929
20
9.59259601367404
30
0
41
1
10
14.15286346592
20
9.61811277347454
30
0
41
1
10
14.1152228348198
20
9.6636811403325
30
0
41
1
10
14.0922290297802
20
9.6838687920839
30
0
41
1
10
14.0420396182034
20
9.71617967247838
30
0
41
1
10
14.0141787135168
20
9.72839398629901
30
0
41
1
10
13.9858653921853
20
9.73606563596115
30
0
0
SPLINE
5
8E
100
AcDbEntity
8
1
62
256
6
ByLayer
370
-1
48
1
60
0
100
AcDbSpline
70
4
71
3
72
12
73
8
40
0
40
0
40
0
40
0
40
0.422118641229762
40
0.422118641229762
40
0.843213633747193
40
0.843213633747193
40
1
40
1
40
1
40
1
41
1
10
12.4417782634827
20
8.25060187293479
30
0
41
1
10
12.3743307984488
20
8.24235863492081
30
0
41
1
10
12.3083416408563
20
8.22376561588942
30
0
41
1
10
12.1897272181067
20
8.17165914354953
30
0
41
1
10
12.1353575887119
20
8.13761886478804
30
0
41
1
10
12.0700730005586
20
8.08364526961685
30
0
41
1
10
12.0531183540982
20
8.06810984383509
30
0
41
1
10
12.037089022636
20
8.05189143618063
30
0
0
SPLINE
5
8F
100
AcDbEntity
8
1
62
256
6
ByLayer
370
-1
48
1
60
0
100
AcDbSpline
70
4
71
3
72
12
73
8
40
0
40
0
40
0
40
0
40
0.422118641229919
40
0.422118641229919
40
0.843213633747481
40
0.843213633747481
40
1
40
1
40
1
40
1
41
1
10
12.6082217365173
20
10.6578545747267
30
0
41
1
10
12.6756692015512
20
10.6660978127406
30
0
41
1
10
12.7416583591437
20
10.684690831772
30
0
41
1
10
12.8602727818934
20
10.736797304112
30
0
41
1
10
12.9146424112882
20
10.7708375828734
30
0
41
1
10
12.9799269994414
20
10.8248111780446
30
0
41
1
10
12.9968816459018
20
10.8403466038264
30
0
41
1
10
13.0129109773639
20
10.8565650114808
30
0
0
SPLINE
5
90
100
AcDbEntity
8
1
62
256
6
ByLayer
370
-1
48
1
60
0
100
AcDbSpline
70
4
71
3
72
14
73
10
40
0
40
0
40
0
40
0
40
0.282169922576126
40
0.282169922576126
40
0.566902245318037
40
0.566902245318037
40
0.824523972080393
40
0.824523972080393
40
1
40
1
40
1
40
1
41
1
10
13.0129109773639
20
8.0518914361806
30
0
41
1
10
13.0365244571323
20
8.02799942035153
30
0
41
1
10
13.0651026284027
20
8.00753726984578
30
0
41
1
10
13.1285965926973
20
7.97780062430951
30
0
41
1
10
13.1645792167898
20
7.96822506375793
30
0
41
1
10
13.2345157677034
20
7.9635884061704
30
0
41
1
10
13.269398704828
20
7.96722335565724
30
0
41
1
10
13.3248418421506
20
7.98338988020188
30
0
41
1
10
13.346892108885
20
7.99282389027994
30
0
41
1
10
13.3672983036603
20
8.00468146099382
30
0
0
SPLINE
5
91
100
AcDbEntity
8
1
62
256
6
ByLayer
370
-1
48
1
60
0
100
AcDbSpline
70
4
71
3
72
14
73
10
40
0
40
0
40
0
40
0
40
0.28216992257605
40
0.28216992257605
40
0.566902245317935
40
0.566902245317935
40
0.824523972080195
40
0.824523972080195
40
1
40
1
40
1
40
1
41
1
10
12.037089022636
20
10.8565650114808
30
0
41
1
10
12.0134755428677
20
10.8804570273099
30
0
41
1
10
11.9848973715972
20
10.9009191778156
30
0
41
1
10
11.9214034073027
20
10.9306558233519
30
0
41
1
10
11.8854207832102
20
10.9402313839035
30
0
41
1
10
11.8154842322965
20
10.9448680414911
30
0
41
1
10
11.780601295172
20
10.9412330920042
30
0
41
1
10
11.7251581578494
20
10.9250665674596
30
0
41
1
10
11.703107891115
20
10.9156325573815
30
0
41
1
10
11.6827016963397
20
10.9037749866676
30
0
0
SPLINE
5
92
100
AcDbEntity
8
1
62
256
6
ByLayer
370
-1
48
1
60
0
100
AcDbSpline
70
4
71
3
72
12
73
8
40
0
40
0
40
0
40
0
40
0.495785575728914
40
0.495785575728914
40
0.900238279923832
40
0.900238279923832
40
1
40
1
40
1
40
1
41
1
10
13.0129109773639
20
8.05189143618063
30
0
41
1
10
12.9627736049686
20
8.10262021087408
30
0
41
1
10
12.9029290117278
20
8.14710487237764
30
0
41
1
10
12.7810162887576
20
8.20906749265558
30
0
41
1
10
12.7199462341844
20
8.23056457319535
30
0
41
1
10
12.6405172566204
20
8.24606619786579
30
0
41
1
10
12.6244242804514
20
8.24862164393707
30
0
41
1
10
12.6082217365172
20
8.25060187293479
30
0
0
SPLINE
5
93
100
AcDbEntity
8
1
62
256
6
ByLayer
370
-1
48
1
60
0
100
AcDbSpline
70
4
71
3
72
12
73
8
40
0
40
0
40
0
40
0
40
0.495785575728937
40
0.495785575728937
40
0.900238279923929
40
0.900238279923929
40
1
40
1
40
1
40
1
41
1
10
12.037089022636
20
10.8565650114808
30
0
41
1
10
12.0872263950313
20
10.8058362367873
30
0
41
1
10
12.1470709882722
20
10.7613515752838
30
0
41
1
10
12.2689837112423
20
10.6993889550058
30
0
41
1
10
12.3300537658155
20
10.6778918744661
30
0
41
1
10
12.4094827433795
20
10.6623902497956
30
0
41
1
10
12.4255757195484
20
10.6598348037243
30
0
41
1
10
12.4417782634827
20
10.6578545747267
30
0
0
SPLINE
5
94
100
AcDbEntity
8
1
62
256
6
ByLayer
370
-1
48
1
60
0
100
AcDbSpline
70
4
71
3
72
18
73
14
40
0
40
0
40
0
40
0
40
0.212491592102428
40
0.212491592102428
40
0.386618191488451
40
0.386618191488451
40
0.562426295050778
40
0.562426295050778
40
0.715388354469418
40
0.715388354469418
40
0.918249128147113
40
0.918249128147113
40
1
40
1
40
1
40
1
41
1
10
11.0641346078146
20
9.73606563596115
30
0
41
1
10
11.1326377234845
20
9.75462693076764
30
0
41
1
10
11.2005281692806
20
9.78461003274134
30
0
41
1
10
11.3143042659933
20
9.85982474748238
30
0
41
1
10
11.3631447067792
20
9.90230886724882
30
0
41
1
10
11.44765842133
20
10.0007741682432
30
0
41
1
10
11.4843084642176
20
10.0584645107241
30
0
41
1
10
11.5345397827942
20
10.1709321345433
30
0
41
1
10
11.5511788551475
20
10.2264189378682
30
0
41
1
10
11.5731460100678
20
10.3530905615896
30
0
41
1
10
11.5736375455764
20
10.425647385391
30
0
41
1
10
11.5600961139311
20
10.5217347965752
30
0
41
1
10
11.5544985996202
20
10.5490726695301
30
0
41
1
10
11.5473555322912
20
10.5757322656066
30
0
0
SPLINE
5
95
100
AcDbEntity
8
1
62
256
6
ByLayer
370
-1
48
1
60
0
100
AcDbSpline
70
4
71
3
72
16
73
12
40
0
40
0
40
0
40
0
40
0.0624450082613654
40
0.0624450082613654
40
0.283207995985758
40
0.283207995985758
40
0.506745688833476
40
0.506745688833476
40
0.744607284736965
40
0.744607284736965
40
1
40
1
40
1
40
1
41
1
10
13.3672983036603
20
10.9037749866676
30
0
41
1
10
13.3600063168154
20
10.9080121926048
30
0
41
1
10
13.3525219054686
20
10.9119374757764
30
0
41
1
10
13.3181193722799
20
10.9281223103667
30
0
41
1
10
13.2891051359831
20
10.9366438124593
30
0
41
1
10
13.2309936615192
20
10.9446082254122
30
0
41
1
10
13.2011635434263
20
10.9440605450098
30
0
41
1
10
13.1428527076446
20
10.9344096505488
30
0
41
1
10
13.1138454989234
20
10.9246711564345
30
0
41
1
10
13.0596753579989
20
10.8969895934652
30
0
41
1
10
13.0342846144056
20
10.8781907642091
30
0
41
1
10
13.0129109773639
20
10.8565650114808
30
0
0
SPLINE
5
96
100
AcDbEntity
8
1
62
256
6
ByLayer
370
-1
48
1
60
0
100
AcDbSpline
70
4
71
3
72
14
73
10
40
0
40
0
40
0
40
0
40
0.283961457856598
40
0.283961457856598
40
0.570284934646651
40
0.570284934646651
40
0.829450869060461
40
0.829450869060461
40
1
40
1
40
1
40
1
41
1
10
13.9858653921853
20
9.17239081170027
30
0
41
1
10
14.018224876365
20
9.18115879137201
30
0
41
1
10
14.0500567512123
20
9.19591691562158
30
0
41
1
10
14.1071137085737
20
9.23641267987708
30
0
41
1
10
14.1331290779121
20
9.26291873052094
30
0
41
1
10
14.171601824522
20
9.32129499761461
30
0
41
1
10
14.1856415227813
20
9.35333262122035
30
0
41
1
10
14.198794268021
20
9.4085862129524
30
0
41
1
10
14.2014999999999
20
9.43149856303515
30
0
41
1
10
14.2014999999999
20
9.45422822383071
30
0
0
LINE
5
4C
100
AcDbEntity
8
80
62
256
6
ByLayer
370
-1
48
1
60
0
100
AcDbLine
10
0
20
0
30
0
11
-5
21
0
31
0
39
0
210
0
220
0
230
1
0
LINE
5
4D
100
AcDbEntity
8
81
62
256
6
ByLayer
370
-1
48
1
60
0
100
AcDbLine
10
21.25625
20
9.9125
30
0
11
31.25625
21
9.9125
31
0
39
0
210
0
220
0
230
1
0
LINE
5
4E
100
AcDbEntity
8
1
62
256
6
ByLayer
370
-1
48
1
60
0
100
AcDbLine
10
0
20
12.4375
30
0
11
0
21
-12.436296
31
0
39
0
210
0
220
0
230
1
0
LINE
5
50
100
AcDbEntity
8
1
62
256
6
ByLayer
370
-1
48
1
60
0
100
AcDbLine
10
18.287478
20
6.837529
30
0
11
18.426303
21
7.028605
31
0
39
0
210
0
220
0
230
1
0
LINE
5
51
100
AcDbEntity
8
1
62
256
6
ByLayer
370
-1
48
1
60
0
100
AcDbLine
10
4.597018
20
16.034518
30
0
11
1
21
12.4375
31
0
39
0
210
0
220
0
230
1
0
LINE
5
52
100
AcDbEntity
8
1
62
256
6
ByLayer
370
-1
48
1
60
0
100
AcDbLine
10
0
20
-12.436296
30
0
11
4.284225
21
-12.436296
31
0
39
0
210
0
220
0
230
1
0
LINE
5
53
100
AcDbEntity
8
1
62
256
6
ByLayer
370
-1
48
1
60
0
100
AcDbLine
10
1
20
12.4375
30
0
11
0
21
12.4375
31
0
39
0
210
0
220
0
230
1
0
LINE
5
54
100
AcDbEntity
8
1
62
256
6
ByLayer
370
-1
48
1
60
0
100
AcDbLine
10
11.295
20
2.679228
30
0
11
11.295
21
3.244813
31
0
39
0
210
0
220
0
230
1
0
LINE
5
55
100
AcDbEntity
8
1
62
256
6
ByLayer
370
-1
48
1
60
0
100
AcDbLine
10
18.843666
20
7.603056
30
0
11
18.426303
21
7.028605
31
0
39
0
210
0
220
0
230
1
0
LINE
5
56
100
AcDbEntity
8
1
62
256
6
ByLayer
370
-1
48
1
60
0
100
AcDbLine
10
4.284225
20
-12.436296
30
0
11
18.287478
21
6.837529
31
0
39
0
210
0
220
0
230
1
0
LINE
5
57
100
AcDbEntity
8
1
62
256
6
ByLayer
370
-1
48
1
60
0
100
AcDbLine
10
4.597018
20
16.034518
30
0
11
7.762467
21
16.034518
31
0
39
0
210
0
220
0
230
1
0
LINE
5
58
100
AcDbEntity
8
1
62
256
6
ByLayer
370
-1
48
1
60
0
100
AcDbLine
10
18.287478
20
6.837529
30
0
11
17.902612
21
7.059732
31
0
39
0
210
0
220
0
230
1
0
LINE
5
59
100
AcDbEntity
8
1
62
256
6
ByLayer
370
-1
48
1
60
0
100
AcDbLine
10
11.529889
20
2.679228
30
0
11
11.295
21
2.679228
31
0
39
0
210
0
220
0
230
1
0
LINE
5
5A
100
AcDbEntity
8
1
62
256
6
ByLayer
370
-1
48
1
60
0
100
AcDbLine
10
18.426303
20
7.028605
30
0
11
18.137492
21
7.19535
31
0
39
0
210
0
220
0
230
1
0
LINE
5
5B
100
AcDbEntity
8
1
62
256
6
ByLayer
370
-1
48
1
60
0
100
AcDbLine
10
11.529889
20
2.679228
30
0
11
11.529889
21
3.380431
31
0
39
0
210
0
220
0
230
1
0
LINE
5
5C
100
AcDbEntity
8
SK1
62
256
6
ByLayer
370
-1
48
1
60
0
100
AcDbLine
10
0
20
12.4375
30
0
11
0
21
-12.436296
31
0
39
0
210
0
220
0
230
1
0
LINE
5
5E
100
AcDbEntity
8
SK1
62
256
6
ByLayer
370
-1
48
1
60
0
100
AcDbLine
10
-0.15
20
12.4375
30
0
11
-130.09375
21
12.4375
31
0
39
0
210
0
220
0
230
1
0
LINE
5
5F
100
AcDbEntity
8
1
62
256
6
ByLayer
370
-1
48
1
60
0
100
AcDbLine
10
7.7625
20
16.327872
30
0
11
7.7625
21
2.580585
31
0
39
0
210
0
220
0
230
1
0
LINE
5
60
100
AcDbEntity
8
1
62
256
6
ByLayer
370
-1
48
1
60
0
100
AcDbLine
10
8.9535
20
1.89296
30
0
11
20.859
21
8.766604
31
0
39
0
210
0
220
0
230
1
0
LINE
5
61
100
AcDbEntity
8
SK1
62
256
6
ByLayer
370
-1
48
1
60
0
100
AcDbLine
10
-130.09375
20
-12.4375
30
0
11
-0.15
21
-12.4375
31
0
39
0
210
0
220
0
230
1
0
LINE
5
62
100
AcDbEntity
8
SK1
62
256
6
ByLayer
370
-1
48
1
60
0
100
AcDbLine
10
-0.15
20
-12.43695
30
0
11
0
21
-12.436296
31
0
39
0
210
0
220
0
230
1
0
LINE
5
63
100
AcDbEntity
8
SK1
62
256
6
ByLayer
370
-1
48
1
60
0
100
AcDbLine
10
-130.09375
20
12.4375
30
0
11
-130.09375
21
-12.4375
31
0
39
0
210
0
220
0
230
1
0
LINE
5
64
100
AcDbEntity
8
SK1
62
256
6
ByLayer
370
-1
48
1
60
0
100
AcDbLine
10
-0.15
20
12.4375
30
0
11
-0.15
21
-12.4375
31
0
39
0
210
0
220
0
230
1
0
LINE
5
65
100
AcDbEntity
8
SK1
62
256
6
ByLayer
370
-1
48
1
60
0
100
AcDbLine
10
0
20
12.4375
30
0
11
-0.15
21
12.4375
31
0
39
0
210
0
220
0
230
1
0
LINE
5
66
100
AcDbEntity
8
1
62
256
6
ByLayer
370
-1
48
1
60
0
100
AcDbLine
10
20.859
20
10.141852
30
0
11
8.9535
21
17.015496
31
0
39
0
210
0
220
0
230
1
0
LINE
5
67
100
AcDbEntity
8
2
62
256
6
ByLayer
370
-1
48
1
60
1
100
AcDbLine
10
21.25625
20
9.9125
30
0
11
21.257116
21
9.912
31
0
39
0
210
0
220
0
230
1
0
MTEXT
5
97
100
AcDbEntity
8
SK6
62
256
6
ByLayer
370
-1
48
1
60
0
100
AcDbMText
10
-78.259477
20
-20.912993
30
0
210
0
220
0
230
1
1
\W00.764;\fsimplex.shx,bigfont.shx;STTCR 2525M 16 
40
3.5
41
0
44
1.084337
50
0
71
7
72
5
7
DEFAULT
0
DIMENSION
5
CA
100
AcDbEntity
8
2
62
256
6
ByLayer
370
-3
48
1
60
0
100
AcDbDimension
2
DimnDraft3D1
10
8.517521
20
17.267208
30
0
11
8.259048
21
19.682209
31
0
70
34
71
5
72
1
41
1
210
0
220
0
230
1
3
Standard
100
AcDb2LineAngularDimension
13
21.25625
23
12.247978
33
0
14
21.25625
24
24.621917
34
0
15
18.261299
25
11.641636
35
0
16
12.651542
26
24.816292
36
0
40
0
0
DIMENSION
5
DF
100
AcDbEntity
8
SK2
62
256
6
ByLayer
370
-3
48
1
60
0
100
AcDbDimension
2
DimnDraft3D2
10
-139.84375
20
12.4375
30
0
11
-139.84375
21
-2.628947
31
0
70
32
71
5
72
1
41
1
210
0
220
0
230
1
3
Standard
100
AcDbAlignedDimension
13
-132.09375
23
-12.4375
33
0
14
-132.09375
24
12.4375
34
0
50
90
100
AcDbRotatedDimension
1001
ACAD
1000
DSTYLE
1002
{
1070
    74
1070
     0
1070
   279
1070
     0
1070
   172
1070
     1
1070
   173
1070
     1
1070
   340
1005
98
1070
    77
1070
     1
1070
    73
1070
     0
1070
   171
1070
     3
1070
   274
1070
     4
1070
   177
1070
     2
1070
   176
1070
     2
1070
   178
1070
     7
1070
    78
1070
     8
1070
    41
1041
3.175
1070
   147
1041
2.25
1070
    42
1041
2.0
1070
    44
1041
2.0
1070
   140
1041
4.5
1070
   343
1005
CB
1070
   344
1005
CB
1002
}
0
DIMENSION
5
ED
100
AcDbEntity
8
2
62
256
6
ByLayer
370
-3
48
1
60
0
100
AcDbDimension
2
DimnDraft3D3
10
48.50625
20
9.9125
30
0
11
48.50625
21
-3.891447
31
0
70
32
71
5
72
1
41
1
210
0
220
0
230
1
3
Standard
100
AcDbAlignedDimension
13
2
23
-12.4375
33
0
14
23.25625
24
9.9125
34
0
50
90
100
AcDbRotatedDimension
1001
ACAD
1000
DSTYLE
1002
{
1070
    74
1070
     0
1070
   279
1070
     0
1070
   172
1070
     1
1070
   173
1070
     1
1070
   340
1005
98
1070
    77
1070
     1
1070
    73
1070
     0
1070
   171
1070
     3
1070
   274
1070
     4
1070
   177
1070
     2
1070
   176
1070
     2
1070
   178
1070
     7
1070
    78
1070
     8
1070
    41
1041
3.175
1070
   147
1041
2.25
1070
    42
1041
2.0
1070
    44
1041
2.0
1070
   140
1041
4.5
1070
   343
1005
CB
1070
   344
1005
CB
1002
}
0
DIMENSION
5
FB
100
AcDbEntity
8
SK2
62
256
6
ByLayer
370
-3
48
1
60
0
100
AcDbDimension
2
DimnDraft3D4
10
-130.09375
20
29.997978
30
0
11
-58.137171
21
29.997978
31
0
70
32
71
5
72
1
41
1
210
0
220
0
230
1
3
Standard
100
AcDbAlignedDimension
13
21.25625
23
12.247978
33
0
14
-130.09375
24
14.4375
34
0
50
0
100
AcDbRotatedDimension
1001
ACAD
1000
DSTYLE
1002
{
1070
   279
1070
     0
1070
   172
1070
     1
1070
   173
1070
     1
1070
   340
1005
98
1070
    77
1070
     1
1070
    73
1070
     0
1070
   171
1070
     3
1070
   274
1070
     4
1070
   177
1070
     2
1070
   176
1070
     2
1070
   178
1070
     7
1070
    78
1070
     8
1070
    41
1041
3.175
1070
   147
1041
2.25
1070
    42
1041
2.0
1070
    44
1041
2.0
1070
   140
1041
4.5
1070
   343
1005
CB
1070
   344
1005
CB
1002
}
0
ENDSEC
0
SECTION
2
OBJECTS
0
DICTIONARY
5
12b
330
0
100
AcDbDictionary
280
0
281
1
3
ACAD_GROUP
350
12c
3
ACAD_MLINESTYLE
350
12d
0
DICTIONARY
5
12c
330
0
100
AcDbDictionary
280
0
281
1
0
DICTIONARY
5
12d
330
0
100
AcDbDictionary
280
0
281
1
3
Standard
350
18
0
MLINESTYLE
5
18
330
12d
100
AcDbMlineStyle
2
Standard
70
0
3

62
256
51
90
52
90
71
2
49
-0.5
62
256
6
ByLayer
49
0.5
62
256
6
ByLayer
0
RASTERVARIABLES
5
11a
330

100
AcDbRasterVariables
90
0
70
1
71
1
72
1
0
ENDSEC
0
EOF
