0
SECTION
2
HEADER
9
$ACADVER
1
AC1015
9
$DWGCODEPAGE
3
ANSI_1252
9
$HANDSEED
5
13f
9
$ANGBASE
50
0
9
$ANGDIR
70
0
9
$ATTMODE
70
1
9
$AUNITS
70
0
9
$AUPREC
70
0
9
$CECOLOR
62
256
9
$CELTSCALE
40
1
9
$CELTYPE
6
ByLayer
9
$CELWEIGHT
370
-1
9
$CLAYER
8
0
9
$CMLJUST
70
0
9
$CMLSCALE
40
1
9
$CMLSTYLE
2
Standard
9
$DIMSTYLE
2
Standard
9
$TEXTSIZE
40
0.2
9
$TEXTSTYLE
7
Standard
9
$LUNITS
70
2
9
$LUPREC
70
4
9
$EXTNAMES
290
1
9
$INSUNITS
70
4
9
$LTSCALE
40
1
9
$LWDISPLAY
290
0
9
$PDMODE
70
0
9
$PDSIZE
40
0
9
$PLINEGEN
70
0
0
ENDSEC
0
SECTION
2
CLASSES
0
CLASS
1
RASTERVARIABLES
2
AcDbRasterVariables
3
ISM
90
0
280
0
281
0
0
ENDSEC
0
SECTION
2
TABLES
0
TABLE
2
VPORT
5
135
100
AcDbSymbolTable
0
VPORT
5
1
100
AcDbSymbolTableRecord
100
AcDbViewportTableRecord
2
*Active
70
0
10
0
20
0
11
1
21
1
12
-1
22
1
13
0
23
0
14
0.5
24
0.5
15
10
25
10
16
0
26
0
36
1
17
0
27
0
37
0
0
ENDTAB
0
TABLE
2
LTYPE
5
136
100
AcDbSymbolTable
0
LTYPE
5
14
100
AcDbSymbolTableRecord
100
AcDbLinetypeTableRecord
70
0
2
ByBlock
3

72
65
73
0
40
0
0
LTYPE
5
15
100
AcDbSymbolTableRecord
100
AcDbLinetypeTableRecord
70
0
2
ByLayer
3

72
65
73
0
40
0
0
LTYPE
5
16
100
AcDbSymbolTableRecord
100
AcDbLinetypeTableRecord
70
0
2
CONTINUOUS
3
Solid line
72
65
73
0
40
0
0
LTYPE
5
3B
100
AcDbSymbolTableRecord
100
AcDbLinetypeTableRecord
70
0
2
DASHED
3
__ __ __ __ __ __ __ __ __
72
65
73
2
40
25.72
49
12.86
74
0
49
-12.86
74
0
0
LTYPE
5
3C
100
AcDbSymbolTableRecord
100
AcDbLinetypeTableRecord
70
0
2
HIDDEN
3
_ _ _ _ _ _ _ _ _ _ _ _ _ _ _
72
65
73
2
40
0.5
49
0.25
74
0
49
-0.25
74
0
0
LTYPE
5
3D
100
AcDbSymbolTableRecord
100
AcDbLinetypeTableRecord
70
0
2
PHANTOM
3
____ _ _ ____ _ _ _____ _ _ ____
72
65
73
6
40
50.5
49
18
74
0
49
-6.5
74
0
49
6.5
74
0
49
-6.5
74
0
49
6.5
74
0
49
-6.5
74
0
0
LTYPE
5
3E
100
AcDbSymbolTableRecord
100
AcDbLinetypeTableRecord
70
0
2
CENTER
3
____ _ ____ _ ____ _ ____
72
65
73
4
40
47.5
49
22
74
0
49
-8.5
74
0
49
8.5
74
0
49
-8.5
74
0
0
LTYPE
5
3F
100
AcDbSymbolTableRecord
100
AcDbLinetypeTableRecord
70
0
2
DOT
3
.........................
72
65
73
2
40
10
49
0
74
0
49
-10
74
0
0
LTYPE
5
40
100
AcDbSymbolTableRecord
100
AcDbLinetypeTableRecord
70
0
2
DASHDOT
3
_._._._._._._._._._._._._._._._.
72
65
73
4
40
70
49
31
74
0
49
-13
74
0
49
13
74
0
49
-13
74
0
0
ENDTAB
0
TABLE
2
LAYER
5
137
100
AcDbSymbolTable
0
LAYER
5
10
100
AcDbSymbolTableRecord
100
AcDbLayerTableRecord
2
0
70
0
62
7
6
CONTINUOUS
290
1
370
-3
390
0
0
LAYER
5
44
100
AcDbSymbolTableRecord
100
AcDbLayerTableRecord
2
2
70
0
62
7
6
CONTINUOUS
290
1
370
-3
390
0
0
LAYER
5
46
100
AcDbSymbolTableRecord
100
AcDbLayerTableRecord
2
80
70
0
62
-6
6
CONTINUOUS
290
1
370
-3
390
0
0
LAYER
5
4B
100
AcDbSymbolTableRecord
100
AcDbLayerTableRecord
2
81
70
0
62
-3
6
CONTINUOUS
290
1
370
-3
390
0
0
LAYER
5
4F
100
AcDbSymbolTableRecord
100
AcDbLayerTableRecord
2
1
70
0
62
4
6
CONTINUOUS
290
1
370
-3
390
0
0
LAYER
5
122
100
AcDbSymbolTableRecord
100
AcDbLayerTableRecord
2
SK2
70
0
62
7
6
CONTINUOUS
290
1
370
-3
390
0
0
LAYER
5
123
100
AcDbSymbolTableRecord
100
AcDbLayerTableRecord
2
SK1
70
0
62
4
6
CONTINUOUS
290
1
370
-3
390
0
0
LAYER
5
124
100
AcDbSymbolTableRecord
100
AcDbLayerTableRecord
2
SK6
70
0
62
5
6
CONTINUOUS
290
1
370
-3
390
0
0
ENDTAB
0
TABLE
2
STYLE
5
138
100
AcDbSymbolTable
0
STYLE
5
11
100
AcDbSymbolTableRecord
100
AcDbTextStyleTableRecord
2
Standard
3
txt
70
0
71
0
40
0
41
1
42
0
50
0
0
STYLE
5
9F
100
AcDbSymbolTableRecord
100
AcDbTextStyleTableRecord
2
DEFAULT
3
simplex.shx
70
0
71
0
40
0
41
1
42
0
50
0
0
STYLE
5
C2
100
AcDbSymbolTableRecord
100
AcDbTextStyleTableRecord
2
DWGDirectTextStyle
3
SIMPLEX
70
0
71
0
40
0
41
1
42
0
50
0
0
ENDTAB
0
TABLE
2
DIMSTYLE
5
139
100
AcDbSymbolTable
100
AcDbDimStyleTable
0
DIMSTYLE
105
27
100
AcDbSymbolTableRecord
100
AcDbDimStyleTableRecord
2
Standard
70
0
3
<>
41
0.18
42
0.0625
44
0.18
140
0.18
147
0.09
73
0
74
0
77
1
271
2
275
0
278
52
280
0
340
11
0
ENDTAB
0
TABLE
2
VIEW
5
13a
100
AcDbSymbolTable
0
ENDTAB
0
TABLE
2
UCS
5
13b
100
AcDbSymbolTable
0
ENDTAB
0
TABLE
2
APPID
5
13c
100
AcDbSymbolTable
0
APPID
5
12
100
AcDbSymbolTableRecord
100
AcDbRegAppTableRecord
2
ACAD
70
0
0
ENDTAB
0
TABLE
2
BLOCK_RECORD
5
13d
100
AcDbSymbolTable
0
BLOCK_RECORD
5
1F
100
AcDbSymbolTableRecord
100
AcDbBlockTableRecord
2
*Model_Space
340
0
70
0
0
BLOCK_RECORD
5
1B
100
AcDbSymbolTableRecord
100
AcDbBlockTableRecord
2
*Paper_Space
340
0
70
0
0
BLOCK_RECORD
5
23
100
AcDbSymbolTableRecord
100
AcDbBlockTableRecord
2
*Paper_Space0
340
0
70
0
0
BLOCK_RECORD
5
C4
100
AcDbSymbolTableRecord
100
AcDbBlockTableRecord
2
DimnDraft3D1
340
0
70
0
0
BLOCK_RECORD
5
D2
100
AcDbSymbolTableRecord
100
AcDbBlockTableRecord
2
_CLOSED
340
0
70
0
0
BLOCK_RECORD
5
D9
100
AcDbSymbolTableRecord
100
AcDbBlockTableRecord
2
DimnDraft3D2
340
0
70
0
0
BLOCK_RECORD
5
E7
100
AcDbSymbolTableRecord
100
AcDbBlockTableRecord
2
DimnDraft3D3
340
0
70
0
0
BLOCK_RECORD
5
F5
100
AcDbSymbolTableRecord
100
AcDbBlockTableRecord
2
DimnDraft3D4
340
0
70
0
0
ENDTAB
0
ENDSEC
0
SECTION
2
BLOCKS
0
BLOCK
5
20
100
AcDbEntity
8
0
100
AcDbBlockBegin
2
*Model_Space
70
0
10
0
20
0
30
0
3
*Model_Space
0
ENDBLK
5
21
100
AcDbEntity
8
0
100
AcDbBlockEnd
0
BLOCK
5
1C
100
AcDbEntity
8
0
100
AcDbBlockBegin
2
*Paper_Space
70
0
10
0
20
0
30
0
3
*Paper_Space
0
ENDBLK
5
1D
100
AcDbEntity
8
0
100
AcDbBlockEnd
0
BLOCK
5
24
100
AcDbEntity
8
0
100
AcDbBlockBegin
2
*Paper_Space0
70
0
10
0
20
0
30
0
3
*Paper_Space0
0
ENDBLK
5
25
100
AcDbEntity
8
0
100
AcDbBlockEnd
0
BLOCK
5
CF
100
AcDbEntity
8
0
100
AcDbBlockBegin
2
DimnDraft3D1
70
0
10
0
20
0
30
0
3
DimnDraft3D1
0
MTEXT
5
C5
100
AcDbEntity
8
2
62
256
6
ByLayer
370
-1
48
1
60
0
100
AcDbMText
10
1.428151
20
16.604735
30
0
210
0
220
0
230
1
1
\W01.000;\fsimplex.shx,bigfont.shx;91%%d0' 
40
4.5
41
0
44
1.084337
50
45.5000000000001
71
7
72
5
7
DEFAULT
0
LINE
5
C6
100
AcDbEntity
8
2
62
256
6
ByLayer
370
-1
48
1
60
0
100
AcDbLine
10
14.404414
20
12.4125
30
0
11
14.404414
21
24.88511
31
0
39
0
210
0
220
0
230
1
0
LINE
5
C7
100
AcDbEntity
8
2
62
256
6
ByLayer
370
-1
48
1
60
0
100
AcDbLine
10
11.001069
20
10.360082
30
0
11
-0.059005
21
10.167028
31
0
39
0
210
0
220
0
230
1
0
ARC
5
C8
100
AcDbEntity
8
2
62
256
6
ByLayer
370
-1
48
1
60
0
100
AcDbCircle
39
0
10
14.404414
20
10.419488
30
0
40
12.4656222517499
210
0
220
0
230
1
100
AcDbArc
50
90
51
181
0
LINE
5
C9
100
AcDbEntity
8
2
62
256
6
ByLayer
370
-1
48
1
60
0
100
AcDbLine
10
14.404414
20
22.88511
30
0
11
11.262237
21
22.267
31
0
39
0
210
0
220
0
230
1
0
LINE
5
CA
100
AcDbEntity
8
2
62
256
6
ByLayer
370
-1
48
1
60
0
100
AcDbLine
10
14.404414
20
22.88511
30
0
11
11.209322
21
23.101317
31
0
39
0
210
0
220
0
230
1
0
LINE
5
CB
100
AcDbEntity
8
2
62
256
6
ByLayer
370
-1
48
1
60
0
100
AcDbLine
10
11.262237
20
22.267
30
0
11
11.209322
21
23.101317
31
0
39
0
210
0
220
0
230
1
0
LINE
5
CC
100
AcDbEntity
8
2
62
256
6
ByLayer
370
-1
48
1
60
0
100
AcDbLine
10
1.94069
20
10.201933
30
0
11
1.668754
21
13.392761
31
0
39
0
210
0
220
0
230
1
0
LINE
5
CD
100
AcDbEntity
8
2
62
256
6
ByLayer
370
-1
48
1
60
0
100
AcDbLine
10
1.94069
20
10.201933
30
0
11
2.503868
21
13.354422
31
0
39
0
210
0
220
0
230
1
0
LINE
5
CE
100
AcDbEntity
8
2
62
256
6
ByLayer
370
-1
48
1
60
0
100
AcDbLine
10
1.668754
20
13.392761
30
0
11
2.503868
21
13.354422
31
0
39
0
210
0
220
0
230
1
0
ENDBLK
5
D0
100
AcDbEntity
8
0
100
AcDbBlockEnd
0
BLOCK
5
D3
100
AcDbEntity
8
0
100
AcDbBlockBegin
2
_CLOSED
70
0
10
0
20
0
30
0
3
_CLOSED
0
LINE
5
D5
100
AcDbEntity
8
0
62
256
6
ByLayer
370
-2
48
1
60
0
100
AcDbLine
10
-1
20
0.166667
30
0
11
0
21
0
31
0
39
0
210
0
220
0
230
1
0
LINE
5
D6
100
AcDbEntity
8
0
62
256
6
ByLayer
370
-2
48
1
60
0
100
AcDbLine
10
0
20
0
30
0
11
-1
21
-0.166667
31
0
39
0
210
0
220
0
230
1
0
LINE
5
D7
100
AcDbEntity
8
0
62
256
6
ByLayer
370
-2
48
1
60
0
100
AcDbLine
10
-1
20
0.166667
30
0
11
-1
21
-0.166667
31
0
39
0
210
0
220
0
230
1
0
LINE
5
D8
100
AcDbEntity
8
0
62
256
6
ByLayer
370
-2
48
1
60
0
100
AcDbLine
10
0
20
0
30
0
11
-1
21
0
31
0
39
0
210
0
220
0
230
1
0
ENDBLK
5
D4
100
AcDbEntity
8
0
100
AcDbBlockEnd
0
BLOCK
5
E4
100
AcDbEntity
8
0
100
AcDbBlockBegin
2
DimnDraft3D2
70
0
10
0
20
0
30
0
3
DimnDraft3D2
0
MTEXT
5
DA
100
AcDbEntity
8
SK2
62
256
6
ByLayer
370
-1
48
1
60
0
100
AcDbMText
10
-77.820586
20
-0.941447
30
0
210
0
220
0
230
1
1
\W01.000;\fsimplex.shx,bigfont.shx;12 
40
4.5
41
0
44
1.084337
50
90
71
7
72
5
7
DEFAULT
0
LINE
5
DB
100
AcDbEntity
8
SK2
62
256
6
ByLayer
370
-1
48
1
60
0
100
AcDbLine
10
-68.945586
20
-5.9375
30
0
11
-78.695586
21
-5.9375
31
0
39
0
210
0
220
0
230
1
0
LINE
5
DC
100
AcDbEntity
8
SK2
62
256
6
ByLayer
370
-1
48
1
60
0
100
AcDbLine
10
-68.945586
20
5.9375
30
0
11
-78.695586
21
5.9375
31
0
39
0
210
0
220
0
230
1
0
LINE
5
DD
100
AcDbEntity
8
SK2
62
256
6
ByLayer
370
-1
48
1
60
0
100
AcDbLine
10
-76.695586
20
-17.1875
30
0
11
-76.695586
21
17.1875
31
0
39
0
210
0
220
0
230
1
0
LINE
5
DE
100
AcDbEntity
8
SK2
62
256
6
ByLayer
370
-1
48
1
60
0
100
AcDbLine
10
-76.695586
20
-5.9375
30
0
11
-76.27759
21
-9.112498
31
0
39
0
210
0
220
0
230
1
0
LINE
5
DF
100
AcDbEntity
8
SK2
62
256
6
ByLayer
370
-1
48
1
60
0
100
AcDbLine
10
-76.695586
20
-5.9375
30
0
11
-77.113583
21
-9.112502
31
0
39
0
210
0
220
0
230
1
0
LINE
5
E0
100
AcDbEntity
8
SK2
62
256
6
ByLayer
370
-1
48
1
60
0
100
AcDbLine
10
-76.27759
20
-9.112498
30
0
11
-77.113583
21
-9.112502
31
0
39
0
210
0
220
0
230
1
0
LINE
5
E1
100
AcDbEntity
8
SK2
62
256
6
ByLayer
370
-1
48
1
60
0
100
AcDbLine
10
-76.695586
20
5.9375
30
0
11
-77.113583
21
9.112498
31
0
39
0
210
0
220
0
230
1
0
LINE
5
E2
100
AcDbEntity
8
SK2
62
256
6
ByLayer
370
-1
48
1
60
0
100
AcDbLine
10
-76.695586
20
5.9375
30
0
11
-76.27759
21
9.112502
31
0
39
0
210
0
220
0
230
1
0
LINE
5
E3
100
AcDbEntity
8
SK2
62
256
6
ByLayer
370
-1
48
1
60
0
100
AcDbLine
10
-77.113583
20
9.112498
30
0
11
-76.27759
21
9.112502
31
0
39
0
210
0
220
0
230
1
0
ENDBLK
5
E5
100
AcDbEntity
8
0
100
AcDbBlockEnd
0
BLOCK
5
F2
100
AcDbEntity
8
0
100
AcDbBlockBegin
2
DimnDraft3D3
70
0
10
0
20
0
30
0
3
DimnDraft3D3
0
MTEXT
5
E8
100
AcDbEntity
8
2
62
256
6
ByLayer
370
-1
48
1
60
0
100
AcDbMText
10
40.529414
20
1.296053
30
0
210
0
220
0
230
1
1
\W01.000;\fsimplex.shx,bigfont.shx;16 
40
4.5
41
0
44
1.084337
50
90
71
7
72
5
7
DEFAULT
0
LINE
5
E9
100
AcDbEntity
8
2
62
256
6
ByLayer
370
-1
48
1
60
0
100
AcDbLine
10
2
20
-5.9375
30
0
11
43.654414
21
-5.9375
31
0
39
0
210
0
220
0
230
1
0
LINE
5
EA
100
AcDbEntity
8
2
62
256
6
ByLayer
370
-1
48
1
60
0
100
AcDbLine
10
16.404414
20
10.4125
30
0
11
43.654414
21
10.4125
31
0
39
0
210
0
220
0
230
1
0
LINE
5
EB
100
AcDbEntity
8
2
62
256
6
ByLayer
370
-1
48
1
60
0
100
AcDbLine
10
41.654414
20
-5.9375
30
0
11
41.654414
21
10.4125
31
0
39
0
210
0
220
0
230
1
0
LINE
5
EC
100
AcDbEntity
8
2
62
256
6
ByLayer
370
-1
48
1
60
0
100
AcDbLine
10
41.654414
20
-5.9375
30
0
11
41.236417
21
-2.762502
31
0
39
0
210
0
220
0
230
1
0
LINE
5
ED
100
AcDbEntity
8
2
62
256
6
ByLayer
370
-1
48
1
60
0
100
AcDbLine
10
41.654414
20
-5.9375
30
0
11
42.07241
21
-2.762498
31
0
39
0
210
0
220
0
230
1
0
LINE
5
EE
100
AcDbEntity
8
2
62
256
6
ByLayer
370
-1
48
1
60
0
100
AcDbLine
10
41.236417
20
-2.762502
30
0
11
42.07241
21
-2.762498
31
0
39
0
210
0
220
0
230
1
0
LINE
5
EF
100
AcDbEntity
8
2
62
256
6
ByLayer
370
-1
48
1
60
0
100
AcDbLine
10
41.654414
20
10.4125
30
0
11
42.07241
21
7.237502
31
0
39
0
210
0
220
0
230
1
0
LINE
5
F0
100
AcDbEntity
8
2
62
256
6
ByLayer
370
-1
48
1
60
0
100
AcDbLine
10
41.654414
20
10.4125
30
0
11
41.236417
21
7.237498
31
0
39
0
210
0
220
0
230
1
0
LINE
5
F1
100
AcDbEntity
8
2
62
256
6
ByLayer
370
-1
48
1
60
0
100
AcDbLine
10
42.07241
20
7.237502
30
0
11
41.236417
21
7.237498
31
0
39
0
210
0
220
0
230
1
0
ENDBLK
5
F3
100
AcDbEntity
8
0
100
AcDbBlockEnd
0
BLOCK
5
100
100
AcDbEntity
8
0
100
AcDbBlockBegin
2
DimnDraft3D4
70
0
10
0
20
0
30
0
3
DimnDraft3D4
0
MTEXT
5
F6
100
AcDbEntity
8
SK2
62
256
6
ByLayer
370
-1
48
1
60
0
100
AcDbMText
10
-27.774534
20
31.2875
30
0
210
0
220
0
230
1
1
\W01.000;\fsimplex.shx,bigfont.shx;80 
40
4.5
41
0
44
1.084337
50
0
71
7
72
5
7
DEFAULT
0
LINE
5
F7
100
AcDbEntity
8
SK2
62
256
6
ByLayer
370
-1
48
1
60
0
100
AcDbLine
10
14.404414
20
12.4125
30
0
11
14.404414
21
32.1625
31
0
39
0
210
0
220
0
230
1
0
LINE
5
F8
100
AcDbEntity
8
SK2
62
256
6
ByLayer
370
-1
48
1
60
0
100
AcDbLine
10
-66.945586
20
7.9375
30
0
11
-66.945586
21
32.1625
31
0
39
0
210
0
220
0
230
1
0
LINE
5
F9
100
AcDbEntity
8
SK2
62
256
6
ByLayer
370
-1
48
1
60
0
100
AcDbLine
10
14.404414
20
30.1625
30
0
11
-66.945586
21
30.1625
31
0
39
0
210
0
220
0
230
1
0
LINE
5
FA
100
AcDbEntity
8
SK2
62
256
6
ByLayer
370
-1
48
1
60
0
100
AcDbLine
10
14.404414
20
30.1625
30
0
11
11.229415
21
29.744503
31
0
39
0
210
0
220
0
230
1
0
LINE
5
FB
100
AcDbEntity
8
SK2
62
256
6
ByLayer
370
-1
48
1
60
0
100
AcDbLine
10
14.404414
20
30.1625
30
0
11
11.229412
21
30.580497
31
0
39
0
210
0
220
0
230
1
0
LINE
5
FC
100
AcDbEntity
8
SK2
62
256
6
ByLayer
370
-1
48
1
60
0
100
AcDbLine
10
11.229415
20
29.744503
30
0
11
11.229412
21
30.580497
31
0
39
0
210
0
220
0
230
1
0
LINE
5
FD
100
AcDbEntity
8
SK2
62
256
6
ByLayer
370
-1
48
1
60
0
100
AcDbLine
10
-66.945586
20
30.1625
30
0
11
-63.770588
21
30.580497
31
0
39
0
210
0
220
0
230
1
0
LINE
5
FE
100
AcDbEntity
8
SK2
62
256
6
ByLayer
370
-1
48
1
60
0
100
AcDbLine
10
-66.945586
20
30.1625
30
0
11
-63.770585
21
29.744503
31
0
39
0
210
0
220
0
230
1
0
LINE
5
FF
100
AcDbEntity
8
SK2
62
256
6
ByLayer
370
-1
48
1
60
0
100
AcDbLine
10
-63.770588
20
30.580497
30
0
11
-63.770585
21
29.744503
31
0
39
0
210
0
220
0
230
1
0
ENDBLK
5
101
100
AcDbEntity
8
0
100
AcDbBlockEnd
0
ENDSEC
0
SECTION
2
ENTITIES
0
ARC
5
6D
100
AcDbEntity
8
1
62
256
6
ByLayer
370
-1
48
1
60
0
100
AcDbCircle
39
0
10
-9.342636
20
1.554798
30
0
40
1.05
210
0
220
0
230
-1
100
AcDbArc
50
139.923008
51
186.513153
0
ARC
5
6E
100
AcDbEntity
8
1
62
256
6
ByLayer
370
-1
48
1
60
0
100
AcDbCircle
39
0
10
10.102927
20
2.711305
30
0
40
1.25
210
0
220
0
230
1
100
AcDbArc
50
301
51
31
0
ARC
5
6F
100
AcDbEntity
8
1
62
256
6
ByLayer
370
-1
48
1
60
0
100
AcDbCircle
39
0
10
10.102927
20
2.711305
30
0
40
1.34423045315122
210
0
220
0
230
1
100
AcDbArc
50
301
51
31
0
ARC
5
70
100
AcDbEntity
8
1
62
256
6
ByLayer
370
-1
48
1
60
0
100
AcDbCircle
39
0
10
9.888635
20
2.582546
30
0
40
1.34423045315122
210
0
220
0
230
1
100
AcDbArc
50
290.870184
51
301
0
ARC
5
71
100
AcDbEntity
8
1
62
256
6
ByLayer
370
-1
48
1
60
0
100
AcDbCircle
39
0
10
9.342636
20
1.554798
30
0
40
1.05
210
0
220
0
230
1
100
AcDbArc
50
141.925819
51
347.44267
0
ARC
5
72
100
AcDbEntity
8
1
62
256
6
ByLayer
370
-1
48
1
60
0
100
AcDbCircle
39
0
10
9.888635
20
2.582546
30
0
40
1.25
210
0
220
0
230
1
100
AcDbArc
50
293.439457
51
301
0
ARC
5
73
100
AcDbEntity
8
1
62
256
6
ByLayer
370
-1
48
1
60
0
100
AcDbCircle
39
0
10
-9.244903
20
7.153945
30
0
40
0.747999999999996
210
0
220
0
230
-1
100
AcDbArc
50
236.838153
51
241.161847
0
ARC
5
74
100
AcDbEntity
8
1
62
256
6
ByLayer
370
-1
48
1
60
0
100
AcDbCircle
39
0
10
-9.244903
20
7.153945
30
0
40
1.03499999999999
210
0
220
0
230
-1
100
AcDbArc
50
329
51
28.950841
0
ARC
5
75
100
AcDbEntity
8
1
62
256
6
ByLayer
370
-1
48
1
60
0
100
AcDbCircle
39
0
10
9.244903
20
7.153945
30
0
40
0.747999999999999
210
0
220
0
230
1
100
AcDbArc
50
60.975421
51
118.838153
0
ARC
5
76
100
AcDbEntity
8
1
62
256
6
ByLayer
370
-1
48
1
60
0
100
AcDbCircle
39
0
10
-9.244903
20
7.153945
30
0
40
1.03499999999999
210
0
220
0
230
-1
100
AcDbArc
50
28.950841
51
89.049159
0
ARC
5
77
100
AcDbEntity
8
1
62
256
6
ByLayer
370
-1
48
1
60
0
100
AcDbCircle
39
0
10
-9.341868
20
1.598791
30
0
40
0.397000000000044
210
0
220
0
230
-1
100
AcDbArc
50
209
51
329
0
ARC
5
78
100
AcDbEntity
8
1
62
256
6
ByLayer
370
-1
48
1
60
0
100
AcDbCircle
39
0
10
-9.244903
20
7.153945
30
0
40
1.03499999999999
210
0
220
0
230
-1
100
AcDbArc
50
149
51
208.950841
0
ARC
5
79
100
AcDbEntity
8
1
62
256
6
ByLayer
370
-1
48
1
60
0
100
AcDbCircle
39
0
10
-4.385516
20
9.847547
30
0
40
0.397000000000065
210
0
220
0
230
-1
100
AcDbArc
50
329
51
89
0
ARC
5
7A
100
AcDbEntity
8
1
62
256
6
ByLayer
370
-1
48
1
60
0
100
AcDbCircle
39
0
10
9.244903
20
7.153945
30
0
40
0.747999999999996
210
0
220
0
230
1
100
AcDbArc
50
123.161847
51
181.024579
0
ARC
5
7B
100
AcDbEntity
8
1
62
256
6
ByLayer
370
-1
48
1
60
0
100
AcDbCircle
39
0
10
-9.244903
20
7.153945
30
0
40
1.03499999999999
210
0
220
0
230
-1
100
AcDbArc
50
269.049159
51
329
0
ARC
5
7C
100
AcDbEntity
8
1
62
256
6
ByLayer
370
-1
48
1
60
0
100
AcDbCircle
39
0
10
-9.244903
20
7.153945
30
0
40
1.03499999999999
210
0
220
0
230
-1
100
AcDbArc
50
208.950841
51
269.049159
0
ARC
5
7D
100
AcDbEntity
8
1
62
256
6
ByLayer
370
-1
48
1
60
0
100
AcDbCircle
39
0
10
9.244903
20
7.153945
30
0
40
0.747999999999996
210
0
220
0
230
1
100
AcDbArc
50
303.161847
51
1.024579
0
ARC
5
7E
100
AcDbEntity
8
1
62
256
6
ByLayer
370
-1
48
1
60
0
100
AcDbCircle
39
0
10
9.244903
20
7.153945
30
0
40
0.747999999999996
210
0
220
0
230
1
100
AcDbArc
50
1.024579
51
60.975421
0
ARC
5
80
100
AcDbEntity
8
1
62
256
6
ByLayer
370
-1
48
1
60
0
100
AcDbCircle
39
0
10
-9.244903
20
7.153945
30
0
40
0.747999999999996
210
0
220
0
230
-1
100
AcDbArc
50
56.838153
51
61.161847
0
ARC
5
84
100
AcDbEntity
8
1
62
256
6
ByLayer
370
-1
48
1
60
0
100
AcDbCircle
39
0
10
-14.007324
20
10.015496
30
0
40
0.397000000000081
210
0
220
0
230
-1
100
AcDbArc
50
89
51
209
0
ARC
5
85
100
AcDbEntity
8
1
62
256
6
ByLayer
370
-1
48
1
60
0
100
AcDbCircle
39
0
10
9.244903
20
7.153945
30
0
40
0.747999999999996
210
0
220
0
230
1
100
AcDbArc
50
240.975421
51
298.838153
0
ARC
5
86
100
AcDbEntity
8
1
62
256
6
ByLayer
370
-1
48
1
60
0
100
AcDbCircle
39
0
10
9.244903
20
7.153945
30
0
40
0.747999999999996
210
0
220
0
230
1
100
AcDbArc
50
181.024579
51
240.975421
0
ARC
5
88
100
AcDbEntity
8
1
62
256
6
ByLayer
370
-1
48
1
60
0
100
AcDbCircle
39
0
10
-9.244903
20
7.153945
30
0
40
1.03499999999999
210
0
220
0
230
-1
100
AcDbArc
50
89.049159
51
149
0
CIRCLE
5
7F
100
AcDbEntity
8
1
62
256
6
ByLayer
370
-1
48
1
60
0
100
AcDbCircle
10
9.244903
20
7.153945
30
0
40
1.82993757181567
39
0
210
0
220
0
230
1
0
CIRCLE
5
81
100
AcDbEntity
8
1
62
256
6
ByLayer
370
-1
48
1
60
0
100
AcDbCircle
10
-9.244903
20
7.153945
30
0
40
1.92255023212158
39
0
210
0
220
0
230
-1
0
CIRCLE
5
82
100
AcDbEntity
8
1
62
256
6
ByLayer
370
-1
48
1
60
0
100
AcDbCircle
10
-9.244903
20
7.153945
30
0
40
1.8807992955115
39
0
210
0
220
0
230
-1
0
CIRCLE
5
83
100
AcDbEntity
8
1
62
256
6
ByLayer
370
-1
48
1
60
0
100
AcDbCircle
10
-9.244903
20
7.153945
30
0
40
1.3
39
0
210
0
220
0
230
-1
0
CIRCLE
5
87
100
AcDbEntity
8
1
62
256
6
ByLayer
370
-1
48
1
60
0
100
AcDbCircle
10
-9.244903
20
7.153945
30
0
40
1.725
39
0
210
0
220
0
230
-1
0
POINT
5
41
100
AcDbEntity
8
SK2
62
256
6
ByLayer
370
-1
48
1
60
0
100
AcDbPoint
10
14.404414
20
10.4125
30
0
39
0
210
0
220
0
230
1
50
360
0
POINT
5
43
100
AcDbEntity
8
2
62
256
6
ByLayer
370
-1
48
1
60
0
100
AcDbPoint
10
14.404414
20
10.4125
30
0
39
0
210
0
220
0
230
1
50
360
0
POINT
5
45
100
AcDbEntity
8
80
62
256
6
ByLayer
370
-1
48
1
60
0
100
AcDbPoint
10
0
20
0
30
0
39
0
210
0
220
0
230
1
50
360
0
POINT
5
47
100
AcDbEntity
8
SK2
62
256
6
ByLayer
370
-1
48
1
60
0
100
AcDbPoint
10
14.404414
20
10.4125
30
0
39
0
210
0
220
0
230
1
50
360
0
POINT
5
48
100
AcDbEntity
8
SK2
62
256
6
ByLayer
370
-1
48
1
60
0
100
AcDbPoint
10
14.404414
20
10.4125
30
0
39
0
210
0
220
0
230
1
50
360
0
POINT
5
49
100
AcDbEntity
8
SK2
62
256
6
ByLayer
370
-1
48
1
60
0
100
AcDbPoint
10
14.404414
20
10.4125
30
0
39
0
210
0
220
0
230
1
50
360
0
POINT
5
4A
100
AcDbEntity
8
81
62
256
6
ByLayer
370
-1
48
1
60
0
100
AcDbPoint
10
14.404414
20
10.4125
30
0
39
0
210
0
220
0
230
1
50
360
0
SPLINE
5
89
100
AcDbEntity
8
1
62
256
6
ByLayer
370
-1
48
1
60
0
100
AcDbSpline
70
4
71
3
72
8
73
4
40
0
40
0
40
0
40
0
40
1
40
1
40
1
40
1
41
1
10
10.3858595308691
20
1.43569473543926
30
0
41
1
10
10.3817462113516
20
1.39966613133828
30
0
41
1
10
10.3756991806354
20
1.36323355159954
30
0
41
1
10
10.3675192933927
20
1.32651039641604
30
0
0
SPLINE
5
8A
100
AcDbEntity
8
1
62
256
6
ByLayer
370
-1
48
1
60
0
100
AcDbSpline
70
4
71
3
72
14
73
10
40
0
40
0
40
0
40
0
40
0.284032913699669
40
0.284032913699669
40
0.570747132587426
40
0.570747132587426
40
0.83052267567565
40
0.83052267567565
40
1
40
1
40
1
40
1
41
1
10
8.54438486560503
20
7.74526538760287
30
0
41
1
10
8.52379282668684
20
7.75021813099511
30
0
41
1
10
8.50167690183724
20
7.75170203858224
30
0
41
1
10
8.45774611626808
20
7.74660130032771
30
0
41
1
10
8.43526154019574
20
7.73982239852214
30
0
41
1
10
8.39615609965153
20
7.71917826269913
30
0
41
1
10
8.37861101768732
20
7.70569447742204
30
0
41
1
10
8.35456056412977
20
7.67917180019595
30
0
41
1
10
8.34613965138374
20
7.66741589816371
30
0
41
1
10
8.33924134211173
20
7.65494579851853
30
0
0
SPLINE
5
8B
100
AcDbEntity
8
1
62
256
6
ByLayer
370
-1
48
1
60
0
100
AcDbSpline
70
4
71
3
72
16
73
12
40
0
40
0
40
0
40
0
40
0.0654499898242379
40
0.0654499898242379
40
0.289460871157295
40
0.289460871157295
40
0.516372687515663
40
0.516372687515663
40
0.75775297011429
40
0.75775297011429
40
1
40
1
40
1
40
1
41
1
10
9.22772756062233
20
8.18880217777027
30
0
41
1
10
9.22220567846068
20
8.18871053199487
30
0
41
1
10
9.21668117072136
20
8.1883707975062
30
0
41
1
10
9.19253661633996
20
8.18579790401938
30
0
41
1
10
9.17401018963022
20
8.18086260948667
30
0
41
1
10
9.13989582683371
20
8.16603891419624
30
0
41
1
10
9.12390869406192
20
8.15591212558562
30
0
41
1
10
9.0954929121713
20
8.1314638451087
30
0
41
1
10
9.08298699677601
20
8.11662500755111
30
0
41
1
10
9.06343798847468
20
8.08485445312408
30
0
41
1
10
9.0561918717201
20
8.06758436345152
30
0
41
1
10
9.05167104628251
20
8.05007367614891
30
0
0
SPLINE
5
8C
100
AcDbEntity
8
1
62
256
6
ByLayer
370
-1
48
1
60
0
100
AcDbSpline
70
4
71
3
72
14
73
10
40
0
40
0
40
0
40
0
40
0.284032913699673
40
0.284032913699673
40
0.570747132587422
40
0.570747132587422
40
0.830522675675627
40
0.830522675675627
40
1
40
1
40
1
40
1
41
1
10
9.94542097648593
20
6.56262400495913
30
0
41
1
10
9.96601301540409
20
6.55767126156687
30
0
41
1
10
9.98812894025369
20
6.55618735397974
30
0
41
1
10
10.0320597258228
20
6.56128809223429
30
0
41
1
10
10.0545443018952
20
6.56806699403984
30
0
41
1
10
10.0936497424394
20
6.58871112986284
30
0
41
1
10
10.1111948244036
20
6.60219491513993
30
0
41
1
10
10.1352452779612
20
6.62871759236603
30
0
41
1
10
10.1436661907072
20
6.64047349439826
30
0
41
1
10
10.1505644999792
20
6.65294359404345
30
0
0
SPLINE
5
8D
100
AcDbEntity
8
1
62
256
6
ByLayer
370
-1
48
1
60
0
100
AcDbSpline
70
4
71
3
72
18
73
14
40
0
40
0
40
0
40
0
40
0.213310846837427
40
0.213310846837427
40
0.388935063538411
40
0.388935063538411
40
0.566198523709682
40
0.566198523709682
40
0.721124131607337
40
0.721124131607337
40
0.927349976078812
40
0.927349976078812
40
1
40
1
40
1
40
1
41
1
10
8.38183652248847
20
6.84321228903289
30
0
41
1
10
8.41160208245367
20
6.87471721644053
30
0
41
1
10
8.43745354049824
20
6.91195432375736
30
0
41
1
10
8.47299554366202
20
6.98749796323867
30
0
41
1
10
8.48504585200266
20
7.02534831202598
30
0
41
1
10
8.49796723185065
20
7.10385924532946
30
0
41
1
10
8.49881234835777
20
7.14571403375368
30
0
41
1
10
8.48939207209332
20
7.22070556194421
30
0
41
1
10
8.48045583566358
20
7.25517671911445
30
0
41
1
10
8.45157981779275
20
7.32892905179526
30
0
41
1
10
8.42861533013843
20
7.3673610539492
30
0
41
1
10
8.39206942735098
20
7.41201778877397
30
0
41
1
10
8.38190858106935
20
7.4231426464365
30
0
41
1
10
8.37127759925789
20
7.43361778108502
30
0
0
SPLINE
5
8E
100
AcDbEntity
8
1
62
256
6
ByLayer
370
-1
48
1
60
0
100
AcDbSpline
70
4
71
3
72
16
73
12
40
0
40
0
40
0
40
0
40
0.0654499898244567
40
0.0654499898244567
40
0.289460871157472
40
0.289460871157472
40
0.516372687515807
40
0.516372687515807
40
0.757752970114501
40
0.757752970114501
40
1
40
1
40
1
40
1
41
1
10
9.26207828146858
20
6.1190872147917
30
0
41
1
10
9.26760016363022
20
6.11917886056713
30
0
41
1
10
9.2731246713696
20
6.11951859505578
30
0
41
1
10
9.29726922575099
20
6.12209148854259
30
0
41
1
10
9.31579565246071
20
6.12702678307534
30
0
41
1
10
9.34991001525722
20
6.14185047836577
30
0
41
1
10
9.36589714802903
20
6.15197726697642
30
0
41
1
10
9.39431292991964
20
6.17642554745331
30
0
41
1
10
9.40681884531492
20
6.19126438501092
30
0
41
1
10
9.42636785361623
20
6.22303493943792
30
0
41
1
10
9.4336139703708
20
6.24030502911049
30
0
41
1
10
9.4381347958084
20
6.25781571641309
30
0
0
SPLINE
5
8F
100
AcDbEntity
8
1
62
256
6
ByLayer
370
-1
48
1
60
0
100
AcDbSpline
70
4
71
3
72
12
73
8
40
0
40
0
40
0
40
0
40
0.464589426689083
40
0.464589426689083
40
0.846565595641054
40
0.846565595641054
40
1
40
1
40
1
40
1
41
1
10
8.544384865605
20
7.74526538760287
30
0
41
1
10
8.58660780044175
20
7.73511003764725
30
0
41
1
10
8.63186003051015
20
7.7312282750413
30
0
41
1
10
8.71517496232022
20
7.73806158023987
30
0
41
1
10
8.75401747288453
20
7.7464797392293
30
0
41
1
10
8.80629375223387
20
7.76607542035694
30
0
41
1
10
8.82123260162973
20
7.77267075571362
30
0
41
1
10
8.83574250202167
20
7.78011699805125
30
0
0
SPLINE
5
90
100
AcDbEntity
8
1
62
256
6
ByLayer
370
-1
48
1
60
0
100
AcDbSpline
70
4
71
3
72
16
73
12
40
0
40
0
40
0
40
0
40
0.0668629219468966
40
0.0668629219468966
40
0.291508058454645
40
0.291508058454645
40
0.519131180701785
40
0.519131180701785
40
0.761320679058359
40
0.761320679058359
40
1
40
1
40
1
40
1
41
1
10
10.1320710772721
20
7.6870091038129
30
0
41
1
10
10.1291740903885
20
7.69183049964394
30
0
41
1
10
10.1260528872239
20
7.69652548116068
30
0
41
1
10
10.1116441695122
20
7.71619325283297
30
0
41
1
10
10.0980754150818
20
7.72973354068651
30
0
41
1
10
10.0681279132415
20
7.75179052894626
30
0
41
1
10
10.0513418797624
20
7.76053113587932
30
0
41
1
10
10.015925701663
20
7.77282970900416
30
0
41
1
10
9.99680917709202
20
7.77619335543261
30
0
41
1
10
9.95984017935268
20
7.77713474240946
30
0
41
1
10
9.94159100196339
20
7.77482050407406
30
0
41
1
10
9.92444848296694
20
7.7701070665253
30
0
0
SPLINE
5
91
100
AcDbEntity
8
1
62
256
6
ByLayer
370
-1
48
1
60
0
100
AcDbSpline
70
4
71
3
72
16
73
12
40
0
40
0
40
0
40
0
40
0.0652339252908267
40
0.0652339252908267
40
0.289899760633077
40
0.289899760633077
40
0.517452153050879
40
0.517452153050879
40
0.759496397026882
40
0.759496397026882
40
1
40
1
40
1
40
1
41
1
10
8.33924134211173
20
7.65494579851853
30
0
41
1
10
8.33658447017302
20
7.65014296111102
30
0
41
1
10
8.33413874829449
20
7.64521575354968
30
0
41
1
10
8.32433393183322
20
7.62303831913655
30
0
41
1
10
8.31936616464617
20
7.60451935681093
30
0
41
1
10
8.31519031579535
20
7.56755788390308
30
0
41
1
10
8.3159890586083
20
7.54865040213753
30
0
41
1
10
8.32299706440881
20
7.51182737116707
30
0
41
1
10
8.32961569056891
20
7.49358654677263
30
0
41
1
10
8.34730492078455
20
7.46095464472481
30
0
41
1
10
8.35851885355396
20
7.44618948721393
30
0
41
1
10
8.37127759925789
20
7.43361778108505
30
0
0
SPLINE
5
92
100
AcDbEntity
8
1
62
256
6
ByLayer
370
-1
48
1
60
0
100
AcDbSpline
70
4
71
3
72
14
73
10
40
0
40
0
40
0
40
0
40
0.284252833288248
40
0.284252833288248
40
0.571499987480321
40
0.571499987480321
40
0.831789645385587
40
0.831789645385587
40
1
40
1
40
1
40
1
41
1
10
8.38183652248847
20
6.84321228903286
30
0
41
1
10
8.36731699684577
20
6.82784430664307
30
0
41
1
10
8.35503860117433
20
6.80943767263435
30
0
41
1
10
8.33759273538914
20
6.76885536602995
30
0
41
1
10
8.33226815982886
20
6.74599914016574
30
0
41
1
10
8.33067231070612
20
6.70183733819053
30
0
41
1
10
8.33361152421543
20
6.67992108382745
30
0
41
1
10
8.34455813599592
20
6.64600033565557
30
0
41
1
10
8.35047020653542
20
6.63297054404842
30
0
41
1
10
8.35773476481879
20
6.62088028874908
30
0
0
SPLINE
5
93
100
AcDbEntity
8
1
62
256
6
ByLayer
370
-1
48
1
60
0
100
AcDbSpline
70
4
71
3
72
14
73
10
40
0
40
0
40
0
40
0
40
0.28255934404702
40
0.28255934404702
40
0.570018452367234
40
0.570018452367234
40
0.830476628481831
40
0.830476628481831
40
1
40
1
40
1
40
1
41
1
10
9.08169735295166
20
6.25128076115593
30
0
41
1
10
9.08769344212021
20
6.23113766794319
30
0
41
1
10
9.09739574465334
20
6.21140979382159
30
0
41
1
10
9.1236367117902
20
6.1760317118659
30
0
41
1
10
9.14073023547721
20
6.15993407359261
30
0
41
1
10
9.17812999261133
20
6.13635388958622
30
0
41
1
10
9.19856708564933
20
6.12788053313133
30
0
41
1
10
9.23351413521502
20
6.12028269715549
30
0
41
1
10
9.24786567517631
20
6.11885133048881
30
0
41
1
10
9.26207828146858
20
6.1190872147917
30
0
0
SPLINE
5
94
100
AcDbEntity
8
1
62
256
6
ByLayer
370
-1
48
1
60
0
100
AcDbSpline
70
4
71
3
72
16
73
12
40
0
40
0
40
0
40
0
40
0.0652339252908639
40
0.0652339252908639
40
0.289899760633081
40
0.289899760633081
40
0.517452153050858
40
0.517452153050858
40
0.759496397026837
40
0.759496397026837
40
1
40
1
40
1
40
1
41
1
10
10.1505644999792
20
6.65294359404345
30
0
41
1
10
10.1532213719179
20
6.65774643145096
30
0
41
1
10
10.1556670937965
20
6.6626736390123
30
0
41
1
10
10.1654719102577
20
6.68485107342542
30
0
41
1
10
10.1704396774448
20
6.70337003575105
30
0
41
1
10
10.1746155262956
20
6.7403315086589
30
0
41
1
10
10.1738167834827
20
6.75923899042445
30
0
41
1
10
10.1668087776821
20
6.7960620213949
30
0
41
1
10
10.160190151522
20
6.81430284578934
30
0
41
1
10
10.1425009213064
20
6.84693474783717
30
0
41
1
10
10.131286988537
20
6.86169990534805
30
0
41
1
10
10.1185282428331
20
6.87427161147693
30
0
0
SPLINE
5
95
100
AcDbEntity
8
1
62
256
6
ByLayer
370
-1
48
1
60
0
100
AcDbSpline
70
4
71
3
72
18
73
14
40
0
40
0
40
0
40
0
40
0.213310846837418
40
0.213310846837418
40
0.388935063538391
40
0.388935063538391
40
0.566198523709654
40
0.566198523709654
40
0.7211241316073
40
0.7211241316073
40
0.927349976078761
40
0.927349976078761
40
1
40
1
40
1
40
1
41
1
10
10.1079693196024
20
7.46467710352911
30
0
41
1
10
10.0782037596372
20
7.43317217612147
30
0
41
1
10
10.0523523015927
20
7.39593506880465
30
0
41
1
10
10.0168102984289
20
7.32039142932334
30
0
41
1
10
10.0047599900882
20
7.28254108053602
30
0
41
1
10
9.99183861024025
20
7.20403014723254
30
0
41
1
10
9.99099349373313
20
7.16217535880833
30
0
41
1
10
10.0004137699976
20
7.08718383061779
30
0
41
1
10
10.0093500064273
20
7.05271267344756
30
0
41
1
10
10.0382260242981
20
6.97896034076675
30
0
41
1
10
10.0611905119525
20
6.94052833861278
30
0
41
1
10
10.0977364147399
20
6.89587160378801
30
0
41
1
10
10.1078972610216
20
6.8847467461255
30
0
41
1
10
10.1185282428331
20
6.87427161147693
30
0
0
SPLINE
5
96
100
AcDbEntity
8
1
62
256
6
ByLayer
370
-1
48
1
60
0
100
AcDbSpline
70
4
71
3
72
18
73
14
40
0
40
0
40
0
40
0
40
0.213391867581836
40
0.213391867581836
40
0.389002173648905
40
0.389002173648905
40
0.56625077392911
40
0.56625077392911
40
0.721173901793904
40
0.721173901793904
40
0.927414379202985
40
0.927414379202985
40
1
40
1
40
1
40
1
41
1
10
9.08169735295172
20
6.25128076115593
30
0
41
1
10
9.06932700206849
20
6.29283736979056
30
0
41
1
10
9.0500294760748
20
6.33387620225113
30
0
41
1
10
9.00241860145456
20
6.40247673862581
30
0
41
1
10
8.97568758422176
20
6.43185590553512
30
0
41
1
10
8.91419771142347
20
6.48234430133104
30
0
41
1
10
8.87839238891911
20
6.50402888394461
30
0
41
1
10
8.80876444448717
20
6.53341847944438
30
0
41
1
10
8.77445194380465
20
6.54294131636141
30
0
41
1
10
8.69615050258665
20
6.5548713344246
30
0
41
1
10
8.6513823586796
20
6.55423396850262
30
0
41
1
10
8.59443961555235
20
6.54495791969677
30
0
41
1
10
8.57973529469359
20
6.54173562493057
30
0
41
1
10
8.56535735912399
20
6.53778232603668
30
0
0
SPLINE
5
97
100
AcDbEntity
8
1
62
256
6
ByLayer
370
-1
48
1
60
0
100
AcDbSpline
70
4
71
3
72
12
73
8
40
0
40
0
40
0
40
0
40
0.377026881205898
40
0.377026881205898
40
0.761057563916793
40
0.761057563916793
40
1
40
1
40
1
40
1
41
1
10
9.60569106625934
20
6.49870740012554
30
0
41
1
10
9.57325583431572
20
6.47613589517587
30
0
41
1
10
9.54397010110279
20
6.44873895961007
30
0
41
1
10
9.49532025665835
20
6.38918430729629
30
0
41
1
10
9.47541832107595
20
6.35620503236015
30
0
41
1
10
9.45123362591283
20
6.3013046419039
30
0
41
1
10
9.44376942619996
20
6.27964054734593
30
0
41
1
10
9.43813479580842
20
6.25781571641309
30
0
0
SPLINE
5
98
100
AcDbEntity
8
1
62
256
6
ByLayer
370
-1
48
1
60
0
100
AcDbSpline
70
4
71
3
72
12
73
8
40
0
40
0
40
0
40
0
40
0.464589426689241
40
0.464589426689241
40
0.846565595641343
40
0.846565595641343
40
1
40
1
40
1
40
1
41
1
10
9.94542097648593
20
6.56262400495913
30
0
41
1
10
9.90319804164918
20
6.57277935491476
30
0
41
1
10
9.85794581158078
20
6.5766611175207
30
0
41
1
10
9.77463087977071
20
6.56982781232213
30
0
41
1
10
9.7357883692064
20
6.5614096533327
30
0
41
1
10
9.683512089857
20
6.54181397220503
30
0
41
1
10
9.66857324046111
20
6.53521863684833
30
0
41
1
10
9.65406334006911
20
6.52777239451066
30
0
0
SPLINE
5
99
100
AcDbEntity
8
1
62
256
6
ByLayer
370
-1
48
1
60
0
100
AcDbSpline
70
4
71
3
72
12
73
8
40
0
40
0
40
0
40
0
40
0.377026881446392
40
0.377026881446392
40
0.761057564196257
40
0.761057564196257
40
1
40
1
40
1
40
1
41
1
10
8.88411477583173
20
7.80918199243652
30
0
41
1
10
8.91655000779593
20
7.83175349740057
30
0
41
1
10
8.94583574102543
20
7.85915043298707
30
0
41
1
10
8.99448558547556
20
7.91870508532904
30
0
41
1
10
9.0143875210531
20
7.9516843602708
30
0
41
1
10
9.03857221619552
20
8.00658475070861
30
0
41
1
10
9.04603641589756
20
8.02824884524145
30
0
41
1
10
9.05167104628254
20
8.05007367614888
30
0
0
SPLINE
5
9A
100
AcDbEntity
8
1
62
256
6
ByLayer
370
-1
48
1
60
0
100
AcDbSpline
70
4
71
3
72
14
73
10
40
0
40
0
40
0
40
0
40
0.28425283328834
40
0.28425283328834
40
0.571499987480384
40
0.571499987480384
40
0.831789645385644
40
0.831789645385644
40
1
40
1
40
1
40
1
41
1
10
10.1079693196024
20
7.46467710352911
30
0
41
1
10
10.1224888452452
20
7.4800450859189
30
0
41
1
10
10.1347672409166
20
7.49845171992763
30
0
41
1
10
10.1522131067018
20
7.53903402653205
30
0
41
1
10
10.1575376822621
20
7.56189025239624
30
0
41
1
10
10.1591335313848
20
7.60605205437147
30
0
41
1
10
10.1561943178755
20
7.62796830873455
30
0
41
1
10
10.145247706095
20
7.6618890569064
30
0
41
1
10
10.1393356355555
20
7.67491884851356
30
0
41
1
10
10.1320710772721
20
7.6870091038129
30
0
0
SPLINE
5
9B
100
AcDbEntity
8
1
62
256
6
ByLayer
370
-1
48
1
60
0
100
AcDbSpline
70
4
71
3
72
16
73
12
40
0
40
0
40
0
40
0
40
0.066862921946824
40
0.066862921946824
40
0.291508058454564
40
0.291508058454564
40
0.519131180701692
40
0.519131180701692
40
0.761320679058254
40
0.761320679058254
40
1
40
1
40
1
40
1
41
1
10
8.35773476481879
20
6.62088028874908
30
0
41
1
10
8.36063175170239
20
6.61605889291803
30
0
41
1
10
8.36375295486704
20
6.6113639114013
30
0
41
1
10
8.3781616725787
20
6.59169613972904
30
0
41
1
10
8.39173042700909
20
6.57815585187549
30
0
41
1
10
8.42167792884942
20
6.55609886361572
30
0
41
1
10
8.43846396232851
20
6.54735825668268
30
0
41
1
10
8.47388014042795
20
6.53505968355782
30
0
41
1
10
8.49299666499888
20
6.53169603712936
30
0
41
1
10
8.52996566273825
20
6.53075465015252
30
0
41
1
10
8.54821484012757
20
6.53306888848792
30
0
41
1
10
8.56535735912399
20
6.53778232603668
30
0
0
SPLINE
5
9C
100
AcDbEntity
8
1
62
256
6
ByLayer
370
-1
48
1
60
0
100
AcDbSpline
70
4
71
3
72
14
73
10
40
0
40
0
40
0
40
0
40
0.282559344044389
40
0.282559344044389
40
0.570018452365651
40
0.570018452365651
40
0.830476628481063
40
0.830476628481063
40
1
40
1
40
1
40
1
41
1
10
9.40810848913901
20
8.05660863140679
30
0
41
1
10
9.40211239997046
20
8.07675172461924
30
0
41
1
10
9.39241009743745
20
8.09647959874056
30
0
41
1
10
9.36616913030076
20
8.13185768069604
30
0
41
1
10
9.34907560661372
20
8.14795531896934
30
0
41
1
10
9.31167584947963
20
8.17153550297573
30
0
41
1
10
9.29123875644163
20
8.18000885943064
30
0
41
1
10
9.25629170687591
20
8.18760669540649
30
0
41
1
10
9.24194016691462
20
8.18903806207317
30
0
41
1
10
9.22772756062233
20
8.18880217777027
30
0
0
SPLINE
5
9D
100
AcDbEntity
8
1
62
256
6
ByLayer
370
-1
48
1
60
0
100
AcDbSpline
70
4
71
3
72
18
73
14
40
0
40
0
40
0
40
0
40
0.213391867582798
40
0.213391867582798
40
0.389002173649623
40
0.389002173649623
40
0.566250773929593
40
0.566250773929593
40
0.721173901794202
40
0.721173901794202
40
0.927414379203007
40
0.927414379203007
40
1
40
1
40
1
40
1
41
1
10
9.40810848913901
20
8.05660863140679
30
0
41
1
10
9.42047884002227
20
8.0150520227719
30
0
41
1
10
9.43977636601599
20
7.97401319031107
30
0
41
1
10
9.48738724063637
20
7.90541265393617
30
0
41
1
10
9.51411825786917
20
7.87603348702686
30
0
41
1
10
9.57560813066743
20
7.82554509123096
30
0
41
1
10
9.61141345317179
20
7.80386050861739
30
0
41
1
10
9.68104139760376
20
7.77447091311763
30
0
41
1
10
9.71535389828628
20
7.76494807620057
30
0
41
1
10
9.79365533950426
20
7.75301805813737
30
0
41
1
10
9.8384234834113
20
7.75365542405936
30
0
41
1
10
9.89536622653856
20
7.7629314728652
30
0
41
1
10
9.91007054739731
20
7.76615376763141
30
0
41
1
10
9.92444848296697
20
7.7701070665253
30
0
0
LINE
5
4C
100
AcDbEntity
8
81
62
256
6
ByLayer
370
-1
48
1
60
0
100
AcDbLine
10
14.404414
20
10.4125
30
0
11
24.404414
21
10.4125
31
0
39
0
210
0
220
0
230
1
0
LINE
5
4D
100
AcDbEntity
8
80
62
256
6
ByLayer
370
-1
48
1
60
0
100
AcDbLine
10
0
20
0
30
0
11
-5
21
0
31
0
39
0
210
0
220
0
230
1
0
LINE
5
4E
100
AcDbEntity
8
1
62
256
6
ByLayer
370
-1
48
1
60
0
100
AcDbLine
10
12.996194
20
-0.231711
30
0
11
13.616715
21
7.236025
31
0
39
0
210
0
220
0
230
1
0
LINE
5
50
100
AcDbEntity
8
1
62
256
6
ByLayer
370
-1
48
1
60
0
100
AcDbLine
10
0
20
5.9375
30
0
11
0
21
-5.937037
31
0
39
0
210
0
220
0
230
1
0
LINE
5
51
100
AcDbEntity
8
1
62
256
6
ByLayer
370
-1
48
1
60
0
100
AcDbLine
10
4.028798
20
9.673295
30
0
11
2.35922
21
9.644152
31
0
39
0
210
0
220
0
230
1
0
LINE
5
52
100
AcDbEntity
8
1
62
256
6
ByLayer
370
-1
48
1
60
0
100
AcDbLine
10
11.174386
20
3.355103
30
0
11
10.963693
21
3.705754
31
0
39
0
210
0
220
0
230
1
0
LINE
5
53
100
AcDbEntity
8
1
62
256
6
ByLayer
370
-1
48
1
60
0
100
AcDbLine
10
13.624557
20
7.330407
30
0
11
12.96651
21
7.318921
31
0
39
0
210
0
220
0
230
1
0
LINE
5
54
100
AcDbEntity
8
1
62
256
6
ByLayer
370
-1
48
1
60
0
100
AcDbLine
10
2.35922
20
9.644152
30
0
11
1.5
21
6.4375
31
0
39
0
210
0
220
0
230
1
0
LINE
5
55
100
AcDbEntity
8
1
62
256
6
ByLayer
370
-1
48
1
60
0
100
AcDbLine
10
10.532432
20
1.511087
30
0
11
10.746724
21
1.639846
31
0
39
0
210
0
220
0
230
1
0
LINE
5
56
100
AcDbEntity
8
1
62
256
6
ByLayer
370
-1
48
1
60
0
100
AcDbLine
10
13.616715
20
7.236025
30
0
11
13.624557
21
7.330407
31
0
39
0
210
0
220
0
230
1
0
LINE
5
57
100
AcDbEntity
8
1
62
256
6
ByLayer
370
-1
48
1
60
0
100
AcDbLine
10
13.739473
20
8.713379
30
0
11
13.624557
21
7.330407
31
0
39
0
210
0
220
0
230
1
0
LINE
5
58
100
AcDbEntity
8
1
62
256
6
ByLayer
370
-1
48
1
60
0
100
AcDbLine
10
13.616715
20
7.236025
30
0
11
12.913755
21
7.223755
31
0
39
0
210
0
220
0
230
1
0
LINE
5
59
100
AcDbEntity
8
1
62
256
6
ByLayer
370
-1
48
1
60
0
100
AcDbLine
10
10.795256
20
1.559075
30
0
11
10.746724
21
1.639846
31
0
39
0
210
0
220
0
230
1
0
LINE
5
5A
100
AcDbEntity
8
1
62
256
6
ByLayer
370
-1
48
1
60
0
100
AcDbLine
10
10.580965
20
1.430315
30
0
11
10.532432
21
1.511087
31
0
39
0
210
0
220
0
230
1
0
LINE
5
5B
100
AcDbEntity
8
1
62
256
6
ByLayer
370
-1
48
1
60
0
100
AcDbLine
10
11.255157
20
3.403635
30
0
11
11.174386
21
3.355103
31
0
39
0
210
0
220
0
230
1
0
LINE
5
5C
100
AcDbEntity
8
1
62
256
6
ByLayer
370
-1
48
1
60
0
100
AcDbLine
10
5.000648
20
-5.937037
30
0
11
12.996194
21
-0.231711
31
0
39
0
210
0
220
0
230
1
0
LINE
5
5D
100
AcDbEntity
8
1
62
256
6
ByLayer
370
-1
48
1
60
0
100
AcDbLine
10
11.255157
20
3.403635
30
0
11
11.016445
21
3.800919
31
0
39
0
210
0
220
0
230
1
0
LINE
5
5E
100
AcDbEntity
8
1
62
256
6
ByLayer
370
-1
48
1
60
0
100
AcDbLine
10
0
20
-5.937037
30
0
11
5.000648
21
-5.937037
31
0
39
0
210
0
220
0
230
1
0
LINE
5
5F
100
AcDbEntity
8
1
62
256
6
ByLayer
370
-1
48
1
60
0
100
AcDbLine
10
10.580965
20
1.430315
30
0
11
10.795256
21
1.559075
31
0
39
0
210
0
220
0
230
1
0
LINE
5
60
100
AcDbEntity
8
1
62
256
6
ByLayer
370
-1
48
1
60
0
100
AcDbLine
10
1
20
5.9375
30
0
11
0
21
5.9375
31
0
39
0
210
0
220
0
230
1
0
LINE
5
61
100
AcDbEntity
8
1
62
256
6
ByLayer
370
-1
48
1
60
0
100
AcDbLine
10
1
20
5.9375
30
0
11
1.5
21
6.4375
31
0
39
0
210
0
220
0
230
1
0
LINE
5
62
100
AcDbEntity
8
SK1
62
256
6
ByLayer
370
-1
48
1
60
0
100
AcDbLine
10
0
20
5.9375
30
0
11
-0.106
21
5.9375
31
0
39
0
210
0
220
0
230
1
0
LINE
5
64
100
AcDbEntity
8
1
62
256
6
ByLayer
370
-1
48
1
60
0
100
AcDbLine
10
9.689093
20
1.406321
30
0
11
14.354548
21
9.823027
31
0
39
0
210
0
220
0
230
1
0
LINE
5
65
100
AcDbEntity
8
1
62
256
6
ByLayer
370
-1
48
1
60
0
100
AcDbLine
10
14.000396
20
10.412436
30
0
11
4.378587
21
10.244486
31
0
39
0
210
0
220
0
230
1
0
LINE
5
66
100
AcDbEntity
8
SK1
62
256
6
ByLayer
370
-1
48
1
60
0
100
AcDbLine
10
0
20
5.9375
30
0
11
0
21
-5.937037
31
0
39
0
210
0
220
0
230
1
0
LINE
5
67
100
AcDbEntity
8
SK1
62
256
6
ByLayer
370
-1
48
1
60
0
100
AcDbLine
10
-0.106
20
-5.9375
30
0
11
0
21
-5.937037
31
0
39
0
210
0
220
0
230
1
0
LINE
5
68
100
AcDbEntity
8
1
62
256
6
ByLayer
370
-1
48
1
60
0
100
AcDbLine
10
4.04522
20
9.643077
30
0
11
9.001573
21
1.394321
31
0
39
0
210
0
220
0
230
1
0
LINE
5
69
100
AcDbEntity
8
SK1
62
256
6
ByLayer
370
-1
48
1
60
0
100
AcDbLine
10
-0.106
20
5.9375
30
0
11
-0.106
21
-5.9375
31
0
39
0
210
0
220
0
230
1
0
LINE
5
6A
100
AcDbEntity
8
SK1
62
256
6
ByLayer
370
-1
48
1
60
0
100
AcDbLine
10
-66.945586
20
5.9375
30
0
11
-66.945586
21
-5.9375
31
0
39
0
210
0
220
0
230
1
0
LINE
5
6B
100
AcDbEntity
8
SK1
62
256
6
ByLayer
370
-1
48
1
60
0
100
AcDbLine
10
-0.106
20
5.9375
30
0
11
-66.945586
21
5.9375
31
0
39
0
210
0
220
0
230
1
0
LINE
5
6C
100
AcDbEntity
8
SK1
62
256
6
ByLayer
370
-1
48
1
60
0
100
AcDbLine
10
-66.945586
20
-5.9375
30
0
11
-0.106
21
-5.9375
31
0
39
0
210
0
220
0
230
1
0
MTEXT
5
9E
100
AcDbEntity
8
SK6
62
256
6
ByLayer
370
-1
48
1
60
0
100
AcDbMText
10
-38.444647
20
-14.412993
30
0
210
0
220
0
230
1
1
\W00.709;\fsimplex.shx,bigfont.shx;STGCR 1212F 11 
40
3.5
41
0
44
1.084337
50
0
71
7
72
5
7
DEFAULT
0
DIMENSION
5
D1
100
AcDbEntity
8
2
62
256
6
ByLayer
370
-3
48
1
60
0
100
AcDbDimension
2
DimnDraft3D1
10
-0.059005
20
10.167028
30
0
11
-0.162779
21
16.590851
31
0
70
34
71
5
72
1
41
1
210
0
220
0
230
1
3
Standard
100
AcDb2LineAngularDimension
13
14.404414
23
12.4125
33
0
14
14.404414
24
24.88511
34
0
15
11.001069
25
10.360082
35
0
16
2.303676
26
22.31085
36
0
40
0
0
DIMENSION
5
E6
100
AcDbEntity
8
SK2
62
256
6
ByLayer
370
-3
48
1
60
0
100
AcDbDimension
2
DimnDraft3D2
10
-76.695586
20
5.9375
30
0
11
-76.695586
21
-2.066447
31
0
70
32
71
5
72
1
41
1
210
0
220
0
230
1
3
Standard
100
AcDbAlignedDimension
13
-68.945586
23
-5.9375
33
0
14
-68.945586
24
5.9375
34
0
50
90
100
AcDbRotatedDimension
1001
ACAD
1000
DSTYLE
1002
{
1070
    74
1070
     0
1070
   279
1070
     0
1070
   172
1070
     1
1070
   173
1070
     1
1070
   340
1005
9F
1070
    77
1070
     1
1070
    73
1070
     0
1070
   171
1070
     3
1070
   274
1070
     4
1070
   177
1070
     2
1070
   176
1070
     2
1070
   178
1070
     7
1070
    78
1070
     8
1070
    41
1041
3.175
1070
   147
1041
2.25
1070
    42
1041
2.0
1070
    44
1041
2.0
1070
   140
1041
4.5
1070
   343
1005
D2
1070
   344
1005
D2
1002
}
0
DIMENSION
5
F4
100
AcDbEntity
8
2
62
256
6
ByLayer
370
-3
48
1
60
0
100
AcDbDimension
2
DimnDraft3D3
10
41.654414
20
10.4125
30
0
11
41.654414
21
0.171053
31
0
70
32
71
5
72
1
41
1
210
0
220
0
230
1
3
Standard
100
AcDbAlignedDimension
13
2
23
-5.9375
33
0
14
16.404414
24
10.4125
34
0
50
90
100
AcDbRotatedDimension
1001
ACAD
1000
DSTYLE
1002
{
1070
    74
1070
     0
1070
   279
1070
     0
1070
   172
1070
     1
1070
   173
1070
     1
1070
   340
1005
9F
1070
    77
1070
     1
1070
    73
1070
     0
1070
   171
1070
     3
1070
   274
1070
     4
1070
   177
1070
     2
1070
   176
1070
     2
1070
   178
1070
     7
1070
    78
1070
     8
1070
    41
1041
3.175
1070
   147
1041
2.25
1070
    42
1041
2.0
1070
    44
1041
2.0
1070
   140
1041
4.5
1070
   343
1005
D2
1070
   344
1005
D2
1002
}
0
DIMENSION
5
102
100
AcDbEntity
8
SK2
62
256
6
ByLayer
370
-3
48
1
60
0
100
AcDbDimension
2
DimnDraft3D4
10
-66.945586
20
30.1625
30
0
11
-28.899534
21
30.1625
31
0
70
32
71
5
72
1
41
1
210
0
220
0
230
1
3
Standard
100
AcDbAlignedDimension
13
14.404414
23
12.4125
33
0
14
-66.945586
24
7.9375
34
0
50
0
100
AcDbRotatedDimension
1001
ACAD
1000
DSTYLE
1002
{
1070
   279
1070
     0
1070
   172
1070
     1
1070
   173
1070
     1
1070
   340
1005
9F
1070
    77
1070
     1
1070
    73
1070
     0
1070
   171
1070
     3
1070
   274
1070
     4
1070
   177
1070
     2
1070
   176
1070
     2
1070
   178
1070
     7
1070
    78
1070
     8
1070
    41
1041
3.175
1070
   147
1041
2.25
1070
    42
1041
2.0
1070
    44
1041
2.0
1070
   140
1041
4.5
1070
   343
1005
D2
1070
   344
1005
D2
1002
}
0
ENDSEC
0
SECTION
2
OBJECTS
0
DICTIONARY
5
132
330
0
100
AcDbDictionary
280
0
281
1
3
ACAD_GROUP
350
133
3
ACAD_MLINESTYLE
350
134
0
DICTIONARY
5
133
330
0
100
AcDbDictionary
280
0
281
1
0
DICTIONARY
5
134
330
0
100
AcDbDictionary
280
0
281
1
3
Standard
350
18
0
MLINESTYLE
5
18
330
134
100
AcDbMlineStyle
2
Standard
70
0
3

62
256
51
90
52
90
71
2
49
-0.5
62
256
6
ByLayer
49
0.5
62
256
6
ByLayer
0
RASTERVARIABLES
5
121
330

100
AcDbRasterVariables
90
0
70
1
71
1
72
1
0
ENDSEC
0
EOF
