0
SECTION
2
HEADER
9
$ACADVER
1
AC1015
9
$DWGCODEPAGE
3
ANSI_1252
9
$HANDSEED
5
138
9
$ANGBASE
50
0
9
$ANGDIR
70
0
9
$ATTMODE
70
1
9
$AUNITS
70
0
9
$AUPREC
70
0
9
$CECOLOR
62
256
9
$CELTSCALE
40
1
9
$CELTYPE
6
ByLayer
9
$CELWEIGHT
370
-1
9
$CLAYER
8
0
9
$CMLJUST
70
0
9
$CMLSCALE
40
1
9
$CMLSTYLE
2
Standard
9
$DIMSTYLE
2
Standard
9
$TEXTSIZE
40
0.2
9
$TEXTSTYLE
7
Standard
9
$LUNITS
70
2
9
$LUPREC
70
4
9
$EXTNAMES
290
1
9
$INSUNITS
70
4
9
$LTSCALE
40
1
9
$LWDISPLAY
290
0
9
$PDMODE
70
0
9
$PDSIZE
40
0
9
$PLINEGEN
70
0
0
ENDSEC
0
SECTION
2
CLASSES
0
CLASS
1
RASTERVARIABLES
2
AcDbRasterVariables
3
ISM
90
0
280
0
281
0
0
ENDSEC
0
SECTION
2
TABLES
0
TABLE
2
VPORT
5
12e
100
AcDbSymbolTable
0
VPORT
5
1
100
AcDbSymbolTableRecord
100
AcDbViewportTableRecord
2
*Active
70
0
10
0
20
0
11
1
21
1
12
-1
22
1
13
0
23
0
14
0.5
24
0.5
15
10
25
10
16
0
26
0
36
1
17
0
27
0
37
0
0
ENDTAB
0
TABLE
2
LTYPE
5
12f
100
AcDbSymbolTable
0
LTYPE
5
14
100
AcDbSymbolTableRecord
100
AcDbLinetypeTableRecord
70
0
2
ByBlock
3

72
65
73
0
40
0
0
LTYPE
5
15
100
AcDbSymbolTableRecord
100
AcDbLinetypeTableRecord
70
0
2
ByLayer
3

72
65
73
0
40
0
0
LTYPE
5
16
100
AcDbSymbolTableRecord
100
AcDbLinetypeTableRecord
70
0
2
CONTINUOUS
3
Solid line
72
65
73
0
40
0
0
LTYPE
5
3B
100
AcDbSymbolTableRecord
100
AcDbLinetypeTableRecord
70
0
2
DASHED
3
__ __ __ __ __ __ __ __ __
72
65
73
2
40
25.72
49
12.86
74
0
49
-12.86
74
0
0
LTYPE
5
3C
100
AcDbSymbolTableRecord
100
AcDbLinetypeTableRecord
70
0
2
HIDDEN
3
_ _ _ _ _ _ _ _ _ _ _ _ _ _ _
72
65
73
2
40
0.5
49
0.25
74
0
49
-0.25
74
0
0
LTYPE
5
3D
100
AcDbSymbolTableRecord
100
AcDbLinetypeTableRecord
70
0
2
PHANTOM
3
____ _ _ ____ _ _ _____ _ _ ____
72
65
73
6
40
50.5
49
18
74
0
49
-6.5
74
0
49
6.5
74
0
49
-6.5
74
0
49
6.5
74
0
49
-6.5
74
0
0
LTYPE
5
3E
100
AcDbSymbolTableRecord
100
AcDbLinetypeTableRecord
70
0
2
CENTER
3
____ _ ____ _ ____ _ ____
72
65
73
4
40
47.5
49
22
74
0
49
-8.5
74
0
49
8.5
74
0
49
-8.5
74
0
0
LTYPE
5
3F
100
AcDbSymbolTableRecord
100
AcDbLinetypeTableRecord
70
0
2
DOT
3
.........................
72
65
73
2
40
10
49
0
74
0
49
-10
74
0
0
LTYPE
5
40
100
AcDbSymbolTableRecord
100
AcDbLinetypeTableRecord
70
0
2
DASHDOT
3
_._._._._._._._._._._._._._._._.
72
65
73
4
40
70
49
31
74
0
49
-13
74
0
49
13
74
0
49
-13
74
0
0
ENDTAB
0
TABLE
2
LAYER
5
130
100
AcDbSymbolTable
0
LAYER
5
10
100
AcDbSymbolTableRecord
100
AcDbLayerTableRecord
2
0
70
0
62
7
6
CONTINUOUS
290
1
370
-3
390
0
0
LAYER
5
42
100
AcDbSymbolTableRecord
100
AcDbLayerTableRecord
2
80
70
0
62
-6
6
CONTINUOUS
290
1
370
-3
390
0
0
LAYER
5
46
100
AcDbSymbolTableRecord
100
AcDbLayerTableRecord
2
81
70
0
62
-3
6
CONTINUOUS
290
1
370
-3
390
0
0
LAYER
5
49
100
AcDbSymbolTableRecord
100
AcDbLayerTableRecord
2
2
70
0
62
7
6
CONTINUOUS
290
1
370
-3
390
0
0
LAYER
5
4F
100
AcDbSymbolTableRecord
100
AcDbLayerTableRecord
2
1
70
0
62
4
6
CONTINUOUS
290
1
370
-3
390
0
0
LAYER
5
11b
100
AcDbSymbolTableRecord
100
AcDbLayerTableRecord
2
SK2
70
0
62
7
6
CONTINUOUS
290
1
370
-3
390
0
0
LAYER
5
11c
100
AcDbSymbolTableRecord
100
AcDbLayerTableRecord
2
SK1
70
0
62
4
6
CONTINUOUS
290
1
370
-3
390
0
0
LAYER
5
11d
100
AcDbSymbolTableRecord
100
AcDbLayerTableRecord
2
SK6
70
0
62
5
6
CONTINUOUS
290
1
370
-3
390
0
0
ENDTAB
0
TABLE
2
STYLE
5
131
100
AcDbSymbolTable
0
STYLE
5
11
100
AcDbSymbolTableRecord
100
AcDbTextStyleTableRecord
2
Standard
3
txt
70
0
71
0
40
0
41
1
42
0
50
0
0
STYLE
5
98
100
AcDbSymbolTableRecord
100
AcDbTextStyleTableRecord
2
DEFAULT
3
simplex.shx
70
0
71
0
40
0
41
1
42
0
50
0
0
STYLE
5
BB
100
AcDbSymbolTableRecord
100
AcDbTextStyleTableRecord
2
DWGDirectTextStyle
3
SIMPLEX
70
0
71
0
40
0
41
1
42
0
50
0
0
ENDTAB
0
TABLE
2
DIMSTYLE
5
132
100
AcDbSymbolTable
100
AcDbDimStyleTable
0
DIMSTYLE
105
27
100
AcDbSymbolTableRecord
100
AcDbDimStyleTableRecord
2
Standard
70
0
3
<>
41
0.18
42
0.0625
44
0.18
140
0.18
147
0.09
73
0
74
0
77
1
271
2
275
0
278
52
280
0
340
11
0
ENDTAB
0
TABLE
2
VIEW
5
133
100
AcDbSymbolTable
0
ENDTAB
0
TABLE
2
UCS
5
134
100
AcDbSymbolTable
0
ENDTAB
0
TABLE
2
APPID
5
135
100
AcDbSymbolTable
0
APPID
5
12
100
AcDbSymbolTableRecord
100
AcDbRegAppTableRecord
2
ACAD
70
0
0
ENDTAB
0
TABLE
2
BLOCK_RECORD
5
136
100
AcDbSymbolTable
0
BLOCK_RECORD
5
1F
100
AcDbSymbolTableRecord
100
AcDbBlockTableRecord
2
*Model_Space
340
0
70
0
0
BLOCK_RECORD
5
1B
100
AcDbSymbolTableRecord
100
AcDbBlockTableRecord
2
*Paper_Space
340
0
70
0
0
BLOCK_RECORD
5
23
100
AcDbSymbolTableRecord
100
AcDbBlockTableRecord
2
*Paper_Space0
340
0
70
0
0
BLOCK_RECORD
5
BD
100
AcDbSymbolTableRecord
100
AcDbBlockTableRecord
2
DimnDraft3D1
340
0
70
0
0
BLOCK_RECORD
5
CB
100
AcDbSymbolTableRecord
100
AcDbBlockTableRecord
2
_CLOSED
340
0
70
0
0
BLOCK_RECORD
5
D2
100
AcDbSymbolTableRecord
100
AcDbBlockTableRecord
2
DimnDraft3D2
340
0
70
0
0
BLOCK_RECORD
5
E0
100
AcDbSymbolTableRecord
100
AcDbBlockTableRecord
2
DimnDraft3D3
340
0
70
0
0
BLOCK_RECORD
5
EE
100
AcDbSymbolTableRecord
100
AcDbBlockTableRecord
2
DimnDraft3D4
340
0
70
0
0
ENDTAB
0
ENDSEC
0
SECTION
2
BLOCKS
0
BLOCK
5
20
100
AcDbEntity
8
0
100
AcDbBlockBegin
2
*Model_Space
70
0
10
0
20
0
30
0
3
*Model_Space
0
ENDBLK
5
21
100
AcDbEntity
8
0
100
AcDbBlockEnd
0
BLOCK
5
1C
100
AcDbEntity
8
0
100
AcDbBlockBegin
2
*Paper_Space
70
0
10
0
20
0
30
0
3
*Paper_Space
0
ENDBLK
5
1D
100
AcDbEntity
8
0
100
AcDbBlockEnd
0
BLOCK
5
24
100
AcDbEntity
8
0
100
AcDbBlockBegin
2
*Paper_Space0
70
0
10
0
20
0
30
0
3
*Paper_Space0
0
ENDBLK
5
25
100
AcDbEntity
8
0
100
AcDbBlockEnd
0
BLOCK
5
C8
100
AcDbEntity
8
0
100
AcDbBlockBegin
2
DimnDraft3D1
70
0
10
0
20
0
30
0
3
DimnDraft3D1
0
MTEXT
5
BE
100
AcDbEntity
8
2
62
256
6
ByLayer
370
-1
48
1
60
0
100
AcDbMText
10
0.347156
20
12.592235
30
0
210
0
220
0
230
1
1
\W01.000;\fsimplex.shx,bigfont.shx;91%%d0' 
40
4.5
41
0
44
1.084337
50
45.5000000000001
71
7
72
5
7
DEFAULT
0
LINE
5
BF
100
AcDbEntity
8
2
62
256
6
ByLayer
370
-1
48
1
60
0
100
AcDbLine
10
13.323419
20
8.4
30
0
11
13.323419
21
20.87261
31
0
39
0
210
0
220
0
230
1
0
LINE
5
C0
100
AcDbEntity
8
2
62
256
6
ByLayer
370
-1
48
1
60
0
100
AcDbLine
10
9.920075
20
6.347582
30
0
11
-1.14
21
6.154528
31
0
39
0
210
0
220
0
230
1
0
ARC
5
C1
100
AcDbEntity
8
2
62
256
6
ByLayer
370
-1
48
1
60
0
100
AcDbCircle
39
0
10
13.323419
20
6.406988
30
0
40
12.4656222517499
210
0
220
0
230
1
100
AcDbArc
50
90
51
181
0
LINE
5
C2
100
AcDbEntity
8
2
62
256
6
ByLayer
370
-1
48
1
60
0
100
AcDbLine
10
13.323419
20
18.87261
30
0
11
10.181242
21
18.2545
31
0
39
0
210
0
220
0
230
1
0
LINE
5
C3
100
AcDbEntity
8
2
62
256
6
ByLayer
370
-1
48
1
60
0
100
AcDbLine
10
13.323419
20
18.87261
30
0
11
10.128327
21
19.088817
31
0
39
0
210
0
220
0
230
1
0
LINE
5
C4
100
AcDbEntity
8
2
62
256
6
ByLayer
370
-1
48
1
60
0
100
AcDbLine
10
10.181242
20
18.2545
30
0
11
10.128327
21
19.088817
31
0
39
0
210
0
220
0
230
1
0
LINE
5
C5
100
AcDbEntity
8
2
62
256
6
ByLayer
370
-1
48
1
60
0
100
AcDbLine
10
0.859695
20
6.189433
30
0
11
0.587759
21
9.380261
31
0
39
0
210
0
220
0
230
1
0
LINE
5
C6
100
AcDbEntity
8
2
62
256
6
ByLayer
370
-1
48
1
60
0
100
AcDbLine
10
0.859695
20
6.189433
30
0
11
1.422873
21
9.341922
31
0
39
0
210
0
220
0
230
1
0
LINE
5
C7
100
AcDbEntity
8
2
62
256
6
ByLayer
370
-1
48
1
60
0
100
AcDbLine
10
0.587759
20
9.380261
30
0
11
1.422873
21
9.341922
31
0
39
0
210
0
220
0
230
1
0
ENDBLK
5
C9
100
AcDbEntity
8
0
100
AcDbBlockEnd
0
BLOCK
5
CC
100
AcDbEntity
8
0
100
AcDbBlockBegin
2
_CLOSED
70
0
10
0
20
0
30
0
3
_CLOSED
0
LINE
5
CE
100
AcDbEntity
8
0
62
256
6
ByLayer
370
-2
48
1
60
0
100
AcDbLine
10
-1
20
0.166667
30
0
11
0
21
0
31
0
39
0
210
0
220
0
230
1
0
LINE
5
CF
100
AcDbEntity
8
0
62
256
6
ByLayer
370
-2
48
1
60
0
100
AcDbLine
10
0
20
0
30
0
11
-1
21
-0.166667
31
0
39
0
210
0
220
0
230
1
0
LINE
5
D0
100
AcDbEntity
8
0
62
256
6
ByLayer
370
-2
48
1
60
0
100
AcDbLine
10
-1
20
0.166667
30
0
11
-1
21
-0.166667
31
0
39
0
210
0
220
0
230
1
0
LINE
5
D1
100
AcDbEntity
8
0
62
256
6
ByLayer
370
-2
48
1
60
0
100
AcDbLine
10
0
20
0
30
0
11
-1
21
0
31
0
39
0
210
0
220
0
230
1
0
ENDBLK
5
CD
100
AcDbEntity
8
0
100
AcDbBlockEnd
0
BLOCK
5
DD
100
AcDbEntity
8
0
100
AcDbBlockBegin
2
DimnDraft3D2
70
0
10
0
20
0
30
0
3
DimnDraft3D2
0
MTEXT
5
D3
100
AcDbEntity
8
SK2
62
256
6
ByLayer
370
-1
48
1
60
0
100
AcDbMText
10
-58.901581
20
15.33
30
0
210
0
220
0
230
1
1
\W01.000;\fsimplex.shx,bigfont.shx;08 
40
4.5
41
0
44
1.084337
50
90
71
7
72
5
7
DEFAULT
0
LINE
5
D4
100
AcDbEntity
8
SK2
62
256
6
ByLayer
370
-1
48
1
60
0
100
AcDbLine
10
-50.026581
20
-3.95
30
0
11
-59.776581
21
-3.95
31
0
39
0
210
0
220
0
230
1
0
LINE
5
D5
100
AcDbEntity
8
SK2
62
256
6
ByLayer
370
-1
48
1
60
0
100
AcDbLine
10
-50.026581
20
3.95
30
0
11
-59.776581
21
3.95
31
0
39
0
210
0
220
0
230
1
0
LINE
5
D6
100
AcDbEntity
8
SK2
62
256
6
ByLayer
370
-1
48
1
60
0
100
AcDbLine
10
-57.776581
20
19.462895
30
0
11
-57.776581
21
-15.2
31
0
39
0
210
0
220
0
230
1
0
LINE
5
D7
100
AcDbEntity
8
SK2
62
256
6
ByLayer
370
-1
48
1
60
0
100
AcDbLine
10
-57.776581
20
-3.95
30
0
11
-57.358584
21
-7.124998
31
0
39
0
210
0
220
0
230
1
0
LINE
5
D8
100
AcDbEntity
8
SK2
62
256
6
ByLayer
370
-1
48
1
60
0
100
AcDbLine
10
-57.776581
20
-3.95
30
0
11
-58.194578
21
-7.125002
31
0
39
0
210
0
220
0
230
1
0
LINE
5
D9
100
AcDbEntity
8
SK2
62
256
6
ByLayer
370
-1
48
1
60
0
100
AcDbLine
10
-57.358584
20
-7.124998
30
0
11
-58.194578
21
-7.125002
31
0
39
0
210
0
220
0
230
1
0
LINE
5
DA
100
AcDbEntity
8
SK2
62
256
6
ByLayer
370
-1
48
1
60
0
100
AcDbLine
10
-57.776581
20
3.95
30
0
11
-58.194578
21
7.124998
31
0
39
0
210
0
220
0
230
1
0
LINE
5
DB
100
AcDbEntity
8
SK2
62
256
6
ByLayer
370
-1
48
1
60
0
100
AcDbLine
10
-57.776581
20
3.95
30
0
11
-57.358584
21
7.125002
31
0
39
0
210
0
220
0
230
1
0
LINE
5
DC
100
AcDbEntity
8
SK2
62
256
6
ByLayer
370
-1
48
1
60
0
100
AcDbLine
10
-58.194578
20
7.124998
30
0
11
-57.358584
21
7.125002
31
0
39
0
210
0
220
0
230
1
0
ENDBLK
5
DE
100
AcDbEntity
8
0
100
AcDbBlockEnd
0
BLOCK
5
EB
100
AcDbEntity
8
0
100
AcDbBlockBegin
2
DimnDraft3D3
70
0
10
0
20
0
30
0
3
DimnDraft3D3
0
MTEXT
5
E1
100
AcDbEntity
8
2
62
256
6
ByLayer
370
-1
48
1
60
0
100
AcDbMText
10
39.448419
20
0.283553
30
0
210
0
220
0
230
1
1
\W01.000;\fsimplex.shx,bigfont.shx;10 
40
4.5
41
0
44
1.084337
50
90
71
7
72
5
7
DEFAULT
0
LINE
5
E2
100
AcDbEntity
8
2
62
256
6
ByLayer
370
-1
48
1
60
0
100
AcDbLine
10
2
20
-3.95
30
0
11
42.573419
21
-3.95
31
0
39
0
210
0
220
0
230
1
0
LINE
5
E3
100
AcDbEntity
8
2
62
256
6
ByLayer
370
-1
48
1
60
0
100
AcDbLine
10
15.323419
20
6.4
30
0
11
42.573419
21
6.4
31
0
39
0
210
0
220
0
230
1
0
LINE
5
E4
100
AcDbEntity
8
2
62
256
6
ByLayer
370
-1
48
1
60
0
100
AcDbLine
10
40.573419
20
-15.2
30
0
11
40.573419
21
17.65
31
0
39
0
210
0
220
0
230
1
0
LINE
5
E5
100
AcDbEntity
8
2
62
256
6
ByLayer
370
-1
48
1
60
0
100
AcDbLine
10
40.573419
20
-3.95
30
0
11
40.991416
21
-7.124998
31
0
39
0
210
0
220
0
230
1
0
LINE
5
E6
100
AcDbEntity
8
2
62
256
6
ByLayer
370
-1
48
1
60
0
100
AcDbLine
10
40.573419
20
-3.95
30
0
11
40.155422
21
-7.125002
31
0
39
0
210
0
220
0
230
1
0
LINE
5
E7
100
AcDbEntity
8
2
62
256
6
ByLayer
370
-1
48
1
60
0
100
AcDbLine
10
40.991416
20
-7.124998
30
0
11
40.155422
21
-7.125002
31
0
39
0
210
0
220
0
230
1
0
LINE
5
E8
100
AcDbEntity
8
2
62
256
6
ByLayer
370
-1
48
1
60
0
100
AcDbLine
10
40.573419
20
6.4
30
0
11
40.155422
21
9.574998
31
0
39
0
210
0
220
0
230
1
0
LINE
5
E9
100
AcDbEntity
8
2
62
256
6
ByLayer
370
-1
48
1
60
0
100
AcDbLine
10
40.573419
20
6.4
30
0
11
40.991416
21
9.575002
31
0
39
0
210
0
220
0
230
1
0
LINE
5
EA
100
AcDbEntity
8
2
62
256
6
ByLayer
370
-1
48
1
60
0
100
AcDbLine
10
40.155422
20
9.574998
30
0
11
40.991416
21
9.575002
31
0
39
0
210
0
220
0
230
1
0
ENDBLK
5
EC
100
AcDbEntity
8
0
100
AcDbBlockEnd
0
BLOCK
5
F9
100
AcDbEntity
8
0
100
AcDbBlockBegin
2
DimnDraft3D4
70
0
10
0
20
0
30
0
3
DimnDraft3D4
0
MTEXT
5
EF
100
AcDbEntity
8
SK2
62
256
6
ByLayer
370
-1
48
1
60
0
100
AcDbMText
10
-18.855528
20
27.275
30
0
210
0
220
0
230
1
1
\W01.000;\fsimplex.shx,bigfont.shx;60 
40
4.5
41
0
44
1.084337
50
0
71
7
72
5
7
DEFAULT
0
LINE
5
F0
100
AcDbEntity
8
SK2
62
256
6
ByLayer
370
-1
48
1
60
0
100
AcDbLine
10
13.323419
20
8.4
30
0
11
13.323419
21
28.15
31
0
39
0
210
0
220
0
230
1
0
LINE
5
F1
100
AcDbEntity
8
SK2
62
256
6
ByLayer
370
-1
48
1
60
0
100
AcDbLine
10
-48.026581
20
5.95
30
0
11
-48.026581
21
28.15
31
0
39
0
210
0
220
0
230
1
0
LINE
5
F2
100
AcDbEntity
8
SK2
62
256
6
ByLayer
370
-1
48
1
60
0
100
AcDbLine
10
13.323419
20
26.15
30
0
11
-48.026581
21
26.15
31
0
39
0
210
0
220
0
230
1
0
LINE
5
F3
100
AcDbEntity
8
SK2
62
256
6
ByLayer
370
-1
48
1
60
0
100
AcDbLine
10
13.323419
20
26.15
30
0
11
10.148421
21
25.732003
31
0
39
0
210
0
220
0
230
1
0
LINE
5
F4
100
AcDbEntity
8
SK2
62
256
6
ByLayer
370
-1
48
1
60
0
100
AcDbLine
10
13.323419
20
26.15
30
0
11
10.148418
21
26.567997
31
0
39
0
210
0
220
0
230
1
0
LINE
5
F5
100
AcDbEntity
8
SK2
62
256
6
ByLayer
370
-1
48
1
60
0
100
AcDbLine
10
10.148421
20
25.732003
30
0
11
10.148418
21
26.567997
31
0
39
0
210
0
220
0
230
1
0
LINE
5
F6
100
AcDbEntity
8
SK2
62
256
6
ByLayer
370
-1
48
1
60
0
100
AcDbLine
10
-48.026581
20
26.15
30
0
11
-44.851582
21
26.567997
31
0
39
0
210
0
220
0
230
1
0
LINE
5
F7
100
AcDbEntity
8
SK2
62
256
6
ByLayer
370
-1
48
1
60
0
100
AcDbLine
10
-48.026581
20
26.15
30
0
11
-44.851579
21
25.732003
31
0
39
0
210
0
220
0
230
1
0
LINE
5
F8
100
AcDbEntity
8
SK2
62
256
6
ByLayer
370
-1
48
1
60
0
100
AcDbLine
10
-44.851582
20
26.567997
30
0
11
-44.851579
21
25.732003
31
0
39
0
210
0
220
0
230
1
0
ENDBLK
5
FA
100
AcDbEntity
8
0
100
AcDbBlockEnd
0
ENDSEC
0
SECTION
2
ENTITIES
0
ARC
5
68
100
AcDbEntity
8
1
62
256
6
ByLayer
370
-1
48
1
60
0
100
AcDbCircle
39
0
10
9.379245
20
-0.561514
30
0
40
1.09423045315122
210
0
220
0
230
1
100
AcDbArc
50
292.311287
51
31
0
ARC
5
69
100
AcDbEntity
8
1
62
256
6
ByLayer
370
-1
48
1
60
0
100
AcDbCircle
39
0
10
9.379245
20
-0.561514
30
0
40
1
210
0
220
0
230
1
100
AcDbArc
50
295.083329
51
31
0
ARC
5
6A
100
AcDbEntity
8
1
62
256
6
ByLayer
370
-1
48
1
60
0
100
AcDbCircle
39
0
10
8.928332
20
-1.450914
30
0
40
0.875
210
0
220
0
230
1
100
AcDbArc
50
358.933071
51
42.33721
0
ARC
5
6B
100
AcDbEntity
8
1
62
256
6
ByLayer
370
-1
48
1
60
0
100
AcDbCircle
39
0
10
-8.928332
20
-1.450914
30
0
40
0.875
210
0
220
0
230
-1
100
AcDbArc
50
188.075058
51
40.335949
0
ARC
5
6C
100
AcDbEntity
8
1
62
256
6
ByLayer
370
-1
48
1
60
0
100
AcDbCircle
39
0
10
-8.842167
20
3.548984
30
0
40
1.03500000000001
210
0
220
0
230
-1
100
AcDbArc
50
208.950841
51
269.049159
0
ARC
5
6D
100
AcDbEntity
8
1
62
256
6
ByLayer
370
-1
48
1
60
0
100
AcDbCircle
39
0
10
-12.92633
20
6.002996
30
0
40
0.397000000000059
210
0
220
0
230
-1
100
AcDbArc
50
89
51
209
0
ARC
5
6E
100
AcDbEntity
8
1
62
256
6
ByLayer
370
-1
48
1
60
0
100
AcDbCircle
39
0
10
8.842167
20
3.548984
30
0
40
0.748000000000003
210
0
220
0
230
1
100
AcDbArc
50
303.161847
51
1.024579
0
ARC
5
70
100
AcDbEntity
8
1
62
256
6
ByLayer
370
-1
48
1
60
0
100
AcDbCircle
39
0
10
8.842167
20
3.548984
30
0
40
0.748000000000003
210
0
220
0
230
1
100
AcDbArc
50
123.161847
51
181.024579
0
ARC
5
71
100
AcDbEntity
8
1
62
256
6
ByLayer
370
-1
48
1
60
0
100
AcDbCircle
39
0
10
-8.924249
20
-1.216949
30
0
40
0.397000000000019
210
0
220
0
230
-1
100
AcDbArc
50
209
51
329
0
ARC
5
74
100
AcDbEntity
8
1
62
256
6
ByLayer
370
-1
48
1
60
0
100
AcDbCircle
39
0
10
-8.842167
20
3.548984
30
0
40
1.03500000000001
210
0
220
0
230
-1
100
AcDbArc
50
149
51
208.950841
0
ARC
5
75
100
AcDbEntity
8
1
62
256
6
ByLayer
370
-1
48
1
60
0
100
AcDbCircle
39
0
10
-8.842167
20
3.548984
30
0
40
1.03500000000001
210
0
220
0
230
-1
100
AcDbArc
50
28.950841
51
89.049159
0
ARC
5
76
100
AcDbEntity
8
1
62
256
6
ByLayer
370
-1
48
1
60
0
100
AcDbCircle
39
0
10
-8.842167
20
3.548984
30
0
40
1.03500000000001
210
0
220
0
230
-1
100
AcDbArc
50
89.049159
51
149
0
ARC
5
77
100
AcDbEntity
8
1
62
256
6
ByLayer
370
-1
48
1
60
0
100
AcDbCircle
39
0
10
-8.842167
20
3.548984
30
0
40
0.748000000000003
210
0
220
0
230
-1
100
AcDbArc
50
56.838153
51
61.161847
0
ARC
5
78
100
AcDbEntity
8
1
62
256
6
ByLayer
370
-1
48
1
60
0
100
AcDbCircle
39
0
10
8.842167
20
3.548984
30
0
40
0.748000000000003
210
0
220
0
230
1
100
AcDbArc
50
181.024579
51
240.975421
0
ARC
5
7B
100
AcDbEntity
8
1
62
256
6
ByLayer
370
-1
48
1
60
0
100
AcDbCircle
39
0
10
-8.842167
20
3.548984
30
0
40
0.748000000000003
210
0
220
0
230
-1
100
AcDbArc
50
236.838153
51
241.161847
0
ARC
5
7C
100
AcDbEntity
8
1
62
256
6
ByLayer
370
-1
48
1
60
0
100
AcDbCircle
39
0
10
8.842167
20
3.548984
30
0
40
0.748000000000003
210
0
220
0
230
1
100
AcDbArc
50
240.975421
51
298.838153
0
ARC
5
7D
100
AcDbEntity
8
1
62
256
6
ByLayer
370
-1
48
1
60
0
100
AcDbCircle
39
0
10
8.842167
20
3.548984
30
0
40
0.748000000000003
210
0
220
0
230
1
100
AcDbArc
50
1.024579
51
60.975421
0
ARC
5
7E
100
AcDbEntity
8
1
62
256
6
ByLayer
370
-1
48
1
60
0
100
AcDbCircle
39
0
10
-8.842167
20
3.548984
30
0
40
1.03500000000001
210
0
220
0
230
-1
100
AcDbArc
50
329
51
28.950841
0
ARC
5
7F
100
AcDbEntity
8
1
62
256
6
ByLayer
370
-1
48
1
60
0
100
AcDbCircle
39
0
10
-8.842167
20
3.548984
30
0
40
1.03500000000001
210
0
220
0
230
-1
100
AcDbArc
50
269.049159
51
329
0
ARC
5
80
100
AcDbEntity
8
1
62
256
6
ByLayer
370
-1
48
1
60
0
100
AcDbCircle
39
0
10
-4.672633
20
5.858927
30
0
40
0.397000000000057
210
0
220
0
230
-1
100
AcDbArc
50
329
51
89
0
ARC
5
81
100
AcDbEntity
8
1
62
256
6
ByLayer
370
-1
48
1
60
0
100
AcDbCircle
39
0
10
8.842167
20
3.548984
30
0
40
0.748000000000004
210
0
220
0
230
1
100
AcDbArc
50
60.975421
51
118.838153
0
CIRCLE
5
6F
100
AcDbEntity
8
1
62
256
6
ByLayer
370
-1
48
1
60
0
100
AcDbCircle
10
-8.84107
20
3.548325
30
0
40
1.65562313415252
39
0
210
0
220
0
230
-1
0
CIRCLE
5
72
100
AcDbEntity
8
1
62
256
6
ByLayer
370
-1
48
1
60
0
100
AcDbCircle
10
8.84107
20
3.548325
30
0
40
1.60759144878563
39
0
210
0
220
0
230
1
0
CIRCLE
5
73
100
AcDbEntity
8
1
62
256
6
ByLayer
370
-1
48
1
60
0
100
AcDbCircle
10
-8.84107
20
3.548325
30
0
40
1.69405389152441
39
0
210
0
220
0
230
-1
0
CIRCLE
5
79
100
AcDbEntity
8
1
62
256
6
ByLayer
370
-1
48
1
60
0
100
AcDbCircle
10
-8.842167
20
3.548984
30
0
40
1.55000000000001
39
0
210
0
220
0
230
-1
0
CIRCLE
5
7A
100
AcDbEntity
8
1
62
256
6
ByLayer
370
-1
48
1
60
0
100
AcDbCircle
10
-8.842167
20
3.548984
30
0
40
1.1
39
0
210
0
220
0
230
-1
0
POINT
5
41
100
AcDbEntity
8
80
62
256
6
ByLayer
370
-1
48
1
60
0
100
AcDbPoint
10
0
20
0
30
0
39
0
210
0
220
0
230
1
50
360
0
POINT
5
43
100
AcDbEntity
8
SK2
62
256
6
ByLayer
370
-1
48
1
60
0
100
AcDbPoint
10
13.323419
20
6.4
30
0
39
0
210
0
220
0
230
1
50
360
0
POINT
5
45
100
AcDbEntity
8
81
62
256
6
ByLayer
370
-1
48
1
60
0
100
AcDbPoint
10
13.323419
20
6.4
30
0
39
0
210
0
220
0
230
1
50
360
0
POINT
5
47
100
AcDbEntity
8
SK2
62
256
6
ByLayer
370
-1
48
1
60
0
100
AcDbPoint
10
13.323419
20
6.4
30
0
39
0
210
0
220
0
230
1
50
360
0
POINT
5
48
100
AcDbEntity
8
2
62
256
6
ByLayer
370
-1
48
1
60
0
100
AcDbPoint
10
13.323419
20
6.4
30
0
39
0
210
0
220
0
230
1
50
360
0
POINT
5
4A
100
AcDbEntity
8
SK2
62
256
6
ByLayer
370
-1
48
1
60
0
100
AcDbPoint
10
13.323419
20
6.4
30
0
39
0
210
0
220
0
230
1
50
360
0
POINT
5
4B
100
AcDbEntity
8
SK2
62
256
6
ByLayer
370
-1
48
1
60
0
100
AcDbPoint
10
13.323419
20
6.4
30
0
39
0
210
0
220
0
230
1
50
360
0
SPLINE
5
82
100
AcDbEntity
8
1
62
256
6
ByLayer
370
-1
48
1
60
0
100
AcDbSpline
70
4
71
3
72
8
73
4
40
0
40
0
40
0
40
0
40
1
40
1
40
1
40
1
41
1
10
9.794656739613
20
-1.57382516029011
30
0
41
1
10
9.79976980946844
20
-1.53778640030637
30
0
41
1
10
9.80252900077434
20
-1.50220236175619
30
0
41
1
10
9.80318074892188
20
-1.46720651028539
30
0
0
SPLINE
5
83
100
AcDbEntity
8
1
62
256
6
ByLayer
370
-1
48
1
60
0
100
AcDbSpline
70
4
71
3
72
18
73
14
40
0
40
0
40
0
40
0
40
0.213310846837445
40
0.213310846837445
40
0.388935063538416
40
0.388935063538416
40
0.566198523709674
40
0.566198523709674
40
0.721124131607326
40
0.721124131607326
40
0.927349976078792
40
0.927349976078792
40
1
40
1
40
1
40
1
41
1
10
9.70523351291655
20
3.85971614386151
30
0
41
1
10
9.67546795295135
20
3.82821121645387
30
0
41
1
10
9.64961649490678
20
3.79097410913701
30
0
41
1
10
9.614074491743
20
3.7154304696557
30
0
41
1
10
9.60202418340236
20
3.67758012086838
30
0
41
1
10
9.58910280355435
20
3.59906918756491
30
0
41
1
10
9.58825768704725
20
3.55721439914069
30
0
41
1
10
9.59767796331168
20
3.48222287095018
30
0
41
1
10
9.60661419974144
20
3.44775171377995
30
0
41
1
10
9.63549021761227
20
3.37399938109911
30
0
41
1
10
9.65845470526662
20
3.33556737894517
30
0
41
1
10
9.69500060805404
20
3.2909106441204
30
0
41
1
10
9.70516145433569
20
3.27978578645789
30
0
41
1
10
9.71579243614717
20
3.26931065180935
30
0
0
SPLINE
5
84
100
AcDbEntity
8
1
62
256
6
ByLayer
370
-1
48
1
60
0
100
AcDbSpline
70
4
71
3
72
12
73
8
40
0
40
0
40
0
40
0
40
0.464589426689299
40
0.464589426689299
40
0.846565595641468
40
0.846565595641468
40
1
40
1
40
1
40
1
41
1
10
9.54268516980007
20
2.95766304529152
30
0
41
1
10
9.50046223496329
20
2.96781839524715
30
0
41
1
10
9.45521000489489
20
2.97170015785309
30
0
41
1
10
9.37189507308484
20
2.96486685265452
30
0
41
1
10
9.33305256252052
20
2.9564486936651
30
0
41
1
10
9.28077628317115
20
2.93685301253745
30
0
41
1
10
9.26583743377527
20
2.93025767718075
30
0
41
1
10
9.25132753338329
20
2.92281143484308
30
0
0
SPLINE
5
85
100
AcDbEntity
8
1
62
256
6
ByLayer
370
-1
48
1
60
0
100
AcDbSpline
70
4
71
3
72
12
73
8
40
0
40
0
40
0
40
0
40
0.464589426689109
40
0.464589426689109
40
0.84656559564114
40
0.84656559564114
40
1
40
1
40
1
40
1
41
1
10
8.14164905891909
20
4.14030442793526
30
0
41
1
10
8.18387199375586
20
4.13014907797964
30
0
41
1
10
8.22912422382426
20
4.12626731537372
30
0
41
1
10
8.31243915563431
20
4.13310062057226
30
0
41
1
10
8.35128166619864
20
4.14151877956169
30
0
41
1
10
8.40355794554796
20
4.16111446068933
30
0
41
1
10
8.41849679494379
20
4.16770979604601
30
0
41
1
10
8.43300669533573
20
4.17515603838365
30
0
0
SPLINE
5
86
100
AcDbEntity
8
1
62
256
6
ByLayer
370
-1
48
1
60
0
100
AcDbSpline
70
4
71
3
72
14
73
10
40
0
40
0
40
0
40
0
40
0.282559344044597
40
0.282559344044597
40
0.570018452365813
40
0.570018452365813
40
0.830476628481191
40
0.830476628481191
40
1
40
1
40
1
40
1
41
1
10
9.00537268245313
20
4.45164767173918
30
0
41
1
10
8.99937659328458
20
4.47179076495166
30
0
41
1
10
8.98967429075154
20
4.49151863907298
30
0
41
1
10
8.96343332361484
20
4.52689672102846
30
0
41
1
10
8.94633979992781
20
4.54299435930179
30
0
41
1
10
8.90894004279369
20
4.56657454330815
30
0
41
1
10
8.88850294975572
20
4.57504789976304
30
0
41
1
10
8.85355590019
20
4.58264573573888
30
0
41
1
10
8.83920436022871
20
4.58407710240559
30
0
41
1
10
8.82499175393642
20
4.58384121810266
30
0
0
SPLINE
5
87
100
AcDbEntity
8
1
62
256
6
ByLayer
370
-1
48
1
60
0
100
AcDbSpline
70
4
71
3
72
18
73
14
40
0
40
0
40
0
40
0
40
0.213391867581852
40
0.213391867581852
40
0.389002173648907
40
0.389002173648907
40
0.566250773929105
40
0.566250773929105
40
0.721173901793903
40
0.721173901793903
40
0.927414379202976
40
0.927414379202976
40
1
40
1
40
1
40
1
41
1
10
8.67896154626578
20
2.64631980148832
30
0
41
1
10
8.66659119538255
20
2.68787641012295
30
0
41
1
10
8.64729366938889
20
2.72891524258353
30
0
41
1
10
8.59968279476863
20
2.79751577895823
30
0
41
1
10
8.57295177753583
20
2.82689494586751
30
0
41
1
10
8.51146190473756
20
2.87738334166343
30
0
41
1
10
8.4756565822332
20
2.89906792427701
30
0
41
1
10
8.40602863780123
20
2.92845751977677
30
0
41
1
10
8.37171613711871
20
2.9379803566938
30
0
41
1
10
8.29341469590072
20
2.949910374757
30
0
41
1
10
8.24864655199369
20
2.94927300883501
30
0
41
1
10
8.19170380886644
20
2.93999696002916
30
0
41
1
10
8.17699948800768
20
2.93677466526299
30
0
41
1
10
8.16262155243807
20
2.93282136636907
30
0
0
SPLINE
5
88
100
AcDbEntity
8
1
62
256
6
ByLayer
370
-1
48
1
60
0
100
AcDbSpline
70
4
71
3
72
16
73
12
40
0
40
0
40
0
40
0
40
0.0668629219468483
40
0.0668629219468483
40
0.291508058454633
40
0.291508058454633
40
0.519131180701772
40
0.519131180701772
40
0.761320679058428
40
0.761320679058428
40
1
40
1
40
1
40
1
41
1
10
7.95499895813289
20
3.01591932908147
30
0
41
1
10
7.9578959450165
20
3.01109793325045
30
0
41
1
10
7.96101714818116
20
3.00640295173372
30
0
41
1
10
7.97542586589279
20
2.98673518006143
30
0
41
1
10
7.98899462032321
20
2.97319489220789
30
0
41
1
10
8.01894212216351
20
2.95113790394814
30
0
41
1
10
8.03572815564262
20
2.94239729701508
30
0
41
1
10
8.07114433374205
20
2.93009872389024
30
0
41
1
10
8.09026085831302
20
2.92673507746178
30
0
41
1
10
8.12722985605235
20
2.92579369048494
30
0
41
1
10
8.14547903344163
20
2.92810792882034
30
0
41
1
10
8.16262155243805
20
2.93282136636907
30
0
0
SPLINE
5
89
100
AcDbEntity
8
1
62
256
6
ByLayer
370
-1
48
1
60
0
100
AcDbSpline
70
4
71
3
72
12
73
8
40
0
40
0
40
0
40
0
40
0.377026881446444
40
0.377026881446444
40
0.761057564196367
40
0.761057564196367
40
1
40
1
40
1
40
1
41
1
10
8.48137896914585
20
4.20422103276897
30
0
41
1
10
8.51381420111008
20
4.22679253773299
30
0
41
1
10
8.54309993433955
20
4.25418947331949
30
0
41
1
10
8.5917497787897
20
4.31374412566146
30
0
41
1
10
8.61165171436721
20
4.34672340060322
30
0
41
1
10
8.63583640950964
20
4.40162379104103
30
0
41
1
10
8.64330060921165
20
4.42328788557387
30
0
41
1
10
8.64893523959663
20
4.4451127164813
30
0
0
SPLINE
5
8A
100
AcDbEntity
8
1
62
256
6
ByLayer
370
-1
48
1
60
0
100
AcDbSpline
70
4
71
3
72
12
73
8
40
0
40
0
40
0
40
0
40
0.377026881206036
40
0.377026881206036
40
0.761057563917026
40
0.761057563917026
40
1
40
1
40
1
40
1
41
1
10
9.20295525957341
20
2.8937464404579
30
0
41
1
10
9.17052002762978
20
2.87117493550824
30
0
41
1
10
9.14123429441685
20
2.84377799994243
30
0
41
1
10
9.09258444997241
20
2.78422334762862
30
0
41
1
10
9.07268251439004
20
2.75124407269251
30
0
41
1
10
9.04849781922692
20
2.69634368223626
30
0
41
1
10
9.04103361951407
20
2.67467958767833
30
0
41
1
10
9.03539898912253
20
2.65285475674548
30
0
0
SPLINE
5
8B
100
AcDbEntity
8
1
62
256
6
ByLayer
370
-1
48
1
60
0
100
AcDbSpline
70
4
71
3
72
14
73
10
40
0
40
0
40
0
40
0
40
0.282559344046801
40
0.282559344046801
40
0.570018452367083
40
0.570018452367083
40
0.830476628481616
40
0.830476628481616
40
1
40
1
40
1
40
1
41
1
10
8.6789615462658
20
2.64631980148832
30
0
41
1
10
8.68495763543433
20
2.62617670827561
30
0
41
1
10
8.69465993796743
20
2.60644883415404
30
0
41
1
10
8.72090090510429
20
2.57107075219835
30
0
41
1
10
8.7379944287913
20
2.55497311392503
30
0
41
1
10
8.77539418592542
20
2.53139292991864
30
0
41
1
10
8.79583127896339
20
2.52291957346375
30
0
41
1
10
8.83077832852911
20
2.51532173748791
30
0
41
1
10
8.8451298684904
20
2.5138903708212
30
0
41
1
10
8.85934247478272
20
2.51412625512413
30
0
0
SPLINE
5
8C
100
AcDbEntity
8
1
62
256
6
ByLayer
370
-1
48
1
60
0
100
AcDbSpline
70
4
71
3
72
14
73
10
40
0
40
0
40
0
40
0
40
0.284252833288324
40
0.284252833288324
40
0.571499987480373
40
0.571499987480373
40
0.831789645385625
40
0.831789645385625
40
1
40
1
40
1
40
1
41
1
10
7.97910071580259
20
3.23825132936528
30
0
41
1
10
7.96458119015986
20
3.22288334697549
30
0
41
1
10
7.95230279448842
20
3.20447671296677
30
0
41
1
10
7.93485692870324
20
3.16389440636235
30
0
41
1
10
7.92953235314297
20
3.14103818049813
30
0
41
1
10
7.92793650402021
20
3.09687637852292
30
0
41
1
10
7.93087571752953
20
3.07496012415984
30
0
41
1
10
7.94182232931004
20
3.04103937598799
30
0
41
1
10
7.94773439984952
20
3.02800958438084
30
0
41
1
10
7.95499895813289
20
3.01591932908147
30
0
0
SPLINE
5
8D
100
AcDbEntity
8
1
62
256
6
ByLayer
370
-1
48
1
60
0
100
AcDbSpline
70
4
71
3
72
16
73
12
40
0
40
0
40
0
40
0
40
0.0652339252909157
40
0.0652339252909157
40
0.28989976063314
40
0.28989976063314
40
0.517452153050939
40
0.517452153050939
40
0.759496397026937
40
0.759496397026937
40
1
40
1
40
1
40
1
41
1
10
9.74782869329331
20
3.04798263437584
30
0
41
1
10
9.75048556523203
20
3.05278547178338
30
0
41
1
10
9.75293128711056
20
3.05771267934472
30
0
41
1
10
9.76273610357183
20
3.07989011375784
30
0
41
1
10
9.76770387075888
20
3.09840907608347
30
0
41
1
10
9.7718797196097
20
3.13537054899132
30
0
41
1
10
9.77108097679678
20
3.15427803075687
30
0
41
1
10
9.76407297099625
20
3.19110106172732
30
0
41
1
10
9.75745434483613
20
3.20934188612176
30
0
41
1
10
9.73976511462052
20
3.24197378816959
30
0
41
1
10
9.72855118185109
20
3.25673894568047
30
0
41
1
10
9.71579243614717
20
3.26931065180935
30
0
0
SPLINE
5
8E
100
AcDbEntity
8
1
62
256
6
ByLayer
370
-1
48
1
60
0
100
AcDbSpline
70
4
71
3
72
14
73
10
40
0
40
0
40
0
40
0
40
0.284032913699678
40
0.284032913699678
40
0.570747132587489
40
0.570747132587489
40
0.830522675675645
40
0.830522675675645
40
1
40
1
40
1
40
1
41
1
10
8.14164905891909
20
4.14030442793526
30
0
41
1
10
8.1210570200009
20
4.1452571713275
30
0
41
1
10
8.09894109515133
20
4.14674107891463
30
0
41
1
10
8.05501030958217
20
4.1416403406601
30
0
41
1
10
8.03252573350983
20
4.13486143885453
30
0
41
1
10
7.9934202929656
20
4.11421730303152
30
0
41
1
10
7.97587521100141
20
4.10073351775443
30
0
41
1
10
7.95182475744387
20
4.07421084052834
30
0
41
1
10
7.94340384469783
20
4.06245493849613
30
0
41
1
10
7.93650553542582
20
4.04998483885095
30
0
0
SPLINE
5
8F
100
AcDbEntity
8
1
62
256
6
ByLayer
370
-1
48
1
60
0
100
AcDbSpline
70
4
71
3
72
16
73
12
40
0
40
0
40
0
40
0
40
0.0654499898243478
40
0.0654499898243478
40
0.289460871157355
40
0.289460871157355
40
0.516372687515795
40
0.516372687515795
40
0.757752970114448
40
0.757752970114448
40
1
40
1
40
1
40
1
41
1
10
8.82499175393642
20
4.58384121810266
30
0
41
1
10
8.81946987177479
20
4.58374957232726
30
0
41
1
10
8.81394536403545
20
4.58340983783859
30
0
41
1
10
8.78980080965404
20
4.58083694435177
30
0
41
1
10
8.77127438294433
20
4.57590164981906
30
0
41
1
10
8.73716002014781
20
4.56107795452863
30
0
41
1
10
8.72117288737601
20
4.55095116591798
30
0
41
1
10
8.69275710548538
20
4.52650288544109
30
0
41
1
10
8.68025119009012
20
4.51166404788347
30
0
41
1
10
8.66070218178879
20
4.47989349345647
30
0
41
1
10
8.65345606503422
20
4.46262340378391
30
0
41
1
10
8.64893523959663
20
4.4451127164813
30
0
0
SPLINE
5
90
100
AcDbEntity
8
1
62
256
6
ByLayer
370
-1
48
1
60
0
100
AcDbSpline
70
4
71
3
72
18
73
14
40
0
40
0
40
0
40
0
40
0.213310846837434
40
0.213310846837434
40
0.388935063538402
40
0.388935063538402
40
0.566198523709661
40
0.566198523709661
40
0.721124131607313
40
0.721124131607313
40
0.927349976078775
40
0.927349976078775
40
1
40
1
40
1
40
1
41
1
10
7.97910071580259
20
3.23825132936528
30
0
41
1
10
8.00886627576779
20
3.26975625677292
30
0
41
1
10
8.03471773381236
20
3.30699336408978
30
0
41
1
10
8.07025973697614
20
3.38253700357106
30
0
41
1
10
8.08231004531679
20
3.42038735235838
30
0
41
1
10
8.09523142516478
20
3.49889828566185
30
0
41
1
10
8.09607654167191
20
3.54075307408607
30
0
41
1
10
8.08665626540747
20
3.61574460227661
30
0
41
1
10
8.07772002897769
20
3.65021575944684
30
0
41
1
10
8.04884401110688
20
3.72396809212765
30
0
41
1
10
8.02587952345255
20
3.76240009428162
30
0
41
1
10
7.98933362066511
20
3.80705682910639
30
0
41
1
10
7.97917277438344
20
3.8181816867689
30
0
41
1
10
7.96854179257198
20
3.82865682141744
30
0
0
SPLINE
5
91
100
AcDbEntity
8
1
62
256
6
ByLayer
370
-1
48
1
60
0
100
AcDbSpline
70
4
71
3
72
16
73
12
40
0
40
0
40
0
40
0
40
0.0654499898242086
40
0.0654499898242086
40
0.289460871157258
40
0.289460871157258
40
0.516372687515635
40
0.516372687515635
40
0.757752970114298
40
0.757752970114298
40
1
40
1
40
1
40
1
41
1
10
8.85934247478272
20
2.51412625512413
30
0
41
1
10
8.86486435694434
20
2.51421790089952
30
0
41
1
10
8.87038886468366
20
2.5145576353882
30
0
41
1
10
8.89453341906507
20
2.51713052887499
30
0
41
1
10
8.91305984577478
20
2.5220658234077
30
0
41
1
10
8.94717420857131
20
2.53688951869813
30
0
41
1
10
8.9631613413431
20
2.54701630730878
30
0
41
1
10
8.99157712323372
20
2.5714645877857
30
0
41
1
10
9.00408303862901
20
2.58630342534329
30
0
41
1
10
9.02363204693035
20
2.61807397977032
30
0
41
1
10
9.03087816368493
20
2.63534406944288
30
0
41
1
10
9.03539898912251
20
2.65285475674548
30
0
0
SPLINE
5
92
100
AcDbEntity
8
1
62
256
6
ByLayer
370
-1
48
1
60
0
100
AcDbSpline
70
4
71
3
72
14
73
10
40
0
40
0
40
0
40
0
40
0.284032913699692
40
0.284032913699692
40
0.57074713258749
40
0.57074713258749
40
0.830522675675674
40
0.830522675675674
40
1
40
1
40
1
40
1
41
1
10
9.54268516980005
20
2.95766304529152
30
0
41
1
10
9.56327720871823
20
2.95271030189929
30
0
41
1
10
9.58539313356781
20
2.95122639431216
30
0
41
1
10
9.62932391913697
20
2.95632713256669
30
0
41
1
10
9.65180849520934
20
2.96310603437226
30
0
41
1
10
9.69091393575354
20
2.98375017019527
30
0
41
1
10
9.70845901771773
20
2.99723395547235
30
0
41
1
10
9.73250947127528
20
3.02375663269845
30
0
41
1
10
9.74093038402133
20
3.03551253473068
30
0
41
1
10
9.74782869329331
20
3.04798263437584
30
0
0
SPLINE
5
93
100
AcDbEntity
8
1
62
256
6
ByLayer
370
-1
48
1
60
0
100
AcDbSpline
70
4
71
3
72
18
73
14
40
0
40
0
40
0
40
0
40
0.213391867582798
40
0.213391867582798
40
0.389002173649643
40
0.389002173649643
40
0.566250773929633
40
0.566250773929633
40
0.721173901794227
40
0.721173901794227
40
0.927414379203043
40
0.927414379203043
40
1
40
1
40
1
40
1
41
1
10
9.00537268245314
20
4.45164767173918
30
0
41
1
10
9.01774303333636
20
4.41009106310432
30
0
41
1
10
9.03704055933011
20
4.36905223064349
30
0
41
1
10
9.0846514339505
20
4.30045169426856
30
0
41
1
10
9.11138245118329
20
4.27107252735928
30
0
41
1
10
9.17287232398157
20
4.22058413156336
30
0
41
1
10
9.20867764648594
20
4.19889954894978
30
0
41
1
10
9.27830559091791
20
4.16950995345002
30
0
41
1
10
9.31261809160043
20
4.15998711653299
30
0
41
1
10
9.3909195328184
20
4.14805709846979
30
0
41
1
10
9.43568767672545
20
4.14869446439175
30
0
41
1
10
9.49263041985269
20
4.15797051319762
30
0
41
1
10
9.50733474071146
20
4.16119280796383
30
0
41
1
10
9.52171267628108
20
4.16514610685772
30
0
0
SPLINE
5
94
100
AcDbEntity
8
1
62
256
6
ByLayer
370
-1
48
1
60
0
100
AcDbSpline
70
4
71
3
72
16
73
12
40
0
40
0
40
0
40
0
40
0.0652339252909349
40
0.0652339252909349
40
0.289899760633155
40
0.289899760633155
40
0.517452153050953
40
0.517452153050953
40
0.759496397026954
40
0.759496397026954
40
1
40
1
40
1
40
1
41
1
10
7.93650553542582
20
4.04998483885095
30
0
41
1
10
7.93384866348711
20
4.04518200144341
30
0
41
1
10
7.93140294160858
20
4.04025479388207
30
0
41
1
10
7.92159812514733
20
4.01807735946895
30
0
41
1
10
7.91663035796026
20
3.99955839714332
30
0
41
1
10
7.91245450910944
20
3.96259692423547
30
0
41
1
10
7.91325325192236
20
3.94368944246992
30
0
41
1
10
7.9202612577229
20
3.90686641149947
30
0
41
1
10
7.926879883883
20
3.88862558710502
30
0
41
1
10
7.94456911409863
20
3.8559936850572
30
0
41
1
10
7.95578304686805
20
3.84122852754632
30
0
41
1
10
7.96854179257198
20
3.82865682141744
30
0
0
SPLINE
5
95
100
AcDbEntity
8
1
62
256
6
ByLayer
370
-1
48
1
60
0
100
AcDbSpline
70
4
71
3
72
14
73
10
40
0
40
0
40
0
40
0
40
0.284252833288248
40
0.284252833288248
40
0.571499987480307
40
0.571499987480307
40
0.831789645385585
40
0.831789645385585
40
1
40
1
40
1
40
1
41
1
10
9.70523351291655
20
3.85971614386151
30
0
41
1
10
9.71975303855928
20
3.87508412625129
30
0
41
1
10
9.73203143423072
20
3.89349076026005
30
0
41
1
10
9.74947730001588
20
3.93407306686441
30
0
41
1
10
9.75480187557616
20
3.95692929272863
30
0
41
1
10
9.75639772469893
20
4.00109109470384
30
0
41
1
10
9.75345851118961
20
4.02300734906692
30
0
41
1
10
9.7425118994091
20
4.0569280972388
30
0
41
1
10
9.73659982886963
20
4.06995788884595
30
0
41
1
10
9.72933527058626
20
4.08204814414532
30
0
0
SPLINE
5
96
100
AcDbEntity
8
1
62
256
6
ByLayer
370
-1
48
1
60
0
100
AcDbSpline
70
4
71
3
72
16
73
12
40
0
40
0
40
0
40
0
40
0.0668629219468456
40
0.0668629219468456
40
0.291508058454577
40
0.291508058454577
40
0.519131180701752
40
0.519131180701752
40
0.761320679058373
40
0.761320679058373
40
1
40
1
40
1
40
1
41
1
10
9.72933527058626
20
4.08204814414532
30
0
41
1
10
9.72643828370265
20
4.08686953997633
30
0
41
1
10
9.723317080538
20
4.09156452149307
30
0
41
1
10
9.70890836282635
20
4.11123229316536
30
0
41
1
10
9.69533960839594
20
4.1247725810189
30
0
41
1
10
9.66539210655563
20
4.14682956927865
30
0
41
1
10
9.64860607307654
20
4.15557017621171
30
0
41
1
10
9.6131898949771
20
4.16786874933655
30
0
41
1
10
9.59407337040614
20
4.171232395765
30
0
41
1
10
9.5571043726668
20
4.17217378274185
30
0
41
1
10
9.53885519527751
20
4.16985954440645
30
0
41
1
10
9.52171267628108
20
4.16514610685772
30
0
0
LINE
5
4C
100
AcDbEntity
8
80
62
256
6
ByLayer
370
-1
48
1
60
0
100
AcDbLine
10
0
20
0
30
0
11
-5
21
0
31
0
39
0
210
0
220
0
230
1
0
LINE
5
4D
100
AcDbEntity
8
81
62
256
6
ByLayer
370
-1
48
1
60
0
100
AcDbLine
10
13.323419
20
6.4
30
0
11
23.323419
21
6.4
31
0
39
0
210
0
220
0
230
1
0
LINE
5
4E
100
AcDbEntity
8
1
62
256
6
ByLayer
370
-1
48
1
60
0
100
AcDbLine
10
1.817806
20
5.63607
30
0
11
1.5
21
4.45
31
0
39
0
210
0
220
0
230
1
0
LINE
5
50
100
AcDbEntity
8
1
62
256
6
ByLayer
370
-1
48
1
60
0
100
AcDbLine
10
10.236412
20
-0.046476
30
0
11
10.127469
21
0.134836
31
0
39
0
210
0
220
0
230
1
0
LINE
5
51
100
AcDbEntity
8
1
62
256
6
ByLayer
370
-1
48
1
60
0
100
AcDbLine
10
10.317183
20
0.002056
30
0
11
10.180221
21
0.229999
31
0
39
0
210
0
220
0
230
1
0
LINE
5
52
100
AcDbEntity
8
1
62
256
6
ByLayer
370
-1
48
1
60
0
100
AcDbLine
10
12.487872
20
3.237692
30
0
11
12.495715
21
3.332074
31
0
39
0
210
0
220
0
230
1
0
LINE
5
53
100
AcDbEntity
8
1
62
256
6
ByLayer
370
-1
48
1
60
0
100
AcDbLine
10
1
20
3.95
30
0
11
0
21
3.95
31
0
39
0
210
0
220
0
230
1
0
LINE
5
54
100
AcDbEntity
8
1
62
256
6
ByLayer
370
-1
48
1
60
0
100
AcDbLine
10
12.487872
20
3.237692
30
0
11
11.841157
21
3.226404
31
0
39
0
210
0
220
0
230
1
0
LINE
5
55
100
AcDbEntity
8
1
62
256
6
ByLayer
370
-1
48
1
60
0
100
AcDbLine
10
1
20
3.95
30
0
11
1.5
21
4.45
31
0
39
0
210
0
220
0
230
1
0
LINE
5
56
100
AcDbEntity
8
1
62
256
6
ByLayer
370
-1
48
1
60
0
100
AcDbLine
10
11.890669
20
-3.949428
30
0
11
12.487872
21
3.237692
31
0
39
0
210
0
220
0
230
1
0
LINE
5
57
100
AcDbEntity
8
1
62
256
6
ByLayer
370
-1
48
1
60
0
100
AcDbLine
10
0
20
-3.949428
30
0
11
11.890669
21
-3.949428
31
0
39
0
210
0
220
0
230
1
0
LINE
5
58
100
AcDbEntity
8
1
62
256
6
ByLayer
370
-1
48
1
60
0
100
AcDbLine
10
12.600809
20
4.596836
30
0
11
12.495715
21
3.332074
31
0
39
0
210
0
220
0
230
1
0
LINE
5
59
100
AcDbEntity
8
1
62
256
6
ByLayer
370
-1
48
1
60
0
100
AcDbLine
10
12.495715
20
3.332074
30
0
11
11.893912
21
3.32157
31
0
39
0
210
0
220
0
230
1
0
LINE
5
5A
100
AcDbEntity
8
1
62
256
6
ByLayer
370
-1
48
1
60
0
100
AcDbLine
10
4.318356
20
5.679717
30
0
11
1.817806
21
5.63607
31
0
39
0
210
0
220
0
230
1
0
LINE
5
5B
100
AcDbEntity
8
1
62
256
6
ByLayer
370
-1
48
1
60
0
100
AcDbLine
10
0
20
3.95
30
0
11
0
21
-3.949428
31
0
39
0
210
0
220
0
230
1
0
LINE
5
5C
100
AcDbEntity
8
1
62
256
6
ByLayer
370
-1
48
1
60
0
100
AcDbLine
10
10.317183
20
0.002056
30
0
11
10.236412
21
-0.046476
31
0
39
0
210
0
220
0
230
1
0
LINE
5
5D
100
AcDbEntity
8
1
62
256
6
ByLayer
370
-1
48
1
60
0
100
AcDbLine
10
12.919401
20
6.399936
30
0
11
4.665704
21
6.255867
31
0
39
0
210
0
220
0
230
1
0
LINE
5
5E
100
AcDbEntity
8
SK1
62
256
6
ByLayer
370
-1
48
1
60
0
100
AcDbLine
10
-0.131
20
3.95
30
0
11
-48.026581
21
3.95
31
0
39
0
210
0
220
0
230
1
0
LINE
5
60
100
AcDbEntity
8
SK1
62
256
6
ByLayer
370
-1
48
1
60
0
100
AcDbLine
10
0
20
3.95
30
0
11
0
21
-3.949428
31
0
39
0
210
0
220
0
230
1
0
LINE
5
61
100
AcDbEntity
8
SK1
62
256
6
ByLayer
370
-1
48
1
60
0
100
AcDbLine
10
-48.026581
20
-3.95
30
0
11
-0.131
21
-3.95
31
0
39
0
210
0
220
0
230
1
0
LINE
5
62
100
AcDbEntity
8
SK1
62
256
6
ByLayer
370
-1
48
1
60
0
100
AcDbLine
10
-48.026581
20
3.95
30
0
11
-48.026581
21
-3.95
31
0
39
0
210
0
220
0
230
1
0
LINE
5
63
100
AcDbEntity
8
SK1
62
256
6
ByLayer
370
-1
48
1
60
0
100
AcDbLine
10
0
20
3.95
30
0
11
-0.131
21
3.95
31
0
39
0
210
0
220
0
230
1
0
LINE
5
64
100
AcDbEntity
8
1
62
256
6
ByLayer
370
-1
48
1
60
0
100
AcDbLine
10
9.271473
20
-1.409419
30
0
11
13.273554
21
5.810527
31
0
39
0
210
0
220
0
230
1
0
LINE
5
65
100
AcDbEntity
8
1
62
256
6
ByLayer
370
-1
48
1
60
0
100
AcDbLine
10
4.332337
20
5.654457
30
0
11
8.583953
21
-1.421419
31
0
39
0
210
0
220
0
230
1
0
LINE
5
66
100
AcDbEntity
8
SK1
62
256
6
ByLayer
370
-1
48
1
60
0
100
AcDbLine
10
-0.131
20
-3.95
30
0
11
0
21
-3.949428
31
0
39
0
210
0
220
0
230
1
0
LINE
5
67
100
AcDbEntity
8
SK1
62
256
6
ByLayer
370
-1
48
1
60
0
100
AcDbLine
10
-0.131
20
3.95
30
0
11
-0.131
21
-3.95
31
0
39
0
210
0
220
0
230
1
0
MTEXT
5
97
100
AcDbEntity
8
SK6
62
256
6
ByLayer
370
-1
48
1
60
0
100
AcDbMText
10
-26.192308
20
-12.425493
30
0
210
0
220
0
230
1
1
\W00.771;\fsimplex.shx,bigfont.shx;STGCR 0808D 09 
40
3.5
41
0
44
1.084337
50
0
71
7
72
5
7
DEFAULT
0
DIMENSION
5
CA
100
AcDbEntity
8
2
62
256
6
ByLayer
370
-3
48
1
60
0
100
AcDbDimension
2
DimnDraft3D1
10
-1.14
20
6.154528
30
0
11
-1.243773
21
12.578351
31
0
70
34
71
5
72
1
41
1
210
0
220
0
230
1
3
Standard
100
AcDb2LineAngularDimension
13
13.323419
23
8.4
33
0
14
13.323419
24
20.87261
34
0
15
9.920075
25
6.347582
35
0
16
1.222681
26
18.29835
36
0
40
0
0
DIMENSION
5
DF
100
AcDbEntity
8
SK2
62
256
6
ByLayer
370
-3
48
1
60
0
100
AcDbDimension
2
DimnDraft3D2
10
-57.776581
20
3.95
30
0
11
-57.776581
21
14.205
31
0
70
32
71
5
72
1
41
1
210
0
220
0
230
1
3
Standard
100
AcDbAlignedDimension
13
-50.026581
23
-3.95
33
0
14
-50.026581
24
3.95
34
0
50
90
100
AcDbRotatedDimension
1001
ACAD
1000
DSTYLE
1002
{
1070
    74
1070
     0
1070
   279
1070
     0
1070
   172
1070
     1
1070
   173
1070
     1
1070
   340
1005
98
1070
    77
1070
     1
1070
    73
1070
     0
1070
   171
1070
     3
1070
   274
1070
     4
1070
   177
1070
     2
1070
   176
1070
     2
1070
   178
1070
     7
1070
    78
1070
     8
1070
    41
1041
3.175
1070
   147
1041
2.25
1070
    42
1041
2.0
1070
    44
1041
2.0
1070
   140
1041
4.5
1070
   343
1005
CB
1070
   344
1005
CB
1002
}
0
DIMENSION
5
ED
100
AcDbEntity
8
2
62
256
6
ByLayer
370
-3
48
1
60
0
100
AcDbDimension
2
DimnDraft3D3
10
40.573419
20
6.4
30
0
11
40.573419
21
-0.841447
31
0
70
32
71
5
72
1
41
1
210
0
220
0
230
1
3
Standard
100
AcDbAlignedDimension
13
2
23
-3.95
33
0
14
15.323419
24
6.4
34
0
50
90
100
AcDbRotatedDimension
1001
ACAD
1000
DSTYLE
1002
{
1070
    74
1070
     0
1070
   279
1070
     0
1070
   172
1070
     1
1070
   173
1070
     1
1070
   340
1005
98
1070
    77
1070
     1
1070
    73
1070
     0
1070
   171
1070
     3
1070
   274
1070
     4
1070
   177
1070
     2
1070
   176
1070
     2
1070
   178
1070
     7
1070
    78
1070
     8
1070
    41
1041
3.175
1070
   147
1041
2.25
1070
    42
1041
2.0
1070
    44
1041
2.0
1070
   140
1041
4.5
1070
   343
1005
CB
1070
   344
1005
CB
1002
}
0
DIMENSION
5
FB
100
AcDbEntity
8
SK2
62
256
6
ByLayer
370
-3
48
1
60
0
100
AcDbDimension
2
DimnDraft3D4
10
-48.026581
20
26.15
30
0
11
-19.980528
21
26.15
31
0
70
32
71
5
72
1
41
1
210
0
220
0
230
1
3
Standard
100
AcDbAlignedDimension
13
13.323419
23
8.4
33
0
14
-48.026581
24
5.95
34
0
50
0
100
AcDbRotatedDimension
1001
ACAD
1000
DSTYLE
1002
{
1070
   279
1070
     0
1070
   172
1070
     1
1070
   173
1070
     1
1070
   340
1005
98
1070
    77
1070
     1
1070
    73
1070
     0
1070
   171
1070
     3
1070
   274
1070
     4
1070
   177
1070
     2
1070
   176
1070
     2
1070
   178
1070
     7
1070
    78
1070
     8
1070
    41
1041
3.175
1070
   147
1041
2.25
1070
    42
1041
2.0
1070
    44
1041
2.0
1070
   140
1041
4.5
1070
   343
1005
CB
1070
   344
1005
CB
1002
}
0
ENDSEC
0
SECTION
2
OBJECTS
0
DICTIONARY
5
12b
330
0
100
AcDbDictionary
280
0
281
1
3
ACAD_GROUP
350
12c
3
ACAD_MLINESTYLE
350
12d
0
DICTIONARY
5
12c
330
0
100
AcDbDictionary
280
0
281
1
0
DICTIONARY
5
12d
330
0
100
AcDbDictionary
280
0
281
1
3
Standard
350
18
0
MLINESTYLE
5
18
330
12d
100
AcDbMlineStyle
2
Standard
70
0
3

62
256
51
90
52
90
71
2
49
-0.5
62
256
6
ByLayer
49
0.5
62
256
6
ByLayer
0
RASTERVARIABLES
5
11a
330

100
AcDbRasterVariables
90
0
70
1
71
1
72
1
0
ENDSEC
0
EOF
