0
SECTION
2
HEADER
9
$ACADVER
1
AC1015
9
$DWGCODEPAGE
3
ANSI_1252
9
$HANDSEED
5
137
9
$ANGBASE
50
0
9
$ANGDIR
70
0
9
$ATTMODE
70
1
9
$AUNITS
70
0
9
$AUPREC
70
0
9
$CECOLOR
62
256
9
$CELTSCALE
40
1
9
$CELTYPE
6
ByLayer
9
$CELWEIGHT
370
-1
9
$CLAYER
8
0
9
$CMLJUST
70
0
9
$CMLSCALE
40
1
9
$CMLSTYLE
2
Standard
9
$DIMSTYLE
2
Standard
9
$TEXTSIZE
40
0.2
9
$TEXTSTYLE
7
Standard
9
$LUNITS
70
2
9
$LUPREC
70
4
9
$EXTNAMES
290
1
9
$INSUNITS
70
4
9
$LTSCALE
40
1
9
$LWDISPLAY
290
0
9
$PDMODE
70
0
9
$PDSIZE
40
0
9
$PLINEGEN
70
0
0
ENDSEC
0
SECTION
2
CLASSES
0
CLASS
1
RASTERVARIABLES
2
AcDbRasterVariables
3
ISM
90
0
280
0
281
0
0
ENDSEC
0
SECTION
2
TABLES
0
TABLE
2
VPORT
5
12d
100
AcDbSymbolTable
0
VPORT
5
1
100
AcDbSymbolTableRecord
100
AcDbViewportTableRecord
2
*Active
70
0
10
0
20
0
11
1
21
1
12
-1
22
1
13
0
23
0
14
0.5
24
0.5
15
10
25
10
16
0
26
0
36
1
17
0
27
0
37
0
0
ENDTAB
0
TABLE
2
LTYPE
5
12e
100
AcDbSymbolTable
0
LTYPE
5
14
100
AcDbSymbolTableRecord
100
AcDbLinetypeTableRecord
70
0
2
ByBlock
3

72
65
73
0
40
0
0
LTYPE
5
15
100
AcDbSymbolTableRecord
100
AcDbLinetypeTableRecord
70
0
2
ByLayer
3

72
65
73
0
40
0
0
LTYPE
5
16
100
AcDbSymbolTableRecord
100
AcDbLinetypeTableRecord
70
0
2
CONTINUOUS
3
Solid line
72
65
73
0
40
0
0
LTYPE
5
3B
100
AcDbSymbolTableRecord
100
AcDbLinetypeTableRecord
70
0
2
DASHED
3
__ __ __ __ __ __ __ __ __
72
65
73
2
40
25.72
49
12.86
74
0
49
-12.86
74
0
0
LTYPE
5
3C
100
AcDbSymbolTableRecord
100
AcDbLinetypeTableRecord
70
0
2
HIDDEN
3
_ _ _ _ _ _ _ _ _ _ _ _ _ _ _
72
65
73
2
40
0.5
49
0.25
74
0
49
-0.25
74
0
0
LTYPE
5
3D
100
AcDbSymbolTableRecord
100
AcDbLinetypeTableRecord
70
0
2
PHANTOM
3
____ _ _ ____ _ _ _____ _ _ ____
72
65
73
6
40
50.5
49
18
74
0
49
-6.5
74
0
49
6.5
74
0
49
-6.5
74
0
49
6.5
74
0
49
-6.5
74
0
0
LTYPE
5
3E
100
AcDbSymbolTableRecord
100
AcDbLinetypeTableRecord
70
0
2
CENTER
3
____ _ ____ _ ____ _ ____
72
65
73
4
40
47.5
49
22
74
0
49
-8.5
74
0
49
8.5
74
0
49
-8.5
74
0
0
LTYPE
5
3F
100
AcDbSymbolTableRecord
100
AcDbLinetypeTableRecord
70
0
2
DOT
3
.........................
72
65
73
2
40
10
49
0
74
0
49
-10
74
0
0
LTYPE
5
40
100
AcDbSymbolTableRecord
100
AcDbLinetypeTableRecord
70
0
2
DASHDOT
3
_._._._._._._._._._._._._._._._.
72
65
73
4
40
70
49
31
74
0
49
-13
74
0
49
13
74
0
49
-13
74
0
0
ENDTAB
0
TABLE
2
LAYER
5
12f
100
AcDbSymbolTable
0
LAYER
5
10
100
AcDbSymbolTableRecord
100
AcDbLayerTableRecord
2
0
70
0
62
7
6
CONTINUOUS
290
1
370
-3
390
0
0
LAYER
5
45
100
AcDbSymbolTableRecord
100
AcDbLayerTableRecord
2
2
70
0
62
7
6
CONTINUOUS
290
1
370
-3
390
0
0
LAYER
5
47
100
AcDbSymbolTableRecord
100
AcDbLayerTableRecord
2
81
70
0
62
-3
6
CONTINUOUS
290
1
370
-3
390
0
0
LAYER
5
4A
100
AcDbSymbolTableRecord
100
AcDbLayerTableRecord
2
80
70
0
62
-6
6
CONTINUOUS
290
1
370
-3
390
0
0
LAYER
5
4F
100
AcDbSymbolTableRecord
100
AcDbLayerTableRecord
2
1
70
0
62
4
6
CONTINUOUS
290
1
370
-3
390
0
0
LAYER
5
11a
100
AcDbSymbolTableRecord
100
AcDbLayerTableRecord
2
SK2
70
0
62
7
6
CONTINUOUS
290
1
370
-3
390
0
0
LAYER
5
11b
100
AcDbSymbolTableRecord
100
AcDbLayerTableRecord
2
SK1
70
0
62
4
6
CONTINUOUS
290
1
370
-3
390
0
0
LAYER
5
11c
100
AcDbSymbolTableRecord
100
AcDbLayerTableRecord
2
SK6
70
0
62
5
6
CONTINUOUS
290
1
370
-3
390
0
0
ENDTAB
0
TABLE
2
STYLE
5
130
100
AcDbSymbolTable
0
STYLE
5
11
100
AcDbSymbolTableRecord
100
AcDbTextStyleTableRecord
2
Standard
3
txt
70
0
71
0
40
0
41
1
42
0
50
0
0
STYLE
5
97
100
AcDbSymbolTableRecord
100
AcDbTextStyleTableRecord
2
DEFAULT
3
simplex.shx
70
0
71
0
40
0
41
1
42
0
50
0
0
STYLE
5
BA
100
AcDbSymbolTableRecord
100
AcDbTextStyleTableRecord
2
DWGDirectTextStyle
3
SIMPLEX
70
0
71
0
40
0
41
1
42
0
50
0
0
ENDTAB
0
TABLE
2
DIMSTYLE
5
131
100
AcDbSymbolTable
100
AcDbDimStyleTable
0
DIMSTYLE
105
27
100
AcDbSymbolTableRecord
100
AcDbDimStyleTableRecord
2
Standard
70
0
3
<>
41
0.18
42
0.0625
44
0.18
140
0.18
147
0.09
73
0
74
0
77
1
271
2
275
0
278
52
280
0
340
11
0
ENDTAB
0
TABLE
2
VIEW
5
132
100
AcDbSymbolTable
0
ENDTAB
0
TABLE
2
UCS
5
133
100
AcDbSymbolTable
0
ENDTAB
0
TABLE
2
APPID
5
134
100
AcDbSymbolTable
0
APPID
5
12
100
AcDbSymbolTableRecord
100
AcDbRegAppTableRecord
2
ACAD
70
0
0
ENDTAB
0
TABLE
2
BLOCK_RECORD
5
135
100
AcDbSymbolTable
0
BLOCK_RECORD
5
1F
100
AcDbSymbolTableRecord
100
AcDbBlockTableRecord
2
*Model_Space
340
0
70
0
0
BLOCK_RECORD
5
1B
100
AcDbSymbolTableRecord
100
AcDbBlockTableRecord
2
*Paper_Space
340
0
70
0
0
BLOCK_RECORD
5
23
100
AcDbSymbolTableRecord
100
AcDbBlockTableRecord
2
*Paper_Space0
340
0
70
0
0
BLOCK_RECORD
5
BC
100
AcDbSymbolTableRecord
100
AcDbBlockTableRecord
2
DimnDraft3D11
340
0
70
0
0
BLOCK_RECORD
5
CA
100
AcDbSymbolTableRecord
100
AcDbBlockTableRecord
2
DimnDraft3D2
340
0
70
0
0
BLOCK_RECORD
5
D8
100
AcDbSymbolTableRecord
100
AcDbBlockTableRecord
2
_CLOSED
340
0
70
0
0
BLOCK_RECORD
5
DF
100
AcDbSymbolTableRecord
100
AcDbBlockTableRecord
2
DimnDraft3D3
340
0
70
0
0
BLOCK_RECORD
5
ED
100
AcDbSymbolTableRecord
100
AcDbBlockTableRecord
2
DimnDraft3D4
340
0
70
0
0
ENDTAB
0
ENDSEC
0
SECTION
2
BLOCKS
0
BLOCK
5
20
100
AcDbEntity
8
0
100
AcDbBlockBegin
2
*Model_Space
70
0
10
0
20
0
30
0
3
*Model_Space
0
ENDBLK
5
21
100
AcDbEntity
8
0
100
AcDbBlockEnd
0
BLOCK
5
1C
100
AcDbEntity
8
0
100
AcDbBlockBegin
2
*Paper_Space
70
0
10
0
20
0
30
0
3
*Paper_Space
0
ENDBLK
5
1D
100
AcDbEntity
8
0
100
AcDbBlockEnd
0
BLOCK
5
24
100
AcDbEntity
8
0
100
AcDbBlockBegin
2
*Paper_Space0
70
0
10
0
20
0
30
0
3
*Paper_Space0
0
ENDBLK
5
25
100
AcDbEntity
8
0
100
AcDbBlockEnd
0
BLOCK
5
BD
100
AcDbEntity
8
0
100
AcDbBlockBegin
2
DimnDraft3D11
70
0
10
0
20
0
30
0
3
DimnDraft3D11
0
LINE
5
BF
100
AcDbEntity
8
SK2
62
256
6
ByLayer
370
-1
48
1
60
0
100
AcDbLine
10
14.191682
20
-9.4
30
0
11
14.191682
21
-33.65
31
0
39
0
210
0
220
0
230
1
0
LINE
5
C0
100
AcDbEntity
8
SK2
62
256
6
ByLayer
370
-1
48
1
60
0
100
AcDbLine
10
-57.158318
20
-6.95
30
0
11
-57.158318
21
-33.65
31
0
39
0
210
0
220
0
230
1
0
LINE
5
C1
100
AcDbEntity
8
SK2
62
256
6
ByLayer
370
-1
48
1
60
0
100
AcDbLine
10
14.191682
20
-31.65
30
0
11
-57.158318
21
-31.65
31
0
39
0
210
0
220
0
230
1
0
LINE
5
C2
100
AcDbEntity
8
SK2
62
256
6
ByLayer
370
-1
48
1
60
0
100
AcDbLine
10
14.191682
20
-31.65
30
0
11
11.016684
21
-32.067997
31
0
39
0
210
0
220
0
230
1
0
LINE
5
C3
100
AcDbEntity
8
SK2
62
256
6
ByLayer
370
-1
48
1
60
0
100
AcDbLine
10
14.191682
20
-31.65
30
0
11
11.016681
21
-31.232003
31
0
39
0
210
0
220
0
230
1
0
LINE
5
C4
100
AcDbEntity
8
SK2
62
256
6
ByLayer
370
-1
48
1
60
0
100
AcDbLine
10
11.016684
20
-32.067997
30
0
11
11.016681
21
-31.232003
31
0
39
0
210
0
220
0
230
1
0
LINE
5
C5
100
AcDbEntity
8
SK2
62
256
6
ByLayer
370
-1
48
1
60
0
100
AcDbLine
10
-57.158318
20
-31.65
30
0
11
-53.983319
21
-31.232003
31
0
39
0
210
0
220
0
230
1
0
LINE
5
C6
100
AcDbEntity
8
SK2
62
256
6
ByLayer
370
-1
48
1
60
0
100
AcDbLine
10
-57.158318
20
-31.65
30
0
11
-53.983316
21
-32.067997
31
0
39
0
210
0
220
0
230
1
0
LINE
5
C7
100
AcDbEntity
8
SK2
62
256
6
ByLayer
370
-1
48
1
60
0
100
AcDbLine
10
-53.983319
20
-31.232003
30
0
11
-53.983316
21
-32.067997
31
0
39
0
210
0
220
0
230
1
0
MTEXT
5
C8
100
AcDbEntity
8
SK2
62
256
6
ByLayer
370
-1
48
1
60
0
100
AcDbMText
10
-22.987265
20
-30.525
30
0
210
0
220
0
230
1
1
\W00.656;\fsimplex.shx,bigfont.shx;70 
40
4.5
41
0
44
1.084337
50
0
71
7
72
5
7
DEFAULT
0
ENDBLK
5
BE
100
AcDbEntity
8
0
100
AcDbBlockEnd
0
BLOCK
5
D5
100
AcDbEntity
8
0
100
AcDbBlockBegin
2
DimnDraft3D2
70
0
10
0
20
0
30
0
3
DimnDraft3D2
0
MTEXT
5
CB
100
AcDbEntity
8
2
62
256
6
ByLayer
370
-1
48
1
60
0
100
AcDbMText
10
-3.599021
20
-18.323372
30
0
210
0
220
0
230
1
1
\W01.000;\fsimplex.shx,bigfont.shx;91%%d0' 
40
4.5
41
0
44
1.084337
50
314.5
71
7
72
5
7
DEFAULT
0
LINE
5
CC
100
AcDbEntity
8
2
62
256
6
ByLayer
370
-1
48
1
60
0
100
AcDbLine
10
14.191682
20
-9.4
30
0
11
14.191682
21
-30.87261
31
0
39
0
210
0
220
0
230
1
0
LINE
5
CD
100
AcDbEntity
8
2
62
256
6
ByLayer
370
-1
48
1
60
0
100
AcDbLine
10
10.788338
20
-7.347582
30
0
11
-9.270366
21
-6.997456
31
0
39
0
210
0
220
0
230
1
0
ARC
5
CE
100
AcDbEntity
8
2
62
256
6
ByLayer
370
-1
48
1
60
0
100
AcDbCircle
39
0
10
14.191682
20
-7.406988
30
0
40
21.4656222531699
210
0
220
0
230
1
100
AcDbArc
50
179
51
270
0
LINE
5
CF
100
AcDbEntity
8
2
62
256
6
ByLayer
370
-1
48
1
60
0
100
AcDbLine
10
14.191682
20
-28.87261
30
0
11
11.003422
21
-29.173158
31
0
39
0
210
0
220
0
230
1
0
LINE
5
D0
100
AcDbEntity
8
2
62
256
6
ByLayer
370
-1
48
1
60
0
100
AcDbLine
10
14.191682
20
-28.87261
30
0
11
11.034268
21
-28.337734
31
0
39
0
210
0
220
0
230
1
0
LINE
5
D1
100
AcDbEntity
8
2
62
256
6
ByLayer
370
-1
48
1
60
0
100
AcDbLine
10
11.003422
20
-29.173158
30
0
11
11.034268
21
-28.337734
31
0
39
0
210
0
220
0
230
1
0
LINE
5
D2
100
AcDbEntity
8
2
62
256
6
ByLayer
370
-1
48
1
60
0
100
AcDbLine
10
-7.27067
20
-7.032361
30
0
11
-6.79098
21
-10.198626
31
0
39
0
210
0
220
0
230
1
0
LINE
5
D3
100
AcDbEntity
8
2
62
256
6
ByLayer
370
-1
48
1
60
0
100
AcDbLine
10
-7.27067
20
-7.032361
30
0
11
-7.626815
21
-10.214894
31
0
39
0
210
0
220
0
230
1
0
LINE
5
D4
100
AcDbEntity
8
2
62
256
6
ByLayer
370
-1
48
1
60
0
100
AcDbLine
10
-6.79098
20
-10.198626
30
0
11
-7.626815
21
-10.214894
31
0
39
0
210
0
220
0
230
1
0
ENDBLK
5
D6
100
AcDbEntity
8
0
100
AcDbBlockEnd
0
BLOCK
5
D9
100
AcDbEntity
8
0
100
AcDbBlockBegin
2
_CLOSED
70
0
10
0
20
0
30
0
3
_CLOSED
0
LINE
5
DB
100
AcDbEntity
8
0
62
256
6
ByLayer
370
-2
48
1
60
0
100
AcDbLine
10
-1
20
0.166667
30
0
11
0
21
0
31
0
39
0
210
0
220
0
230
1
0
LINE
5
DC
100
AcDbEntity
8
0
62
256
6
ByLayer
370
-2
48
1
60
0
100
AcDbLine
10
0
20
0
30
0
11
-1
21
-0.166667
31
0
39
0
210
0
220
0
230
1
0
LINE
5
DD
100
AcDbEntity
8
0
62
256
6
ByLayer
370
-2
48
1
60
0
100
AcDbLine
10
-1
20
0.166667
30
0
11
-1
21
-0.166667
31
0
39
0
210
0
220
0
230
1
0
LINE
5
DE
100
AcDbEntity
8
0
62
256
6
ByLayer
370
-2
48
1
60
0
100
AcDbLine
10
0
20
0
30
0
11
-1
21
0
31
0
39
0
210
0
220
0
230
1
0
ENDBLK
5
DA
100
AcDbEntity
8
0
100
AcDbBlockEnd
0
BLOCK
5
EA
100
AcDbEntity
8
0
100
AcDbBlockBegin
2
DimnDraft3D3
70
0
10
0
20
0
30
0
3
DimnDraft3D3
0
MTEXT
5
E0
100
AcDbEntity
8
2
62
256
6
ByLayer
370
-1
48
1
60
0
100
AcDbMText
10
40.316682
20
-2.166447
30
0
210
0
220
0
230
1
1
\W01.000;\fsimplex.shx,bigfont.shx;12 
40
4.5
41
0
44
1.084337
50
90
71
7
72
5
7
DEFAULT
0
LINE
5
E1
100
AcDbEntity
8
2
62
256
6
ByLayer
370
-1
48
1
60
0
100
AcDbLine
10
2
20
4.95
30
0
11
43.441682
21
4.95
31
0
39
0
210
0
220
0
230
1
0
LINE
5
E2
100
AcDbEntity
8
2
62
256
6
ByLayer
370
-1
48
1
60
0
100
AcDbLine
10
16.191682
20
-7.4
30
0
11
43.441682
21
-7.4
31
0
39
0
210
0
220
0
230
1
0
LINE
5
E3
100
AcDbEntity
8
2
62
256
6
ByLayer
370
-1
48
1
60
0
100
AcDbLine
10
41.441682
20
16.2
30
0
11
41.441682
21
-18.65
31
0
39
0
210
0
220
0
230
1
0
LINE
5
E4
100
AcDbEntity
8
2
62
256
6
ByLayer
370
-1
48
1
60
0
100
AcDbLine
10
41.441682
20
4.95
30
0
11
41.023686
21
8.124998
31
0
39
0
210
0
220
0
230
1
0
LINE
5
E5
100
AcDbEntity
8
2
62
256
6
ByLayer
370
-1
48
1
60
0
100
AcDbLine
10
41.441682
20
4.95
30
0
11
41.859679
21
8.125002
31
0
39
0
210
0
220
0
230
1
0
LINE
5
E6
100
AcDbEntity
8
2
62
256
6
ByLayer
370
-1
48
1
60
0
100
AcDbLine
10
41.023686
20
8.124998
30
0
11
41.859679
21
8.125002
31
0
39
0
210
0
220
0
230
1
0
LINE
5
E7
100
AcDbEntity
8
2
62
256
6
ByLayer
370
-1
48
1
60
0
100
AcDbLine
10
41.441682
20
-7.4
30
0
11
41.859679
21
-10.574998
31
0
39
0
210
0
220
0
230
1
0
LINE
5
E8
100
AcDbEntity
8
2
62
256
6
ByLayer
370
-1
48
1
60
0
100
AcDbLine
10
41.441682
20
-7.4
30
0
11
41.023686
21
-10.575002
31
0
39
0
210
0
220
0
230
1
0
LINE
5
E9
100
AcDbEntity
8
2
62
256
6
ByLayer
370
-1
48
1
60
0
100
AcDbLine
10
41.859679
20
-10.574998
30
0
11
41.023686
21
-10.575002
31
0
39
0
210
0
220
0
230
1
0
ENDBLK
5
EB
100
AcDbEntity
8
0
100
AcDbBlockEnd
0
BLOCK
5
F8
100
AcDbEntity
8
0
100
AcDbBlockBegin
2
DimnDraft3D4
70
0
10
0
20
0
30
0
3
DimnDraft3D4
0
MTEXT
5
EE
100
AcDbEntity
8
SK2
62
256
6
ByLayer
370
-1
48
1
60
0
100
AcDbMText
10
-68.033318
20
-0.941447
30
0
210
0
220
0
230
1
1
\W01.000;\fsimplex.shx,bigfont.shx;10 
40
4.5
41
0
44
1.084337
50
90
71
7
72
5
7
DEFAULT
0
LINE
5
EF
100
AcDbEntity
8
SK2
62
256
6
ByLayer
370
-1
48
1
60
0
100
AcDbLine
10
-59.158317
20
4.95
30
0
11
-68.908317
21
4.95
31
0
39
0
210
0
220
0
230
1
0
LINE
5
F0
100
AcDbEntity
8
SK2
62
256
6
ByLayer
370
-1
48
1
60
0
100
AcDbLine
10
-59.158317
20
-4.95
30
0
11
-68.908317
21
-4.95
31
0
39
0
210
0
220
0
230
1
0
LINE
5
F1
100
AcDbEntity
8
SK2
62
256
6
ByLayer
370
-1
48
1
60
0
100
AcDbLine
10
-66.908318
20
16.2
30
0
11
-66.908318
21
-16.2
31
0
39
0
210
0
220
0
230
1
0
LINE
5
F2
100
AcDbEntity
8
SK2
62
256
6
ByLayer
370
-1
48
1
60
0
100
AcDbLine
10
-66.908318
20
4.95
30
0
11
-67.326314
21
8.124998
31
0
39
0
210
0
220
0
230
1
0
LINE
5
F3
100
AcDbEntity
8
SK2
62
256
6
ByLayer
370
-1
48
1
60
0
100
AcDbLine
10
-66.908318
20
4.95
30
0
11
-66.490321
21
8.125002
31
0
39
0
210
0
220
0
230
1
0
LINE
5
F4
100
AcDbEntity
8
SK2
62
256
6
ByLayer
370
-1
48
1
60
0
100
AcDbLine
10
-67.326314
20
8.124998
30
0
11
-66.490321
21
8.125002
31
0
39
0
210
0
220
0
230
1
0
LINE
5
F5
100
AcDbEntity
8
SK2
62
256
6
ByLayer
370
-1
48
1
60
0
100
AcDbLine
10
-66.908318
20
-4.95
30
0
11
-66.490321
21
-8.124998
31
0
39
0
210
0
220
0
230
1
0
LINE
5
F6
100
AcDbEntity
8
SK2
62
256
6
ByLayer
370
-1
48
1
60
0
100
AcDbLine
10
-66.908318
20
-4.95
30
0
11
-67.326314
21
-8.125002
31
0
39
0
210
0
220
0
230
1
0
LINE
5
F7
100
AcDbEntity
8
SK2
62
256
6
ByLayer
370
-1
48
1
60
0
100
AcDbLine
10
-66.490321
20
-8.124998
30
0
11
-67.326314
21
-8.125002
31
0
39
0
210
0
220
0
230
1
0
ENDBLK
5
F9
100
AcDbEntity
8
0
100
AcDbBlockEnd
0
ENDSEC
0
SECTION
2
ENTITIES
0
ARC
5
67
100
AcDbEntity
8
1
62
256
6
ByLayer
370
-1
48
1
60
0
100
AcDbCircle
39
0
10
-9.796596
20
0.450914
30
0
40
0.875
210
0
220
0
230
-1
100
AcDbArc
50
178.933071
51
222.33721
0
ARC
5
68
100
AcDbEntity
8
1
62
256
6
ByLayer
370
-1
48
1
60
0
100
AcDbCircle
39
0
10
9.796596
20
0.450914
30
0
40
0.875
210
0
220
0
230
1
100
AcDbArc
50
8.075058
51
220.335949
0
ARC
5
69
100
AcDbEntity
8
1
62
256
6
ByLayer
370
-1
48
1
60
0
100
AcDbCircle
39
0
10
-10.247508
20
-0.438486
30
0
40
1
210
0
220
0
230
-1
100
AcDbArc
50
115.083329
51
211
0
ARC
5
6A
100
AcDbEntity
8
1
62
256
6
ByLayer
370
-1
48
1
60
0
100
AcDbCircle
39
0
10
-10.247508
20
-0.438486
30
0
40
1.09423045315122
210
0
220
0
230
-1
100
AcDbArc
50
112.311287
51
211
0
ARC
5
6B
100
AcDbEntity
8
1
62
256
6
ByLayer
370
-1
48
1
60
0
100
AcDbCircle
39
0
10
9.710431
20
-4.548984
30
0
40
1.03499999999999
210
0
220
0
230
1
100
AcDbArc
50
28.950841
51
89.049159
0
ARC
5
6D
100
AcDbEntity
8
1
62
256
6
ByLayer
370
-1
48
1
60
0
100
AcDbCircle
39
0
10
-9.710431
20
-4.548984
30
0
40
0.747999999999997
210
0
220
0
230
-1
100
AcDbArc
50
123.161847
51
181.024579
0
ARC
5
6F
100
AcDbEntity
8
1
62
256
6
ByLayer
370
-1
48
1
60
0
100
AcDbCircle
39
0
10
-9.710431
20
-4.548984
30
0
40
0.747999999999997
210
0
220
0
230
-1
100
AcDbArc
50
1.024579
51
60.975421
0
ARC
5
70
100
AcDbEntity
8
1
62
256
6
ByLayer
370
-1
48
1
60
0
100
AcDbCircle
39
0
10
-9.710431
20
-4.548984
30
0
40
0.747999999999997
210
0
220
0
230
-1
100
AcDbArc
50
240.975421
51
298.838153
0
ARC
5
71
100
AcDbEntity
8
1
62
256
6
ByLayer
370
-1
48
1
60
0
100
AcDbCircle
39
0
10
-9.710431
20
-4.548984
30
0
40
0.747999999999997
210
0
220
0
230
-1
100
AcDbArc
50
60.975421
51
118.838153
0
ARC
5
72
100
AcDbEntity
8
1
62
256
6
ByLayer
370
-1
48
1
60
0
100
AcDbCircle
39
0
10
9.710431
20
-4.548984
30
0
40
0.747999999999997
210
0
220
0
230
1
100
AcDbArc
50
236.838153
51
241.161847
0
ARC
5
73
100
AcDbEntity
8
1
62
256
6
ByLayer
370
-1
48
1
60
0
100
AcDbCircle
39
0
10
9.710431
20
-4.548984
30
0
40
0.747999999999997
210
0
220
0
230
1
100
AcDbArc
50
56.838153
51
61.161847
0
ARC
5
74
100
AcDbEntity
8
1
62
256
6
ByLayer
370
-1
48
1
60
0
100
AcDbCircle
39
0
10
-9.710431
20
-4.548984
30
0
40
0.747999999999997
210
0
220
0
230
-1
100
AcDbArc
50
181.024579
51
240.975421
0
ARC
5
75
100
AcDbEntity
8
1
62
256
6
ByLayer
370
-1
48
1
60
0
100
AcDbCircle
39
0
10
9.710431
20
-4.548984
30
0
40
1.03499999999999
210
0
220
0
230
1
100
AcDbArc
50
329
51
28.950841
0
ARC
5
77
100
AcDbEntity
8
1
62
256
6
ByLayer
370
-1
48
1
60
0
100
AcDbCircle
39
0
10
9.710431
20
-4.548984
30
0
40
1.03499999999999
210
0
220
0
230
1
100
AcDbArc
50
208.950841
51
269.049159
0
ARC
5
78
100
AcDbEntity
8
1
62
256
6
ByLayer
370
-1
48
1
60
0
100
AcDbCircle
39
0
10
13.794593
20
-7.002996
30
0
40
0.397000000000042
210
0
220
0
230
1
100
AcDbArc
50
269
51
29
0
ARC
5
79
100
AcDbEntity
8
1
62
256
6
ByLayer
370
-1
48
1
60
0
100
AcDbCircle
39
0
10
-9.710431
20
-4.548984
30
0
40
0.747999999999997
210
0
220
0
230
-1
100
AcDbArc
50
303.161847
51
1.024579
0
ARC
5
7A
100
AcDbEntity
8
1
62
256
6
ByLayer
370
-1
48
1
60
0
100
AcDbCircle
39
0
10
9.710431
20
-4.548984
30
0
40
1.03499999999999
210
0
220
0
230
1
100
AcDbArc
50
269.049159
51
329
0
ARC
5
7C
100
AcDbEntity
8
1
62
256
6
ByLayer
370
-1
48
1
60
0
100
AcDbCircle
39
0
10
5.540896
20
-6.858927
30
0
40
0.397000000000038
210
0
220
0
230
1
100
AcDbArc
50
149
51
269
0
ARC
5
7E
100
AcDbEntity
8
1
62
256
6
ByLayer
370
-1
48
1
60
0
100
AcDbCircle
39
0
10
9.710431
20
-4.548984
30
0
40
1.03499999999999
210
0
220
0
230
1
100
AcDbArc
50
89.049159
51
149
0
ARC
5
7F
100
AcDbEntity
8
1
62
256
6
ByLayer
370
-1
48
1
60
0
100
AcDbCircle
39
0
10
9.710431
20
-4.548984
30
0
40
1.03499999999999
210
0
220
0
230
1
100
AcDbArc
50
149
51
208.950841
0
ARC
5
80
100
AcDbEntity
8
1
62
256
6
ByLayer
370
-1
48
1
60
0
100
AcDbCircle
39
0
10
9.792512
20
0.216949
30
0
40
0.397000000000021
210
0
220
0
230
1
100
AcDbArc
50
29
51
149
0
CIRCLE
5
6C
100
AcDbEntity
8
1
62
256
6
ByLayer
370
-1
48
1
60
0
100
AcDbCircle
10
-9.709334
20
-4.548325
30
0
40
1.60759144878564
39
0
210
0
220
0
230
-1
0
CIRCLE
5
6E
100
AcDbEntity
8
1
62
256
6
ByLayer
370
-1
48
1
60
0
100
AcDbCircle
10
9.710431
20
-4.548984
30
0
40
1.1
39
0
210
0
220
0
230
1
0
CIRCLE
5
76
100
AcDbEntity
8
1
62
256
6
ByLayer
370
-1
48
1
60
0
100
AcDbCircle
10
9.710431
20
-4.548984
30
0
40
1.55
39
0
210
0
220
0
230
1
0
CIRCLE
5
7B
100
AcDbEntity
8
1
62
256
6
ByLayer
370
-1
48
1
60
0
100
AcDbCircle
10
9.709334
20
-4.548325
30
0
40
1.65562313415253
39
0
210
0
220
0
230
1
0
CIRCLE
5
7D
100
AcDbEntity
8
1
62
256
6
ByLayer
370
-1
48
1
60
0
100
AcDbCircle
10
9.709334
20
-4.548325
30
0
40
1.69405389152441
39
0
210
0
220
0
230
1
0
POINT
5
41
100
AcDbEntity
8
SK2
62
256
6
ByLayer
370
-1
48
1
60
0
100
AcDbPoint
10
14.191682
20
17.3
30
0
39
0
210
0
220
0
230
1
50
360
0
POINT
5
43
100
AcDbEntity
8
SK2
62
256
6
ByLayer
370
-1
48
1
60
0
100
AcDbPoint
10
14.191682
20
17.3
30
0
39
0
210
0
220
0
230
1
50
360
0
POINT
5
44
100
AcDbEntity
8
2
62
256
6
ByLayer
370
-1
48
1
60
0
100
AcDbPoint
10
14.191682
20
17.3
30
0
39
0
210
0
220
0
230
1
50
360
0
POINT
5
46
100
AcDbEntity
8
81
62
256
6
ByLayer
370
-1
48
1
60
0
100
AcDbPoint
10
14.191682
20
-7.4
30
0
39
0
210
0
220
0
230
1
50
360
0
POINT
5
48
100
AcDbEntity
8
SK2
62
256
6
ByLayer
370
-1
48
1
60
0
100
AcDbPoint
10
14.191682
20
17.3
30
0
39
0
210
0
220
0
230
1
50
360
0
POINT
5
49
100
AcDbEntity
8
80
62
256
6
ByLayer
370
-1
48
1
60
0
100
AcDbPoint
10
0
20
0
30
0
39
0
210
0
220
0
230
1
50
360
0
POINT
5
4B
100
AcDbEntity
8
SK2
62
256
6
ByLayer
370
-1
48
1
60
0
100
AcDbPoint
10
14.191682
20
17.3
30
0
39
0
210
0
220
0
230
1
50
360
0
SPLINE
5
81
100
AcDbEntity
8
1
62
256
6
ByLayer
370
-1
48
1
60
0
100
AcDbSpline
70
4
71
3
72
8
73
4
40
0
40
0
40
0
40
0
40
1
40
1
40
1
40
1
41
1
10
10.6629201620348
20
0.573825160290113
30
0
41
1
10
10.6680332318903
20
0.537786400306373
30
0
41
1
10
10.6707924231962
20
0.502202361756162
30
0
41
1
10
10.6714441713437
20
0.467206510285394
30
0
0
SPLINE
5
82
100
AcDbEntity
8
1
62
256
6
ByLayer
370
-1
48
1
60
0
100
AcDbSpline
70
4
71
3
72
16
73
12
40
0
40
0
40
0
40
0
40
0.0654499898243467
40
0.0654499898243467
40
0.28946087115741
40
0.28946087115741
40
0.516372687515728
40
0.516372687515728
40
0.757752970114388
40
0.757752970114388
40
1
40
1
40
1
40
1
41
1
10
9.7276058972046
20
-3.51412625512413
30
0
41
1
10
9.73312777936624
20
-3.51421790089952
30
0
41
1
10
9.73865228710557
20
-3.5145576353882
30
0
41
1
10
9.76279684148699
20
-3.51713052887502
30
0
41
1
10
9.7813232681967
20
-3.52206582340773
30
0
41
1
10
9.81543763099322
20
-3.53688951869816
30
0
41
1
10
9.831424763765
20
-3.54701630730881
30
0
41
1
10
9.85984054565563
20
-3.5714645877857
30
0
41
1
10
9.87234646105091
20
-3.58630342534332
30
0
41
1
10
9.89189546935225
20
-3.61807397977032
30
0
41
1
10
9.89914158610682
20
-3.63534406944288
30
0
41
1
10
9.90366241154439
20
-3.65285475674551
30
0
0
SPLINE
5
83
100
AcDbEntity
8
1
62
256
6
ByLayer
370
-1
48
1
60
0
100
AcDbSpline
70
4
71
3
72
18
73
14
40
0
40
0
40
0
40
0
40
0.213310846837413
40
0.213310846837413
40
0.388935063538387
40
0.388935063538387
40
0.566198523709647
40
0.566198523709647
40
0.721124131607296
40
0.721124131607296
40
0.92734997607876
40
0.92734997607876
40
1
40
1
40
1
40
1
41
1
10
10.5734969353384
20
-4.8597161438615
30
0
41
1
10
10.5437313753732
20
-4.82821121645387
30
0
41
1
10
10.5178799173287
20
-4.79097410913704
30
0
41
1
10
10.4823379141648
20
-4.71543046965573
30
0
41
1
10
10.4702876058242
20
-4.67758012086841
30
0
41
1
10
10.4573662259762
20
-4.59906918756494
30
0
41
1
10
10.4565211094691
20
-4.55721439914072
30
0
41
1
10
10.4659413857335
20
-4.48222287095018
30
0
41
1
10
10.4748776221633
20
-4.44775171377995
30
0
41
1
10
10.5037536400341
20
-4.37399938109914
30
0
41
1
10
10.5267181276885
20
-4.3355673789452
30
0
41
1
10
10.5632640304759
20
-4.2909106441204
30
0
41
1
10
10.5734248767576
20
-4.27978578645789
30
0
41
1
10
10.584055858569
20
-4.26931065180935
30
0
0
SPLINE
5
84
100
AcDbEntity
8
1
62
256
6
ByLayer
370
-1
48
1
60
0
100
AcDbSpline
70
4
71
3
72
16
73
12
40
0
40
0
40
0
40
0
40
0.0668629219468383
40
0.0668629219468383
40
0.291508058454601
40
0.291508058454601
40
0.51913118070176
40
0.51913118070176
40
0.76132067905835
40
0.76132067905835
40
1
40
1
40
1
40
1
41
1
10
8.82326238055478
20
-4.0159193290815
30
0
41
1
10
8.82615936743838
20
-4.01109793325045
30
0
41
1
10
8.82928057060306
20
-4.00640295173372
30
0
41
1
10
8.84368928831466
20
-3.98673518006146
30
0
41
1
10
8.85725804274509
20
-3.97319489220789
30
0
41
1
10
8.88720554458538
20
-3.95113790394814
30
0
41
1
10
8.90399157806451
20
-3.94239729701508
30
0
41
1
10
8.93940775616394
20
-3.93009872389024
30
0
41
1
10
8.95852428073491
20
-3.92673507746178
30
0
41
1
10
8.99549327847424
20
-3.92579369048494
30
0
41
1
10
9.01374245586354
20
-3.92810792882034
30
0
41
1
10
9.03088497485996
20
-3.9328213663691
30
0
0
SPLINE
5
85
100
AcDbEntity
8
1
62
256
6
ByLayer
370
-1
48
1
60
0
100
AcDbSpline
70
4
71
3
72
14
73
10
40
0
40
0
40
0
40
0
40
0.284032913699696
40
0.284032913699696
40
0.57074713258749
40
0.57074713258749
40
0.830522675675678
40
0.830522675675678
40
1
40
1
40
1
40
1
41
1
10
10.4109485922219
20
-3.95766304529152
30
0
41
1
10
10.4315406311401
20
-3.95271030189929
30
0
41
1
10
10.4536565559897
20
-3.95122639431216
30
0
41
1
10
10.4975873415588
20
-3.95632713256669
30
0
41
1
10
10.5200719176312
20
-3.96310603437226
30
0
41
1
10
10.5591773581754
20
-3.98375017019527
30
0
41
1
10
10.5767224401396
20
-3.99723395547235
30
0
41
1
10
10.6007728936971
20
-4.02375663269845
30
0
41
1
10
10.6091938064432
20
-4.03551253473066
30
0
41
1
10
10.6160921157152
20
-4.04798263437584
30
0
0
SPLINE
5
86
100
AcDbEntity
8
1
62
256
6
ByLayer
370
-1
48
1
60
0
100
AcDbSpline
70
4
71
3
72
14
73
10
40
0
40
0
40
0
40
0
40
0.284032913699699
40
0.284032913699699
40
0.57074713258749
40
0.57074713258749
40
0.830522675675683
40
0.830522675675683
40
1
40
1
40
1
40
1
41
1
10
9.00991248134099
20
-5.14030442793526
30
0
41
1
10
8.98932044242281
20
-5.14525717132753
30
0
41
1
10
8.96720451757321
20
-5.14674107891466
30
0
41
1
10
8.92327373200405
20
-5.1416403406601
30
0
41
1
10
8.9007891559317
20
-5.13486143885453
30
0
41
1
10
8.8616837153875
20
-5.11421730303152
30
0
41
1
10
8.84413863342328
20
-5.10073351775443
30
0
41
1
10
8.82008817986573
20
-5.07421084052834
30
0
41
1
10
8.8116672671197
20
-5.06245493849613
30
0
41
1
10
8.8047689578477
20
-5.04998483885095
30
0
0
SPLINE
5
87
100
AcDbEntity
8
1
62
256
6
ByLayer
370
-1
48
1
60
0
100
AcDbSpline
70
4
71
3
72
12
73
8
40
0
40
0
40
0
40
0
40
0.464589426688922
40
0.464589426688922
40
0.846565595640805
40
0.846565595640805
40
1
40
1
40
1
40
1
41
1
10
9.00991248134093
20
-5.14030442793526
30
0
41
1
10
9.05213541617772
20
-5.13014907797964
30
0
41
1
10
9.09738764624612
20
-5.1262673153737
30
0
41
1
10
9.18070257805618
20
-5.13310062057226
30
0
41
1
10
9.21954508862049
20
-5.14151877956169
30
0
41
1
10
9.27182136796986
20
-5.16111446068933
30
0
41
1
10
9.28676021736575
20
-5.16770979604604
30
0
41
1
10
9.30127011775775
20
-5.17515603838371
30
0
0
SPLINE
5
88
100
AcDbEntity
8
1
62
256
6
ByLayer
370
-1
48
1
60
0
100
AcDbSpline
70
4
71
3
72
14
73
10
40
0
40
0
40
0
40
0
40
0.284252833288262
40
0.284252833288262
40
0.571499987480329
40
0.571499987480329
40
0.831789645385596
40
0.831789645385596
40
1
40
1
40
1
40
1
41
1
10
8.84736413822446
20
-4.23825132936528
30
0
41
1
10
8.83284461258174
20
-4.22288334697549
30
0
41
1
10
8.82056621691029
20
-4.20447671296677
30
0
41
1
10
8.80312035112516
20
-4.16389440636237
30
0
41
1
10
8.79779577556488
20
-4.14103818049816
30
0
41
1
10
8.79619992644211
20
-4.09687637852295
30
0
41
1
10
8.79913913995142
20
-4.07496012415987
30
0
41
1
10
8.81008575173192
20
-4.04103937598799
30
0
41
1
10
8.81599782227141
20
-4.02800958438084
30
0
41
1
10
8.82326238055478
20
-4.0159193290815
30
0
0
SPLINE
5
89
100
AcDbEntity
8
1
62
256
6
ByLayer
370
-1
48
1
60
0
100
AcDbSpline
70
4
71
3
72
18
73
14
40
0
40
0
40
0
40
0
40
0.213391867582786
40
0.213391867582786
40
0.38900217364964
40
0.38900217364964
40
0.566250773929633
40
0.566250773929633
40
0.721173901794241
40
0.721173901794241
40
0.927414379203074
40
0.927414379203074
40
1
40
1
40
1
40
1
41
1
10
9.873636104875
20
-5.45164767173918
30
0
41
1
10
9.88600645575823
20
-5.41009106310432
30
0
41
1
10
9.90530398175196
20
-5.36905223064349
30
0
41
1
10
9.95291485637236
20
-5.30045169426856
30
0
41
1
10
9.97964587360516
20
-5.27107252735925
30
0
41
1
10
10.0411357464034
20
-5.22058413156336
30
0
41
1
10
10.0769410689078
20
-5.19889954894978
30
0
41
1
10
10.1465690133398
20
-5.16950995345002
30
0
41
1
10
10.1808815140223
20
-5.15998711653296
30
0
41
1
10
10.2591829552403
20
-5.14805709846979
30
0
41
1
10
10.3039510991473
20
-5.14869446439175
30
0
41
1
10
10.3608938422745
20
-5.15797051319762
30
0
41
1
10
10.3755981631333
20
-5.1611928079638
30
0
41
1
10
10.3899760987029
20
-5.16514610685772
30
0
0
SPLINE
5
8A
100
AcDbEntity
8
1
62
256
6
ByLayer
370
-1
48
1
60
0
100
AcDbSpline
70
4
71
3
72
16
73
12
40
0
40
0
40
0
40
0
40
0.0654499898241269
40
0.0654499898241269
40
0.289460871157104
40
0.289460871157104
40
0.516372687515495
40
0.516372687515495
40
0.757752970114045
40
0.757752970114045
40
1
40
1
40
1
40
1
41
1
10
9.69325517635829
20
-5.58384121810266
30
0
41
1
10
9.6877332941967
20
-5.58374957232723
30
0
41
1
10
9.68220878645735
20
-5.58340983783859
30
0
41
1
10
9.65806423207596
20
-5.5808369443518
30
0
41
1
10
9.63953780536625
20
-5.57590164981909
30
0
41
1
10
9.60542344256973
20
-5.56107795452866
30
0
41
1
10
9.58943630979795
20
-5.55095116591801
30
0
41
1
10
9.56102052790729
20
-5.52650288544112
30
0
41
1
10
9.54851461251204
20
-5.51166404788353
30
0
41
1
10
9.5289656042107
20
-5.4798934934565
30
0
41
1
10
9.52171948745607
20
-5.46262340378394
30
0
41
1
10
9.5171986620185
20
-5.44511271648128
30
0
0
SPLINE
5
8B
100
AcDbEntity
8
1
62
256
6
ByLayer
370
-1
48
1
60
0
100
AcDbSpline
70
4
71
3
72
14
73
10
40
0
40
0
40
0
40
0
40
0.2842528332883
40
0.2842528332883
40
0.57149998748035
40
0.57149998748035
40
0.831789645385609
40
0.831789645385609
40
1
40
1
40
1
40
1
41
1
10
10.5734969353385
20
-4.8597161438615
30
0
41
1
10
10.5880164609811
20
-4.87508412625129
30
0
41
1
10
10.6002948566526
20
-4.89349076026002
30
0
41
1
10
10.6177407224378
20
-4.93407306686444
30
0
41
1
10
10.623065297998
20
-4.95692929272863
30
0
41
1
10
10.6246611471208
20
-5.00109109470387
30
0
41
1
10
10.6217219336115
20
-5.02300734906694
30
0
41
1
10
10.610775321831
20
-5.0569280972388
30
0
41
1
10
10.6048632512915
20
-5.06995788884595
30
0
41
1
10
10.5975986930081
20
-5.08204814414532
30
0
0
SPLINE
5
8C
100
AcDbEntity
8
1
62
256
6
ByLayer
370
-1
48
1
60
0
100
AcDbSpline
70
4
71
3
72
18
73
14
40
0
40
0
40
0
40
0
40
0.213391867581852
40
0.213391867581852
40
0.38900217364892
40
0.38900217364892
40
0.566250773929129
40
0.566250773929129
40
0.721173901793925
40
0.721173901793925
40
0.927414379202986
40
0.927414379202986
40
1
40
1
40
1
40
1
41
1
10
9.54722496868766
20
-3.64631980148832
30
0
41
1
10
9.53485461780443
20
-3.68787641012295
30
0
41
1
10
9.51555709181076
20
-3.72891524258353
30
0
41
1
10
9.46794621719053
20
-3.79751577895823
30
0
41
1
10
9.44121519995772
20
-3.82689494586754
30
0
41
1
10
9.37972532715943
20
-3.87738334166343
30
0
41
1
10
9.34392000465508
20
-3.89906792427701
30
0
41
1
10
9.2742920602231
20
-3.92845751977677
30
0
41
1
10
9.23997955954059
20
-3.93798035669383
30
0
41
1
10
9.16167811832261
20
-3.949910374757
30
0
41
1
10
9.11690997441556
20
-3.94927300883504
30
0
41
1
10
9.05996723128834
20
-3.93999696002919
30
0
41
1
10
9.04526291042956
20
-3.93677466526299
30
0
41
1
10
9.03088497485996
20
-3.9328213663691
30
0
0
SPLINE
5
8D
100
AcDbEntity
8
1
62
256
6
ByLayer
370
-1
48
1
60
0
100
AcDbSpline
70
4
71
3
72
18
73
14
40
0
40
0
40
0
40
0
40
0.213310846837431
40
0.213310846837431
40
0.388935063538409
40
0.388935063538409
40
0.566198523709674
40
0.566198523709674
40
0.72112413160734
40
0.72112413160734
40
0.927349976078825
40
0.927349976078825
40
1
40
1
40
1
40
1
41
1
10
8.84736413822444
20
-4.23825132936531
30
0
41
1
10
8.87712969818966
20
-4.26975625677295
30
0
41
1
10
8.90298115623423
20
-4.30699336408978
30
0
41
1
10
8.93852315939802
20
-4.38253700357109
30
0
41
1
10
8.95057346773865
20
-4.4203873523584
30
0
41
1
10
8.96349484758665
20
-4.49889828566188
30
0
41
1
10
8.96433996409377
20
-4.5407530740861
30
0
41
1
10
8.95491968782935
20
-4.61574460227664
30
0
41
1
10
8.94598345139954
20
-4.65021575944684
30
0
41
1
10
8.91710743352874
20
-4.72396809212768
30
0
41
1
10
8.89414294587439
20
-4.76240009428162
30
0
41
1
10
8.85759704308694
20
-4.80705682910639
30
0
41
1
10
8.84743619680532
20
-4.8181816867689
30
0
41
1
10
8.83680521499386
20
-4.82865682141744
30
0
0
SPLINE
5
8E
100
AcDbEntity
8
1
62
256
6
ByLayer
370
-1
48
1
60
0
100
AcDbSpline
70
4
71
3
72
16
73
12
40
0
40
0
40
0
40
0
40
0.0652339252909804
40
0.0652339252909804
40
0.289899760633169
40
0.289899760633169
40
0.51745215305098
40
0.51745215305098
40
0.759496397027006
40
0.759496397027006
40
1
40
1
40
1
40
1
41
1
10
10.6160921157152
20
-4.04798263437584
30
0
41
1
10
10.6187489876539
20
-4.05278547178338
30
0
41
1
10
10.6211947095324
20
-4.05771267934472
30
0
41
1
10
10.6309995259937
20
-4.07989011375784
30
0
41
1
10
10.6359672931808
20
-4.09840907608347
30
0
41
1
10
10.6401431420316
20
-4.13537054899132
30
0
41
1
10
10.6393443992186
20
-4.15427803075687
30
0
41
1
10
10.6323363934181
20
-4.19110106172732
30
0
41
1
10
10.625717767258
20
-4.20934188612176
30
0
41
1
10
10.6080285370424
20
-4.24197378816959
30
0
41
1
10
10.596814604273
20
-4.25673894568047
30
0
41
1
10
10.584055858569
20
-4.26931065180935
30
0
0
SPLINE
5
8F
100
AcDbEntity
8
1
62
256
6
ByLayer
370
-1
48
1
60
0
100
AcDbSpline
70
4
71
3
72
12
73
8
40
0
40
0
40
0
40
0
40
0.464589426689312
40
0.464589426689312
40
0.846565595641518
40
0.846565595641518
40
1
40
1
40
1
40
1
41
1
10
10.410948592222
20
-3.95766304529152
30
0
41
1
10
10.3687256573852
20
-3.96781839524715
30
0
41
1
10
10.3234734273168
20
-3.97170015785309
30
0
41
1
10
10.2401584955067
20
-3.96486685265452
30
0
41
1
10
10.2013159849424
20
-3.9564486936651
30
0
41
1
10
10.149039705593
20
-3.93685301253745
30
0
41
1
10
10.1341008561971
20
-3.93025767718075
30
0
41
1
10
10.1195909558051
20
-3.92281143484308
30
0
0
SPLINE
5
90
100
AcDbEntity
8
1
62
256
6
ByLayer
370
-1
48
1
60
0
100
AcDbSpline
70
4
71
3
72
12
73
8
40
0
40
0
40
0
40
0
40
0.377026881446137
40
0.377026881446137
40
0.761057564195825
40
0.761057564195825
40
1
40
1
40
1
40
1
41
1
10
9.34964239156758
20
-5.20422103276888
30
0
41
1
10
9.38207762353184
20
-5.22679253773288
30
0
41
1
10
9.41136335676131
20
-5.25418947331937
30
0
41
1
10
9.46001320121147
20
-5.31374412566132
30
0
41
1
10
9.479915136789
20
-5.34672340060308
30
0
41
1
10
9.50409983193148
20
-5.40162379104092
30
0
41
1
10
9.51156403163347
20
-5.42328788557381
30
0
41
1
10
9.5171986620185
20
-5.44511271648128
30
0
0
SPLINE
5
91
100
AcDbEntity
8
1
62
256
6
ByLayer
370
-1
48
1
60
0
100
AcDbSpline
70
4
71
3
72
16
73
12
40
0
40
0
40
0
40
0
40
0.0668629219468292
40
0.0668629219468292
40
0.291508058454568
40
0.291508058454568
40
0.519131180701698
40
0.519131180701698
40
0.761320679058254
40
0.761320679058254
40
1
40
1
40
1
40
1
41
1
10
10.5975986930081
20
-5.08204814414532
30
0
41
1
10
10.5947017061245
20
-5.08686953997633
30
0
41
1
10
10.5915805029599
20
-5.09156452149307
30
0
41
1
10
10.5771717852482
20
-5.11123229316536
30
0
41
1
10
10.5636030308178
20
-5.1247725810189
30
0
41
1
10
10.5336555289775
20
-5.14682956927868
30
0
41
1
10
10.5168694954984
20
-5.15557017621171
30
0
41
1
10
10.481453317399
20
-5.16786874933655
30
0
41
1
10
10.462336792828
20
-5.171232395765
30
0
41
1
10
10.4253677950887
20
-5.17217378274188
30
0
41
1
10
10.4071186176994
20
-5.16985954440645
30
0
41
1
10
10.3899760987029
20
-5.16514610685772
30
0
0
SPLINE
5
92
100
AcDbEntity
8
1
62
256
6
ByLayer
370
-1
48
1
60
0
100
AcDbSpline
70
4
71
3
72
12
73
8
40
0
40
0
40
0
40
0
40
0.377026881206041
40
0.377026881206041
40
0.761057563917032
40
0.761057563917032
40
1
40
1
40
1
40
1
41
1
10
10.0712186819953
20
-3.8937464404579
30
0
41
1
10
10.0387834500516
20
-3.87117493550824
30
0
41
1
10
10.0094977168387
20
-3.84377799994243
30
0
41
1
10
9.96084787239428
20
-3.78422334762862
30
0
41
1
10
9.94094593681191
20
-3.75124407269249
30
0
41
1
10
9.9167612416488
20
-3.69634368223626
30
0
41
1
10
9.90929704193596
20
-3.67467958767833
30
0
41
1
10
9.90366241154439
20
-3.65285475674548
30
0
0
SPLINE
5
93
100
AcDbEntity
8
1
62
256
6
ByLayer
370
-1
48
1
60
0
100
AcDbSpline
70
4
71
3
72
14
73
10
40
0
40
0
40
0
40
0
40
0.2825593440469
40
0.2825593440469
40
0.570018452367176
40
0.570018452367176
40
0.830476628481723
40
0.830476628481723
40
1
40
1
40
1
40
1
41
1
10
9.54722496868769
20
-3.64631980148832
30
0
41
1
10
9.55322105785621
20
-3.62617670827561
30
0
41
1
10
9.56292336038933
20
-3.60644883415401
30
0
41
1
10
9.58916432752616
20
-3.57107075219832
30
0
41
1
10
9.6062578512132
20
-3.55497311392503
30
0
41
1
10
9.64365760834733
20
-3.53139292991864
30
0
41
1
10
9.6640947013853
20
-3.52291957346375
30
0
41
1
10
9.69904175095101
20
-3.51532173748791
30
0
41
1
10
9.71339329091231
20
-3.51389037082123
30
0
41
1
10
9.7276058972046
20
-3.51412625512413
30
0
0
SPLINE
5
94
100
AcDbEntity
8
1
62
256
6
ByLayer
370
-1
48
1
60
0
100
AcDbSpline
70
4
71
3
72
14
73
10
40
0
40
0
40
0
40
0
40
0.282559344044159
40
0.282559344044159
40
0.570018452365434
40
0.570018452365434
40
0.83047662848083
40
0.83047662848083
40
1
40
1
40
1
40
1
41
1
10
9.873636104875
20
-5.45164767173918
30
0
41
1
10
9.86764001570648
20
-5.47179076495161
30
0
41
1
10
9.85793771317341
20
-5.49151863907292
30
0
41
1
10
9.83169674603678
20
-5.52689672102841
30
0
41
1
10
9.81460322234977
20
-5.5429943593017
30
0
41
1
10
9.77720346521565
20
-5.56657454330812
30
0
41
1
10
9.75676637217768
20
-5.57504789976301
30
0
41
1
10
9.72181932261194
20
-5.58264573573888
30
0
41
1
10
9.70746778265064
20
-5.58407710240556
30
0
41
1
10
9.69325517635829
20
-5.58384121810266
30
0
0
SPLINE
5
95
100
AcDbEntity
8
1
62
256
6
ByLayer
370
-1
48
1
60
0
100
AcDbSpline
70
4
71
3
72
16
73
12
40
0
40
0
40
0
40
0
40
0.0652339252909774
40
0.0652339252909774
40
0.289899760633154
40
0.289899760633154
40
0.517452153050947
40
0.517452153050947
40
0.759496397026968
40
0.759496397026968
40
1
40
1
40
1
40
1
41
1
10
8.8047689578477
20
-5.04998483885095
30
0
41
1
10
8.80211208590899
20
-5.04518200144341
30
0
41
1
10
8.79966636403046
20
-5.04025479388207
30
0
41
1
10
8.78986154756919
20
-5.01807735946895
30
0
41
1
10
8.78489378038213
20
-4.99955839714332
30
0
41
1
10
8.78071793153131
20
-4.96259692423547
30
0
41
1
10
8.78151667434426
20
-4.94368944246992
30
0
41
1
10
8.78852468014477
20
-4.90686641149946
30
0
41
1
10
8.79514330630488
20
-4.88862558710503
30
0
41
1
10
8.81283253652052
20
-4.8559936850572
30
0
41
1
10
8.82404646928993
20
-4.84122852754632
30
0
41
1
10
8.83680521499386
20
-4.82865682141747
30
0
0
INSERT
5
C9
100
AcDbEntity
8
SK2
62
256
6
ByLayer
370
-1
48
1
60
0
100
AcDbBlockReference
2
DimnDraft3D11
10
0
20
0
30
0
41
1
42
1
43
1
50
0
210
0
220
0
230
1
0
LINE
5
4C
100
AcDbEntity
8
81
62
256
6
ByLayer
370
-1
48
1
60
0
100
AcDbLine
10
14.191682
20
-7.4
30
0
11
24.191682
21
-7.4
31
0
39
0
210
0
220
0
230
1
0
LINE
5
4D
100
AcDbEntity
8
80
62
256
6
ByLayer
370
-1
48
1
60
0
100
AcDbLine
10
0
20
0
30
0
11
-5
21
0
31
0
39
0
210
0
220
0
230
1
0
LINE
5
4E
100
AcDbEntity
8
1
62
256
6
ByLayer
370
-1
48
1
60
0
100
AcDbLine
10
1
20
-4.95
30
0
11
0
21
-4.95
31
0
39
0
210
0
220
0
230
1
0
LINE
5
50
100
AcDbEntity
8
1
62
256
6
ByLayer
370
-1
48
1
60
0
100
AcDbLine
10
11.185447
20
-1.002056
30
0
11
11.104676
21
-0.953524
31
0
39
0
210
0
220
0
230
1
0
LINE
5
51
100
AcDbEntity
8
1
62
256
6
ByLayer
370
-1
48
1
60
0
100
AcDbLine
10
11.104676
20
-0.953524
30
0
11
10.995732
21
-1.134836
31
0
39
0
210
0
220
0
230
1
0
LINE
5
52
100
AcDbEntity
8
1
62
256
6
ByLayer
370
-1
48
1
60
0
100
AcDbLine
10
11.185447
20
-1.002056
30
0
11
11.048485
21
-1.229999
31
0
39
0
210
0
220
0
230
1
0
LINE
5
53
100
AcDbEntity
8
1
62
256
6
ByLayer
370
-1
48
1
60
0
100
AcDbLine
10
13.363978
20
-4.332074
30
0
11
12.762176
21
-4.32157
31
0
39
0
210
0
220
0
230
1
0
LINE
5
54
100
AcDbEntity
8
1
62
256
6
ByLayer
370
-1
48
1
60
0
100
AcDbLine
10
13.356136
20
-4.237692
30
0
11
12.70942
21
-4.226404
31
0
39
0
210
0
220
0
230
1
0
LINE
5
55
100
AcDbEntity
8
1
62
256
6
ByLayer
370
-1
48
1
60
0
100
AcDbLine
10
12.592745
20
4.949428
30
0
11
13.356136
21
-4.237692
31
0
39
0
210
0
220
0
230
1
0
LINE
5
56
100
AcDbEntity
8
1
62
256
6
ByLayer
370
-1
48
1
60
0
100
AcDbLine
10
0
20
4.949428
30
0
11
12.592745
21
4.949428
31
0
39
0
210
0
220
0
230
1
0
LINE
5
57
100
AcDbEntity
8
1
62
256
6
ByLayer
370
-1
48
1
60
0
100
AcDbLine
10
13.469072
20
-5.596836
30
0
11
13.363978
21
-4.332074
31
0
39
0
210
0
220
0
230
1
0
LINE
5
58
100
AcDbEntity
8
1
62
256
6
ByLayer
370
-1
48
1
60
0
100
AcDbLine
10
13.356136
20
-4.237692
30
0
11
13.363978
21
-4.332074
31
0
39
0
210
0
220
0
230
1
0
LINE
5
59
100
AcDbEntity
8
1
62
256
6
ByLayer
370
-1
48
1
60
0
100
AcDbLine
10
5.186619
20
-6.679717
30
0
11
2.68607
21
-6.63607
31
0
39
0
210
0
220
0
230
1
0
LINE
5
5A
100
AcDbEntity
8
1
62
256
6
ByLayer
370
-1
48
1
60
0
100
AcDbLine
10
2.68607
20
-6.63607
30
0
11
1
21
-4.95
31
0
39
0
210
0
220
0
230
1
0
LINE
5
5B
100
AcDbEntity
8
1
62
256
6
ByLayer
370
-1
48
1
60
0
100
AcDbLine
10
0
20
4.949428
30
0
11
0
21
-4.95
31
0
39
0
210
0
220
0
230
1
0
LINE
5
5C
100
AcDbEntity
8
SK1
62
256
6
ByLayer
370
-1
48
1
60
0
100
AcDbLine
10
-0.131
20
-4.95
30
0
11
-0.131
21
4.95
31
0
39
0
210
0
220
0
230
1
0
LINE
5
5E
100
AcDbEntity
8
SK1
62
256
6
ByLayer
370
-1
48
1
60
0
100
AcDbLine
10
0
20
-4.95
30
0
11
-0.131
21
-4.95
31
0
39
0
210
0
220
0
230
1
0
LINE
5
5F
100
AcDbEntity
8
SK1
62
256
6
ByLayer
370
-1
48
1
60
0
100
AcDbLine
10
-0.131
20
4.95
30
0
11
0
21
4.949428
31
0
39
0
210
0
220
0
230
1
0
LINE
5
60
100
AcDbEntity
8
SK1
62
256
6
ByLayer
370
-1
48
1
60
0
100
AcDbLine
10
-57.158318
20
4.95
30
0
11
-0.131
21
4.95
31
0
39
0
210
0
220
0
230
1
0
LINE
5
61
100
AcDbEntity
8
SK1
62
256
6
ByLayer
370
-1
48
1
60
0
100
AcDbLine
10
-57.158318
20
-4.95
30
0
11
-57.158318
21
4.95
31
0
39
0
210
0
220
0
230
1
0
LINE
5
62
100
AcDbEntity
8
1
62
256
6
ByLayer
370
-1
48
1
60
0
100
AcDbLine
10
5.200601
20
-6.654457
30
0
11
9.452217
21
0.421419
31
0
39
0
210
0
220
0
230
1
0
LINE
5
63
100
AcDbEntity
8
SK1
62
256
6
ByLayer
370
-1
48
1
60
0
100
AcDbLine
10
0
20
-4.95
30
0
11
0
21
4.949428
31
0
39
0
210
0
220
0
230
1
0
LINE
5
64
100
AcDbEntity
8
1
62
256
6
ByLayer
370
-1
48
1
60
0
100
AcDbLine
10
13.787665
20
-7.399936
30
0
11
5.533968
21
-7.255867
31
0
39
0
210
0
220
0
230
1
0
LINE
5
65
100
AcDbEntity
8
SK1
62
256
6
ByLayer
370
-1
48
1
60
0
100
AcDbLine
10
-0.131
20
-4.95
30
0
11
-57.158318
21
-4.95
31
0
39
0
210
0
220
0
230
1
0
LINE
5
66
100
AcDbEntity
8
1
62
256
6
ByLayer
370
-1
48
1
60
0
100
AcDbLine
10
10.139736
20
0.409419
30
0
11
14.141817
21
-6.810527
31
0
39
0
210
0
220
0
230
1
0
MTEXT
5
96
100
AcDbEntity
8
SK6
62
256
6
ByLayer
370
-1
48
1
60
0
100
AcDbMText
10
-31.332897
20
15.408341
30
0
210
0
220
0
230
1
1
\W00.733;\fsimplex.shx,bigfont.shx;STGCL 1010E 09 
40
3.5
41
0
44
1.084337
50
0
71
7
72
5
7
DEFAULT
0
DIMENSION
5
D7
100
AcDbEntity
8
2
62
256
6
ByLayer
370
-3
48
1
60
0
100
AcDbDimension
2
DimnDraft3D2
10
-9.270366
20
-6.997456
30
0
11
-3.585137
21
-16.732443
31
0
70
34
71
5
72
1
41
1
210
0
220
0
230
1
3
Standard
100
AcDb2LineAngularDimension
13
14.191682
23
-9.4
33
0
14
14.191682
24
-30.87261
34
0
15
10.788338
25
-7.347582
35
0
16
2.090945
26
-19.29835
36
0
40
0
0
DIMENSION
5
EC
100
AcDbEntity
8
2
62
256
6
ByLayer
370
-3
48
1
60
0
100
AcDbDimension
2
DimnDraft3D3
10
41.441682
20
-7.4
30
0
11
41.441682
21
-3.291447
31
0
70
32
71
5
72
1
41
1
210
0
220
0
230
1
3
Standard
100
AcDbAlignedDimension
13
2
23
4.95
33
0
14
16.191682
24
-7.4
34
0
50
90
100
AcDbRotatedDimension
1001
ACAD
1000
DSTYLE
1002
{
1070
    74
1070
     0
1070
   279
1070
     0
1070
   172
1070
     1
1070
   173
1070
     1
1070
   340
1005
97
1070
    77
1070
     1
1070
    73
1070
     0
1070
   171
1070
     3
1070
   274
1070
     4
1070
   177
1070
     2
1070
   176
1070
     2
1070
   178
1070
     7
1070
    78
1070
     8
1070
    41
1041
3.175
1070
   147
1041
2.25
1070
    42
1041
2.0
1070
    44
1041
2.0
1070
   140
1041
4.5
1070
   343
1005
D8
1070
   344
1005
D8
1002
}
0
DIMENSION
5
FA
100
AcDbEntity
8
SK2
62
256
6
ByLayer
370
-3
48
1
60
0
100
AcDbDimension
2
DimnDraft3D4
10
-66.908318
20
-4.95
30
0
11
-66.908318
21
-2.066447
31
0
70
32
71
5
72
1
41
1
210
0
220
0
230
1
3
Standard
100
AcDbAlignedDimension
13
-59.158317
23
4.95
33
0
14
-59.158317
24
-4.95
34
0
50
90
100
AcDbRotatedDimension
1001
ACAD
1000
DSTYLE
1002
{
1070
    74
1070
     0
1070
   279
1070
     0
1070
   172
1070
     1
1070
   173
1070
     1
1070
   340
1005
97
1070
    77
1070
     1
1070
    73
1070
     0
1070
   171
1070
     3
1070
   274
1070
     4
1070
   177
1070
     2
1070
   176
1070
     2
1070
   178
1070
     7
1070
    78
1070
     8
1070
    41
1041
3.175
1070
   147
1041
2.25
1070
    42
1041
2.0
1070
    44
1041
2.0
1070
   140
1041
4.5
1070
   343
1005
D8
1070
   344
1005
D8
1002
}
0
ENDSEC
0
SECTION
2
OBJECTS
0
DICTIONARY
5
12a
330
0
100
AcDbDictionary
280
0
281
1
3
ACAD_GROUP
350
12b
3
ACAD_MLINESTYLE
350
12c
0
DICTIONARY
5
12b
330
0
100
AcDbDictionary
280
0
281
1
0
DICTIONARY
5
12c
330
0
100
AcDbDictionary
280
0
281
1
3
Standard
350
18
0
MLINESTYLE
5
18
330
12c
100
AcDbMlineStyle
2
Standard
70
0
3

62
256
51
90
52
90
71
2
49
-0.5
62
256
6
ByLayer
49
0.5
62
256
6
ByLayer
0
RASTERVARIABLES
5
119
330

100
AcDbRasterVariables
90
0
70
1
71
1
72
1
0
ENDSEC
0
EOF
