0
SECTION
2
HEADER
9
$ACADVER
1
AC1015
9
$DWGCODEPAGE
3
ANSI_1252
9
$HANDSEED
5
143
9
$ANGBASE
50
0
9
$ANGDIR
70
0
9
$ATTMODE
70
1
9
$AUNITS
70
0
9
$AUPREC
70
0
9
$CECOLOR
62
256
9
$CELTSCALE
40
1
9
$CELTYPE
6
ByLayer
9
$CELWEIGHT
370
-1
9
$CLAYER
8
0
9
$CMLJUST
70
0
9
$CMLSCALE
40
1
9
$CMLSTYLE
2
Standard
9
$DIMSTYLE
2
Standard
9
$TEXTSIZE
40
0.2
9
$TEXTSTYLE
7
Standard
9
$LUNITS
70
2
9
$LUPREC
70
4
9
$EXTNAMES
290
1
9
$INSUNITS
70
4
9
$LTSCALE
40
1
9
$LWDISPLAY
290
0
9
$PDMODE
70
0
9
$PDSIZE
40
0
9
$PLINEGEN
70
0
0
ENDSEC
0
SECTION
2
CLASSES
0
CLASS
1
RASTERVARIABLES
2
AcDbRasterVariables
3
ISM
90
0
280
0
281
0
0
ENDSEC
0
SECTION
2
TABLES
0
TABLE
2
VPORT
5
139
100
AcDbSymbolTable
0
VPORT
5
1
100
AcDbSymbolTableRecord
100
AcDbViewportTableRecord
2
*Active
70
0
10
0
20
0
11
1
21
1
12
-1
22
1
13
0
23
0
14
0.5
24
0.5
15
10
25
10
16
0
26
0
36
1
17
0
27
0
37
0
0
ENDTAB
0
TABLE
2
LTYPE
5
13a
100
AcDbSymbolTable
0
LTYPE
5
14
100
AcDbSymbolTableRecord
100
AcDbLinetypeTableRecord
70
0
2
ByBlock
3

72
65
73
0
40
0
0
LTYPE
5
15
100
AcDbSymbolTableRecord
100
AcDbLinetypeTableRecord
70
0
2
ByLayer
3

72
65
73
0
40
0
0
LTYPE
5
16
100
AcDbSymbolTableRecord
100
AcDbLinetypeTableRecord
70
0
2
CONTINUOUS
3
Solid line
72
65
73
0
40
0
0
LTYPE
5
3B
100
AcDbSymbolTableRecord
100
AcDbLinetypeTableRecord
70
0
2
DASHED
3
__ __ __ __ __ __ __ __ __
72
65
73
2
40
25.72
49
12.86
74
0
49
-12.86
74
0
0
LTYPE
5
3C
100
AcDbSymbolTableRecord
100
AcDbLinetypeTableRecord
70
0
2
HIDDEN
3
_ _ _ _ _ _ _ _ _ _ _ _ _ _ _
72
65
73
2
40
0.5
49
0.25
74
0
49
-0.25
74
0
0
LTYPE
5
3D
100
AcDbSymbolTableRecord
100
AcDbLinetypeTableRecord
70
0
2
PHANTOM
3
____ _ _ ____ _ _ _____ _ _ ____
72
65
73
6
40
50.5
49
18
74
0
49
-6.5
74
0
49
6.5
74
0
49
-6.5
74
0
49
6.5
74
0
49
-6.5
74
0
0
LTYPE
5
3E
100
AcDbSymbolTableRecord
100
AcDbLinetypeTableRecord
70
0
2
CENTER
3
____ _ ____ _ ____ _ ____
72
65
73
4
40
47.5
49
22
74
0
49
-8.5
74
0
49
8.5
74
0
49
-8.5
74
0
0
LTYPE
5
3F
100
AcDbSymbolTableRecord
100
AcDbLinetypeTableRecord
70
0
2
DOT
3
.........................
72
65
73
2
40
10
49
0
74
0
49
-10
74
0
0
LTYPE
5
40
100
AcDbSymbolTableRecord
100
AcDbLinetypeTableRecord
70
0
2
DASHDOT
3
_._._._._._._._._._._._._._._._.
72
65
73
4
40
70
49
31
74
0
49
-13
74
0
49
13
74
0
49
-13
74
0
0
ENDTAB
0
TABLE
2
LAYER
5
13b
100
AcDbSymbolTable
0
LAYER
5
10
100
AcDbSymbolTableRecord
100
AcDbLayerTableRecord
2
0
70
0
62
7
6
CONTINUOUS
290
1
370
-3
390
0
0
LAYER
5
42
100
AcDbSymbolTableRecord
100
AcDbLayerTableRecord
2
81
70
0
62
-3
6
CONTINUOUS
290
1
370
-3
390
0
0
LAYER
5
47
100
AcDbSymbolTableRecord
100
AcDbLayerTableRecord
2
80
70
0
62
-6
6
CONTINUOUS
290
1
370
-3
390
0
0
LAYER
5
49
100
AcDbSymbolTableRecord
100
AcDbLayerTableRecord
2
2
70
0
62
7
6
CONTINUOUS
290
1
370
-3
390
0
0
LAYER
5
4F
100
AcDbSymbolTableRecord
100
AcDbLayerTableRecord
2
1
70
0
62
4
6
CONTINUOUS
290
1
370
-3
390
0
0
LAYER
5
126
100
AcDbSymbolTableRecord
100
AcDbLayerTableRecord
2
SK2
70
0
62
7
6
CONTINUOUS
290
1
370
-3
390
0
0
LAYER
5
127
100
AcDbSymbolTableRecord
100
AcDbLayerTableRecord
2
SK1
70
0
62
4
6
CONTINUOUS
290
1
370
-3
390
0
0
LAYER
5
128
100
AcDbSymbolTableRecord
100
AcDbLayerTableRecord
2
SK6
70
0
62
5
6
CONTINUOUS
290
1
370
-3
390
0
0
ENDTAB
0
TABLE
2
STYLE
5
13c
100
AcDbSymbolTable
0
STYLE
5
11
100
AcDbSymbolTableRecord
100
AcDbTextStyleTableRecord
2
Standard
3
txt
70
0
71
0
40
0
41
1
42
0
50
0
0
STYLE
5
95
100
AcDbSymbolTableRecord
100
AcDbTextStyleTableRecord
2
DEFAULT
3
simplex.shx
70
0
71
0
40
0
41
1
42
0
50
0
0
STYLE
5
B8
100
AcDbSymbolTableRecord
100
AcDbTextStyleTableRecord
2
DWGDirectTextStyle
3
SIMPLEX
70
0
71
0
40
0
41
1
42
0
50
0
0
ENDTAB
0
TABLE
2
DIMSTYLE
5
13d
100
AcDbSymbolTable
100
AcDbDimStyleTable
0
DIMSTYLE
105
27
100
AcDbSymbolTableRecord
100
AcDbDimStyleTableRecord
2
Standard
70
0
3
<>
41
0.18
42
0.0625
44
0.18
140
0.18
147
0.09
73
0
74
0
77
1
271
2
275
0
278
52
280
0
340
11
0
ENDTAB
0
TABLE
2
VIEW
5
13e
100
AcDbSymbolTable
0
ENDTAB
0
TABLE
2
UCS
5
13f
100
AcDbSymbolTable
0
ENDTAB
0
TABLE
2
APPID
5
140
100
AcDbSymbolTable
0
APPID
5
12
100
AcDbSymbolTableRecord
100
AcDbRegAppTableRecord
2
ACAD
70
0
0
ENDTAB
0
TABLE
2
BLOCK_RECORD
5
141
100
AcDbSymbolTable
0
BLOCK_RECORD
5
1F
100
AcDbSymbolTableRecord
100
AcDbBlockTableRecord
2
*Model_Space
340
0
70
0
0
BLOCK_RECORD
5
1B
100
AcDbSymbolTableRecord
100
AcDbBlockTableRecord
2
*Paper_Space
340
0
70
0
0
BLOCK_RECORD
5
23
100
AcDbSymbolTableRecord
100
AcDbBlockTableRecord
2
*Paper_Space0
340
0
70
0
0
BLOCK_RECORD
5
BA
100
AcDbSymbolTableRecord
100
AcDbBlockTableRecord
2
DimnDraft3D1
340
0
70
0
0
BLOCK_RECORD
5
C8
100
AcDbSymbolTableRecord
100
AcDbBlockTableRecord
2
_CLOSED
340
0
70
0
0
BLOCK_RECORD
5
CF
100
AcDbSymbolTableRecord
100
AcDbBlockTableRecord
2
DimnDraft3D2
340
0
70
0
0
BLOCK_RECORD
5
DD
100
AcDbSymbolTableRecord
100
AcDbBlockTableRecord
2
DimnDraft3D3
340
0
70
0
0
BLOCK_RECORD
5
EB
100
AcDbSymbolTableRecord
100
AcDbBlockTableRecord
2
DimnDraft3D4
340
0
70
0
0
BLOCK_RECORD
5
F9
100
AcDbSymbolTableRecord
100
AcDbBlockTableRecord
2
DimnDraft3D5
340
0
70
0
0
ENDTAB
0
ENDSEC
0
SECTION
2
BLOCKS
0
BLOCK
5
20
100
AcDbEntity
8
0
100
AcDbBlockBegin
2
*Model_Space
70
0
10
0
20
0
30
0
3
*Model_Space
0
ENDBLK
5
21
100
AcDbEntity
8
0
100
AcDbBlockEnd
0
BLOCK
5
1C
100
AcDbEntity
8
0
100
AcDbBlockBegin
2
*Paper_Space
70
0
10
0
20
0
30
0
3
*Paper_Space
0
ENDBLK
5
1D
100
AcDbEntity
8
0
100
AcDbBlockEnd
0
BLOCK
5
24
100
AcDbEntity
8
0
100
AcDbBlockBegin
2
*Paper_Space0
70
0
10
0
20
0
30
0
3
*Paper_Space0
0
ENDBLK
5
25
100
AcDbEntity
8
0
100
AcDbBlockEnd
0
BLOCK
5
C5
100
AcDbEntity
8
0
100
AcDbBlockBegin
2
DimnDraft3D1
70
0
10
0
20
0
30
0
3
DimnDraft3D1
0
MTEXT
5
BB
100
AcDbEntity
8
2
62
256
6
ByLayer
370
-1
48
1
60
0
100
AcDbMText
10
42.598965
20
-3.664843
30
0
210
0
220
0
230
1
1
\W01.000;\fsimplex.shx,bigfont.shx;90%%d0' 
40
4.5
41
0
44
1.084337
50
45
71
7
72
5
7
DEFAULT
0
LINE
5
BC
100
AcDbEntity
8
2
62
256
6
ByLayer
370
-1
48
1
60
0
100
AcDbLine
10
35.290661
20
7.665625
30
0
11
35.290661
21
-7.644056
31
0
39
0
210
0
220
0
230
1
0
LINE
5
BD
100
AcDbEntity
8
2
62
256
6
ByLayer
370
-1
48
1
60
0
100
AcDbLine
10
37.290661
20
11.0625
30
0
11
53.997217
21
11.0625
31
0
39
0
210
0
220
0
230
1
0
ARC
5
BE
100
AcDbEntity
8
2
62
256
6
ByLayer
370
-1
48
1
60
0
100
AcDbCircle
39
0
10
35.290661
20
11.0625
30
0
40
16.7065556164436
210
0
220
0
230
1
100
AcDbArc
50
236.044134
51
33.955866
0
LINE
5
BF
100
AcDbEntity
8
2
62
256
6
ByLayer
370
-1
48
1
60
0
100
AcDbLine
10
35.290661
20
-5.644056
30
0
11
32.099431
21
-5.911243
31
0
39
0
210
0
220
0
230
1
0
LINE
5
C0
100
AcDbEntity
8
2
62
256
6
ByLayer
370
-1
48
1
60
0
100
AcDbLine
10
35.290661
20
-5.644056
30
0
11
32.139014
21
-5.076187
31
0
39
0
210
0
220
0
230
1
0
LINE
5
C1
100
AcDbEntity
8
2
62
256
6
ByLayer
370
-1
48
1
60
0
100
AcDbLine
10
32.099431
20
-5.911243
30
0
11
32.139014
21
-5.076187
31
0
39
0
210
0
220
0
230
1
0
LINE
5
C2
100
AcDbEntity
8
2
62
256
6
ByLayer
370
-1
48
1
60
0
100
AcDbLine
10
51.997217
20
11.0625
30
0
11
51.429349
21
14.214144
31
0
39
0
210
0
220
0
230
1
0
LINE
5
C3
100
AcDbEntity
8
2
62
256
6
ByLayer
370
-1
48
1
60
0
100
AcDbLine
10
51.997217
20
11.0625
30
0
11
52.264404
21
14.253733
31
0
39
0
210
0
220
0
230
1
0
LINE
5
C4
100
AcDbEntity
8
2
62
256
6
ByLayer
370
-1
48
1
60
0
100
AcDbLine
10
51.429349
20
14.214144
30
0
11
52.264404
21
14.253733
31
0
39
0
210
0
220
0
230
1
0
ENDBLK
5
C6
100
AcDbEntity
8
0
100
AcDbBlockEnd
0
BLOCK
5
C9
100
AcDbEntity
8
0
100
AcDbBlockBegin
2
_CLOSED
70
0
10
0
20
0
30
0
3
_CLOSED
0
LINE
5
CB
100
AcDbEntity
8
0
62
256
6
ByLayer
370
-2
48
1
60
0
100
AcDbLine
10
-1
20
0.166667
30
0
11
0
21
0
31
0
39
0
210
0
220
0
230
1
0
LINE
5
CC
100
AcDbEntity
8
0
62
256
6
ByLayer
370
-2
48
1
60
0
100
AcDbLine
10
0
20
0
30
0
11
-1
21
-0.166667
31
0
39
0
210
0
220
0
230
1
0
LINE
5
CD
100
AcDbEntity
8
0
62
256
6
ByLayer
370
-2
48
1
60
0
100
AcDbLine
10
-1
20
0.166667
30
0
11
-1
21
-0.166667
31
0
39
0
210
0
220
0
230
1
0
LINE
5
CE
100
AcDbEntity
8
0
62
256
6
ByLayer
370
-2
48
1
60
0
100
AcDbLine
10
0
20
0
30
0
11
-1
21
0
31
0
39
0
210
0
220
0
230
1
0
ENDBLK
5
CA
100
AcDbEntity
8
0
100
AcDbBlockEnd
0
BLOCK
5
DA
100
AcDbEntity
8
0
100
AcDbBlockBegin
2
DimnDraft3D2
70
0
10
0
20
0
30
0
3
DimnDraft3D2
0
MTEXT
5
D0
100
AcDbEntity
8
SK2
62
256
6
ByLayer
370
-1
48
1
60
0
100
AcDbMText
10
-101.934339
20
-1.503947
30
0
210
0
220
0
230
1
1
\W01.000;\fsimplex.shx,bigfont.shx;20 
40
4.5
41
0
44
1.084337
50
90
71
7
72
5
7
DEFAULT
0
LINE
5
D1
100
AcDbEntity
8
SK2
62
256
6
ByLayer
370
-1
48
1
60
0
100
AcDbLine
10
-93.059339
20
-9.9375
30
0
11
-102.809339
21
-9.9375
31
0
39
0
210
0
220
0
230
1
0
LINE
5
D2
100
AcDbEntity
8
SK2
62
256
6
ByLayer
370
-1
48
1
60
0
100
AcDbLine
10
-93.059339
20
9.9375
30
0
11
-102.809339
21
9.9375
31
0
39
0
210
0
220
0
230
1
0
LINE
5
D3
100
AcDbEntity
8
SK2
62
256
6
ByLayer
370
-1
48
1
60
0
100
AcDbLine
10
-100.809339
20
-9.9375
30
0
11
-100.809339
21
9.9375
31
0
39
0
210
0
220
0
230
1
0
LINE
5
D4
100
AcDbEntity
8
SK2
62
256
6
ByLayer
370
-1
48
1
60
0
100
AcDbLine
10
-100.809339
20
-9.9375
30
0
11
-101.227335
21
-6.762502
31
0
39
0
210
0
220
0
230
1
0
LINE
5
D5
100
AcDbEntity
8
SK2
62
256
6
ByLayer
370
-1
48
1
60
0
100
AcDbLine
10
-100.809339
20
-9.9375
30
0
11
-100.391342
21
-6.762498
31
0
39
0
210
0
220
0
230
1
0
LINE
5
D6
100
AcDbEntity
8
SK2
62
256
6
ByLayer
370
-1
48
1
60
0
100
AcDbLine
10
-101.227335
20
-6.762502
30
0
11
-100.391342
21
-6.762498
31
0
39
0
210
0
220
0
230
1
0
LINE
5
D7
100
AcDbEntity
8
SK2
62
256
6
ByLayer
370
-1
48
1
60
0
100
AcDbLine
10
-100.809339
20
9.9375
30
0
11
-100.391342
21
6.762502
31
0
39
0
210
0
220
0
230
1
0
LINE
5
D8
100
AcDbEntity
8
SK2
62
256
6
ByLayer
370
-1
48
1
60
0
100
AcDbLine
10
-100.809339
20
9.9375
30
0
11
-101.227335
21
6.762498
31
0
39
0
210
0
220
0
230
1
0
LINE
5
D9
100
AcDbEntity
8
SK2
62
256
6
ByLayer
370
-1
48
1
60
0
100
AcDbLine
10
-100.391342
20
6.762502
30
0
11
-101.227335
21
6.762498
31
0
39
0
210
0
220
0
230
1
0
ENDBLK
5
DB
100
AcDbEntity
8
0
100
AcDbBlockEnd
0
BLOCK
5
E8
100
AcDbEntity
8
0
100
AcDbBlockBegin
2
DimnDraft3D3
70
0
10
0
20
0
30
0
3
DimnDraft3D3
0
MTEXT
5
DE
100
AcDbEntity
8
2
62
256
6
ByLayer
370
-1
48
1
60
0
100
AcDbMText
10
61.415661
20
-5.127632
30
0
210
0
220
0
230
1
1
\W01.000;\fsimplex.shx,bigfont.shx;20.65 
40
4.5
41
0
44
1.084337
50
90
71
7
72
5
7
DEFAULT
0
LINE
5
DF
100
AcDbEntity
8
2
62
256
6
ByLayer
370
-1
48
1
60
0
100
AcDbLine
10
2
20
-9.9375
30
0
11
64.540661
21
-9.9375
31
0
39
0
210
0
220
0
230
1
0
LINE
5
E0
100
AcDbEntity
8
2
62
256
6
ByLayer
370
-1
48
1
60
0
100
AcDbLine
10
37.290661
20
11.0625
30
0
11
64.540661
21
11.0625
31
0
39
0
210
0
220
0
230
1
0
LINE
5
E1
100
AcDbEntity
8
2
62
256
6
ByLayer
370
-1
48
1
60
0
100
AcDbLine
10
62.540661
20
-21.1875
30
0
11
62.540661
21
22.3125
31
0
39
0
210
0
220
0
230
1
0
LINE
5
E2
100
AcDbEntity
8
2
62
256
6
ByLayer
370
-1
48
1
60
0
100
AcDbLine
10
62.540661
20
-9.9375
30
0
11
62.958658
21
-13.112498
31
0
39
0
210
0
220
0
230
1
0
LINE
5
E3
100
AcDbEntity
8
2
62
256
6
ByLayer
370
-1
48
1
60
0
100
AcDbLine
10
62.540661
20
-9.9375
30
0
11
62.122665
21
-13.112502
31
0
39
0
210
0
220
0
230
1
0
LINE
5
E4
100
AcDbEntity
8
2
62
256
6
ByLayer
370
-1
48
1
60
0
100
AcDbLine
10
62.958658
20
-13.112498
30
0
11
62.122665
21
-13.112502
31
0
39
0
210
0
220
0
230
1
0
LINE
5
E5
100
AcDbEntity
8
2
62
256
6
ByLayer
370
-1
48
1
60
0
100
AcDbLine
10
62.540661
20
11.0625
30
0
11
62.122665
21
14.237498
31
0
39
0
210
0
220
0
230
1
0
LINE
5
E6
100
AcDbEntity
8
2
62
256
6
ByLayer
370
-1
48
1
60
0
100
AcDbLine
10
62.540661
20
11.0625
30
0
11
62.958658
21
14.237502
31
0
39
0
210
0
220
0
230
1
0
LINE
5
E7
100
AcDbEntity
8
2
62
256
6
ByLayer
370
-1
48
1
60
0
100
AcDbLine
10
62.122665
20
14.237498
30
0
11
62.958658
21
14.237502
31
0
39
0
210
0
220
0
230
1
0
ENDBLK
5
E9
100
AcDbEntity
8
0
100
AcDbBlockEnd
0
BLOCK
5
F6
100
AcDbEntity
8
0
100
AcDbBlockBegin
2
DimnDraft3D4
70
0
10
0
20
0
30
0
3
DimnDraft3D4
0
MTEXT
5
EC
100
AcDbEntity
8
2
62
256
6
ByLayer
370
-1
48
1
60
0
100
AcDbMText
10
21.286714
20
-21.0625
30
0
210
0
220
0
230
1
1
\W01.000;\fsimplex.shx,bigfont.shx;25 
40
4.5
41
0
44
1.084337
50
0
71
7
72
5
7
DEFAULT
0
LINE
5
ED
100
AcDbEntity
8
2
62
256
6
ByLayer
370
-1
48
1
60
0
100
AcDbLine
10
35.290661
20
8.26875
30
0
11
35.290661
21
-24.1875
31
0
39
0
210
0
220
0
230
1
0
LINE
5
EE
100
AcDbEntity
8
2
62
256
6
ByLayer
370
-1
48
1
60
0
100
AcDbLine
10
10.290661
20
-1.354957
30
0
11
10.290661
21
-24.1875
31
0
39
0
210
0
220
0
230
1
0
LINE
5
EF
100
AcDbEntity
8
2
62
256
6
ByLayer
370
-1
48
1
60
0
100
AcDbLine
10
35.290661
20
-22.1875
30
0
11
10.290661
21
-22.1875
31
0
39
0
210
0
220
0
230
1
0
LINE
5
F0
100
AcDbEntity
8
2
62
256
6
ByLayer
370
-1
48
1
60
0
100
AcDbLine
10
35.290661
20
-22.1875
30
0
11
32.115663
21
-22.605497
31
0
39
0
210
0
220
0
230
1
0
LINE
5
F1
100
AcDbEntity
8
2
62
256
6
ByLayer
370
-1
48
1
60
0
100
AcDbLine
10
35.290661
20
-22.1875
30
0
11
32.11566
21
-21.769503
31
0
39
0
210
0
220
0
230
1
0
LINE
5
F2
100
AcDbEntity
8
2
62
256
6
ByLayer
370
-1
48
1
60
0
100
AcDbLine
10
32.115663
20
-22.605497
30
0
11
32.11566
21
-21.769503
31
0
39
0
210
0
220
0
230
1
0
LINE
5
F3
100
AcDbEntity
8
2
62
256
6
ByLayer
370
-1
48
1
60
0
100
AcDbLine
10
10.290661
20
-22.1875
30
0
11
13.46566
21
-21.769503
31
0
39
0
210
0
220
0
230
1
0
LINE
5
F4
100
AcDbEntity
8
2
62
256
6
ByLayer
370
-1
48
1
60
0
100
AcDbLine
10
10.290661
20
-22.1875
30
0
11
13.465663
21
-22.605497
31
0
39
0
210
0
220
0
230
1
0
LINE
5
F5
100
AcDbEntity
8
2
62
256
6
ByLayer
370
-1
48
1
60
0
100
AcDbLine
10
13.46566
20
-21.769503
30
0
11
13.465663
21
-22.605497
31
0
39
0
210
0
220
0
230
1
0
ENDBLK
5
F7
100
AcDbEntity
8
0
100
AcDbBlockEnd
0
BLOCK
5
104
100
AcDbEntity
8
0
100
AcDbBlockBegin
2
DimnDraft3D5
70
0
10
0
20
0
30
0
3
DimnDraft3D5
0
MTEXT
5
FA
100
AcDbEntity
8
SK2
62
256
6
ByLayer
370
-1
48
1
60
0
100
AcDbMText
10
-30.47776
20
31.9375
30
0
210
0
220
0
230
1
1
\W01.000;\fsimplex.shx,bigfont.shx;125 
40
4.5
41
0
44
1.084337
50
0
71
7
72
5
7
DEFAULT
0
LINE
5
FB
100
AcDbEntity
8
SK2
62
256
6
ByLayer
370
-1
48
1
60
0
100
AcDbLine
10
35.290661
20
13.0625
30
0
11
35.290661
21
32.8125
31
0
39
0
210
0
220
0
230
1
0
LINE
5
FC
100
AcDbEntity
8
SK2
62
256
6
ByLayer
370
-1
48
1
60
0
100
AcDbLine
10
-91.059339
20
11.9375
30
0
11
-91.059339
21
32.8125
31
0
39
0
210
0
220
0
230
1
0
LINE
5
FD
100
AcDbEntity
8
SK2
62
256
6
ByLayer
370
-1
48
1
60
0
100
AcDbLine
10
35.290661
20
30.8125
30
0
11
-91.059339
21
30.8125
31
0
39
0
210
0
220
0
230
1
0
LINE
5
FE
100
AcDbEntity
8
SK2
62
256
6
ByLayer
370
-1
48
1
60
0
100
AcDbLine
10
35.290661
20
30.8125
30
0
11
32.115663
21
30.394503
31
0
39
0
210
0
220
0
230
1
0
LINE
5
FF
100
AcDbEntity
8
SK2
62
256
6
ByLayer
370
-1
48
1
60
0
100
AcDbLine
10
35.290661
20
30.8125
30
0
11
32.11566
21
31.230497
31
0
39
0
210
0
220
0
230
1
0
LINE
5
100
100
AcDbEntity
8
SK2
62
256
6
ByLayer
370
-1
48
1
60
0
100
AcDbLine
10
32.115663
20
30.394503
30
0
11
32.11566
21
31.230497
31
0
39
0
210
0
220
0
230
1
0
LINE
5
101
100
AcDbEntity
8
SK2
62
256
6
ByLayer
370
-1
48
1
60
0
100
AcDbLine
10
-91.059339
20
30.8125
30
0
11
-87.88434
21
31.230497
31
0
39
0
210
0
220
0
230
1
0
LINE
5
102
100
AcDbEntity
8
SK2
62
256
6
ByLayer
370
-1
48
1
60
0
100
AcDbLine
10
-91.059339
20
30.8125
30
0
11
-87.884337
21
30.394503
31
0
39
0
210
0
220
0
230
1
0
LINE
5
103
100
AcDbEntity
8
SK2
62
256
6
ByLayer
370
-1
48
1
60
0
100
AcDbLine
10
-87.88434
20
31.230497
30
0
11
-87.884337
21
30.394503
31
0
39
0
210
0
220
0
230
1
0
ENDBLK
5
105
100
AcDbEntity
8
0
100
AcDbBlockEnd
0
ENDSEC
0
SECTION
2
ENTITIES
0
ARC
5
65
100
AcDbEntity
8
1
62
256
6
ByLayer
370
-1
48
1
60
0
100
AcDbCircle
39
0
10
26.515438
20
5.8539
30
0
40
1.05000000000009
210
0
220
0
230
1
100
AcDbArc
50
50.911654
51
96.602037
0
ARC
5
66
100
AcDbEntity
8
1
62
256
6
ByLayer
370
-1
48
1
60
0
100
AcDbCircle
39
0
10
-27.67824
20
6.667933
30
0
40
1.25
210
0
220
0
230
-1
100
AcDbArc
50
30
51
120
0
ARC
5
67
100
AcDbEntity
8
1
62
256
6
ByLayer
370
-1
48
1
60
0
100
AcDbCircle
39
0
10
-13.374216
20
-8.904729
30
0
40
10.2
210
0
220
0
230
-1
100
AcDbArc
50
30
51
90
0
ARC
5
68
100
AcDbEntity
8
1
62
256
6
ByLayer
370
-1
48
1
60
0
100
AcDbCircle
39
0
10
-26.515438
20
5.8539
30
0
40
1.05000000000009
210
0
220
0
230
-1
100
AcDbArc
50
230.926768
51
83.397963
0
ARC
5
69
100
AcDbEntity
8
1
62
256
6
ByLayer
370
-1
48
1
60
0
100
AcDbCircle
39
0
10
-27.57824
20
6.494728
30
0
40
1.25
210
0
220
0
230
-1
100
AcDbArc
50
18.769869
51
30
0
ARC
5
6A
100
AcDbEntity
8
1
62
256
6
ByLayer
370
-1
48
1
60
0
100
AcDbCircle
39
0
10
-26.559411
20
5.853771
30
0
40
0.396875000000005
210
0
220
0
230
-1
100
AcDbArc
50
300
51
60
0
ARC
5
6B
100
AcDbEntity
8
1
62
256
6
ByLayer
370
-1
48
1
60
0
100
AcDbCircle
39
0
10
-34.893786
20
10.665625
30
0
40
0.396875000000005
210
0
220
0
230
-1
100
AcDbArc
50
60
51
180
0
ARC
5
6C
100
AcDbEntity
8
1
62
256
6
ByLayer
370
-1
48
1
60
0
100
AcDbCircle
39
0
10
-34.893786
20
1.041918
30
0
40
0.396875000000005
210
0
220
0
230
-1
100
AcDbArc
50
180
51
300
0
ARC
5
6E
100
AcDbEntity
8
1
62
256
6
ByLayer
370
-1
48
1
60
0
100
AcDbCircle
39
0
10
32.115661
20
5.853771
30
0
40
0.748000000000001
210
0
220
0
230
1
100
AcDbArc
50
30.024579
51
89.975421
0
ARC
5
6F
100
AcDbEntity
8
1
62
256
6
ByLayer
370
-1
48
1
60
0
100
AcDbCircle
39
0
10
-32.115661
20
5.853771
30
0
40
1.035
210
0
220
0
230
-1
100
AcDbArc
50
240.049159
51
300
0
ARC
5
70
100
AcDbEntity
8
1
62
256
6
ByLayer
370
-1
48
1
60
0
100
AcDbCircle
39
0
10
-32.115661
20
5.853771
30
0
40
0.748000000000001
210
0
220
0
230
-1
100
AcDbArc
50
207.838153
51
212.161847
0
ARC
5
71
100
AcDbEntity
8
1
62
256
6
ByLayer
370
-1
48
1
60
0
100
AcDbCircle
39
0
10
32.115661
20
5.853771
30
0
40
0.748000000000001
210
0
220
0
230
1
100
AcDbArc
50
332.161847
51
30.024579
0
ARC
5
74
100
AcDbEntity
8
1
62
256
6
ByLayer
370
-1
48
1
60
0
100
AcDbCircle
39
0
10
-32.115661
20
5.853771
30
0
40
0.748000000000001
210
0
220
0
230
-1
100
AcDbArc
50
27.838153
51
32.161847
0
ARC
5
75
100
AcDbEntity
8
1
62
256
6
ByLayer
370
-1
48
1
60
0
100
AcDbCircle
39
0
10
32.115661
20
5.853771
30
0
40
0.748000000000001
210
0
220
0
230
1
100
AcDbArc
50
210.024579
51
269.975421
0
ARC
5
76
100
AcDbEntity
8
1
62
256
6
ByLayer
370
-1
48
1
60
0
100
AcDbCircle
39
0
10
-32.115661
20
5.853771
30
0
40
1.035
210
0
220
0
230
-1
100
AcDbArc
50
359.950841
51
60.049159
0
ARC
5
77
100
AcDbEntity
8
1
62
256
6
ByLayer
370
-1
48
1
60
0
100
AcDbCircle
39
0
10
32.115661
20
5.853771
30
0
40
0.747999999999989
210
0
220
0
230
1
100
AcDbArc
50
89.975421
51
147.838153
0
ARC
5
78
100
AcDbEntity
8
1
62
256
6
ByLayer
370
-1
48
1
60
0
100
AcDbCircle
39
0
10
-32.115661
20
5.853771
30
0
40
1.035
210
0
220
0
230
-1
100
AcDbArc
50
120
51
179.950841
0
ARC
5
7B
100
AcDbEntity
8
1
62
256
6
ByLayer
370
-1
48
1
60
0
100
AcDbCircle
39
0
10
-32.115661
20
5.853771
30
0
40
1.035
210
0
220
0
230
-1
100
AcDbArc
50
60.049159
51
120
0
ARC
5
7C
100
AcDbEntity
8
1
62
256
6
ByLayer
370
-1
48
1
60
0
100
AcDbCircle
39
0
10
32.115661
20
5.853771
30
0
40
0.748000000000001
210
0
220
0
230
1
100
AcDbArc
50
152.161847
51
210.024579
0
ARC
5
7D
100
AcDbEntity
8
1
62
256
6
ByLayer
370
-1
48
1
60
0
100
AcDbCircle
39
0
10
32.115661
20
5.853771
30
0
40
0.748000000000001
210
0
220
0
230
1
100
AcDbArc
50
269.975421
51
327.838153
0
ARC
5
7E
100
AcDbEntity
8
1
62
256
6
ByLayer
370
-1
48
1
60
0
100
AcDbCircle
39
0
10
-32.115661
20
5.853771
30
0
40
1.035
210
0
220
0
230
-1
100
AcDbArc
50
300
51
359.950841
0
ARC
5
7F
100
AcDbEntity
8
1
62
256
6
ByLayer
370
-1
48
1
60
0
100
AcDbCircle
39
0
10
-32.115661
20
5.853771
30
0
40
1.035
210
0
220
0
230
-1
100
AcDbArc
50
179.950841
51
240.049159
0
CIRCLE
5
6D
100
AcDbEntity
8
1
62
256
6
ByLayer
370
-1
48
1
60
0
100
AcDbCircle
10
-32.115661
20
5.853771
30
0
40
1.90468944117779
39
0
210
0
220
0
230
-1
0
CIRCLE
5
72
100
AcDbEntity
8
1
62
256
6
ByLayer
370
-1
48
1
60
0
100
AcDbCircle
10
-32.115661
20
5.853771
30
0
40
1.30000000000001
39
0
210
0
220
0
230
-1
0
CIRCLE
5
73
100
AcDbEntity
8
1
62
256
6
ByLayer
370
-1
48
1
60
0
100
AcDbCircle
10
32.115661
20
5.853771
30
0
40
1.80141464041838
39
0
210
0
220
0
230
1
0
CIRCLE
5
79
100
AcDbEntity
8
1
62
256
6
ByLayer
370
-1
48
1
60
0
100
AcDbCircle
10
-32.115661
20
5.853771
30
0
40
1.88122167929294
39
0
210
0
220
0
230
-1
0
CIRCLE
5
7A
100
AcDbEntity
8
1
62
256
6
ByLayer
370
-1
48
1
60
0
100
AcDbCircle
10
-32.115661
20
5.853771
30
0
40
1.725
39
0
210
0
220
0
230
-1
0
POINT
5
41
100
AcDbEntity
8
81
62
256
6
ByLayer
370
-1
48
1
60
0
100
AcDbPoint
10
35.290661
20
11.0625
30
0
39
0
210
0
220
0
230
1
50
360
0
POINT
5
43
100
AcDbEntity
8
SK2
62
256
6
ByLayer
370
-1
48
1
60
0
100
AcDbPoint
10
35.290661
20
11.0625
30
0
39
0
210
0
220
0
230
1
50
360
0
POINT
5
45
100
AcDbEntity
8
SK2
62
256
6
ByLayer
370
-1
48
1
60
0
100
AcDbPoint
10
35.290661
20
11.0625
30
0
39
0
210
0
220
0
230
1
50
360
0
POINT
5
46
100
AcDbEntity
8
80
62
256
6
ByLayer
370
-1
48
1
60
0
100
AcDbPoint
10
0
20
0
30
0
39
0
210
0
220
0
230
1
50
360
0
POINT
5
48
100
AcDbEntity
8
2
62
256
6
ByLayer
370
-1
48
1
60
0
100
AcDbPoint
10
35.290661
20
11.0625
30
0
39
0
210
0
220
0
230
1
50
360
0
POINT
5
4A
100
AcDbEntity
8
SK2
62
256
6
ByLayer
370
-1
48
1
60
0
100
AcDbPoint
10
35.290661
20
11.0625
30
0
39
0
210
0
220
0
230
1
50
360
0
POINT
5
4B
100
AcDbEntity
8
SK2
62
256
6
ByLayer
370
-1
48
1
60
0
100
AcDbPoint
10
35.290661
20
11.0625
30
0
39
0
210
0
220
0
230
1
50
360
0
SPLINE
5
80
100
AcDbEntity
8
1
62
256
6
ByLayer
370
-1
48
1
60
0
100
AcDbSpline
70
4
71
3
72
16
73
12
40
0
40
0
40
0
40
0
40
0.0670582229426011
40
0.0670582229426011
40
0.291699352774485
40
0.291699352774485
40
0.519329427551201
40
0.519329427551201
40
0.761534725566108
40
0.761534725566108
40
1
40
1
40
1
40
1
41
1
10
31.5981612079099
20
4.95743505730581
30
0
41
1
10
31.603046587893
20
4.9546144818575
30
0
41
1
10
31.6080675899241
20
4.95201444321708
30
0
41
1
10
31.6302220668097
20
4.94179729437647
30
0
41
1
10
31.6486548741145
20
4.93653796281455
30
0
41
1
10
31.6855418604908
20
4.93177485140413
30
0
41
1
10
31.7044607816892
20
4.93227309257441
30
0
41
1
10
31.7413980836661
20
4.93869635120603
30
0
41
1
10
31.7597474698989
20
4.94502741648589
30
0
41
1
10
31.792518440293
20
4.96212824425092
30
0
41
1
10
31.807342088032
20
4.97299124258214
30
0
41
1
10
31.8200387122824
20
4.98541337259408
30
0
0
SPLINE
5
81
100
AcDbEntity
8
1
62
256
6
ByLayer
370
-1
48
1
60
0
100
AcDbSpline
70
4
71
3
72
16
73
12
40
0
40
0
40
0
40
0
40
0.0666553476596563
40
0.0666553476596563
40
0.290649985001559
40
0.290649985001559
40
0.517613202310046
40
0.517613202310046
40
0.759099969110621
40
0.759099969110621
40
1
40
1
40
1
40
1
41
1
10
32.6323919792231
20
4.95699138279588
30
0
41
1
10
32.6372646018745
20
4.95979902140559
30
0
41
1
10
32.6420149864093
20
4.96283305856736
30
0
41
1
10
32.6619426238197
20
4.97687820704172
30
0
41
1
10
32.6757293676943
20
4.99019652979555
30
0
41
1
10
32.6983315609722
20
5.01973474835086
30
0
41
1
10
32.7073783624966
20
5.03635774982445
30
0
41
1
10
32.720323983278
20
5.07154250593484
30
0
41
1
10
32.7240374455534
20
5.09059411800973
30
0
41
1
10
32.7256659513217
20
5.12775993193986
30
0
41
1
10
32.7236281430003
20
5.14626863022096
30
0
41
1
10
32.7191175640465
20
5.16367995611483
30
0
0
SPLINE
5
82
100
AcDbEntity
8
1
62
256
6
ByLayer
370
-1
48
1
60
0
100
AcDbSpline
70
4
71
3
72
14
73
10
40
0
40
0
40
0
40
0
40
0.284025999539538
40
0.284025999539538
40
0.570741083157171
40
0.570741083157171
40
0.830517314873086
40
0.830517314873086
40
1
40
1
40
1
40
1
41
1
10
31.2162963516111
20
6.0313341876583
30
0
41
1
10
31.1958855063236
20
6.02568287323194
30
0
41
1
10
31.1758235562025
20
6.0162590426425
30
0
41
1
10
31.1398739040032
20
5.99050038493286
30
0
41
1
10
31.1234947506628
20
5.97367078853489
30
0
41
1
10
31.0993004907283
20
5.93665644517344
30
0
41
1
10
31.0904921088593
20
5.91635726118631
30
0
41
1
10
31.0823151905794
20
5.88149969461259
30
0
41
1
10
31.0806493614332
20
5.86713475203956
30
0
41
1
10
31.0806615888567
20
5.85288334138366
30
0
0
SPLINE
5
83
100
AcDbEntity
8
1
62
256
6
ByLayer
370
-1
48
1
60
0
100
AcDbSpline
70
4
71
3
72
18
73
14
40
0
40
0
40
0
40
0
40
0.213394520190896
40
0.213394520190896
40
0.38900436850638
40
0.38900436850638
40
0.566252479908927
40
0.566252479908927
40
0.721175524857482
40
0.721175524857482
40
0.927416479540416
40
0.927416479540416
40
1
40
1
40
1
40
1
41
1
10
31.5114523875183
20
5.16357577026488
30
0
41
1
10
31.5222162645717
20
5.20557771148933
30
0
41
1
10
31.526772886043
20
5.2506983559272
30
0
41
1
10
31.5212224233018
20
5.33401769090838
30
0
41
1
10
31.5134073054816
20
5.3729612512756
30
0
41
1
10
31.4866391410494
20
5.44788468028966
30
0
41
1
10
31.4670845444995
20
5.48489616932849
30
0
41
1
10
31.4224860561627
20
5.54591052659583
30
0
41
1
10
31.3979569257766
20
5.5717243040904
30
0
41
1
10
31.3369403883971
20
5.62222608703897
30
0
41
1
10
31.298218902165
20
5.64470376963487
30
0
41
1
10
31.2446138835928
20
5.66603403607249
30
0
41
1
10
31.2303465038521
20
5.67083287375479
30
0
41
1
10
31.2159830827815
20
5.67483698125537
30
0
0
SPLINE
5
84
100
AcDbEntity
8
1
62
256
6
ByLayer
370
-1
48
1
60
0
100
AcDbSpline
70
4
71
3
72
16
73
12
40
0
40
0
40
0
40
0
40
0.0652275349362354
40
0.0652275349362354
40
0.289888669387742
40
0.289888669387742
40
0.517436018510674
40
0.517436018510674
40
0.759474682575867
40
0.759474682575867
40
1
40
1
40
1
40
1
41
1
10
31.0806615888567
20
5.85288334138366
30
0
41
1
10
31.0806662977205
20
5.84739502631959
30
0
41
1
10
31.0809159409946
20
5.84190030372369
30
0
41
1
10
31.0830920883531
20
5.81775040505158
30
0
41
1
10
31.0877252305431
20
5.79914488903239
30
0
41
1
10
31.1019920062599
20
5.76479306225454
30
0
41
1
10
31.1118570226582
20
5.74864338136632
30
0
41
1
10
31.1358383177357
20
5.71983463837196
30
0
41
1
10
31.1504703259544
20
5.7070895395982
30
0
41
1
10
31.1817621522852
20
5.6871245007849
30
0
41
1
10
31.1987287543607
20
5.67964699034081
30
0
41
1
10
31.2159830827815
20
5.67483698125537
30
0
0
SPLINE
5
85
100
AcDbEntity
8
1
62
256
6
ByLayer
370
-1
48
1
60
0
100
AcDbSpline
70
4
71
3
72
12
73
8
40
0
40
0
40
0
40
0
40
0.377026880672668
40
0.377026880672668
40
0.761057562816855
40
0.761057562816855
40
1
40
1
40
1
40
1
41
1
10
32.7488789745362
20
5.45560146182237
30
0
41
1
10
32.7314533642145
20
5.42013506628976
30
0
41
1
10
32.7191217827356
20
5.38197516132806
30
0
41
1
10
32.7054443384084
20
5.30630157614922
30
0
41
1
10
32.7040263830965
20
5.26780860253075
30
0
41
1
10
32.7094902095453
20
5.20806666623346
30
0
41
1
10
32.7134648348337
20
5.18550010637088
30
0
41
1
10
32.7191175640465
20
5.16367995611481
30
0
0
SPLINE
5
86
100
AcDbEntity
8
1
62
256
6
ByLayer
370
-1
48
1
60
0
100
AcDbSpline
70
4
71
3
72
18
73
14
40
0
40
0
40
0
40
0
40
0.21329819825132
40
0.21329819825132
40
0.388924602029595
40
0.388924602029595
40
0.566190397760096
40
0.566190397760096
40
0.721116404787943
40
0.721116404787943
40
0.927339977147909
40
0.927339977147909
40
1
40
1
40
1
40
1
41
1
10
31.8207838544815
20
6.72238264629672
30
0
41
1
10
31.8517366464265
20
6.69204701565485
30
0
41
1
10
31.8884915857741
20
6.66551944643282
30
0
41
1
10
31.9633687429421
20
6.62859985159102
30
0
41
1
10
32.0009921930486
20
6.61585770237889
30
0
41
1
10
32.0792539430858
20
6.60149944844898
30
0
41
1
10
32.1210867659403
20
6.5998874224118
30
0
41
1
10
32.1962390088554
20
6.60793206892541
30
0
41
1
10
32.2308683010835
20
6.61623522435977
30
0
41
1
10
32.3051371410067
20
6.64375499163847
30
0
41
1
10
32.3439831769916
20
6.66601122012491
30
0
41
1
10
32.3893035098936
20
6.70173374124394
30
0
41
1
10
32.400614199125
20
6.7116904924288
30
0
41
1
10
32.4112837035373
20
6.72212932785135
30
0
0
SPLINE
5
87
100
AcDbEntity
8
1
62
256
6
ByLayer
370
-1
48
1
60
0
100
AcDbSpline
70
4
71
3
72
12
73
8
40
0
40
0
40
0
40
0
40
0.37702688085992
40
0.37702688085992
40
0.761057563033315
40
0.761057563033315
40
1
40
1
40
1
40
1
41
1
10
31.4824434412832
20
6.25194123862244
30
0
41
1
10
31.4998690516136
20
6.28740763417267
30
0
41
1
10
31.5122006330961
20
6.3255675391548
30
0
41
1
10
31.5258780774166
20
6.40124112435504
30
0
41
1
10
31.5272960327231
20
6.43973409797553
30
0
41
1
10
31.5218322062672
20
6.49947603425258
30
0
41
1
10
31.5178575809809
20
6.52204259409413
30
0
41
1
10
31.5122048517732
20
6.54386274433057
30
0
0
SPLINE
5
88
100
AcDbEntity
8
1
62
256
6
ByLayer
370
-1
48
1
60
0
100
AcDbSpline
70
4
71
3
72
14
73
10
40
0
40
0
40
0
40
0
40
0.284523776764394
40
0.284523776764394
40
0.571737023212557
40
0.571737023212557
40
0.831999755450551
40
0.831999755450551
40
1
40
1
40
1
40
1
41
1
10
31.5114523875183
20
5.16357577026488
30
0
41
1
10
31.5061988822238
20
5.14307596155194
30
0
41
1
10
31.5043853091743
20
5.12100161329866
30
0
41
1
10
31.5088186343909
20
5.07703111889484
30
0
41
1
10
31.5152495176027
20
5.05446318750654
30
0
41
1
10
31.5352745752613
20
5.01507415902316
30
0
41
1
10
31.5484747518511
20
4.99733621314667
30
0
41
1
10
31.574486887545
20
4.97299603888283
30
0
41
1
10
31.5859612085447
20
4.96447873022339
30
0
41
1
10
31.5981612079099
20
4.95743505730581
30
0
0
SPLINE
5
89
100
AcDbEntity
8
1
62
256
6
ByLayer
370
-1
48
1
60
0
100
AcDbSpline
70
4
71
3
72
14
73
10
40
0
40
0
40
0
40
0
40
0.284233525670047
40
0.284233525670047
40
0.571483096185078
40
0.571483096185078
40
0.831774673209222
40
0.831774673209222
40
1
40
1
40
1
40
1
41
1
10
31.8207838544815
20
6.72238264629672
30
0
41
1
10
31.8056853271498
20
6.73718012722134
30
0
41
1
10
31.7875080677026
20
6.74979277988169
30
0
41
1
10
31.747253754152
20
6.76797918951644
30
0
41
1
10
31.7244988567883
20
6.77372194592763
30
0
41
1
10
31.6803734805679
20
6.77612714111595
30
0
41
1
10
31.6584068969453
20
6.77359017160478
30
0
41
1
10
31.6242898792174
20
6.76326678889376
30
0
41
1
10
31.6111527644355
20
6.75759390682501
30
0
41
1
10
31.5989304365967
20
6.75055131764952
30
0
0
SPLINE
5
8A
100
AcDbEntity
8
1
62
256
6
ByLayer
370
-1
48
1
60
0
100
AcDbSpline
70
4
71
3
72
12
73
8
40
0
40
0
40
0
40
0
40
0.464584671431866
40
0.464584671431866
40
0.846561653026079
40
0.846561653026079
40
1
40
1
40
1
40
1
41
1
10
31.2162963516111
20
6.0313341876583
30
0
41
1
10
31.2581483458566
20
6.04292208495116
30
0
41
1
10
31.2996083257222
20
6.06146546931606
30
0
41
1
10
31.3691641419466
20
6.10783341172186
30
0
41
1
10
31.3990554919587
20
6.13402726587972
30
0
41
1
10
31.4352776155661
20
6.17651033405309
30
0
41
1
10
31.4451462190294
20
6.1895215619258
30
0
41
1
10
31.4542270862203
20
6.20306907804923
30
0
0
SPLINE
5
8B
100
AcDbEntity
8
1
62
256
6
ByLayer
370
-1
48
1
60
0
100
AcDbSpline
70
4
71
3
72
14
73
10
40
0
40
0
40
0
40
0
40
0.284523776764372
40
0.284523776764372
40
0.571737023212526
40
0.571737023212526
40
0.831999755450504
40
0.831999755450504
40
1
40
1
40
1
40
1
41
1
10
32.7198700283014
20
6.54396693018055
30
0
41
1
10
32.725123533596
20
6.56446673889351
30
0
41
1
10
32.7269371066454
20
6.58654108714677
30
0
41
1
10
32.7225037814288
20
6.63051158155059
30
0
41
1
10
32.7160728982171
20
6.65307951293889
30
0
41
1
10
32.6960478405585
20
6.69246854142227
30
0
41
1
10
32.6828476639686
20
6.71020648729876
30
0
41
1
10
32.6568355282747
20
6.73454666156263
30
0
41
1
10
32.645361207275
20
6.74306397022204
30
0
41
1
10
32.6331612079098
20
6.75010764313961
30
0
0
SPLINE
5
8C
100
AcDbEntity
8
1
62
256
6
ByLayer
370
-1
48
1
60
0
100
AcDbSpline
70
4
71
3
72
16
73
12
40
0
40
0
40
0
40
0
40
0.0666553476597148
40
0.0666553476597148
40
0.290649985001551
40
0.290649985001551
40
0.517613202310023
40
0.517613202310023
40
0.759099969110626
40
0.759099969110626
40
1
40
1
40
1
40
1
41
1
10
31.5989304365967
20
6.75055131764952
30
0
41
1
10
31.5940578139453
20
6.74774367903981
30
0
41
1
10
31.5893074294105
20
6.74470964187802
30
0
41
1
10
31.569379792
20
6.73066449340365
30
0
41
1
10
31.5555930481255
20
6.71734617064982
30
0
41
1
10
31.5329908548475
20
6.68780795209452
30
0
41
1
10
31.5239440533231
20
6.67118495062093
30
0
41
1
10
31.5109984325417
20
6.63600019451056
30
0
41
1
10
31.5072849702664
20
6.61694858243564
30
0
41
1
10
31.505656464498
20
6.57978276850551
30
0
41
1
10
31.5076942728194
20
6.56127407022444
30
0
41
1
10
31.5122048517732
20
6.54386274433057
30
0
0
SPLINE
5
8D
100
AcDbEntity
8
1
62
256
6
ByLayer
370
-1
48
1
60
0
100
AcDbSpline
70
4
71
3
72
14
73
10
40
0
40
0
40
0
40
0
40
0.284025999539532
40
0.284025999539532
40
0.570741083157193
40
0.570741083157193
40
0.830517314873116
40
0.830517314873116
40
1
40
1
40
1
40
1
41
1
10
33.0150260642087
20
5.6762085127871
30
0
41
1
10
33.0354369094962
20
5.68185982721349
30
0
41
1
10
33.0554988596173
20
5.69128365780293
30
0
41
1
10
33.0914485118165
20
5.71704231551257
30
0
41
1
10
33.1078276651569
20
5.73387191191054
30
0
41
1
10
33.1320219250915
20
5.77088625527196
30
0
41
1
10
33.1408303069604
20
5.79118543925912
30
0
41
1
10
33.1490072252404
20
5.82604300583282
30
0
41
1
10
33.1506730543866
20
5.84040794840584
30
0
41
1
10
33.1506608269631
20
5.85465935906174
30
0
0
SPLINE
5
8E
100
AcDbEntity
8
1
62
256
6
ByLayer
370
-1
48
1
60
0
100
AcDbSpline
70
4
71
3
72
16
73
12
40
0
40
0
40
0
40
0
40
0.0652275349363089
40
0.0652275349363089
40
0.289888669387848
40
0.289888669387848
40
0.51743601851079
40
0.51743601851079
40
0.759474682575972
40
0.759474682575972
40
1
40
1
40
1
40
1
41
1
10
33.1506608269631
20
5.85465935906174
30
0
41
1
10
33.1506561180992
20
5.86014767412581
30
0
41
1
10
33.1504064748251
20
5.86564239672174
30
0
41
1
10
33.1482303274666
20
5.88979229539382
30
0
41
1
10
33.1435971852767
20
5.90839781141304
30
0
41
1
10
33.1293304095599
20
5.94274963819086
30
0
41
1
10
33.1194653931616
20
5.95889931907908
30
0
41
1
10
33.095484098084
20
5.98770806207347
30
0
41
1
10
33.0808520898653
20
6.0004531608472
30
0
41
1
10
33.0495602635345
20
6.02041819966047
30
0
41
1
10
33.0325936614591
20
6.02789571010459
30
0
41
1
10
33.0153393330383
20
6.03270571919003
30
0
0
SPLINE
5
8F
100
AcDbEntity
8
1
62
256
6
ByLayer
370
-1
48
1
60
0
100
AcDbSpline
70
4
71
3
72
18
73
14
40
0
40
0
40
0
40
0
40
0.213394520190905
40
0.213394520190905
40
0.389004368506374
40
0.389004368506374
40
0.566252479908916
40
0.566252479908916
40
0.721175524857444
40
0.721175524857444
40
0.927416479540356
40
0.927416479540356
40
1
40
1
40
1
40
1
41
1
10
32.7198700283014
20
6.54396693018055
30
0
41
1
10
32.7091061512481
20
6.50196498895613
30
0
41
1
10
32.7045495297767
20
6.45684434451823
30
0
41
1
10
32.710099992518
20
6.37352500953705
30
0
41
1
10
32.7179151103381
20
6.3345814491698
30
0
41
1
10
32.7446832747704
20
6.25965802015574
30
0
41
1
10
32.7642378713202
20
6.22264653111691
30
0
41
1
10
32.808836359657
20
6.16163217384957
30
0
41
1
10
32.8333654900432
20
6.13581839635501
30
0
41
1
10
32.8943820274226
20
6.08531661340643
30
0
41
1
10
32.9331035136548
20
6.06283893081056
30
0
41
1
10
32.986708532227
20
6.04150866437291
30
0
41
1
10
33.0009759119677
20
6.03670982669061
30
0
41
1
10
33.0153393330383
20
6.03270571919003
30
0
0
SPLINE
5
90
100
AcDbEntity
8
1
62
256
6
ByLayer
370
-1
48
1
60
0
100
AcDbSpline
70
4
71
3
72
18
73
14
40
0
40
0
40
0
40
0
40
0.213298198251299
40
0.213298198251299
40
0.388924602029583
40
0.388924602029583
40
0.566190397760111
40
0.566190397760111
40
0.721116404787964
40
0.721116404787964
40
0.927339977147938
40
0.927339977147938
40
1
40
1
40
1
40
1
41
1
10
32.4105385613382
20
4.98516005414868
30
0
41
1
10
32.3795857693933
20
5.01549568479058
30
0
41
1
10
32.3428308300457
20
5.04202325401258
30
0
41
1
10
32.2679536728776
20
5.07894284885438
30
0
41
1
10
32.2303302227712
20
5.09168499806651
30
0
41
1
10
32.1520684727339
20
5.10604325199645
30
0
41
1
10
32.1102356498795
20
5.10765527803363
30
0
41
1
10
32.0350834069643
20
5.09961063152002
30
0
41
1
10
32.0004541147362
20
5.09130747608563
30
0
41
1
10
31.926185274813
20
5.06378770880693
30
0
41
1
10
31.8873392388282
20
5.04153148032049
30
0
41
1
10
31.8420189059261
20
5.00580895920146
30
0
41
1
10
31.8307082166947
20
4.99585220801663
30
0
41
1
10
31.8200387122824
20
4.98541337259408
30
0
0
SPLINE
5
91
100
AcDbEntity
8
1
62
256
6
ByLayer
370
-1
48
1
60
0
100
AcDbSpline
70
4
71
3
72
14
73
10
40
0
40
0
40
0
40
0
40
0.284233525670109
40
0.284233525670109
40
0.571483096184998
40
0.571483096184998
40
0.831774673209182
40
0.831774673209182
40
1
40
1
40
1
40
1
41
1
10
32.4105385613382
20
4.98516005414868
30
0
41
1
10
32.4256370886699
20
4.97036257322407
30
0
41
1
10
32.4438143481171
20
4.95774992056371
30
0
41
1
10
32.4840686616678
20
4.93956351092896
30
0
41
1
10
32.5068235590314
20
4.93382075451777
30
0
41
1
10
32.5509489352518
20
4.93141555932945
30
0
41
1
10
32.5729155188744
20
4.93395252884062
30
0
41
1
10
32.6070325366023
20
4.94427591155164
30
0
41
1
10
32.6201696513843
20
4.94994879362039
30
0
41
1
10
32.6323919792231
20
4.95699138279588
30
0
0
SPLINE
5
92
100
AcDbEntity
8
1
62
256
6
ByLayer
370
-1
48
1
60
0
100
AcDbSpline
70
4
71
3
72
16
73
12
40
0
40
0
40
0
40
0
40
0.0670582229426053
40
0.0670582229426053
40
0.291699352774467
40
0.291699352774467
40
0.519329427551288
40
0.519329427551288
40
0.76153472556625
40
0.76153472556625
40
1
40
1
40
1
40
1
41
1
10
32.6331612079098
20
6.75010764313961
30
0
41
1
10
32.6282758279268
20
6.75292821858793
30
0
41
1
10
32.6232548258956
20
6.75552825722835
30
0
41
1
10
32.60110034901
20
6.76574540606896
30
0
41
1
10
32.5826675417052
20
6.77100473763088
30
0
41
1
10
32.5457805553289
20
6.7757678490413
30
0
41
1
10
32.5268616341305
20
6.775269607871
30
0
41
1
10
32.4899243321536
20
6.76884634923937
30
0
41
1
10
32.4715749459208
20
6.76251528395952
30
0
41
1
10
32.4388039755267
20
6.74541445619451
30
0
41
1
10
32.4239803277877
20
6.73455145786329
30
0
41
1
10
32.4112837035373
20
6.72212932785138
30
0
0
SPLINE
5
93
100
AcDbEntity
8
1
62
256
6
ByLayer
370
-1
48
1
60
0
100
AcDbSpline
70
4
71
3
72
12
73
8
40
0
40
0
40
0
40
0
40
0.464584671433309
40
0.464584671433309
40
0.84656165302865
40
0.84656165302865
40
1
40
1
40
1
40
1
41
1
10
33.0150260642087
20
5.67620851278713
30
0
41
1
10
32.9731740699632
20
5.6646206154943
30
0
41
1
10
32.9317140900976
20
5.6460772311294
30
0
41
1
10
32.8621582738731
20
5.59970928872363
30
0
41
1
10
32.832266923861
20
5.57351543456573
30
0
41
1
10
32.7960448002538
20
5.53103236639254
30
0
41
1
10
32.7861761967906
20
5.51802113852003
30
0
41
1
10
32.7770953295998
20
5.50447362239677
30
0
0
LINE
5
4C
100
AcDbEntity
8
80
62
256
6
ByLayer
370
-1
48
1
60
0
100
AcDbLine
10
0
20
0
30
0
11
-5
21
0
31
0
39
0
210
0
220
0
230
1
0
LINE
5
4D
100
AcDbEntity
8
81
62
256
6
ByLayer
370
-1
48
1
60
0
100
AcDbLine
10
35.290661
20
11.0625
30
0
11
45.290661
21
11.0625
31
0
39
0
210
0
220
0
230
1
0
LINE
5
4E
100
AcDbEntity
8
1
62
256
6
ByLayer
370
-1
48
1
60
0
100
AcDbLine
10
26.595708
20
7.292933
30
0
11
26.495708
21
7.119728
31
0
39
0
210
0
220
0
230
1
0
LINE
5
50
100
AcDbEntity
8
1
62
256
6
ByLayer
370
-1
48
1
60
0
100
AcDbLine
10
32.515661
20
9.750894
30
0
11
32.515661
21
10.412271
31
0
39
0
210
0
220
0
230
1
0
LINE
5
51
100
AcDbEntity
8
1
62
256
6
ByLayer
370
-1
48
1
60
0
100
AcDbLine
10
1.474771
20
10.412271
30
0
11
1
21
9.9375
31
0
39
0
210
0
220
0
230
1
0
LINE
5
52
100
AcDbEntity
8
1
62
256
6
ByLayer
370
-1
48
1
60
0
100
AcDbLine
10
28.30324
20
7.750464
30
0
11
28.677031
21
7.534656
31
0
39
0
210
0
220
0
230
1
0
LINE
5
53
100
AcDbEntity
8
1
62
256
6
ByLayer
370
-1
48
1
60
0
100
AcDbLine
10
0
20
9.9375
30
0
11
0
21
-9.937037
31
0
39
0
210
0
220
0
230
1
0
LINE
5
54
100
AcDbEntity
8
1
62
256
6
ByLayer
370
-1
48
1
60
0
100
AcDbLine
10
32.515661
20
10.412271
30
0
11
1.474771
21
10.412271
31
0
39
0
210
0
220
0
230
1
0
LINE
5
55
100
AcDbEntity
8
1
62
256
6
ByLayer
370
-1
48
1
60
0
100
AcDbLine
10
32.515661
20
10.412271
30
0
11
33.661194
21
10.412271
31
0
39
0
210
0
220
0
230
1
0
LINE
5
56
100
AcDbEntity
8
1
62
256
6
ByLayer
370
-1
48
1
60
0
100
AcDbLine
10
4.540757
20
-3.804729
30
0
11
1.000267
21
-9.937037
31
0
39
0
210
0
220
0
230
1
0
LINE
5
57
100
AcDbEntity
8
1
62
256
6
ByLayer
370
-1
48
1
60
0
100
AcDbLine
10
0
20
-9.937037
30
0
11
1.000267
21
-9.937037
31
0
39
0
210
0
220
0
230
1
0
LINE
5
58
100
AcDbEntity
8
1
62
256
6
ByLayer
370
-1
48
1
60
0
100
AcDbLine
10
1
20
9.9375
30
0
11
0
21
9.9375
31
0
39
0
210
0
220
0
230
1
0
LINE
5
59
100
AcDbEntity
8
1
62
256
6
ByLayer
370
-1
48
1
60
0
100
AcDbLine
10
33.661019
20
1.295271
30
0
11
13.374216
21
1.295271
31
0
39
0
210
0
220
0
230
1
0
LINE
5
5A
100
AcDbEntity
8
SK1
62
256
6
ByLayer
370
-1
48
1
60
0
100
AcDbLine
10
-91.059339
20
9.9375
30
0
11
-91.059339
21
-9.9375
31
0
39
0
210
0
220
0
230
1
0
LINE
5
5C
100
AcDbEntity
8
SK1
62
256
6
ByLayer
370
-1
48
1
60
0
100
AcDbLine
10
-91.059339
20
-9.9375
30
0
11
-0.106
21
-9.9375
31
0
39
0
210
0
220
0
230
1
0
LINE
5
5D
100
AcDbEntity
8
1
62
256
6
ByLayer
370
-1
48
1
60
0
100
AcDbLine
10
35.290661
20
1.041918
30
0
11
35.290661
21
10.665625
31
0
39
0
210
0
220
0
230
1
0
LINE
5
5E
100
AcDbEntity
8
1
62
256
6
ByLayer
370
-1
48
1
60
0
100
AcDbLine
10
26.360974
20
5.510068
30
0
11
34.695349
21
0.698214
31
0
39
0
210
0
220
0
230
1
0
LINE
5
5F
100
AcDbEntity
8
SK1
62
256
6
ByLayer
370
-1
48
1
60
0
100
AcDbLine
10
-0.106
20
9.9375
30
0
11
-91.059339
21
9.9375
31
0
39
0
210
0
220
0
230
1
0
LINE
5
60
100
AcDbEntity
8
SK1
62
256
6
ByLayer
370
-1
48
1
60
0
100
AcDbLine
10
-0.106
20
-9.9375
30
0
11
0
21
-9.937037
31
0
39
0
210
0
220
0
230
1
0
LINE
5
61
100
AcDbEntity
8
SK1
62
256
6
ByLayer
370
-1
48
1
60
0
100
AcDbLine
10
0
20
9.9375
30
0
11
-0.106
21
9.9375
31
0
39
0
210
0
220
0
230
1
0
LINE
5
62
100
AcDbEntity
8
1
62
256
6
ByLayer
370
-1
48
1
60
0
100
AcDbLine
10
34.695349
20
11.009329
30
0
11
26.360974
21
6.197475
31
0
39
0
210
0
220
0
230
1
0
LINE
5
63
100
AcDbEntity
8
SK1
62
256
6
ByLayer
370
-1
48
1
60
0
100
AcDbLine
10
0
20
9.9375
30
0
11
0
21
-9.937037
31
0
39
0
210
0
220
0
230
1
0
LINE
5
64
100
AcDbEntity
8
SK1
62
256
6
ByLayer
370
-1
48
1
60
0
100
AcDbLine
10
-0.106
20
9.9375
30
0
11
-0.106
21
-9.9375
31
0
39
0
210
0
220
0
230
1
0
MTEXT
5
94
100
AcDbEntity
8
SK6
62
256
6
ByLayer
370
-1
48
1
60
0
100
AcDbMText
10
-47.558399
20
-18.412993
30
0
210
0
220
0
230
1
1
\W00.747;\fsimplex.shx,bigfont.shx;STFCR 2020K 11-AB1 
40
3.5
41
0
44
1.084337
50
0
71
7
72
5
7
DEFAULT
0
DIMENSION
5
C7
100
AcDbEntity
8
2
62
256
6
ByLayer
370
-3
48
1
60
0
100
AcDbDimension
2
DimnDraft3D1
10
53.997217
20
11.0625
30
0
11
41.007975
21
-3.664843
31
0
70
34
71
5
72
1
41
1
210
0
220
0
230
1
3
Standard
100
AcDb2LineAngularDimension
13
35.290661
23
7.665625
33
0
14
35.290661
24
-7.644056
34
0
15
37.290661
25
11.0625
35
0
16
43.921999
26
2.431162
36
0
40
0
0
DIMENSION
5
DC
100
AcDbEntity
8
SK2
62
256
6
ByLayer
370
-3
48
1
60
0
100
AcDbDimension
2
DimnDraft3D2
10
-100.809339
20
9.9375
30
0
11
-100.809339
21
-2.628947
31
0
70
32
71
5
72
1
41
1
210
0
220
0
230
1
3
Standard
100
AcDbAlignedDimension
13
-93.059339
23
-9.9375
33
0
14
-93.059339
24
9.9375
34
0
50
90
100
AcDbRotatedDimension
1001
ACAD
1000
DSTYLE
1002
{
1070
    74
1070
     0
1070
   279
1070
     0
1070
   172
1070
     1
1070
   173
1070
     1
1070
   340
1005
95
1070
    77
1070
     1
1070
    73
1070
     0
1070
   171
1070
     3
1070
   274
1070
     4
1070
   177
1070
     2
1070
   176
1070
     2
1070
   178
1070
     7
1070
    78
1070
     8
1070
    41
1041
3.175
1070
   147
1041
2.25
1070
    42
1041
2.0
1070
    44
1041
2.0
1070
   140
1041
4.5
1070
   343
1005
C8
1070
   344
1005
C8
1002
}
0
DIMENSION
5
EA
100
AcDbEntity
8
2
62
256
6
ByLayer
370
-3
48
1
60
0
100
AcDbDimension
2
DimnDraft3D3
10
62.540661
20
11.0625
30
0
11
62.540661
21
-6.252632
31
0
70
32
71
5
72
1
41
1
210
0
220
0
230
1
3
Standard
100
AcDbAlignedDimension
13
2
23
-9.9375
33
0
14
37.290661
24
11.0625
34
0
50
90
100
AcDbRotatedDimension
1001
ACAD
1000
DSTYLE
1002
{
1070
    74
1070
     0
1070
   279
1070
     0
1070
   172
1070
     1
1070
   173
1070
     1
1070
   340
1005
95
1070
    77
1070
     1
1070
    73
1070
     0
1070
   171
1070
     3
1070
   274
1070
     4
1070
   177
1070
     2
1070
   176
1070
     2
1070
   178
1070
     7
1070
    78
1070
     8
1070
    41
1041
3.175
1070
   147
1041
2.25
1070
    42
1041
2.0
1070
    44
1041
2.0
1070
   140
1041
4.5
1070
   343
1005
C8
1070
   344
1005
C8
1002
}
0
DIMENSION
5
F8
100
AcDbEntity
8
2
62
256
6
ByLayer
370
-3
48
1
60
0
100
AcDbDimension
2
DimnDraft3D4
10
10.290661
20
-22.1875
30
0
11
20.161714
21
-22.1875
31
0
70
32
71
5
72
1
41
1
210
0
220
0
230
1
3
Standard
100
AcDbAlignedDimension
13
35.290661
23
8.26875
33
0
14
10.290661
24
-1.354957
34
0
50
0
100
AcDbRotatedDimension
1001
ACAD
1000
DSTYLE
1002
{
1070
   279
1070
     0
1070
   172
1070
     1
1070
   173
1070
     1
1070
   340
1005
95
1070
    77
1070
     1
1070
    73
1070
     0
1070
   171
1070
     3
1070
   274
1070
     4
1070
   177
1070
     2
1070
   176
1070
     2
1070
   178
1070
     7
1070
    78
1070
     8
1070
    41
1041
3.175
1070
   147
1041
2.25
1070
    42
1041
2.0
1070
    44
1041
2.0
1070
   140
1041
4.5
1070
   343
1005
C8
1070
   344
1005
C8
1002
}
0
DIMENSION
5
106
100
AcDbEntity
8
SK2
62
256
6
ByLayer
370
-3
48
1
60
0
100
AcDbDimension
2
DimnDraft3D5
10
-91.059339
20
30.8125
30
0
11
-31.60276
21
30.8125
31
0
70
32
71
5
72
1
41
1
210
0
220
0
230
1
3
Standard
100
AcDbAlignedDimension
13
35.290661
23
13.0625
33
0
14
-91.059339
24
11.9375
34
0
50
0
100
AcDbRotatedDimension
1001
ACAD
1000
DSTYLE
1002
{
1070
   279
1070
     0
1070
   172
1070
     1
1070
   173
1070
     1
1070
   340
1005
95
1070
    77
1070
     1
1070
    73
1070
     0
1070
   171
1070
     3
1070
   274
1070
     4
1070
   177
1070
     2
1070
   176
1070
     2
1070
   178
1070
     7
1070
    78
1070
     8
1070
    41
1041
3.175
1070
   147
1041
2.25
1070
    42
1041
2.0
1070
    44
1041
2.0
1070
   140
1041
4.5
1070
   343
1005
C8
1070
   344
1005
C8
1002
}
0
ENDSEC
0
SECTION
2
OBJECTS
0
DICTIONARY
5
136
330
0
100
AcDbDictionary
280
0
281
1
3
ACAD_GROUP
350
137
3
ACAD_MLINESTYLE
350
138
0
DICTIONARY
5
137
330
0
100
AcDbDictionary
280
0
281
1
0
DICTIONARY
5
138
330
0
100
AcDbDictionary
280
0
281
1
3
Standard
350
18
0
MLINESTYLE
5
18
330
138
100
AcDbMlineStyle
2
Standard
70
0
3

62
256
51
90
52
90
71
2
49
-0.5
62
256
6
ByLayer
49
0.5
62
256
6
ByLayer
0
RASTERVARIABLES
5
125
330

100
AcDbRasterVariables
90
0
70
1
71
1
72
1
0
ENDSEC
0
EOF
