0
SECTION
2
HEADER
9
$ACADVER
1
AC1015
9
$DWGCODEPAGE
3
ANSI_1252
9
$HANDSEED
5
137
9
$ANGBASE
50
0
9
$ANGDIR
70
0
9
$ATTMODE
70
1
9
$AUNITS
70
0
9
$AUPREC
70
0
9
$CECOLOR
62
256
9
$CELTSCALE
40
1
9
$CELTYPE
6
ByLayer
9
$CELWEIGHT
370
-1
9
$CLAYER
8
0
9
$CMLJUST
70
0
9
$CMLSCALE
40
1
9
$CMLSTYLE
2
Standard
9
$DIMSTYLE
2
Standard
9
$TEXTSIZE
40
0.2
9
$TEXTSTYLE
7
Standard
9
$LUNITS
70
2
9
$LUPREC
70
4
9
$EXTNAMES
290
1
9
$INSUNITS
70
4
9
$LTSCALE
40
1
9
$LWDISPLAY
290
0
9
$PDMODE
70
0
9
$PDSIZE
40
0
9
$PLINEGEN
70
0
0
ENDSEC
0
SECTION
2
CLASSES
0
CLASS
1
RASTERVARIABLES
2
AcDbRasterVariables
3
ISM
90
0
280
0
281
0
0
ENDSEC
0
SECTION
2
TABLES
0
TABLE
2
VPORT
5
12d
100
AcDbSymbolTable
0
VPORT
5
1
100
AcDbSymbolTableRecord
100
AcDbViewportTableRecord
2
*Active
70
0
10
0
20
0
11
1
21
1
12
-1
22
1
13
0
23
0
14
0.5
24
0.5
15
10
25
10
16
0
26
0
36
1
17
0
27
0
37
0
0
ENDTAB
0
TABLE
2
LTYPE
5
12e
100
AcDbSymbolTable
0
LTYPE
5
14
100
AcDbSymbolTableRecord
100
AcDbLinetypeTableRecord
70
0
2
ByBlock
3

72
65
73
0
40
0
0
LTYPE
5
15
100
AcDbSymbolTableRecord
100
AcDbLinetypeTableRecord
70
0
2
ByLayer
3

72
65
73
0
40
0
0
LTYPE
5
16
100
AcDbSymbolTableRecord
100
AcDbLinetypeTableRecord
70
0
2
CONTINUOUS
3
Solid line
72
65
73
0
40
0
0
LTYPE
5
3B
100
AcDbSymbolTableRecord
100
AcDbLinetypeTableRecord
70
0
2
DASHED
3
__ __ __ __ __ __ __ __ __
72
65
73
2
40
25.72
49
12.86
74
0
49
-12.86
74
0
0
LTYPE
5
3C
100
AcDbSymbolTableRecord
100
AcDbLinetypeTableRecord
70
0
2
HIDDEN
3
_ _ _ _ _ _ _ _ _ _ _ _ _ _ _
72
65
73
2
40
0.5
49
0.25
74
0
49
-0.25
74
0
0
LTYPE
5
3D
100
AcDbSymbolTableRecord
100
AcDbLinetypeTableRecord
70
0
2
PHANTOM
3
____ _ _ ____ _ _ _____ _ _ ____
72
65
73
6
40
50.5
49
18
74
0
49
-6.5
74
0
49
6.5
74
0
49
-6.5
74
0
49
6.5
74
0
49
-6.5
74
0
0
LTYPE
5
3E
100
AcDbSymbolTableRecord
100
AcDbLinetypeTableRecord
70
0
2
CENTER
3
____ _ ____ _ ____ _ ____
72
65
73
4
40
47.5
49
22
74
0
49
-8.5
74
0
49
8.5
74
0
49
-8.5
74
0
0
LTYPE
5
3F
100
AcDbSymbolTableRecord
100
AcDbLinetypeTableRecord
70
0
2
DOT
3
.........................
72
65
73
2
40
10
49
0
74
0
49
-10
74
0
0
LTYPE
5
40
100
AcDbSymbolTableRecord
100
AcDbLinetypeTableRecord
70
0
2
DASHDOT
3
_._._._._._._._._._._._._._._._.
72
65
73
4
40
70
49
31
74
0
49
-13
74
0
49
13
74
0
49
-13
74
0
0
ENDTAB
0
TABLE
2
LAYER
5
12f
100
AcDbSymbolTable
0
LAYER
5
10
100
AcDbSymbolTableRecord
100
AcDbLayerTableRecord
2
0
70
0
62
7
6
CONTINUOUS
290
1
370
-3
390
0
0
LAYER
5
45
100
AcDbSymbolTableRecord
100
AcDbLayerTableRecord
2
2
70
0
62
7
6
CONTINUOUS
290
1
370
-3
390
0
0
LAYER
5
47
100
AcDbSymbolTableRecord
100
AcDbLayerTableRecord
2
80
70
0
62
-6
6
CONTINUOUS
290
1
370
-3
390
0
0
LAYER
5
4A
100
AcDbSymbolTableRecord
100
AcDbLayerTableRecord
2
81
70
0
62
-3
6
CONTINUOUS
290
1
370
-3
390
0
0
LAYER
5
4F
100
AcDbSymbolTableRecord
100
AcDbLayerTableRecord
2
1
70
0
62
4
6
CONTINUOUS
290
1
370
-3
390
0
0
LAYER
5
11a
100
AcDbSymbolTableRecord
100
AcDbLayerTableRecord
2
SK2
70
0
62
7
6
CONTINUOUS
290
1
370
-3
390
0
0
LAYER
5
11b
100
AcDbSymbolTableRecord
100
AcDbLayerTableRecord
2
SK1
70
0
62
4
6
CONTINUOUS
290
1
370
-3
390
0
0
LAYER
5
11c
100
AcDbSymbolTableRecord
100
AcDbLayerTableRecord
2
SK6
70
0
62
5
6
CONTINUOUS
290
1
370
-3
390
0
0
ENDTAB
0
TABLE
2
STYLE
5
130
100
AcDbSymbolTable
0
STYLE
5
11
100
AcDbSymbolTableRecord
100
AcDbTextStyleTableRecord
2
Standard
3
txt
70
0
71
0
40
0
41
1
42
0
50
0
0
STYLE
5
98
100
AcDbSymbolTableRecord
100
AcDbTextStyleTableRecord
2
DEFAULT
3
simplex.shx
70
0
71
0
40
0
41
1
42
0
50
0
0
STYLE
5
BB
100
AcDbSymbolTableRecord
100
AcDbTextStyleTableRecord
2
DWGDirectTextStyle
3
SIMPLEX
70
0
71
0
40
0
41
1
42
0
50
0
0
ENDTAB
0
TABLE
2
DIMSTYLE
5
131
100
AcDbSymbolTable
100
AcDbDimStyleTable
0
DIMSTYLE
105
27
100
AcDbSymbolTableRecord
100
AcDbDimStyleTableRecord
2
Standard
70
0
3
<>
41
0.18
42
0.0625
44
0.18
140
0.18
147
0.09
73
0
74
0
77
1
271
2
275
0
278
52
280
0
340
11
0
ENDTAB
0
TABLE
2
VIEW
5
132
100
AcDbSymbolTable
0
ENDTAB
0
TABLE
2
UCS
5
133
100
AcDbSymbolTable
0
ENDTAB
0
TABLE
2
APPID
5
134
100
AcDbSymbolTable
0
APPID
5
12
100
AcDbSymbolTableRecord
100
AcDbRegAppTableRecord
2
ACAD
70
0
0
ENDTAB
0
TABLE
2
BLOCK_RECORD
5
135
100
AcDbSymbolTable
0
BLOCK_RECORD
5
1F
100
AcDbSymbolTableRecord
100
AcDbBlockTableRecord
2
*Model_Space
340
0
70
0
0
BLOCK_RECORD
5
1B
100
AcDbSymbolTableRecord
100
AcDbBlockTableRecord
2
*Paper_Space
340
0
70
0
0
BLOCK_RECORD
5
23
100
AcDbSymbolTableRecord
100
AcDbBlockTableRecord
2
*Paper_Space0
340
0
70
0
0
BLOCK_RECORD
5
BD
100
AcDbSymbolTableRecord
100
AcDbBlockTableRecord
2
DimnDraft3D11
340
0
70
0
0
BLOCK_RECORD
5
CB
100
AcDbSymbolTableRecord
100
AcDbBlockTableRecord
2
DimnDraft3D2
340
0
70
0
0
BLOCK_RECORD
5
D8
100
AcDbSymbolTableRecord
100
AcDbBlockTableRecord
2
_CLOSED
340
0
70
0
0
BLOCK_RECORD
5
DF
100
AcDbSymbolTableRecord
100
AcDbBlockTableRecord
2
DimnDraft3D3
340
0
70
0
0
BLOCK_RECORD
5
ED
100
AcDbSymbolTableRecord
100
AcDbBlockTableRecord
2
DimnDraft3D4
340
0
70
0
0
ENDTAB
0
ENDSEC
0
SECTION
2
BLOCKS
0
BLOCK
5
20
100
AcDbEntity
8
0
100
AcDbBlockBegin
2
*Model_Space
70
0
10
0
20
0
30
0
3
*Model_Space
0
ENDBLK
5
21
100
AcDbEntity
8
0
100
AcDbBlockEnd
0
BLOCK
5
1C
100
AcDbEntity
8
0
100
AcDbBlockBegin
2
*Paper_Space
70
0
10
0
20
0
30
0
3
*Paper_Space
0
ENDBLK
5
1D
100
AcDbEntity
8
0
100
AcDbBlockEnd
0
BLOCK
5
24
100
AcDbEntity
8
0
100
AcDbBlockBegin
2
*Paper_Space0
70
0
10
0
20
0
30
0
3
*Paper_Space0
0
ENDBLK
5
25
100
AcDbEntity
8
0
100
AcDbBlockEnd
0
BLOCK
5
BE
100
AcDbEntity
8
0
100
AcDbBlockBegin
2
DimnDraft3D11
70
0
10
0
20
0
30
0
3
DimnDraft3D11
0
LINE
5
C0
100
AcDbEntity
8
SK2
62
256
6
ByLayer
370
-1
48
1
60
0
100
AcDbLine
10
19.930456
20
-14.4125
30
0
11
19.930456
21
-38.6625
31
0
39
0
210
0
220
0
230
1
0
LINE
5
C1
100
AcDbEntity
8
SK2
62
256
6
ByLayer
370
-1
48
1
60
0
100
AcDbLine
10
-81.419544
20
-9.9375
30
0
11
-81.419544
21
-38.6625
31
0
39
0
210
0
220
0
230
1
0
LINE
5
C2
100
AcDbEntity
8
SK2
62
256
6
ByLayer
370
-1
48
1
60
0
100
AcDbLine
10
19.930456
20
-36.6625
30
0
11
-81.419544
21
-36.6625
31
0
39
0
210
0
220
0
230
1
0
LINE
5
C3
100
AcDbEntity
8
SK2
62
256
6
ByLayer
370
-1
48
1
60
0
100
AcDbLine
10
19.930456
20
-36.6625
30
0
11
16.755457
21
-37.080497
31
0
39
0
210
0
220
0
230
1
0
LINE
5
C4
100
AcDbEntity
8
SK2
62
256
6
ByLayer
370
-1
48
1
60
0
100
AcDbLine
10
19.930456
20
-36.6625
30
0
11
16.755454
21
-36.244503
31
0
39
0
210
0
220
0
230
1
0
LINE
5
C5
100
AcDbEntity
8
SK2
62
256
6
ByLayer
370
-1
48
1
60
0
100
AcDbLine
10
16.755457
20
-37.080497
30
0
11
16.755454
21
-36.244503
31
0
39
0
210
0
220
0
230
1
0
LINE
5
C6
100
AcDbEntity
8
SK2
62
256
6
ByLayer
370
-1
48
1
60
0
100
AcDbLine
10
-81.419544
20
-36.6625
30
0
11
-78.244546
21
-36.244503
31
0
39
0
210
0
220
0
230
1
0
LINE
5
C7
100
AcDbEntity
8
SK2
62
256
6
ByLayer
370
-1
48
1
60
0
100
AcDbLine
10
-81.419544
20
-36.6625
30
0
11
-78.244543
21
-37.080497
31
0
39
0
210
0
220
0
230
1
0
LINE
5
C8
100
AcDbEntity
8
SK2
62
256
6
ByLayer
370
-1
48
1
60
0
100
AcDbLine
10
-78.244546
20
-36.244503
30
0
11
-78.244543
21
-37.080497
31
0
39
0
210
0
220
0
230
1
0
MTEXT
5
C9
100
AcDbEntity
8
SK2
62
256
6
ByLayer
370
-1
48
1
60
0
100
AcDbMText
10
-33.337965
20
-35.5375
30
0
210
0
220
0
230
1
1
\W00.604;\fsimplex.shx,bigfont.shx;100 
40
4.5
41
0
44
1.084337
50
0
71
7
72
5
7
DEFAULT
0
ENDBLK
5
BF
100
AcDbEntity
8
0
100
AcDbBlockEnd
0
BLOCK
5
D5
100
AcDbEntity
8
0
100
AcDbBlockBegin
2
DimnDraft3D2
70
0
10
0
20
0
30
0
3
DimnDraft3D2
0
MTEXT
5
CC
100
AcDbEntity
8
2
62
256
6
ByLayer
370
-1
48
1
60
0
100
AcDbMText
10
24.143747
20
-1.457136
30
0
210
0
220
0
230
1
1
\W01.000;\fsimplex.shx,bigfont.shx;91%%d0' 
40
4.5
41
0
44
1.084337
50
315.5
71
7
72
5
7
DEFAULT
0
LINE
5
CD
100
AcDbEntity
8
2
62
256
6
ByLayer
370
-1
48
1
60
0
100
AcDbLine
10
21.930456
20
-12.4125
30
0
11
31.576688
21
-12.4125
31
0
39
0
210
0
220
0
230
1
0
ARC
5
CE
100
AcDbEntity
8
2
62
256
6
ByLayer
370
-1
48
1
60
0
100
AcDbCircle
39
0
10
19.944432
20
-12.4125
30
0
40
9.63225664077681
210
0
220
0
230
1
100
AcDbArc
50
310.570158
51
140.429842
0
LINE
5
CF
100
AcDbEntity
8
2
62
256
6
ByLayer
370
-1
48
1
60
0
100
AcDbLine
10
29.576688
20
-12.4125
30
0
11
29.734274
21
-15.611016
31
0
39
0
210
0
220
0
230
1
0
LINE
5
D0
100
AcDbEntity
8
2
62
256
6
ByLayer
370
-1
48
1
60
0
100
AcDbLine
10
29.576688
20
-12.4125
30
0
11
28.901067
21
-15.542818
31
0
39
0
210
0
220
0
230
1
0
LINE
5
D1
100
AcDbEntity
8
2
62
256
6
ByLayer
370
-1
48
1
60
0
100
AcDbLine
10
29.734274
20
-15.611016
30
0
11
28.901067
21
-15.542818
31
0
39
0
210
0
220
0
230
1
0
LINE
5
D2
100
AcDbEntity
8
2
62
256
6
ByLayer
370
-1
48
1
60
0
100
AcDbLine
10
19.776326
20
-2.78171
30
0
11
16.658279
21
-3.51186
31
0
39
0
210
0
220
0
230
1
0
LINE
5
D3
100
AcDbEntity
8
2
62
256
6
ByLayer
370
-1
48
1
60
0
100
AcDbLine
10
19.776326
20
-2.78171
30
0
11
16.575544
21
-2.679971
31
0
39
0
210
0
220
0
230
1
0
LINE
5
D4
100
AcDbEntity
8
2
62
256
6
ByLayer
370
-1
48
1
60
0
100
AcDbLine
10
16.658279
20
-3.51186
30
0
11
16.575544
21
-2.679971
31
0
39
0
210
0
220
0
230
1
0
ENDBLK
5
D6
100
AcDbEntity
8
0
100
AcDbBlockEnd
0
BLOCK
5
D9
100
AcDbEntity
8
0
100
AcDbBlockBegin
2
_CLOSED
70
0
10
0
20
0
30
0
3
_CLOSED
0
LINE
5
DB
100
AcDbEntity
8
0
62
256
6
ByLayer
370
-2
48
1
60
0
100
AcDbLine
10
-1
20
0.166667
30
0
11
0
21
0
31
0
39
0
210
0
220
0
230
1
0
LINE
5
DC
100
AcDbEntity
8
0
62
256
6
ByLayer
370
-2
48
1
60
0
100
AcDbLine
10
0
20
0
30
0
11
-1
21
-0.166667
31
0
39
0
210
0
220
0
230
1
0
LINE
5
DD
100
AcDbEntity
8
0
62
256
6
ByLayer
370
-2
48
1
60
0
100
AcDbLine
10
-1
20
0.166667
30
0
11
-1
21
-0.166667
31
0
39
0
210
0
220
0
230
1
0
LINE
5
DE
100
AcDbEntity
8
0
62
256
6
ByLayer
370
-2
48
1
60
0
100
AcDbLine
10
0
20
0
30
0
11
-1
21
0
31
0
39
0
210
0
220
0
230
1
0
ENDBLK
5
DA
100
AcDbEntity
8
0
100
AcDbBlockEnd
0
BLOCK
5
EA
100
AcDbEntity
8
0
100
AcDbBlockBegin
2
DimnDraft3D3
70
0
10
0
20
0
30
0
3
DimnDraft3D3
0
MTEXT
5
E0
100
AcDbEntity
8
2
62
256
6
ByLayer
370
-1
48
1
60
0
100
AcDbMText
10
46.055456
20
-3.741447
30
0
210
0
220
0
230
1
1
\W01.000;\fsimplex.shx,bigfont.shx;20 
40
4.5
41
0
44
1.084337
50
90
71
7
72
5
7
DEFAULT
0
LINE
5
E1
100
AcDbEntity
8
2
62
256
6
ByLayer
370
-1
48
1
60
0
100
AcDbLine
10
2
20
7.9375
30
0
11
49.180456
21
7.9375
31
0
39
0
210
0
220
0
230
1
0
LINE
5
E2
100
AcDbEntity
8
2
62
256
6
ByLayer
370
-1
48
1
60
0
100
AcDbLine
10
21.930456
20
-12.4125
30
0
11
49.180456
21
-12.4125
31
0
39
0
210
0
220
0
230
1
0
LINE
5
E3
100
AcDbEntity
8
2
62
256
6
ByLayer
370
-1
48
1
60
0
100
AcDbLine
10
47.180456
20
7.9375
30
0
11
47.180456
21
-12.4125
31
0
39
0
210
0
220
0
230
1
0
LINE
5
E4
100
AcDbEntity
8
2
62
256
6
ByLayer
370
-1
48
1
60
0
100
AcDbLine
10
47.180456
20
7.9375
30
0
11
47.598453
21
4.762502
31
0
39
0
210
0
220
0
230
1
0
LINE
5
E5
100
AcDbEntity
8
2
62
256
6
ByLayer
370
-1
48
1
60
0
100
AcDbLine
10
47.180456
20
7.9375
30
0
11
46.762459
21
4.762498
31
0
39
0
210
0
220
0
230
1
0
LINE
5
E6
100
AcDbEntity
8
2
62
256
6
ByLayer
370
-1
48
1
60
0
100
AcDbLine
10
47.598453
20
4.762502
30
0
11
46.762459
21
4.762498
31
0
39
0
210
0
220
0
230
1
0
LINE
5
E7
100
AcDbEntity
8
2
62
256
6
ByLayer
370
-1
48
1
60
0
100
AcDbLine
10
47.180456
20
-12.4125
30
0
11
46.762459
21
-9.237502
31
0
39
0
210
0
220
0
230
1
0
LINE
5
E8
100
AcDbEntity
8
2
62
256
6
ByLayer
370
-1
48
1
60
0
100
AcDbLine
10
47.180456
20
-12.4125
30
0
11
47.598453
21
-9.237498
31
0
39
0
210
0
220
0
230
1
0
LINE
5
E9
100
AcDbEntity
8
2
62
256
6
ByLayer
370
-1
48
1
60
0
100
AcDbLine
10
46.762459
20
-9.237502
30
0
11
47.598453
21
-9.237498
31
0
39
0
210
0
220
0
230
1
0
ENDBLK
5
EB
100
AcDbEntity
8
0
100
AcDbBlockEnd
0
BLOCK
5
F8
100
AcDbEntity
8
0
100
AcDbBlockBegin
2
DimnDraft3D4
70
0
10
0
20
0
30
0
3
DimnDraft3D4
0
MTEXT
5
EE
100
AcDbEntity
8
SK2
62
256
6
ByLayer
370
-1
48
1
60
0
100
AcDbMText
10
-92.294544
20
-0.941447
30
0
210
0
220
0
230
1
1
\W01.000;\fsimplex.shx,bigfont.shx;16 
40
4.5
41
0
44
1.084337
50
90
71
7
72
5
7
DEFAULT
0
LINE
5
EF
100
AcDbEntity
8
SK2
62
256
6
ByLayer
370
-1
48
1
60
0
100
AcDbLine
10
-83.419544
20
7.9375
30
0
11
-93.169544
21
7.9375
31
0
39
0
210
0
220
0
230
1
0
LINE
5
F0
100
AcDbEntity
8
SK2
62
256
6
ByLayer
370
-1
48
1
60
0
100
AcDbLine
10
-83.419544
20
-7.9375
30
0
11
-93.169544
21
-7.9375
31
0
39
0
210
0
220
0
230
1
0
LINE
5
F1
100
AcDbEntity
8
SK2
62
256
6
ByLayer
370
-1
48
1
60
0
100
AcDbLine
10
-91.169544
20
7.9375
30
0
11
-91.169544
21
-7.9375
31
0
39
0
210
0
220
0
230
1
0
LINE
5
F2
100
AcDbEntity
8
SK2
62
256
6
ByLayer
370
-1
48
1
60
0
100
AcDbLine
10
-91.169544
20
7.9375
30
0
11
-90.751547
21
4.762502
31
0
39
0
210
0
220
0
230
1
0
LINE
5
F3
100
AcDbEntity
8
SK2
62
256
6
ByLayer
370
-1
48
1
60
0
100
AcDbLine
10
-91.169544
20
7.9375
30
0
11
-91.587541
21
4.762498
31
0
39
0
210
0
220
0
230
1
0
LINE
5
F4
100
AcDbEntity
8
SK2
62
256
6
ByLayer
370
-1
48
1
60
0
100
AcDbLine
10
-90.751547
20
4.762502
30
0
11
-91.587541
21
4.762498
31
0
39
0
210
0
220
0
230
1
0
LINE
5
F5
100
AcDbEntity
8
SK2
62
256
6
ByLayer
370
-1
48
1
60
0
100
AcDbLine
10
-91.169544
20
-7.9375
30
0
11
-91.587541
21
-4.762502
31
0
39
0
210
0
220
0
230
1
0
LINE
5
F6
100
AcDbEntity
8
SK2
62
256
6
ByLayer
370
-1
48
1
60
0
100
AcDbLine
10
-91.169544
20
-7.9375
30
0
11
-90.751547
21
-4.762498
31
0
39
0
210
0
220
0
230
1
0
LINE
5
F7
100
AcDbEntity
8
SK2
62
256
6
ByLayer
370
-1
48
1
60
0
100
AcDbLine
10
-91.587541
20
-4.762502
30
0
11
-90.751547
21
-4.762498
31
0
39
0
210
0
220
0
230
1
0
ENDBLK
5
F9
100
AcDbEntity
8
0
100
AcDbBlockEnd
0
ENDSEC
0
SECTION
2
ENTITIES
0
ARC
5
68
100
AcDbEntity
8
1
62
256
6
ByLayer
370
-1
48
1
60
0
100
AcDbCircle
39
0
10
-7.770849
20
-5.857155
30
0
40
1.85988901006696
210
0
220
0
230
-1
100
AcDbArc
50
239
51
341.042058
0
ARC
5
69
100
AcDbEntity
8
1
62
256
6
ByLayer
370
-1
48
1
60
0
100
AcDbCircle
39
0
10
5.8
20
-4.976419
30
0
40
1.49999999999999
210
0
220
0
230
1
100
AcDbArc
50
36.263206
51
278.119043
0
ARC
5
6A
100
AcDbEntity
8
1
62
256
6
ByLayer
370
-1
48
1
60
0
100
AcDbCircle
39
0
10
-5.8
20
-4.976419
30
0
40
1.49999999999999
210
0
220
0
230
-1
100
AcDbArc
50
214.258073
51
252.836658
0
ARC
5
6B
100
AcDbEntity
8
1
62
256
6
ByLayer
370
-1
48
1
60
0
100
AcDbCircle
39
0
10
-7.770849
20
-5.857155
30
0
40
1.625
210
0
220
0
230
-1
100
AcDbArc
50
239
51
340.12442
0
ARC
5
6C
100
AcDbEntity
8
1
62
256
6
ByLayer
370
-1
48
1
60
0
100
AcDbCircle
39
0
10
18.896525
20
2.126872
30
0
40
0.794000000000018
210
0
220
0
230
1
100
AcDbArc
50
1
51
121
0
ARC
5
6D
100
AcDbEntity
8
1
62
256
6
ByLayer
370
-1
48
1
60
0
100
AcDbCircle
39
0
10
15.048591
20
-4.814985
30
0
40
1.6765
210
0
220
0
230
1
100
AcDbArc
50
301
51
0.840113
0
ARC
5
6E
100
AcDbEntity
8
1
62
256
6
ByLayer
370
-1
48
1
60
0
100
AcDbCircle
39
0
10
7.1128
20
-4.953504
30
0
40
0.794000000000005
210
0
220
0
230
1
100
AcDbArc
50
121
51
241
0
ARC
5
70
100
AcDbEntity
8
1
62
256
6
ByLayer
370
-1
48
1
60
0
100
AcDbCircle
39
0
10
-15.048591
20
-4.814985
30
0
40
1.2065
210
0
220
0
230
-1
100
AcDbArc
50
332.955279
51
29.079943
0
ARC
5
71
100
AcDbEntity
8
1
62
256
6
ByLayer
370
-1
48
1
60
0
100
AcDbCircle
39
0
10
-15.048591
20
-4.814985
30
0
40
1.2065
210
0
220
0
230
-1
100
AcDbArc
50
152.955279
51
209.079943
0
ARC
5
72
100
AcDbEntity
8
1
62
256
6
ByLayer
370
-1
48
1
60
0
100
AcDbCircle
39
0
10
-15.048591
20
-4.814985
30
0
40
1.2065
210
0
220
0
230
-1
100
AcDbArc
50
29.079943
51
88.920057
0
ARC
5
73
100
AcDbEntity
8
1
62
256
6
ByLayer
370
-1
48
1
60
0
100
AcDbCircle
39
0
10
-15.048591
20
-4.814985
30
0
40
1.2065
210
0
220
0
230
-1
100
AcDbArc
50
268.920057
51
325.044721
0
ARC
5
74
100
AcDbEntity
8
1
62
256
6
ByLayer
370
-1
48
1
60
0
100
AcDbCircle
39
0
10
15.048591
20
-4.814985
30
0
40
1.6765
210
0
220
0
230
1
100
AcDbArc
50
241.159887
51
301
0
ARC
5
75
100
AcDbEntity
8
1
62
256
6
ByLayer
370
-1
48
1
60
0
100
AcDbCircle
39
0
10
15.048591
20
-4.814985
30
0
40
1.2065
210
0
220
0
230
1
100
AcDbArc
50
207.044721
51
214.955279
0
ARC
5
76
100
AcDbEntity
8
1
62
256
6
ByLayer
370
-1
48
1
60
0
100
AcDbCircle
39
0
10
15.048591
20
-4.814985
30
0
40
1.2065
210
0
220
0
230
1
100
AcDbArc
50
27.044721
51
34.955279
0
ARC
5
78
100
AcDbEntity
8
1
62
256
6
ByLayer
370
-1
48
1
60
0
100
AcDbCircle
39
0
10
15.048591
20
-4.814985
30
0
40
1.6765
210
0
220
0
230
1
100
AcDbArc
50
121
51
180.840113
0
ARC
5
79
100
AcDbEntity
8
1
62
256
6
ByLayer
370
-1
48
1
60
0
100
AcDbCircle
39
0
10
-15.048591
20
-4.814985
30
0
40
1.2065
210
0
220
0
230
-1
100
AcDbArc
50
88.920057
51
145.044721
0
ARC
5
7A
100
AcDbEntity
8
1
62
256
6
ByLayer
370
-1
48
1
60
0
100
AcDbCircle
39
0
10
-15.048591
20
-4.814985
30
0
40
1.2065
210
0
220
0
230
-1
100
AcDbArc
50
209.079943
51
268.920057
0
ARC
5
7B
100
AcDbEntity
8
1
62
256
6
ByLayer
370
-1
48
1
60
0
100
AcDbCircle
39
0
10
15.048591
20
-4.814985
30
0
40
1.6765
210
0
220
0
230
1
100
AcDbArc
50
0.840113
51
61.159887
0
ARC
5
7C
100
AcDbEntity
8
1
62
256
6
ByLayer
370
-1
48
1
60
0
100
AcDbCircle
39
0
10
15.048591
20
-4.814985
30
0
40
1.6765
210
0
220
0
230
1
100
AcDbArc
50
180.840113
51
241.159887
0
ARC
5
7D
100
AcDbEntity
8
1
62
256
6
ByLayer
370
-1
48
1
60
0
100
AcDbCircle
39
0
10
19.136448
20
-11.618321
30
0
40
0.793999999999997
210
0
220
0
230
1
100
AcDbArc
50
241
51
1
0
ARC
5
7E
100
AcDbEntity
8
1
62
256
6
ByLayer
370
-1
48
1
60
0
100
AcDbCircle
39
0
10
15.048591
20
-4.814985
30
0
40
1.6765
210
0
220
0
230
1
100
AcDbArc
50
61.159887
51
121
0
CIRCLE
5
6F
100
AcDbEntity
8
1
62
256
6
ByLayer
370
-1
48
1
60
0
100
AcDbCircle
10
15.048591
20
-4.814985
30
0
40
1.8
39
0
210
0
220
0
230
1
0
CIRCLE
5
77
100
AcDbEntity
8
1
62
256
6
ByLayer
370
-1
48
1
60
0
100
AcDbCircle
10
15.048591
20
-4.814985
30
0
40
2.625
39
0
210
0
220
0
230
1
0
CIRCLE
5
7F
100
AcDbEntity
8
1
62
256
6
ByLayer
370
-1
48
1
60
0
100
AcDbCircle
10
-15.048591
20
-4.814985
30
0
40
2.95049568210608
39
0
210
0
220
0
230
-1
0
CIRCLE
5
80
100
AcDbEntity
8
1
62
256
6
ByLayer
370
-1
48
1
60
0
100
AcDbCircle
10
15.048591
20
-4.814985
30
0
40
3.00605207334199
39
0
210
0
220
0
230
1
0
CIRCLE
5
81
100
AcDbEntity
8
1
62
256
6
ByLayer
370
-1
48
1
60
0
100
AcDbCircle
10
15.048591
20
-4.814985
30
0
40
3.07132534818238
39
0
210
0
220
0
230
1
0
POINT
5
41
100
AcDbEntity
8
SK2
62
256
6
ByLayer
370
-1
48
1
60
0
100
AcDbPoint
10
19.930456
20
28.2875
30
0
39
0
210
0
220
0
230
1
50
360
0
POINT
5
43
100
AcDbEntity
8
SK2
62
256
6
ByLayer
370
-1
48
1
60
0
100
AcDbPoint
10
19.930456
20
28.2875
30
0
39
0
210
0
220
0
230
1
50
360
0
POINT
5
44
100
AcDbEntity
8
2
62
256
6
ByLayer
370
-1
48
1
60
0
100
AcDbPoint
10
19.930456
20
28.2875
30
0
39
0
210
0
220
0
230
1
50
360
0
POINT
5
46
100
AcDbEntity
8
80
62
256
6
ByLayer
370
-1
48
1
60
0
100
AcDbPoint
10
0
20
0
30
0
39
0
210
0
220
0
230
1
50
360
0
POINT
5
48
100
AcDbEntity
8
SK2
62
256
6
ByLayer
370
-1
48
1
60
0
100
AcDbPoint
10
19.930456
20
28.2875
30
0
39
0
210
0
220
0
230
1
50
360
0
POINT
5
49
100
AcDbEntity
8
81
62
256
6
ByLayer
370
-1
48
1
60
0
100
AcDbPoint
10
19.930456
20
-12.4125
30
0
39
0
210
0
220
0
230
1
50
360
0
POINT
5
4B
100
AcDbEntity
8
SK2
62
256
6
ByLayer
370
-1
48
1
60
0
100
AcDbPoint
10
19.930456
20
28.2875
30
0
39
0
210
0
220
0
230
1
50
360
0
SPLINE
5
82
100
AcDbEntity
8
1
62
256
6
ByLayer
370
-1
48
1
60
0
100
AcDbSpline
70
4
71
3
72
8
73
4
40
0
40
0
40
0
40
0
40
1
40
1
40
1
40
1
41
1
10
6.24264520362044
20
-6.40962035114796
30
0
41
1
10
6.16774633329183
20
-6.43275292275573
30
0
41
1
10
6.09075404239761
20
-6.45012734895272
30
0
41
1
10
6.01184540021328
20
-6.46138447022003
30
0
0
SPLINE
5
83
100
AcDbEntity
8
1
62
256
6
ByLayer
370
-1
48
1
60
0
100
AcDbSpline
70
4
71
3
72
14
73
10
40
0
40
0
40
0
40
0
40
0.283761096986025
40
0.283761096986025
40
0.570109736066526
40
0.570109736066526
40
0.829295860077533
40
0.829295860077533
40
1
40
1
40
1
40
1
41
1
10
14.5907987125763
20
-6.23060670278932
30
0
41
1
10
14.5675254686041
20
-6.25470626181266
30
0
41
1
10
14.5392670372019
20
-6.27545876452552
30
0
41
1
10
14.4763006403609
20
-6.30591091004428
30
0
41
1
10
14.4405334898529
20
-6.31592333895955
30
0
41
1
10
14.3708368272873
20
-6.32148208331657
30
0
41
1
10
14.3359976731071
20
-6.31833418282736
30
0
41
1
10
14.2812278316584
20
-6.30320866673628
30
0
41
1
10
14.2598313019614
20
-6.29452085573857
30
0
41
1
10
14.2399027910714
20
-6.28354688823507
30
0
0
SPLINE
5
84
100
AcDbEntity
8
1
62
256
6
ByLayer
370
-1
48
1
60
0
100
AcDbSpline
70
4
71
3
72
12
73
8
40
0
40
0
40
0
40
0
40
0.49591498070746
40
0.49591498070746
40
0.90035354785847
40
0.90035354785847
40
1
40
1
40
1
40
1
41
1
10
13.5952612107423
20
-5.11902005471381
30
0
41
1
10
13.6645850275719
20
-5.13587332414482
30
0
41
1
10
13.7335563489454
20
-5.16426950121226
30
0
41
1
10
13.849468882475
20
-5.23687664816615
30
0
41
1
10
13.8993445028194
20
-5.27815564524209
30
0
41
1
10
13.953522591859
20
-5.33824516916795
30
0
41
1
10
13.9639889323442
20
-5.35070943933172
30
0
41
1
10
13.9740196669787
20
-5.36356299810316
30
0
0
SPLINE
5
85
100
AcDbEntity
8
1
62
256
6
ByLayer
370
-1
48
1
60
0
100
AcDbSpline
70
4
71
3
72
14
73
10
40
0
40
0
40
0
40
0
40
0.282363723149159
40
0.282363723149159
40
0.567071775331968
40
0.567071775331968
40
0.824673824384596
40
0.824673824384596
40
1
40
1
40
1
40
1
41
1
10
13.5952612107423
20
-5.11902005471381
30
0
41
1
10
13.5625975568261
20
-5.11107921439043
30
0
41
1
10
13.5303170301588
20
-5.09710771799757
30
0
41
1
10
13.472116581173
20
-5.05797090417815
30
0
41
1
10
13.445384089823
20
-5.03205465030979
30
0
41
1
10
13.4054051330469
20
-4.97448960141233
30
0
41
1
10
13.3905627456552
20
-4.94271562707095
30
0
41
1
10
13.3758819784573
20
-4.88688343146498
30
0
41
1
10
13.3726171483445
20
-4.86314430246168
30
0
41
1
10
13.372271397437
20
-4.83956576156609
30
0
0
SPLINE
5
86
100
AcDbEntity
8
1
62
256
6
ByLayer
370
-1
48
1
60
0
100
AcDbSpline
70
4
71
3
72
14
73
10
40
0
40
0
40
0
40
0
40
0.283761096986135
40
0.283761096986135
40
0.570109736066622
40
0.570109736066622
40
0.829295860077595
40
0.829295860077595
40
1
40
1
40
1
40
1
41
1
10
15.5063836478169
20
-3.39936239856459
30
0
41
1
10
15.5296568917891
20
-3.37526283954122
30
0
41
1
10
15.5579153231913
20
-3.35451033682835
30
0
41
1
10
15.6208817200323
20
-3.3240581913096
30
0
41
1
10
15.6566488705404
20
-3.31404576239436
30
0
41
1
10
15.726345533106
20
-3.30848701803734
30
0
41
1
10
15.7611846872862
20
-3.31163491852655
30
0
41
1
10
15.8159545287348
20
-3.32676043461763
30
0
41
1
10
15.8373510584318
20
-3.33544824561534
30
0
41
1
10
15.8572795693218
20
-3.34642221311884
30
0
0
SPLINE
5
87
100
AcDbEntity
8
1
62
256
6
ByLayer
370
-1
48
1
60
0
100
AcDbSpline
70
4
71
3
72
14
73
10
40
0
40
0
40
0
40
0
40
0.283959666788342
40
0.283959666788342
40
0.570283368508839
40
0.570283368508839
40
0.82944948337793
40
0.82944948337793
40
1
40
1
40
1
40
1
41
1
10
14.05460806711
20
-3.70793550394961
30
0
41
1
10
14.045457383692
20
-3.67568237172097
30
0
41
1
10
14.0417129262902
20
-3.64079637387485
30
0
41
1
10
14.0470378901802
20
-3.57103235353864
30
0
41
1
10
14.0563590302683
20
-3.53508116428691
30
0
41
1
10
14.0865822128451
20
-3.4720374870162
30
0
41
1
10
14.1068127909024
20
-3.44350246402661
30
0
41
1
10
14.1474002672118
20
-3.40377043943775
30
0
41
1
10
14.1656465679155
20
-3.38965030654774
30
0
41
1
10
14.1851298476099
20
-3.37794357104986
30
0
0
SPLINE
5
88
100
AcDbEntity
8
1
62
256
6
ByLayer
370
-1
48
1
60
0
100
AcDbSpline
70
4
71
3
72
18
73
14
40
0
40
0
40
0
40
0
40
0.212431798526441
40
0.212431798526441
40
0.386568844495503
40
0.386568844495503
40
0.562388096719066
40
0.562388096719066
40
0.715352202061745
40
0.715352202061745
40
0.918202301083969
40
0.918202301083969
40
1
40
1
40
1
40
1
41
1
10
15.5063836478169
20
-3.39936239856459
30
0
41
1
10
15.4570947610772
20
-3.45040128410199
30
0
41
1
10
15.3981021055839
20
-3.4953971791453
30
0
41
1
10
15.2773580779178
20
-3.55878245644152
30
0
41
1
10
15.2165836803596
20
-3.58107857533875
30
0
41
1
10
15.0895602267713
20
-3.60762522272907
30
0
41
1
10
15.0213424879472
20
-3.61190698348477
30
0
41
1
10
14.8985882250722
20
-3.6016647574306
30
0
41
1
10
14.841955117852
20
-3.58947822987514
30
0
41
1
10
14.720397452408
20
-3.54762610091365
30
0
41
1
10
14.6566030193107
20
-3.51306307471887
30
0
41
1
10
14.5789504028184
20
-3.45484908912934
30
0
41
1
10
14.5576904366602
20
-3.4367492131544
30
0
41
1
10
14.5377716946955
20
-3.41762150758703
30
0
0
SPLINE
5
89
100
AcDbEntity
8
1
62
256
6
ByLayer
370
-1
48
1
60
0
100
AcDbSpline
70
4
71
3
72
18
73
14
40
0
40
0
40
0
40
0
40
0.21243179852646
40
0.21243179852646
40
0.386568844495514
40
0.386568844495514
40
0.56238809671907
40
0.56238809671907
40
0.715352202061745
40
0.715352202061745
40
0.918202301083964
40
0.918202301083964
40
1
40
1
40
1
40
1
41
1
10
14.5907987125763
20
-6.23060670278932
30
0
41
1
10
14.640087599316
20
-6.17956781725192
30
0
41
1
10
14.6990802548093
20
-6.13457192220861
30
0
41
1
10
14.8198242824754
20
-6.07118664491236
30
0
41
1
10
14.8805986800337
20
-6.04889052601513
30
0
41
1
10
15.0076221336219
20
-6.02234387862481
30
0
41
1
10
15.0758398724461
20
-6.01806211786911
30
0
41
1
10
15.1985941353211
20
-6.02830434392328
30
0
41
1
10
15.2552272425412
20
-6.04049087147874
30
0
41
1
10
15.3767849079852
20
-6.08234300044026
30
0
41
1
10
15.4405793410826
20
-6.11690602663504
30
0
41
1
10
15.5182319575748
20
-6.17512001222457
30
0
41
1
10
15.5394919237331
20
-6.19321988819951
30
0
41
1
10
15.5594106656978
20
-6.21234759376688
30
0
0
SPLINE
5
8A
100
AcDbEntity
8
1
62
256
6
ByLayer
370
-1
48
1
60
0
100
AcDbSpline
70
4
71
3
72
16
73
12
40
0
40
0
40
0
40
0
40
0.0630400231936995
40
0.0630400231936995
40
0.285911893941268
40
0.285911893941268
40
0.511584890217294
40
0.511584890217294
40
0.751718550850779
40
0.751718550850779
40
1
40
1
40
1
40
1
41
1
10
14.1851298476099
20
-3.37794357104986
30
0
41
1
10
14.1923587531959
20
-3.37360000636451
30
0
41
1
10
14.1997846265673
20
-3.36956549503657
30
0
41
1
10
14.2339459474592
20
-3.35287799811727
30
0
41
1
10
14.2628321092785
20
-3.34393193823965
30
0
41
1
10
14.3208205481164
20
-3.3351162227269
30
0
41
1
10
14.3506554885783
20
-3.3352264088243
30
0
41
1
10
14.4091015673668
20
-3.344021181275
30
0
41
1
10
14.4382484569129
20
-3.35333325626019
30
0
41
1
10
14.4917939469329
20
-3.37971262519426
30
0
41
1
10
14.5166132485174
20
-3.39730333039117
30
0
41
1
10
14.5377716946955
20
-3.41762150758706
30
0
0
SPLINE
5
8B
100
AcDbEntity
8
1
62
256
6
ByLayer
370
-1
48
1
60
0
100
AcDbSpline
70
4
71
3
72
18
73
14
40
0
40
0
40
0
40
0
40
0.212491074092867
40
0.212491074092867
40
0.386617763712619
40
0.386617763712619
40
0.562425963586002
40
0.562425963586002
40
0.715388040519694
40
0.715388040519694
40
0.918248721506562
40
0.918248721506562
40
1
40
1
40
1
40
1
41
1
10
16.0425742932832
20
-5.92203359740426
30
0
41
1
10
16.0232027626613
20
-5.85375535958531
30
0
41
1
10
16.0139371306052
20
-5.78011964669011
30
0
41
1
10
16.0198095850081
20
-5.64385622288518
30
0
41
1
10
16.0310708518198
20
-5.58011082278563
30
0
41
1
10
16.07194423847
20
-5.4569549686027
30
0
41
1
10
16.1025183232586
20
-5.39582697399112
30
0
41
1
10
16.1730508228067
20
-5.29484514364685
30
0
41
1
10
16.2120425264811
20
-5.2520048280324
30
0
41
1
10
16.3093073269498
20
-5.16793455166894
30
0
41
1
10
16.3712474627151
20
-5.13014367460818
30
0
41
1
10
16.4605848877683
20
-5.0922621716135
30
0
41
1
10
16.4869010805065
20
-5.0829800782509
30
0
41
1
10
16.5134318970073
20
-5.07537213742916
30
0
0
SPLINE
5
8C
100
AcDbEntity
8
1
62
256
6
ByLayer
370
-1
48
1
60
0
100
AcDbSpline
70
4
71
3
72
14
73
10
40
0
40
0
40
0
40
0
40
0.283959666788302
40
0.283959666788302
40
0.570283368508813
40
0.570283368508813
40
0.829449483377918
40
0.829449483377918
40
1
40
1
40
1
40
1
41
1
10
16.0425742932832
20
-5.92203359740426
30
0
41
1
10
16.0517249767012
20
-5.95428672963291
30
0
41
1
10
16.0554694341031
20
-5.98917272747903
30
0
41
1
10
16.050144470213
20
-6.05893674781524
30
0
41
1
10
16.0408233301249
20
-6.09488793706697
30
0
41
1
10
16.0106001475481
20
-6.15793161433768
30
0
41
1
10
15.9903695694908
20
-6.18646663732727
30
0
41
1
10
15.9497820931814
20
-6.22619866191613
30
0
41
1
10
15.9315357924778
20
-6.24031879480614
30
0
41
1
10
15.9120525127833
20
-6.25202553030402
30
0
0
SPLINE
5
8D
100
AcDbEntity
8
1
62
256
6
ByLayer
370
-1
48
1
60
0
100
AcDbSpline
70
4
71
3
72
12
73
8
40
0
40
0
40
0
40
0
40
0.422118800272662
40
0.422118800272662
40
0.843213951436034
40
0.843213951436034
40
1
40
1
40
1
40
1
41
1
10
14.0597443929117
20
-5.50623290060364
30
0
41
1
10
14.0874165713838
20
-5.56829224358572
30
0
41
1
10
14.1054661721404
20
-5.6344321044059
30
0
41
1
10
14.1218931518443
20
-5.7629413261852
30
0
41
1
10
14.1207173672396
20
-5.82707723429672
30
0
41
1
10
14.1080770149607
20
-5.91083550505215
30
0
41
1
10
14.1034928444522
20
-5.93336980937815
30
0
41
1
10
14.0978466717603
20
-5.95546272561378
30
0
0
SPLINE
5
8E
100
AcDbEntity
8
1
62
256
6
ByLayer
370
-1
48
1
60
0
100
AcDbSpline
70
4
71
3
72
14
73
10
40
0
40
0
40
0
40
0
40
0.282363723149157
40
0.282363723149157
40
0.567071775331963
40
0.567071775331963
40
0.824673824384589
40
0.824673824384589
40
1
40
1
40
1
40
1
41
1
10
16.5019211496509
20
-4.51094904664009
30
0
41
1
10
16.5345848035671
20
-4.51888988696345
30
0
41
1
10
16.5668653302344
20
-4.53286138335633
30
0
41
1
10
16.6250657792202
20
-4.57199819717573
30
0
41
1
10
16.6517982705702
20
-4.59791445104412
30
0
41
1
10
16.6917772273464
20
-4.65547949994155
30
0
41
1
10
16.706619614738
20
-4.68725347428295
30
0
41
1
10
16.721300381936
20
-4.7430856698889
30
0
41
1
10
16.7245652120487
20
-4.7668247988922
30
0
41
1
10
16.7249109629562
20
-4.79040333978782
30
0
0
SPLINE
5
8F
100
AcDbEntity
8
1
62
256
6
ByLayer
370
-1
48
1
60
0
100
AcDbSpline
70
4
71
3
72
16
73
12
40
0
40
0
40
0
40
0
40
0.0630400231937071
40
0.0630400231937071
40
0.285911893941311
40
0.285911893941311
40
0.511584890217371
40
0.511584890217371
40
0.75171855085089
40
0.75171855085089
40
1
40
1
40
1
40
1
41
1
10
15.9120525127833
20
-6.25202553030402
30
0
41
1
10
15.9048236071973
20
-6.25636909498937
30
0
41
1
10
15.8973977338259
20
-6.26040360631731
30
0
41
1
10
15.863236412934
20
-6.27709110323661
30
0
41
1
10
15.8343502511147
20
-6.28603716311423
30
0
41
1
10
15.7763618122768
20
-6.29485287862698
30
0
41
1
10
15.746526871815
20
-6.29474269252958
30
0
41
1
10
15.6880807930264
20
-6.28594792007888
30
0
41
1
10
15.6589339034803
20
-6.27663584509369
30
0
41
1
10
15.6053884134603
20
-6.25025647615965
30
0
41
1
10
15.5805691118759
20
-6.23266577096274
30
0
41
1
10
15.5594106656978
20
-6.21234759376685
30
0
0
SPLINE
5
90
100
AcDbEntity
8
1
62
256
6
ByLayer
370
-1
48
1
60
0
100
AcDbSpline
70
4
71
3
72
18
73
14
40
0
40
0
40
0
40
0
40
0.212491074092864
40
0.212491074092864
40
0.386617763712621
40
0.386617763712621
40
0.562425963586007
40
0.562425963586007
40
0.715388040519702
40
0.715388040519702
40
0.918248721506575
40
0.918248721506575
40
1
40
1
40
1
40
1
41
1
10
14.05460806711
20
-3.70793550394961
30
0
41
1
10
14.073979597732
20
-3.7762137417686
30
0
41
1
10
14.083245229788
20
-3.84984945466377
30
0
41
1
10
14.0773727753851
20
-3.9861128784687
30
0
41
1
10
14.0661115085734
20
-4.04985827856828
30
0
41
1
10
14.0252381219232
20
-4.17301413275121
30
0
41
1
10
13.9946640371346
20
-4.23414212736276
30
0
41
1
10
13.9241315375865
20
-4.33512395770705
30
0
41
1
10
13.8851398339121
20
-4.37796427332148
30
0
41
1
10
13.7878750334434
20
-4.46203454968497
30
0
41
1
10
13.7259348976782
20
-4.49982542674573
30
0
41
1
10
13.6365974726249
20
-4.53770692974041
30
0
41
1
10
13.6102812798868
20
-4.54698902310298
30
0
41
1
10
13.5837504633859
20
-4.55459696392472
30
0
0
SPLINE
5
91
100
AcDbEntity
8
1
62
256
6
ByLayer
370
-1
48
1
60
0
100
AcDbSpline
70
4
71
3
72
16
73
12
40
0
40
0
40
0
40
0
40
0.0623023456402664
40
0.0623023456402664
40
0.28306835711197
40
0.28306835711197
40
0.506600947963061
40
0.506600947963061
40
0.744450891689954
40
0.744450891689954
40
1
40
1
40
1
40
1
41
1
10
15.8572795693218
20
-3.34642221311884
30
0
41
1
10
15.8646504193117
20
-3.35048109482403
30
0
41
1
10
15.8718537526773
20
-3.35486407552244
30
0
41
1
10
15.903434099215
20
-3.37600036560531
30
0
41
1
10
15.9256863936574
20
-3.39647763059497
30
0
41
1
10
15.9624518491487
20
-3.44218024310541
30
0
41
1
10
15.9773509561527
20
-3.46802872941044
30
0
41
1
10
15.9991210526917
20
-3.52297635965155
30
0
41
1
10
16.0057190692839
20
-3.55285399379875
30
0
41
1
10
16.0099045495761
20
-3.6135623655629
30
0
41
1
10
16.0068689623796
20
-3.6450294194112
30
0
41
1
10
15.9993356886329
20
-3.67450637574009
30
0
0
SPLINE
5
92
100
AcDbEntity
8
1
62
256
6
ByLayer
370
-1
48
1
60
0
100
AcDbSpline
70
4
71
3
72
16
73
12
40
0
40
0
40
0
40
0
40
0.0623023456401868
40
0.0623023456401868
40
0.283068357111848
40
0.283068357111848
40
0.506600947962943
40
0.506600947962943
40
0.744450891689797
40
0.744450891689797
40
1
40
1
40
1
40
1
41
1
10
14.2399027910714
20
-6.28354688823507
30
0
41
1
10
14.2325319410815
20
-6.27948800652987
30
0
41
1
10
14.225328607716
20
-6.27510502583149
30
0
41
1
10
14.1937482611782
20
-6.2539687357486
30
0
41
1
10
14.1714959667359
20
-6.23349147075896
30
0
41
1
10
14.1347305112445
20
-6.18778885824852
30
0
41
1
10
14.1198314042406
20
-6.1619403719435
30
0
41
1
10
14.0980613077015
20
-6.10699274170238
30
0
41
1
10
14.0914632911093
20
-6.07711510755519
30
0
41
1
10
14.0872778108171
20
-6.01640673579104
30
0
41
1
10
14.0903133980137
20
-5.98493968194271
30
0
41
1
10
14.0978466717603
20
-5.95546272561378
30
0
0
SPLINE
5
93
100
AcDbEntity
8
1
62
256
6
ByLayer
370
-1
48
1
60
0
100
AcDbSpline
70
4
71
3
72
12
73
8
40
0
40
0
40
0
40
0
40
0.422118800404552
40
0.422118800404552
40
0.843213951592037
40
0.843213951592037
40
1
40
1
40
1
40
1
41
1
10
16.0374379674814
20
-4.12373620075019
30
0
41
1
10
16.0097657890008
20
-4.06167685774872
30
0
41
1
10
15.9917161882417
20
-3.99553699690651
30
0
41
1
10
15.9752892085466
20
-3.86702777510439
30
0
41
1
10
15.9764649931574
20
-3.80289186699056
30
0
41
1
10
15.9891053454416
20
-3.71913359625694
30
0
41
1
10
15.9936895159466
20
-3.69659929195379
30
0
41
1
10
15.9993356886329
20
-3.67450637574009
30
0
0
SPLINE
5
94
100
AcDbEntity
8
1
62
256
6
ByLayer
370
-1
48
1
60
0
100
AcDbSpline
70
4
71
3
72
16
73
12
40
0
40
0
40
0
40
0
40
0.0570831761996374
40
0.0570831761996374
40
0.280035914918756
40
0.280035914918756
40
0.505449899288288
40
0.505449899288288
40
0.745047722597662
40
0.745047722597662
40
1
40
1
40
1
40
1
41
1
10
16.7249109629562
20
-4.79040333978782
30
0
41
1
10
16.7250230103269
20
-4.79804442894886
30
0
41
1
10
16.7248345304345
20
-4.80569712014324
30
0
41
1
10
16.7224576710752
20
-4.84286842640307
30
0
41
1
10
16.7159117892839
20
-4.87242037981579
30
0
41
1
10
16.694823191241
20
-4.92717342903325
30
0
41
1
10
16.6799462394199
20
-4.95302869125928
30
0
41
1
10
16.6433695621648
20
-4.99940551300159
30
0
41
1
10
16.6208662928972
20
-5.02008966394246
30
0
41
1
10
16.5707716080689
20
-5.05399036332852
30
0
41
1
10
16.5423704680967
20
-5.06707375217943
30
0
41
1
10
16.5134318970073
20
-5.07537213742916
30
0
0
SPLINE
5
95
100
AcDbEntity
8
1
62
256
6
ByLayer
370
-1
48
1
60
0
100
AcDbSpline
70
4
71
3
72
12
73
8
40
0
40
0
40
0
40
0
40
0.495914980707579
40
0.495914980707579
40
0.900353547869506
40
0.900353547869506
40
1
40
1
40
1
40
1
41
1
10
16.5019211496509
20
-4.51094904664009
30
0
41
1
10
16.4325973328213
20
-4.49409577720908
30
0
41
1
10
16.3636260114478
20
-4.46569960014165
30
0
41
1
10
16.2477134779168
20
-4.39309245318688
30
0
41
1
10
16.1978378575712
20
-4.35181345610962
30
0
41
1
10
16.143659768532
20
-4.29172393218334
30
0
41
1
10
16.133193428048
20
-4.27925966202085
30
0
41
1
10
16.1231626934146
20
-4.2664061032508
30
0
0
SPLINE
5
96
100
AcDbEntity
8
1
62
256
6
ByLayer
370
-1
48
1
60
0
100
AcDbSpline
70
4
71
3
72
16
73
12
40
0
40
0
40
0
40
0
40
0.0570831761996428
40
0.0570831761996428
40
0.280035914918749
40
0.280035914918749
40
0.505449899288268
40
0.505449899288268
40
0.745047722597656
40
0.745047722597656
40
1
40
1
40
1
40
1
41
1
10
13.372271397437
20
-4.83956576156609
30
0
41
1
10
13.3721593500663
20
-4.83192467240505
30
0
41
1
10
13.3723478299587
20
-4.82427198121064
30
0
41
1
10
13.374724689318
20
-4.78710067495084
30
0
41
1
10
13.3812705711094
20
-4.75754872153811
30
0
41
1
10
13.4023591691522
20
-4.70279567232063
30
0
41
1
10
13.4172361209733
20
-4.67694041009463
30
0
41
1
10
13.4538127982284
20
-4.63056358835229
30
0
41
1
10
13.476316067496
20
-4.60987943741145
30
0
41
1
10
13.5264107523243
20
-4.57597873802538
30
0
41
1
10
13.5548118922965
20
-4.56289534917445
30
0
41
1
10
13.5837504633859
20
-4.55459696392472
30
0
0
INSERT
5
CA
100
AcDbEntity
8
SK2
62
256
6
ByLayer
370
-1
48
1
60
0
100
AcDbBlockReference
2
DimnDraft3D11
10
0
20
0
30
0
41
1
42
1
43
1
50
0
210
0
220
0
230
1
0
LINE
5
4C
100
AcDbEntity
8
80
62
256
6
ByLayer
370
-1
48
1
60
0
100
AcDbLine
10
0
20
0
30
0
11
-5
21
0
31
0
39
0
210
0
220
0
230
1
0
LINE
5
4D
100
AcDbEntity
8
81
62
256
6
ByLayer
370
-1
48
1
60
0
100
AcDbLine
10
19.930456
20
-12.4125
30
0
11
29.930456
21
-12.4125
31
0
39
0
210
0
220
0
230
1
0
LINE
5
4E
100
AcDbEntity
8
1
62
256
6
ByLayer
370
-1
48
1
60
0
100
AcDbLine
10
16.008822
20
-11.122677
30
0
11
16.716191
21
-11.184564
31
0
39
0
210
0
220
0
230
1
0
LINE
5
50
100
AcDbEntity
8
1
62
256
6
ByLayer
370
-1
48
1
60
0
100
AcDbLine
10
9.329811
20
-7.090245
30
0
11
8.728763
21
-7.451391
31
0
39
0
210
0
220
0
230
1
0
LINE
5
51
100
AcDbEntity
8
1
62
256
6
ByLayer
370
-1
48
1
60
0
100
AcDbLine
10
15.773538
20
-11.102092
30
0
11
16.008822
21
-11.122677
31
0
39
0
210
0
220
0
230
1
0
LINE
5
52
100
AcDbEntity
8
1
62
256
6
ByLayer
370
-1
48
1
60
0
100
AcDbLine
10
15.773538
20
-11.102092
30
0
11
15.765782
21
-10.657755
31
0
39
0
210
0
220
0
230
1
0
LINE
5
53
100
AcDbEntity
8
1
62
256
6
ByLayer
370
-1
48
1
60
0
100
AcDbLine
10
3.051564
20
-9.989064
30
0
11
1
21
-7.9375
31
0
39
0
210
0
220
0
230
1
0
LINE
5
54
100
AcDbEntity
8
1
62
256
6
ByLayer
370
-1
48
1
60
0
100
AcDbLine
10
9.092586
20
-6.958754
30
0
11
8.607786
21
-7.250052
31
0
39
0
210
0
220
0
230
1
0
LINE
5
55
100
AcDbEntity
8
1
62
256
6
ByLayer
370
-1
48
1
60
0
100
AcDbLine
10
1
20
-7.9375
30
0
11
0
21
-7.9375
31
0
39
0
210
0
220
0
230
1
0
LINE
5
56
100
AcDbEntity
8
1
62
256
6
ByLayer
370
-1
48
1
60
0
100
AcDbLine
10
0
20
7.936296
30
0
11
0
21
-7.9375
31
0
39
0
210
0
220
0
230
1
0
LINE
5
57
100
AcDbEntity
8
1
62
256
6
ByLayer
370
-1
48
1
60
0
100
AcDbLine
10
8.728763
20
-7.451391
30
0
11
8.607786
21
-7.250052
31
0
39
0
210
0
220
0
230
1
0
LINE
5
58
100
AcDbEntity
8
1
62
256
6
ByLayer
370
-1
48
1
60
0
100
AcDbLine
10
5.00678
20
7.936296
30
0
11
18.658922
21
5.511358
31
0
39
0
210
0
220
0
230
1
0
LINE
5
59
100
AcDbEntity
8
1
62
256
6
ByLayer
370
-1
48
1
60
0
100
AcDbLine
10
16.008822
20
-11.122677
30
0
11
16.003002
21
-10.789238
31
0
39
0
210
0
220
0
230
1
0
LINE
5
5A
100
AcDbEntity
8
1
62
256
6
ByLayer
370
-1
48
1
60
0
100
AcDbLine
10
0
20
7.936296
30
0
11
5.00678
21
7.936296
31
0
39
0
210
0
220
0
230
1
0
LINE
5
5B
100
AcDbEntity
8
1
62
256
6
ByLayer
370
-1
48
1
60
0
100
AcDbLine
10
18.658922
20
5.511358
30
0
11
18.704549
21
2.897351
31
0
39
0
210
0
220
0
230
1
0
LINE
5
5C
100
AcDbEntity
8
1
62
256
6
ByLayer
370
-1
48
1
60
0
100
AcDbLine
10
15.773538
20
-11.102092
30
0
11
3.051564
21
-9.989064
31
0
39
0
210
0
220
0
230
1
0
LINE
5
5D
100
AcDbEntity
8
1
62
256
6
ByLayer
370
-1
48
1
60
0
100
AcDbLine
10
6.70386
20
-4.272913
30
0
11
18.487585
21
2.807463
31
0
39
0
210
0
220
0
230
1
0
LINE
5
5E
100
AcDbEntity
8
SK1
62
256
6
ByLayer
370
-1
48
1
60
0
100
AcDbLine
10
-0.15
20
7.93695
30
0
11
0
21
7.936296
31
0
39
0
210
0
220
0
230
1
0
LINE
5
60
100
AcDbEntity
8
1
62
256
6
ByLayer
370
-1
48
1
60
0
100
AcDbLine
10
18.75151
20
-12.312769
30
0
11
6.727861
21
-5.647952
31
0
39
0
210
0
220
0
230
1
0
LINE
5
61
100
AcDbEntity
8
SK1
62
256
6
ByLayer
370
-1
48
1
60
0
100
AcDbLine
10
-0.15
20
-7.9375
30
0
11
-0.15
21
7.9375
31
0
39
0
210
0
220
0
230
1
0
LINE
5
62
100
AcDbEntity
8
SK1
62
256
6
ByLayer
370
-1
48
1
60
0
100
AcDbLine
10
0
20
-7.9375
30
0
11
0
21
7.936296
31
0
39
0
210
0
220
0
230
1
0
LINE
5
63
100
AcDbEntity
8
SK1
62
256
6
ByLayer
370
-1
48
1
60
0
100
AcDbLine
10
-81.419544
20
-7.9375
30
0
11
-81.419544
21
7.9375
31
0
39
0
210
0
220
0
230
1
0
LINE
5
64
100
AcDbEntity
8
SK1
62
256
6
ByLayer
370
-1
48
1
60
0
100
AcDbLine
10
-0.15
20
-7.9375
30
0
11
-81.419544
21
-7.9375
31
0
39
0
210
0
220
0
230
1
0
LINE
5
65
100
AcDbEntity
8
SK1
62
256
6
ByLayer
370
-1
48
1
60
0
100
AcDbLine
10
0
20
-7.9375
30
0
11
-0.15
21
-7.9375
31
0
39
0
210
0
220
0
230
1
0
LINE
5
66
100
AcDbEntity
8
1
62
256
6
ByLayer
370
-1
48
1
60
0
100
AcDbLine
10
19.690404
20
2.140729
30
0
11
19.930327
21
-11.604464
31
0
39
0
210
0
220
0
230
1
0
LINE
5
67
100
AcDbEntity
8
SK1
62
256
6
ByLayer
370
-1
48
1
60
0
100
AcDbLine
10
-81.419544
20
7.9375
30
0
11
-0.15
21
7.9375
31
0
39
0
210
0
220
0
230
1
0
MTEXT
5
97
100
AcDbEntity
8
SK6
62
256
6
ByLayer
370
-1
48
1
60
0
100
AcDbMText
10
-45.594124
20
18.395841
30
0
210
0
220
0
230
1
1
\W00.712;\fsimplex.shx,bigfont.shx;STFCL 1616H 16 
40
3.5
41
0
44
1.084337
50
0
71
7
72
5
7
DEFAULT
0
DIMENSION
5
D7
100
AcDbEntity
8
2
62
256
6
ByLayer
370
-3
48
1
60
0
100
AcDbDimension
2
DimnDraft3D2
10
19.930335
20
-11.604897
30
0
11
24.129863
21
0.133793
31
0
70
34
71
5
72
1
41
1
210
0
220
0
230
1
3
Standard
100
AcDb2LineAngularDimension
13
18.342956
23
-12.4125
33
0
14
19.930456
24
-12.4125
34
0
15
19.642409
25
4.890374
35
0
16
29.849861
26
-2.332662
36
0
40
0
0
DIMENSION
5
EC
100
AcDbEntity
8
2
62
256
6
ByLayer
370
-3
48
1
60
0
100
AcDbDimension
2
DimnDraft3D3
10
47.180456
20
-12.4125
30
0
11
47.180456
21
-4.866447
31
0
70
32
71
5
72
1
41
1
210
0
220
0
230
1
3
Standard
100
AcDbAlignedDimension
13
2
23
7.9375
33
0
14
21.930456
24
-12.4125
34
0
50
90
100
AcDbRotatedDimension
1001
ACAD
1000
DSTYLE
1002
{
1070
    74
1070
     0
1070
   279
1070
     0
1070
   172
1070
     1
1070
   173
1070
     1
1070
   340
1005
98
1070
    77
1070
     1
1070
    73
1070
     0
1070
   171
1070
     3
1070
   274
1070
     4
1070
   177
1070
     2
1070
   176
1070
     2
1070
   178
1070
     7
1070
    78
1070
     8
1070
    41
1041
3.175
1070
   147
1041
2.25
1070
    42
1041
2.0
1070
    44
1041
2.0
1070
   140
1041
4.5
1070
   343
1005
D8
1070
   344
1005
D8
1002
}
0
DIMENSION
5
FA
100
AcDbEntity
8
SK2
62
256
6
ByLayer
370
-3
48
1
60
0
100
AcDbDimension
2
DimnDraft3D4
10
-91.169544
20
-7.9375
30
0
11
-91.169544
21
-2.066447
31
0
70
32
71
5
72
1
41
1
210
0
220
0
230
1
3
Standard
100
AcDbAlignedDimension
13
-83.419544
23
7.9375
33
0
14
-83.419544
24
-7.9375
34
0
50
90
100
AcDbRotatedDimension
1001
ACAD
1000
DSTYLE
1002
{
1070
    74
1070
     0
1070
   279
1070
     0
1070
   172
1070
     1
1070
   173
1070
     1
1070
   340
1005
98
1070
    77
1070
     1
1070
    73
1070
     0
1070
   171
1070
     3
1070
   274
1070
     4
1070
   177
1070
     2
1070
   176
1070
     2
1070
   178
1070
     7
1070
    78
1070
     8
1070
    41
1041
3.175
1070
   147
1041
2.25
1070
    42
1041
2.0
1070
    44
1041
2.0
1070
   140
1041
4.5
1070
   343
1005
D8
1070
   344
1005
D8
1002
}
0
ENDSEC
0
SECTION
2
OBJECTS
0
DICTIONARY
5
12a
330
0
100
AcDbDictionary
280
0
281
1
3
ACAD_GROUP
350
12b
3
ACAD_MLINESTYLE
350
12c
0
DICTIONARY
5
12b
330
0
100
AcDbDictionary
280
0
281
1
0
DICTIONARY
5
12c
330
0
100
AcDbDictionary
280
0
281
1
3
Standard
350
18
0
MLINESTYLE
5
18
330
12c
100
AcDbMlineStyle
2
Standard
70
0
3

62
256
51
90
52
90
71
2
49
-0.5
62
256
6
ByLayer
49
0.5
62
256
6
ByLayer
0
RASTERVARIABLES
5
119
330

100
AcDbRasterVariables
90
0
70
1
71
1
72
1
0
ENDSEC
0
EOF
