0
SECTION
2
HEADER
9
$ACADVER
1
AC1015
9
$DWGCODEPAGE
3
ANSI_1252
9
$HANDSEED
5
134
9
$ANGBASE
50
0
9
$ANGDIR
70
0
9
$ATTMODE
70
1
9
$AUNITS
70
0
9
$AUPREC
70
0
9
$CECOLOR
62
256
9
$CELTSCALE
40
1
9
$CELTYPE
6
ByLayer
9
$CELWEIGHT
370
-1
9
$CLAYER
8
0
9
$CMLJUST
70
0
9
$CMLSCALE
40
1
9
$CMLSTYLE
2
Standard
9
$DIMSTYLE
2
Standard
9
$TEXTSIZE
40
0.2
9
$TEXTSTYLE
7
Standard
9
$LUNITS
70
2
9
$LUPREC
70
4
9
$EXTNAMES
290
1
9
$INSUNITS
70
4
9
$LTSCALE
40
1
9
$LWDISPLAY
290
0
9
$PDMODE
70
0
9
$PDSIZE
40
0
9
$PLINEGEN
70
0
0
ENDSEC
0
SECTION
2
CLASSES
0
CLASS
1
RASTERVARIABLES
2
AcDbRasterVariables
3
ISM
90
0
280
0
281
0
0
ENDSEC
0
SECTION
2
TABLES
0
TABLE
2
VPORT
5
12a
100
AcDbSymbolTable
0
VPORT
5
1
100
AcDbSymbolTableRecord
100
AcDbViewportTableRecord
2
*Active
70
0
10
0
20
0
11
1
21
1
12
-1
22
1
13
0
23
0
14
0.5
24
0.5
15
10
25
10
16
0
26
0
36
1
17
0
27
0
37
0
0
ENDTAB
0
TABLE
2
LTYPE
5
12b
100
AcDbSymbolTable
0
LTYPE
5
14
100
AcDbSymbolTableRecord
100
AcDbLinetypeTableRecord
70
0
2
ByBlock
3

72
65
73
0
40
0
0
LTYPE
5
15
100
AcDbSymbolTableRecord
100
AcDbLinetypeTableRecord
70
0
2
ByLayer
3

72
65
73
0
40
0
0
LTYPE
5
16
100
AcDbSymbolTableRecord
100
AcDbLinetypeTableRecord
70
0
2
CONTINUOUS
3
Solid line
72
65
73
0
40
0
0
LTYPE
5
3B
100
AcDbSymbolTableRecord
100
AcDbLinetypeTableRecord
70
0
2
DASHED
3
__ __ __ __ __ __ __ __ __
72
65
73
2
40
25.72
49
12.86
74
0
49
-12.86
74
0
0
LTYPE
5
3C
100
AcDbSymbolTableRecord
100
AcDbLinetypeTableRecord
70
0
2
HIDDEN
3
_ _ _ _ _ _ _ _ _ _ _ _ _ _ _
72
65
73
2
40
0.5
49
0.25
74
0
49
-0.25
74
0
0
LTYPE
5
3D
100
AcDbSymbolTableRecord
100
AcDbLinetypeTableRecord
70
0
2
PHANTOM
3
____ _ _ ____ _ _ _____ _ _ ____
72
65
73
6
40
50.5
49
18
74
0
49
-6.5
74
0
49
6.5
74
0
49
-6.5
74
0
49
6.5
74
0
49
-6.5
74
0
0
LTYPE
5
3E
100
AcDbSymbolTableRecord
100
AcDbLinetypeTableRecord
70
0
2
CENTER
3
____ _ ____ _ ____ _ ____
72
65
73
4
40
47.5
49
22
74
0
49
-8.5
74
0
49
8.5
74
0
49
-8.5
74
0
0
LTYPE
5
3F
100
AcDbSymbolTableRecord
100
AcDbLinetypeTableRecord
70
0
2
DOT
3
.........................
72
65
73
2
40
10
49
0
74
0
49
-10
74
0
0
LTYPE
5
40
100
AcDbSymbolTableRecord
100
AcDbLinetypeTableRecord
70
0
2
DASHDOT
3
_._._._._._._._._._._._._._._._.
72
65
73
4
40
70
49
31
74
0
49
-13
74
0
49
13
74
0
49
-13
74
0
0
ENDTAB
0
TABLE
2
LAYER
5
12c
100
AcDbSymbolTable
0
LAYER
5
10
100
AcDbSymbolTableRecord
100
AcDbLayerTableRecord
2
0
70
0
62
7
6
CONTINUOUS
290
1
370
-3
390
0
0
LAYER
5
44
100
AcDbSymbolTableRecord
100
AcDbLayerTableRecord
2
80
70
0
62
-6
6
CONTINUOUS
290
1
370
-3
390
0
0
LAYER
5
47
100
AcDbSymbolTableRecord
100
AcDbLayerTableRecord
2
81
70
0
62
-3
6
CONTINUOUS
290
1
370
-3
390
0
0
LAYER
5
49
100
AcDbSymbolTableRecord
100
AcDbLayerTableRecord
2
2
70
0
62
7
6
CONTINUOUS
290
1
370
-3
390
0
0
LAYER
5
4F
100
AcDbSymbolTableRecord
100
AcDbLayerTableRecord
2
1
70
0
62
4
6
CONTINUOUS
290
1
370
-3
390
0
0
LAYER
5
117
100
AcDbSymbolTableRecord
100
AcDbLayerTableRecord
2
SK2
70
0
62
7
6
CONTINUOUS
290
1
370
-3
390
0
0
LAYER
5
118
100
AcDbSymbolTableRecord
100
AcDbLayerTableRecord
2
SK1
70
0
62
4
6
CONTINUOUS
290
1
370
-3
390
0
0
LAYER
5
119
100
AcDbSymbolTableRecord
100
AcDbLayerTableRecord
2
SK6
70
0
62
5
6
CONTINUOUS
290
1
370
-3
390
0
0
ENDTAB
0
TABLE
2
STYLE
5
12d
100
AcDbSymbolTable
0
STYLE
5
11
100
AcDbSymbolTableRecord
100
AcDbTextStyleTableRecord
2
Standard
3
txt
70
0
71
0
40
0
41
1
42
0
50
0
0
STYLE
5
95
100
AcDbSymbolTableRecord
100
AcDbTextStyleTableRecord
2
DEFAULT
3
simplex.shx
70
0
71
0
40
0
41
1
42
0
50
0
0
STYLE
5
B8
100
AcDbSymbolTableRecord
100
AcDbTextStyleTableRecord
2
DWGDirectTextStyle
3
SIMPLEX
70
0
71
0
40
0
41
1
42
0
50
0
0
ENDTAB
0
TABLE
2
DIMSTYLE
5
12e
100
AcDbSymbolTable
100
AcDbDimStyleTable
0
DIMSTYLE
105
27
100
AcDbSymbolTableRecord
100
AcDbDimStyleTableRecord
2
Standard
70
0
3
<>
41
0.18
42
0.0625
44
0.18
140
0.18
147
0.09
73
0
74
0
77
1
271
2
275
0
278
52
280
0
340
11
0
ENDTAB
0
TABLE
2
VIEW
5
12f
100
AcDbSymbolTable
0
ENDTAB
0
TABLE
2
UCS
5
130
100
AcDbSymbolTable
0
ENDTAB
0
TABLE
2
APPID
5
131
100
AcDbSymbolTable
0
APPID
5
12
100
AcDbSymbolTableRecord
100
AcDbRegAppTableRecord
2
ACAD
70
0
0
ENDTAB
0
TABLE
2
BLOCK_RECORD
5
132
100
AcDbSymbolTable
0
BLOCK_RECORD
5
1F
100
AcDbSymbolTableRecord
100
AcDbBlockTableRecord
2
*Model_Space
340
0
70
0
0
BLOCK_RECORD
5
1B
100
AcDbSymbolTableRecord
100
AcDbBlockTableRecord
2
*Paper_Space
340
0
70
0
0
BLOCK_RECORD
5
23
100
AcDbSymbolTableRecord
100
AcDbBlockTableRecord
2
*Paper_Space0
340
0
70
0
0
BLOCK_RECORD
5
BA
100
AcDbSymbolTableRecord
100
AcDbBlockTableRecord
2
DimnDraft3D11
340
0
70
0
0
BLOCK_RECORD
5
C8
100
AcDbSymbolTableRecord
100
AcDbBlockTableRecord
2
DimnDraft3D2
340
0
70
0
0
BLOCK_RECORD
5
D5
100
AcDbSymbolTableRecord
100
AcDbBlockTableRecord
2
_CLOSED
340
0
70
0
0
BLOCK_RECORD
5
DC
100
AcDbSymbolTableRecord
100
AcDbBlockTableRecord
2
DimnDraft3D3
340
0
70
0
0
BLOCK_RECORD
5
EA
100
AcDbSymbolTableRecord
100
AcDbBlockTableRecord
2
DimnDraft3D4
340
0
70
0
0
ENDTAB
0
ENDSEC
0
SECTION
2
BLOCKS
0
BLOCK
5
20
100
AcDbEntity
8
0
100
AcDbBlockBegin
2
*Model_Space
70
0
10
0
20
0
30
0
3
*Model_Space
0
ENDBLK
5
21
100
AcDbEntity
8
0
100
AcDbBlockEnd
0
BLOCK
5
1C
100
AcDbEntity
8
0
100
AcDbBlockBegin
2
*Paper_Space
70
0
10
0
20
0
30
0
3
*Paper_Space
0
ENDBLK
5
1D
100
AcDbEntity
8
0
100
AcDbBlockEnd
0
BLOCK
5
24
100
AcDbEntity
8
0
100
AcDbBlockBegin
2
*Paper_Space0
70
0
10
0
20
0
30
0
3
*Paper_Space0
0
ENDBLK
5
25
100
AcDbEntity
8
0
100
AcDbBlockEnd
0
BLOCK
5
BB
100
AcDbEntity
8
0
100
AcDbBlockBegin
2
DimnDraft3D11
70
0
10
0
20
0
30
0
3
DimnDraft3D11
0
LINE
5
BD
100
AcDbEntity
8
SK2
62
256
6
ByLayer
370
-1
48
1
60
0
100
AcDbLine
10
13.832847
20
-12.4125
30
0
11
13.832847
21
-36.6625
31
0
39
0
210
0
220
0
230
1
0
LINE
5
BE
100
AcDbEntity
8
SK2
62
256
6
ByLayer
370
-1
48
1
60
0
100
AcDbLine
10
-67.517153
20
-7.9375
30
0
11
-67.517153
21
-36.6625
31
0
39
0
210
0
220
0
230
1
0
LINE
5
BF
100
AcDbEntity
8
SK2
62
256
6
ByLayer
370
-1
48
1
60
0
100
AcDbLine
10
13.832847
20
-34.6625
30
0
11
-67.517153
21
-34.6625
31
0
39
0
210
0
220
0
230
1
0
LINE
5
C0
100
AcDbEntity
8
SK2
62
256
6
ByLayer
370
-1
48
1
60
0
100
AcDbLine
10
13.832847
20
-34.6625
30
0
11
10.657849
21
-35.080497
31
0
39
0
210
0
220
0
230
1
0
LINE
5
C1
100
AcDbEntity
8
SK2
62
256
6
ByLayer
370
-1
48
1
60
0
100
AcDbLine
10
13.832847
20
-34.6625
30
0
11
10.657846
21
-34.244503
31
0
39
0
210
0
220
0
230
1
0
LINE
5
C2
100
AcDbEntity
8
SK2
62
256
6
ByLayer
370
-1
48
1
60
0
100
AcDbLine
10
10.657849
20
-35.080497
30
0
11
10.657846
21
-34.244503
31
0
39
0
210
0
220
0
230
1
0
LINE
5
C3
100
AcDbEntity
8
SK2
62
256
6
ByLayer
370
-1
48
1
60
0
100
AcDbLine
10
-67.517153
20
-34.6625
30
0
11
-64.342154
21
-34.244503
31
0
39
0
210
0
220
0
230
1
0
LINE
5
C4
100
AcDbEntity
8
SK2
62
256
6
ByLayer
370
-1
48
1
60
0
100
AcDbLine
10
-67.517153
20
-34.6625
30
0
11
-64.342151
21
-35.080497
31
0
39
0
210
0
220
0
230
1
0
LINE
5
C5
100
AcDbEntity
8
SK2
62
256
6
ByLayer
370
-1
48
1
60
0
100
AcDbLine
10
-64.342154
20
-34.244503
30
0
11
-64.342151
21
-35.080497
31
0
39
0
210
0
220
0
230
1
0
MTEXT
5
C6
100
AcDbEntity
8
SK2
62
256
6
ByLayer
370
-1
48
1
60
0
100
AcDbMText
10
-28.3461
20
-33.5375
30
0
210
0
220
0
230
1
1
\W00.656;\fsimplex.shx,bigfont.shx;80 
40
4.5
41
0
44
1.084337
50
0
71
7
72
5
7
DEFAULT
0
ENDBLK
5
BC
100
AcDbEntity
8
0
100
AcDbBlockEnd
0
BLOCK
5
D2
100
AcDbEntity
8
0
100
AcDbBlockBegin
2
DimnDraft3D2
70
0
10
0
20
0
30
0
3
DimnDraft3D2
0
MTEXT
5
C9
100
AcDbEntity
8
2
62
256
6
ByLayer
370
-1
48
1
60
0
100
AcDbMText
10
18.042612
20
0.546386
30
0
210
0
220
0
230
1
1
\W01.000;\fsimplex.shx,bigfont.shx;91%%d0' 
40
4.5
41
0
44
1.084337
50
315.5
71
7
72
5
7
DEFAULT
0
LINE
5
CA
100
AcDbEntity
8
2
62
256
6
ByLayer
370
-1
48
1
60
0
100
AcDbLine
10
15.832847
20
-10.4125
30
0
11
25.47703
21
-10.4125
31
0
39
0
210
0
220
0
230
1
0
ARC
5
CB
100
AcDbEntity
8
2
62
256
6
ByLayer
370
-1
48
1
60
0
100
AcDbCircle
39
0
10
13.839835
20
-10.4125
30
0
40
9.63719526457628
210
0
220
0
230
1
100
AcDbArc
50
310.584668
51
140.415332
0
LINE
5
CC
100
AcDbEntity
8
2
62
256
6
ByLayer
370
-1
48
1
60
0
100
AcDbLine
10
23.47703
20
-10.4125
30
0
11
23.634748
21
-13.611009
31
0
39
0
210
0
220
0
230
1
0
LINE
5
CD
100
AcDbEntity
8
2
62
256
6
ByLayer
370
-1
48
1
60
0
100
AcDbLine
10
23.47703
20
-10.4125
30
0
11
22.801538
21
-13.542846
31
0
39
0
210
0
220
0
230
1
0
LINE
5
CE
100
AcDbEntity
8
2
62
256
6
ByLayer
370
-1
48
1
60
0
100
AcDbLine
10
23.634748
20
-13.611009
30
0
11
22.801538
21
-13.542846
31
0
39
0
210
0
220
0
230
1
0
LINE
5
CF
100
AcDbEntity
8
2
62
256
6
ByLayer
370
-1
48
1
60
0
100
AcDbLine
10
13.671643
20
-0.776773
30
0
11
10.553566
21
-1.506794
31
0
39
0
210
0
220
0
230
1
0
LINE
5
D0
100
AcDbEntity
8
2
62
256
6
ByLayer
370
-1
48
1
60
0
100
AcDbLine
10
13.671643
20
-0.776773
30
0
11
10.470865
21
-0.674901
31
0
39
0
210
0
220
0
230
1
0
LINE
5
D1
100
AcDbEntity
8
2
62
256
6
ByLayer
370
-1
48
1
60
0
100
AcDbLine
10
10.553566
20
-1.506794
30
0
11
10.470865
21
-0.674901
31
0
39
0
210
0
220
0
230
1
0
ENDBLK
5
D3
100
AcDbEntity
8
0
100
AcDbBlockEnd
0
BLOCK
5
D6
100
AcDbEntity
8
0
100
AcDbBlockBegin
2
_CLOSED
70
0
10
0
20
0
30
0
3
_CLOSED
0
LINE
5
D8
100
AcDbEntity
8
0
62
256
6
ByLayer
370
-2
48
1
60
0
100
AcDbLine
10
-1
20
0.166667
30
0
11
0
21
0
31
0
39
0
210
0
220
0
230
1
0
LINE
5
D9
100
AcDbEntity
8
0
62
256
6
ByLayer
370
-2
48
1
60
0
100
AcDbLine
10
0
20
0
30
0
11
-1
21
-0.166667
31
0
39
0
210
0
220
0
230
1
0
LINE
5
DA
100
AcDbEntity
8
0
62
256
6
ByLayer
370
-2
48
1
60
0
100
AcDbLine
10
-1
20
0.166667
30
0
11
-1
21
-0.166667
31
0
39
0
210
0
220
0
230
1
0
LINE
5
DB
100
AcDbEntity
8
0
62
256
6
ByLayer
370
-2
48
1
60
0
100
AcDbLine
10
0
20
0
30
0
11
-1
21
0
31
0
39
0
210
0
220
0
230
1
0
ENDBLK
5
D7
100
AcDbEntity
8
0
100
AcDbBlockEnd
0
BLOCK
5
E7
100
AcDbEntity
8
0
100
AcDbBlockBegin
2
DimnDraft3D3
70
0
10
0
20
0
30
0
3
DimnDraft3D3
0
MTEXT
5
DD
100
AcDbEntity
8
2
62
256
6
ByLayer
370
-1
48
1
60
0
100
AcDbMText
10
39.957847
20
-3.178947
30
0
210
0
220
0
230
1
1
\W01.000;\fsimplex.shx,bigfont.shx;16 
40
4.5
41
0
44
1.084337
50
90
71
7
72
5
7
DEFAULT
0
LINE
5
DE
100
AcDbEntity
8
2
62
256
6
ByLayer
370
-1
48
1
60
0
100
AcDbLine
10
2
20
5.9375
30
0
11
43.082847
21
5.9375
31
0
39
0
210
0
220
0
230
1
0
LINE
5
DF
100
AcDbEntity
8
2
62
256
6
ByLayer
370
-1
48
1
60
0
100
AcDbLine
10
15.832847
20
-10.4125
30
0
11
43.082847
21
-10.4125
31
0
39
0
210
0
220
0
230
1
0
LINE
5
E0
100
AcDbEntity
8
2
62
256
6
ByLayer
370
-1
48
1
60
0
100
AcDbLine
10
41.082847
20
5.9375
30
0
11
41.082847
21
-10.4125
31
0
39
0
210
0
220
0
230
1
0
LINE
5
E1
100
AcDbEntity
8
2
62
256
6
ByLayer
370
-1
48
1
60
0
100
AcDbLine
10
41.082847
20
5.9375
30
0
11
41.500844
21
2.762502
31
0
39
0
210
0
220
0
230
1
0
LINE
5
E2
100
AcDbEntity
8
2
62
256
6
ByLayer
370
-1
48
1
60
0
100
AcDbLine
10
41.082847
20
5.9375
30
0
11
40.664851
21
2.762498
31
0
39
0
210
0
220
0
230
1
0
LINE
5
E3
100
AcDbEntity
8
2
62
256
6
ByLayer
370
-1
48
1
60
0
100
AcDbLine
10
41.500844
20
2.762502
30
0
11
40.664851
21
2.762498
31
0
39
0
210
0
220
0
230
1
0
LINE
5
E4
100
AcDbEntity
8
2
62
256
6
ByLayer
370
-1
48
1
60
0
100
AcDbLine
10
41.082847
20
-10.4125
30
0
11
40.664851
21
-7.237502
31
0
39
0
210
0
220
0
230
1
0
LINE
5
E5
100
AcDbEntity
8
2
62
256
6
ByLayer
370
-1
48
1
60
0
100
AcDbLine
10
41.082847
20
-10.4125
30
0
11
41.500844
21
-7.237498
31
0
39
0
210
0
220
0
230
1
0
LINE
5
E6
100
AcDbEntity
8
2
62
256
6
ByLayer
370
-1
48
1
60
0
100
AcDbLine
10
40.664851
20
-7.237502
30
0
11
41.500844
21
-7.237498
31
0
39
0
210
0
220
0
230
1
0
ENDBLK
5
E8
100
AcDbEntity
8
0
100
AcDbBlockEnd
0
BLOCK
5
F5
100
AcDbEntity
8
0
100
AcDbBlockBegin
2
DimnDraft3D4
70
0
10
0
20
0
30
0
3
DimnDraft3D4
0
MTEXT
5
EB
100
AcDbEntity
8
SK2
62
256
6
ByLayer
370
-1
48
1
60
0
100
AcDbMText
10
-78.392153
20
-0.941447
30
0
210
0
220
0
230
1
1
\W01.000;\fsimplex.shx,bigfont.shx;12 
40
4.5
41
0
44
1.084337
50
90
71
7
72
5
7
DEFAULT
0
LINE
5
EC
100
AcDbEntity
8
SK2
62
256
6
ByLayer
370
-1
48
1
60
0
100
AcDbLine
10
-69.517153
20
5.9375
30
0
11
-79.267153
21
5.9375
31
0
39
0
210
0
220
0
230
1
0
LINE
5
ED
100
AcDbEntity
8
SK2
62
256
6
ByLayer
370
-1
48
1
60
0
100
AcDbLine
10
-69.517153
20
-5.9375
30
0
11
-79.267153
21
-5.9375
31
0
39
0
210
0
220
0
230
1
0
LINE
5
EE
100
AcDbEntity
8
SK2
62
256
6
ByLayer
370
-1
48
1
60
0
100
AcDbLine
10
-77.267153
20
17.1875
30
0
11
-77.267153
21
-17.1875
31
0
39
0
210
0
220
0
230
1
0
LINE
5
EF
100
AcDbEntity
8
SK2
62
256
6
ByLayer
370
-1
48
1
60
0
100
AcDbLine
10
-77.267153
20
5.9375
30
0
11
-77.685149
21
9.112498
31
0
39
0
210
0
220
0
230
1
0
LINE
5
F0
100
AcDbEntity
8
SK2
62
256
6
ByLayer
370
-1
48
1
60
0
100
AcDbLine
10
-77.267153
20
5.9375
30
0
11
-76.849156
21
9.112502
31
0
39
0
210
0
220
0
230
1
0
LINE
5
F1
100
AcDbEntity
8
SK2
62
256
6
ByLayer
370
-1
48
1
60
0
100
AcDbLine
10
-77.685149
20
9.112498
30
0
11
-76.849156
21
9.112502
31
0
39
0
210
0
220
0
230
1
0
LINE
5
F2
100
AcDbEntity
8
SK2
62
256
6
ByLayer
370
-1
48
1
60
0
100
AcDbLine
10
-77.267153
20
-5.9375
30
0
11
-76.849156
21
-9.112498
31
0
39
0
210
0
220
0
230
1
0
LINE
5
F3
100
AcDbEntity
8
SK2
62
256
6
ByLayer
370
-1
48
1
60
0
100
AcDbLine
10
-77.267153
20
-5.9375
30
0
11
-77.685149
21
-9.112502
31
0
39
0
210
0
220
0
230
1
0
LINE
5
F4
100
AcDbEntity
8
SK2
62
256
6
ByLayer
370
-1
48
1
60
0
100
AcDbLine
10
-76.849156
20
-9.112498
30
0
11
-77.685149
21
-9.112502
31
0
39
0
210
0
220
0
230
1
0
ENDBLK
5
F6
100
AcDbEntity
8
0
100
AcDbBlockEnd
0
ENDSEC
0
SECTION
2
ENTITIES
0
ARC
5
66
100
AcDbEntity
8
1
62
256
6
ByLayer
370
-1
48
1
60
0
100
AcDbCircle
39
0
10
-4.974924
20
-5.350855
30
0
40
1.05000000000009
210
0
220
0
230
-1
100
AcDbArc
50
229.911654
51
275.602037
0
ARC
5
67
100
AcDbEntity
8
1
62
256
6
ByLayer
370
-1
48
1
60
0
100
AcDbCircle
39
0
10
6.151756
20
-6.14447
30
0
40
1.25
210
0
220
0
230
1
100
AcDbArc
50
211
51
301
0
ARC
5
68
100
AcDbEntity
8
1
62
256
6
ByLayer
370
-1
48
1
60
0
100
AcDbCircle
39
0
10
4.974924
20
-5.350855
30
0
40
1.05000000000009
210
0
220
0
230
1
100
AcDbArc
50
51.926768
51
264.397963
0
ARC
5
69
100
AcDbEntity
8
1
62
256
6
ByLayer
370
-1
48
1
60
0
100
AcDbCircle
39
0
10
6.048748
20
-5.973037
30
0
40
1.25
210
0
220
0
230
1
100
AcDbArc
50
199.769869
51
211
0
ARC
5
6B
100
AcDbEntity
8
1
62
256
6
ByLayer
370
-1
48
1
60
0
100
AcDbCircle
39
0
10
-10.574292
20
-5.252989
30
0
40
0.747999999999998
210
0
220
0
230
-1
100
AcDbArc
50
29.024579
51
88.975421
0
ARC
5
6E
100
AcDbEntity
8
1
62
256
6
ByLayer
370
-1
48
1
60
0
100
AcDbCircle
39
0
10
10.574292
20
-5.252989
30
0
40
1.035
210
0
220
0
230
1
100
AcDbArc
50
241.049159
51
301
0
ARC
5
6F
100
AcDbEntity
8
1
62
256
6
ByLayer
370
-1
48
1
60
0
100
AcDbCircle
39
0
10
-10.574292
20
-5.252989
30
0
40
0.747999999999998
210
0
220
0
230
-1
100
AcDbArc
50
88.975421
51
146.838153
0
ARC
5
70
100
AcDbEntity
8
1
62
256
6
ByLayer
370
-1
48
1
60
0
100
AcDbCircle
39
0
10
5.018888
20
-5.349959
30
0
40
0.396874999999992
210
0
220
0
230
1
100
AcDbArc
50
121
51
241
0
ARC
5
71
100
AcDbEntity
8
1
62
256
6
ByLayer
370
-1
48
1
60
0
100
AcDbCircle
39
0
10
10.574292
20
-5.252989
30
0
40
1.035
210
0
220
0
230
1
100
AcDbArc
50
121
51
180.950841
0
ARC
5
72
100
AcDbEntity
8
1
62
256
6
ByLayer
370
-1
48
1
60
0
100
AcDbCircle
39
0
10
13.435972
20
-10.015625
30
0
40
0.396874999999992
210
0
220
0
230
1
100
AcDbArc
50
241
51
1
0
ARC
5
73
100
AcDbEntity
8
1
62
256
6
ByLayer
370
-1
48
1
60
0
100
AcDbCircle
39
0
10
10.574292
20
-5.252989
30
0
40
1.035
210
0
220
0
230
1
100
AcDbArc
50
301
51
0.950841
0
ARC
5
74
100
AcDbEntity
8
1
62
256
6
ByLayer
370
-1
48
1
60
0
100
AcDbCircle
39
0
10
13.268015
20
-0.393383
30
0
40
0.396874999999992
210
0
220
0
230
1
100
AcDbArc
50
1
51
121
0
ARC
5
75
100
AcDbEntity
8
1
62
256
6
ByLayer
370
-1
48
1
60
0
100
AcDbCircle
39
0
10
-10.574292
20
-5.252989
30
0
40
0.747999999999992
210
0
220
0
230
-1
100
AcDbArc
50
268.975421
51
326.838153
0
ARC
5
77
100
AcDbEntity
8
1
62
256
6
ByLayer
370
-1
48
1
60
0
100
AcDbCircle
39
0
10
10.574292
20
-5.252989
30
0
40
0.747999999999998
210
0
220
0
230
1
100
AcDbArc
50
208.838153
51
213.161847
0
ARC
5
78
100
AcDbEntity
8
1
62
256
6
ByLayer
370
-1
48
1
60
0
100
AcDbCircle
39
0
10
10.574292
20
-5.252989
30
0
40
1.035
210
0
220
0
230
1
100
AcDbArc
50
61.049159
51
121
0
ARC
5
7A
100
AcDbEntity
8
1
62
256
6
ByLayer
370
-1
48
1
60
0
100
AcDbCircle
39
0
10
-10.574292
20
-5.252989
30
0
40
0.747999999999998
210
0
220
0
230
-1
100
AcDbArc
50
209.024579
51
268.975421
0
ARC
5
7B
100
AcDbEntity
8
1
62
256
6
ByLayer
370
-1
48
1
60
0
100
AcDbCircle
39
0
10
-10.574292
20
-5.252989
30
0
40
0.747999999999998
210
0
220
0
230
-1
100
AcDbArc
50
331.161847
51
29.024579
0
ARC
5
7C
100
AcDbEntity
8
1
62
256
6
ByLayer
370
-1
48
1
60
0
100
AcDbCircle
39
0
10
-10.574292
20
-5.252989
30
0
40
0.747999999999998
210
0
220
0
230
-1
100
AcDbArc
50
151.161847
51
209.024579
0
ARC
5
7D
100
AcDbEntity
8
1
62
256
6
ByLayer
370
-1
48
1
60
0
100
AcDbCircle
39
0
10
10.574292
20
-5.252989
30
0
40
1.035
210
0
220
0
230
1
100
AcDbArc
50
180.950841
51
241.049159
0
ARC
5
7E
100
AcDbEntity
8
1
62
256
6
ByLayer
370
-1
48
1
60
0
100
AcDbCircle
39
0
10
10.574292
20
-5.252989
30
0
40
0.747999999999998
210
0
220
0
230
1
100
AcDbArc
50
28.838153
51
33.161847
0
ARC
5
7F
100
AcDbEntity
8
1
62
256
6
ByLayer
370
-1
48
1
60
0
100
AcDbCircle
39
0
10
10.574292
20
-5.252989
30
0
40
1.035
210
0
220
0
230
1
100
AcDbArc
50
0.950841
51
61.049159
0
CIRCLE
5
6A
100
AcDbEntity
8
1
62
256
6
ByLayer
370
-1
48
1
60
0
100
AcDbCircle
10
10.574292
20
-5.252989
30
0
40
1.88122167929293
39
0
210
0
220
0
230
1
0
CIRCLE
5
6C
100
AcDbEntity
8
1
62
256
6
ByLayer
370
-1
48
1
60
0
100
AcDbCircle
10
-10.574292
20
-5.252989
30
0
40
1.80141464041837
39
0
210
0
220
0
230
-1
0
CIRCLE
5
6D
100
AcDbEntity
8
1
62
256
6
ByLayer
370
-1
48
1
60
0
100
AcDbCircle
10
10.574292
20
-5.252989
30
0
40
1.3
39
0
210
0
220
0
230
1
0
CIRCLE
5
76
100
AcDbEntity
8
1
62
256
6
ByLayer
370
-1
48
1
60
0
100
AcDbCircle
10
10.574292
20
-5.252989
30
0
40
1.725
39
0
210
0
220
0
230
1
0
CIRCLE
5
79
100
AcDbEntity
8
1
62
256
6
ByLayer
370
-1
48
1
60
0
100
AcDbCircle
10
10.574292
20
-5.252989
30
0
40
1.90468944117779
39
0
210
0
220
0
230
1
0
POINT
5
41
100
AcDbEntity
8
SK2
62
256
6
ByLayer
370
-1
48
1
60
0
100
AcDbPoint
10
13.832847
20
22.2875
30
0
39
0
210
0
220
0
230
1
50
360
0
POINT
5
43
100
AcDbEntity
8
80
62
256
6
ByLayer
370
-1
48
1
60
0
100
AcDbPoint
10
0
20
0
30
0
39
0
210
0
220
0
230
1
50
360
0
POINT
5
45
100
AcDbEntity
8
SK2
62
256
6
ByLayer
370
-1
48
1
60
0
100
AcDbPoint
10
13.832847
20
22.2875
30
0
39
0
210
0
220
0
230
1
50
360
0
POINT
5
46
100
AcDbEntity
8
81
62
256
6
ByLayer
370
-1
48
1
60
0
100
AcDbPoint
10
13.832847
20
-10.4125
30
0
39
0
210
0
220
0
230
1
50
360
0
POINT
5
48
100
AcDbEntity
8
2
62
256
6
ByLayer
370
-1
48
1
60
0
100
AcDbPoint
10
13.832847
20
22.2875
30
0
39
0
210
0
220
0
230
1
50
360
0
POINT
5
4A
100
AcDbEntity
8
SK2
62
256
6
ByLayer
370
-1
48
1
60
0
100
AcDbPoint
10
13.832847
20
22.2875
30
0
39
0
210
0
220
0
230
1
50
360
0
POINT
5
4B
100
AcDbEntity
8
SK2
62
256
6
ByLayer
370
-1
48
1
60
0
100
AcDbPoint
10
13.832847
20
22.2875
30
0
39
0
210
0
220
0
230
1
50
360
0
SPLINE
5
80
100
AcDbEntity
8
1
62
256
6
ByLayer
370
-1
48
1
60
0
100
AcDbSpline
70
4
71
3
72
14
73
10
40
0
40
0
40
0
40
0
40
0.284214113375219
40
0.284214113375219
40
0.571466113317752
40
0.571466113317752
40
0.831759619916142
40
0.831759619916142
40
1
40
1
40
1
40
1
41
1
10
10.2946188882307
20
-6.12661450726148
30
0
41
1
10
10.2797819224702
20
-6.14167221472101
30
0
41
1
10
10.2618290160755
20
-6.15459943915781
30
0
41
1
10
10.2218999976531
20
-6.17348598129044
30
0
41
1
10
10.1992488033535
20
-6.17962556404439
30
0
41
1
10
10.1551719423966
20
-6.18280149568088
30
0
41
1
10
10.1331642495416
20
-6.18064874716725
30
0
41
1
10
10.0988707362588
20
-6.17092268569257
30
0
41
1
10
10.0856353474645
20
-6.16547958055781
30
0
41
1
10
10.0732908707972
20
-6.15865076440761
30
0
0
SPLINE
5
81
100
AcDbEntity
8
1
62
256
6
ByLayer
370
-1
48
1
60
0
100
AcDbSpline
70
4
71
3
72
12
73
8
40
0
40
0
40
0
40
0
40
0.464587229625146
40
0.464587229625146
40
0.846563774040652
40
0.846563774040652
40
1
40
1
40
1
40
1
41
1
10
11.4704209529027
20
-5.05975731071092
30
0
41
1
10
11.4283728648898
20
-5.04890153659966
30
0
41
1
10
11.3865953400778
20
-5.03108441382392
30
0
41
1
10
11.3162407663074
20
-4.98593719289462
30
0
41
1
10
11.2858968921023
20
-4.96026897263272
30
0
41
1
10
11.2489390894832
20
-4.91842467176039
30
0
41
1
10
11.2388450618846
20
-4.90558782583116
30
0
41
1
10
11.2295292691903
20
-4.89220104026006
30
0
0
SPLINE
5
82
100
AcDbEntity
8
1
62
256
6
ByLayer
370
-1
48
1
60
0
100
AcDbSpline
70
4
71
3
72
16
73
12
40
0
40
0
40
0
40
0
40
0.0666413718049793
40
0.0666413718049793
40
0.290636213332644
40
0.290636213332644
40
0.517598850793152
40
0.517598850793152
40
0.759084400335464
40
0.759084400335464
40
1
40
1
40
1
40
1
41
1
10
10.0732908707972
20
-6.15865076440761
30
0
41
1
10
10.0683710151774
20
-6.15592915940007
30
0
41
1
10
10.0635693797208
20
-6.15297915313795
30
0
41
1
10
10.0434003416114
20
-6.13928495464751
30
0
41
1
10
10.0293829845952
20
-6.12620950918497
30
0
41
1
10
10.006268168144
20
-6.09707065769155
30
0
41
1
10
9.99693233111987
20
-6.08060825788283
30
0
41
1
10
9.98337399478072
20
-6.04565510008499
30
0
41
1
10
9.97932825041261
20
-6.02667132378067
30
0
41
1
10
9.97705056715211
20
-5.98953845764362
30
0
41
1
10
9.97876499129626
20
-5.97099574962584
30
0
41
1
10
9.98297128171291
20
-5.95350724091435
30
0
0
SPLINE
5
83
100
AcDbEntity
8
1
62
256
6
ByLayer
370
-1
48
1
60
0
100
AcDbSpline
70
4
71
3
72
16
73
12
40
0
40
0
40
0
40
0
40
0.067055515334815
40
0.067055515334815
40
0.291696770276397
40
0.291696770276397
40
0.519326817999893
40
0.519326817999893
40
0.761531969872382
40
0.761531969872382
40
1
40
1
40
1
40
1
41
1
10
10.0412275655029
20
-4.3658210292472
30
0
41
1
10
10.0460627798188
20
-4.36291573938016
30
0
41
1
10
10.0510374328547
20
-4.36022856823203
30
0
41
1
10
10.0730099815675
20
-4.34962634207182
30
0
41
1
10
10.0913481804496
20
-4.34404604493969
30
0
41
1
10
10.1281464065238
20
-4.33863975942222
30
0
41
1
10
10.1470711406597
20
-4.33880767531514
30
0
41
1
10
10.1841149277657
20
-4.34458517474238
30
0
41
1
10
10.202572024787
20
-4.35059496331226
30
0
41
1
10
10.2356367229801
20
-4.36712123204828
30
0
41
1
10
10.2506479166939
20
-4.37772398193798
30
0
41
1
10
10.2635595657867
20
-4.38992278691694
30
0
0
SPLINE
5
84
100
AcDbEntity
8
1
62
256
6
ByLayer
370
-1
48
1
60
0
100
AcDbSpline
70
4
71
3
72
14
73
10
40
0
40
0
40
0
40
0
40
0.28421411337552
40
0.28421411337552
40
0.571466113318036
40
0.571466113318036
40
0.831759619916393
40
0.831759619916393
40
1
40
1
40
1
40
1
41
1
10
10.8539650578389
20
-4.37936386368628
30
0
41
1
10
10.8688020235994
20
-4.36430615622672
30
0
41
1
10
10.8867549299941
20
-4.35137893178992
30
0
41
1
10
10.9266839484165
20
-4.33249238965729
30
0
41
1
10
10.9493351427161
20
-4.32635280690337
30
0
41
1
10
10.993412003673
20
-4.32317687526688
30
0
41
1
10
11.015419696528
20
-4.3253296237805
30
0
41
1
10
11.0497132098108
20
-4.33505568525521
30
0
41
1
10
11.0629485986051
20
-4.34049879038994
30
0
41
1
10
11.0752930752723
20
-4.34732760654012
30
0
0
SPLINE
5
85
100
AcDbEntity
8
1
62
256
6
ByLayer
370
-1
48
1
60
0
100
AcDbSpline
70
4
71
3
72
18
73
14
40
0
40
0
40
0
40
0
40
0.213393351500918
40
0.213393351500918
40
0.389003400511539
40
0.389003400511539
40
0.566251726303662
40
0.566251726303662
40
0.721174807036513
40
0.721174807036513
40
0.927415550665674
40
0.927415550665674
40
1
40
1
40
1
40
1
41
1
10
9.95812960279048
20
-4.57344362355238
30
0
41
1
10
9.96962481239973
20
-4.61525108298224
30
0
41
1
10
9.97496820830133
20
-4.66028506159293
30
0
41
1
10
9.97087287630086
20
-4.74368834538419
30
0
41
1
10
9.96373866901968
20
-4.78276241078666
30
0
41
1
10
9.93828226983896
20
-4.85814171025021
30
0
41
1
10
9.91937662237552
20
-4.89548890988291
30
0
41
1
10
9.87584981375346
20
-4.95727243177137
30
0
41
1
10
9.85177495172516
20
-4.98351041165037
30
0
41
1
10
9.79164915821187
20
-5.03506944419968
30
0
41
1
10
9.75332591676593
20
-5.05821951757335
30
0
41
1
10
9.70010120691376
20
-5.08048220792884
30
0
41
1
10
9.68591957201011
20
-5.08552938929725
30
0
41
1
10
9.67162803790973
20
-5.08978361738011
30
0
0
SPLINE
5
86
100
AcDbEntity
8
1
62
256
6
ByLayer
370
-1
48
1
60
0
100
AcDbSpline
70
4
71
3
72
14
73
10
40
0
40
0
40
0
40
0
40
0.284029784591408
40
0.284029784591408
40
0.570744394825745
40
0.570744394825745
40
0.830520249562046
40
0.830520249562046
40
1
40
1
40
1
40
1
41
1
10
9.67816299316689
20
-5.44622106023681
30
0
41
1
10
9.65765635504332
20
-5.44092675455559
30
0
41
1
10
9.63743272264242
20
-5.43185431383768
30
0
41
1
10
9.60103888440904
20
-5.40672665192423
30
0
41
1
10
9.58436860452514
20
-5.39018541605563
30
0
41
1
10
9.55953222872418
20
-5.35359889007208
30
0
41
1
10
9.55037101503245
20
-5.33345650991427
30
0
41
1
10
9.54158719844006
20
-5.29874718512514
30
0
41
1
10
9.539670983316
20
-5.28441375359603
30
0
41
1
10
9.53943449154553
20
-5.27016454589702
30
0
0
SPLINE
5
87
100
AcDbEntity
8
1
62
256
6
ByLayer
370
-1
48
1
60
0
100
AcDbSpline
70
4
71
3
72
18
73
14
40
0
40
0
40
0
40
0
40
0.213304222387466
40
0.213304222387466
40
0.388929590748942
40
0.388929590748942
40
0.566194280466941
40
0.566194280466941
40
0.721120102126087
40
0.721120102126087
40
0.927344761534664
40
0.927344761534664
40
1
40
1
40
1
40
1
41
1
10
10.8539650578389
20
-4.37936386368628
30
0
41
1
10
10.8235455500794
20
-4.41023594739261
30
0
41
1
10
10.7872579633611
20
-4.43740161427473
30
0
41
1
10
10.7130350997729
20
-4.47562224215983
30
0
41
1
10
10.6756397975908
20
-4.48901868351257
30
0
41
1
10
10.597640813289
20
-4.50473989503277
30
0
41
1
10
10.5558427398666
20
-4.50708143131709
30
0
41
1
10
10.4805619169659
20
-4.50034914519628
30
0
41
1
10
10.4457931231523
20
-4.49265142265432
30
0
41
1
10
10.3710553691221
20
-4.46643154648598
30
0
41
1
10
10.3318268148189
20
-4.44485632699803
30
0
41
1
10
10.2858908573305
20
-4.40993037981036
30
0
41
1
10
10.2744089167813
20
-4.40017315199268
30
0
41
1
10
10.2635595657867
20
-4.38992278691691
30
0
0
SPLINE
5
88
100
AcDbEntity
8
1
62
256
6
ByLayer
370
-1
48
1
60
0
100
AcDbSpline
70
4
71
3
72
14
73
10
40
0
40
0
40
0
40
0
40
0.284029784591542
40
0.284029784591542
40
0.57074439482594
40
0.57074439482594
40
0.830520249562266
40
0.830520249562266
40
1
40
1
40
1
40
1
41
1
10
11.4704209529027
20
-5.05975731071092
30
0
41
1
10
11.4909275910263
20
-5.06505161639217
30
0
41
1
10
11.5111512234272
20
-5.07412405711008
30
0
41
1
10
11.5475450616606
20
-5.09925171902356
30
0
41
1
10
11.5642153415445
20
-5.11579295489216
30
0
41
1
10
11.5890517173454
20
-5.15237948087571
30
0
41
1
10
11.5982129310371
20
-5.17252186103352
30
0
41
1
10
11.6069967476295
20
-5.20723118582265
30
0
41
1
10
11.6089129627536
20
-5.22156461735173
30
0
41
1
10
11.6091494545241
20
-5.23581382505074
30
0
0
SPLINE
5
89
100
AcDbEntity
8
1
62
256
6
ByLayer
370
-1
48
1
60
0
100
AcDbSpline
70
4
71
3
72
12
73
8
40
0
40
0
40
0
40
0
40
0.377026888025275
40
0.377026888025275
40
0.76105757750498
40
0.76105757750498
40
1
40
1
40
1
40
1
41
1
10
9.94811967126464
20
-5.66214960449781
30
0
41
1
10
9.96616160153977
20
-5.69730647950948
30
0
41
1
10
9.97915728703381
20
-5.73524535678024
30
0
41
1
10
9.99415333437898
20
-5.81066871220861
30
0
41
1
10
9.9962428687449
20
-5.84913107643035
30
0
41
1
10
9.99182251500983
20
-5.90895927064201
30
0
41
1
10
9.98824233585236
20
-5.93159176026404
30
0
41
1
10
9.98297128171293
20
-5.95350724091435
30
0
0
SPLINE
5
8A
100
AcDbEntity
8
1
62
256
6
ByLayer
370
-1
48
1
60
0
100
AcDbSpline
70
4
71
3
72
16
73
12
40
0
40
0
40
0
40
0
40
0.0670555153347166
40
0.0670555153347166
40
0.291696770276475
40
0.291696770276475
40
0.519326817999972
40
0.519326817999972
40
0.761531969872519
40
0.761531969872519
40
1
40
1
40
1
40
1
41
1
10
11.1073563805667
20
-6.14015734170056
30
0
41
1
10
11.1025211662507
20
-6.1430626315676
30
0
41
1
10
11.0975465132148
20
-6.14574980271573
30
0
41
1
10
11.0755739645021
20
-6.15635202887592
30
0
41
1
10
11.0572357656199
20
-6.16193232600807
30
0
41
1
10
11.0204375395457
20
-6.16733861152554
30
0
41
1
10
11.0015128054099
20
-6.16717069563262
30
0
41
1
10
10.9644690183039
20
-6.16139319620535
30
0
41
1
10
10.9460119212825
20
-6.1553834076355
30
0
41
1
10
10.9129472230895
20
-6.13885713889948
30
0
41
1
10
10.8979360293757
20
-6.12825438900981
30
0
41
1
10
10.8850243802829
20
-6.11605558403085
30
0
0
SPLINE
5
8B
100
AcDbEntity
8
1
62
256
6
ByLayer
370
-1
48
1
60
0
100
AcDbSpline
70
4
71
3
72
12
73
8
40
0
40
0
40
0
40
0
40
0.377026887851859
40
0.377026887851859
40
0.761057577303294
40
0.761057577303294
40
1
40
1
40
1
40
1
41
1
10
11.2004642748051
20
-4.84382876645014
30
0
41
1
10
11.1824223445382
20
-4.80867189145457
30
0
41
1
10
11.1694266590476
20
-4.77073301420259
30
0
41
1
10
11.1544306116965
20
-4.69530965879409
30
0
41
1
10
11.1523410773257
20
-4.65684729457431
30
0
41
1
10
11.1567614310538
20
-4.59701910034386
30
0
41
1
10
11.1603416102128
20
-4.57438661070213
30
0
41
1
10
11.1656126643567
20
-4.55247113003341
30
0
0
SPLINE
5
8C
100
AcDbEntity
8
1
62
256
6
ByLayer
370
-1
48
1
60
0
100
AcDbSpline
70
4
71
3
72
18
73
14
40
0
40
0
40
0
40
0
40
0.213304222387452
40
0.213304222387452
40
0.388929590748916
40
0.388929590748916
40
0.566194280466901
40
0.566194280466901
40
0.721120102126033
40
0.721120102126033
40
0.927344761534587
40
0.927344761534587
40
1
40
1
40
1
40
1
41
1
10
10.2946188882307
20
-6.12661450726148
30
0
41
1
10
10.3250383959902
20
-6.09574242355515
30
0
41
1
10
10.3613259827085
20
-6.06857675667302
30
0
41
1
10
10.4355488462966
20
-6.03035612878793
30
0
41
1
10
10.4729441484787
20
-6.01695968743519
30
0
41
1
10
10.5509431327806
20
-6.00123847591499
30
0
41
1
10
10.592741206203
20
-5.99889693963067
30
0
41
1
10
10.6680220291036
20
-6.00562922575148
30
0
41
1
10
10.7027908229173
20
-6.01332694829341
30
0
41
1
10
10.7775285769474
20
-6.03954682446178
30
0
41
1
10
10.8167571312507
20
-6.06112204394969
30
0
41
1
10
10.862693088739
20
-6.0960479911374
30
0
41
1
10
10.8741750292883
20
-6.10580521895508
30
0
41
1
10
10.8850243802829
20
-6.11605558403085
30
0
0
SPLINE
5
8D
100
AcDbEntity
8
1
62
256
6
ByLayer
370
-1
48
1
60
0
100
AcDbSpline
70
4
71
3
72
12
73
8
40
0
40
0
40
0
40
0
40
0.464587229624983
40
0.464587229624983
40
0.84656377404032
40
0.84656377404032
40
1
40
1
40
1
40
1
41
1
10
9.67816299316689
20
-5.44622106023684
30
0
41
1
10
9.7202110811798
20
-5.4570768343481
30
0
41
1
10
9.76198860599186
20
-5.47489395712384
30
0
41
1
10
9.83234317976221
20
-5.52004117805316
30
0
41
1
10
9.86268705396731
20
-5.54570939831507
30
0
41
1
10
9.89964485658638
20
-5.58755369918731
30
0
41
1
10
9.90973888418492
20
-5.60039054511648
30
0
41
1
10
9.91905467687917
20
-5.6137773306875
30
0
0
SPLINE
5
8E
100
AcDbEntity
8
1
62
256
6
ByLayer
370
-1
48
1
60
0
100
AcDbSpline
70
4
71
3
72
16
73
12
40
0
40
0
40
0
40
0
40
0.0652293074050233
40
0.0652293074050233
40
0.289887071400526
40
0.289887071400526
40
0.517431161144968
40
0.517431161144968
40
0.759466476190825
40
0.759466476190825
40
1
40
1
40
1
40
1
41
1
10
9.53943449154553
20
-5.27016454589702
30
0
41
1
10
9.5393434115874
20
-5.26467675561128
30
0
41
1
10
9.53949713738666
20
-5.2591782829096
30
0
41
1
10
9.54125158545719
20
-5.23499386697264
30
0
41
1
10
9.54555937808078
20
-5.21631034880866
30
0
41
1
10
9.5592245814718
20
-5.18171481837703
30
0
41
1
10
9.56880630477221
20
-5.16539546228884
30
0
41
1
10
9.59228127882608
20
-5.13617265204749
30
0
41
1
10
9.60668868134235
20
-5.12317417782862
30
0
41
1
10
9.63762718929672
20
-5.10266630676654
30
0
41
1
10
9.65446049820105
20
-5.09489395956095
30
0
41
1
10
9.67162803790973
20
-5.08978361738011
30
0
0
SPLINE
5
8F
100
AcDbEntity
8
1
62
256
6
ByLayer
370
-1
48
1
60
0
100
AcDbSpline
70
4
71
3
72
16
73
12
40
0
40
0
40
0
40
0
40
0.0666413718052886
40
0.0666413718052886
40
0.290636213332931
40
0.290636213332931
40
0.517598850793487
40
0.517598850793487
40
0.759084400335791
40
0.759084400335791
40
1
40
1
40
1
40
1
41
1
10
11.0752930752723
20
-4.34732760654012
30
0
41
1
10
11.0802129308922
20
-4.35004921154771
30
0
41
1
10
11.0850145663488
20
-4.35299921780984
30
0
41
1
10
11.1051836044582
20
-4.36669341630031
30
0
41
1
10
11.1192009614744
20
-4.37976886176284
30
0
41
1
10
11.1423157779255
20
-4.40890771325627
30
0
41
1
10
11.1516516149497
20
-4.42537011306499
30
0
41
1
10
11.1652099512889
20
-4.46032327086283
30
0
41
1
10
11.1692556956569
20
-4.47930704716717
30
0
41
1
10
11.1715333789175
20
-4.5164399133042
30
0
41
1
10
11.1698189547733
20
-4.53498262132194
30
0
41
1
10
11.1656126643566
20
-4.55247113003338
30
0
0
SPLINE
5
90
100
AcDbEntity
8
1
62
256
6
ByLayer
370
-1
48
1
60
0
100
AcDbSpline
70
4
71
3
72
14
73
10
40
0
40
0
40
0
40
0
40
0.284519992000804
40
0.284519992000804
40
0.571733712094361
40
0.571733712094361
40
0.831996820384301
40
0.831996820384301
40
1
40
1
40
1
40
1
41
1
10
11.1904543432791
20
-5.93253474739538
30
0
41
1
10
11.1960647450257
20
-5.95293947696362
30
0
41
1
10
11.1982633097431
20
-5.97497849227403
30
0
41
1
10
11.194598285535
20
-6.01901939962482
30
0
41
1
10
11.1885623444298
20
-6.04169618210543
30
0
41
1
10
11.169227922469
20
-6.0814288261011
30
0
41
1
10
11.1563393871548
20
-6.0993945207976
30
0
41
1
10
11.1307559137396
20
-6.12418525112508
30
0
41
1
10
11.119431802911
20
-6.13290169595572
30
0
41
1
10
11.1073563805667
20
-6.14015734170056
30
0
0
SPLINE
5
91
100
AcDbEntity
8
1
62
256
6
ByLayer
370
-1
48
1
60
0
100
AcDbSpline
70
4
71
3
72
18
73
14
40
0
40
0
40
0
40
0
40
0.213393351500915
40
0.213393351500915
40
0.389003400511531
40
0.389003400511531
40
0.566251726303657
40
0.566251726303657
40
0.721174807036483
40
0.721174807036483
40
0.927415550665633
40
0.927415550665633
40
1
40
1
40
1
40
1
41
1
10
11.1904543432791
20
-5.93253474739538
30
0
41
1
10
11.1789591336698
20
-5.89072728796552
30
0
41
1
10
11.1736157377682
20
-5.84569330935483
30
0
41
1
10
11.1777110697687
20
-5.76229002556357
30
0
41
1
10
11.1848452770499
20
-5.7232159601611
30
0
41
1
10
11.2103016762306
20
-5.64783666069755
30
0
41
1
10
11.229207323694
20
-5.61048946106484
30
0
41
1
10
11.2727341323162
20
-5.54870593917639
30
0
41
1
10
11.2968089943444
20
-5.52246795929739
30
0
41
1
10
11.3569347878577
20
-5.47090892674808
30
0
41
1
10
11.3952580293036
20
-5.44775885337441
30
0
41
1
10
11.4484827391558
20
-5.42549616301889
30
0
41
1
10
11.4626643740595
20
-5.42044898165048
30
0
41
1
10
11.4769559081599
20
-5.41619475356765
30
0
0
SPLINE
5
92
100
AcDbEntity
8
1
62
256
6
ByLayer
370
-1
48
1
60
0
100
AcDbSpline
70
4
71
3
72
14
73
10
40
0
40
0
40
0
40
0
40
0.284519992000847
40
0.284519992000847
40
0.571733712094408
40
0.571733712094408
40
0.83199682038435
40
0.83199682038435
40
1
40
1
40
1
40
1
41
1
10
9.95812960279045
20
-4.57344362355238
30
0
41
1
10
9.95251920104386
20
-4.55303889398414
30
0
41
1
10
9.95032063632647
20
-4.53099987867373
30
0
41
1
10
9.95398566053456
20
-4.48695897132291
30
0
41
1
10
9.96002160163977
20
-4.46428218884233
30
0
41
1
10
9.97935602360056
20
-4.42454954484666
30
0
41
1
10
9.99224455891476
20
-4.40658385015016
30
0
41
1
10
10.0178280323299
20
-4.38179311982267
30
0
41
1
10
10.0291521431585
20
-4.37307667499203
30
0
41
1
10
10.0412275655029
20
-4.3658210292472
30
0
0
SPLINE
5
93
100
AcDbEntity
8
1
62
256
6
ByLayer
370
-1
48
1
60
0
100
AcDbSpline
70
4
71
3
72
16
73
12
40
0
40
0
40
0
40
0
40
0.0652293074052369
40
0.0652293074052369
40
0.28988707140074
40
0.28988707140074
40
0.5174311611452
40
0.5174311611452
40
0.759466476191097
40
0.759466476191097
40
1
40
1
40
1
40
1
41
1
10
11.6091494545241
20
-5.23581382505074
30
0
41
1
10
11.6092405344822
20
-5.24130161533648
30
0
41
1
10
11.6090868086829
20
-5.24680008803819
30
0
41
1
10
11.6073323606124
20
-5.27098450397517
30
0
41
1
10
11.6030245679888
20
-5.28966802213913
30
0
41
1
10
11.5893593645978
20
-5.32426355257076
30
0
41
1
10
11.5797776412973
20
-5.34058290865894
30
0
41
1
10
11.5563026672435
20
-5.3698057189003
30
0
41
1
10
11.5418952647272
20
-5.38280419311917
30
0
41
1
10
11.5109567567728
20
-5.40331206418122
30
0
41
1
10
11.4941234478685
20
-5.41108441138681
30
0
41
1
10
11.4769559081599
20
-5.41619475356765
30
0
0
INSERT
5
C7
100
AcDbEntity
8
SK2
62
256
6
ByLayer
370
-1
48
1
60
0
100
AcDbBlockReference
2
DimnDraft3D11
10
0
20
0
30
0
41
1
42
1
43
1
50
0
210
0
220
0
230
1
0
LINE
5
4C
100
AcDbEntity
8
80
62
256
6
ByLayer
370
-1
48
1
60
0
100
AcDbLine
10
0
20
0
30
0
11
-5
21
0
31
0
39
0
210
0
220
0
230
1
0
LINE
5
4D
100
AcDbEntity
8
81
62
256
6
ByLayer
370
-1
48
1
60
0
100
AcDbLine
10
13.832847
20
-10.4125
30
0
11
23.832847
21
-10.4125
31
0
39
0
210
0
220
0
230
1
0
LINE
5
4E
100
AcDbEntity
8
1
62
256
6
ByLayer
370
-1
48
1
60
0
100
AcDbLine
10
5.000855
20
5.937037
30
0
11
12.964515
21
1.630949
31
0
39
0
210
0
220
0
230
1
0
LINE
5
50
100
AcDbEntity
8
1
62
256
6
ByLayer
370
-1
48
1
60
0
100
AcDbLine
10
12.964515
20
1.630949
30
0
11
12.994635
21
-0.094623
31
0
39
0
210
0
220
0
230
1
0
LINE
5
51
100
AcDbEntity
8
1
62
256
6
ByLayer
370
-1
48
1
60
0
100
AcDbLine
10
0
20
5.937037
30
0
11
0
21
-5.9375
31
0
39
0
210
0
220
0
230
1
0
LINE
5
52
100
AcDbEntity
8
1
62
256
6
ByLayer
370
-1
48
1
60
0
100
AcDbLine
10
5.080297
20
-6.788268
30
0
11
4.977289
21
-6.616834
31
0
39
0
210
0
220
0
230
1
0
LINE
5
53
100
AcDbEntity
8
1
62
256
6
ByLayer
370
-1
48
1
60
0
100
AcDbLine
10
0
20
5.937037
30
0
11
5.000855
21
5.937037
31
0
39
0
210
0
220
0
230
1
0
LINE
5
54
100
AcDbEntity
8
1
62
256
6
ByLayer
370
-1
48
1
60
0
100
AcDbLine
10
11.042245
20
-9.14253
30
0
11
11.049298
21
-9.546583
31
0
39
0
210
0
220
0
230
1
0
LINE
5
55
100
AcDbEntity
8
1
62
256
6
ByLayer
370
-1
48
1
60
0
100
AcDbLine
10
1
20
-5.9375
30
0
11
0
21
-5.9375
31
0
39
0
210
0
220
0
230
1
0
LINE
5
56
100
AcDbEntity
8
1
62
256
6
ByLayer
370
-1
48
1
60
0
100
AcDbLine
10
2.166643
20
-8.925447
30
0
11
1.5
21
-6.4375
31
0
39
0
210
0
220
0
230
1
0
LINE
5
57
100
AcDbEntity
8
1
62
256
6
ByLayer
370
-1
48
1
60
0
100
AcDbLine
10
1
20
-5.9375
30
0
11
1.5
21
-6.4375
31
0
39
0
210
0
220
0
230
1
0
LINE
5
58
100
AcDbEntity
8
1
62
256
6
ByLayer
370
-1
48
1
60
0
100
AcDbLine
10
11.049298
20
-9.546583
30
0
11
11.875393
21
-9.604349
31
0
39
0
210
0
220
0
230
1
0
LINE
5
59
100
AcDbEntity
8
1
62
256
6
ByLayer
370
-1
48
1
60
0
100
AcDbLine
10
11.049298
20
-9.546583
30
0
11
2.166643
21
-8.925447
31
0
39
0
210
0
220
0
230
1
0
LINE
5
5A
100
AcDbEntity
8
1
62
256
6
ByLayer
370
-1
48
1
60
0
100
AcDbLine
10
6.795553
20
-7.215929
30
0
11
7.165521
21
-6.99363
31
0
39
0
210
0
220
0
230
1
0
LINE
5
5B
100
AcDbEntity
8
1
62
256
6
ByLayer
370
-1
48
1
60
0
100
AcDbLine
10
4.814482
20
-5.009771
30
0
11
13.06361
21
-0.053195
31
0
39
0
210
0
220
0
230
1
0
LINE
5
5C
100
AcDbEntity
8
1
62
256
6
ByLayer
370
-1
48
1
60
0
100
AcDbLine
10
13.243563
20
-10.36274
30
0
11
4.826479
21
-5.697074
31
0
39
0
210
0
220
0
230
1
0
LINE
5
5D
100
AcDbEntity
8
SK1
62
256
6
ByLayer
370
-1
48
1
60
0
100
AcDbLine
10
-0.106
20
-5.9375
30
0
11
-0.106
21
5.9375
31
0
39
0
210
0
220
0
230
1
0
LINE
5
5F
100
AcDbEntity
8
1
62
256
6
ByLayer
370
-1
48
1
60
0
100
AcDbLine
10
13.66483
20
-0.386457
30
0
11
13.832787
21
-10.008699
31
0
39
0
210
0
220
0
230
1
0
LINE
5
60
100
AcDbEntity
8
SK1
62
256
6
ByLayer
370
-1
48
1
60
0
100
AcDbLine
10
0
20
-5.9375
30
0
11
0
21
5.937037
31
0
39
0
210
0
220
0
230
1
0
LINE
5
61
100
AcDbEntity
8
SK1
62
256
6
ByLayer
370
-1
48
1
60
0
100
AcDbLine
10
-67.517153
20
-5.9375
30
0
11
-67.517153
21
5.9375
31
0
39
0
210
0
220
0
230
1
0
LINE
5
62
100
AcDbEntity
8
SK1
62
256
6
ByLayer
370
-1
48
1
60
0
100
AcDbLine
10
-0.106
20
-5.9375
30
0
11
-67.517153
21
-5.9375
31
0
39
0
210
0
220
0
230
1
0
LINE
5
63
100
AcDbEntity
8
SK1
62
256
6
ByLayer
370
-1
48
1
60
0
100
AcDbLine
10
0
20
-5.9375
30
0
11
-0.106
21
-5.9375
31
0
39
0
210
0
220
0
230
1
0
LINE
5
64
100
AcDbEntity
8
SK1
62
256
6
ByLayer
370
-1
48
1
60
0
100
AcDbLine
10
-0.106
20
5.9375
30
0
11
0
21
5.937037
31
0
39
0
210
0
220
0
230
1
0
LINE
5
65
100
AcDbEntity
8
SK1
62
256
6
ByLayer
370
-1
48
1
60
0
100
AcDbLine
10
-67.517153
20
5.9375
30
0
11
-0.106
21
5.9375
31
0
39
0
210
0
220
0
230
1
0
MTEXT
5
94
100
AcDbEntity
8
SK6
62
256
6
ByLayer
370
-1
48
1
60
0
100
AcDbMText
10
-38.358399
20
16.395841
30
0
210
0
220
0
230
1
1
\W00.697;\fsimplex.shx,bigfont.shx;STFCL 1212F 11-B1 
40
3.5
41
0
44
1.084337
50
0
71
7
72
5
7
DEFAULT
0
DIMENSION
5
D4
100
AcDbEntity
8
2
62
256
6
ByLayer
370
-3
48
1
60
0
100
AcDbDimension
2
DimnDraft3D2
10
13.832787
20
-10.008699
30
0
11
18.028728
21
2.137316
31
0
70
34
71
5
72
1
41
1
210
0
220
0
230
1
3
Standard
100
AcDb2LineAngularDimension
13
13.039097
23
-10.4125
33
0
14
13.832847
24
-10.4125
34
0
15
13.640836
25
0.988149
35
0
16
23.748726
26
-0.329139
36
0
40
0
0
DIMENSION
5
E9
100
AcDbEntity
8
2
62
256
6
ByLayer
370
-3
48
1
60
0
100
AcDbDimension
2
DimnDraft3D3
10
41.082847
20
-10.4125
30
0
11
41.082847
21
-4.303947
31
0
70
32
71
5
72
1
41
1
210
0
220
0
230
1
3
Standard
100
AcDbAlignedDimension
13
2
23
5.9375
33
0
14
15.832847
24
-10.4125
34
0
50
90
100
AcDbRotatedDimension
1001
ACAD
1000
DSTYLE
1002
{
1070
    74
1070
     0
1070
   279
1070
     0
1070
   172
1070
     1
1070
   173
1070
     1
1070
   340
1005
95
1070
    77
1070
     1
1070
    73
1070
     0
1070
   171
1070
     3
1070
   274
1070
     4
1070
   177
1070
     2
1070
   176
1070
     2
1070
   178
1070
     7
1070
    78
1070
     8
1070
    41
1041
3.175
1070
   147
1041
2.25
1070
    42
1041
2.0
1070
    44
1041
2.0
1070
   140
1041
4.5
1070
   343
1005
D5
1070
   344
1005
D5
1002
}
0
DIMENSION
5
F7
100
AcDbEntity
8
SK2
62
256
6
ByLayer
370
-3
48
1
60
0
100
AcDbDimension
2
DimnDraft3D4
10
-77.267153
20
-5.9375
30
0
11
-77.267153
21
-2.066447
31
0
70
32
71
5
72
1
41
1
210
0
220
0
230
1
3
Standard
100
AcDbAlignedDimension
13
-69.517153
23
5.9375
33
0
14
-69.517153
24
-5.9375
34
0
50
90
100
AcDbRotatedDimension
1001
ACAD
1000
DSTYLE
1002
{
1070
    74
1070
     0
1070
   279
1070
     0
1070
   172
1070
     1
1070
   173
1070
     1
1070
   340
1005
95
1070
    77
1070
     1
1070
    73
1070
     0
1070
   171
1070
     3
1070
   274
1070
     4
1070
   177
1070
     2
1070
   176
1070
     2
1070
   178
1070
     7
1070
    78
1070
     8
1070
    41
1041
3.175
1070
   147
1041
2.25
1070
    42
1041
2.0
1070
    44
1041
2.0
1070
   140
1041
4.5
1070
   343
1005
D5
1070
   344
1005
D5
1002
}
0
ENDSEC
0
SECTION
2
OBJECTS
0
DICTIONARY
5
127
330
0
100
AcDbDictionary
280
0
281
1
3
ACAD_GROUP
350
128
3
ACAD_MLINESTYLE
350
129
0
DICTIONARY
5
128
330
0
100
AcDbDictionary
280
0
281
1
0
DICTIONARY
5
129
330
0
100
AcDbDictionary
280
0
281
1
3
Standard
350
18
0
MLINESTYLE
5
18
330
129
100
AcDbMlineStyle
2
Standard
70
0
3

62
256
51
90
52
90
71
2
49
-0.5
62
256
6
ByLayer
49
0.5
62
256
6
ByLayer
0
RASTERVARIABLES
5
116
330

100
AcDbRasterVariables
90
0
70
1
71
1
72
1
0
ENDSEC
0
EOF
