0
SECTION
2
HEADER
9
$ACADVER
1
AC1015
9
$DWGCODEPAGE
3
ANSI_1252
9
$HANDSEED
5
15b
9
$ANGBASE
50
0
9
$ANGDIR
70
0
9
$ATTMODE
70
1
9
$AUNITS
70
0
9
$AUPREC
70
0
9
$CECOLOR
62
256
9
$CELTSCALE
40
1
9
$CELTYPE
6
ByLayer
9
$CELWEIGHT
370
-1
9
$CLAYER
8
0
9
$CMLJUST
70
0
9
$CMLSCALE
40
1
9
$CMLSTYLE
2
Standard
9
$DIMSTYLE
2
Standard
9
$TEXTSIZE
40
0.2
9
$TEXTSTYLE
7
Standard
9
$LUNITS
70
2
9
$LUPREC
70
4
9
$EXTNAMES
290
1
9
$INSUNITS
70
4
9
$LTSCALE
40
1
9
$LWDISPLAY
290
0
9
$PDMODE
70
0
9
$PDSIZE
40
0
9
$PLINEGEN
70
0
0
ENDSEC
0
SECTION
2
CLASSES
0
CLASS
1
RASTERVARIABLES
2
AcDbRasterVariables
3
ISM
90
0
280
0
281
0
0
ENDSEC
0
SECTION
2
TABLES
0
TABLE
2
VPORT
5
151
100
AcDbSymbolTable
0
VPORT
5
1
100
AcDbSymbolTableRecord
100
AcDbViewportTableRecord
2
*Active
70
0
10
0
20
0
11
1
21
1
12
-1
22
1
13
0
23
0
14
0.5
24
0.5
15
10
25
10
16
0
26
0
36
1
17
0
27
0
37
0
0
ENDTAB
0
TABLE
2
LTYPE
5
152
100
AcDbSymbolTable
0
LTYPE
5
14
100
AcDbSymbolTableRecord
100
AcDbLinetypeTableRecord
70
0
2
ByBlock
3

72
65
73
0
40
0
0
LTYPE
5
15
100
AcDbSymbolTableRecord
100
AcDbLinetypeTableRecord
70
0
2
ByLayer
3

72
65
73
0
40
0
0
LTYPE
5
16
100
AcDbSymbolTableRecord
100
AcDbLinetypeTableRecord
70
0
2
CONTINUOUS
3
Solid line
72
65
73
0
40
0
0
LTYPE
5
3B
100
AcDbSymbolTableRecord
100
AcDbLinetypeTableRecord
70
0
2
DASHED
3
__ __ __ __ __ __ __ __ __
72
65
73
2
40
25.72
49
12.86
74
0
49
-12.86
74
0
0
LTYPE
5
3C
100
AcDbSymbolTableRecord
100
AcDbLinetypeTableRecord
70
0
2
HIDDEN
3
_ _ _ _ _ _ _ _ _ _ _ _ _ _ _
72
65
73
2
40
0.5
49
0.25
74
0
49
-0.25
74
0
0
LTYPE
5
3D
100
AcDbSymbolTableRecord
100
AcDbLinetypeTableRecord
70
0
2
PHANTOM
3
____ _ _ ____ _ _ _____ _ _ ____
72
65
73
6
40
50.5
49
18
74
0
49
-6.5
74
0
49
6.5
74
0
49
-6.5
74
0
49
6.5
74
0
49
-6.5
74
0
0
LTYPE
5
3E
100
AcDbSymbolTableRecord
100
AcDbLinetypeTableRecord
70
0
2
CENTER
3
____ _ ____ _ ____ _ ____
72
65
73
4
40
47.5
49
22
74
0
49
-8.5
74
0
49
8.5
74
0
49
-8.5
74
0
0
LTYPE
5
3F
100
AcDbSymbolTableRecord
100
AcDbLinetypeTableRecord
70
0
2
DOT
3
.........................
72
65
73
2
40
10
49
0
74
0
49
-10
74
0
0
LTYPE
5
40
100
AcDbSymbolTableRecord
100
AcDbLinetypeTableRecord
70
0
2
DASHDOT
3
_._._._._._._._._._._._._._._._.
72
65
73
4
40
70
49
31
74
0
49
-13
74
0
49
13
74
0
49
-13
74
0
0
ENDTAB
0
TABLE
2
LAYER
5
153
100
AcDbSymbolTable
0
LAYER
5
10
100
AcDbSymbolTableRecord
100
AcDbLayerTableRecord
2
0
70
0
62
7
6
CONTINUOUS
290
1
370
-3
390
0
0
LAYER
5
44
100
AcDbSymbolTableRecord
100
AcDbLayerTableRecord
2
80
70
0
62
-6
6
CONTINUOUS
290
1
370
-3
390
0
0
LAYER
5
49
100
AcDbSymbolTableRecord
100
AcDbLayerTableRecord
2
81
70
0
62
-3
6
CONTINUOUS
290
1
370
-3
390
0
0
LAYER
5
4B
100
AcDbSymbolTableRecord
100
AcDbLayerTableRecord
2
2
70
0
62
7
6
CONTINUOUS
290
1
370
-3
390
0
0
LAYER
5
4F
100
AcDbSymbolTableRecord
100
AcDbLayerTableRecord
2
1
70
0
62
4
6
CONTINUOUS
290
1
370
-3
390
0
0
LAYER
5
13e
100
AcDbSymbolTableRecord
100
AcDbLayerTableRecord
2
SK2
70
0
62
7
6
CONTINUOUS
290
1
370
-3
390
0
0
LAYER
5
13f
100
AcDbSymbolTableRecord
100
AcDbLayerTableRecord
2
SK1
70
0
62
4
6
CONTINUOUS
290
1
370
-3
390
0
0
LAYER
5
140
100
AcDbSymbolTableRecord
100
AcDbLayerTableRecord
2
SK6
70
0
62
5
6
CONTINUOUS
290
1
370
-3
390
0
0
ENDTAB
0
TABLE
2
STYLE
5
154
100
AcDbSymbolTable
0
STYLE
5
11
100
AcDbSymbolTableRecord
100
AcDbTextStyleTableRecord
2
Standard
3
txt
70
0
71
0
40
0
41
1
42
0
50
0
0
STYLE
5
9E
100
AcDbSymbolTableRecord
100
AcDbTextStyleTableRecord
2
DEFAULT
3
simplex.shx
70
0
71
0
40
0
41
1
42
0
50
0
0
STYLE
5
C1
100
AcDbSymbolTableRecord
100
AcDbTextStyleTableRecord
2
DWGDirectTextStyle
3
SIMPLEX
70
0
71
0
40
0
41
1
42
0
50
0
0
ENDTAB
0
TABLE
2
DIMSTYLE
5
155
100
AcDbSymbolTable
100
AcDbDimStyleTable
0
DIMSTYLE
105
27
100
AcDbSymbolTableRecord
100
AcDbDimStyleTableRecord
2
Standard
70
0
3
<>
41
0.18
42
0.0625
44
0.18
140
0.18
147
0.09
73
0
74
0
77
1
271
2
275
0
278
52
280
0
340
11
0
ENDTAB
0
TABLE
2
VIEW
5
156
100
AcDbSymbolTable
0
ENDTAB
0
TABLE
2
UCS
5
157
100
AcDbSymbolTable
0
ENDTAB
0
TABLE
2
APPID
5
158
100
AcDbSymbolTable
0
APPID
5
12
100
AcDbSymbolTableRecord
100
AcDbRegAppTableRecord
2
ACAD
70
0
0
ENDTAB
0
TABLE
2
BLOCK_RECORD
5
159
100
AcDbSymbolTable
0
BLOCK_RECORD
5
1F
100
AcDbSymbolTableRecord
100
AcDbBlockTableRecord
2
*Model_Space
340
0
70
0
0
BLOCK_RECORD
5
1B
100
AcDbSymbolTableRecord
100
AcDbBlockTableRecord
2
*Paper_Space
340
0
70
0
0
BLOCK_RECORD
5
23
100
AcDbSymbolTableRecord
100
AcDbBlockTableRecord
2
*Paper_Space0
340
0
70
0
0
BLOCK_RECORD
5
C3
100
AcDbSymbolTableRecord
100
AcDbBlockTableRecord
2
DimnDraft3D11
340
0
70
0
0
BLOCK_RECORD
5
D1
100
AcDbSymbolTableRecord
100
AcDbBlockTableRecord
2
DimnDraft3D2
340
0
70
0
0
BLOCK_RECORD
5
E0
100
AcDbSymbolTableRecord
100
AcDbBlockTableRecord
2
_CLOSED
340
0
70
0
0
BLOCK_RECORD
5
E7
100
AcDbSymbolTableRecord
100
AcDbBlockTableRecord
2
DimnDraft3D3
340
0
70
0
0
BLOCK_RECORD
5
F5
100
AcDbSymbolTableRecord
100
AcDbBlockTableRecord
2
DimnDraft3D4
340
0
70
0
0
BLOCK_RECORD
5
103
100
AcDbSymbolTableRecord
100
AcDbBlockTableRecord
2
DimnDraft3D5
340
0
70
0
0
BLOCK_RECORD
5
111
100
AcDbSymbolTableRecord
100
AcDbBlockTableRecord
2
DimnDraft3D6
340
0
70
0
0
ENDTAB
0
ENDSEC
0
SECTION
2
BLOCKS
0
BLOCK
5
20
100
AcDbEntity
8
0
100
AcDbBlockBegin
2
*Model_Space
70
0
10
0
20
0
30
0
3
*Model_Space
0
ENDBLK
5
21
100
AcDbEntity
8
0
100
AcDbBlockEnd
0
BLOCK
5
1C
100
AcDbEntity
8
0
100
AcDbBlockBegin
2
*Paper_Space
70
0
10
0
20
0
30
0
3
*Paper_Space
0
ENDBLK
5
1D
100
AcDbEntity
8
0
100
AcDbBlockEnd
0
BLOCK
5
24
100
AcDbEntity
8
0
100
AcDbBlockBegin
2
*Paper_Space0
70
0
10
0
20
0
30
0
3
*Paper_Space0
0
ENDBLK
5
25
100
AcDbEntity
8
0
100
AcDbBlockEnd
0
BLOCK
5
C4
100
AcDbEntity
8
0
100
AcDbBlockBegin
2
DimnDraft3D11
70
0
10
0
20
0
30
0
3
DimnDraft3D11
0
LINE
5
C6
100
AcDbEntity
8
SK2
62
256
6
ByLayer
370
-1
48
1
60
0
100
AcDbLine
10
13.573598
20
-2.644984
30
0
11
13.573598
21
-36.894984
31
0
39
0
210
0
220
0
230
1
0
LINE
5
C7
100
AcDbEntity
8
SK2
62
256
6
ByLayer
370
-1
48
1
60
0
100
AcDbLine
10
-67.776402
20
-7.9375
30
0
11
-67.776402
21
-36.894984
31
0
39
0
210
0
220
0
230
1
0
LINE
5
C8
100
AcDbEntity
8
SK2
62
256
6
ByLayer
370
-1
48
1
60
0
100
AcDbLine
10
13.573598
20
-34.894984
30
0
11
-67.776402
21
-34.894984
31
0
39
0
210
0
220
0
230
1
0
LINE
5
C9
100
AcDbEntity
8
SK2
62
256
6
ByLayer
370
-1
48
1
60
0
100
AcDbLine
10
13.573598
20
-34.894984
30
0
11
10.3986
21
-35.312981
31
0
39
0
210
0
220
0
230
1
0
LINE
5
CA
100
AcDbEntity
8
SK2
62
256
6
ByLayer
370
-1
48
1
60
0
100
AcDbLine
10
13.573598
20
-34.894984
30
0
11
10.398597
21
-34.476987
31
0
39
0
210
0
220
0
230
1
0
LINE
5
CB
100
AcDbEntity
8
SK2
62
256
6
ByLayer
370
-1
48
1
60
0
100
AcDbLine
10
10.3986
20
-35.312981
30
0
11
10.398597
21
-34.476987
31
0
39
0
210
0
220
0
230
1
0
LINE
5
CC
100
AcDbEntity
8
SK2
62
256
6
ByLayer
370
-1
48
1
60
0
100
AcDbLine
10
-67.776402
20
-34.894984
30
0
11
-64.601403
21
-34.476987
31
0
39
0
210
0
220
0
230
1
0
LINE
5
CD
100
AcDbEntity
8
SK2
62
256
6
ByLayer
370
-1
48
1
60
0
100
AcDbLine
10
-67.776402
20
-34.894984
30
0
11
-64.6014
21
-35.312981
31
0
39
0
210
0
220
0
230
1
0
LINE
5
CE
100
AcDbEntity
8
SK2
62
256
6
ByLayer
370
-1
48
1
60
0
100
AcDbLine
10
-64.601403
20
-34.476987
30
0
11
-64.6014
21
-35.312981
31
0
39
0
210
0
220
0
230
1
0
MTEXT
5
CF
100
AcDbEntity
8
SK2
62
256
6
ByLayer
370
-1
48
1
60
0
100
AcDbMText
10
-28.605349
20
-33.769984
30
0
210
0
220
0
230
1
1
\W00.656;\fsimplex.shx,bigfont.shx;80 
40
4.5
41
0
44
1.084337
50
0
71
7
72
5
7
DEFAULT
0
ENDBLK
5
C5
100
AcDbEntity
8
0
100
AcDbBlockEnd
0
BLOCK
5
DD
100
AcDbEntity
8
0
100
AcDbBlockBegin
2
DimnDraft3D2
70
0
10
0
20
0
30
0
3
DimnDraft3D2
0
MTEXT
5
D2
100
AcDbEntity
8
2
62
256
6
ByLayer
370
-1
48
1
60
0
100
AcDbMText
10
28.812596
20
5.487722
30
0
210
0
220
0
230
1
1
\W01.000;\fsimplex.shx,bigfont.shx;45%%d0' 
40
4.5
41
0
44
1.084337
50
271.561033504999
71
7
72
5
7
DEFAULT
0
LINE
5
D3
100
AcDbEntity
8
2
62
256
6
ByLayer
370
-1
48
1
60
0
100
AcDbLine
10
13.573598
20
2.148766
30
0
11
13.573598
21
15.856574
31
0
39
0
210
0
220
0
230
1
0
LINE
5
D4
100
AcDbEntity
8
2
62
256
6
ByLayer
370
-1
48
1
60
0
100
AcDbLine
10
14.87157
20
0.885472
30
0
11
25.077571
21
11.091473
31
0
39
0
210
0
220
0
230
1
0
ARC
5
D5
100
AcDbEntity
8
2
62
256
6
ByLayer
370
-1
48
1
60
0
100
AcDbCircle
39
0
10
13.573598
20
-0.4125
30
0
40
14.2690743597904
210
0
220
0
230
1
100
AcDbArc
50
336.712555
51
45
0
ARC
5
D6
100
AcDbEntity
8
2
62
256
6
ByLayer
370
-1
48
1
60
0
100
AcDbCircle
39
0
10
13.573598
20
-0.4125
30
0
40
14.2690743597904
210
0
220
0
230
1
100
AcDbArc
50
45
51
90
0
LINE
5
D7
100
AcDbEntity
8
2
62
256
6
ByLayer
370
-1
48
1
60
0
100
AcDbLine
10
13.573598
20
13.856574
30
0
11
16.766871
21
14.098126
31
0
39
0
210
0
220
0
230
1
0
LINE
5
D8
100
AcDbEntity
8
2
62
256
6
ByLayer
370
-1
48
1
60
0
100
AcDbLine
10
13.573598
20
13.856574
30
0
11
16.720584
21
13.263416
31
0
39
0
210
0
220
0
230
1
0
LINE
5
D9
100
AcDbEntity
8
2
62
256
6
ByLayer
370
-1
48
1
60
0
100
AcDbLine
10
16.766871
20
14.098126
30
0
11
16.720584
21
13.263416
31
0
39
0
210
0
220
0
230
1
0
LINE
5
DA
100
AcDbEntity
8
2
62
256
6
ByLayer
370
-1
48
1
60
0
100
AcDbLine
10
23.663358
20
9.677259
30
0
11
21.018678
21
11.483085
31
0
39
0
210
0
220
0
230
1
0
LINE
5
DB
100
AcDbEntity
8
2
62
256
6
ByLayer
370
-1
48
1
60
0
100
AcDbLine
10
23.663358
20
9.677259
30
0
11
21.576174
21
12.106049
31
0
39
0
210
0
220
0
230
1
0
LINE
5
DC
100
AcDbEntity
8
2
62
256
6
ByLayer
370
-1
48
1
60
0
100
AcDbLine
10
21.018678
20
11.483085
30
0
11
21.576174
21
12.106049
31
0
39
0
210
0
220
0
230
1
0
ENDBLK
5
DE
100
AcDbEntity
8
0
100
AcDbBlockEnd
0
BLOCK
5
E1
100
AcDbEntity
8
0
100
AcDbBlockBegin
2
_CLOSED
70
0
10
0
20
0
30
0
3
_CLOSED
0
LINE
5
E3
100
AcDbEntity
8
0
62
256
6
ByLayer
370
-2
48
1
60
0
100
AcDbLine
10
-1
20
0.166667
30
0
11
0
21
0
31
0
39
0
210
0
220
0
230
1
0
LINE
5
E4
100
AcDbEntity
8
0
62
256
6
ByLayer
370
-2
48
1
60
0
100
AcDbLine
10
0
20
0
30
0
11
-1
21
-0.166667
31
0
39
0
210
0
220
0
230
1
0
LINE
5
E5
100
AcDbEntity
8
0
62
256
6
ByLayer
370
-2
48
1
60
0
100
AcDbLine
10
-1
20
0.166667
30
0
11
-1
21
-0.166667
31
0
39
0
210
0
220
0
230
1
0
LINE
5
E6
100
AcDbEntity
8
0
62
256
6
ByLayer
370
-2
48
1
60
0
100
AcDbLine
10
0
20
0
30
0
11
-1
21
0
31
0
39
0
210
0
220
0
230
1
0
ENDBLK
5
E2
100
AcDbEntity
8
0
100
AcDbBlockEnd
0
BLOCK
5
F2
100
AcDbEntity
8
0
100
AcDbBlockBegin
2
DimnDraft3D3
70
0
10
0
20
0
30
0
3
DimnDraft3D3
0
MTEXT
5
E8
100
AcDbEntity
8
SK2
62
256
6
ByLayer
370
-1
48
1
60
0
100
AcDbMText
10
-36.194028
20
-23.769984
30
0
210
0
220
0
230
1
1
\W01.000;\fsimplex.shx,bigfont.shx;72.96 
40
4.5
41
0
44
1.084337
50
0
71
7
72
5
7
DEFAULT
0
LINE
5
E9
100
AcDbEntity
8
SK2
62
256
6
ByLayer
370
-1
48
1
60
0
100
AcDbLine
10
6.76861
20
-9.449973
30
0
11
6.76861
21
-26.894984
31
0
39
0
210
0
220
0
230
1
0
LINE
5
EA
100
AcDbEntity
8
SK2
62
256
6
ByLayer
370
-1
48
1
60
0
100
AcDbLine
10
-67.776402
20
-7.9375
30
0
11
-67.776402
21
-26.894984
31
0
39
0
210
0
220
0
230
1
0
LINE
5
EB
100
AcDbEntity
8
SK2
62
256
6
ByLayer
370
-1
48
1
60
0
100
AcDbLine
10
6.76861
20
-24.894984
30
0
11
-67.776402
21
-24.894984
31
0
39
0
210
0
220
0
230
1
0
LINE
5
EC
100
AcDbEntity
8
SK2
62
256
6
ByLayer
370
-1
48
1
60
0
100
AcDbLine
10
6.76861
20
-24.894984
30
0
11
3.593611
21
-25.312981
31
0
39
0
210
0
220
0
230
1
0
LINE
5
ED
100
AcDbEntity
8
SK2
62
256
6
ByLayer
370
-1
48
1
60
0
100
AcDbLine
10
6.76861
20
-24.894984
30
0
11
3.593608
21
-24.476987
31
0
39
0
210
0
220
0
230
1
0
LINE
5
EE
100
AcDbEntity
8
SK2
62
256
6
ByLayer
370
-1
48
1
60
0
100
AcDbLine
10
3.593611
20
-25.312981
30
0
11
3.593608
21
-24.476987
31
0
39
0
210
0
220
0
230
1
0
LINE
5
EF
100
AcDbEntity
8
SK2
62
256
6
ByLayer
370
-1
48
1
60
0
100
AcDbLine
10
-67.776402
20
-24.894984
30
0
11
-64.601403
21
-24.476987
31
0
39
0
210
0
220
0
230
1
0
LINE
5
F0
100
AcDbEntity
8
SK2
62
256
6
ByLayer
370
-1
48
1
60
0
100
AcDbLine
10
-67.776402
20
-24.894984
30
0
11
-64.6014
21
-25.312981
31
0
39
0
210
0
220
0
230
1
0
LINE
5
F1
100
AcDbEntity
8
SK2
62
256
6
ByLayer
370
-1
48
1
60
0
100
AcDbLine
10
-64.601403
20
-24.476987
30
0
11
-64.6014
21
-25.312981
31
0
39
0
210
0
220
0
230
1
0
ENDBLK
5
F3
100
AcDbEntity
8
0
100
AcDbBlockEnd
0
BLOCK
5
100
100
AcDbEntity
8
0
100
AcDbBlockBegin
2
DimnDraft3D4
70
0
10
0
20
0
30
0
3
DimnDraft3D4
0
MTEXT
5
F6
100
AcDbEntity
8
2
62
256
6
ByLayer
370
-1
48
1
60
0
100
AcDbMText
10
49.698598
20
17.3175
30
0
210
0
220
0
230
1
1
\W01.000;\fsimplex.shx,bigfont.shx;13.04 
40
4.5
41
0
44
1.084337
50
90
71
7
72
5
7
DEFAULT
0
LINE
5
F7
100
AcDbEntity
8
2
62
256
6
ByLayer
370
-1
48
1
60
0
100
AcDbLine
10
2
20
5.9375
30
0
11
52.823598
21
5.9375
31
0
39
0
210
0
220
0
230
1
0
LINE
5
F8
100
AcDbEntity
8
2
62
256
6
ByLayer
370
-1
48
1
60
0
100
AcDbLine
10
8.76861
20
-7.449973
30
0
11
52.823598
21
-7.449973
31
0
39
0
210
0
220
0
230
1
0
LINE
5
F9
100
AcDbEntity
8
2
62
256
6
ByLayer
370
-1
48
1
60
0
100
AcDbLine
10
50.823598
20
-7.449973
30
0
11
50.823598
21
29.171447
31
0
39
0
210
0
220
0
230
1
0
LINE
5
FA
100
AcDbEntity
8
2
62
256
6
ByLayer
370
-1
48
1
60
0
100
AcDbLine
10
50.823598
20
5.9375
30
0
11
51.241595
21
2.762502
31
0
39
0
210
0
220
0
230
1
0
LINE
5
FB
100
AcDbEntity
8
2
62
256
6
ByLayer
370
-1
48
1
60
0
100
AcDbLine
10
50.823598
20
5.9375
30
0
11
50.405602
21
2.762498
31
0
39
0
210
0
220
0
230
1
0
LINE
5
FC
100
AcDbEntity
8
2
62
256
6
ByLayer
370
-1
48
1
60
0
100
AcDbLine
10
51.241595
20
2.762502
30
0
11
50.405602
21
2.762498
31
0
39
0
210
0
220
0
230
1
0
LINE
5
FD
100
AcDbEntity
8
2
62
256
6
ByLayer
370
-1
48
1
60
0
100
AcDbLine
10
50.823598
20
-7.449973
30
0
11
50.405602
21
-4.274974
31
0
39
0
210
0
220
0
230
1
0
LINE
5
FE
100
AcDbEntity
8
2
62
256
6
ByLayer
370
-1
48
1
60
0
100
AcDbLine
10
50.823598
20
-7.449973
30
0
11
51.241595
21
-4.274971
31
0
39
0
210
0
220
0
230
1
0
LINE
5
FF
100
AcDbEntity
8
2
62
256
6
ByLayer
370
-1
48
1
60
0
100
AcDbLine
10
50.405602
20
-4.274974
30
0
11
51.241595
21
-4.274971
31
0
39
0
210
0
220
0
230
1
0
ENDBLK
5
101
100
AcDbEntity
8
0
100
AcDbBlockEnd
0
BLOCK
5
10E
100
AcDbEntity
8
0
100
AcDbBlockBegin
2
DimnDraft3D5
70
0
10
0
20
0
30
0
3
DimnDraft3D5
0
MTEXT
5
104
100
AcDbEntity
8
2
62
256
6
ByLayer
370
-1
48
1
60
0
100
AcDbMText
10
39.698598
20
2.910526
30
0
210
0
220
0
230
1
1
\W01.000;\fsimplex.shx,bigfont.shx;6 
40
4.5
41
0
44
1.084337
50
90
71
7
72
5
7
DEFAULT
0
LINE
5
105
100
AcDbEntity
8
2
62
256
6
ByLayer
370
-1
48
1
60
0
100
AcDbLine
10
2
20
5.9375
30
0
11
42.823598
21
5.9375
31
0
39
0
210
0
220
0
230
1
0
LINE
5
106
100
AcDbEntity
8
2
62
256
6
ByLayer
370
-1
48
1
60
0
100
AcDbLine
10
15.573598
20
-0.4125
30
0
11
42.823598
21
-0.4125
31
0
39
0
210
0
220
0
230
1
0
LINE
5
107
100
AcDbEntity
8
2
62
256
6
ByLayer
370
-1
48
1
60
0
100
AcDbLine
10
40.823598
20
17.1875
30
0
11
40.823598
21
-11.6625
31
0
39
0
210
0
220
0
230
1
0
LINE
5
108
100
AcDbEntity
8
2
62
256
6
ByLayer
370
-1
48
1
60
0
100
AcDbLine
10
40.823598
20
5.9375
30
0
11
40.405602
21
9.112498
31
0
39
0
210
0
220
0
230
1
0
LINE
5
109
100
AcDbEntity
8
2
62
256
6
ByLayer
370
-1
48
1
60
0
100
AcDbLine
10
40.823598
20
5.9375
30
0
11
41.241595
21
9.112502
31
0
39
0
210
0
220
0
230
1
0
LINE
5
10A
100
AcDbEntity
8
2
62
256
6
ByLayer
370
-1
48
1
60
0
100
AcDbLine
10
40.405602
20
9.112498
30
0
11
41.241595
21
9.112502
31
0
39
0
210
0
220
0
230
1
0
LINE
5
10B
100
AcDbEntity
8
2
62
256
6
ByLayer
370
-1
48
1
60
0
100
AcDbLine
10
40.823598
20
-0.4125
30
0
11
41.241595
21
-3.587498
31
0
39
0
210
0
220
0
230
1
0
LINE
5
10C
100
AcDbEntity
8
2
62
256
6
ByLayer
370
-1
48
1
60
0
100
AcDbLine
10
40.823598
20
-0.4125
30
0
11
40.405602
21
-3.587502
31
0
39
0
210
0
220
0
230
1
0
LINE
5
10D
100
AcDbEntity
8
2
62
256
6
ByLayer
370
-1
48
1
60
0
100
AcDbLine
10
41.241595
20
-3.587498
30
0
11
40.405602
21
-3.587502
31
0
39
0
210
0
220
0
230
1
0
ENDBLK
5
10F
100
AcDbEntity
8
0
100
AcDbBlockEnd
0
BLOCK
5
11C
100
AcDbEntity
8
0
100
AcDbBlockBegin
2
DimnDraft3D6
70
0
10
0
20
0
30
0
3
DimnDraft3D6
0
MTEXT
5
112
100
AcDbEntity
8
SK2
62
256
6
ByLayer
370
-1
48
1
60
0
100
AcDbMText
10
-78.651402
20
-0.941447
30
0
210
0
220
0
230
1
1
\W01.000;\fsimplex.shx,bigfont.shx;12 
40
4.5
41
0
44
1.084337
50
90
71
7
72
5
7
DEFAULT
0
LINE
5
113
100
AcDbEntity
8
SK2
62
256
6
ByLayer
370
-1
48
1
60
0
100
AcDbLine
10
-69.776402
20
5.9375
30
0
11
-79.526402
21
5.9375
31
0
39
0
210
0
220
0
230
1
0
LINE
5
114
100
AcDbEntity
8
SK2
62
256
6
ByLayer
370
-1
48
1
60
0
100
AcDbLine
10
-69.776402
20
-5.9375
30
0
11
-79.526402
21
-5.9375
31
0
39
0
210
0
220
0
230
1
0
LINE
5
115
100
AcDbEntity
8
SK2
62
256
6
ByLayer
370
-1
48
1
60
0
100
AcDbLine
10
-77.526402
20
17.1875
30
0
11
-77.526402
21
-17.1875
31
0
39
0
210
0
220
0
230
1
0
LINE
5
116
100
AcDbEntity
8
SK2
62
256
6
ByLayer
370
-1
48
1
60
0
100
AcDbLine
10
-77.526402
20
5.9375
30
0
11
-77.944398
21
9.112498
31
0
39
0
210
0
220
0
230
1
0
LINE
5
117
100
AcDbEntity
8
SK2
62
256
6
ByLayer
370
-1
48
1
60
0
100
AcDbLine
10
-77.526402
20
5.9375
30
0
11
-77.108405
21
9.112502
31
0
39
0
210
0
220
0
230
1
0
LINE
5
118
100
AcDbEntity
8
SK2
62
256
6
ByLayer
370
-1
48
1
60
0
100
AcDbLine
10
-77.944398
20
9.112498
30
0
11
-77.108405
21
9.112502
31
0
39
0
210
0
220
0
230
1
0
LINE
5
119
100
AcDbEntity
8
SK2
62
256
6
ByLayer
370
-1
48
1
60
0
100
AcDbLine
10
-77.526402
20
-5.9375
30
0
11
-77.108405
21
-9.112498
31
0
39
0
210
0
220
0
230
1
0
LINE
5
11A
100
AcDbEntity
8
SK2
62
256
6
ByLayer
370
-1
48
1
60
0
100
AcDbLine
10
-77.526402
20
-5.9375
30
0
11
-77.944398
21
-9.112502
31
0
39
0
210
0
220
0
230
1
0
LINE
5
11B
100
AcDbEntity
8
SK2
62
256
6
ByLayer
370
-1
48
1
60
0
100
AcDbLine
10
-77.108405
20
-9.112498
30
0
11
-77.944398
21
-9.112502
31
0
39
0
210
0
220
0
230
1
0
ENDBLK
5
11D
100
AcDbEntity
8
0
100
AcDbBlockEnd
0
ENDSEC
0
SECTION
2
ENTITIES
0
ARC
5
6C
100
AcDbEntity
8
1
62
256
6
ByLayer
370
-1
48
1
60
0
100
AcDbCircle
39
0
10
3.85
20
2.273626
30
0
40
1.05000000000001
210
0
220
0
230
1
100
AcDbArc
50
5.923008
51
52.513153
0
ARC
5
6D
100
AcDbEntity
8
1
62
256
6
ByLayer
370
-1
48
1
60
0
100
AcDbCircle
39
0
10
-4.968583
20
1.95245
30
0
40
1.25
210
0
220
0
230
-1
100
AcDbArc
50
67.439457
51
75
0
ARC
5
6E
100
AcDbEntity
8
1
62
256
6
ByLayer
370
-1
48
1
60
0
100
AcDbCircle
39
0
10
-3.85
20
2.273626
30
0
40
1.05000000000001
210
0
220
0
230
-1
100
AcDbArc
50
275.925819
51
121.44267
0
ARC
5
6F
100
AcDbEntity
8
1
62
256
6
ByLayer
370
-1
48
1
60
0
100
AcDbCircle
39
0
10
-5.210064
20
2.017155
30
0
40
1.34423045315122
210
0
220
0
230
-1
100
AcDbArc
50
75
51
165
0
ARC
5
70
100
AcDbEntity
8
1
62
256
6
ByLayer
370
-1
48
1
60
0
100
AcDbCircle
39
0
10
-5.210064
20
2.017155
30
0
40
1.25
210
0
220
0
230
-1
100
AcDbArc
50
75
51
165
0
ARC
5
71
100
AcDbEntity
8
1
62
256
6
ByLayer
370
-1
48
1
60
0
100
AcDbCircle
39
0
10
-4.968583
20
1.95245
30
0
40
1.34423045315122
210
0
220
0
230
-1
100
AcDbArc
50
64.870184
51
75
0
ARC
5
72
100
AcDbEntity
8
1
62
256
6
ByLayer
370
-1
48
1
60
0
100
AcDbCircle
39
0
10
7.809798
20
-1.686172
30
0
40
0.747999999999988
210
0
220
0
230
1
100
AcDbArc
50
282.838153
51
287.161847
0
ARC
5
74
100
AcDbEntity
8
1
62
256
6
ByLayer
370
-1
48
1
60
0
100
AcDbCircle
39
0
10
-7.809798
20
-1.686172
30
0
40
0.747999999999988
210
0
220
0
230
-1
100
AcDbArc
50
194.975421
51
252.838153
0
ARC
5
75
100
AcDbEntity
8
1
62
256
6
ByLayer
370
-1
48
1
60
0
100
AcDbCircle
39
0
10
-7.809798
20
-1.686172
30
0
40
0.747999999999988
210
0
220
0
230
-1
100
AcDbArc
50
14.975421
51
72.838153
0
ARC
5
77
100
AcDbEntity
8
1
62
256
6
ByLayer
370
-1
48
1
60
0
100
AcDbCircle
39
0
10
7.809798
20
-1.686172
30
0
40
1.035
210
0
220
0
230
1
100
AcDbArc
50
254.950841
51
315.049159
0
ARC
5
78
100
AcDbEntity
8
1
62
256
6
ByLayer
370
-1
48
1
60
0
100
AcDbCircle
39
0
10
7.809798
20
-1.686172
30
0
40
1.035
210
0
220
0
230
1
100
AcDbArc
50
135.049159
51
195
0
ARC
5
79
100
AcDbEntity
8
1
62
256
6
ByLayer
370
-1
48
1
60
0
100
AcDbCircle
39
0
10
7.809798
20
-1.686172
30
0
40
1.035
210
0
220
0
230
1
100
AcDbArc
50
74.950841
51
135.049159
0
ARC
5
7A
100
AcDbEntity
8
1
62
256
6
ByLayer
370
-1
48
1
60
0
100
AcDbCircle
39
0
10
-7.809798
20
-1.686172
30
0
40
0.747999999999988
210
0
220
0
230
-1
100
AcDbArc
50
315.024579
51
14.975421
0
ARC
5
7C
100
AcDbEntity
8
1
62
256
6
ByLayer
370
-1
48
1
60
0
100
AcDbCircle
39
0
10
-7.809798
20
-1.686172
30
0
40
0.747999999999988
210
0
220
0
230
-1
100
AcDbArc
50
135.024579
51
194.975421
0
ARC
5
7D
100
AcDbEntity
8
1
62
256
6
ByLayer
370
-1
48
1
60
0
100
AcDbCircle
39
0
10
-7.809798
20
-1.686172
30
0
40
0.747999999999988
210
0
220
0
230
-1
100
AcDbArc
50
77.161847
51
135.024579
0
ARC
5
7E
100
AcDbEntity
8
1
62
256
6
ByLayer
370
-1
48
1
60
0
100
AcDbCircle
39
0
10
6.371799
20
-7.052856
30
0
40
0.397000000000048
210
0
220
0
230
1
100
AcDbArc
50
195
51
315
0
ARC
5
7F
100
AcDbEntity
8
1
62
256
6
ByLayer
370
-1
48
1
60
0
100
AcDbCircle
39
0
10
7.809798
20
-1.686172
30
0
40
0.747999999999988
210
0
220
0
230
1
100
AcDbArc
50
102.838153
51
107.161847
0
ARC
5
81
100
AcDbEntity
8
1
62
256
6
ByLayer
370
-1
48
1
60
0
100
AcDbCircle
39
0
10
7.809798
20
-1.686172
30
0
40
1.035
210
0
220
0
230
1
100
AcDbArc
50
15
51
74.950841
0
ARC
5
83
100
AcDbEntity
8
1
62
256
6
ByLayer
370
-1
48
1
60
0
100
AcDbCircle
39
0
10
7.809798
20
-1.686172
30
0
40
1.035
210
0
220
0
230
1
100
AcDbArc
50
195
51
254.950841
0
ARC
5
84
100
AcDbEntity
8
1
62
256
6
ByLayer
370
-1
48
1
60
0
100
AcDbCircle
39
0
10
13.176482
20
-0.248174
30
0
40
0.39700000000003
210
0
220
0
230
1
100
AcDbArc
50
315
51
75
0
ARC
5
85
100
AcDbEntity
8
1
62
256
6
ByLayer
370
-1
48
1
60
0
100
AcDbCircle
39
0
10
3.881113
20
2.242513
30
0
40
0.397000000000044
210
0
220
0
230
1
100
AcDbArc
50
75
51
195
0
ARC
5
86
100
AcDbEntity
8
1
62
256
6
ByLayer
370
-1
48
1
60
0
100
AcDbCircle
39
0
10
7.809798
20
-1.686172
30
0
40
0.747999999999988
210
0
220
0
230
1
100
AcDbArc
50
224.975421
51
282.838153
0
ARC
5
87
100
AcDbEntity
8
1
62
256
6
ByLayer
370
-1
48
1
60
0
100
AcDbCircle
39
0
10
7.809798
20
-1.686172
30
0
40
1.035
210
0
220
0
230
1
100
AcDbArc
50
315.049159
51
15
0
CIRCLE
5
73
100
AcDbEntity
8
1
62
256
6
ByLayer
370
-1
48
1
60
0
100
AcDbCircle
10
-7.809798
20
-1.686172
30
0
40
1.82993757181565
39
0
210
0
220
0
230
-1
0
CIRCLE
5
76
100
AcDbEntity
8
1
62
256
6
ByLayer
370
-1
48
1
60
0
100
AcDbCircle
10
7.809798
20
-1.686172
30
0
40
1.72499999999999
39
0
210
0
220
0
230
1
0
CIRCLE
5
7B
100
AcDbEntity
8
1
62
256
6
ByLayer
370
-1
48
1
60
0
100
AcDbCircle
10
7.809798
20
-1.686172
30
0
40
1.88079929551148
39
0
210
0
220
0
230
1
0
CIRCLE
5
80
100
AcDbEntity
8
1
62
256
6
ByLayer
370
-1
48
1
60
0
100
AcDbCircle
10
7.809798
20
-1.686172
30
0
40
1.92255023212158
39
0
210
0
220
0
230
1
0
CIRCLE
5
82
100
AcDbEntity
8
1
62
256
6
ByLayer
370
-1
48
1
60
0
100
AcDbCircle
10
7.809798
20
-1.686172
30
0
40
1.29999999999998
39
0
210
0
220
0
230
1
0
POINT
5
41
100
AcDbEntity
8
SK2
62
256
6
ByLayer
370
-1
48
1
60
0
100
AcDbPoint
10
13.573598
20
12.2875
30
0
39
0
210
0
220
0
230
1
50
360
0
POINT
5
43
100
AcDbEntity
8
80
62
256
6
ByLayer
370
-1
48
1
60
0
100
AcDbPoint
10
0
20
0
30
0
39
0
210
0
220
0
230
1
50
360
0
POINT
5
45
100
AcDbEntity
8
SK2
62
256
6
ByLayer
370
-1
48
1
60
0
100
AcDbPoint
10
13.573598
20
12.2875
30
0
39
0
210
0
220
0
230
1
50
360
0
POINT
5
46
100
AcDbEntity
8
SK2
62
256
6
ByLayer
370
-1
48
1
60
0
100
AcDbPoint
10
13.573598
20
12.2875
30
0
39
0
210
0
220
0
230
1
50
360
0
POINT
5
47
100
AcDbEntity
8
SK2
62
256
6
ByLayer
370
-1
48
1
60
0
100
AcDbPoint
10
13.573598
20
12.2875
30
0
39
0
210
0
220
0
230
1
50
360
0
POINT
5
48
100
AcDbEntity
8
81
62
256
6
ByLayer
370
-1
48
1
60
0
100
AcDbPoint
10
13.573598
20
-0.4125
30
0
39
0
210
0
220
0
230
1
50
360
0
POINT
5
4A
100
AcDbEntity
8
2
62
256
6
ByLayer
370
-1
48
1
60
0
100
AcDbPoint
10
13.573598
20
12.2875
30
0
39
0
210
0
220
0
230
1
50
360
0
SPLINE
5
88
100
AcDbEntity
8
1
62
256
6
ByLayer
370
-1
48
1
60
0
100
AcDbSpline
70
4
71
3
72
8
73
4
40
0
40
0
40
0
40
0
40
1
40
1
40
1
40
1
41
1
10
4.48900824887079
20
3.1067933877971
30
0
41
1
10
4.46023408815711
20
3.12886208477138
30
0
41
1
10
4.4298260630186
20
3.14982041137623
30
0
41
1
10
4.39772740875853
20
3.16944634005819
30
0
0
SPLINE
5
89
100
AcDbEntity
8
1
62
256
6
ByLayer
370
-1
48
1
60
0
100
AcDbSpline
70
4
71
3
72
16
73
12
40
0
40
0
40
0
40
0
40
0.0670760088337791
40
0.0670760088337791
40
0.291714746952802
40
0.291714746952802
40
0.519343434920627
40
0.519343434920627
40
0.761548048254843
40
0.761548048254843
40
1
40
1
40
1
40
1
41
1
10
8.80953120485378
20
-1.41829460010294
30
0
41
1
10
8.81099164053887
20
-1.42374502028076
30
0
41
1
10
8.81220381711898
20
-1.4292694045001
30
0
41
1
10
8.81633847879749
20
-1.45331496291385
30
0
41
1
10
8.81664736534134
20
-1.47248085752244
30
0
41
1
10
8.81170023534844
20
-1.50934358122316
30
0
41
1
10
8.80632194710518
20
-1.5274887811984
30
0
41
1
10
8.79055661443678
20
-1.5615046988182
30
0
41
1
10
8.77969166551435
20
-1.5775900264664
30
0
41
1
10
8.75469213787699
20
-1.60481655327615
30
0
41
1
10
8.74036379125695
20
-1.61632234530251
30
0
41
1
10
8.7250801037294
20
-1.62537049100249
30
0
0
SPLINE
5
8A
100
AcDbEntity
8
1
62
256
6
ByLayer
370
-1
48
1
60
0
100
AcDbSpline
70
4
71
3
72
16
73
12
40
0
40
0
40
0
40
0
40
0.0646963914667145
40
0.0646963914667145
40
0.289371314309786
40
0.289371314309786
40
0.516902592626517
40
0.516902592626517
40
0.758901214133168
40
0.758901214133168
40
1
40
1
40
1
40
1
41
1
10
7.54106261088816
20
-2.68567534042714
30
0
41
1
10
7.53580553627953
20
-2.68426187611863
30
0
41
1
10
7.53060478902592
20
-2.68261404043596
30
0
41
1
10
7.50787580355674
20
-2.67429298485055
30
0
41
1
10
7.4910953865309
20
-2.66501353535907
30
0
41
1
10
7.4615899224911
20
-2.6423620178108
30
0
41
1
10
7.44853431291889
20
-2.62866276305371
30
0
41
1
10
7.42689367346924
20
-2.59805946027703
30
0
41
1
10
7.41835810590777
20
-2.58063519560082
30
0
41
1
10
7.40713264896795
20
-2.54520777277116
30
0
41
1
10
7.40428761479228
20
-2.52683788473445
30
0
41
1
10
7.40410681320296
20
-2.50888302568075
30
0
0
SPLINE
5
8B
100
AcDbEntity
8
1
62
256
6
ByLayer
370
-1
48
1
60
0
100
AcDbSpline
70
4
71
3
72
16
73
12
40
0
40
0
40
0
40
0
40
0.0667984943026188
40
0.0667984943026188
40
0.290790770449071
40
0.290790770449071
40
0.51775965742341
40
0.51775965742341
40
0.759258608121018
40
0.759258608121018
40
1
40
1
40
1
40
1
41
1
10
7.07731480841474
20
-0.954944979697899
30
0
41
1
10
7.08129638737853
20
-0.950956562637941
30
0
41
1
10
7.08546582535587
20
-0.947145561477271
30
0
41
1
10
7.10420209118604
20
-0.931528236538696
30
0
41
1
10
7.1206364293177
20
-0.921661690001173
30
0
41
1
10
7.15502046970738
20
-0.907481290918099
30
0
41
1
10
7.17341947484874
20
-0.90304858869797
30
0
41
1
10
7.21075716360238
20
-0.899657624710557
30
0
41
1
10
7.2301209641758
20
-0.901005429339818
30
0
41
1
10
7.26642846051595
20
-0.909056236279838
30
0
41
1
10
7.28376646643932
20
-0.915811956830737
30
0
41
1
10
7.29940687243231
20
-0.924669436696888
30
0
0
SPLINE
5
8C
100
AcDbEntity
8
1
62
256
6
ByLayer
370
-1
48
1
60
0
100
AcDbSpline
70
4
71
3
72
14
73
10
40
0
40
0
40
0
40
0
40
0.283289640868005
40
0.283289640868005
40
0.570096821120402
40
0.570096821120402
40
0.829946428587307
40
0.829946428587307
40
1
40
1
40
1
40
1
41
1
10
7.74853775180679
20
-2.60084869777063
30
0
41
1
10
7.73782405151087
20
-2.61905421095091
30
0
41
1
10
7.72357600141248
20
-2.63595250466344
30
0
41
1
10
7.68945921550124
20
-2.66400758375781
30
0
41
1
10
7.66896962247017
20
-2.67549384896756
30
0
41
1
10
7.62695722705973
20
-2.68932261473839
30
0
41
1
10
7.60506765236264
20
-2.69259585992691
30
0
41
1
10
7.56922827847188
20
-2.69149856448109
30
0
41
1
10
7.5548714324857
20
-2.68938810425948
30
0
41
1
10
7.54106261088816
20
-2.68567534042714
30
0
0
SPLINE
5
8D
100
AcDbEntity
8
1
62
256
6
ByLayer
370
-1
48
1
60
0
100
AcDbSpline
70
4
71
3
72
14
73
10
40
0
40
0
40
0
40
0
40
0.284549284603278
40
0.284549284603278
40
0.571759338869857
40
0.571759338869857
40
0.832019536713705
40
0.832019536713705
40
1
40
1
40
1
40
1
41
1
10
6.98673948883652
20
-2.09115745493327
30
0
41
1
10
6.96557659552988
20
-2.09092618979085
30
0
41
1
10
6.94378298631494
20
-2.08696399852241
30
0
41
1
10
6.90245691600535
20
-2.07129932494226
30
0
41
1
10
6.8823229344971
20
-2.05924602395677
30
0
41
1
10
6.84946004120417
20
-2.02970792524732
30
0
41
1
10
6.8357435610111
20
-2.01236636082263
30
0
41
1
10
6.81896689049893
20
-1.9809420127838
30
0
41
1
10
6.81371039019353
20
-1.9676557586607
30
0
41
1
10
6.81006474443546
20
-1.95405002346516
30
0
0
SPLINE
5
8E
100
AcDbEntity
8
1
62
256
6
ByLayer
370
-1
48
1
60
0
100
AcDbSpline
70
4
71
3
72
12
73
8
40
0
40
0
40
0
40
0
40
0.377026695133414
40
0.377026695133414
40
0.761057188324651
40
0.761057188324651
40
1
40
1
40
1
40
1
41
1
10
7.58908421388895
20
-0.971476967030043
30
0
41
1
10
7.55031622665879
20
-0.979129435452933
30
0
41
1
10
7.51026494078883
20
-0.981164318319514
30
0
41
1
10
7.43362988742044
20
-0.974789949979851
30
0
41
1
10
7.39608153623198
20
-0.966196874962321
30
0
41
1
10
7.3397893993893
20
-0.945456872980401
30
0
41
1
10
7.31902048512495
20
-0.935777024288001
30
0
41
1
10
7.29940687243231
20
-0.924669436696888
30
0
0
SPLINE
5
8F
100
AcDbEntity
8
1
62
256
6
ByLayer
370
-1
48
1
60
0
100
AcDbSpline
70
4
71
3
72
12
73
8
40
0
40
0
40
0
40
0
40
0.464519725100356
40
0.464519725100356
40
0.846507806191975
40
0.846507806191975
40
1
40
1
40
1
40
1
41
1
10
7.74853775180679
20
-2.60084869777063
30
0
41
1
10
7.77055981789377
20
-2.56342717174968
30
0
41
1
10
7.7991969610386
20
-2.52818399605445
30
0
41
1
10
7.86198022026326
20
-2.4730002509277
30
0
41
1
10
7.89501770416609
20
-2.4509049876917
30
0
41
1
10
7.94543308612663
20
-2.42690770731264
30
0
41
1
10
7.96056033356115
20
-2.42074044499054
30
0
41
1
10
7.97600192324245
20
-2.41547351668535
30
0
0
SPLINE
5
90
100
AcDbEntity
8
1
62
256
6
ByLayer
370
-1
48
1
60
0
100
AcDbSpline
70
4
71
3
72
18
73
14
40
0
40
0
40
0
40
0
40
0.213402387498045
40
0.213402387498045
40
0.389010885295361
40
0.389010885295361
40
0.56625755400157
40
0.56625755400157
40
0.721180358460063
40
0.721180358460063
40
0.927422734309479
40
0.927422734309479
40
1
40
1
40
1
40
1
41
1
10
6.98673948883652
20
-2.09115745493324
30
0
41
1
10
7.03009774454785
20
-2.09163126789619
30
0
41
1
10
7.07486201746525
20
-2.09890852187058
30
0
41
1
10
7.15390693742773
20
-2.12583596634249
30
0
41
1
10
7.18950043000933
20
-2.14346444186597
30
0
41
1
10
7.25494188990629
20
-2.18871251383626
30
0
41
1
10
7.28563061158118
20
-2.21718014911869
30
0
41
1
10
7.33302225421227
20
-2.27605071842953
30
0
41
1
10
7.351607536372
20
-2.30642518790427
30
0
41
1
10
7.38459577377438
20
-2.37843382986253
30
0
41
1
10
7.3962853814439
20
-2.42165388116857
30
0
41
1
10
7.40301417941035
20
-2.47895200289949
30
0
41
1
10
7.40395668215098
20
-2.49397396493211
30
0
41
1
10
7.40410681320299
20
-2.50888302568075
30
0
0
SPLINE
5
91
100
AcDbEntity
8
1
62
256
6
ByLayer
370
-1
48
1
60
0
100
AcDbSpline
70
4
71
3
72
14
73
10
40
0
40
0
40
0
40
0
40
0.283289640867932
40
0.283289640867932
40
0.570096821120359
40
0.570096821120359
40
0.829946428587291
40
0.829946428587291
40
1
40
1
40
1
40
1
41
1
10
7.87105819748245
20
-0.771495925797495
30
0
41
1
10
7.88177189777835
20
-0.753290412617218
30
0
41
1
10
7.89601994787677
20
-0.736392118904689
30
0
41
1
10
7.930136733788
20
-0.708337039810317
30
0
41
1
10
7.95062632681902
20
-0.696850774600563
30
0
41
1
10
7.99263872222951
20
-0.683022008829738
30
0
41
1
10
8.01452829692659
20
-0.679748763641214
30
0
41
1
10
8.05036767081731
20
-0.680846059087031
30
0
41
1
10
8.06472451680355
20
-0.682956519308647
30
0
41
1
10
8.07853333840106
20
-0.686669283140986
30
0
0
SPLINE
5
92
100
AcDbEntity
8
1
62
256
6
ByLayer
370
-1
48
1
60
0
100
AcDbSpline
70
4
71
3
72
12
73
8
40
0
40
0
40
0
40
0
40
0.377026695339868
40
0.377026695339868
40
0.761057188564395
40
0.761057188564395
40
1
40
1
40
1
40
1
41
1
10
8.03051173540035
20
-2.40086765653805
30
0
41
1
10
8.06927972265163
20
-2.39321518811099
30
0
41
1
10
8.10933100854427
20
-2.39118030524654
30
0
41
1
10
8.18596606193347
20
-2.39755467359947
30
0
41
1
10
8.22351441312253
20
-2.40614774862334
30
0
41
1
10
8.2798065499415
20
-2.42688775060705
30
0
41
1
10
8.30057546418385
20
-2.43656759929118
30
0
41
1
10
8.32018907685693
20
-2.44767518687121
30
0
0
SPLINE
5
93
100
AcDbEntity
8
1
62
256
6
ByLayer
370
-1
48
1
60
0
100
AcDbSpline
70
4
71
3
72
14
73
10
40
0
40
0
40
0
40
0
40
0.284432458002428
40
0.284432458002428
40
0.571657132613708
40
0.571657132613708
40
0.831928938770838
40
0.831928938770838
40
1
40
1
40
1
40
1
41
1
10
8.57249218349227
20
-2.19581510926341
30
0
41
1
10
8.58288491290321
20
-2.21424188562256
30
0
41
1
10
8.59036637433726
20
-2.23508068447887
30
0
41
1
10
8.59750589423214
20
-2.27868672776745
30
0
41
1
10
8.59715788797678
20
-2.30215110804818
30
0
41
1
10
8.58805121717415
20
-2.34539081826927
30
0
41
1
10
8.57991124837619
20
-2.3659492195122
30
0
41
1
10
8.56111059994896
20
-2.39621591147224
30
0
41
1
10
8.55223802743512
20
-2.40742565702141
30
0
41
1
10
8.54228114087448
20
-2.41739964387023
30
0
0
SPLINE
5
94
100
AcDbEntity
8
1
62
256
6
ByLayer
370
-1
48
1
60
0
100
AcDbSpline
70
4
71
3
72
18
73
14
40
0
40
0
40
0
40
0
40
0.213366316929591
40
0.213366316929591
40
0.388981009091324
40
0.388981009091324
40
0.566234294823282
40
0.566234294823282
40
0.721158203936002
40
0.721158203936002
40
0.927394065950797
40
0.927394065950797
40
1
40
1
40
1
40
1
41
1
10
7.04710376579703
20
-1.17652951430469
30
0
41
1
10
7.06840136845346
20
-1.21429112106051
30
0
41
1
10
7.08451571213075
20
-1.25667482366146
30
0
41
1
10
7.10079173962402
20
-1.33857141379971
30
0
41
1
10
7.10335795325324
20
-1.37820918376667
30
0
41
1
10
7.09696440704153
20
-1.4575153748782
30
0
41
1
10
7.08769157333788
20
-1.49833632433015
30
0
41
1
10
7.06046645339174
20
-1.56884025106541
30
0
41
1
10
7.04348178624952
20
-1.60013849327188
30
0
41
1
10
6.99767261827253
20
-1.6647519198452
30
0
41
1
10
6.96611695768627
20
-1.69651302992631
30
0
41
1
10
6.91988674940256
20
-1.73103404877173
30
0
41
1
10
6.90735093532822
20
-1.73937558921099
30
0
41
1
10
6.89451584555985
20
-1.74697413256561
30
0
0
SPLINE
5
95
100
AcDbEntity
8
1
62
256
6
ByLayer
370
-1
48
1
60
0
100
AcDbSpline
70
4
71
3
72
12
73
8
40
0
40
0
40
0
40
0
40
0.464519725100741
40
0.464519725100741
40
0.846507806192787
40
0.846507806192787
40
1
40
1
40
1
40
1
41
1
10
7.87105819748245
20
-0.771495925797495
30
0
41
1
10
7.84903613139551
20
-0.808917451818417
30
0
41
1
10
7.8203989882507
20
-0.844160627513645
30
0
41
1
10
7.75761572902599
20
-0.8993443726404
30
0
41
1
10
7.72457824512315
20
-0.921439635876396
30
0
41
1
10
7.67416286316262
20
-0.94543691625546
30
0
41
1
10
7.6590356157281
20
-0.951604178577554
30
0
41
1
10
7.64359402604683
20
-0.956871106882744
30
0
0
SPLINE
5
96
100
AcDbEntity
8
1
62
256
6
ByLayer
370
-1
48
1
60
0
100
AcDbSpline
70
4
71
3
72
18
73
14
40
0
40
0
40
0
40
0
40
0.213402387498028
40
0.213402387498028
40
0.389010885295349
40
0.389010885295349
40
0.566257554001562
40
0.566257554001562
40
0.721180358460056
40
0.721180358460056
40
0.927422734309477
40
0.927422734309477
40
1
40
1
40
1
40
1
41
1
10
8.63285646045273
20
-1.28118716863486
30
0
41
1
10
8.5894982047414
20
-1.28071335567191
30
0
41
1
10
8.544733931824
20
-1.27343610169748
30
0
41
1
10
8.46568901186151
20
-1.2465086572256
30
0
41
1
10
8.43009551927997
20
-1.22888018170209
30
0
41
1
10
8.36465405938299
20
-1.18363210973183
30
0
41
1
10
8.33396533770809
20
-1.15516447444941
30
0
41
1
10
8.28657369507704
20
-1.09629390513857
30
0
41
1
10
8.26798841291728
20
-1.06591943566383
30
0
41
1
10
8.23500017551487
20
-0.993910793705567
30
0
41
1
10
8.22331056784537
20
-0.95069074239953
30
0
41
1
10
8.21658176987893
20
-0.893392620668607
30
0
41
1
10
8.21563926713827
20
-0.878370658635987
30
0
41
1
10
8.21548913608626
20
-0.863461597887351
30
0
0
SPLINE
5
97
100
AcDbEntity
8
1
62
256
6
ByLayer
370
-1
48
1
60
0
100
AcDbSpline
70
4
71
3
72
18
73
14
40
0
40
0
40
0
40
0
40
0.213366316929597
40
0.213366316929597
40
0.388981009091331
40
0.388981009091331
40
0.566234294823295
40
0.566234294823295
40
0.72115820393602
40
0.72115820393602
40
0.927394065950823
40
0.927394065950823
40
1
40
1
40
1
40
1
41
1
10
8.57249218349227
20
-2.19581510926341
30
0
41
1
10
8.55119458083581
20
-2.15805350250759
30
0
41
1
10
8.53508023715852
20
-2.11566979990664
30
0
41
1
10
8.51880420966526
20
-2.03377320976838
30
0
41
1
10
8.51623799603604
20
-1.99413543980143
30
0
41
1
10
8.52263154224772
20
-1.91482924868993
30
0
41
1
10
8.5319043759514
20
-1.87400829923794
30
0
41
1
10
8.55912949589754
20
-1.80350437250269
30
0
41
1
10
8.57611416303979
20
-1.77220613029621
30
0
41
1
10
8.62192333101672
20
-1.7075927037229
30
0
41
1
10
8.65347899160304
20
-1.67583159364179
30
0
41
1
10
8.69970919988668
20
-1.64131057479636
30
0
41
1
10
8.71224501396102
20
-1.6329690343571
30
0
41
1
10
8.7250801037294
20
-1.62537049100251
30
0
0
SPLINE
5
98
100
AcDbEntity
8
1
62
256
6
ByLayer
370
-1
48
1
60
0
100
AcDbSpline
70
4
71
3
72
14
73
10
40
0
40
0
40
0
40
0
40
0.284549284603274
40
0.284549284603274
40
0.57175933886985
40
0.57175933886985
40
0.83201953671369
40
0.83201953671369
40
1
40
1
40
1
40
1
41
1
10
8.63285646045273
20
-1.28118716863483
30
0
41
1
10
8.6540193537594
20
-1.28141843377725
30
0
41
1
10
8.67581296297431
20
-1.28538062504569
30
0
41
1
10
8.7171390332839
20
-1.30104529862584
30
0
41
1
10
8.73727301479218
20
-1.31309859961132
30
0
41
1
10
8.77013590808508
20
-1.34263669832077
30
0
41
1
10
8.78385238827818
20
-1.35997826274547
30
0
41
1
10
8.80062905879032
20
-1.3914026107843
30
0
41
1
10
8.80588555909574
20
-1.4046888649074
30
0
41
1
10
8.80953120485378
20
-1.41829460010294
30
0
0
SPLINE
5
99
100
AcDbEntity
8
1
62
256
6
ByLayer
370
-1
48
1
60
0
100
AcDbSpline
70
4
71
3
72
16
73
12
40
0
40
0
40
0
40
0
40
0.0670760088337953
40
0.0670760088337953
40
0.291714746952818
40
0.291714746952818
40
0.519343434920643
40
0.519343434920643
40
0.761548048254853
40
0.761548048254853
40
1
40
1
40
1
40
1
41
1
10
6.81006474443546
20
-1.95405002346516
30
0
41
1
10
6.8086043087504
20
-1.94859960328733
30
0
41
1
10
6.80739213217026
20
-1.94307521906799
30
0
41
1
10
6.80325747049179
20
-1.91902966065425
30
0
41
1
10
6.80294858394791
20
-1.89986376604565
30
0
41
1
10
6.80789571394084
20
-1.86300104234493
30
0
41
1
10
6.8132740021841
20
-1.8448558423697
30
0
41
1
10
6.8290393348525
20
-1.8108399247499
30
0
41
1
10
6.83990428377493
20
-1.7947545971017
30
0
41
1
10
6.86490381141226
20
-1.76752807029194
30
0
41
1
10
6.87923215803232
20
-1.75602227826559
30
0
41
1
10
6.89451584555985
20
-1.74697413256561
30
0
0
SPLINE
5
9A
100
AcDbEntity
8
1
62
256
6
ByLayer
370
-1
48
1
60
0
100
AcDbSpline
70
4
71
3
72
14
73
10
40
0
40
0
40
0
40
0
40
0.284432458002481
40
0.284432458002481
40
0.571657132613778
40
0.571657132613778
40
0.831928938770908
40
0.831928938770908
40
1
40
1
40
1
40
1
41
1
10
7.047103765797
20
-1.17652951430469
30
0
41
1
10
7.03671103638604
20
-1.15810273794557
30
0
41
1
10
7.02922957495201
20
-1.13726393908922
30
0
41
1
10
7.02209005505711
20
-1.09365789580065
30
0
41
1
10
7.02243806131247
20
-1.07019351551992
30
0
41
1
10
7.03154473211509
20
-1.02695380529883
30
0
41
1
10
7.03968470091306
20
-1.00639540405589
30
0
41
1
10
7.05848534934029
20
-0.976128712095885
30
0
41
1
10
7.06735792185412
20
-0.964918966546719
30
0
41
1
10
7.07731480841474
20
-0.954944979697899
30
0
0
SPLINE
5
9B
100
AcDbEntity
8
1
62
256
6
ByLayer
370
-1
48
1
60
0
100
AcDbSpline
70
4
71
3
72
16
73
12
40
0
40
0
40
0
40
0
40
0.0667984943024904
40
0.0667984943024904
40
0.290790770448998
40
0.290790770448998
40
0.517759657423325
40
0.517759657423325
40
0.759258608120855
40
0.759258608120855
40
1
40
1
40
1
40
1
41
1
10
8.54228114087448
20
-2.41739964387023
30
0
41
1
10
8.53829956191072
20
-2.42138806093016
30
0
41
1
10
8.53413012393338
20
-2.42519906209085
30
0
41
1
10
8.51539385810321
20
-2.44081638702943
30
0
41
1
10
8.49895951997155
20
-2.45068293356692
30
0
41
1
10
8.46457547958187
20
-2.46486333265003
30
0
41
1
10
8.44617647444051
20
-2.46929603487013
30
0
41
1
10
8.40883878568687
20
-2.47268699885754
30
0
41
1
10
8.38947498511345
20
-2.47133919422831
30
0
41
1
10
8.35316748877329
20
-2.46328838728829
30
0
41
1
10
8.3358294828499
20
-2.45653266673736
30
0
41
1
10
8.32018907685691
20
-2.44767518687121
30
0
0
SPLINE
5
9C
100
AcDbEntity
8
1
62
256
6
ByLayer
370
-1
48
1
60
0
100
AcDbSpline
70
4
71
3
72
16
73
12
40
0
40
0
40
0
40
0
40
0.0646963914667223
40
0.0646963914667223
40
0.289371314309821
40
0.289371314309821
40
0.516902592626574
40
0.516902592626574
40
0.758901214133265
40
0.758901214133265
40
1
40
1
40
1
40
1
41
1
10
8.07853333840106
20
-0.686669283140986
30
0
41
1
10
8.08379041300969
20
-0.688082747449499
30
0
41
1
10
8.08899116026333
20
-0.68973058313216
30
0
41
1
10
8.11172014573248
20
-0.698051638717573
30
0
41
1
10
8.12850056275835
20
-0.707331088209031
30
0
41
1
10
8.15800602679815
20
-0.729982605757328
30
0
41
1
10
8.17106163637033
20
-0.743681860514414
30
0
41
1
10
8.19270227582001
20
-0.774285163291097
30
0
41
1
10
8.20123784338145
20
-0.791709427967305
30
0
41
1
10
8.2124633003213
20
-0.827136850796961
30
0
41
1
10
8.21530833449694
20
-0.845506738833649
30
0
41
1
10
8.21548913608626
20
-0.863461597887351
30
0
0
INSERT
5
D0
100
AcDbEntity
8
SK2
62
256
6
ByLayer
370
-1
48
1
60
0
100
AcDbBlockReference
2
DimnDraft3D11
10
0
20
0
30
0
41
1
42
1
43
1
50
0
210
0
220
0
230
1
0
LINE
5
4C
100
AcDbEntity
8
80
62
256
6
ByLayer
370
-1
48
1
60
0
100
AcDbLine
10
0
20
0
30
0
11
-5
21
0
31
0
39
0
210
0
220
0
230
1
0
LINE
5
4D
100
AcDbEntity
8
81
62
256
6
ByLayer
370
-1
48
1
60
0
100
AcDbLine
10
13.573598
20
-0.4125
30
0
11
23.573598
21
-0.4125
31
0
39
0
210
0
220
0
230
1
0
LINE
5
4E
100
AcDbEntity
8
1
62
256
6
ByLayer
370
-1
48
1
60
0
100
AcDbLine
10
6.417471
20
2.340679
30
0
11
6.523349
21
1.945536
31
0
39
0
210
0
220
0
230
1
0
LINE
5
50
100
AcDbEntity
8
1
62
256
6
ByLayer
370
-1
48
1
60
0
100
AcDbLine
10
10.979098
20
1.341706
30
0
11
10.513717
21
0.876326
31
0
39
0
210
0
220
0
230
1
0
LINE
5
51
100
AcDbEntity
8
1
62
256
6
ByLayer
370
-1
48
1
60
0
100
AcDbLine
10
0
20
5.937037
30
0
11
0
21
-5.9375
31
0
39
0
210
0
220
0
230
1
0
LINE
5
52
100
AcDbEntity
8
1
62
256
6
ByLayer
370
-1
48
1
60
0
100
AcDbLine
10
4.862152
20
3.315582
30
0
11
4.88654
21
3.224562
31
0
39
0
210
0
220
0
230
1
0
LINE
5
53
100
AcDbEntity
8
1
62
256
6
ByLayer
370
-1
48
1
60
0
100
AcDbLine
10
4.62067
20
3.250877
30
0
11
4.645059
21
3.159857
31
0
39
0
210
0
220
0
230
1
0
LINE
5
54
100
AcDbEntity
8
1
62
256
6
ByLayer
370
-1
48
1
60
0
100
AcDbLine
10
4.645059
20
3.159857
30
0
11
4.88654
21
3.224562
31
0
39
0
210
0
220
0
230
1
0
LINE
5
55
100
AcDbEntity
8
1
62
256
6
ByLayer
370
-1
48
1
60
0
100
AcDbLine
10
1
20
-5.9375
30
0
11
0
21
-5.9375
31
0
39
0
210
0
220
0
230
1
0
LINE
5
56
100
AcDbEntity
8
1
62
256
6
ByLayer
370
-1
48
1
60
0
100
AcDbLine
10
6.508491
20
2.365067
30
0
11
6.628449
21
1.917376
31
0
39
0
210
0
220
0
230
1
0
LINE
5
57
100
AcDbEntity
8
1
62
256
6
ByLayer
370
-1
48
1
60
0
100
AcDbLine
10
4.62067
20
3.250877
30
0
11
4.862152
21
3.315582
31
0
39
0
210
0
220
0
230
1
0
LINE
5
58
100
AcDbEntity
8
1
62
256
6
ByLayer
370
-1
48
1
60
0
100
AcDbLine
10
6.508491
20
2.365067
30
0
11
6.417471
21
2.340679
31
0
39
0
210
0
220
0
230
1
0
LINE
5
59
100
AcDbEntity
8
1
62
256
6
ByLayer
370
-1
48
1
60
0
100
AcDbLine
10
0
20
5.937037
30
0
11
5.354694
21
5.937037
31
0
39
0
210
0
220
0
230
1
0
LINE
5
5A
100
AcDbEntity
8
1
62
256
6
ByLayer
370
-1
48
1
60
0
100
AcDbLine
10
5.354694
20
5.937037
30
0
11
10.905758
21
1.401628
31
0
39
0
210
0
220
0
230
1
0
LINE
5
5B
100
AcDbEntity
8
1
62
256
6
ByLayer
370
-1
48
1
60
0
100
AcDbLine
10
10.905758
20
1.401628
30
0
11
10.408614
21
0.904485
31
0
39
0
210
0
220
0
230
1
0
LINE
5
5C
100
AcDbEntity
8
1
62
256
6
ByLayer
370
-1
48
1
60
0
100
AcDbLine
10
1.627032
20
-6.564532
30
0
11
5.82989
21
-6.564532
31
0
39
0
210
0
220
0
230
1
0
LINE
5
5D
100
AcDbEntity
8
1
62
256
6
ByLayer
370
-1
48
1
60
0
100
AcDbLine
10
1.627032
20
-6.564532
30
0
11
1
21
-5.9375
31
0
39
0
210
0
220
0
230
1
0
LINE
5
5E
100
AcDbEntity
8
1
62
256
6
ByLayer
370
-1
48
1
60
0
100
AcDbLine
10
10.905758
20
1.401628
30
0
11
10.979098
21
1.341706
31
0
39
0
210
0
220
0
230
1
0
LINE
5
5F
100
AcDbEntity
8
1
62
256
6
ByLayer
370
-1
48
1
60
0
100
AcDbLine
10
12.053752
20
0.463677
30
0
11
10.979098
21
1.341706
31
0
39
0
210
0
220
0
230
1
0
LINE
5
60
100
AcDbEntity
8
1
62
256
6
ByLayer
370
-1
48
1
60
0
100
AcDbLine
10
13.457203
20
-0.528895
30
0
11
6.652521
21
-7.333578
31
0
39
0
210
0
220
0
230
1
0
LINE
5
61
100
AcDbEntity
8
SK1
62
256
6
ByLayer
370
-1
48
1
60
0
100
AcDbLine
10
-67.776402
20
5.9375
30
0
11
-0.106
21
5.9375
31
0
39
0
210
0
220
0
230
1
0
LINE
5
63
100
AcDbEntity
8
SK1
62
256
6
ByLayer
370
-1
48
1
60
0
100
AcDbLine
10
-0.106
20
-5.9375
30
0
11
-0.106
21
5.9375
31
0
39
0
210
0
220
0
230
1
0
LINE
5
64
100
AcDbEntity
8
SK1
62
256
6
ByLayer
370
-1
48
1
60
0
100
AcDbLine
10
-0.106
20
-5.9375
30
0
11
-67.776402
21
-5.9375
31
0
39
0
210
0
220
0
230
1
0
LINE
5
65
100
AcDbEntity
8
1
62
256
6
ByLayer
370
-1
48
1
60
0
100
AcDbLine
10
3.983864
20
2.625986
30
0
11
13.279233
21
0.135299
31
0
39
0
210
0
220
0
230
1
0
LINE
5
66
100
AcDbEntity
8
1
62
256
6
ByLayer
370
-1
48
1
60
0
100
AcDbLine
10
5.988327
20
-7.155607
30
0
11
3.49764
21
2.139762
31
0
39
0
210
0
220
0
230
1
0
LINE
5
67
100
AcDbEntity
8
SK1
62
256
6
ByLayer
370
-1
48
1
60
0
100
AcDbLine
10
-67.776402
20
-5.9375
30
0
11
-67.776402
21
5.9375
31
0
39
0
210
0
220
0
230
1
0
LINE
5
68
100
AcDbEntity
8
SK1
62
256
6
ByLayer
370
-1
48
1
60
0
100
AcDbLine
10
-0.106
20
5.9375
30
0
11
0
21
5.937037
31
0
39
0
210
0
220
0
230
1
0
LINE
5
69
100
AcDbEntity
8
SK1
62
256
6
ByLayer
370
-1
48
1
60
0
100
AcDbLine
10
0
20
-5.9375
30
0
11
0
21
5.937037
31
0
39
0
210
0
220
0
230
1
0
LINE
5
6A
100
AcDbEntity
8
SK1
62
256
6
ByLayer
370
-1
48
1
60
0
100
AcDbLine
10
0
20
-5.9375
30
0
11
-0.106
21
-5.9375
31
0
39
0
210
0
220
0
230
1
0
LINE
5
6B
100
AcDbEntity
8
2
62
256
6
ByLayer
370
-1
48
1
60
1
100
AcDbLine
10
13.573598
20
-0.4125
30
0
11
13.574305
21
-0.411793
31
0
39
0
210
0
220
0
230
1
0
MTEXT
5
9D
100
AcDbEntity
8
SK6
62
256
6
ByLayer
370
-1
48
1
60
0
100
AcDbMText
10
-38.617648
20
16.395841
30
0
210
0
220
0
230
1
1
\W00.711;\fsimplex.shx,bigfont.shx;STDCL 1212F 11 
40
3.5
41
0
44
1.084337
50
0
71
7
72
5
7
DEFAULT
0
DIMENSION
5
DF
100
AcDbEntity
8
2
62
256
6
ByLayer
370
-3
48
1
60
0
100
AcDbDimension
2
DimnDraft3D2
10
25.077571
20
11.091473
30
0
11
29.906531
21
6.642952
31
0
70
34
71
5
72
1
41
1
210
0
220
0
230
1
3
Standard
100
AcDb2LineAngularDimension
13
13.573598
23
2.148766
33
0
14
13.573598
24
15.856574
34
0
15
14.87157
25
0.885472
35
0
16
32.335707
26
0.098803
36
0
40
0
0
DIMENSION
5
F4
100
AcDbEntity
8
SK2
62
256
6
ByLayer
370
-3
48
1
60
0
100
AcDbDimension
2
DimnDraft3D3
10
-67.776402
20
-24.894984
30
0
11
-37.319028
21
-24.894984
31
0
70
32
71
5
72
1
41
1
210
0
220
0
230
1
3
Standard
100
AcDbAlignedDimension
13
6.76861
23
-9.449973
33
0
14
-67.776402
24
-7.9375
34
0
50
0
100
AcDbRotatedDimension
1001
ACAD
1000
DSTYLE
1002
{
1070
   279
1070
     0
1070
   172
1070
     1
1070
   173
1070
     1
1070
   340
1005
9E
1070
    77
1070
     1
1070
    73
1070
     0
1070
   171
1070
     3
1070
   274
1070
     4
1070
   177
1070
     2
1070
   176
1070
     2
1070
   178
1070
     7
1070
    78
1070
     8
1070
    41
1041
3.175
1070
   147
1041
2.25
1070
    42
1041
2.0
1070
    44
1041
2.0
1070
   140
1041
4.5
1070
   343
1005
E0
1070
   344
1005
E0
1002
}
0
DIMENSION
5
102
100
AcDbEntity
8
2
62
256
6
ByLayer
370
-3
48
1
60
0
100
AcDbDimension
2
DimnDraft3D4
10
50.823598
20
-7.449973
30
0
11
50.823598
21
16.1925
31
0
70
32
71
5
72
1
41
1
210
0
220
0
230
1
3
Standard
100
AcDbAlignedDimension
13
2
23
5.9375
33
0
14
8.76861
24
-7.449973
34
0
50
90
100
AcDbRotatedDimension
1001
ACAD
1000
DSTYLE
1002
{
1070
    74
1070
     0
1070
   279
1070
     0
1070
   172
1070
     1
1070
   173
1070
     1
1070
   340
1005
9E
1070
    77
1070
     1
1070
    73
1070
     0
1070
   171
1070
     3
1070
   274
1070
     4
1070
   177
1070
     2
1070
   176
1070
     2
1070
   178
1070
     7
1070
    78
1070
     8
1070
    41
1041
3.175
1070
   147
1041
2.25
1070
    42
1041
2.0
1070
    44
1041
2.0
1070
   140
1041
4.5
1070
   343
1005
E0
1070
   344
1005
E0
1002
}
0
DIMENSION
5
110
100
AcDbEntity
8
2
62
256
6
ByLayer
370
-3
48
1
60
0
100
AcDbDimension
2
DimnDraft3D5
10
40.823598
20
-0.4125
30
0
11
40.823598
21
1.785526
31
0
70
32
71
5
72
1
41
1
210
0
220
0
230
1
3
Standard
100
AcDbAlignedDimension
13
2
23
5.9375
33
0
14
15.573598
24
-0.4125
34
0
50
90
100
AcDbRotatedDimension
1001
ACAD
1000
DSTYLE
1002
{
1070
    74
1070
     0
1070
   279
1070
     0
1070
   172
1070
     1
1070
   173
1070
     1
1070
   340
1005
9E
1070
    77
1070
     1
1070
    73
1070
     0
1070
   171
1070
     3
1070
   274
1070
     4
1070
   177
1070
     2
1070
   176
1070
     2
1070
   178
1070
     7
1070
    78
1070
     8
1070
    41
1041
3.175
1070
   147
1041
2.25
1070
    42
1041
2.0
1070
    44
1041
2.0
1070
   140
1041
4.5
1070
   343
1005
E0
1070
   344
1005
E0
1002
}
0
DIMENSION
5
11E
100
AcDbEntity
8
SK2
62
256
6
ByLayer
370
-3
48
1
60
0
100
AcDbDimension
2
DimnDraft3D6
10
-77.526402
20
-5.9375
30
0
11
-77.526402
21
-2.066447
31
0
70
32
71
5
72
1
41
1
210
0
220
0
230
1
3
Standard
100
AcDbAlignedDimension
13
-69.776402
23
5.9375
33
0
14
-69.776402
24
-5.9375
34
0
50
90
100
AcDbRotatedDimension
1001
ACAD
1000
DSTYLE
1002
{
1070
    74
1070
     0
1070
   279
1070
     0
1070
   172
1070
     1
1070
   173
1070
     1
1070
   340
1005
9E
1070
    77
1070
     1
1070
    73
1070
     0
1070
   171
1070
     3
1070
   274
1070
     4
1070
   177
1070
     2
1070
   176
1070
     2
1070
   178
1070
     7
1070
    78
1070
     8
1070
    41
1041
3.175
1070
   147
1041
2.25
1070
    42
1041
2.0
1070
    44
1041
2.0
1070
   140
1041
4.5
1070
   343
1005
E0
1070
   344
1005
E0
1002
}
0
ENDSEC
0
SECTION
2
OBJECTS
0
DICTIONARY
5
14e
330
0
100
AcDbDictionary
280
0
281
1
3
ACAD_GROUP
350
14f
3
ACAD_MLINESTYLE
350
150
0
DICTIONARY
5
14f
330
0
100
AcDbDictionary
280
0
281
1
0
DICTIONARY
5
150
330
0
100
AcDbDictionary
280
0
281
1
3
Standard
350
18
0
MLINESTYLE
5
18
330
150
100
AcDbMlineStyle
2
Standard
70
0
3

62
256
51
90
52
90
71
2
49
-0.5
62
256
6
ByLayer
49
0.5
62
256
6
ByLayer
0
RASTERVARIABLES
5
13d
330

100
AcDbRasterVariables
90
0
70
1
71
1
72
1
0
ENDSEC
0
EOF
