0
SECTION
2
HEADER
9
$ACADVER
1
AC1015
9
$DWGCODEPAGE
3
ANSI_1252
9
$HANDSEED
5
14d
9
$ANGBASE
50
0
9
$ANGDIR
70
0
9
$ATTMODE
70
1
9
$AUNITS
70
0
9
$AUPREC
70
0
9
$CECOLOR
62
256
9
$CELTSCALE
40
1
9
$CELTYPE
6
ByLayer
9
$CELWEIGHT
370
-1
9
$CLAYER
8
0
9
$CMLJUST
70
0
9
$CMLSCALE
40
1
9
$CMLSTYLE
2
Standard
9
$DIMSTYLE
2
Standard
9
$TEXTSIZE
40
0.2
9
$TEXTSTYLE
7
Standard
9
$LUNITS
70
2
9
$LUPREC
70
4
9
$EXTNAMES
290
1
9
$INSUNITS
70
4
9
$LTSCALE
40
1
9
$LWDISPLAY
290
0
9
$PDMODE
70
0
9
$PDSIZE
40
0
9
$PLINEGEN
70
0
0
ENDSEC
0
SECTION
2
CLASSES
0
CLASS
1
RASTERVARIABLES
2
AcDbRasterVariables
3
ISM
90
0
280
0
281
0
0
ENDSEC
0
SECTION
2
TABLES
0
TABLE
2
VPORT
5
143
100
AcDbSymbolTable
0
VPORT
5
1
100
AcDbSymbolTableRecord
100
AcDbViewportTableRecord
2
*Active
70
0
10
0
20
0
11
1
21
1
12
-1
22
1
13
0
23
0
14
0.5
24
0.5
15
10
25
10
16
0
26
0
36
1
17
0
27
0
37
0
0
ENDTAB
0
TABLE
2
LTYPE
5
144
100
AcDbSymbolTable
0
LTYPE
5
14
100
AcDbSymbolTableRecord
100
AcDbLinetypeTableRecord
70
0
2
ByBlock
3

72
65
73
0
40
0
0
LTYPE
5
15
100
AcDbSymbolTableRecord
100
AcDbLinetypeTableRecord
70
0
2
ByLayer
3

72
65
73
0
40
0
0
LTYPE
5
16
100
AcDbSymbolTableRecord
100
AcDbLinetypeTableRecord
70
0
2
CONTINUOUS
3
Solid line
72
65
73
0
40
0
0
LTYPE
5
3B
100
AcDbSymbolTableRecord
100
AcDbLinetypeTableRecord
70
0
2
DASHED
3
__ __ __ __ __ __ __ __ __
72
65
73
2
40
25.72
49
12.86
74
0
49
-12.86
74
0
0
LTYPE
5
3C
100
AcDbSymbolTableRecord
100
AcDbLinetypeTableRecord
70
0
2
HIDDEN
3
_ _ _ _ _ _ _ _ _ _ _ _ _ _ _
72
65
73
2
40
0.5
49
0.25
74
0
49
-0.25
74
0
0
LTYPE
5
3D
100
AcDbSymbolTableRecord
100
AcDbLinetypeTableRecord
70
0
2
PHANTOM
3
____ _ _ ____ _ _ _____ _ _ ____
72
65
73
6
40
50.5
49
18
74
0
49
-6.5
74
0
49
6.5
74
0
49
-6.5
74
0
49
6.5
74
0
49
-6.5
74
0
0
LTYPE
5
3E
100
AcDbSymbolTableRecord
100
AcDbLinetypeTableRecord
70
0
2
CENTER
3
____ _ ____ _ ____ _ ____
72
65
73
4
40
47.5
49
22
74
0
49
-8.5
74
0
49
8.5
74
0
49
-8.5
74
0
0
LTYPE
5
3F
100
AcDbSymbolTableRecord
100
AcDbLinetypeTableRecord
70
0
2
DOT
3
.........................
72
65
73
2
40
10
49
0
74
0
49
-10
74
0
0
LTYPE
5
40
100
AcDbSymbolTableRecord
100
AcDbLinetypeTableRecord
70
0
2
DASHDOT
3
_._._._._._._._._._._._._._._._.
72
65
73
4
40
70
49
31
74
0
49
-13
74
0
49
13
74
0
49
-13
74
0
0
ENDTAB
0
TABLE
2
LAYER
5
145
100
AcDbSymbolTable
0
LAYER
5
10
100
AcDbSymbolTableRecord
100
AcDbLayerTableRecord
2
0
70
0
62
7
6
CONTINUOUS
290
1
370
-3
390
0
0
LAYER
5
44
100
AcDbSymbolTableRecord
100
AcDbLayerTableRecord
2
81
70
0
62
-3
6
CONTINUOUS
290
1
370
-3
390
0
0
LAYER
5
47
100
AcDbSymbolTableRecord
100
AcDbLayerTableRecord
2
2
70
0
62
7
6
CONTINUOUS
290
1
370
-3
390
0
0
LAYER
5
49
100
AcDbSymbolTableRecord
100
AcDbLayerTableRecord
2
80
70
0
62
-6
6
CONTINUOUS
290
1
370
-3
390
0
0
LAYER
5
4F
100
AcDbSymbolTableRecord
100
AcDbLayerTableRecord
2
1
70
0
62
4
6
CONTINUOUS
290
1
370
-3
390
0
0
LAYER
5
130
100
AcDbSymbolTableRecord
100
AcDbLayerTableRecord
2
SK2
70
0
62
7
6
CONTINUOUS
290
1
370
-3
390
0
0
LAYER
5
131
100
AcDbSymbolTableRecord
100
AcDbLayerTableRecord
2
SK1
70
0
62
4
6
CONTINUOUS
290
1
370
-3
390
0
0
LAYER
5
132
100
AcDbSymbolTableRecord
100
AcDbLayerTableRecord
2
SK6
70
0
62
5
6
CONTINUOUS
290
1
370
-3
390
0
0
ENDTAB
0
TABLE
2
STYLE
5
146
100
AcDbSymbolTable
0
STYLE
5
11
100
AcDbSymbolTableRecord
100
AcDbTextStyleTableRecord
2
Standard
3
txt
70
0
71
0
40
0
41
1
42
0
50
0
0
STYLE
5
91
100
AcDbSymbolTableRecord
100
AcDbTextStyleTableRecord
2
DEFAULT
3
simplex.shx
70
0
71
0
40
0
41
1
42
0
50
0
0
STYLE
5
B4
100
AcDbSymbolTableRecord
100
AcDbTextStyleTableRecord
2
DWGDirectTextStyle
3
SIMPLEX
70
0
71
0
40
0
41
1
42
0
50
0
0
ENDTAB
0
TABLE
2
DIMSTYLE
5
147
100
AcDbSymbolTable
100
AcDbDimStyleTable
0
DIMSTYLE
105
27
100
AcDbSymbolTableRecord
100
AcDbDimStyleTableRecord
2
Standard
70
0
3
<>
41
0.18
42
0.0625
44
0.18
140
0.18
147
0.09
73
0
74
0
77
1
271
2
275
0
278
52
280
0
340
11
0
ENDTAB
0
TABLE
2
VIEW
5
148
100
AcDbSymbolTable
0
ENDTAB
0
TABLE
2
UCS
5
149
100
AcDbSymbolTable
0
ENDTAB
0
TABLE
2
APPID
5
14a
100
AcDbSymbolTable
0
APPID
5
12
100
AcDbSymbolTableRecord
100
AcDbRegAppTableRecord
2
ACAD
70
0
0
ENDTAB
0
TABLE
2
BLOCK_RECORD
5
14b
100
AcDbSymbolTable
0
BLOCK_RECORD
5
1F
100
AcDbSymbolTableRecord
100
AcDbBlockTableRecord
2
*Model_Space
340
0
70
0
0
BLOCK_RECORD
5
1B
100
AcDbSymbolTableRecord
100
AcDbBlockTableRecord
2
*Paper_Space
340
0
70
0
0
BLOCK_RECORD
5
23
100
AcDbSymbolTableRecord
100
AcDbBlockTableRecord
2
*Paper_Space0
340
0
70
0
0
BLOCK_RECORD
5
B6
100
AcDbSymbolTableRecord
100
AcDbBlockTableRecord
2
DimnDraft3D11
340
0
70
0
0
BLOCK_RECORD
5
C4
100
AcDbSymbolTableRecord
100
AcDbBlockTableRecord
2
DimnDraft3D2
340
0
70
0
0
BLOCK_RECORD
5
D2
100
AcDbSymbolTableRecord
100
AcDbBlockTableRecord
2
_CLOSED
340
0
70
0
0
BLOCK_RECORD
5
D9
100
AcDbSymbolTableRecord
100
AcDbBlockTableRecord
2
DimnDraft3D3
340
0
70
0
0
BLOCK_RECORD
5
E7
100
AcDbSymbolTableRecord
100
AcDbBlockTableRecord
2
DimnDraft3D4
340
0
70
0
0
BLOCK_RECORD
5
F5
100
AcDbSymbolTableRecord
100
AcDbBlockTableRecord
2
DimnDraft3D5
340
0
70
0
0
BLOCK_RECORD
5
103
100
AcDbSymbolTableRecord
100
AcDbBlockTableRecord
2
DimnDraft3D6
340
0
70
0
0
ENDTAB
0
ENDSEC
0
SECTION
2
BLOCKS
0
BLOCK
5
20
100
AcDbEntity
8
0
100
AcDbBlockBegin
2
*Model_Space
70
0
10
0
20
0
30
0
3
*Model_Space
0
ENDBLK
5
21
100
AcDbEntity
8
0
100
AcDbBlockEnd
0
BLOCK
5
1C
100
AcDbEntity
8
0
100
AcDbBlockBegin
2
*Paper_Space
70
0
10
0
20
0
30
0
3
*Paper_Space
0
ENDBLK
5
1D
100
AcDbEntity
8
0
100
AcDbBlockEnd
0
BLOCK
5
24
100
AcDbEntity
8
0
100
AcDbBlockBegin
2
*Paper_Space0
70
0
10
0
20
0
30
0
3
*Paper_Space0
0
ENDBLK
5
25
100
AcDbEntity
8
0
100
AcDbBlockEnd
0
BLOCK
5
B7
100
AcDbEntity
8
0
100
AcDbBlockBegin
2
DimnDraft3D11
70
0
10
0
20
0
30
0
3
DimnDraft3D11
0
LINE
5
B9
100
AcDbEntity
8
SK2
62
256
6
ByLayer
370
-1
48
1
60
0
100
AcDbLine
10
21.726474
20
-6.557468
30
0
11
21.726474
21
-40.807468
31
0
39
0
210
0
220
0
230
1
0
LINE
5
BA
100
AcDbEntity
8
SK2
62
256
6
ByLayer
370
-1
48
1
60
0
100
AcDbLine
10
-104.623526
20
-11.9375
30
0
11
-104.623526
21
-40.807468
31
0
39
0
210
0
220
0
230
1
0
LINE
5
BB
100
AcDbEntity
8
SK2
62
256
6
ByLayer
370
-1
48
1
60
0
100
AcDbLine
10
21.726474
20
-38.807468
30
0
11
-104.623526
21
-38.807468
31
0
39
0
210
0
220
0
230
1
0
LINE
5
BC
100
AcDbEntity
8
SK2
62
256
6
ByLayer
370
-1
48
1
60
0
100
AcDbLine
10
21.726474
20
-38.807468
30
0
11
18.551476
21
-39.225465
31
0
39
0
210
0
220
0
230
1
0
LINE
5
BD
100
AcDbEntity
8
SK2
62
256
6
ByLayer
370
-1
48
1
60
0
100
AcDbLine
10
21.726474
20
-38.807468
30
0
11
18.551473
21
-38.389471
31
0
39
0
210
0
220
0
230
1
0
LINE
5
BE
100
AcDbEntity
8
SK2
62
256
6
ByLayer
370
-1
48
1
60
0
100
AcDbLine
10
18.551476
20
-39.225465
30
0
11
18.551473
21
-38.389471
31
0
39
0
210
0
220
0
230
1
0
LINE
5
BF
100
AcDbEntity
8
SK2
62
256
6
ByLayer
370
-1
48
1
60
0
100
AcDbLine
10
-104.623526
20
-38.807468
30
0
11
-101.448527
21
-38.389471
31
0
39
0
210
0
220
0
230
1
0
LINE
5
C0
100
AcDbEntity
8
SK2
62
256
6
ByLayer
370
-1
48
1
60
0
100
AcDbLine
10
-104.623526
20
-38.807468
30
0
11
-101.448524
21
-39.225465
31
0
39
0
210
0
220
0
230
1
0
LINE
5
C1
100
AcDbEntity
8
SK2
62
256
6
ByLayer
370
-1
48
1
60
0
100
AcDbLine
10
-101.448527
20
-38.389471
30
0
11
-101.448524
21
-39.225465
31
0
39
0
210
0
220
0
230
1
0
MTEXT
5
C2
100
AcDbEntity
8
SK2
62
256
6
ByLayer
370
-1
48
1
60
0
100
AcDbMText
10
-44.041947
20
-37.682468
30
0
210
0
220
0
230
1
1
\W00.604;\fsimplex.shx,bigfont.shx;125 
40
4.5
41
0
44
1.084337
50
0
71
7
72
5
7
DEFAULT
0
ENDBLK
5
B8
100
AcDbEntity
8
0
100
AcDbBlockEnd
0
BLOCK
5
CF
100
AcDbEntity
8
0
100
AcDbBlockBegin
2
DimnDraft3D2
70
0
10
0
20
0
30
0
3
DimnDraft3D2
0
MTEXT
5
C5
100
AcDbEntity
8
2
62
256
6
ByLayer
370
-1
48
1
60
0
100
AcDbMText
10
27.341415
20
23.79066
30
0
210
0
220
0
230
1
1
\W01.000;\fsimplex.shx,bigfont.shx;45%%d0' 
40
4.5
41
0
44
1.084337
50
337.5
71
7
72
5
7
DEFAULT
0
LINE
5
C6
100
AcDbEntity
8
2
62
256
6
ByLayer
370
-1
48
1
60
0
100
AcDbLine
10
21.726474
20
-0.969968
30
0
11
21.726474
21
24.691926
31
0
39
0
210
0
220
0
230
1
0
LINE
5
C7
100
AcDbEntity
8
2
62
256
6
ByLayer
370
-1
48
1
60
0
100
AcDbLine
10
22.908204
20
-2.91077
30
0
11
42.080137
21
16.261163
31
0
39
0
210
0
220
0
230
1
0
ARC
5
C8
100
AcDbEntity
8
2
62
256
6
ByLayer
370
-1
48
1
60
0
100
AcDbCircle
39
0
10
21.726474
20
-4.0925
30
0
40
26.7844260008939
210
0
220
0
230
1
100
AcDbArc
50
45
51
90
0
LINE
5
C9
100
AcDbEntity
8
2
62
256
6
ByLayer
370
-1
48
1
60
0
100
AcDbLine
10
21.726474
20
22.691926
30
0
11
24.912453
21
23.015773
31
0
39
0
210
0
220
0
230
1
0
LINE
5
CA
100
AcDbEntity
8
2
62
256
6
ByLayer
370
-1
48
1
60
0
100
AcDbLine
10
21.726474
20
22.691926
30
0
11
24.887714
21
22.180146
31
0
39
0
210
0
220
0
230
1
0
LINE
5
CB
100
AcDbEntity
8
2
62
256
6
ByLayer
370
-1
48
1
60
0
100
AcDbLine
10
24.912453
20
23.015773
30
0
11
24.887714
21
22.180146
31
0
39
0
210
0
220
0
230
1
0
LINE
5
CC
100
AcDbEntity
8
2
62
256
6
ByLayer
370
-1
48
1
60
0
100
AcDbLine
10
40.665923
20
14.846949
30
0
11
38.068708
21
16.720398
31
0
39
0
210
0
220
0
230
1
0
LINE
5
CD
100
AcDbEntity
8
2
62
256
6
ByLayer
370
-1
48
1
60
0
100
AcDbLine
10
40.665923
20
14.846949
30
0
11
38.642088
21
17.328773
31
0
39
0
210
0
220
0
230
1
0
LINE
5
CE
100
AcDbEntity
8
2
62
256
6
ByLayer
370
-1
48
1
60
0
100
AcDbLine
10
38.068708
20
16.720398
30
0
11
38.642088
21
17.328773
31
0
39
0
210
0
220
0
230
1
0
ENDBLK
5
D0
100
AcDbEntity
8
0
100
AcDbBlockEnd
0
BLOCK
5
D3
100
AcDbEntity
8
0
100
AcDbBlockBegin
2
_CLOSED
70
0
10
0
20
0
30
0
3
_CLOSED
0
LINE
5
D5
100
AcDbEntity
8
0
62
256
6
ByLayer
370
-2
48
1
60
0
100
AcDbLine
10
-1
20
0.166667
30
0
11
0
21
0
31
0
39
0
210
0
220
0
230
1
0
LINE
5
D6
100
AcDbEntity
8
0
62
256
6
ByLayer
370
-2
48
1
60
0
100
AcDbLine
10
0
20
0
30
0
11
-1
21
-0.166667
31
0
39
0
210
0
220
0
230
1
0
LINE
5
D7
100
AcDbEntity
8
0
62
256
6
ByLayer
370
-2
48
1
60
0
100
AcDbLine
10
-1
20
0.166667
30
0
11
-1
21
-0.166667
31
0
39
0
210
0
220
0
230
1
0
LINE
5
D8
100
AcDbEntity
8
0
62
256
6
ByLayer
370
-2
48
1
60
0
100
AcDbLine
10
0
20
0
30
0
11
-1
21
0
31
0
39
0
210
0
220
0
230
1
0
ENDBLK
5
D4
100
AcDbEntity
8
0
100
AcDbBlockEnd
0
BLOCK
5
E4
100
AcDbEntity
8
0
100
AcDbBlockBegin
2
DimnDraft3D3
70
0
10
0
20
0
30
0
3
DimnDraft3D3
0
MTEXT
5
DA
100
AcDbEntity
8
SK2
62
256
6
ByLayer
370
-1
48
1
60
0
100
AcDbMText
10
-51.594493
20
-27.682468
30
0
210
0
220
0
230
1
1
\W01.000;\fsimplex.shx,bigfont.shx;116.68 
40
4.5
41
0
44
1.084337
50
0
71
7
72
5
7
DEFAULT
0
LINE
5
DB
100
AcDbEntity
8
SK2
62
256
6
ByLayer
370
-1
48
1
60
0
100
AcDbLine
10
13.86875
20
-14.415192
30
0
11
13.86875
21
-30.807468
31
0
39
0
210
0
220
0
230
1
0
LINE
5
DC
100
AcDbEntity
8
SK2
62
256
6
ByLayer
370
-1
48
1
60
0
100
AcDbLine
10
-104.623526
20
-11.9375
30
0
11
-104.623526
21
-30.807468
31
0
39
0
210
0
220
0
230
1
0
LINE
5
DD
100
AcDbEntity
8
SK2
62
256
6
ByLayer
370
-1
48
1
60
0
100
AcDbLine
10
13.86875
20
-28.807468
30
0
11
-104.623526
21
-28.807468
31
0
39
0
210
0
220
0
230
1
0
LINE
5
DE
100
AcDbEntity
8
SK2
62
256
6
ByLayer
370
-1
48
1
60
0
100
AcDbLine
10
13.86875
20
-28.807468
30
0
11
10.693752
21
-29.225465
31
0
39
0
210
0
220
0
230
1
0
LINE
5
DF
100
AcDbEntity
8
SK2
62
256
6
ByLayer
370
-1
48
1
60
0
100
AcDbLine
10
13.86875
20
-28.807468
30
0
11
10.693748
21
-28.389471
31
0
39
0
210
0
220
0
230
1
0
LINE
5
E0
100
AcDbEntity
8
SK2
62
256
6
ByLayer
370
-1
48
1
60
0
100
AcDbLine
10
10.693752
20
-29.225465
30
0
11
10.693748
21
-28.389471
31
0
39
0
210
0
220
0
230
1
0
LINE
5
E1
100
AcDbEntity
8
SK2
62
256
6
ByLayer
370
-1
48
1
60
0
100
AcDbLine
10
-104.623526
20
-28.807468
30
0
11
-101.448527
21
-28.389471
31
0
39
0
210
0
220
0
230
1
0
LINE
5
E2
100
AcDbEntity
8
SK2
62
256
6
ByLayer
370
-1
48
1
60
0
100
AcDbLine
10
-104.623526
20
-28.807468
30
0
11
-101.448524
21
-29.225465
31
0
39
0
210
0
220
0
230
1
0
LINE
5
E3
100
AcDbEntity
8
SK2
62
256
6
ByLayer
370
-1
48
1
60
0
100
AcDbLine
10
-101.448527
20
-28.389471
30
0
11
-101.448524
21
-29.225465
31
0
39
0
210
0
220
0
230
1
0
ENDBLK
5
E5
100
AcDbEntity
8
0
100
AcDbBlockEnd
0
BLOCK
5
F2
100
AcDbEntity
8
0
100
AcDbBlockBegin
2
DimnDraft3D4
70
0
10
0
20
0
30
0
3
DimnDraft3D4
0
MTEXT
5
E8
100
AcDbEntity
8
2
62
256
6
ByLayer
370
-1
48
1
60
0
100
AcDbMText
10
57.851474
20
-6.928978
30
0
210
0
220
0
230
1
1
\W01.000;\fsimplex.shx,bigfont.shx;22.00 
40
4.5
41
0
44
1.084337
50
90
71
7
72
5
7
DEFAULT
0
LINE
5
E9
100
AcDbEntity
8
2
62
256
6
ByLayer
370
-1
48
1
60
0
100
AcDbLine
10
2
20
9.9375
30
0
11
60.976474
21
9.9375
31
0
39
0
210
0
220
0
230
1
0
LINE
5
EA
100
AcDbEntity
8
2
62
256
6
ByLayer
370
-1
48
1
60
0
100
AcDbLine
10
15.86875
20
-12.415192
30
0
11
60.976474
21
-12.415192
31
0
39
0
210
0
220
0
230
1
0
LINE
5
EB
100
AcDbEntity
8
2
62
256
6
ByLayer
370
-1
48
1
60
0
100
AcDbLine
10
58.976474
20
21.1875
30
0
11
58.976474
21
-23.665192
31
0
39
0
210
0
220
0
230
1
0
LINE
5
EC
100
AcDbEntity
8
2
62
256
6
ByLayer
370
-1
48
1
60
0
100
AcDbLine
10
58.976474
20
9.9375
30
0
11
58.558477
21
13.112498
31
0
39
0
210
0
220
0
230
1
0
LINE
5
ED
100
AcDbEntity
8
2
62
256
6
ByLayer
370
-1
48
1
60
0
100
AcDbLine
10
58.976474
20
9.9375
30
0
11
59.394471
21
13.112502
31
0
39
0
210
0
220
0
230
1
0
LINE
5
EE
100
AcDbEntity
8
2
62
256
6
ByLayer
370
-1
48
1
60
0
100
AcDbLine
10
58.558477
20
13.112498
30
0
11
59.394471
21
13.112502
31
0
39
0
210
0
220
0
230
1
0
LINE
5
EF
100
AcDbEntity
8
2
62
256
6
ByLayer
370
-1
48
1
60
0
100
AcDbLine
10
58.976474
20
-12.415192
30
0
11
59.394471
21
-15.590191
31
0
39
0
210
0
220
0
230
1
0
LINE
5
F0
100
AcDbEntity
8
2
62
256
6
ByLayer
370
-1
48
1
60
0
100
AcDbLine
10
58.976474
20
-12.415192
30
0
11
58.558477
21
-15.590194
31
0
39
0
210
0
220
0
230
1
0
LINE
5
F1
100
AcDbEntity
8
2
62
256
6
ByLayer
370
-1
48
1
60
0
100
AcDbLine
10
59.394471
20
-15.590191
30
0
11
58.558477
21
-15.590194
31
0
39
0
210
0
220
0
230
1
0
ENDBLK
5
F3
100
AcDbEntity
8
0
100
AcDbBlockEnd
0
BLOCK
5
100
100
AcDbEntity
8
0
100
AcDbBlockBegin
2
DimnDraft3D5
70
0
10
0
20
0
30
0
3
DimnDraft3D5
0
MTEXT
5
F6
100
AcDbEntity
8
2
62
256
6
ByLayer
370
-1
48
1
60
0
100
AcDbMText
10
47.851474
20
-25.727763
30
0
210
0
220
0
230
1
1
\W01.000;\fsimplex.shx,bigfont.shx;13.68 
40
4.5
41
0
44
1.084337
50
90
71
7
72
5
7
DEFAULT
0
LINE
5
F7
100
AcDbEntity
8
2
62
256
6
ByLayer
370
-1
48
1
60
0
100
AcDbLine
10
2
20
9.9375
30
0
11
50.976474
21
9.9375
31
0
39
0
210
0
220
0
230
1
0
LINE
5
F8
100
AcDbEntity
8
2
62
256
6
ByLayer
370
-1
48
1
60
0
100
AcDbLine
10
23.726474
20
-4.0925
30
0
11
50.976474
21
-4.0925
31
0
39
0
210
0
220
0
230
1
0
LINE
5
F9
100
AcDbEntity
8
2
62
256
6
ByLayer
370
-1
48
1
60
0
100
AcDbLine
10
48.976474
20
9.9375
30
0
11
48.976474
21
-26.852763
31
0
39
0
210
0
220
0
230
1
0
LINE
5
FA
100
AcDbEntity
8
2
62
256
6
ByLayer
370
-1
48
1
60
0
100
AcDbLine
10
48.976474
20
9.9375
30
0
11
49.394471
21
6.762502
31
0
39
0
210
0
220
0
230
1
0
LINE
5
FB
100
AcDbEntity
8
2
62
256
6
ByLayer
370
-1
48
1
60
0
100
AcDbLine
10
48.976474
20
9.9375
30
0
11
48.558477
21
6.762498
31
0
39
0
210
0
220
0
230
1
0
LINE
5
FC
100
AcDbEntity
8
2
62
256
6
ByLayer
370
-1
48
1
60
0
100
AcDbLine
10
49.394471
20
6.762502
30
0
11
48.558477
21
6.762498
31
0
39
0
210
0
220
0
230
1
0
LINE
5
FD
100
AcDbEntity
8
2
62
256
6
ByLayer
370
-1
48
1
60
0
100
AcDbLine
10
48.976474
20
-4.0925
30
0
11
48.558477
21
-0.917502
31
0
39
0
210
0
220
0
230
1
0
LINE
5
FE
100
AcDbEntity
8
2
62
256
6
ByLayer
370
-1
48
1
60
0
100
AcDbLine
10
48.976474
20
-4.0925
30
0
11
49.394471
21
-0.917498
31
0
39
0
210
0
220
0
230
1
0
LINE
5
FF
100
AcDbEntity
8
2
62
256
6
ByLayer
370
-1
48
1
60
0
100
AcDbLine
10
48.558477
20
-0.917502
30
0
11
49.394471
21
-0.917498
31
0
39
0
210
0
220
0
230
1
0
ENDBLK
5
101
100
AcDbEntity
8
0
100
AcDbBlockEnd
0
BLOCK
5
10E
100
AcDbEntity
8
0
100
AcDbBlockBegin
2
DimnDraft3D6
70
0
10
0
20
0
30
0
3
DimnDraft3D6
0
MTEXT
5
104
100
AcDbEntity
8
SK2
62
256
6
ByLayer
370
-1
48
1
60
0
100
AcDbMText
10
-115.498526
20
-1.503947
30
0
210
0
220
0
230
1
1
\W01.000;\fsimplex.shx,bigfont.shx;20 
40
4.5
41
0
44
1.084337
50
90
71
7
72
5
7
DEFAULT
0
LINE
5
105
100
AcDbEntity
8
SK2
62
256
6
ByLayer
370
-1
48
1
60
0
100
AcDbLine
10
-106.623526
20
9.9375
30
0
11
-116.373526
21
9.9375
31
0
39
0
210
0
220
0
230
1
0
LINE
5
106
100
AcDbEntity
8
SK2
62
256
6
ByLayer
370
-1
48
1
60
0
100
AcDbLine
10
-106.623526
20
-9.9375
30
0
11
-116.373526
21
-9.9375
31
0
39
0
210
0
220
0
230
1
0
LINE
5
107
100
AcDbEntity
8
SK2
62
256
6
ByLayer
370
-1
48
1
60
0
100
AcDbLine
10
-114.373526
20
9.9375
30
0
11
-114.373526
21
-9.9375
31
0
39
0
210
0
220
0
230
1
0
LINE
5
108
100
AcDbEntity
8
SK2
62
256
6
ByLayer
370
-1
48
1
60
0
100
AcDbLine
10
-114.373526
20
9.9375
30
0
11
-113.955529
21
6.762502
31
0
39
0
210
0
220
0
230
1
0
LINE
5
109
100
AcDbEntity
8
SK2
62
256
6
ByLayer
370
-1
48
1
60
0
100
AcDbLine
10
-114.373526
20
9.9375
30
0
11
-114.791523
21
6.762498
31
0
39
0
210
0
220
0
230
1
0
LINE
5
10A
100
AcDbEntity
8
SK2
62
256
6
ByLayer
370
-1
48
1
60
0
100
AcDbLine
10
-113.955529
20
6.762502
30
0
11
-114.791523
21
6.762498
31
0
39
0
210
0
220
0
230
1
0
LINE
5
10B
100
AcDbEntity
8
SK2
62
256
6
ByLayer
370
-1
48
1
60
0
100
AcDbLine
10
-114.373526
20
-9.9375
30
0
11
-114.791523
21
-6.762502
31
0
39
0
210
0
220
0
230
1
0
LINE
5
10C
100
AcDbEntity
8
SK2
62
256
6
ByLayer
370
-1
48
1
60
0
100
AcDbLine
10
-114.373526
20
-9.9375
30
0
11
-113.955529
21
-6.762498
31
0
39
0
210
0
220
0
230
1
0
LINE
5
10D
100
AcDbEntity
8
SK2
62
256
6
ByLayer
370
-1
48
1
60
0
100
AcDbLine
10
-114.791523
20
-6.762502
30
0
11
-113.955529
21
-6.762498
31
0
39
0
210
0
220
0
230
1
0
ENDBLK
5
10F
100
AcDbEntity
8
0
100
AcDbBlockEnd
0
ENDSEC
0
SECTION
2
ENTITIES
0
ARC
5
64
100
AcDbEntity
8
1
62
256
6
ByLayer
370
-1
48
1
60
0
100
AcDbCircle
39
0
10
-4.175
20
-3.763718
30
0
40
1.5
210
0
220
0
230
-1
100
AcDbArc
50
270
51
90
0
ARC
5
65
100
AcDbEntity
8
1
62
256
6
ByLayer
370
-1
48
1
60
0
100
AcDbCircle
39
0
10
13.075
20
-3.763718
30
0
40
1.20650000000001
210
0
220
0
230
1
100
AcDbArc
50
266.044721
51
273.955279
0
ARC
5
67
100
AcDbEntity
8
1
62
256
6
ByLayer
370
-1
48
1
60
0
100
AcDbCircle
39
0
10
-13.075
20
-3.763718
30
0
40
1.20650000000001
210
0
220
0
230
-1
100
AcDbArc
50
29.920057
51
86.044721
0
ARC
5
68
100
AcDbEntity
8
1
62
256
6
ByLayer
370
-1
48
1
60
0
100
AcDbCircle
39
0
10
5.217629
20
-3.763718
30
0
40
0.79399999999998
210
0
220
0
230
1
100
AcDbArc
50
135
51
225
0
ARC
5
69
100
AcDbEntity
8
1
62
256
6
ByLayer
370
-1
48
1
60
0
100
AcDbCircle
39
0
10
13.075
20
4.093653
30
0
40
0.793999999999976
210
0
220
0
230
1
100
AcDbArc
50
45
51
135
0
ARC
5
6A
100
AcDbEntity
8
1
62
256
6
ByLayer
370
-1
48
1
60
0
100
AcDbCircle
39
0
10
20.932371
20
-3.763718
30
0
40
0.793999999999966
210
0
220
0
230
1
100
AcDbArc
50
315
51
45
0
ARC
5
6B
100
AcDbEntity
8
1
62
256
6
ByLayer
370
-1
48
1
60
0
100
AcDbCircle
39
0
10
13.075
20
-11.621089
30
0
40
0.793999999999976
210
0
220
0
230
1
100
AcDbArc
50
225
51
315
0
ARC
5
6C
100
AcDbEntity
8
1
62
256
6
ByLayer
370
-1
48
1
60
0
100
AcDbCircle
39
0
10
-13.075
20
-3.763718
30
0
40
1.20650000000001
210
0
220
0
230
-1
100
AcDbArc
50
93.955279
51
150.079943
0
ARC
5
6E
100
AcDbEntity
8
1
62
256
6
ByLayer
370
-1
48
1
60
0
100
AcDbCircle
39
0
10
13.075
20
-3.763718
30
0
40
1.67650000000001
210
0
220
0
230
1
100
AcDbArc
50
59.840113
51
120.159887
0
ARC
5
70
100
AcDbEntity
8
1
62
256
6
ByLayer
370
-1
48
1
60
0
100
AcDbCircle
39
0
10
13.075
20
-3.763718
30
0
40
1.67650000000001
210
0
220
0
230
1
100
AcDbArc
50
180
51
239.840113
0
ARC
5
71
100
AcDbEntity
8
1
62
256
6
ByLayer
370
-1
48
1
60
0
100
AcDbCircle
39
0
10
13.075
20
-3.763718
30
0
40
1.67650000000001
210
0
220
0
230
1
100
AcDbArc
50
239.840113
51
300.159887
0
ARC
5
72
100
AcDbEntity
8
1
62
256
6
ByLayer
370
-1
48
1
60
0
100
AcDbCircle
39
0
10
13.075
20
-3.763718
30
0
40
1.20650000000001
210
0
220
0
230
1
100
AcDbArc
50
86.044721
51
93.955279
0
ARC
5
73
100
AcDbEntity
8
1
62
256
6
ByLayer
370
-1
48
1
60
0
100
AcDbCircle
39
0
10
13.075
20
-3.763718
30
0
40
1.67650000000001
210
0
220
0
230
1
100
AcDbArc
50
300.159887
51
0
0
ARC
5
74
100
AcDbEntity
8
1
62
256
6
ByLayer
370
-1
48
1
60
0
100
AcDbCircle
39
0
10
13.075
20
-3.763718
30
0
40
1.67650000000001
210
0
220
0
230
1
100
AcDbArc
50
120.159887
51
180
0
ARC
5
75
100
AcDbEntity
8
1
62
256
6
ByLayer
370
-1
48
1
60
0
100
AcDbCircle
39
0
10
13.075
20
-3.763718
30
0
40
1.20650000000001
210
0
220
0
230
1
100
AcDbArc
50
209.920057
51
266.044721
0
ARC
5
76
100
AcDbEntity
8
1
62
256
6
ByLayer
370
-1
48
1
60
0
100
AcDbCircle
39
0
10
-13.075
20
-3.763718
30
0
40
1.20650000000001
210
0
220
0
230
-1
100
AcDbArc
50
209.920057
51
266.044721
0
ARC
5
77
100
AcDbEntity
8
1
62
256
6
ByLayer
370
-1
48
1
60
0
100
AcDbCircle
39
0
10
-13.075
20
-3.763718
30
0
40
1.20650000000001
210
0
220
0
230
-1
100
AcDbArc
50
330.079943
51
29.920057
0
ARC
5
78
100
AcDbEntity
8
1
62
256
6
ByLayer
370
-1
48
1
60
0
100
AcDbCircle
39
0
10
-13.075
20
-3.763718
30
0
40
1.20650000000001
210
0
220
0
230
-1
100
AcDbArc
50
150.079943
51
209.920057
0
ARC
5
7B
100
AcDbEntity
8
1
62
256
6
ByLayer
370
-1
48
1
60
0
100
AcDbCircle
39
0
10
13.075
20
-3.763718
30
0
40
1.67650000000001
210
0
220
0
230
1
100
AcDbArc
50
0
51
59.840113
0
CIRCLE
5
66
100
AcDbEntity
8
1
62
256
6
ByLayer
370
-1
48
1
60
0
100
AcDbCircle
10
-13.075
20
-3.763718
30
0
40
3.93651081363661
39
0
210
0
220
0
230
-1
0
CIRCLE
5
6D
100
AcDbEntity
8
1
62
256
6
ByLayer
370
-1
48
1
60
0
100
AcDbCircle
10
13.075
20
-3.763718
30
0
40
2.40000000000001
39
0
210
0
220
0
230
1
0
CIRCLE
5
6F
100
AcDbEntity
8
1
62
256
6
ByLayer
370
-1
48
1
60
0
100
AcDbCircle
10
13.075
20
-3.763718
30
0
40
3.425
39
0
210
0
220
0
230
1
0
CIRCLE
5
79
100
AcDbEntity
8
1
62
256
6
ByLayer
370
-1
48
1
60
0
100
AcDbCircle
10
13.075
20
-3.763718
30
0
40
4.07132534818239
39
0
210
0
220
0
230
1
0
CIRCLE
5
7A
100
AcDbEntity
8
1
62
256
6
ByLayer
370
-1
48
1
60
0
100
AcDbCircle
10
13.075
20
-3.763718
30
0
40
4.00697067753276
39
0
210
0
220
0
230
1
0
POINT
5
41
100
AcDbEntity
8
SK2
62
256
6
ByLayer
370
-1
48
1
60
0
100
AcDbPoint
10
21.726474
20
23.9675
30
0
39
0
210
0
220
0
230
1
50
360
0
POINT
5
43
100
AcDbEntity
8
81
62
256
6
ByLayer
370
-1
48
1
60
0
100
AcDbPoint
10
21.726474
20
-4.0925
30
0
39
0
210
0
220
0
230
1
50
360
0
POINT
5
45
100
AcDbEntity
8
SK2
62
256
6
ByLayer
370
-1
48
1
60
0
100
AcDbPoint
10
21.726474
20
23.9675
30
0
39
0
210
0
220
0
230
1
50
360
0
POINT
5
46
100
AcDbEntity
8
2
62
256
6
ByLayer
370
-1
48
1
60
0
100
AcDbPoint
10
21.726474
20
23.9675
30
0
39
0
210
0
220
0
230
1
50
360
0
POINT
5
48
100
AcDbEntity
8
80
62
256
6
ByLayer
370
-1
48
1
60
0
100
AcDbPoint
10
0
20
0
30
0
39
0
210
0
220
0
230
1
50
360
0
POINT
5
4A
100
AcDbEntity
8
SK2
62
256
6
ByLayer
370
-1
48
1
60
0
100
AcDbPoint
10
21.726474
20
23.9675
30
0
39
0
210
0
220
0
230
1
50
360
0
POINT
5
4B
100
AcDbEntity
8
SK2
62
256
6
ByLayer
370
-1
48
1
60
0
100
AcDbPoint
10
21.726474
20
23.9675
30
0
39
0
210
0
220
0
230
1
50
360
0
SPLINE
5
7C
100
AcDbEntity
8
1
62
256
6
ByLayer
370
-1
48
1
60
0
100
AcDbSpline
70
4
71
3
72
16
73
12
40
0
40
0
40
0
40
0
40
0.0624450082614023
40
0.0624450082614023
40
0.283207995985739
40
0.283207995985739
40
0.506745688833468
40
0.506745688833468
40
0.744607284736864
40
0.744607284736864
40
1
40
1
40
1
40
1
41
1
10
12.2327016963397
20
-2.31417122202944
30
0
41
1
10
12.2399936831845
20
-2.30993401609223
30
0
41
1
10
12.2474780945314
20
-2.3060087329207
30
0
41
1
10
12.28188062772
20
-2.28982389833038
30
0
41
1
10
12.3108948640169
20
-2.28130239623772
30
0
41
1
10
12.3690063384808
20
-2.2733379832849
30
0
41
1
10
12.3988364565737
20
-2.27388566368722
30
0
41
1
10
12.4571472923554
20
-2.28353655814823
30
0
41
1
10
12.4861545010766
20
-2.29327505226254
30
0
41
1
10
12.540324642001
20
-2.32095661523189
30
0
41
1
10
12.5657153855944
20
-2.33975544448794
30
0
41
1
10
12.5870890226361
20
-2.36138119721628
30
0
0
SPLINE
5
7D
100
AcDbEntity
8
1
62
256
6
ByLayer
370
-1
48
1
60
0
100
AcDbSpline
70
4
71
3
72
18
73
14
40
0
40
0
40
0
40
0
40
0.212491695755299
40
0.212491695755299
40
0.386618276853804
40
0.386618276853804
40
0.562426360907932
40
0.562426360907932
40
0.715388416645936
40
0.715388416645936
40
0.918249208689864
40
0.918249208689864
40
1
40
1
40
1
40
1
41
1
10
12.0973555322912
20
-2.6422139430905
30
0
41
1
10
12.1157239238099
20
-2.71076907156751
30
0
41
1
10
12.1239088908469
20
-2.78453295935478
30
0
41
1
10
12.1160389991461
20
-2.92069583149353
30
0
41
1
10
12.1038442405563
20
-2.98426922478526
30
0
41
1
10
12.0611694283771
20
-3.10681244533518
30
0
41
1
10
12.0297023316608
20
-3.16748552054426
30
0
41
1
10
11.9576967636609
20
-3.26742223846264
30
0
41
1
10
11.9180811011105
20
-3.30968620712113
30
0
41
1
10
11.8195940375196
20
-3.39232127917475
30
0
41
1
10
11.757106412471
20
-3.42919988680777
30
0
41
1
10
11.667223268082
20
-3.46576731406546
30
0
41
1
10
11.6407739639204
20
-3.47466249313038
30
0
41
1
10
11.6141346078147
20
-3.48188057273589
30
0
0
SPLINE
5
7E
100
AcDbEntity
8
1
62
256
6
ByLayer
370
-1
48
1
60
0
100
AcDbSpline
70
4
71
3
72
16
73
12
40
0
40
0
40
0
40
0
40
0.0630415689509636
40
0.0630415689509636
40
0.285914332024997
40
0.285914332024997
40
0.511588305408905
40
0.511588305408905
40
0.75172306183937
40
0.75172306183937
40
1
40
1
40
1
40
1
41
1
10
14.7515
20
-3.76371798486633
30
0
41
1
10
14.7515
20
-3.77215163869926
30
0
41
1
10
14.7511336287487
20
-3.78059495321679
30
0
41
1
10
14.7478431434152
20
-3.81847177729787
30
0
41
1
10
14.740633890411
20
-3.84783959363691
30
0
41
1
10
14.718324088693
20
-3.90208577470966
30
0
41
1
10
14.70286346592
20
-3.92760253451019
30
0
41
1
10
14.6652228348199
20
-3.97317090136815
30
0
41
1
10
14.6422290297802
20
-3.99335855311952
30
0
41
1
10
14.5920396182034
20
-4.025669433514
30
0
41
1
10
14.5641787135169
20
-4.03788374733463
30
0
41
1
10
14.5358653921853
20
-4.04555539699678
30
0
0
SPLINE
5
7F
100
AcDbEntity
8
1
62
256
6
ByLayer
370
-1
48
1
60
0
100
AcDbSpline
70
4
71
3
72
16
73
12
40
0
40
0
40
0
40
0
40
0.0630415689509386
40
0.0630415689509386
40
0.285914332024963
40
0.285914332024963
40
0.511588305408871
40
0.511588305408871
40
0.751723061839296
40
0.751723061839296
40
1
40
1
40
1
40
1
41
1
10
11.3985
20
-3.76371798486633
30
0
41
1
10
11.3985
20
-3.75528433103344
30
0
41
1
10
11.3988663712514
20
-3.7468410165159
30
0
41
1
10
11.4021568565848
20
-3.70896419243482
30
0
41
1
10
11.409366109589
20
-3.67959637609579
30
0
41
1
10
11.431675911307
20
-3.62535019502303
30
0
41
1
10
11.44713653408
20
-3.59983343522251
30
0
41
1
10
11.4847771651801
20
-3.55426506836454
30
0
41
1
10
11.5077709702198
20
-3.53407741661317
30
0
41
1
10
11.5579603817966
20
-3.5017665362187
30
0
41
1
10
11.5858212864832
20
-3.48955222239803
30
0
41
1
10
11.6141346078147
20
-3.48188057273589
30
0
0
SPLINE
5
80
100
AcDbEntity
8
1
62
256
6
ByLayer
370
-1
48
1
60
0
100
AcDbSpline
70
4
71
3
72
18
73
14
40
0
40
0
40
0
40
0
40
0.212491592102393
40
0.212491592102393
40
0.386618191488449
40
0.386618191488449
40
0.562426295050792
40
0.562426295050792
40
0.715388354469434
40
0.715388354469434
40
0.918249128147123
40
0.918249128147123
40
1
40
1
40
1
40
1
41
1
10
14.5358653921853
20
-3.48188057273592
30
0
41
1
10
14.4673622765155
20
-3.46331927792943
30
0
41
1
10
14.3994718307195
20
-3.43333617595573
30
0
41
1
10
14.2856957340066
20
-3.35812146121472
30
0
41
1
10
14.2368552932208
20
-3.31563734144825
30
0
41
1
10
14.15234157867
20
-3.21717204045388
30
0
41
1
10
14.1156915357823
20
-3.15948169797298
30
0
41
1
10
14.0654602172058
20
-3.04701407415376
30
0
41
1
10
14.0488211448525
20
-2.99152727082893
30
0
41
1
10
14.0268539899321
20
-2.86485564710748
30
0
41
1
10
14.0263624544236
20
-2.792298823306
30
0
41
1
10
14.0399038860688
20
-2.69621141212181
30
0
41
1
10
14.0455014003798
20
-2.66887353916692
30
0
41
1
10
14.0526444677088
20
-2.6422139430905
30
0
0
SPLINE
5
81
100
AcDbEntity
8
1
62
256
6
ByLayer
370
-1
48
1
60
0
100
AcDbSpline
70
4
71
3
72
18
73
14
40
0
40
0
40
0
40
0
40
0.212491695755308
40
0.212491695755308
40
0.386618276853811
40
0.386618276853811
40
0.562426360907944
40
0.562426360907944
40
0.715388416645945
40
0.715388416645945
40
0.918249208689866
40
0.918249208689866
40
1
40
1
40
1
40
1
41
1
10
14.0526444677088
20
-4.8852220266422
30
0
41
1
10
14.0342760761901
20
-4.81666689816518
30
0
41
1
10
14.0260911091532
20
-4.74290301037792
30
0
41
1
10
14.0339610008539
20
-4.60674013823913
30
0
41
1
10
14.0461557594437
20
-4.54316674494743
30
0
41
1
10
14.088830571623
20
-4.42062352439749
30
0
41
1
10
14.1202976683393
20
-4.3599504491884
30
0
41
1
10
14.1923032363391
20
-4.26001373127005
30
0
41
1
10
14.2319188988895
20
-4.21774976261153
30
0
41
1
10
14.3304059624805
20
-4.13511469055794
30
0
41
1
10
14.392893587529
20
-4.0982360829249
30
0
41
1
10
14.482776731918
20
-4.06166865566723
30
0
41
1
10
14.5092260360797
20
-4.05277347660231
30
0
41
1
10
14.5358653921853
20
-4.04555539699678
30
0
0
SPLINE
5
82
100
AcDbEntity
8
1
62
256
6
ByLayer
370
-1
48
1
60
0
100
AcDbSpline
70
4
71
3
72
16
73
12
40
0
40
0
40
0
40
0
40
0.0624450082613767
40
0.0624450082613767
40
0.283207995985767
40
0.283207995985767
40
0.506745688833517
40
0.506745688833517
40
0.744607284736939
40
0.744607284736939
40
1
40
1
40
1
40
1
41
1
10
13.9172983036604
20
-5.21326474770325
30
0
41
1
10
13.9100063168154
20
-5.21750195364046
30
0
41
1
10
13.9025219054686
20
-5.22142723681199
30
0
41
1
10
13.86811937228
20
-5.23761207140231
30
0
41
1
10
13.8391051359832
20
-5.24613357349497
30
0
41
1
10
13.7809936615192
20
-5.25409798644779
30
0
41
1
10
13.7511635434263
20
-5.25355030604547
30
0
41
1
10
13.6928527076446
20
-5.24389941158447
30
0
41
1
10
13.6638454989234
20
-5.23416091747012
30
0
41
1
10
13.609675357999
20
-5.2064793545008
30
0
41
1
10
13.5842846144057
20
-5.18768052524476
30
0
41
1
10
13.562910977364
20
-5.16605477251645
30
0
0
SPLINE
5
83
100
AcDbEntity
8
1
62
256
6
ByLayer
370
-1
48
1
60
0
100
AcDbSpline
70
4
71
3
72
12
73
8
40
0
40
0
40
0
40
0
40
0.422118641229944
40
0.422118641229944
40
0.843213633747564
40
0.843213633747564
40
1
40
1
40
1
40
1
41
1
10
12.9917782634826
20
-2.56009163397042
30
0
41
1
10
12.9243307984487
20
-2.55184839595643
30
0
41
1
10
12.8583416408562
20
-2.53325537692501
30
0
41
1
10
12.7397272181066
20
-2.4811489045851
30
0
41
1
10
12.6853575887117
20
-2.4471086258236
30
0
41
1
10
12.6200730005585
20
-2.39313503065242
30
0
41
1
10
12.6031183540981
20
-2.37759960487068
30
0
41
1
10
12.587089022636
20
-2.36138119721628
30
0
0
SPLINE
5
84
100
AcDbEntity
8
1
62
256
6
ByLayer
370
-1
48
1
60
0
100
AcDbSpline
70
4
71
3
72
14
73
10
40
0
40
0
40
0
40
0
40
0.2839617490367
40
0.2839617490367
40
0.570285189259018
40
0.570285189259018
40
0.829451094335676
40
0.829451094335676
40
1
40
1
40
1
40
1
41
1
10
14.0526444677088
20
-4.8852220266422
30
0
41
1
10
14.061321328404
20
-4.91760609789489
30
0
41
1
10
14.0645538598036
20
-4.95254352682525
30
0
41
1
10
14.0582063654842
20
-5.02222219948035
30
0
41
1
10
14.0483590177569
20
-5.05803280770829
30
0
41
1
10
14.0172145913697
20
-5.12062645473665
30
0
41
1
10
13.9965677486005
20
-5.14886171839961
30
0
41
1
10
13.9554021593367
20
-5.1879941172981
30
0
41
1
10
13.9369509507641
20
-5.20184504621975
30
0
41
1
10
13.9172983036604
20
-5.21326474770325
30
0
0
SPLINE
5
85
100
AcDbEntity
8
1
62
256
6
ByLayer
370
-1
48
1
60
0
100
AcDbSpline
70
4
71
3
72
16
73
12
40
0
40
0
40
0
40
0
40
0.0569446172825638
40
0.0569446172825638
40
0.279906644834098
40
0.279906644834098
40
0.505321967306678
40
0.505321967306678
40
0.744915047128803
40
0.744915047128803
40
1
40
1
40
1
40
1
41
1
10
13.9172983036603
20
-2.31417122202941
30
0
41
1
10
13.9238895614923
20
-2.31800125044467
30
0
41
1
10
13.9303366747187
20
-2.32209355864524
30
0
41
1
10
13.9609636168391
20
-2.34325933411725
30
0
41
1
10
13.9829276670062
20
-2.36408692110479
30
0
41
1
10
14.0190076363933
20
-2.4103569610628
30
0
41
1
10
14.0335125540833
20
-2.43642262315078
30
0
41
1
10
14.0544368822212
20
-2.49165602152357
30
0
41
1
10
14.0605822003864
20
-2.52159628017318
30
0
41
1
10
14.0638529009894
20
-2.58201406791258
30
0
41
1
10
14.0604405212243
20
-2.6131172500117
30
0
41
1
10
14.0526444677088
20
-2.6422139430905
30
0
0
SPLINE
5
86
100
AcDbEntity
8
1
62
256
6
ByLayer
370
-1
48
1
60
0
100
AcDbSpline
70
4
71
3
72
14
73
10
40
0
40
0
40
0
40
0
40
0.282169922576129
40
0.282169922576129
40
0.566902245317998
40
0.566902245317998
40
0.824523972080314
40
0.824523972080314
40
1
40
1
40
1
40
1
41
1
10
13.562910977364
20
-2.36138119721625
30
0
41
1
10
13.5865244571323
20
-2.33748918138718
30
0
41
1
10
13.6151026284028
20
-2.3170270308814
30
0
41
1
10
13.6785965926973
20
-2.28729038534513
30
0
41
1
10
13.7145792167898
20
-2.27771482479358
30
0
41
1
10
13.7845157677035
20
-2.27307816720602
30
0
41
1
10
13.819398704828
20
-2.27671311669286
30
0
41
1
10
13.8748418421506
20
-2.29287964123748
30
0
41
1
10
13.896892108885
20
-2.30231365131556
30
0
41
1
10
13.9172983036603
20
-2.31417122202941
30
0
0
SPLINE
5
87
100
AcDbEntity
8
1
62
256
6
ByLayer
370
-1
48
1
60
0
100
AcDbSpline
70
4
71
3
72
14
73
10
40
0
40
0
40
0
40
0
40
0.282169922576081
40
0.282169922576081
40
0.566902245317936
40
0.566902245317936
40
0.824523972080262
40
0.824523972080262
40
1
40
1
40
1
40
1
41
1
10
12.5870890226361
20
-5.16605477251642
30
0
41
1
10
12.5634755428677
20
-5.18994678834548
30
0
41
1
10
12.5348973715972
20
-5.21040893885126
30
0
41
1
10
12.4714034073027
20
-5.24014558438753
30
0
41
1
10
12.4354207832103
20
-5.24972114493912
30
0
41
1
10
12.3654842322966
20
-5.25435780252667
30
0
41
1
10
12.330601295172
20
-5.25072285303983
30
0
41
1
10
12.2751581578494
20
-5.23455632849522
30
0
41
1
10
12.253107891115
20
-5.22512231841714
30
0
41
1
10
12.2327016963397
20
-5.21326474770325
30
0
0
SPLINE
5
88
100
AcDbEntity
8
1
62
256
6
ByLayer
370
-1
48
1
60
0
100
AcDbSpline
70
4
71
3
72
14
73
10
40
0
40
0
40
0
40
0
40
0.283961749036708
40
0.283961749036708
40
0.570285189259026
40
0.570285189259026
40
0.829451094335672
40
0.829451094335672
40
1
40
1
40
1
40
1
41
1
10
12.0973555322912
20
-2.6422139430905
30
0
41
1
10
12.088678671596
20
-2.6098298718378
30
0
41
1
10
12.0854461401964
20
-2.57489244290744
30
0
41
1
10
12.0917936345159
20
-2.50521377025234
30
0
41
1
10
12.101640982243
20
-2.46940316202441
30
0
41
1
10
12.1327854086303
20
-2.40680951499604
30
0
41
1
10
12.1534322513996
20
-2.37857425133308
30
0
41
1
10
12.1945978406633
20
-2.33944185243459
30
0
41
1
10
12.2130490492359
20
-2.32559092351295
30
0
41
1
10
12.2327016963397
20
-2.31417122202944
30
0
0
SPLINE
5
89
100
AcDbEntity
8
1
62
256
6
ByLayer
370
-1
48
1
60
0
100
AcDbSpline
70
4
71
3
72
18
73
14
40
0
40
0
40
0
40
0
40
0.212491592102396
40
0.212491592102396
40
0.386618191488463
40
0.386618191488463
40
0.562426295050814
40
0.562426295050814
40
0.715388354469449
40
0.715388354469449
40
0.918249128147147
40
0.918249128147147
40
1
40
1
40
1
40
1
41
1
10
11.6141346078147
20
-4.04555539699678
30
0
41
1
10
11.6826377234846
20
-4.06411669180326
30
0
41
1
10
11.7505281692806
20
-4.09409979377696
30
0
41
1
10
11.8643042659934
20
-4.16931450851797
30
0
41
1
10
11.9131447067793
20
-4.21179862828447
30
0
41
1
10
11.9976584213301
20
-4.31026392927885
30
0
41
1
10
12.0343084642177
20
-4.36795427175974
30
0
41
1
10
12.0845397827943
20
-4.48042189557893
30
0
41
1
10
12.1011788551476
20
-4.5359086989038
30
0
41
1
10
12.1231460100679
20
-4.66258032262525
30
0
41
1
10
12.1236375455765
20
-4.73513714642672
30
0
41
1
10
12.1100961139312
20
-4.83122455761088
30
0
41
1
10
12.1044985996203
20
-4.8585624305658
30
0
41
1
10
12.0973555322912
20
-4.8852220266422
30
0
0
SPLINE
5
8A
100
AcDbEntity
8
1
62
256
6
ByLayer
370
-1
48
1
60
0
100
AcDbSpline
70
4
71
3
72
12
73
8
40
0
40
0
40
0
40
0
40
0.495785575729035
40
0.495785575729035
40
0.900238279924113
40
0.900238279924113
40
1
40
1
40
1
40
1
41
1
10
12.5870890226361
20
-5.16605477251642
30
0
41
1
10
12.6372263950313
20
-5.11532599782296
30
0
41
1
10
12.6970709882722
20
-5.07084133631943
30
0
41
1
10
12.8189837112424
20
-5.00887871604147
30
0
41
1
10
12.8800537658155
20
-4.98738163550169
30
0
41
1
10
12.9594827433796
20
-4.97188001083126
30
0
41
1
10
12.9755757195484
20
-4.96932456475997
30
0
41
1
10
12.9917782634826
20
-4.96734433576228
30
0
0
SPLINE
5
8B
100
AcDbEntity
8
1
62
256
6
ByLayer
370
-1
48
1
60
0
100
AcDbSpline
70
4
71
3
72
12
73
8
40
0
40
0
40
0
40
0
40
0.422118641229999
40
0.422118641229999
40
0.843213633747619
40
0.843213633747619
40
1
40
1
40
1
40
1
41
1
10
13.1582217365174
20
-4.96734433576228
30
0
41
1
10
13.2256692015513
20
-4.97558757377627
30
0
41
1
10
13.2916583591439
20
-4.99418059280768
30
0
41
1
10
13.4102727818935
20
-5.04628706514762
30
0
41
1
10
13.4646424112883
20
-5.08032734390912
30
0
41
1
10
13.5299269994415
20
-5.13430093908028
30
0
41
1
10
13.5468816459019
20
-5.14983636486201
30
0
41
1
10
13.562910977364
20
-5.16605477251642
30
0
0
SPLINE
5
8C
100
AcDbEntity
8
1
62
256
6
ByLayer
370
-1
48
1
60
0
100
AcDbSpline
70
4
71
3
72
12
73
8
40
0
40
0
40
0
40
0
40
0.495785575729026
40
0.495785575729026
40
0.900238279924066
40
0.900238279924066
40
1
40
1
40
1
40
1
41
1
10
13.562910977364
20
-2.36138119721625
30
0
41
1
10
13.5127736049687
20
-2.41210997190973
30
0
41
1
10
13.4529290117278
20
-2.45659463341326
30
0
41
1
10
13.3310162887576
20
-2.51855725369123
30
0
41
1
10
13.2699462341845
20
-2.540054334231
30
0
41
1
10
13.1905172566204
20
-2.55555595890144
30
0
41
1
10
13.1744242804516
20
-2.55811140497269
30
0
41
1
10
13.1582217365174
20
-2.56009163397042
30
0
0
SPLINE
5
8D
100
AcDbEntity
8
1
62
256
6
ByLayer
370
-1
48
1
60
0
100
AcDbSpline
70
4
71
3
72
16
73
12
40
0
40
0
40
0
40
0
40
0.056944617282449
40
0.056944617282449
40
0.27990664483402
40
0.27990664483402
40
0.505321967306628
40
0.505321967306628
40
0.744915047128738
40
0.744915047128738
40
1
40
1
40
1
40
1
41
1
10
12.2327016963397
20
-5.21326474770325
30
0
41
1
10
12.2261104385077
20
-5.209434719288
30
0
41
1
10
12.2196633252813
20
-5.20534241108746
30
0
41
1
10
12.1890363831609
20
-5.18417663561544
30
0
41
1
10
12.1670723329939
20
-5.16334904862794
30
0
41
1
10
12.1309923636067
20
-5.11707900866989
30
0
41
1
10
12.1164874459168
20
-5.09101334658195
30
0
41
1
10
12.0955631177788
20
-5.03577994820915
30
0
41
1
10
12.0894177996136
20
-5.00583968955954
30
0
41
1
10
12.0861470990106
20
-4.94542190182011
30
0
41
1
10
12.0895594787757
20
-4.914318719721
30
0
41
1
10
12.0973555322913
20
-4.8852220266422
30
0
0
SPLINE
5
8E
100
AcDbEntity
8
1
62
256
6
ByLayer
370
-1
48
1
60
0
100
AcDbSpline
70
4
71
3
72
14
73
10
40
0
40
0
40
0
40
0
40
0.283961457856626
40
0.283961457856626
40
0.570284934646687
40
0.570284934646687
40
0.829450869060503
40
0.829450869060503
40
1
40
1
40
1
40
1
41
1
10
14.5358653921853
20
-3.48188057273589
30
0
41
1
10
14.568224876365
20
-3.49064855240763
30
0
41
1
10
14.6000567512124
20
-3.5054066766572
30
0
41
1
10
14.6571137085737
20
-3.5459024409127
30
0
41
1
10
14.6831290779122
20
-3.57240849155659
30
0
41
1
10
14.7216018245221
20
-3.63078475865027
30
0
41
1
10
14.7356415227814
20
-3.662822382256
30
0
41
1
10
14.748794268021
20
-3.71807597398805
30
0
41
1
10
14.7515
20
-3.74098832407077
30
0
41
1
10
14.7515
20
-3.76371798486633
30
0
0
SPLINE
5
8F
100
AcDbEntity
8
1
62
256
6
ByLayer
370
-1
48
1
60
0
100
AcDbSpline
70
4
71
3
72
14
73
10
40
0
40
0
40
0
40
0
40
0.283961457856611
40
0.283961457856611
40
0.570284934646652
40
0.570284934646652
40
0.829450869060501
40
0.829450869060501
40
1
40
1
40
1
40
1
41
1
10
11.6141346078147
20
-4.04555539699678
30
0
41
1
10
11.581775123635
20
-4.03678741732503
30
0
41
1
10
11.5499432487877
20
-4.02202929307549
30
0
41
1
10
11.4928862914263
20
-3.98153352882
30
0
41
1
10
11.4668709220879
20
-3.95502747817611
30
0
41
1
10
11.4283981754779
20
-3.89665121108243
30
0
41
1
10
11.4143584772187
20
-3.8646135874767
30
0
41
1
10
11.401205731979
20
-3.80935999574464
30
0
41
1
10
11.3985
20
-3.78644764566192
30
0
41
1
10
11.3985
20
-3.76371798486633
30
0
0
INSERT
5
C3
100
AcDbEntity
8
SK2
62
256
6
ByLayer
370
-1
48
1
60
0
100
AcDbBlockReference
2
DimnDraft3D11
10
0
20
0
30
0
41
1
42
1
43
1
50
0
210
0
220
0
230
1
0
LINE
5
4C
100
AcDbEntity
8
81
62
256
6
ByLayer
370
-1
48
1
60
0
100
AcDbLine
10
21.726474
20
-4.0925
30
0
11
31.726474
21
-4.0925
31
0
39
0
210
0
220
0
230
1
0
LINE
5
4D
100
AcDbEntity
8
80
62
256
6
ByLayer
370
-1
48
1
60
0
100
AcDbLine
10
0
20
0
30
0
11
-5
21
0
31
0
39
0
210
0
220
0
230
1
0
LINE
5
4E
100
AcDbEntity
8
1
62
256
6
ByLayer
370
-1
48
1
60
0
100
AcDbLine
10
2.276218
20
-11.213718
30
0
11
11.544639
21
-11.213718
31
0
39
0
210
0
220
0
230
1
0
LINE
5
50
100
AcDbEntity
8
1
62
256
6
ByLayer
370
-1
48
1
60
0
100
AcDbLine
10
1
20
-9.9375
30
0
11
0
21
-9.9375
31
0
39
0
210
0
220
0
230
1
0
LINE
5
51
100
AcDbEntity
8
1
62
256
6
ByLayer
370
-1
48
1
60
0
100
AcDbLine
10
4.175
20
-2.263718
30
0
11
5.594738
21
-2.263718
31
0
39
0
210
0
220
0
230
1
0
LINE
5
52
100
AcDbEntity
8
1
62
256
6
ByLayer
370
-1
48
1
60
0
100
AcDbLine
10
5.594726
20
-5.263718
30
0
11
4.175
21
-5.263718
31
0
39
0
210
0
220
0
230
1
0
LINE
5
53
100
AcDbEntity
8
1
62
256
6
ByLayer
370
-1
48
1
60
0
100
AcDbLine
10
2.276218
20
-11.213718
30
0
11
1
21
-9.9375
31
0
39
0
210
0
220
0
230
1
0
LINE
5
54
100
AcDbEntity
8
1
62
256
6
ByLayer
370
-1
48
1
60
0
100
AcDbLine
10
0
20
9.935598
30
0
11
6.588174
21
9.935598
31
0
39
0
210
0
220
0
230
1
0
LINE
5
55
100
AcDbEntity
8
1
62
256
6
ByLayer
370
-1
48
1
60
0
100
AcDbLine
10
6.588174
20
9.935598
30
0
11
12.191043
21
4.332728
31
0
39
0
210
0
220
0
230
1
0
LINE
5
56
100
AcDbEntity
8
1
62
256
6
ByLayer
370
-1
48
1
60
0
100
AcDbLine
10
0
20
9.935598
30
0
11
0
21
-9.9375
31
0
39
0
210
0
220
0
230
1
0
LINE
5
57
100
AcDbEntity
8
SK1
62
256
6
ByLayer
370
-1
48
1
60
0
100
AcDbLine
10
0
20
-9.9375
30
0
11
0
21
9.935598
31
0
39
0
210
0
220
0
230
1
0
LINE
5
59
100
AcDbEntity
8
SK1
62
256
6
ByLayer
370
-1
48
1
60
0
100
AcDbLine
10
-0.15
20
-9.9375
30
0
11
-104.623526
21
-9.9375
31
0
39
0
210
0
220
0
230
1
0
LINE
5
5A
100
AcDbEntity
8
1
62
256
6
ByLayer
370
-1
48
1
60
0
100
AcDbLine
10
4.656187
20
-3.202275
30
0
11
12.513557
21
4.655095
31
0
39
0
210
0
220
0
230
1
0
LINE
5
5B
100
AcDbEntity
8
SK1
62
256
6
ByLayer
370
-1
48
1
60
0
100
AcDbLine
10
-0.15
20
-9.9375
30
0
11
-0.15
21
9.9375
31
0
39
0
210
0
220
0
230
1
0
LINE
5
5C
100
AcDbEntity
8
SK1
62
256
6
ByLayer
370
-1
48
1
60
0
100
AcDbLine
10
-0.15
20
9.936252
30
0
11
0
21
9.935598
31
0
39
0
210
0
220
0
230
1
0
LINE
5
5D
100
AcDbEntity
8
SK1
62
256
6
ByLayer
370
-1
48
1
60
0
100
AcDbLine
10
0
20
-9.9375
30
0
11
-0.15
21
-9.9375
31
0
39
0
210
0
220
0
230
1
0
LINE
5
5E
100
AcDbEntity
8
1
62
256
6
ByLayer
370
-1
48
1
60
0
100
AcDbLine
10
13.636443
20
4.655095
30
0
11
21.493813
21
-3.202275
31
0
39
0
210
0
220
0
230
1
0
LINE
5
5F
100
AcDbEntity
8
1
62
256
6
ByLayer
370
-1
48
1
60
0
100
AcDbLine
10
21.493813
20
-4.325161
30
0
11
13.636443
21
-12.182531
31
0
39
0
210
0
220
0
230
1
0
LINE
5
60
100
AcDbEntity
8
1
62
256
6
ByLayer
370
-1
48
1
60
0
100
AcDbLine
10
12.513557
20
-12.182531
30
0
11
4.656187
21
-4.325161
31
0
39
0
210
0
220
0
230
1
0
LINE
5
61
100
AcDbEntity
8
SK1
62
256
6
ByLayer
370
-1
48
1
60
0
100
AcDbLine
10
-104.623526
20
9.9375
30
0
11
-0.15
21
9.9375
31
0
39
0
210
0
220
0
230
1
0
LINE
5
62
100
AcDbEntity
8
SK1
62
256
6
ByLayer
370
-1
48
1
60
0
100
AcDbLine
10
-104.623526
20
-9.9375
30
0
11
-104.623526
21
9.9375
31
0
39
0
210
0
220
0
230
1
0
LINE
5
63
100
AcDbEntity
8
2
62
256
6
ByLayer
370
-1
48
1
60
1
100
AcDbLine
10
21.726474
20
-4.0925
30
0
11
21.727181
21
-4.091793
31
0
39
0
210
0
220
0
230
1
0
MTEXT
5
90
100
AcDbEntity
8
SK6
62
256
6
ByLayer
370
-1
48
1
60
0
100
AcDbMText
10
-60.464772
20
20.395841
30
0
210
0
220
0
230
1
1
\W00.742;\fsimplex.shx,bigfont.shx;SSDCL 2020K 12 
40
3.5
41
0
44
1.084337
50
0
71
7
72
5
7
DEFAULT
0
DIMENSION
5
D1
100
AcDbEntity
8
2
62
256
6
ByLayer
370
-3
48
1
60
0
100
AcDbDimension
2
DimnDraft3D2
10
42.080137
20
16.261163
30
0
11
26.732569
21
25.260544
31
0
70
34
71
5
72
1
41
1
210
0
220
0
230
1
3
Standard
100
AcDb2LineAngularDimension
13
21.726474
23
-0.969968
33
0
14
21.726474
24
24.691926
34
0
15
22.908204
25
-2.91077
35
0
16
33.698506
26
24.810541
36
0
40
0
0
DIMENSION
5
E6
100
AcDbEntity
8
SK2
62
256
6
ByLayer
370
-3
48
1
60
0
100
AcDbDimension
2
DimnDraft3D3
10
-104.623526
20
-28.807468
30
0
11
-52.719493
21
-28.807468
31
0
70
32
71
5
72
1
41
1
210
0
220
0
230
1
3
Standard
100
AcDbAlignedDimension
13
13.86875
23
-14.415192
33
0
14
-104.623526
24
-11.9375
34
0
50
0
100
AcDbRotatedDimension
1001
ACAD
1000
DSTYLE
1002
{
1070
   279
1070
     0
1070
   172
1070
     1
1070
   173
1070
     1
1070
   340
1005
91
1070
    77
1070
     1
1070
    73
1070
     0
1070
   171
1070
     3
1070
   274
1070
     4
1070
   177
1070
     2
1070
   176
1070
     2
1070
   178
1070
     7
1070
    78
1070
     8
1070
    41
1041
3.175
1070
   147
1041
2.25
1070
    42
1041
2.0
1070
    44
1041
2.0
1070
   140
1041
4.5
1070
   343
1005
D2
1070
   344
1005
D2
1002
}
0
DIMENSION
5
F4
100
AcDbEntity
8
2
62
256
6
ByLayer
370
-3
48
1
60
0
100
AcDbDimension
2
DimnDraft3D4
10
58.976474
20
-12.415192
30
0
11
58.976474
21
-8.053978
31
0
70
32
71
5
72
1
41
1
210
0
220
0
230
1
3
Standard
100
AcDbAlignedDimension
13
2
23
9.9375
33
0
14
15.86875
24
-12.415192
34
0
50
90
100
AcDbRotatedDimension
1001
ACAD
1000
DSTYLE
1002
{
1070
    74
1070
     0
1070
   279
1070
     0
1070
   172
1070
     1
1070
   173
1070
     1
1070
   340
1005
91
1070
    77
1070
     1
1070
    73
1070
     0
1070
   171
1070
     3
1070
   274
1070
     4
1070
   177
1070
     2
1070
   176
1070
     2
1070
   178
1070
     7
1070
    78
1070
     8
1070
    41
1041
3.175
1070
   147
1041
2.25
1070
    42
1041
2.0
1070
    44
1041
2.0
1070
   140
1041
4.5
1070
   343
1005
D2
1070
   344
1005
D2
1002
}
0
DIMENSION
5
102
100
AcDbEntity
8
2
62
256
6
ByLayer
370
-3
48
1
60
0
100
AcDbDimension
2
DimnDraft3D5
10
48.976474
20
-4.0925
30
0
11
48.976474
21
-26.852763
31
0
70
32
71
5
72
1
41
1
210
0
220
0
230
1
3
Standard
100
AcDbAlignedDimension
13
2
23
9.9375
33
0
14
23.726474
24
-4.0925
34
0
50
90
100
AcDbRotatedDimension
1001
ACAD
1000
DSTYLE
1002
{
1070
    74
1070
     0
1070
   279
1070
     0
1070
   172
1070
     1
1070
   173
1070
     1
1070
   340
1005
91
1070
    77
1070
     1
1070
    73
1070
     0
1070
   171
1070
     3
1070
   274
1070
     4
1070
   177
1070
     2
1070
   176
1070
     2
1070
   178
1070
     7
1070
    78
1070
     8
1070
    41
1041
3.175
1070
   147
1041
2.25
1070
    42
1041
2.0
1070
    44
1041
2.0
1070
   140
1041
4.5
1070
   343
1005
D2
1070
   344
1005
D2
1002
}
0
DIMENSION
5
110
100
AcDbEntity
8
SK2
62
256
6
ByLayer
370
-3
48
1
60
0
100
AcDbDimension
2
DimnDraft3D6
10
-114.373526
20
-9.9375
30
0
11
-114.373526
21
-2.628947
31
0
70
32
71
5
72
1
41
1
210
0
220
0
230
1
3
Standard
100
AcDbAlignedDimension
13
-106.623526
23
9.9375
33
0
14
-106.623526
24
-9.9375
34
0
50
90
100
AcDbRotatedDimension
1001
ACAD
1000
DSTYLE
1002
{
1070
    74
1070
     0
1070
   279
1070
     0
1070
   172
1070
     1
1070
   173
1070
     1
1070
   340
1005
91
1070
    77
1070
     1
1070
    73
1070
     0
1070
   171
1070
     3
1070
   274
1070
     4
1070
   177
1070
     2
1070
   176
1070
     2
1070
   178
1070
     7
1070
    78
1070
     8
1070
    41
1041
3.175
1070
   147
1041
2.25
1070
    42
1041
2.0
1070
    44
1041
2.0
1070
   140
1041
4.5
1070
   343
1005
D2
1070
   344
1005
D2
1002
}
0
ENDSEC
0
SECTION
2
OBJECTS
0
DICTIONARY
5
140
330
0
100
AcDbDictionary
280
0
281
1
3
ACAD_GROUP
350
141
3
ACAD_MLINESTYLE
350
142
0
DICTIONARY
5
141
330
0
100
AcDbDictionary
280
0
281
1
0
DICTIONARY
5
142
330
0
100
AcDbDictionary
280
0
281
1
3
Standard
350
18
0
MLINESTYLE
5
18
330
142
100
AcDbMlineStyle
2
Standard
70
0
3

62
256
51
90
52
90
71
2
49
-0.5
62
256
6
ByLayer
49
0.5
62
256
6
ByLayer
0
RASTERVARIABLES
5
12f
330

100
AcDbRasterVariables
90
0
70
1
71
1
72
1
0
ENDSEC
0
EOF
