0
SECTION
2
HEADER
9
$ACADVER
1
AC1015
9
$DWGCODEPAGE
3
ANSI_1252
9
$HANDSEED
5
14d
9
$ANGBASE
50
0
9
$ANGDIR
70
0
9
$ATTMODE
70
1
9
$AUNITS
70
0
9
$AUPREC
70
0
9
$CECOLOR
62
256
9
$CELTSCALE
40
1
9
$CELTYPE
6
ByLayer
9
$CELWEIGHT
370
-1
9
$CLAYER
8
0
9
$CMLJUST
70
0
9
$CMLSCALE
40
1
9
$CMLSTYLE
2
Standard
9
$DIMSTYLE
2
Standard
9
$TEXTSIZE
40
0.2
9
$TEXTSTYLE
7
Standard
9
$LUNITS
70
2
9
$LUPREC
70
4
9
$EXTNAMES
290
1
9
$INSUNITS
70
4
9
$LTSCALE
40
1
9
$LWDISPLAY
290
0
9
$PDMODE
70
0
9
$PDSIZE
40
0
9
$PLINEGEN
70
0
0
ENDSEC
0
SECTION
2
CLASSES
0
CLASS
1
RASTERVARIABLES
2
AcDbRasterVariables
3
ISM
90
0
280
0
281
0
0
ENDSEC
0
SECTION
2
TABLES
0
TABLE
2
VPORT
5
143
100
AcDbSymbolTable
0
VPORT
5
1
100
AcDbSymbolTableRecord
100
AcDbViewportTableRecord
2
*Active
70
0
10
0
20
0
11
1
21
1
12
-1
22
1
13
0
23
0
14
0.5
24
0.5
15
10
25
10
16
0
26
0
36
1
17
0
27
0
37
0
0
ENDTAB
0
TABLE
2
LTYPE
5
144
100
AcDbSymbolTable
0
LTYPE
5
14
100
AcDbSymbolTableRecord
100
AcDbLinetypeTableRecord
70
0
2
ByBlock
3

72
65
73
0
40
0
0
LTYPE
5
15
100
AcDbSymbolTableRecord
100
AcDbLinetypeTableRecord
70
0
2
ByLayer
3

72
65
73
0
40
0
0
LTYPE
5
16
100
AcDbSymbolTableRecord
100
AcDbLinetypeTableRecord
70
0
2
CONTINUOUS
3
Solid line
72
65
73
0
40
0
0
LTYPE
5
3B
100
AcDbSymbolTableRecord
100
AcDbLinetypeTableRecord
70
0
2
DASHED
3
__ __ __ __ __ __ __ __ __
72
65
73
2
40
25.72
49
12.86
74
0
49
-12.86
74
0
0
LTYPE
5
3C
100
AcDbSymbolTableRecord
100
AcDbLinetypeTableRecord
70
0
2
HIDDEN
3
_ _ _ _ _ _ _ _ _ _ _ _ _ _ _
72
65
73
2
40
0.5
49
0.25
74
0
49
-0.25
74
0
0
LTYPE
5
3D
100
AcDbSymbolTableRecord
100
AcDbLinetypeTableRecord
70
0
2
PHANTOM
3
____ _ _ ____ _ _ _____ _ _ ____
72
65
73
6
40
50.5
49
18
74
0
49
-6.5
74
0
49
6.5
74
0
49
-6.5
74
0
49
6.5
74
0
49
-6.5
74
0
0
LTYPE
5
3E
100
AcDbSymbolTableRecord
100
AcDbLinetypeTableRecord
70
0
2
CENTER
3
____ _ ____ _ ____ _ ____
72
65
73
4
40
47.5
49
22
74
0
49
-8.5
74
0
49
8.5
74
0
49
-8.5
74
0
0
LTYPE
5
3F
100
AcDbSymbolTableRecord
100
AcDbLinetypeTableRecord
70
0
2
DOT
3
.........................
72
65
73
2
40
10
49
0
74
0
49
-10
74
0
0
LTYPE
5
40
100
AcDbSymbolTableRecord
100
AcDbLinetypeTableRecord
70
0
2
DASHDOT
3
_._._._._._._._._._._._._._._._.
72
65
73
4
40
70
49
31
74
0
49
-13
74
0
49
13
74
0
49
-13
74
0
0
ENDTAB
0
TABLE
2
LAYER
5
145
100
AcDbSymbolTable
0
LAYER
5
10
100
AcDbSymbolTableRecord
100
AcDbLayerTableRecord
2
0
70
0
62
7
6
CONTINUOUS
290
1
370
-3
390
0
0
LAYER
5
44
100
AcDbSymbolTableRecord
100
AcDbLayerTableRecord
2
2
70
0
62
7
6
CONTINUOUS
290
1
370
-3
390
0
0
LAYER
5
46
100
AcDbSymbolTableRecord
100
AcDbLayerTableRecord
2
80
70
0
62
-6
6
CONTINUOUS
290
1
370
-3
390
0
0
LAYER
5
4A
100
AcDbSymbolTableRecord
100
AcDbLayerTableRecord
2
81
70
0
62
-3
6
CONTINUOUS
290
1
370
-3
390
0
0
LAYER
5
4F
100
AcDbSymbolTableRecord
100
AcDbLayerTableRecord
2
1
70
0
62
4
6
CONTINUOUS
290
1
370
-3
390
0
0
LAYER
5
130
100
AcDbSymbolTableRecord
100
AcDbLayerTableRecord
2
SK2
70
0
62
7
6
CONTINUOUS
290
1
370
-3
390
0
0
LAYER
5
131
100
AcDbSymbolTableRecord
100
AcDbLayerTableRecord
2
SK1
70
0
62
4
6
CONTINUOUS
290
1
370
-3
390
0
0
LAYER
5
132
100
AcDbSymbolTableRecord
100
AcDbLayerTableRecord
2
SK6
70
0
62
5
6
CONTINUOUS
290
1
370
-3
390
0
0
ENDTAB
0
TABLE
2
STYLE
5
146
100
AcDbSymbolTable
0
STYLE
5
11
100
AcDbSymbolTableRecord
100
AcDbTextStyleTableRecord
2
Standard
3
txt
70
0
71
0
40
0
41
1
42
0
50
0
0
STYLE
5
91
100
AcDbSymbolTableRecord
100
AcDbTextStyleTableRecord
2
DEFAULT
3
simplex.shx
70
0
71
0
40
0
41
1
42
0
50
0
0
STYLE
5
B4
100
AcDbSymbolTableRecord
100
AcDbTextStyleTableRecord
2
DWGDirectTextStyle
3
SIMPLEX
70
0
71
0
40
0
41
1
42
0
50
0
0
ENDTAB
0
TABLE
2
DIMSTYLE
5
147
100
AcDbSymbolTable
100
AcDbDimStyleTable
0
DIMSTYLE
105
27
100
AcDbSymbolTableRecord
100
AcDbDimStyleTableRecord
2
Standard
70
0
3
<>
41
0.18
42
0.0625
44
0.18
140
0.18
147
0.09
73
0
74
0
77
1
271
2
275
0
278
52
280
0
340
11
0
ENDTAB
0
TABLE
2
VIEW
5
148
100
AcDbSymbolTable
0
ENDTAB
0
TABLE
2
UCS
5
149
100
AcDbSymbolTable
0
ENDTAB
0
TABLE
2
APPID
5
14a
100
AcDbSymbolTable
0
APPID
5
12
100
AcDbSymbolTableRecord
100
AcDbRegAppTableRecord
2
ACAD
70
0
0
ENDTAB
0
TABLE
2
BLOCK_RECORD
5
14b
100
AcDbSymbolTable
0
BLOCK_RECORD
5
1F
100
AcDbSymbolTableRecord
100
AcDbBlockTableRecord
2
*Model_Space
340
0
70
0
0
BLOCK_RECORD
5
1B
100
AcDbSymbolTableRecord
100
AcDbBlockTableRecord
2
*Paper_Space
340
0
70
0
0
BLOCK_RECORD
5
23
100
AcDbSymbolTableRecord
100
AcDbBlockTableRecord
2
*Paper_Space0
340
0
70
0
0
BLOCK_RECORD
5
B6
100
AcDbSymbolTableRecord
100
AcDbBlockTableRecord
2
DimnDraft3D11
340
0
70
0
0
BLOCK_RECORD
5
C4
100
AcDbSymbolTableRecord
100
AcDbBlockTableRecord
2
DimnDraft3D2
340
0
70
0
0
BLOCK_RECORD
5
D2
100
AcDbSymbolTableRecord
100
AcDbBlockTableRecord
2
_CLOSED
340
0
70
0
0
BLOCK_RECORD
5
D9
100
AcDbSymbolTableRecord
100
AcDbBlockTableRecord
2
DimnDraft3D3
340
0
70
0
0
BLOCK_RECORD
5
E7
100
AcDbSymbolTableRecord
100
AcDbBlockTableRecord
2
DimnDraft3D4
340
0
70
0
0
BLOCK_RECORD
5
F5
100
AcDbSymbolTableRecord
100
AcDbBlockTableRecord
2
DimnDraft3D5
340
0
70
0
0
BLOCK_RECORD
5
103
100
AcDbSymbolTableRecord
100
AcDbBlockTableRecord
2
DimnDraft3D6
340
0
70
0
0
ENDTAB
0
ENDSEC
0
SECTION
2
BLOCKS
0
BLOCK
5
20
100
AcDbEntity
8
0
100
AcDbBlockBegin
2
*Model_Space
70
0
10
0
20
0
30
0
3
*Model_Space
0
ENDBLK
5
21
100
AcDbEntity
8
0
100
AcDbBlockEnd
0
BLOCK
5
1C
100
AcDbEntity
8
0
100
AcDbBlockBegin
2
*Paper_Space
70
0
10
0
20
0
30
0
3
*Paper_Space
0
ENDBLK
5
1D
100
AcDbEntity
8
0
100
AcDbBlockEnd
0
BLOCK
5
24
100
AcDbEntity
8
0
100
AcDbBlockBegin
2
*Paper_Space0
70
0
10
0
20
0
30
0
3
*Paper_Space0
0
ENDBLK
5
25
100
AcDbEntity
8
0
100
AcDbBlockEnd
0
BLOCK
5
B7
100
AcDbEntity
8
0
100
AcDbBlockBegin
2
DimnDraft3D11
70
0
10
0
20
0
30
0
3
DimnDraft3D11
0
LINE
5
B9
100
AcDbEntity
8
SK2
62
256
6
ByLayer
370
-1
48
1
60
0
100
AcDbLine
10
17.987759
20
-8.797468
30
0
11
17.987759
21
-43.047468
31
0
39
0
210
0
220
0
230
1
0
LINE
5
BA
100
AcDbEntity
8
SK2
62
256
6
ByLayer
370
-1
48
1
60
0
100
AcDbLine
10
-108.362241
20
-11.9375
30
0
11
-108.362241
21
-43.047468
31
0
39
0
210
0
220
0
230
1
0
LINE
5
BB
100
AcDbEntity
8
SK2
62
256
6
ByLayer
370
-1
48
1
60
0
100
AcDbLine
10
17.987759
20
-41.047468
30
0
11
-108.362241
21
-41.047468
31
0
39
0
210
0
220
0
230
1
0
LINE
5
BC
100
AcDbEntity
8
SK2
62
256
6
ByLayer
370
-1
48
1
60
0
100
AcDbLine
10
17.987759
20
-41.047468
30
0
11
14.81276
21
-41.465465
31
0
39
0
210
0
220
0
230
1
0
LINE
5
BD
100
AcDbEntity
8
SK2
62
256
6
ByLayer
370
-1
48
1
60
0
100
AcDbLine
10
17.987759
20
-41.047468
30
0
11
14.812757
21
-40.629471
31
0
39
0
210
0
220
0
230
1
0
LINE
5
BE
100
AcDbEntity
8
SK2
62
256
6
ByLayer
370
-1
48
1
60
0
100
AcDbLine
10
14.81276
20
-41.465465
30
0
11
14.812757
21
-40.629471
31
0
39
0
210
0
220
0
230
1
0
LINE
5
BF
100
AcDbEntity
8
SK2
62
256
6
ByLayer
370
-1
48
1
60
0
100
AcDbLine
10
-108.362241
20
-41.047468
30
0
11
-105.187243
21
-40.629471
31
0
39
0
210
0
220
0
230
1
0
LINE
5
C0
100
AcDbEntity
8
SK2
62
256
6
ByLayer
370
-1
48
1
60
0
100
AcDbLine
10
-108.362241
20
-41.047468
30
0
11
-105.18724
21
-41.465465
31
0
39
0
210
0
220
0
230
1
0
LINE
5
C1
100
AcDbEntity
8
SK2
62
256
6
ByLayer
370
-1
48
1
60
0
100
AcDbLine
10
-105.187243
20
-40.629471
30
0
11
-105.18724
21
-41.465465
31
0
39
0
210
0
220
0
230
1
0
MTEXT
5
C2
100
AcDbEntity
8
SK2
62
256
6
ByLayer
370
-1
48
1
60
0
100
AcDbMText
10
-47.780662
20
-39.922468
30
0
210
0
220
0
230
1
1
\W00.604;\fsimplex.shx,bigfont.shx;125 
40
4.5
41
0
44
1.084337
50
0
71
7
72
5
7
DEFAULT
0
ENDBLK
5
B8
100
AcDbEntity
8
0
100
AcDbBlockEnd
0
BLOCK
5
CF
100
AcDbEntity
8
0
100
AcDbBlockBegin
2
DimnDraft3D2
70
0
10
0
20
0
30
0
3
DimnDraft3D2
0
MTEXT
5
C5
100
AcDbEntity
8
2
62
256
6
ByLayer
370
-1
48
1
60
0
100
AcDbMText
10
23.599959
20
21.544044
30
0
210
0
220
0
230
1
1
\W01.000;\fsimplex.shx,bigfont.shx;45%%d0' 
40
4.5
41
0
44
1.084337
50
337.499999999999
71
7
72
5
7
DEFAULT
0
LINE
5
C6
100
AcDbEntity
8
2
62
256
6
ByLayer
370
-1
48
1
60
0
100
AcDbLine
10
17.987759
20
-3.209968
30
0
11
17.987759
21
22.444765
31
0
39
0
210
0
220
0
230
1
0
LINE
5
C7
100
AcDbEntity
8
2
62
256
6
ByLayer
370
-1
48
1
60
0
100
AcDbLine
10
19.169488
20
-5.15077
30
0
11
38.336358
21
14.016099
31
0
39
0
210
0
220
0
230
1
0
ARC
5
C8
100
AcDbEntity
8
2
62
256
6
ByLayer
370
-1
48
1
60
0
100
AcDbCircle
39
0
10
17.987759
20
-6.3325
30
0
40
26.7772647761818
210
0
220
0
230
1
100
AcDbArc
50
45
51
90
0
LINE
5
C9
100
AcDbEntity
8
2
62
256
6
ByLayer
370
-1
48
1
60
0
100
AcDbLine
10
17.987759
20
20.444765
30
0
11
21.17374
21
20.768587
31
0
39
0
210
0
220
0
230
1
0
LINE
5
CA
100
AcDbEntity
8
2
62
256
6
ByLayer
370
-1
48
1
60
0
100
AcDbLine
10
17.987759
20
20.444765
30
0
11
21.148994
21
19.93296
31
0
39
0
210
0
220
0
230
1
0
LINE
5
CB
100
AcDbEntity
8
2
62
256
6
ByLayer
370
-1
48
1
60
0
100
AcDbLine
10
21.17374
20
20.768587
30
0
11
21.148994
21
19.93296
31
0
39
0
210
0
220
0
230
1
0
LINE
5
CC
100
AcDbEntity
8
2
62
256
6
ByLayer
370
-1
48
1
60
0
100
AcDbLine
10
36.922144
20
12.601886
30
0
11
34.324914
21
14.475314
31
0
39
0
210
0
220
0
230
1
0
LINE
5
CD
100
AcDbEntity
8
2
62
256
6
ByLayer
370
-1
48
1
60
0
100
AcDbLine
10
36.922144
20
12.601886
30
0
11
34.89829
21
15.083693
31
0
39
0
210
0
220
0
230
1
0
LINE
5
CE
100
AcDbEntity
8
2
62
256
6
ByLayer
370
-1
48
1
60
0
100
AcDbLine
10
34.324914
20
14.475314
30
0
11
34.89829
21
15.083693
31
0
39
0
210
0
220
0
230
1
0
ENDBLK
5
D0
100
AcDbEntity
8
0
100
AcDbBlockEnd
0
BLOCK
5
D3
100
AcDbEntity
8
0
100
AcDbBlockBegin
2
_CLOSED
70
0
10
0
20
0
30
0
3
_CLOSED
0
LINE
5
D5
100
AcDbEntity
8
0
62
256
6
ByLayer
370
-2
48
1
60
0
100
AcDbLine
10
-1
20
0.166667
30
0
11
0
21
0
31
0
39
0
210
0
220
0
230
1
0
LINE
5
D6
100
AcDbEntity
8
0
62
256
6
ByLayer
370
-2
48
1
60
0
100
AcDbLine
10
0
20
0
30
0
11
-1
21
-0.166667
31
0
39
0
210
0
220
0
230
1
0
LINE
5
D7
100
AcDbEntity
8
0
62
256
6
ByLayer
370
-2
48
1
60
0
100
AcDbLine
10
-1
20
0.166667
30
0
11
-1
21
-0.166667
31
0
39
0
210
0
220
0
230
1
0
LINE
5
D8
100
AcDbEntity
8
0
62
256
6
ByLayer
370
-2
48
1
60
0
100
AcDbLine
10
0
20
0
30
0
11
-1
21
0
31
0
39
0
210
0
220
0
230
1
0
ENDBLK
5
D4
100
AcDbEntity
8
0
100
AcDbBlockEnd
0
BLOCK
5
E4
100
AcDbEntity
8
0
100
AcDbBlockBegin
2
DimnDraft3D3
70
0
10
0
20
0
30
0
3
DimnDraft3D3
0
MTEXT
5
DA
100
AcDbEntity
8
SK2
62
256
6
ByLayer
370
-1
48
1
60
0
100
AcDbMText
10
-54.210677
20
-29.922468
30
0
210
0
220
0
230
1
1
\W01.000;\fsimplex.shx,bigfont.shx;118.92 
40
4.5
41
0
44
1.084337
50
0
71
7
72
5
7
DEFAULT
0
LINE
5
DB
100
AcDbEntity
8
SK2
62
256
6
ByLayer
370
-1
48
1
60
0
100
AcDbLine
10
12.375099
20
-14.410128
30
0
11
12.375099
21
-33.047468
31
0
39
0
210
0
220
0
230
1
0
LINE
5
DC
100
AcDbEntity
8
SK2
62
256
6
ByLayer
370
-1
48
1
60
0
100
AcDbLine
10
-108.362241
20
-11.9375
30
0
11
-108.362241
21
-33.047468
31
0
39
0
210
0
220
0
230
1
0
LINE
5
DD
100
AcDbEntity
8
SK2
62
256
6
ByLayer
370
-1
48
1
60
0
100
AcDbLine
10
12.375099
20
-31.047468
30
0
11
-108.362241
21
-31.047468
31
0
39
0
210
0
220
0
230
1
0
LINE
5
DE
100
AcDbEntity
8
SK2
62
256
6
ByLayer
370
-1
48
1
60
0
100
AcDbLine
10
12.375099
20
-31.047468
30
0
11
9.2001
21
-31.465465
31
0
39
0
210
0
220
0
230
1
0
LINE
5
DF
100
AcDbEntity
8
SK2
62
256
6
ByLayer
370
-1
48
1
60
0
100
AcDbLine
10
12.375099
20
-31.047468
30
0
11
9.200097
21
-30.629471
31
0
39
0
210
0
220
0
230
1
0
LINE
5
E0
100
AcDbEntity
8
SK2
62
256
6
ByLayer
370
-1
48
1
60
0
100
AcDbLine
10
9.2001
20
-31.465465
30
0
11
9.200097
21
-30.629471
31
0
39
0
210
0
220
0
230
1
0
LINE
5
E1
100
AcDbEntity
8
SK2
62
256
6
ByLayer
370
-1
48
1
60
0
100
AcDbLine
10
-108.362241
20
-31.047468
30
0
11
-105.187243
21
-30.629471
31
0
39
0
210
0
220
0
230
1
0
LINE
5
E2
100
AcDbEntity
8
SK2
62
256
6
ByLayer
370
-1
48
1
60
0
100
AcDbLine
10
-108.362241
20
-31.047468
30
0
11
-105.18724
21
-31.465465
31
0
39
0
210
0
220
0
230
1
0
LINE
5
E3
100
AcDbEntity
8
SK2
62
256
6
ByLayer
370
-1
48
1
60
0
100
AcDbLine
10
-105.187243
20
-30.629471
30
0
11
-105.18724
21
-31.465465
31
0
39
0
210
0
220
0
230
1
0
ENDBLK
5
E5
100
AcDbEntity
8
0
100
AcDbBlockEnd
0
BLOCK
5
F2
100
AcDbEntity
8
0
100
AcDbBlockBegin
2
DimnDraft3D4
70
0
10
0
20
0
30
0
3
DimnDraft3D4
0
MTEXT
5
E8
100
AcDbEntity
8
2
62
256
6
ByLayer
370
-1
48
1
60
0
100
AcDbMText
10
54.112759
20
-6.926446
30
0
210
0
220
0
230
1
1
\W01.000;\fsimplex.shx,bigfont.shx;22.00 
40
4.5
41
0
44
1.084337
50
90
71
7
72
5
7
DEFAULT
0
LINE
5
E9
100
AcDbEntity
8
2
62
256
6
ByLayer
370
-1
48
1
60
0
100
AcDbLine
10
2
20
9.9375
30
0
11
57.237759
21
9.9375
31
0
39
0
210
0
220
0
230
1
0
LINE
5
EA
100
AcDbEntity
8
2
62
256
6
ByLayer
370
-1
48
1
60
0
100
AcDbLine
10
14.375099
20
-12.410128
30
0
11
57.237759
21
-12.410128
31
0
39
0
210
0
220
0
230
1
0
LINE
5
EB
100
AcDbEntity
8
2
62
256
6
ByLayer
370
-1
48
1
60
0
100
AcDbLine
10
55.237759
20
21.1875
30
0
11
55.237759
21
-23.660128
31
0
39
0
210
0
220
0
230
1
0
LINE
5
EC
100
AcDbEntity
8
2
62
256
6
ByLayer
370
-1
48
1
60
0
100
AcDbLine
10
55.237759
20
9.9375
30
0
11
54.819762
21
13.112498
31
0
39
0
210
0
220
0
230
1
0
LINE
5
ED
100
AcDbEntity
8
2
62
256
6
ByLayer
370
-1
48
1
60
0
100
AcDbLine
10
55.237759
20
9.9375
30
0
11
55.655755
21
13.112502
31
0
39
0
210
0
220
0
230
1
0
LINE
5
EE
100
AcDbEntity
8
2
62
256
6
ByLayer
370
-1
48
1
60
0
100
AcDbLine
10
54.819762
20
13.112498
30
0
11
55.655755
21
13.112502
31
0
39
0
210
0
220
0
230
1
0
LINE
5
EF
100
AcDbEntity
8
2
62
256
6
ByLayer
370
-1
48
1
60
0
100
AcDbLine
10
55.237759
20
-12.410128
30
0
11
55.655755
21
-15.585127
31
0
39
0
210
0
220
0
230
1
0
LINE
5
F0
100
AcDbEntity
8
2
62
256
6
ByLayer
370
-1
48
1
60
0
100
AcDbLine
10
55.237759
20
-12.410128
30
0
11
54.819762
21
-15.58513
31
0
39
0
210
0
220
0
230
1
0
LINE
5
F1
100
AcDbEntity
8
2
62
256
6
ByLayer
370
-1
48
1
60
0
100
AcDbLine
10
55.655755
20
-15.585127
30
0
11
54.819762
21
-15.58513
31
0
39
0
210
0
220
0
230
1
0
ENDBLK
5
F3
100
AcDbEntity
8
0
100
AcDbBlockEnd
0
BLOCK
5
100
100
AcDbEntity
8
0
100
AcDbBlockBegin
2
DimnDraft3D5
70
0
10
0
20
0
30
0
3
DimnDraft3D5
0
MTEXT
5
F6
100
AcDbEntity
8
2
62
256
6
ByLayer
370
-1
48
1
60
0
100
AcDbMText
10
44.112759
20
-27.967763
30
0
210
0
220
0
230
1
1
\W01.000;\fsimplex.shx,bigfont.shx;15.92 
40
4.5
41
0
44
1.084337
50
90
71
7
72
5
7
DEFAULT
0
LINE
5
F7
100
AcDbEntity
8
2
62
256
6
ByLayer
370
-1
48
1
60
0
100
AcDbLine
10
2
20
9.9375
30
0
11
47.237759
21
9.9375
31
0
39
0
210
0
220
0
230
1
0
LINE
5
F8
100
AcDbEntity
8
2
62
256
6
ByLayer
370
-1
48
1
60
0
100
AcDbLine
10
19.987759
20
-6.3325
30
0
11
47.237759
21
-6.3325
31
0
39
0
210
0
220
0
230
1
0
LINE
5
F9
100
AcDbEntity
8
2
62
256
6
ByLayer
370
-1
48
1
60
0
100
AcDbLine
10
45.237759
20
9.9375
30
0
11
45.237759
21
-29.092763
31
0
39
0
210
0
220
0
230
1
0
LINE
5
FA
100
AcDbEntity
8
2
62
256
6
ByLayer
370
-1
48
1
60
0
100
AcDbLine
10
45.237759
20
9.9375
30
0
11
45.655755
21
6.762502
31
0
39
0
210
0
220
0
230
1
0
LINE
5
FB
100
AcDbEntity
8
2
62
256
6
ByLayer
370
-1
48
1
60
0
100
AcDbLine
10
45.237759
20
9.9375
30
0
11
44.819762
21
6.762498
31
0
39
0
210
0
220
0
230
1
0
LINE
5
FC
100
AcDbEntity
8
2
62
256
6
ByLayer
370
-1
48
1
60
0
100
AcDbLine
10
45.655755
20
6.762502
30
0
11
44.819762
21
6.762498
31
0
39
0
210
0
220
0
230
1
0
LINE
5
FD
100
AcDbEntity
8
2
62
256
6
ByLayer
370
-1
48
1
60
0
100
AcDbLine
10
45.237759
20
-6.3325
30
0
11
44.819762
21
-3.157502
31
0
39
0
210
0
220
0
230
1
0
LINE
5
FE
100
AcDbEntity
8
2
62
256
6
ByLayer
370
-1
48
1
60
0
100
AcDbLine
10
45.237759
20
-6.3325
30
0
11
45.655755
21
-3.157498
31
0
39
0
210
0
220
0
230
1
0
LINE
5
FF
100
AcDbEntity
8
2
62
256
6
ByLayer
370
-1
48
1
60
0
100
AcDbLine
10
44.819762
20
-3.157502
30
0
11
45.655755
21
-3.157498
31
0
39
0
210
0
220
0
230
1
0
ENDBLK
5
101
100
AcDbEntity
8
0
100
AcDbBlockEnd
0
BLOCK
5
10E
100
AcDbEntity
8
0
100
AcDbBlockBegin
2
DimnDraft3D6
70
0
10
0
20
0
30
0
3
DimnDraft3D6
0
MTEXT
5
104
100
AcDbEntity
8
SK2
62
256
6
ByLayer
370
-1
48
1
60
0
100
AcDbMText
10
-119.237241
20
-1.503947
30
0
210
0
220
0
230
1
1
\W01.000;\fsimplex.shx,bigfont.shx;20 
40
4.5
41
0
44
1.084337
50
90
71
7
72
5
7
DEFAULT
0
LINE
5
105
100
AcDbEntity
8
SK2
62
256
6
ByLayer
370
-1
48
1
60
0
100
AcDbLine
10
-110.362241
20
9.9375
30
0
11
-120.112241
21
9.9375
31
0
39
0
210
0
220
0
230
1
0
LINE
5
106
100
AcDbEntity
8
SK2
62
256
6
ByLayer
370
-1
48
1
60
0
100
AcDbLine
10
-110.362241
20
-9.9375
30
0
11
-120.112241
21
-9.9375
31
0
39
0
210
0
220
0
230
1
0
LINE
5
107
100
AcDbEntity
8
SK2
62
256
6
ByLayer
370
-1
48
1
60
0
100
AcDbLine
10
-118.112241
20
9.9375
30
0
11
-118.112241
21
-9.9375
31
0
39
0
210
0
220
0
230
1
0
LINE
5
108
100
AcDbEntity
8
SK2
62
256
6
ByLayer
370
-1
48
1
60
0
100
AcDbLine
10
-118.112241
20
9.9375
30
0
11
-117.694245
21
6.762502
31
0
39
0
210
0
220
0
230
1
0
LINE
5
109
100
AcDbEntity
8
SK2
62
256
6
ByLayer
370
-1
48
1
60
0
100
AcDbLine
10
-118.112241
20
9.9375
30
0
11
-118.530238
21
6.762498
31
0
39
0
210
0
220
0
230
1
0
LINE
5
10A
100
AcDbEntity
8
SK2
62
256
6
ByLayer
370
-1
48
1
60
0
100
AcDbLine
10
-117.694245
20
6.762502
30
0
11
-118.530238
21
6.762498
31
0
39
0
210
0
220
0
230
1
0
LINE
5
10B
100
AcDbEntity
8
SK2
62
256
6
ByLayer
370
-1
48
1
60
0
100
AcDbLine
10
-118.112241
20
-9.9375
30
0
11
-118.530238
21
-6.762502
31
0
39
0
210
0
220
0
230
1
0
LINE
5
10C
100
AcDbEntity
8
SK2
62
256
6
ByLayer
370
-1
48
1
60
0
100
AcDbLine
10
-118.112241
20
-9.9375
30
0
11
-117.694245
21
-6.762498
31
0
39
0
210
0
220
0
230
1
0
LINE
5
10D
100
AcDbEntity
8
SK2
62
256
6
ByLayer
370
-1
48
1
60
0
100
AcDbLine
10
-118.530238
20
-6.762502
30
0
11
-117.694245
21
-6.762498
31
0
39
0
210
0
220
0
230
1
0
ENDBLK
5
10F
100
AcDbEntity
8
0
100
AcDbBlockEnd
0
ENDSEC
0
SECTION
2
ENTITIES
0
ARC
5
64
100
AcDbEntity
8
1
62
256
6
ByLayer
370
-1
48
1
60
0
100
AcDbCircle
39
0
10
5.781349
20
-6.003718
30
0
40
1.5
210
0
220
0
230
1
100
AcDbArc
50
90
51
270
0
ARC
5
66
100
AcDbEntity
8
1
62
256
6
ByLayer
370
-1
48
1
60
0
100
AcDbCircle
39
0
10
11.581349
20
-6.003718
30
0
40
1.2065
210
0
220
0
230
1
100
AcDbArc
50
266.044721
51
273.955279
0
ARC
5
67
100
AcDbEntity
8
1
62
256
6
ByLayer
370
-1
48
1
60
0
100
AcDbCircle
39
0
10
17.193655
20
-6.003718
30
0
40
0.794000000000006
210
0
220
0
230
1
100
AcDbArc
50
315
51
45
0
ARC
5
68
100
AcDbEntity
8
1
62
256
6
ByLayer
370
-1
48
1
60
0
100
AcDbCircle
39
0
10
-11.581349
20
-6.003718
30
0
40
1.2065
210
0
220
0
230
-1
100
AcDbArc
50
29.920057
51
86.044721
0
ARC
5
69
100
AcDbEntity
8
1
62
256
6
ByLayer
370
-1
48
1
60
0
100
AcDbCircle
39
0
10
-11.581349
20
-6.003718
30
0
40
1.2065
210
0
220
0
230
-1
100
AcDbArc
50
150.079943
51
209.920057
0
ARC
5
6A
100
AcDbEntity
8
1
62
256
6
ByLayer
370
-1
48
1
60
0
100
AcDbCircle
39
0
10
11.581349
20
-11.616025
30
0
40
0.79400000000003
210
0
220
0
230
1
100
AcDbArc
50
225
51
315
0
ARC
5
6C
100
AcDbEntity
8
1
62
256
6
ByLayer
370
-1
48
1
60
0
100
AcDbCircle
39
0
10
11.581349
20
-6.003718
30
0
40
1.6765
210
0
220
0
230
1
100
AcDbArc
50
0
51
59.840113
0
ARC
5
6D
100
AcDbEntity
8
1
62
256
6
ByLayer
370
-1
48
1
60
0
100
AcDbCircle
39
0
10
11.581349
20
-6.003718
30
0
40
1.6765
210
0
220
0
230
1
100
AcDbArc
50
300.159887
51
0
0
ARC
5
6F
100
AcDbEntity
8
1
62
256
6
ByLayer
370
-1
48
1
60
0
100
AcDbCircle
39
0
10
-11.581349
20
-6.003718
30
0
40
1.2065
210
0
220
0
230
-1
100
AcDbArc
50
209.920057
51
266.044721
0
ARC
5
70
100
AcDbEntity
8
1
62
256
6
ByLayer
370
-1
48
1
60
0
100
AcDbCircle
39
0
10
-11.581349
20
-6.003718
30
0
40
1.2065
210
0
220
0
230
-1
100
AcDbArc
50
93.955279
51
150.079943
0
ARC
5
71
100
AcDbEntity
8
1
62
256
6
ByLayer
370
-1
48
1
60
0
100
AcDbCircle
39
0
10
11.581349
20
-6.003718
30
0
40
1.6765
210
0
220
0
230
1
100
AcDbArc
50
239.840113
51
300.159887
0
ARC
5
73
100
AcDbEntity
8
1
62
256
6
ByLayer
370
-1
48
1
60
0
100
AcDbCircle
39
0
10
11.581349
20
-6.003718
30
0
40
1.6765
210
0
220
0
230
1
100
AcDbArc
50
120.159887
51
180
0
ARC
5
74
100
AcDbEntity
8
1
62
256
6
ByLayer
370
-1
48
1
60
0
100
AcDbCircle
39
0
10
11.581349
20
-6.003718
30
0
40
1.6765
210
0
220
0
230
1
100
AcDbArc
50
59.840113
51
120.159887
0
ARC
5
75
100
AcDbEntity
8
1
62
256
6
ByLayer
370
-1
48
1
60
0
100
AcDbCircle
39
0
10
11.581349
20
-6.003718
30
0
40
1.2065
210
0
220
0
230
1
100
AcDbArc
50
209.920057
51
266.044721
0
ARC
5
77
100
AcDbEntity
8
1
62
256
6
ByLayer
370
-1
48
1
60
0
100
AcDbCircle
39
0
10
11.581349
20
-6.003718
30
0
40
1.6765
210
0
220
0
230
1
100
AcDbArc
50
180
51
239.840113
0
ARC
5
78
100
AcDbEntity
8
1
62
256
6
ByLayer
370
-1
48
1
60
0
100
AcDbCircle
39
0
10
5.969042
20
-6.003718
30
0
40
0.794000000000013
210
0
220
0
230
1
100
AcDbArc
50
135
51
225
0
ARC
5
79
100
AcDbEntity
8
1
62
256
6
ByLayer
370
-1
48
1
60
0
100
AcDbCircle
39
0
10
-11.581349
20
-6.003718
30
0
40
1.2065
210
0
220
0
230
-1
100
AcDbArc
50
330.079943
51
29.920057
0
ARC
5
7A
100
AcDbEntity
8
1
62
256
6
ByLayer
370
-1
48
1
60
0
100
AcDbCircle
39
0
10
11.581349
20
-6.003718
30
0
40
1.2065
210
0
220
0
230
1
100
AcDbArc
50
86.044721
51
93.955279
0
ARC
5
7B
100
AcDbEntity
8
1
62
256
6
ByLayer
370
-1
48
1
60
0
100
AcDbCircle
39
0
10
11.581349
20
-0.391411
30
0
40
0.794
210
0
220
0
230
1
100
AcDbArc
50
45
51
135
0
CIRCLE
5
65
100
AcDbEntity
8
1
62
256
6
ByLayer
370
-1
48
1
60
0
100
AcDbCircle
10
11.581349
20
-6.003718
30
0
40
3.07132534818239
39
0
210
0
220
0
230
1
0
CIRCLE
5
6B
100
AcDbEntity
8
1
62
256
6
ByLayer
370
-1
48
1
60
0
100
AcDbCircle
10
11.581349
20
-6.003718
30
0
40
1.8
39
0
210
0
220
0
230
1
0
CIRCLE
5
6E
100
AcDbEntity
8
1
62
256
6
ByLayer
370
-1
48
1
60
0
100
AcDbCircle
10
11.581349
20
-6.003718
30
0
40
2.625
39
0
210
0
220
0
230
1
0
CIRCLE
5
72
100
AcDbEntity
8
1
62
256
6
ByLayer
370
-1
48
1
60
0
100
AcDbCircle
10
11.581349
20
-6.003718
30
0
40
3.00605207334199
39
0
210
0
220
0
230
1
0
CIRCLE
5
76
100
AcDbEntity
8
1
62
256
6
ByLayer
370
-1
48
1
60
0
100
AcDbCircle
10
-11.581349
20
-6.003718
30
0
40
2.95049568210608
39
0
210
0
220
0
230
-1
0
POINT
5
41
100
AcDbEntity
8
SK2
62
256
6
ByLayer
370
-1
48
1
60
0
100
AcDbPoint
10
17.987759
20
26.2075
30
0
39
0
210
0
220
0
230
1
50
360
0
POINT
5
43
100
AcDbEntity
8
2
62
256
6
ByLayer
370
-1
48
1
60
0
100
AcDbPoint
10
17.987759
20
26.2075
30
0
39
0
210
0
220
0
230
1
50
360
0
POINT
5
45
100
AcDbEntity
8
80
62
256
6
ByLayer
370
-1
48
1
60
0
100
AcDbPoint
10
0
20
0
30
0
39
0
210
0
220
0
230
1
50
360
0
POINT
5
47
100
AcDbEntity
8
SK2
62
256
6
ByLayer
370
-1
48
1
60
0
100
AcDbPoint
10
17.987759
20
26.2075
30
0
39
0
210
0
220
0
230
1
50
360
0
POINT
5
48
100
AcDbEntity
8
SK2
62
256
6
ByLayer
370
-1
48
1
60
0
100
AcDbPoint
10
17.987759
20
26.2075
30
0
39
0
210
0
220
0
230
1
50
360
0
POINT
5
49
100
AcDbEntity
8
81
62
256
6
ByLayer
370
-1
48
1
60
0
100
AcDbPoint
10
17.987759
20
-6.3325
30
0
39
0
210
0
220
0
230
1
50
360
0
POINT
5
4B
100
AcDbEntity
8
SK2
62
256
6
ByLayer
370
-1
48
1
60
0
100
AcDbPoint
10
17.987759
20
26.2075
30
0
39
0
210
0
220
0
230
1
50
360
0
SPLINE
5
7C
100
AcDbEntity
8
1
62
256
6
ByLayer
370
-1
48
1
60
0
100
AcDbSpline
70
4
71
3
72
18
73
14
40
0
40
0
40
0
40
0
40
0.212491695755302
40
0.212491695755302
40
0.386618276853802
40
0.386618276853802
40
0.562426360907927
40
0.562426360907927
40
0.715388416645929
40
0.715388416645929
40
0.918249208689851
40
0.918249208689851
40
1
40
1
40
1
40
1
41
1
10
10.6037041157635
20
-4.88221394309051
30
0
41
1
10
10.6220725072822
20
-4.95076907156752
30
0
41
1
10
10.6302574743191
20
-5.02453295935479
30
0
41
1
10
10.6223875826184
20
-5.16069583149354
30
0
41
1
10
10.6101928240286
20
-5.22426922478527
30
0
41
1
10
10.5675180118493
20
-5.34681244533519
30
0
41
1
10
10.536050915133
20
-5.40748552054427
30
0
41
1
10
10.4640453471332
20
-5.50742223846262
30
0
41
1
10
10.4244296845828
20
-5.54968620712114
30
0
41
1
10
10.3259426209918
20
-5.63232127917476
30
0
41
1
10
10.2634549959433
20
-5.66919988680777
30
0
41
1
10
10.1735718515542
20
-5.70576731406547
30
0
41
1
10
10.1471225473926
20
-5.71466249313039
30
0
41
1
10
10.120483191287
20
-5.72188057273593
30
0
0
SPLINE
5
7D
100
AcDbEntity
8
1
62
256
6
ByLayer
370
-1
48
1
60
0
100
AcDbSpline
70
4
71
3
72
14
73
10
40
0
40
0
40
0
40
0
40
0.282169922576082
40
0.282169922576082
40
0.566902245317945
40
0.566902245317945
40
0.824523972080285
40
0.824523972080285
40
1
40
1
40
1
40
1
41
1
10
11.0934376061083
20
-7.40605477251643
30
0
41
1
10
11.06982412634
20
-7.42994678834549
30
0
41
1
10
11.0412459550695
20
-7.45040893885127
30
0
41
1
10
10.977751990775
20
-7.48014558438754
30
0
41
1
10
10.9417693666825
20
-7.48972114493913
30
0
41
1
10
10.8718328157688
20
-7.49435780252665
30
0
41
1
10
10.8369498786442
20
-7.49072285303984
30
0
41
1
10
10.7815067413217
20
-7.4745563284952
30
0
41
1
10
10.7594564745873
20
-7.46512231841712
30
0
41
1
10
10.739050279812
20
-7.45326474770323
30
0
0
SPLINE
5
7E
100
AcDbEntity
8
1
62
256
6
ByLayer
370
-1
48
1
60
0
100
AcDbSpline
70
4
71
3
72
12
73
8
40
0
40
0
40
0
40
0
40
0.422118641229914
40
0.422118641229914
40
0.843213633747435
40
0.843213633747435
40
1
40
1
40
1
40
1
41
1
10
11.6645703199896
20
-7.20734433576229
30
0
41
1
10
11.7320177850235
20
-7.21558757377628
30
0
41
1
10
11.798006942616
20
-7.23418059280766
30
0
41
1
10
11.9166213653656
20
-7.28628706514758
30
0
41
1
10
11.9709909947605
20
-7.32032734390907
30
0
41
1
10
12.0362755829137
20
-7.37430093908026
30
0
41
1
10
12.0532302293741
20
-7.38983636486199
30
0
41
1
10
12.0692595608363
20
-7.40605477251643
30
0
0
SPLINE
5
7F
100
AcDbEntity
8
1
62
256
6
ByLayer
370
-1
48
1
60
0
100
AcDbSpline
70
4
71
3
72
14
73
10
40
0
40
0
40
0
40
0
40
0.282169922576099
40
0.282169922576099
40
0.566902245317969
40
0.566902245317969
40
0.824523972080318
40
0.824523972080318
40
1
40
1
40
1
40
1
41
1
10
12.0692595608362
20
-4.60138119721626
30
0
41
1
10
12.0928730406046
20
-4.57748918138719
30
0
41
1
10
12.121451211875
20
-4.55702703088141
30
0
41
1
10
12.1849451761696
20
-4.52729038534514
30
0
41
1
10
12.220927800262
20
-4.51771482479359
30
0
41
1
10
12.2908643511757
20
-4.51307816720603
30
0
41
1
10
12.3257472883003
20
-4.51671311669284
30
0
41
1
10
12.3811904256228
20
-4.53287964123749
30
0
41
1
10
12.4032406923573
20
-4.54231365131557
30
0
41
1
10
12.4236468871326
20
-4.55417122202942
30
0
0
SPLINE
5
80
100
AcDbEntity
8
1
62
256
6
ByLayer
370
-1
48
1
60
0
100
AcDbSpline
70
4
71
3
72
16
73
12
40
0
40
0
40
0
40
0
40
0.05694461728249
40
0.05694461728249
40
0.279906644834078
40
0.279906644834078
40
0.505321967306657
40
0.505321967306657
40
0.744915047128804
40
0.744915047128804
40
1
40
1
40
1
40
1
41
1
10
10.739050279812
20
-7.45326474770323
30
0
41
1
10
10.7324590219799
20
-7.44943471928801
30
0
41
1
10
10.7260119087536
20
-7.44534241108747
30
0
41
1
10
10.6953849666332
20
-7.42417663561542
30
0
41
1
10
10.6734209164661
20
-7.40334904862792
30
0
41
1
10
10.6373409470789
20
-7.35707900866987
30
0
41
1
10
10.6228360293891
20
-7.33101334658193
30
0
41
1
10
10.6019117012511
20
-7.27577994820913
30
0
41
1
10
10.5957663830859
20
-7.24583968955952
30
0
41
1
10
10.5924956824829
20
-7.18542190182009
30
0
41
1
10
10.595908062248
20
-7.15431871972098
30
0
41
1
10
10.6037041157635
20
-7.12522202664221
30
0
0
SPLINE
5
81
100
AcDbEntity
8
1
62
256
6
ByLayer
370
-1
48
1
60
0
100
AcDbSpline
70
4
71
3
72
14
73
10
40
0
40
0
40
0
40
0
40
0.283961457856564
40
0.283961457856564
40
0.570284934646578
40
0.570284934646578
40
0.829450869060396
40
0.829450869060396
40
1
40
1
40
1
40
1
41
1
10
10.120483191287
20
-6.28555539699678
30
0
41
1
10
10.0881237071073
20
-6.27678741732504
30
0
41
1
10
10.0562918322599
20
-6.26202929307553
30
0
41
1
10
9.99923487489858
20
-6.22153352882003
30
0
41
1
10
9.97321950556017
20
-6.19502747817614
30
0
41
1
10
9.93474675895021
20
-6.13665121108247
30
0
41
1
10
9.92070706069094
20
-6.10461358747673
30
0
41
1
10
9.90755431545125
20
-6.04935999574468
30
0
41
1
10
9.90484858347224
20
-6.02644764566193
30
0
41
1
10
9.90484858347224
20
-6.00371798486634
30
0
0
SPLINE
5
82
100
AcDbEntity
8
1
62
256
6
ByLayer
370
-1
48
1
60
0
100
AcDbSpline
70
4
71
3
72
16
73
12
40
0
40
0
40
0
40
0
40
0.0624450082614033
40
0.0624450082614033
40
0.283207995985744
40
0.283207995985744
40
0.506745688833477
40
0.506745688833477
40
0.744607284736878
40
0.744607284736878
40
1
40
1
40
1
40
1
41
1
10
10.739050279812
20
-4.55417122202945
30
0
41
1
10
10.7463422666568
20
-4.54993401609224
30
0
41
1
10
10.7538266780036
20
-4.54600873292071
30
0
41
1
10
10.7882292111923
20
-4.52982389833039
30
0
41
1
10
10.8172434474891
20
-4.52130239623773
30
0
41
1
10
10.875354921953
20
-4.51333798328488
30
0
41
1
10
10.905185040046
20
-4.51388566368723
30
0
41
1
10
10.9634958758277
20
-4.52353655814821
30
0
41
1
10
10.9925030845488
20
-4.53327505226255
30
0
41
1
10
11.0466732254733
20
-4.5609566152319
30
0
41
1
10
11.0720639690666
20
-4.57975544448794
30
0
41
1
10
11.0934376061083
20
-4.60138119721628
30
0
0
SPLINE
5
83
100
AcDbEntity
8
1
62
256
6
ByLayer
370
-1
48
1
60
0
100
AcDbSpline
70
4
71
3
72
18
73
14
40
0
40
0
40
0
40
0
40
0.212491592102406
40
0.212491592102406
40
0.386618191488451
40
0.386618191488451
40
0.562426295050785
40
0.562426295050785
40
0.715388354469426
40
0.715388354469426
40
0.918249128147115
40
0.918249128147115
40
1
40
1
40
1
40
1
41
1
10
13.0422139756576
20
-5.72188057273593
30
0
41
1
10
12.9737108599877
20
-5.70331927792944
30
0
41
1
10
12.9058204141917
20
-5.67333617595574
30
0
41
1
10
12.7920443174789
20
-5.5981214612147
30
0
41
1
10
12.743203876693
20
-5.55563734144823
30
0
41
1
10
12.6586901621422
20
-5.45717204045388
30
0
41
1
10
12.6220401192546
20
-5.39948169797299
30
0
41
1
10
12.571808800678
20
-5.28701407415377
30
0
41
1
10
12.5551697283247
20
-5.23152727082893
30
0
41
1
10
12.5332025734044
20
-5.10485564710748
30
0
41
1
10
12.5327110378958
20
-5.03229882330601
30
0
41
1
10
12.5462524695411
20
-4.93621141212182
30
0
41
1
10
12.551849983852
20
-4.9088735391669
30
0
41
1
10
12.5589930511811
20
-4.88221394309048
30
0
0
SPLINE
5
84
100
AcDbEntity
8
1
62
256
6
ByLayer
370
-1
48
1
60
0
100
AcDbSpline
70
4
71
3
72
16
73
12
40
0
40
0
40
0
40
0
40
0.0630415689508572
40
0.0630415689508572
40
0.28591433202489
40
0.28591433202489
40
0.511588305408776
40
0.511588305408776
40
0.751723061839239
40
0.751723061839239
40
1
40
1
40
1
40
1
41
1
10
9.90484858347224
20
-6.00371798486634
30
0
41
1
10
9.90484858347224
20
-5.99528433103345
30
0
41
1
10
9.90521495472362
20
-5.98684101651591
30
0
41
1
10
9.90850544005713
20
-5.94896419243486
30
0
41
1
10
9.91571469306126
20
-5.91959637609583
30
0
41
1
10
9.93802449477931
20
-5.86535019502304
30
0
41
1
10
9.95348511755225
20
-5.83983343522254
30
0
41
1
10
9.99112574865237
20
-5.79426506836458
30
0
41
1
10
10.014119553692
20
-5.77407741661318
30
0
41
1
10
10.0643089652688
20
-5.74176653621871
30
0
41
1
10
10.0921698699554
20
-5.72955222239804
30
0
41
1
10
10.120483191287
20
-5.7218805727359
30
0
0
SPLINE
5
85
100
AcDbEntity
8
1
62
256
6
ByLayer
370
-1
48
1
60
0
100
AcDbSpline
70
4
71
3
72
14
73
10
40
0
40
0
40
0
40
0
40
0.283961457856626
40
0.283961457856626
40
0.570284934646689
40
0.570284934646689
40
0.829450869060507
40
0.829450869060507
40
1
40
1
40
1
40
1
41
1
10
13.0422139756576
20
-5.7218805727359
30
0
41
1
10
13.0745734598373
20
-5.73064855240764
30
0
41
1
10
13.1064053346846
20
-5.74540667665721
30
0
41
1
10
13.163462292046
20
-5.78590244091271
30
0
41
1
10
13.1894776613844
20
-5.8124084915566
30
0
41
1
10
13.2279504079943
20
-5.87078475865027
30
0
41
1
10
13.2419901062536
20
-5.90282238225601
30
0
41
1
10
13.2551428514933
20
-5.95807597398806
30
0
41
1
10
13.2578485834723
20
-5.98098832407078
30
0
41
1
10
13.2578485834723
20
-6.00371798486634
30
0
0
SPLINE
5
86
100
AcDbEntity
8
1
62
256
6
ByLayer
370
-1
48
1
60
0
100
AcDbSpline
70
4
71
3
72
18
73
14
40
0
40
0
40
0
40
0
40
0.212491695755304
40
0.212491695755304
40
0.38661827685381
40
0.38661827685381
40
0.562426360907938
40
0.562426360907938
40
0.715388416645954
40
0.715388416645954
40
0.918249208689879
40
0.918249208689879
40
1
40
1
40
1
40
1
41
1
10
12.5589930511811
20
-7.12522202664221
30
0
41
1
10
12.5406246596623
20
-7.05666689816519
30
0
41
1
10
12.5324396926255
20
-6.98290301037792
30
0
41
1
10
12.5403095843262
20
-6.84674013823914
30
0
41
1
10
12.5525043429159
20
-6.78316674494744
30
0
41
1
10
12.5951791550953
20
-6.66062352439752
30
0
41
1
10
12.6266462518116
20
-6.59995044918841
30
0
41
1
10
12.6986518198113
20
-6.50001373127006
30
0
41
1
10
12.7382674823618
20
-6.45774976261154
30
0
41
1
10
12.8367545459527
20
-6.37511469055795
30
0
41
1
10
12.8992421710013
20
-6.33823608292491
30
0
41
1
10
12.9891253153903
20
-6.30166865566724
30
0
41
1
10
13.0155746195519
20
-6.29277347660232
30
0
41
1
10
13.0422139756576
20
-6.28555539699678
30
0
0
SPLINE
5
87
100
AcDbEntity
8
1
62
256
6
ByLayer
370
-1
48
1
60
0
100
AcDbSpline
70
4
71
3
72
12
73
8
40
0
40
0
40
0
40
0
40
0.495785575728967
40
0.495785575728967
40
0.900238279923933
40
0.900238279923933
40
1
40
1
40
1
40
1
41
1
10
12.0692595608362
20
-4.60138119721626
30
0
41
1
10
12.0191221884409
20
-4.65210997190974
30
0
41
1
10
11.9592775952001
20
-4.69659463341327
30
0
41
1
10
11.8373648722299
20
-4.75855725369121
30
0
41
1
10
11.7762948176567
20
-4.78005433423098
30
0
41
1
10
11.6968658400927
20
-4.79555595890145
30
0
41
1
10
11.6807728639238
20
-4.79811140497273
30
0
41
1
10
11.6645703199896
20
-4.80009163397042
30
0
0
SPLINE
5
88
100
AcDbEntity
8
1
62
256
6
ByLayer
370
-1
48
1
60
0
100
AcDbSpline
70
4
71
3
72
16
73
12
40
0
40
0
40
0
40
0
40
0.0630415689509722
40
0.0630415689509722
40
0.285914332024995
40
0.285914332024995
40
0.511588305408905
40
0.511588305408905
40
0.751723061839371
40
0.751723061839371
40
1
40
1
40
1
40
1
41
1
10
13.2578485834723
20
-6.00371798486634
30
0
41
1
10
13.2578485834723
20
-6.01215163869927
30
0
41
1
10
13.2574822122209
20
-6.0205949532168
30
0
41
1
10
13.2541917268874
20
-6.05847177729788
30
0
41
1
10
13.2469824738832
20
-6.08783959363692
30
0
41
1
10
13.2246726721652
20
-6.14208577470967
30
0
41
1
10
13.2092120493923
20
-6.16760253451019
30
0
41
1
10
13.1715714182922
20
-6.21317090136816
30
0
41
1
10
13.1485776132525
20
-6.23335855311953
30
0
41
1
10
13.0983882016757
20
-6.26566943351401
30
0
41
1
10
13.0705272969891
20
-6.27788374733464
30
0
41
1
10
13.0422139756576
20
-6.28555539699678
30
0
0
SPLINE
5
89
100
AcDbEntity
8
1
62
256
6
ByLayer
370
-1
48
1
60
0
100
AcDbSpline
70
4
71
3
72
12
73
8
40
0
40
0
40
0
40
0
40
0.495785575728971
40
0.495785575728971
40
0.900238279923961
40
0.900238279923961
40
1
40
1
40
1
40
1
41
1
10
11.0934376061083
20
-7.40605477251643
30
0
41
1
10
11.1435749785036
20
-7.35532599782297
30
0
41
1
10
11.2034195717445
20
-7.31084133631944
30
0
41
1
10
11.3253322947147
20
-7.24887871604147
30
0
41
1
10
11.3864023492878
20
-7.2273816355017
30
0
41
1
10
11.4658313268519
20
-7.21188001083127
30
0
41
1
10
11.4819243030207
20
-7.20932456475998
30
0
41
1
10
11.498126846955
20
-7.20734433576229
30
0
0
SPLINE
5
8A
100
AcDbEntity
8
1
62
256
6
ByLayer
370
-1
48
1
60
0
100
AcDbSpline
70
4
71
3
72
16
73
12
40
0
40
0
40
0
40
0
40
0.0624450082614044
40
0.0624450082614044
40
0.283207995985785
40
0.283207995985785
40
0.506745688833526
40
0.506745688833526
40
0.744607284736937
40
0.744607284736937
40
1
40
1
40
1
40
1
41
1
10
12.4236468871326
20
-7.45326474770323
30
0
41
1
10
12.4163549002877
20
-7.45750195364045
30
0
41
1
10
12.4088704889409
20
-7.46142723681197
30
0
41
1
10
12.3744679557523
20
-7.47761207140232
30
0
41
1
10
12.3454537194554
20
-7.48613357349495
30
0
41
1
10
12.2873422449915
20
-7.4940979864478
30
0
41
1
10
12.2575121268986
20
-7.49355030604545
30
0
41
1
10
12.1992012911169
20
-7.48389941158445
30
0
41
1
10
12.1701940823957
20
-7.47416091747013
30
0
41
1
10
12.1160239414713
20
-7.44647935450078
30
0
41
1
10
12.0906331978779
20
-7.42768052524474
30
0
41
1
10
12.0692595608363
20
-7.40605477251643
30
0
0
SPLINE
5
8B
100
AcDbEntity
8
1
62
256
6
ByLayer
370
-1
48
1
60
0
100
AcDbSpline
70
4
71
3
72
16
73
12
40
0
40
0
40
0
40
0
40
0.0569446172825257
40
0.0569446172825257
40
0.279906644834104
40
0.279906644834104
40
0.505321967306671
40
0.505321967306671
40
0.744915047128796
40
0.744915047128796
40
1
40
1
40
1
40
1
41
1
10
12.4236468871326
20
-4.55417122202942
30
0
41
1
10
12.4302381449646
20
-4.55800125044468
30
0
41
1
10
12.436685258191
20
-4.56209355864522
30
0
41
1
10
12.4673122003113
20
-4.58325933411726
30
0
41
1
10
12.4892762504784
20
-4.60408692110477
30
0
41
1
10
12.5253562198656
20
-4.65035696106281
30
0
41
1
10
12.5398611375555
20
-4.67642262315076
30
0
41
1
10
12.5607854656935
20
-4.73165602152355
30
0
41
1
10
12.5669307838587
20
-4.76159628017316
30
0
41
1
10
12.5702014844617
20
-4.82201406791259
30
0
41
1
10
12.5667891046966
20
-4.85311725001171
30
0
41
1
10
12.5589930511811
20
-4.88221394309048
30
0
0
SPLINE
5
8C
100
AcDbEntity
8
1
62
256
6
ByLayer
370
-1
48
1
60
0
100
AcDbSpline
70
4
71
3
72
14
73
10
40
0
40
0
40
0
40
0
40
0.2839617490367
40
0.2839617490367
40
0.570285189259014
40
0.570285189259014
40
0.82945109433567
40
0.82945109433567
40
1
40
1
40
1
40
1
41
1
10
10.6037041157635
20
-4.88221394309051
30
0
41
1
10
10.5950272550683
20
-4.84982987183781
30
0
41
1
10
10.5917947236687
20
-4.81489244290742
30
0
41
1
10
10.5981422179881
20
-4.74521377025235
30
0
41
1
10
10.6079895657153
20
-4.70940316202442
30
0
41
1
10
10.6391339921026
20
-4.64680951499605
30
0
41
1
10
10.6597808348718
20
-4.61857425133309
30
0
41
1
10
10.7009464241356
20
-4.5794418524346
30
0
41
1
10
10.7193976327081
20
-4.56559092351296
30
0
41
1
10
10.739050279812
20
-4.55417122202945
30
0
0
SPLINE
5
8D
100
AcDbEntity
8
1
62
256
6
ByLayer
370
-1
48
1
60
0
100
AcDbSpline
70
4
71
3
72
14
73
10
40
0
40
0
40
0
40
0
40
0.2839617490367
40
0.2839617490367
40
0.570285189259018
40
0.570285189259018
40
0.829451094335666
40
0.829451094335666
40
1
40
1
40
1
40
1
41
1
10
12.5589930511811
20
-7.12522202664221
30
0
41
1
10
12.5676699118763
20
-7.15760609789487
30
0
41
1
10
12.5709024432759
20
-7.19254352682526
30
0
41
1
10
12.5645549489565
20
-7.26222219948036
30
0
41
1
10
12.5547076012292
20
-7.29803280770827
30
0
41
1
10
12.523563174842
20
-7.36062645473663
30
0
41
1
10
12.5029163320727
20
-7.38886171839962
30
0
41
1
10
12.461750742809
20
-7.42799411729808
30
0
41
1
10
12.4432995342364
20
-7.44184504621973
30
0
41
1
10
12.4236468871326
20
-7.45326474770323
30
0
0
SPLINE
5
8E
100
AcDbEntity
8
1
62
256
6
ByLayer
370
-1
48
1
60
0
100
AcDbSpline
70
4
71
3
72
12
73
8
40
0
40
0
40
0
40
0
40
0.422118641229876
40
0.422118641229876
40
0.84321363374739
40
0.84321363374739
40
1
40
1
40
1
40
1
41
1
10
11.498126846955
20
-4.80009163397042
30
0
41
1
10
11.430679381921
20
-4.79184839595644
30
0
41
1
10
11.3646902243285
20
-4.77325537692505
30
0
41
1
10
11.2460758015789
20
-4.72114890458514
30
0
41
1
10
11.1917061721841
20
-4.68710862582364
30
0
41
1
10
11.1264215840308
20
-4.63313503065245
30
0
41
1
10
11.1094669375705
20
-4.61759960487072
30
0
41
1
10
11.0934376061083
20
-4.60138119721626
30
0
0
SPLINE
5
8F
100
AcDbEntity
8
1
62
256
6
ByLayer
370
-1
48
1
60
0
100
AcDbSpline
70
4
71
3
72
18
73
14
40
0
40
0
40
0
40
0
40
0.212491592102407
40
0.212491592102407
40
0.386618191488465
40
0.386618191488465
40
0.562426295050796
40
0.562426295050796
40
0.715388354469441
40
0.715388354469441
40
0.918249128147134
40
0.918249128147134
40
1
40
1
40
1
40
1
41
1
10
10.120483191287
20
-6.28555539699678
30
0
41
1
10
10.1889863069568
20
-6.30411669180327
30
0
41
1
10
10.2568767527529
20
-6.33409979377694
30
0
41
1
10
10.3706528494657
20
-6.40931450851798
30
0
41
1
10
10.4194932902515
20
-6.45179862828445
30
0
41
1
10
10.5040070048024
20
-6.55026392927883
30
0
41
1
10
10.54065704769
20
-6.60795427175972
30
0
41
1
10
10.5908883662665
20
-6.72042189557894
30
0
41
1
10
10.6075274386198
20
-6.77590869890378
30
0
41
1
10
10.6294945935402
20
-6.90258032262523
30
0
41
1
10
10.6299861290487
20
-6.9751371464267
30
0
41
1
10
10.6164446974034
20
-7.07122455761086
30
0
41
1
10
10.6108471830926
20
-7.09856243056578
30
0
41
1
10
10.6037041157635
20
-7.12522202664221
30
0
0
INSERT
5
C3
100
AcDbEntity
8
SK2
62
256
6
ByLayer
370
-1
48
1
60
0
100
AcDbBlockReference
2
DimnDraft3D11
10
0
20
0
30
0
41
1
42
1
43
1
50
0
210
0
220
0
230
1
0
LINE
5
4C
100
AcDbEntity
8
81
62
256
6
ByLayer
370
-1
48
1
60
0
100
AcDbLine
10
17.987759
20
-6.3325
30
0
11
27.987759
21
-6.3325
31
0
39
0
210
0
220
0
230
1
0
LINE
5
4D
100
AcDbEntity
8
80
62
256
6
ByLayer
370
-1
48
1
60
0
100
AcDbLine
10
0
20
0
30
0
11
-5
21
0
31
0
39
0
210
0
220
0
230
1
0
LINE
5
4E
100
AcDbEntity
8
1
62
256
6
ByLayer
370
-1
48
1
60
0
100
AcDbLine
10
5.781349
20
-4.503718
30
0
11
6.346155
21
-4.503718
31
0
39
0
210
0
220
0
230
1
0
LINE
5
50
100
AcDbEntity
8
1
62
256
6
ByLayer
370
-1
48
1
60
0
100
AcDbLine
10
2.572534
20
-11.510034
30
0
11
1
21
-9.9375
31
0
39
0
210
0
220
0
230
1
0
LINE
5
51
100
AcDbEntity
8
1
62
256
6
ByLayer
370
-1
48
1
60
0
100
AcDbLine
10
1.001182
20
9.936318
30
0
11
10.893601
21
0.043899
31
0
39
0
210
0
220
0
230
1
0
LINE
5
52
100
AcDbEntity
8
1
62
256
6
ByLayer
370
-1
48
1
60
0
100
AcDbLine
10
1
20
-9.9375
30
0
11
0
21
-9.9375
31
0
39
0
210
0
220
0
230
1
0
LINE
5
53
100
AcDbEntity
8
1
62
256
6
ByLayer
370
-1
48
1
60
0
100
AcDbLine
10
2.572534
20
-11.510034
30
0
11
10.35242
21
-11.510034
31
0
39
0
210
0
220
0
230
1
0
LINE
5
54
100
AcDbEntity
8
1
62
256
6
ByLayer
370
-1
48
1
60
0
100
AcDbLine
10
0
20
9.936318
30
0
11
1.001182
21
9.936318
31
0
39
0
210
0
220
0
230
1
0
LINE
5
55
100
AcDbEntity
8
1
62
256
6
ByLayer
370
-1
48
1
60
0
100
AcDbLine
10
6.346152
20
-7.503718
30
0
11
5.781349
21
-7.503718
31
0
39
0
210
0
220
0
230
1
0
LINE
5
56
100
AcDbEntity
8
1
62
256
6
ByLayer
370
-1
48
1
60
0
100
AcDbLine
10
0
20
9.936318
30
0
11
0
21
-9.9375
31
0
39
0
210
0
220
0
230
1
0
LINE
5
57
100
AcDbEntity
8
1
62
256
6
ByLayer
370
-1
48
1
60
0
100
AcDbLine
10
5.407599
20
-5.442275
30
0
11
11.019906
21
0.170031
31
0
39
0
210
0
220
0
230
1
0
LINE
5
58
100
AcDbEntity
8
1
62
256
6
ByLayer
370
-1
48
1
60
0
100
AcDbLine
10
11.019906
20
-12.177467
30
0
11
5.407599
21
-6.565161
31
0
39
0
210
0
220
0
230
1
0
LINE
5
59
100
AcDbEntity
8
1
62
256
6
ByLayer
370
-1
48
1
60
0
100
AcDbLine
10
12.142791
20
0.170031
30
0
11
17.755098
21
-5.442275
31
0
39
0
210
0
220
0
230
1
0
LINE
5
5A
100
AcDbEntity
8
SK1
62
256
6
ByLayer
370
-1
48
1
60
0
100
AcDbLine
10
-0.15
20
-9.9375
30
0
11
-0.15
21
9.9375
31
0
39
0
210
0
220
0
230
1
0
LINE
5
5C
100
AcDbEntity
8
SK1
62
256
6
ByLayer
370
-1
48
1
60
0
100
AcDbLine
10
-108.362241
20
9.9375
30
0
11
-0.15
21
9.9375
31
0
39
0
210
0
220
0
230
1
0
LINE
5
5D
100
AcDbEntity
8
1
62
256
6
ByLayer
370
-1
48
1
60
0
100
AcDbLine
10
17.755098
20
-6.565161
30
0
11
12.142791
21
-12.177467
31
0
39
0
210
0
220
0
230
1
0
LINE
5
5E
100
AcDbEntity
8
SK1
62
256
6
ByLayer
370
-1
48
1
60
0
100
AcDbLine
10
-0.15
20
9.936972
30
0
11
0
21
9.936318
31
0
39
0
210
0
220
0
230
1
0
LINE
5
5F
100
AcDbEntity
8
SK1
62
256
6
ByLayer
370
-1
48
1
60
0
100
AcDbLine
10
0
20
-9.9375
30
0
11
0
21
9.936318
31
0
39
0
210
0
220
0
230
1
0
LINE
5
60
100
AcDbEntity
8
SK1
62
256
6
ByLayer
370
-1
48
1
60
0
100
AcDbLine
10
-108.362241
20
-9.9375
30
0
11
-108.362241
21
9.9375
31
0
39
0
210
0
220
0
230
1
0
LINE
5
61
100
AcDbEntity
8
SK1
62
256
6
ByLayer
370
-1
48
1
60
0
100
AcDbLine
10
-0.15
20
-9.9375
30
0
11
-108.362241
21
-9.9375
31
0
39
0
210
0
220
0
230
1
0
LINE
5
62
100
AcDbEntity
8
SK1
62
256
6
ByLayer
370
-1
48
1
60
0
100
AcDbLine
10
0
20
-9.9375
30
0
11
-0.15
21
-9.9375
31
0
39
0
210
0
220
0
230
1
0
LINE
5
63
100
AcDbEntity
8
2
62
256
6
ByLayer
370
-1
48
1
60
1
100
AcDbLine
10
17.987759
20
-6.3325
30
0
11
17.988466
21
-6.331793
31
0
39
0
210
0
220
0
230
1
0
MTEXT
5
90
100
AcDbEntity
8
SK6
62
256
6
ByLayer
370
-1
48
1
60
0
100
AcDbMText
10
-64.203488
20
20.395841
30
0
210
0
220
0
230
1
1
\W00.764;\fsimplex.shx,bigfont.shx;SSDCL 2020K 09 
40
3.5
41
0
44
1.084337
50
0
71
7
72
5
7
DEFAULT
0
DIMENSION
5
D1
100
AcDbEntity
8
2
62
256
6
ByLayer
370
-3
48
1
60
0
100
AcDbDimension
2
DimnDraft3D2
10
38.336358
20
14.016099
30
0
11
22.991113
21
23.013928
31
0
70
34
71
5
72
1
41
1
210
0
220
0
230
1
3
Standard
100
AcDb2LineAngularDimension
13
17.987759
23
-3.209968
33
0
14
17.987759
24
22.444765
34
0
15
19.169488
25
-5.15077
35
0
16
29.95705
26
22.563925
36
0
40
0
0
DIMENSION
5
E6
100
AcDbEntity
8
SK2
62
256
6
ByLayer
370
-3
48
1
60
0
100
AcDbDimension
2
DimnDraft3D3
10
-108.362241
20
-31.047468
30
0
11
-55.335677
21
-31.047468
31
0
70
32
71
5
72
1
41
1
210
0
220
0
230
1
3
Standard
100
AcDbAlignedDimension
13
12.375099
23
-14.410128
33
0
14
-108.362241
24
-11.9375
34
0
50
0
100
AcDbRotatedDimension
1001
ACAD
1000
DSTYLE
1002
{
1070
   279
1070
     0
1070
   172
1070
     1
1070
   173
1070
     1
1070
   340
1005
91
1070
    77
1070
     1
1070
    73
1070
     0
1070
   171
1070
     3
1070
   274
1070
     4
1070
   177
1070
     2
1070
   176
1070
     2
1070
   178
1070
     7
1070
    78
1070
     8
1070
    41
1041
3.175
1070
   147
1041
2.25
1070
    42
1041
2.0
1070
    44
1041
2.0
1070
   140
1041
4.5
1070
   343
1005
D2
1070
   344
1005
D2
1002
}
0
DIMENSION
5
F4
100
AcDbEntity
8
2
62
256
6
ByLayer
370
-3
48
1
60
0
100
AcDbDimension
2
DimnDraft3D4
10
55.237759
20
-12.410128
30
0
11
55.237759
21
-8.051446
31
0
70
32
71
5
72
1
41
1
210
0
220
0
230
1
3
Standard
100
AcDbAlignedDimension
13
2
23
9.9375
33
0
14
14.375099
24
-12.410128
34
0
50
90
100
AcDbRotatedDimension
1001
ACAD
1000
DSTYLE
1002
{
1070
    74
1070
     0
1070
   279
1070
     0
1070
   172
1070
     1
1070
   173
1070
     1
1070
   340
1005
91
1070
    77
1070
     1
1070
    73
1070
     0
1070
   171
1070
     3
1070
   274
1070
     4
1070
   177
1070
     2
1070
   176
1070
     2
1070
   178
1070
     7
1070
    78
1070
     8
1070
    41
1041
3.175
1070
   147
1041
2.25
1070
    42
1041
2.0
1070
    44
1041
2.0
1070
   140
1041
4.5
1070
   343
1005
D2
1070
   344
1005
D2
1002
}
0
DIMENSION
5
102
100
AcDbEntity
8
2
62
256
6
ByLayer
370
-3
48
1
60
0
100
AcDbDimension
2
DimnDraft3D5
10
45.237759
20
-6.3325
30
0
11
45.237759
21
-29.092763
31
0
70
32
71
5
72
1
41
1
210
0
220
0
230
1
3
Standard
100
AcDbAlignedDimension
13
2
23
9.9375
33
0
14
19.987759
24
-6.3325
34
0
50
90
100
AcDbRotatedDimension
1001
ACAD
1000
DSTYLE
1002
{
1070
    74
1070
     0
1070
   279
1070
     0
1070
   172
1070
     1
1070
   173
1070
     1
1070
   340
1005
91
1070
    77
1070
     1
1070
    73
1070
     0
1070
   171
1070
     3
1070
   274
1070
     4
1070
   177
1070
     2
1070
   176
1070
     2
1070
   178
1070
     7
1070
    78
1070
     8
1070
    41
1041
3.175
1070
   147
1041
2.25
1070
    42
1041
2.0
1070
    44
1041
2.0
1070
   140
1041
4.5
1070
   343
1005
D2
1070
   344
1005
D2
1002
}
0
DIMENSION
5
110
100
AcDbEntity
8
SK2
62
256
6
ByLayer
370
-3
48
1
60
0
100
AcDbDimension
2
DimnDraft3D6
10
-118.112241
20
-9.9375
30
0
11
-118.112241
21
-2.628947
31
0
70
32
71
5
72
1
41
1
210
0
220
0
230
1
3
Standard
100
AcDbAlignedDimension
13
-110.362241
23
9.9375
33
0
14
-110.362241
24
-9.9375
34
0
50
90
100
AcDbRotatedDimension
1001
ACAD
1000
DSTYLE
1002
{
1070
    74
1070
     0
1070
   279
1070
     0
1070
   172
1070
     1
1070
   173
1070
     1
1070
   340
1005
91
1070
    77
1070
     1
1070
    73
1070
     0
1070
   171
1070
     3
1070
   274
1070
     4
1070
   177
1070
     2
1070
   176
1070
     2
1070
   178
1070
     7
1070
    78
1070
     8
1070
    41
1041
3.175
1070
   147
1041
2.25
1070
    42
1041
2.0
1070
    44
1041
2.0
1070
   140
1041
4.5
1070
   343
1005
D2
1070
   344
1005
D2
1002
}
0
ENDSEC
0
SECTION
2
OBJECTS
0
DICTIONARY
5
140
330
0
100
AcDbDictionary
280
0
281
1
3
ACAD_GROUP
350
141
3
ACAD_MLINESTYLE
350
142
0
DICTIONARY
5
141
330
0
100
AcDbDictionary
280
0
281
1
0
DICTIONARY
5
142
330
0
100
AcDbDictionary
280
0
281
1
3
Standard
350
18
0
MLINESTYLE
5
18
330
142
100
AcDbMlineStyle
2
Standard
70
0
3

62
256
51
90
52
90
71
2
49
-0.5
62
256
6
ByLayer
49
0.5
62
256
6
ByLayer
0
RASTERVARIABLES
5
12f
330

100
AcDbRasterVariables
90
0
70
1
71
1
72
1
0
ENDSEC
0
EOF
