0
SECTION
2
HEADER
9
$ACADVER
1
AC1015
9
$DWGCODEPAGE
3
ANSI_1252
9
$HANDSEED
5
12d
9
$ANGBASE
50
0
9
$ANGDIR
70
0
9
$ATTMODE
70
1
9
$AUNITS
70
0
9
$AUPREC
70
0
9
$CECOLOR
62
256
9
$CELTSCALE
40
1
9
$CELTYPE
6
ByLayer
9
$CELWEIGHT
370
-1
9
$CLAYER
8
0
9
$CMLJUST
70
0
9
$CMLSCALE
40
1
9
$CMLSTYLE
2
Standard
9
$DIMSTYLE
2
Standard
9
$TEXTSIZE
40
0.2
9
$TEXTSTYLE
7
Standard
9
$LUNITS
70
2
9
$LUPREC
70
4
9
$EXTNAMES
290
1
9
$INSUNITS
70
4
9
$LTSCALE
40
1
9
$LWDISPLAY
290
0
9
$PDMODE
70
0
9
$PDSIZE
40
0
9
$PLINEGEN
70
0
0
ENDSEC
0
SECTION
2
CLASSES
0
CLASS
1
RASTERVARIABLES
2
AcDbRasterVariables
3
ISM
90
0
280
0
281
0
0
ENDSEC
0
SECTION
2
TABLES
0
TABLE
2
VPORT
5
123
100
AcDbSymbolTable
0
VPORT
5
1
100
AcDbSymbolTableRecord
100
AcDbViewportTableRecord
2
*Active
70
0
10
0
20
0
11
1
21
1
12
-1
22
1
13
0
23
0
14
0.5
24
0.5
15
10
25
10
16
0
26
0
36
1
17
0
27
0
37
0
0
ENDTAB
0
TABLE
2
LTYPE
5
124
100
AcDbSymbolTable
0
LTYPE
5
14
100
AcDbSymbolTableRecord
100
AcDbLinetypeTableRecord
70
0
2
ByBlock
3

72
65
73
0
40
0
0
LTYPE
5
15
100
AcDbSymbolTableRecord
100
AcDbLinetypeTableRecord
70
0
2
ByLayer
3

72
65
73
0
40
0
0
LTYPE
5
16
100
AcDbSymbolTableRecord
100
AcDbLinetypeTableRecord
70
0
2
CONTINUOUS
3
Solid line
72
65
73
0
40
0
0
LTYPE
5
3B
100
AcDbSymbolTableRecord
100
AcDbLinetypeTableRecord
70
0
2
DASHED
3
__ __ __ __ __ __ __ __ __
72
65
73
2
40
25.72
49
12.86
74
0
49
-12.86
74
0
0
LTYPE
5
3C
100
AcDbSymbolTableRecord
100
AcDbLinetypeTableRecord
70
0
2
HIDDEN
3
_ _ _ _ _ _ _ _ _ _ _ _ _ _ _
72
65
73
2
40
0.5
49
0.25
74
0
49
-0.25
74
0
0
LTYPE
5
3D
100
AcDbSymbolTableRecord
100
AcDbLinetypeTableRecord
70
0
2
PHANTOM
3
____ _ _ ____ _ _ _____ _ _ ____
72
65
73
6
40
50.5
49
18
74
0
49
-6.5
74
0
49
6.5
74
0
49
-6.5
74
0
49
6.5
74
0
49
-6.5
74
0
0
LTYPE
5
3E
100
AcDbSymbolTableRecord
100
AcDbLinetypeTableRecord
70
0
2
CENTER
3
____ _ ____ _ ____ _ ____
72
65
73
4
40
47.5
49
22
74
0
49
-8.5
74
0
49
8.5
74
0
49
-8.5
74
0
0
LTYPE
5
3F
100
AcDbSymbolTableRecord
100
AcDbLinetypeTableRecord
70
0
2
DOT
3
.........................
72
65
73
2
40
10
49
0
74
0
49
-10
74
0
0
LTYPE
5
40
100
AcDbSymbolTableRecord
100
AcDbLinetypeTableRecord
70
0
2
DASHDOT
3
_._._._._._._._._._._._._._._._.
72
65
73
4
40
70
49
31
74
0
49
-13
74
0
49
13
74
0
49
-13
74
0
0
ENDTAB
0
TABLE
2
LAYER
5
125
100
AcDbSymbolTable
0
LAYER
5
10
100
AcDbSymbolTableRecord
100
AcDbLayerTableRecord
2
0
70
0
62
7
6
CONTINUOUS
290
1
370
-3
390
0
0
LAYER
5
42
100
AcDbSymbolTableRecord
100
AcDbLayerTableRecord
2
2
70
0
62
7
6
CONTINUOUS
290
1
370
-3
390
0
0
LAYER
5
44
100
AcDbSymbolTableRecord
100
AcDbLayerTableRecord
2
80
70
0
62
-6
6
CONTINUOUS
290
1
370
-3
390
0
0
LAYER
5
4A
100
AcDbSymbolTableRecord
100
AcDbLayerTableRecord
2
81
70
0
62
-3
6
CONTINUOUS
290
1
370
-3
390
0
0
LAYER
5
4F
100
AcDbSymbolTableRecord
100
AcDbLayerTableRecord
2
1
70
0
62
4
6
CONTINUOUS
290
1
370
-3
390
0
0
LAYER
5
110
100
AcDbSymbolTableRecord
100
AcDbLayerTableRecord
2
SK2
70
0
62
7
6
CONTINUOUS
290
1
370
-3
390
0
0
LAYER
5
111
100
AcDbSymbolTableRecord
100
AcDbLayerTableRecord
2
SK1
70
0
62
4
6
CONTINUOUS
290
1
370
-3
390
0
0
LAYER
5
112
100
AcDbSymbolTableRecord
100
AcDbLayerTableRecord
2
SK6
70
0
62
5
6
CONTINUOUS
290
1
370
-3
390
0
0
ENDTAB
0
TABLE
2
STYLE
5
126
100
AcDbSymbolTable
0
STYLE
5
11
100
AcDbSymbolTableRecord
100
AcDbTextStyleTableRecord
2
Standard
3
txt
70
0
71
0
40
0
41
1
42
0
50
0
0
STYLE
5
9B
100
AcDbSymbolTableRecord
100
AcDbTextStyleTableRecord
2
DEFAULT
3
simplex.shx
70
0
71
0
40
0
41
1
42
0
50
0
0
STYLE
5
BE
100
AcDbSymbolTableRecord
100
AcDbTextStyleTableRecord
2
DWGDirectTextStyle
3
SIMPLEX
70
0
71
0
40
0
41
1
42
0
50
0
0
ENDTAB
0
TABLE
2
DIMSTYLE
5
127
100
AcDbSymbolTable
100
AcDbDimStyleTable
0
DIMSTYLE
105
27
100
AcDbSymbolTableRecord
100
AcDbDimStyleTableRecord
2
Standard
70
0
3
<>
41
0.18
42
0.0625
44
0.18
140
0.18
147
0.09
73
0
74
0
77
1
271
2
275
0
278
52
280
0
340
11
0
ENDTAB
0
TABLE
2
VIEW
5
128
100
AcDbSymbolTable
0
ENDTAB
0
TABLE
2
UCS
5
129
100
AcDbSymbolTable
0
ENDTAB
0
TABLE
2
APPID
5
12a
100
AcDbSymbolTable
0
APPID
5
12
100
AcDbSymbolTableRecord
100
AcDbRegAppTableRecord
2
ACAD
70
0
0
ENDTAB
0
TABLE
2
BLOCK_RECORD
5
12b
100
AcDbSymbolTable
0
BLOCK_RECORD
5
1F
100
AcDbSymbolTableRecord
100
AcDbBlockTableRecord
2
*Model_Space
340
0
70
0
0
BLOCK_RECORD
5
1B
100
AcDbSymbolTableRecord
100
AcDbBlockTableRecord
2
*Paper_Space
340
0
70
0
0
BLOCK_RECORD
5
23
100
AcDbSymbolTableRecord
100
AcDbBlockTableRecord
2
*Paper_Space0
340
0
70
0
0
BLOCK_RECORD
5
C0
100
AcDbSymbolTableRecord
100
AcDbBlockTableRecord
2
DimnDraft3D1
340
0
70
0
0
BLOCK_RECORD
5
CE
100
AcDbSymbolTableRecord
100
AcDbBlockTableRecord
2
_CLOSED
340
0
70
0
0
BLOCK_RECORD
5
D5
100
AcDbSymbolTableRecord
100
AcDbBlockTableRecord
2
DimnDraft3D2
340
0
70
0
0
BLOCK_RECORD
5
E3
100
AcDbSymbolTableRecord
100
AcDbBlockTableRecord
2
DimnDraft3D3
340
0
70
0
0
ENDTAB
0
ENDSEC
0
SECTION
2
BLOCKS
0
BLOCK
5
20
100
AcDbEntity
8
0
100
AcDbBlockBegin
2
*Model_Space
70
0
10
0
20
0
30
0
3
*Model_Space
0
ENDBLK
5
21
100
AcDbEntity
8
0
100
AcDbBlockEnd
0
BLOCK
5
1C
100
AcDbEntity
8
0
100
AcDbBlockBegin
2
*Paper_Space
70
0
10
0
20
0
30
0
3
*Paper_Space
0
ENDBLK
5
1D
100
AcDbEntity
8
0
100
AcDbBlockEnd
0
BLOCK
5
24
100
AcDbEntity
8
0
100
AcDbBlockBegin
2
*Paper_Space0
70
0
10
0
20
0
30
0
3
*Paper_Space0
0
ENDBLK
5
25
100
AcDbEntity
8
0
100
AcDbBlockEnd
0
BLOCK
5
CB
100
AcDbEntity
8
0
100
AcDbBlockBegin
2
DimnDraft3D1
70
0
10
0
20
0
30
0
3
DimnDraft3D1
0
MTEXT
5
C1
100
AcDbEntity
8
SK2
62
256
6
ByLayer
370
-1
48
1
60
0
100
AcDbMText
10
-154.822299
20
-1.503947
30
0
210
0
220
0
230
1
1
\W01.000;\fsimplex.shx,bigfont.shx;25 
40
4.5
41
0
44
1.084337
50
90
71
7
72
5
7
DEFAULT
0
LINE
5
C2
100
AcDbEntity
8
SK2
62
256
6
ByLayer
370
-1
48
1
60
0
100
AcDbLine
10
-145.947299
20
-12.4375
30
0
11
-155.697299
21
-12.4375
31
0
39
0
210
0
220
0
230
1
0
LINE
5
C3
100
AcDbEntity
8
SK2
62
256
6
ByLayer
370
-1
48
1
60
0
100
AcDbLine
10
-145.947299
20
12.4375
30
0
11
-155.697299
21
12.4375
31
0
39
0
210
0
220
0
230
1
0
LINE
5
C4
100
AcDbEntity
8
SK2
62
256
6
ByLayer
370
-1
48
1
60
0
100
AcDbLine
10
-153.697299
20
-12.4375
30
0
11
-153.697299
21
12.4375
31
0
39
0
210
0
220
0
230
1
0
LINE
5
C5
100
AcDbEntity
8
SK2
62
256
6
ByLayer
370
-1
48
1
60
0
100
AcDbLine
10
-153.697299
20
-12.4375
30
0
11
-154.115296
21
-9.262502
31
0
39
0
210
0
220
0
230
1
0
LINE
5
C6
100
AcDbEntity
8
SK2
62
256
6
ByLayer
370
-1
48
1
60
0
100
AcDbLine
10
-153.697299
20
-12.4375
30
0
11
-153.279302
21
-9.262498
31
0
39
0
210
0
220
0
230
1
0
LINE
5
C7
100
AcDbEntity
8
SK2
62
256
6
ByLayer
370
-1
48
1
60
0
100
AcDbLine
10
-154.115296
20
-9.262502
30
0
11
-153.279302
21
-9.262498
31
0
39
0
210
0
220
0
230
1
0
LINE
5
C8
100
AcDbEntity
8
SK2
62
256
6
ByLayer
370
-1
48
1
60
0
100
AcDbLine
10
-153.697299
20
12.4375
30
0
11
-153.279302
21
9.262502
31
0
39
0
210
0
220
0
230
1
0
LINE
5
C9
100
AcDbEntity
8
SK2
62
256
6
ByLayer
370
-1
48
1
60
0
100
AcDbLine
10
-153.697299
20
12.4375
30
0
11
-154.115296
21
9.262498
31
0
39
0
210
0
220
0
230
1
0
LINE
5
CA
100
AcDbEntity
8
SK2
62
256
6
ByLayer
370
-1
48
1
60
0
100
AcDbLine
10
-153.279302
20
9.262502
30
0
11
-154.115296
21
9.262498
31
0
39
0
210
0
220
0
230
1
0
ENDBLK
5
CC
100
AcDbEntity
8
0
100
AcDbBlockEnd
0
BLOCK
5
CF
100
AcDbEntity
8
0
100
AcDbBlockBegin
2
_CLOSED
70
0
10
0
20
0
30
0
3
_CLOSED
0
LINE
5
D1
100
AcDbEntity
8
0
62
256
6
ByLayer
370
-2
48
1
60
0
100
AcDbLine
10
-1
20
0.166667
30
0
11
0
21
0
31
0
39
0
210
0
220
0
230
1
0
LINE
5
D2
100
AcDbEntity
8
0
62
256
6
ByLayer
370
-2
48
1
60
0
100
AcDbLine
10
0
20
0
30
0
11
-1
21
-0.166667
31
0
39
0
210
0
220
0
230
1
0
LINE
5
D3
100
AcDbEntity
8
0
62
256
6
ByLayer
370
-2
48
1
60
0
100
AcDbLine
10
-1
20
0.166667
30
0
11
-1
21
-0.166667
31
0
39
0
210
0
220
0
230
1
0
LINE
5
D4
100
AcDbEntity
8
0
62
256
6
ByLayer
370
-2
48
1
60
0
100
AcDbLine
10
0
20
0
30
0
11
-1
21
0
31
0
39
0
210
0
220
0
230
1
0
ENDBLK
5
D0
100
AcDbEntity
8
0
100
AcDbBlockEnd
0
BLOCK
5
E0
100
AcDbEntity
8
0
100
AcDbBlockBegin
2
DimnDraft3D2
70
0
10
0
20
0
30
0
3
DimnDraft3D2
0
MTEXT
5
D6
100
AcDbEntity
8
2
62
256
6
ByLayer
370
-1
48
1
60
0
100
AcDbMText
10
40.527701
20
2.233553
30
0
210
0
220
0
230
1
1
\W01.000;\fsimplex.shx,bigfont.shx;32 
40
4.5
41
0
44
1.084337
50
90
71
7
72
5
7
DEFAULT
0
LINE
5
D7
100
AcDbEntity
8
2
62
256
6
ByLayer
370
-1
48
1
60
0
100
AcDbLine
10
2
20
-12.4375
30
0
11
43.652701
21
-12.4375
31
0
39
0
210
0
220
0
230
1
0
LINE
5
D8
100
AcDbEntity
8
2
62
256
6
ByLayer
370
-1
48
1
60
0
100
AcDbLine
10
29.402701
20
19.9125
30
0
11
43.652701
21
19.9125
31
0
39
0
210
0
220
0
230
1
0
LINE
5
D9
100
AcDbEntity
8
2
62
256
6
ByLayer
370
-1
48
1
60
0
100
AcDbLine
10
41.652701
20
-12.4375
30
0
11
41.652701
21
19.9125
31
0
39
0
210
0
220
0
230
1
0
LINE
5
DA
100
AcDbEntity
8
2
62
256
6
ByLayer
370
-1
48
1
60
0
100
AcDbLine
10
41.652701
20
-12.4375
30
0
11
41.234704
21
-9.262502
31
0
39
0
210
0
220
0
230
1
0
LINE
5
DB
100
AcDbEntity
8
2
62
256
6
ByLayer
370
-1
48
1
60
0
100
AcDbLine
10
41.652701
20
-12.4375
30
0
11
42.070698
21
-9.262498
31
0
39
0
210
0
220
0
230
1
0
LINE
5
DC
100
AcDbEntity
8
2
62
256
6
ByLayer
370
-1
48
1
60
0
100
AcDbLine
10
41.234704
20
-9.262502
30
0
11
42.070698
21
-9.262498
31
0
39
0
210
0
220
0
230
1
0
LINE
5
DD
100
AcDbEntity
8
2
62
256
6
ByLayer
370
-1
48
1
60
0
100
AcDbLine
10
41.652701
20
19.9125
30
0
11
42.070698
21
16.737502
31
0
39
0
210
0
220
0
230
1
0
LINE
5
DE
100
AcDbEntity
8
2
62
256
6
ByLayer
370
-1
48
1
60
0
100
AcDbLine
10
41.652701
20
19.9125
30
0
11
41.234704
21
16.737498
31
0
39
0
210
0
220
0
230
1
0
LINE
5
DF
100
AcDbEntity
8
2
62
256
6
ByLayer
370
-1
48
1
60
0
100
AcDbLine
10
42.070698
20
16.737502
30
0
11
41.234704
21
16.737498
31
0
39
0
210
0
220
0
230
1
0
ENDBLK
5
E1
100
AcDbEntity
8
0
100
AcDbBlockEnd
0
BLOCK
5
EE
100
AcDbEntity
8
0
100
AcDbBlockBegin
2
DimnDraft3D3
70
0
10
0
20
0
30
0
3
DimnDraft3D3
0
MTEXT
5
E4
100
AcDbEntity
8
SK2
62
256
6
ByLayer
370
-1
48
1
60
0
100
AcDbMText
10
-60.86572
20
40.7875
30
0
210
0
220
0
230
1
1
\W01.000;\fsimplex.shx,bigfont.shx;170 
40
4.5
41
0
44
1.084337
50
0
71
7
72
5
7
DEFAULT
0
LINE
5
E5
100
AcDbEntity
8
SK2
62
256
6
ByLayer
370
-1
48
1
60
0
100
AcDbLine
10
27.402701
20
21.9125
30
0
11
27.402701
21
41.6625
31
0
39
0
210
0
220
0
230
1
0
LINE
5
E6
100
AcDbEntity
8
SK2
62
256
6
ByLayer
370
-1
48
1
60
0
100
AcDbLine
10
-143.947299
20
14.4375
30
0
11
-143.947299
21
41.6625
31
0
39
0
210
0
220
0
230
1
0
LINE
5
E7
100
AcDbEntity
8
SK2
62
256
6
ByLayer
370
-1
48
1
60
0
100
AcDbLine
10
27.402701
20
39.6625
30
0
11
-143.947299
21
39.6625
31
0
39
0
210
0
220
0
230
1
0
LINE
5
E8
100
AcDbEntity
8
SK2
62
256
6
ByLayer
370
-1
48
1
60
0
100
AcDbLine
10
27.402701
20
39.6625
30
0
11
24.227703
21
39.244503
31
0
39
0
210
0
220
0
230
1
0
LINE
5
E9
100
AcDbEntity
8
SK2
62
256
6
ByLayer
370
-1
48
1
60
0
100
AcDbLine
10
27.402701
20
39.6625
30
0
11
24.2277
21
40.080497
31
0
39
0
210
0
220
0
230
1
0
LINE
5
EA
100
AcDbEntity
8
SK2
62
256
6
ByLayer
370
-1
48
1
60
0
100
AcDbLine
10
24.227703
20
39.244503
30
0
11
24.2277
21
40.080497
31
0
39
0
210
0
220
0
230
1
0
LINE
5
EB
100
AcDbEntity
8
SK2
62
256
6
ByLayer
370
-1
48
1
60
0
100
AcDbLine
10
-143.947299
20
39.6625
30
0
11
-140.7723
21
40.080497
31
0
39
0
210
0
220
0
230
1
0
LINE
5
EC
100
AcDbEntity
8
SK2
62
256
6
ByLayer
370
-1
48
1
60
0
100
AcDbLine
10
-143.947299
20
39.6625
30
0
11
-140.772297
21
39.244503
31
0
39
0
210
0
220
0
230
1
0
LINE
5
ED
100
AcDbEntity
8
SK2
62
256
6
ByLayer
370
-1
48
1
60
0
100
AcDbLine
10
-140.7723
20
40.080497
30
0
11
-140.772297
21
39.244503
31
0
39
0
210
0
220
0
230
1
0
ENDBLK
5
EF
100
AcDbEntity
8
0
100
AcDbBlockEnd
0
ENDSEC
0
SECTION
2
ENTITIES
0
ARC
5
67
100
AcDbEntity
8
1
62
256
6
ByLayer
370
-1
48
1
60
0
100
AcDbCircle
39
0
10
21.493513
20
14.003312
30
0
40
1.5
210
0
220
0
230
1
100
AcDbArc
50
187.895898
51
262.104093
0
ARC
5
68
100
AcDbEntity
8
1
62
256
6
ByLayer
370
-1
48
1
60
0
100
AcDbCircle
39
0
10
-7.157923
20
22.2375
30
0
40
10.2
210
0
220
0
230
-1
100
AcDbArc
50
240
51
286.098934
0
ARC
5
69
100
AcDbEntity
8
1
62
256
6
ByLayer
370
-1
48
1
60
0
100
AcDbCircle
39
0
10
-23.402701
20
15.9125
30
0
40
1
210
0
220
0
230
-1
100
AcDbArc
50
92.228335
51
117.771665
0
ARC
5
6A
100
AcDbEntity
8
1
62
256
6
ByLayer
370
-1
48
1
60
0
100
AcDbCircle
39
0
10
-23.402701
20
15.9125
30
0
40
1.25
210
0
220
0
230
-1
100
AcDbArc
50
255
51
315
0
ARC
5
6C
100
AcDbEntity
8
1
62
256
6
ByLayer
370
-1
48
1
60
0
100
AcDbCircle
39
0
10
-23.402701
20
15.9125
30
0
40
1.25
210
0
220
0
230
-1
100
AcDbArc
50
15
51
75
0
ARC
5
6D
100
AcDbEntity
8
1
62
256
6
ByLayer
370
-1
48
1
60
0
100
AcDbCircle
39
0
10
-23.402701
20
15.9125
30
0
40
1.25
210
0
220
0
230
-1
100
AcDbArc
50
75
51
135
0
ARC
5
6E
100
AcDbEntity
8
1
62
256
6
ByLayer
370
-1
48
1
60
0
100
AcDbCircle
39
0
10
-23.402701
20
15.9125
30
0
40
1.25
210
0
220
0
230
-1
100
AcDbArc
50
195
51
255
0
ARC
5
70
100
AcDbEntity
8
1
62
256
6
ByLayer
370
-1
48
1
60
0
100
AcDbCircle
39
0
10
-23.402701
20
15.9125
30
0
40
1.25
210
0
220
0
230
-1
100
AcDbArc
50
135
51
195
0
ARC
5
71
100
AcDbEntity
8
1
62
256
6
ByLayer
370
-1
48
1
60
0
100
AcDbCircle
39
0
10
-23.402701
20
15.9125
30
0
40
1
210
0
220
0
230
-1
100
AcDbArc
50
152.228335
51
177.771665
0
ARC
5
72
100
AcDbEntity
8
1
62
256
6
ByLayer
370
-1
48
1
60
0
100
AcDbCircle
39
0
10
-23.402701
20
15.9125
30
0
40
1
210
0
220
0
230
-1
100
AcDbArc
50
212.228335
51
237.771665
0
ARC
5
73
100
AcDbEntity
8
1
62
256
6
ByLayer
370
-1
48
1
60
0
100
AcDbCircle
39
0
10
-23.402701
20
15.9125
30
0
40
1
210
0
220
0
230
-1
100
AcDbArc
50
32.228335
51
57.771665
0
ARC
5
74
100
AcDbEntity
8
1
62
256
6
ByLayer
370
-1
48
1
60
0
100
AcDbCircle
39
0
10
-23.402701
20
15.9125
30
0
40
1
210
0
220
0
230
-1
100
AcDbArc
50
332.228335
51
357.771665
0
ARC
5
79
100
AcDbEntity
8
1
62
256
6
ByLayer
370
-1
48
1
60
0
100
AcDbCircle
39
0
10
-23.402701
20
15.9125
30
0
40
1.25
210
0
220
0
230
-1
100
AcDbArc
50
315
51
15
0
ARC
5
7A
100
AcDbEntity
8
1
62
256
6
ByLayer
370
-1
48
1
60
0
100
AcDbCircle
39
0
10
-23.402701
20
15.9125
30
0
40
1
210
0
220
0
230
-1
100
AcDbArc
50
272.228335
51
297.771665
0
CIRCLE
5
6B
100
AcDbEntity
8
1
62
256
6
ByLayer
370
-1
48
1
60
0
100
AcDbCircle
10
-23.402701
20
15.9125
30
0
40
2.25
39
0
210
0
220
0
230
-1
0
CIRCLE
5
6F
100
AcDbEntity
8
1
62
256
6
ByLayer
370
-1
48
1
60
0
100
AcDbCircle
10
-23.402701
20
15.9125
30
0
40
2.33136445707911
39
0
210
0
220
0
230
-1
0
CIRCLE
5
75
100
AcDbEntity
8
1
62
256
6
ByLayer
370
-1
48
1
60
0
100
AcDbCircle
10
23.402701
20
15.9125
30
0
40
0.833572051764939
39
0
210
0
220
0
230
1
0
CIRCLE
5
76
100
AcDbEntity
8
1
62
256
6
ByLayer
370
-1
48
1
60
0
100
AcDbCircle
10
-23.402701
20
15.9125
30
0
40
2.20103780961135
39
0
210
0
220
0
230
-1
0
CIRCLE
5
77
100
AcDbEntity
8
1
62
256
6
ByLayer
370
-1
48
1
60
0
100
AcDbCircle
10
23.402701
20
15.9125
30
0
40
1.40000000000002
39
0
210
0
220
0
230
1
0
CIRCLE
5
78
100
AcDbEntity
8
1
62
256
6
ByLayer
370
-1
48
1
60
0
100
AcDbCircle
10
-23.402701
20
15.9125
30
0
40
3.99999999999999
39
0
210
0
220
0
230
-1
0
CIRCLE
5
7B
100
AcDbEntity
8
1
62
256
6
ByLayer
370
-1
48
1
60
0
100
AcDbCircle
10
23.402701
20
15.9125
30
0
40
2.09999999999999
39
0
210
0
220
0
230
1
0
POINT
5
41
100
AcDbEntity
8
2
62
256
6
ByLayer
370
-1
48
1
60
0
100
AcDbPoint
10
27.402701
20
19.9125
30
0
39
0
210
0
220
0
230
1
50
360
0
POINT
5
43
100
AcDbEntity
8
80
62
256
6
ByLayer
370
-1
48
1
60
0
100
AcDbPoint
10
0
20
0
30
0
39
0
210
0
220
0
230
1
50
360
0
POINT
5
45
100
AcDbEntity
8
SK2
62
256
6
ByLayer
370
-1
48
1
60
0
100
AcDbPoint
10
27.402701
20
19.9125
30
0
39
0
210
0
220
0
230
1
50
360
0
POINT
5
47
100
AcDbEntity
8
SK2
62
256
6
ByLayer
370
-1
48
1
60
0
100
AcDbPoint
10
27.402701
20
19.9125
30
0
39
0
210
0
220
0
230
1
50
360
0
POINT
5
48
100
AcDbEntity
8
SK2
62
256
6
ByLayer
370
-1
48
1
60
0
100
AcDbPoint
10
27.402701
20
19.9125
30
0
39
0
210
0
220
0
230
1
50
360
0
POINT
5
49
100
AcDbEntity
8
81
62
256
6
ByLayer
370
-1
48
1
60
0
100
AcDbPoint
10
27.402701
20
19.9125
30
0
39
0
210
0
220
0
230
1
50
360
0
POINT
5
4B
100
AcDbEntity
8
SK2
62
256
6
ByLayer
370
-1
48
1
60
0
100
AcDbPoint
10
27.402701
20
19.9125
30
0
39
0
210
0
220
0
230
1
50
360
0
SPLINE
5
7C
100
AcDbEntity
8
1
62
256
6
ByLayer
370
-1
48
1
60
0
100
AcDbSpline
70
4
71
3
72
16
73
12
40
0
40
0
40
0
40
0
40
0.121350652772526
40
0.121350652772526
40
0.241764360739278
40
0.241764360739278
40
0.425509948111301
40
0.425509948111301
40
0.72490884206512
40
0.72490884206512
40
1
40
1
40
1
40
1
41
1
10
22.5188176878087
20
15.0286165235168
30
0
41
1
10
22.5352561444219
20
15.0121780669037
30
0
41
1
10
22.5540332135168
20
14.9975756118011
30
0
41
1
10
22.5918470562005
20
14.9745316959299
30
0
41
1
10
22.6113903880535
20
14.9656429888045
30
0
41
1
10
22.6588534539436
20
14.9494475651412
30
0
41
1
10
22.6866861110099
20
14.9449378018757
30
0
41
1
10
22.7537249646208
20
14.9422444071307
30
0
41
1
10
22.7907169144128
20
14.9494405522004
30
0
41
1
10
22.8522521608389
20
14.9717467315463
30
0
41
1
10
22.878093595612
20
14.9864717310183
30
0
41
1
10
22.9004327305182
20
15.0036151980846
30
0
0
SPLINE
5
7D
100
AcDbEntity
8
1
62
256
6
ByLayer
370
-1
48
1
60
0
100
AcDbSpline
70
4
71
3
72
8
73
4
40
0
40
0
40
0
40
0
40
1
40
1
40
1
40
1
41
1
10
23.4221663420825
20
16.9507515444593
30
0
41
1
10
23.4275748244326
20
16.9376921838866
30
0
41
1
10
23.4339867603987
20
16.9246767318689
30
0
41
1
10
23.4415831412376
20
16.9117438100228
30
0
0
SPLINE
5
7E
100
AcDbEntity
8
1
62
256
6
ByLayer
370
-1
48
1
60
0
100
AcDbSpline
70
4
71
3
72
18
73
14
40
0
40
0
40
0
40
0
40
0.208886483235025
40
0.208886483235025
40
0.421198226781109
40
0.421198226781109
40
0.600960032342134
40
0.600960032342134
40
0.761871479601772
40
0.761871479601772
40
0.937780558806749
40
0.937780558806749
40
1
40
1
40
1
40
1
41
1
10
23.4415831412377
20
16.9117438100228
30
0
41
1
10
23.4576759095252
20
16.8843456951886
30
0
41
1
10
23.4786045538812
20
16.8583882787214
30
0
41
1
10
23.5291112578537
20
16.8134155257566
30
0
41
1
10
23.5597741123967
20
16.7938469899695
30
0
41
1
10
23.6209905221998
20
16.7685435354868
30
0
41
1
10
23.6517107535545
20
16.7608524628064
30
0
41
1
10
23.7090682593866
20
16.7551261509176
30
0
41
1
10
23.7364882544839
20
16.7560487019504
30
0
41
1
10
23.7907532423037
20
16.7646310272932
30
0
41
1
10
23.8179573311528
20
16.7729606636699
30
0
41
1
10
23.8516943594127
20
16.7881940052735
30
0
41
1
10
23.8603137427781
20
16.7925811977254
30
0
41
1
10
23.8686502895189
20
16.7973115125269
30
0
0
SPLINE
5
7F
100
AcDbEntity
8
1
62
256
6
ByLayer
370
-1
48
1
60
0
100
AcDbSpline
70
4
71
3
72
16
73
12
40
0
40
0
40
0
40
0
40
0.417201362882602
40
0.417201362882602
40
0.619006372424686
40
0.619006372424686
40
0.788090355899089
40
0.788090355899089
40
0.905842791388559
40
0.905842791388559
40
1
40
1
40
1
40
1
41
1
10
22.3644496198327
20
15.8930348222094
30
0
41
1
10
22.3252344639122
20
15.9092756233936
30
0
41
1
10
22.2863232838359
20
15.935162175052
30
0
41
1
10
22.2371665556381
20
15.9937326840621
30
0
41
1
10
22.2222811347204
20
16.0164622645605
30
0
41
1
10
22.2004595578601
20
16.0655738722032
30
0
41
1
10
22.1924529474966
20
16.0912848348663
30
0
41
1
10
22.1855174749812
20
16.1394745008405
30
0
41
1
10
22.1845777707923
20
16.1610343785137
30
0
41
1
10
22.1875820682492
20
16.2004826856509
30
0
41
1
10
22.190616984606
20
16.2185693898071
30
0
41
1
10
22.1952938814306
20
16.2360238063782
30
0
0
SPLINE
5
80
100
AcDbEntity
8
1
62
256
6
ByLayer
370
-1
48
1
60
0
100
AcDbSpline
70
4
71
3
72
8
73
4
40
0
40
0
40
0
40
0
40
1
40
1
40
1
40
1
41
1
10
22.8694064794962
20
16.7584295355812
30
0
41
1
10
22.8695186773565
20
16.7734279648646
30
0
41
1
10
22.8685638507817
20
16.7879056449367
30
0
41
1
10
22.8667180536065
20
16.8019196241248
30
0
0
SPLINE
5
81
100
AcDbEntity
8
1
62
256
6
ByLayer
370
-1
48
1
60
0
100
AcDbSpline
70
4
71
3
72
16
73
12
40
0
40
0
40
0
40
0
40
0.121507324260793
40
0.121507324260793
40
0.241946643683984
40
0.241946643683984
40
0.425791670243952
40
0.425791670243952
40
0.725387463921456
40
0.725387463921456
40
1
40
1
40
1
40
1
41
1
10
23.0791773579138
20
17.1199072828614
30
0
41
1
10
23.1016615420443
20
17.1259319018416
30
0
41
1
10
23.1252561588826
20
17.1291898235112
30
0
41
1
10
23.1695542949784
20
17.1302269048227
30
0
41
1
10
23.1909240027464
20
17.1281462814266
30
0
41
1
10
23.240134291134
20
17.1184227421371
30
0
41
1
10
23.2664974556023
20
17.1083989197033
30
0
41
1
10
23.3259108988535
20
17.0771762882478
30
0
41
1
10
23.354347805625
20
17.0524240387188
30
0
41
1
10
23.3964267280288
20
17.002351728772
30
0
41
1
10
23.4114103851854
20
16.9767229557223
30
0
41
1
10
23.4221663420825
20
16.9507515444593
30
0
0
SPLINE
5
82
100
AcDbEntity
8
1
62
256
6
ByLayer
370
-1
48
1
60
0
100
AcDbSpline
70
4
71
3
72
8
73
4
40
0
40
0
40
0
40
0
40
1
40
1
40
1
40
1
41
1
10
23.3638191873463
20
14.9132561899773
30
0
41
1
10
23.3714155681853
20
14.9003232681312
30
0
41
1
10
23.3778275041513
20
14.8873078161133
30
0
41
1
10
23.3832359865014
20
14.8742484555407
30
0
0
SPLINE
5
83
100
AcDbEntity
8
1
62
256
6
ByLayer
370
-1
48
1
60
0
100
AcDbSpline
70
4
71
3
72
18
73
14
40
0
40
0
40
0
40
0
40
0.0250769101750505
40
0.0250769101750505
40
0.128624737623486
40
0.128624737623486
40
0.261847935796622
40
0.261847935796622
40
0.456578419523259
40
0.456578419523259
40
0.778076657921503
40
0.778076657921503
40
1
40
1
40
1
40
1
41
1
10
24.2865846407751
20
16.7963834764832
30
0
41
1
10
24.2900216136056
20
16.7929465036527
30
0
41
1
10
24.2933749040505
20
16.7894199024007
30
0
41
1
10
24.3099725644885
20
16.771064015974
30
0
41
1
10
24.3217597925394
20
16.7548591375474
30
0
41
1
10
24.3436854863383
20
16.7176566488586
30
0
41
1
10
24.3528111867752
20
16.6960478457694
30
0
41
1
10
24.3681707974783
20
16.6453620458505
30
0
41
1
10
24.3716386159683
20
16.6164269556549
30
0
41
1
10
24.3713269533291
20
16.5466017894453
30
0
41
1
10
24.3616910375559
20
16.5084266338297
30
0
41
1
10
24.3376694241372
20
16.4531168640986
30
0
41
1
10
24.3254308197368
20
16.4328092448626
30
0
41
1
10
24.3115859662074
20
16.4147684337738
30
0
0
SPLINE
5
84
100
AcDbEntity
8
1
62
256
6
ByLayer
370
-1
48
1
60
0
100
AcDbSpline
70
4
71
3
72
18
73
14
40
0
40
0
40
0
40
0
40
0.208886483239741
40
0.208886483239741
40
0.421198226784407
40
0.421198226784407
40
0.600960032344715
40
0.600960032344715
40
0.761871479604351
40
0.761871479604351
40
0.937780558809787
40
0.937780558809787
40
1
40
1
40
1
40
1
41
1
10
22.5567716287107
20
16.4457946847957
30
0
41
1
10
22.5885454763173
20
16.4460323735329
30
0
41
1
10
22.6214895805733
20
16.4511784029785
30
0
41
1
10
22.6856904791057
20
16.4724321151984
30
0
41
1
10
22.7179687554834
20
16.4892026582918
30
0
41
1
10
22.77049039477
20
16.5295658970685
30
0
41
1
10
22.7925111747707
20
16.5523248614916
30
0
41
1
10
22.8261490592522
20
16.5991347626955
30
0
41
1
10
22.83906010417
20
16.6233424505379
30
0
41
1
10
22.8587600863093
20
16.6746284711974
30
0
41
1
10
22.8651484540273
20
16.702352721416
30
0
41
1
10
22.8688245073438
20
16.7391865157386
30
0
41
1
10
22.8693347789118
20
16.7488447169235
30
0
41
1
10
22.8694064794962
20
16.7584295355812
30
0
0
SPLINE
5
85
100
AcDbEntity
8
1
62
256
6
ByLayer
370
-1
48
1
60
0
100
AcDbSpline
70
4
71
3
72
18
73
14
40
0
40
0
40
0
40
0
40
0.024911479947903
40
0.024911479947903
40
0.128474521404106
40
0.128474521404106
40
0.261645422638877
40
0.261645422638877
40
0.456262139315776
40
0.456262139315776
40
0.777536934736865
40
0.777536934736865
40
1
40
1
40
1
40
1
41
1
10
23.72622497067
20
14.7050927171386
30
0
41
1
10
23.7308891710711
20
14.7063424858694
30
0
41
1
10
23.7355260516728
20
14.7077101432721
30
0
41
1
10
23.7590535017916
20
14.7152915232867
30
0
41
1
10
23.7773708923007
20
14.723427917762
30
0
41
1
10
23.8149646067656
20
14.7446716233828
30
0
41
1
10
23.8336725408944
20
14.7588132883617
30
0
41
1
10
23.8723175877808
20
14.7950042304229
30
0
41
1
10
23.8897919760088
20
14.8183136730099
30
0
41
1
10
23.9244478984784
20
14.8789002492509
30
0
41
1
10
23.9352067349943
20
14.9167565181797
30
0
41
1
10
23.9421012845205
20
14.9767128149136
30
0
41
1
10
23.9416610570842
20
15.0004795381167
30
0
41
1
10
23.9386842749774
20
15.0230803758752
30
0
0
SPLINE
5
86
100
AcDbEntity
8
1
62
256
6
ByLayer
370
-1
48
1
60
0
100
AcDbSpline
70
4
71
3
72
18
73
14
40
0
40
0
40
0
40
0
40
0.0249114799478491
40
0.0249114799478491
40
0.128474521404087
40
0.128474521404087
40
0.261645422638861
40
0.261645422638861
40
0.45626213931573
40
0.45626213931573
40
0.777536934736774
40
0.777536934736774
40
1
40
1
40
1
40
1
41
1
10
22.1952938814306
20
16.2360238063782
30
0
41
1
10
22.1965436501614
20
16.2406880067791
30
0
41
1
10
22.197911307564
20
16.2453248873809
30
0
41
1
10
22.2054926875786
20
16.2688523374996
30
0
41
1
10
22.213629082054
20
16.2871697280088
30
0
41
1
10
22.2348727876747
20
16.3247634424737
30
0
41
1
10
22.2490144526536
20
16.3434713766025
30
0
41
1
10
22.2852053947148
20
16.3821164234889
30
0
41
1
10
22.3085148373019
20
16.3995908117169
30
0
41
1
10
22.3691014135428
20
16.4342467341865
30
0
41
1
10
22.4069576824716
20
16.4450055707024
30
0
41
1
10
22.4669139792055
20
16.4519001202285
30
0
41
1
10
22.4906807024086
20
16.4514598927923
30
0
41
1
10
22.5132815401671
20
16.4484831106855
30
0
0
SPLINE
5
87
100
AcDbEntity
8
1
62
256
6
ByLayer
370
-1
48
1
60
0
100
AcDbSpline
70
4
71
3
72
16
73
12
40
0
40
0
40
0
40
0
40
0.417734869601124
40
0.417734869601124
40
0.619387231008204
40
0.619387231008204
40
0.788342666875922
40
0.788342666875922
40
0.906053171923119
40
0.906053171923119
40
1
40
1
40
1
40
1
41
1
10
23.9049695980657
20
16.8213848019155
30
0
41
1
10
23.9386851017011
20
16.8472587056554
30
0
41
1
10
23.9806243127039
20
16.8680355456469
30
0
41
1
10
24.0560076571986
20
16.8812821011535
30
0
41
1
10
24.0831248066786
20
16.8827904265176
30
0
41
1
10
24.1365415846728
20
16.8771043880939
30
0
41
1
10
24.1627962324004
20
16.8711714821238
30
0
41
1
10
24.2079730376043
20
16.853069343085
30
0
41
1
10
24.22710688165
20
16.84309635402
30
0
41
1
10
24.2597242042709
20
16.820780810329
30
0
41
1
10
24.2738354874859
20
16.8091326297725
30
0
41
1
10
24.2865846407751
20
16.7963834764832
30
0
0
SPLINE
5
88
100
AcDbEntity
8
1
62
256
6
ByLayer
370
-1
48
1
60
0
100
AcDbSpline
70
4
71
3
72
16
73
12
40
0
40
0
40
0
40
0
40
0.418075446933699
40
0.418075446933699
40
0.619816003669558
40
0.619816003669558
40
0.788845215600229
40
0.788845215600229
40
0.906615968007859
40
0.906615968007859
40
1
40
1
40
1
40
1
41
1
10
22.8667180536065
20
16.8019196241248
30
0
41
1
10
22.8611670337277
20
16.844065033219
30
0
41
1
10
22.864145879555
20
16.890786412925
30
0
41
1
10
22.8903795719552
20
16.9627030406336
30
0
41
1
10
22.9026338740099
20
16.9869380672695
30
0
41
1
10
22.9342686562063
20
17.0303485418126
30
0
41
1
10
22.9525344591496
20
17.0501158134686
30
0
41
1
10
22.9907996946815
20
17.0801838165374
30
0
41
1
10
23.0090038933423
20
17.0917658879632
30
0
41
1
10
23.0446326392899
20
17.1088494740578
30
0
41
1
10
23.0617688894176
20
17.1152426977864
30
0
41
1
10
23.0791773579138
20
17.1199072828614
30
0
0
SPLINE
5
89
100
AcDbEntity
8
1
62
256
6
ByLayer
370
-1
48
1
60
0
100
AcDbSpline
70
4
71
3
72
16
73
12
40
0
40
0
40
0
40
0
40
0.417201362882479
40
0.417201362882479
40
0.619006372424595
40
0.619006372424595
40
0.788090355899082
40
0.788090355899082
40
0.905842791388559
40
0.905842791388559
40
1
40
1
40
1
40
1
41
1
10
23.3832359865014
20
14.8742484555407
30
0
41
1
10
23.3994767876855
20
14.8350332996202
30
0
41
1
10
23.4253633393439
20
14.796122119544
30
0
41
1
10
23.483933848354
20
14.7469653913461
30
0
41
1
10
23.5066634288524
20
14.7320799704285
30
0
41
1
10
23.5557750364951
20
14.7102583935682
30
0
41
1
10
23.5814859991583
20
14.7022517832046
30
0
41
1
10
23.6296756651324
20
14.6953163106893
30
0
41
1
10
23.6512355428056
20
14.6943766065004
30
0
41
1
10
23.6906838499428
20
14.6973809039573
30
0
41
1
10
23.708770554099
20
14.7004158203141
30
0
41
1
10
23.72622497067
20
14.7050927171386
30
0
0
SPLINE
5
8A
100
AcDbEntity
8
1
62
256
6
ByLayer
370
-1
48
1
60
0
100
AcDbSpline
70
4
71
3
72
18
73
14
40
0
40
0
40
0
40
0
40
0.208886483239611
40
0.208886483239611
40
0.421198226784307
40
0.421198226784307
40
0.600960032344615
40
0.600960032344615
40
0.76187147960426
40
0.76187147960426
40
0.937780558809761
40
0.937780558809761
40
1
40
1
40
1
40
1
41
1
10
24.2875126768188
20
16.378449125227
30
0
41
1
10
24.2718315975001
20
16.3508133216552
30
0
41
1
10
24.2598161376007
20
16.3197098757418
30
0
41
1
10
24.2461219430417
20
16.253483410557
30
0
41
1
10
24.2445065212069
20
16.2171443316768
30
0
41
1
10
24.2532012917233
20
16.1514776384179
30
0
41
1
10
24.2619007430771
20
16.1210276013146
30
0
41
1
10
24.2856203644276
20
16.0684913882221
30
0
41
1
10
24.3001293146071
20
16.0452062514127
30
0
41
1
10
24.3346943202876
20
16.0025025560962
30
0
41
1
10
24.3555100414187
20
15.9831079422545
30
0
41
1
10
24.3855710163617
20
15.9615074895354
30
0
41
1
10
24.3936801281586
20
15.9562364808022
30
0
41
1
10
24.4019449743147
20
15.9513819769457
30
0
0
SPLINE
5
8B
100
AcDbEntity
8
1
62
256
6
ByLayer
370
-1
48
1
60
0
100
AcDbSpline
70
4
71
3
72
8
73
4
40
0
40
0
40
0
40
0
40
1
40
1
40
1
40
1
41
1
10
24.3115859662074
20
16.4147684337738
30
0
41
1
10
24.3029804693694
20
16.4035548703764
30
0
41
1
10
24.2949147252632
20
16.3914942449335
30
0
41
1
10
24.2875126768188
20
16.3784491252271
30
0
0
SPLINE
5
8C
100
AcDbEntity
8
1
62
256
6
ByLayer
370
-1
48
1
60
0
100
AcDbSpline
70
4
71
3
72
8
73
4
40
0
40
0
40
0
40
0
40
1
40
1
40
1
40
1
41
1
10
23.9386842749774
20
15.0230803758752
30
0
41
1
10
23.9368384778022
20
15.0370943550633
30
0
41
1
10
23.9358836512273
20
15.0515720351355
30
0
41
1
10
23.9359958490876
20
15.0665704644188
30
0
0
SPLINE
5
8D
100
AcDbEntity
8
1
62
256
6
ByLayer
370
-1
48
1
60
0
100
AcDbSpline
70
4
71
3
72
16
73
12
40
0
40
0
40
0
40
0
40
0.418075446933754
40
0.418075446933754
40
0.619816003669598
40
0.619816003669598
40
0.788845215600272
40
0.788845215600272
40
0.906615968007899
40
0.906615968007899
40
1
40
1
40
1
40
1
41
1
10
24.2921207884168
20
15.3765168893145
30
0
41
1
10
24.3342661975109
20
15.3709658694358
30
0
41
1
10
24.380987577217
20
15.3739447152631
30
0
41
1
10
24.4529042049256
20
15.4001784076633
30
0
41
1
10
24.4771392315615
20
15.4124327097181
30
0
41
1
10
24.5205497061045
20
15.4440674919144
30
0
41
1
10
24.5403169777606
20
15.4623332948577
30
0
41
1
10
24.5703849808294
20
15.5005985303896
30
0
41
1
10
24.5819670522552
20
15.5188027290504
30
0
41
1
10
24.5990506383497
20
15.554431474998
30
0
41
1
10
24.6054438620783
20
15.5715677251257
30
0
41
1
10
24.6101084471533
20
15.5889761936218
30
0
0
SPLINE
5
8E
100
AcDbEntity
8
1
62
256
6
ByLayer
370
-1
48
1
60
0
100
AcDbSpline
70
4
71
3
72
8
73
4
40
0
40
0
40
0
40
0
40
1
40
1
40
1
40
1
41
1
10
22.5132815401671
20
16.4484831106855
30
0
41
1
10
22.5272955193552
20
16.4466373135103
30
0
41
1
10
22.5417731994274
20
16.4456824869354
30
0
41
1
10
22.5567716287107
20
16.4457946847957
30
0
0
SPLINE
5
8F
100
AcDbEntity
8
1
62
256
6
ByLayer
370
-1
48
1
60
0
100
AcDbSpline
70
4
71
3
72
8
73
4
40
0
40
0
40
0
40
0
40
1
40
1
40
1
40
1
41
1
10
24.2486306998731
20
15.3792053152043
30
0
41
1
10
24.2636291291565
20
15.3793175130646
30
0
41
1
10
24.2781068092287
20
15.3783626864897
30
0
41
1
10
24.2921207884168
20
15.3765168893145
30
0
0
SPLINE
5
90
100
AcDbEntity
8
1
62
256
6
ByLayer
370
-1
48
1
60
0
100
AcDbSpline
70
4
71
3
72
16
73
12
40
0
40
0
40
0
40
0
40
0.418046526482181
40
0.418046526482181
40
0.619795331632946
40
0.619795331632946
40
0.788831489102734
40
0.788831489102734
40
0.906604502048991
40
0.906604502048991
40
1
40
1
40
1
40
1
41
1
10
24.4409527087512
20
15.9319651777906
30
0
41
1
10
24.4802245048452
20
15.9157009193034
30
0
41
1
10
24.5191941853712
20
15.8897629341097
30
0
41
1
10
24.5683586003827
20
15.8310904561888
30
0
41
1
10
24.5832207127969
20
15.8083604270918
30
0
41
1
10
24.6049999215599
20
15.7592582148824
30
0
41
1
10
24.6129869174663
20
15.7335555334217
30
0
41
1
10
24.619895252064
20
15.6853820897901
30
0
41
1
10
24.6208240428765
20
15.6638255937308
30
0
41
1
10
24.6178051849759
20
15.6244260672503
30
0
41
1
10
24.6147735943736
20
15.6063867600728
30
0
41
1
10
24.6101084471533
20
15.5889761936219
30
0
0
SPLINE
5
91
100
AcDbEntity
8
1
62
256
6
ByLayer
370
-1
48
1
60
0
100
AcDbSpline
70
4
71
3
72
8
73
4
40
0
40
0
40
0
40
0
40
1
40
1
40
1
40
1
41
1
10
22.4938163623765
20
15.4102315662263
30
0
41
1
10
22.5024218592145
20
15.4214451296236
30
0
41
1
10
22.5104876033206
20
15.4335057550666
30
0
41
1
10
22.517889651765
20
15.446550874773
30
0
0
SPLINE
5
92
100
AcDbEntity
8
1
62
256
6
ByLayer
370
-1
48
1
60
0
100
AcDbSpline
70
4
71
3
72
8
73
4
40
0
40
0
40
0
40
0
40
1
40
1
40
1
40
1
41
1
10
23.868650289519
20
16.7973115125269
30
0
41
1
10
23.8816954092254
20
16.8047135609713
30
0
41
1
10
23.8937560346683
20
16.8127793050774
30
0
41
1
10
23.9049695980657
20
16.8213848019154
30
0
0
SPLINE
5
93
100
AcDbEntity
8
1
62
256
6
ByLayer
370
-1
48
1
60
0
100
AcDbSpline
70
4
71
3
72
18
73
14
40
0
40
0
40
0
40
0
40
0.208886483239635
40
0.208886483239635
40
0.421198226784301
40
0.421198226784301
40
0.600960032344611
40
0.600960032344611
40
0.761871479604272
40
0.761871479604272
40
0.937780558809697
40
0.937780558809697
40
1
40
1
40
1
40
1
41
1
10
22.517889651765
20
15.446550874773
30
0
41
1
10
22.5335707310838
20
15.4741866783448
30
0
41
1
10
22.5455861909832
20
15.5052901242583
30
0
41
1
10
22.5592803855422
20
15.571516589443
30
0
41
1
10
22.560895807377
20
15.6078556683232
30
0
41
1
10
22.5522010368606
20
15.6735223615821
30
0
41
1
10
22.5435015855067
20
15.7039723986855
30
0
41
1
10
22.5197819641563
20
15.756508611778
30
0
41
1
10
22.5052730139768
20
15.7797937485874
30
0
41
1
10
22.4707080082963
20
15.8224974439039
30
0
41
1
10
22.4498922871651
20
15.8418920577456
30
0
41
1
10
22.4198313122222
20
15.8634925104646
30
0
41
1
10
22.4117222004253
20
15.8687635191979
30
0
41
1
10
22.4034573542692
20
15.8736180230543
30
0
0
SPLINE
5
94
100
AcDbEntity
8
1
62
256
6
ByLayer
370
-1
48
1
60
0
100
AcDbSpline
70
4
71
3
72
8
73
4
40
0
40
0
40
0
40
0
40
1
40
1
40
1
40
1
41
1
10
22.4034573542692
20
15.8736180230544
30
0
41
1
10
22.3905244324231
20
15.8812144038933
30
0
41
1
10
22.3775089804053
20
15.8876263398593
30
0
41
1
10
22.3644496198327
20
15.8930348222094
30
0
0
SPLINE
5
95
100
AcDbEntity
8
1
62
256
6
ByLayer
370
-1
48
1
60
0
100
AcDbSpline
70
4
71
3
72
8
73
4
40
0
40
0
40
0
40
0
40
1
40
1
40
1
40
1
41
1
10
22.9004327305182
20
15.0036151980846
30
0
41
1
10
22.9116462939156
20
15.0122206949226
30
0
41
1
10
22.9237069193585
20
15.0202864390287
30
0
41
1
10
22.9367520390649
20
15.0276884874731
30
0
0
SPLINE
5
96
100
AcDbEntity
8
1
62
256
6
ByLayer
370
-1
48
1
60
0
100
AcDbSpline
70
4
71
3
72
8
73
4
40
0
40
0
40
0
40
0
40
1
40
1
40
1
40
1
41
1
10
24.4019449743147
20
15.9513819769457
30
0
41
1
10
24.4148778961608
20
15.9437855961068
30
0
41
1
10
24.4278933481786
20
15.9373736601407
30
0
41
1
10
24.4409527087512
20
15.9319651777906
30
0
0
SPLINE
5
97
100
AcDbEntity
8
1
62
256
6
ByLayer
370
-1
48
1
60
0
100
AcDbSpline
70
4
71
3
72
16
73
12
40
0
40
0
40
0
40
0
40
0.121350081786331
40
0.121350081786331
40
0.241763696829115
40
0.241763696829115
40
0.425508922315907
40
0.425508922315907
40
0.724907099405439
40
0.724907099405439
40
1
40
1
40
1
40
1
41
1
10
22.5188176878087
20
15.0286165235168
30
0
41
1
10
22.5023793081849
20
15.0450549031407
30
0
41
1
10
22.487776912533
20
15.0638318719237
30
0
41
1
10
22.4647330087004
20
15.1016456018013
30
0
41
1
10
22.4558442806914
20
15.1211889201966
30
0
41
1
10
22.4396488165122
20
15.1686519275048
30
0
41
1
10
22.4351390201935
20
15.1964845465531
30
0
41
1
10
22.4324455296936
20
15.2635233052806
30
0
41
1
10
22.4396415964539
20
15.3005152139951
30
0
41
1
10
22.4619477091426
20
15.3620506708028
30
0
41
1
10
22.4766727875781
20
15.3878922909377
30
0
41
1
10
22.4938163623765
20
15.4102315662263
30
0
0
SPLINE
5
98
100
AcDbEntity
8
1
62
256
6
ByLayer
370
-1
48
1
60
0
100
AcDbSpline
70
4
71
3
72
18
73
14
40
0
40
0
40
0
40
0
40
0.208886483239662
40
0.208886483239662
40
0.421198226784322
40
0.421198226784322
40
0.600960032344596
40
0.600960032344596
40
0.761871479604218
40
0.761871479604218
40
0.937780558809642
40
0.937780558809642
40
1
40
1
40
1
40
1
41
1
10
23.9359958490876
20
15.0665704644188
30
0
41
1
10
23.9362335378248
20
15.0983443120254
30
0
41
1
10
23.9413795672704
20
15.1312884162814
30
0
41
1
10
23.9626332794904
20
15.1954893148137
30
0
41
1
10
23.9794038225837
20
15.2277675911914
30
0
41
1
10
24.0197670613604
20
15.280289230478
30
0
41
1
10
24.0425260257835
20
15.3023100104788
30
0
41
1
10
24.0893359269874
20
15.3359478949603
30
0
41
1
10
24.1135436148298
20
15.3488589398781
30
0
41
1
10
24.1648296354893
20
15.3685589220174
30
0
41
1
10
24.1925538857079
20
15.3749472897353
30
0
41
1
10
24.2293876800305
20
15.3786233430518
30
0
41
1
10
24.2390458812154
20
15.3791336146199
30
0
41
1
10
24.2486306998732
20
15.3792053152043
30
0
0
SPLINE
5
99
100
AcDbEntity
8
1
62
256
6
ByLayer
370
-1
48
1
60
0
100
AcDbSpline
70
4
71
3
72
18
73
14
40
0
40
0
40
0
40
0
40
0.208886483239666
40
0.208886483239666
40
0.421198226784339
40
0.421198226784339
40
0.60096003234461
40
0.60096003234461
40
0.761871479604232
40
0.761871479604232
40
0.937780558809665
40
0.937780558809665
40
1
40
1
40
1
40
1
41
1
10
22.9367520390649
20
15.0276884874731
30
0
41
1
10
22.9643878426368
20
15.0433695667918
30
0
41
1
10
22.9954912885502
20
15.0553850266912
30
0
41
1
10
23.061717753735
20
15.0690792212503
30
0
41
1
10
23.0980568326151
20
15.070694643085
30
0
41
1
10
23.1637235258741
20
15.0619998725687
30
0
41
1
10
23.1941735629774
20
15.0533004212148
30
0
41
1
10
23.2467097760699
20
15.0295807998643
30
0
41
1
10
23.2699949128793
20
15.0150718496849
30
0
41
1
10
23.3126986081958
20
14.9805068440044
30
0
41
1
10
23.3320932220375
20
14.9596911228732
30
0
41
1
10
23.3536936747566
20
14.9296301479303
30
0
41
1
10
23.3589646834898
20
14.9215210361333
30
0
41
1
10
23.3638191873463
20
14.9132561899773
30
0
0
LINE
5
4C
100
AcDbEntity
8
81
62
256
6
ByLayer
370
-1
48
1
60
0
100
AcDbLine
10
27.402701
20
19.9125
30
0
11
37.402701
21
19.9125
31
0
39
0
210
0
220
0
230
1
0
LINE
5
4D
100
AcDbEntity
8
80
62
256
6
ByLayer
370
-1
48
1
60
0
100
AcDbLine
10
0
20
0
30
0
11
-5
21
0
31
0
39
0
210
0
220
0
230
1
0
LINE
5
4E
100
AcDbEntity
8
1
62
256
6
ByLayer
370
-1
48
1
60
0
100
AcDbLine
10
4.329495
20
12.4375
30
0
11
0
21
12.4375
31
0
39
0
210
0
220
0
230
1
0
LINE
5
50
100
AcDbEntity
8
1
62
256
6
ByLayer
370
-1
48
1
60
0
100
AcDbLine
10
23.403977
20
11.912496
30
0
11
23.8075
21
11.508973
31
0
39
0
210
0
220
0
230
1
0
LINE
5
51
100
AcDbEntity
8
1
62
256
6
ByLayer
370
-1
48
1
60
0
100
AcDbLine
10
23.897676
20
11.599149
30
0
11
23.8075
21
11.508973
31
0
39
0
210
0
220
0
230
1
0
LINE
5
52
100
AcDbEntity
8
1
62
256
6
ByLayer
370
-1
48
1
60
0
100
AcDbLine
10
16.430851
20
15.813282
30
0
11
18.378637
21
16.937837
31
0
39
0
210
0
220
0
230
1
0
LINE
5
53
100
AcDbEntity
8
1
62
256
6
ByLayer
370
-1
48
1
60
0
100
AcDbLine
10
24.316922
20
12.018394
30
0
11
23.897676
21
11.599149
31
0
39
0
210
0
220
0
230
1
0
LINE
5
54
100
AcDbEntity
8
1
62
256
6
ByLayer
370
-1
48
1
60
0
100
AcDbLine
10
16.430851
20
15.813282
30
0
11
22.27133
21
9.972803
31
0
39
0
210
0
220
0
230
1
0
LINE
5
55
100
AcDbEntity
8
1
62
256
6
ByLayer
370
-1
48
1
60
0
100
AcDbLine
10
0
20
-12.298527
30
0
11
0
21
12.4375
31
0
39
0
210
0
220
0
230
1
0
LINE
5
56
100
AcDbEntity
8
1
62
256
6
ByLayer
370
-1
48
1
60
0
100
AcDbLine
10
23.58038
20
11.916445
30
0
11
23.897676
21
11.599149
31
0
39
0
210
0
220
0
230
1
0
LINE
5
57
100
AcDbEntity
8
1
62
256
6
ByLayer
370
-1
48
1
60
0
100
AcDbLine
10
0
20
-12.298527
30
0
11
22.165264
21
9.866737
31
0
39
0
210
0
220
0
230
1
0
LINE
5
58
100
AcDbEntity
8
1
62
256
6
ByLayer
370
-1
48
1
60
0
100
AcDbLine
10
18.492975
20
17.00385
30
0
11
18.378637
21
16.937837
31
0
39
0
210
0
220
0
230
1
0
LINE
5
59
100
AcDbEntity
8
1
62
256
6
ByLayer
370
-1
48
1
60
0
100
AcDbLine
10
16.296365
20
15.735637
30
0
11
22.165264
21
9.866737
31
0
39
0
210
0
220
0
230
1
0
LINE
5
5A
100
AcDbEntity
8
1
62
256
6
ByLayer
370
-1
48
1
60
0
100
AcDbLine
10
16.296365
20
15.735637
30
0
11
16.430851
21
15.813282
31
0
39
0
210
0
220
0
230
1
0
LINE
5
5B
100
AcDbEntity
8
1
62
256
6
ByLayer
370
-1
48
1
60
0
100
AcDbLine
10
19.877921
20
17.803449
30
0
11
18.492975
21
17.00385
31
0
39
0
210
0
220
0
230
1
0
LINE
5
5C
100
AcDbEntity
8
1
62
256
6
ByLayer
370
-1
48
1
60
0
100
AcDbLine
10
22.27133
20
9.972803
30
0
11
23.8075
21
11.508973
31
0
39
0
210
0
220
0
230
1
0
LINE
5
5D
100
AcDbEntity
8
1
62
256
6
ByLayer
370
-1
48
1
60
0
100
AcDbLine
10
22.165264
20
9.866737
30
0
11
22.27133
21
9.972803
31
0
39
0
210
0
220
0
230
1
0
LINE
5
5E
100
AcDbEntity
8
1
62
256
6
ByLayer
370
-1
48
1
60
0
100
AcDbLine
10
18.492975
20
17.00385
30
0
11
19.406632
21
16.090192
31
0
39
0
210
0
220
0
230
1
0
LINE
5
5F
100
AcDbEntity
8
1
62
256
6
ByLayer
370
-1
48
1
60
0
100
AcDbLine
10
18.378637
20
16.937837
30
0
11
19.402685
21
15.913788
31
0
39
0
210
0
220
0
230
1
0
LINE
5
60
100
AcDbEntity
8
1
62
256
6
ByLayer
370
-1
48
1
60
0
100
AcDbLine
10
12.257923
20
13.404041
30
0
11
16.296365
21
15.735637
31
0
39
0
210
0
220
0
230
1
0
LINE
5
61
100
AcDbEntity
8
SK1
62
256
6
ByLayer
370
-1
48
1
60
0
100
AcDbLine
10
0
20
12.4375
30
0
11
-143.947299
21
12.4375
31
0
39
0
210
0
220
0
230
1
0
LINE
5
63
100
AcDbEntity
8
SK1
62
256
6
ByLayer
370
-1
48
1
60
0
100
AcDbLine
10
-143.947299
20
-12.4375
30
0
11
-0.138973
21
-12.4375
31
0
39
0
210
0
220
0
230
1
0
LINE
5
64
100
AcDbEntity
8
SK1
62
256
6
ByLayer
370
-1
48
1
60
0
100
AcDbLine
10
-0.138973
20
-12.4375
30
0
11
0
21
-12.298527
31
0
39
0
210
0
220
0
230
1
0
LINE
5
65
100
AcDbEntity
8
SK1
62
256
6
ByLayer
370
-1
48
1
60
0
100
AcDbLine
10
0
20
-12.298527
30
0
11
0
21
12.4375
31
0
39
0
210
0
220
0
230
1
0
LINE
5
66
100
AcDbEntity
8
SK1
62
256
6
ByLayer
370
-1
48
1
60
0
100
AcDbLine
10
-143.947299
20
12.4375
30
0
11
-143.947299
21
-12.4375
31
0
39
0
210
0
220
0
230
1
0
MTEXT
5
9A
100
AcDbEntity
8
SK6
62
256
6
ByLayer
370
-1
48
1
60
0
100
AcDbMText
10
-85.446359
20
-24.400493
30
0
210
0
220
0
230
1
1
\W00.757;\fsimplex.shx,bigfont.shx;SRSCR 3225P 08 
40
3.5
41
0
44
1.084337
50
0
71
7
72
5
7
DEFAULT
0
DIMENSION
5
CD
100
AcDbEntity
8
SK2
62
256
6
ByLayer
370
-3
48
1
60
0
100
AcDbDimension
2
DimnDraft3D1
10
-153.697299
20
12.4375
30
0
11
-153.697299
21
-2.628947
31
0
70
32
71
5
72
1
41
1
210
0
220
0
230
1
3
Standard
100
AcDbAlignedDimension
13
-145.947299
23
-12.4375
33
0
14
-145.947299
24
12.4375
34
0
50
90
100
AcDbRotatedDimension
1001
ACAD
1000
DSTYLE
1002
{
1070
    74
1070
     0
1070
   279
1070
     0
1070
   172
1070
     1
1070
   173
1070
     1
1070
   340
1005
9B
1070
    77
1070
     1
1070
    73
1070
     0
1070
   171
1070
     3
1070
   274
1070
     4
1070
   177
1070
     2
1070
   176
1070
     2
1070
   178
1070
     7
1070
    78
1070
     8
1070
    41
1041
3.175
1070
   147
1041
2.25
1070
    42
1041
2.0
1070
    44
1041
2.0
1070
   140
1041
4.5
1070
   343
1005
CE
1070
   344
1005
CE
1002
}
0
DIMENSION
5
E2
100
AcDbEntity
8
2
62
256
6
ByLayer
370
-3
48
1
60
0
100
AcDbDimension
2
DimnDraft3D2
10
41.652701
20
19.9125
30
0
11
41.652701
21
1.108553
31
0
70
32
71
5
72
1
41
1
210
0
220
0
230
1
3
Standard
100
AcDbAlignedDimension
13
2
23
-12.4375
33
0
14
29.402701
24
19.9125
34
0
50
90
100
AcDbRotatedDimension
1001
ACAD
1000
DSTYLE
1002
{
1070
    74
1070
     0
1070
   279
1070
     0
1070
   172
1070
     1
1070
   173
1070
     1
1070
   340
1005
9B
1070
    77
1070
     1
1070
    73
1070
     0
1070
   171
1070
     3
1070
   274
1070
     4
1070
   177
1070
     2
1070
   176
1070
     2
1070
   178
1070
     7
1070
    78
1070
     8
1070
    41
1041
3.175
1070
   147
1041
2.25
1070
    42
1041
2.0
1070
    44
1041
2.0
1070
   140
1041
4.5
1070
   343
1005
CE
1070
   344
1005
CE
1002
}
0
DIMENSION
5
F0
100
AcDbEntity
8
SK2
62
256
6
ByLayer
370
-3
48
1
60
0
100
AcDbDimension
2
DimnDraft3D3
10
-143.947299
20
39.6625
30
0
11
-61.99072
21
39.6625
31
0
70
32
71
5
72
1
41
1
210
0
220
0
230
1
3
Standard
100
AcDbAlignedDimension
13
27.402701
23
21.9125
33
0
14
-143.947299
24
14.4375
34
0
50
0
100
AcDbRotatedDimension
1001
ACAD
1000
DSTYLE
1002
{
1070
   279
1070
     0
1070
   172
1070
     1
1070
   173
1070
     1
1070
   340
1005
9B
1070
    77
1070
     1
1070
    73
1070
     0
1070
   171
1070
     3
1070
   274
1070
     4
1070
   177
1070
     2
1070
   176
1070
     2
1070
   178
1070
     7
1070
    78
1070
     8
1070
    41
1041
3.175
1070
   147
1041
2.25
1070
    42
1041
2.0
1070
    44
1041
2.0
1070
   140
1041
4.5
1070
   343
1005
CE
1070
   344
1005
CE
1002
}
0
ENDSEC
0
SECTION
2
OBJECTS
0
DICTIONARY
5
120
330
0
100
AcDbDictionary
280
0
281
1
3
ACAD_GROUP
350
121
3
ACAD_MLINESTYLE
350
122
0
DICTIONARY
5
121
330
0
100
AcDbDictionary
280
0
281
1
0
DICTIONARY
5
122
330
0
100
AcDbDictionary
280
0
281
1
3
Standard
350
18
0
MLINESTYLE
5
18
330
122
100
AcDbMlineStyle
2
Standard
70
0
3

62
256
51
90
52
90
71
2
49
-0.5
62
256
6
ByLayer
49
0.5
62
256
6
ByLayer
0
RASTERVARIABLES
5
10f
330

100
AcDbRasterVariables
90
0
70
1
71
1
72
1
0
ENDSEC
0
EOF
