0
SECTION
2
HEADER
9
$ACADVER
1
AC1015
9
$DWGCODEPAGE
3
ANSI_1252
9
$HANDSEED
5
128
9
$ANGBASE
50
0
9
$ANGDIR
70
0
9
$ATTMODE
70
1
9
$AUNITS
70
0
9
$AUPREC
70
0
9
$CECOLOR
62
256
9
$CELTSCALE
40
1
9
$CELTYPE
6
ByLayer
9
$CELWEIGHT
370
-1
9
$CLAYER
8
0
9
$CMLJUST
70
0
9
$CMLSCALE
40
1
9
$CMLSTYLE
2
Standard
9
$DIMSTYLE
2
Standard
9
$TEXTSIZE
40
0.2
9
$TEXTSTYLE
7
Standard
9
$LUNITS
70
2
9
$LUPREC
70
4
9
$EXTNAMES
290
1
9
$INSUNITS
70
4
9
$LTSCALE
40
1
9
$LWDISPLAY
290
0
9
$PDMODE
70
0
9
$PDSIZE
40
0
9
$PLINEGEN
70
0
0
ENDSEC
0
SECTION
2
CLASSES
0
CLASS
1
RASTERVARIABLES
2
AcDbRasterVariables
3
ISM
90
0
280
0
281
0
0
ENDSEC
0
SECTION
2
TABLES
0
TABLE
2
VPORT
5
11e
100
AcDbSymbolTable
0
VPORT
5
1
100
AcDbSymbolTableRecord
100
AcDbViewportTableRecord
2
*Active
70
0
10
0
20
0
11
1
21
1
12
-1
22
1
13
0
23
0
14
0.5
24
0.5
15
10
25
10
16
0
26
0
36
1
17
0
27
0
37
0
0
ENDTAB
0
TABLE
2
LTYPE
5
11f
100
AcDbSymbolTable
0
LTYPE
5
14
100
AcDbSymbolTableRecord
100
AcDbLinetypeTableRecord
70
0
2
ByBlock
3

72
65
73
0
40
0
0
LTYPE
5
15
100
AcDbSymbolTableRecord
100
AcDbLinetypeTableRecord
70
0
2
ByLayer
3

72
65
73
0
40
0
0
LTYPE
5
16
100
AcDbSymbolTableRecord
100
AcDbLinetypeTableRecord
70
0
2
CONTINUOUS
3
Solid line
72
65
73
0
40
0
0
LTYPE
5
3B
100
AcDbSymbolTableRecord
100
AcDbLinetypeTableRecord
70
0
2
DASHED
3
__ __ __ __ __ __ __ __ __
72
65
73
2
40
25.72
49
12.86
74
0
49
-12.86
74
0
0
LTYPE
5
3C
100
AcDbSymbolTableRecord
100
AcDbLinetypeTableRecord
70
0
2
HIDDEN
3
_ _ _ _ _ _ _ _ _ _ _ _ _ _ _
72
65
73
2
40
0.5
49
0.25
74
0
49
-0.25
74
0
0
LTYPE
5
3D
100
AcDbSymbolTableRecord
100
AcDbLinetypeTableRecord
70
0
2
PHANTOM
3
____ _ _ ____ _ _ _____ _ _ ____
72
65
73
6
40
50.5
49
18
74
0
49
-6.5
74
0
49
6.5
74
0
49
-6.5
74
0
49
6.5
74
0
49
-6.5
74
0
0
LTYPE
5
3E
100
AcDbSymbolTableRecord
100
AcDbLinetypeTableRecord
70
0
2
CENTER
3
____ _ ____ _ ____ _ ____
72
65
73
4
40
47.5
49
22
74
0
49
-8.5
74
0
49
8.5
74
0
49
-8.5
74
0
0
LTYPE
5
3F
100
AcDbSymbolTableRecord
100
AcDbLinetypeTableRecord
70
0
2
DOT
3
.........................
72
65
73
2
40
10
49
0
74
0
49
-10
74
0
0
LTYPE
5
40
100
AcDbSymbolTableRecord
100
AcDbLinetypeTableRecord
70
0
2
DASHDOT
3
_._._._._._._._._._._._._._._._.
72
65
73
4
40
70
49
31
74
0
49
-13
74
0
49
13
74
0
49
-13
74
0
0
ENDTAB
0
TABLE
2
LAYER
5
120
100
AcDbSymbolTable
0
LAYER
5
10
100
AcDbSymbolTableRecord
100
AcDbLayerTableRecord
2
0
70
0
62
7
6
CONTINUOUS
290
1
370
-3
390
0
0
LAYER
5
44
100
AcDbSymbolTableRecord
100
AcDbLayerTableRecord
2
2
70
0
62
7
6
CONTINUOUS
290
1
370
-3
390
0
0
LAYER
5
46
100
AcDbSymbolTableRecord
100
AcDbLayerTableRecord
2
80
70
0
62
-6
6
CONTINUOUS
290
1
370
-3
390
0
0
LAYER
5
48
100
AcDbSymbolTableRecord
100
AcDbLayerTableRecord
2
81
70
0
62
-3
6
CONTINUOUS
290
1
370
-3
390
0
0
LAYER
5
4F
100
AcDbSymbolTableRecord
100
AcDbLayerTableRecord
2
1
70
0
62
4
6
CONTINUOUS
290
1
370
-3
390
0
0
LAYER
5
10b
100
AcDbSymbolTableRecord
100
AcDbLayerTableRecord
2
SK2
70
0
62
7
6
CONTINUOUS
290
1
370
-3
390
0
0
LAYER
5
10c
100
AcDbSymbolTableRecord
100
AcDbLayerTableRecord
2
SK1
70
0
62
4
6
CONTINUOUS
290
1
370
-3
390
0
0
LAYER
5
10d
100
AcDbSymbolTableRecord
100
AcDbLayerTableRecord
2
SK6
70
0
62
5
6
CONTINUOUS
290
1
370
-3
390
0
0
ENDTAB
0
TABLE
2
STYLE
5
121
100
AcDbSymbolTable
0
STYLE
5
11
100
AcDbSymbolTableRecord
100
AcDbTextStyleTableRecord
2
Standard
3
txt
70
0
71
0
40
0
41
1
42
0
50
0
0
STYLE
5
96
100
AcDbSymbolTableRecord
100
AcDbTextStyleTableRecord
2
DEFAULT
3
simplex.shx
70
0
71
0
40
0
41
1
42
0
50
0
0
STYLE
5
B9
100
AcDbSymbolTableRecord
100
AcDbTextStyleTableRecord
2
DWGDirectTextStyle
3
SIMPLEX
70
0
71
0
40
0
41
1
42
0
50
0
0
ENDTAB
0
TABLE
2
DIMSTYLE
5
122
100
AcDbSymbolTable
100
AcDbDimStyleTable
0
DIMSTYLE
105
27
100
AcDbSymbolTableRecord
100
AcDbDimStyleTableRecord
2
Standard
70
0
3
<>
41
0.18
42
0.0625
44
0.18
140
0.18
147
0.09
73
0
74
0
77
1
271
2
275
0
278
52
280
0
340
11
0
ENDTAB
0
TABLE
2
VIEW
5
123
100
AcDbSymbolTable
0
ENDTAB
0
TABLE
2
UCS
5
124
100
AcDbSymbolTable
0
ENDTAB
0
TABLE
2
APPID
5
125
100
AcDbSymbolTable
0
APPID
5
12
100
AcDbSymbolTableRecord
100
AcDbRegAppTableRecord
2
ACAD
70
0
0
ENDTAB
0
TABLE
2
BLOCK_RECORD
5
126
100
AcDbSymbolTable
0
BLOCK_RECORD
5
1F
100
AcDbSymbolTableRecord
100
AcDbBlockTableRecord
2
*Model_Space
340
0
70
0
0
BLOCK_RECORD
5
1B
100
AcDbSymbolTableRecord
100
AcDbBlockTableRecord
2
*Paper_Space
340
0
70
0
0
BLOCK_RECORD
5
23
100
AcDbSymbolTableRecord
100
AcDbBlockTableRecord
2
*Paper_Space0
340
0
70
0
0
BLOCK_RECORD
5
BB
100
AcDbSymbolTableRecord
100
AcDbBlockTableRecord
2
DimnDraft3D1
340
0
70
0
0
BLOCK_RECORD
5
C9
100
AcDbSymbolTableRecord
100
AcDbBlockTableRecord
2
_CLOSED
340
0
70
0
0
BLOCK_RECORD
5
D0
100
AcDbSymbolTableRecord
100
AcDbBlockTableRecord
2
DimnDraft3D2
340
0
70
0
0
BLOCK_RECORD
5
DE
100
AcDbSymbolTableRecord
100
AcDbBlockTableRecord
2
DimnDraft3D3
340
0
70
0
0
ENDTAB
0
ENDSEC
0
SECTION
2
BLOCKS
0
BLOCK
5
20
100
AcDbEntity
8
0
100
AcDbBlockBegin
2
*Model_Space
70
0
10
0
20
0
30
0
3
*Model_Space
0
ENDBLK
5
21
100
AcDbEntity
8
0
100
AcDbBlockEnd
0
BLOCK
5
1C
100
AcDbEntity
8
0
100
AcDbBlockBegin
2
*Paper_Space
70
0
10
0
20
0
30
0
3
*Paper_Space
0
ENDBLK
5
1D
100
AcDbEntity
8
0
100
AcDbBlockEnd
0
BLOCK
5
24
100
AcDbEntity
8
0
100
AcDbBlockBegin
2
*Paper_Space0
70
0
10
0
20
0
30
0
3
*Paper_Space0
0
ENDBLK
5
25
100
AcDbEntity
8
0
100
AcDbBlockEnd
0
BLOCK
5
C6
100
AcDbEntity
8
0
100
AcDbBlockBegin
2
DimnDraft3D1
70
0
10
0
20
0
30
0
3
DimnDraft3D1
0
MTEXT
5
BC
100
AcDbEntity
8
SK2
62
256
6
ByLayer
370
-1
48
1
60
0
100
AcDbMText
10
-135.923235
20
-1.503947
30
0
210
0
220
0
230
1
1
\W01.000;\fsimplex.shx,bigfont.shx;25 
40
4.5
41
0
44
1.084337
50
90
71
7
72
5
7
DEFAULT
0
LINE
5
BD
100
AcDbEntity
8
SK2
62
256
6
ByLayer
370
-1
48
1
60
0
100
AcDbLine
10
-127.048235
20
-12.4375
30
0
11
-136.798235
21
-12.4375
31
0
39
0
210
0
220
0
230
1
0
LINE
5
BE
100
AcDbEntity
8
SK2
62
256
6
ByLayer
370
-1
48
1
60
0
100
AcDbLine
10
-127.048235
20
12.4375
30
0
11
-136.798235
21
12.4375
31
0
39
0
210
0
220
0
230
1
0
LINE
5
BF
100
AcDbEntity
8
SK2
62
256
6
ByLayer
370
-1
48
1
60
0
100
AcDbLine
10
-134.798235
20
-12.4375
30
0
11
-134.798235
21
12.4375
31
0
39
0
210
0
220
0
230
1
0
LINE
5
C0
100
AcDbEntity
8
SK2
62
256
6
ByLayer
370
-1
48
1
60
0
100
AcDbLine
10
-134.798235
20
-12.4375
30
0
11
-135.216232
21
-9.262502
31
0
39
0
210
0
220
0
230
1
0
LINE
5
C1
100
AcDbEntity
8
SK2
62
256
6
ByLayer
370
-1
48
1
60
0
100
AcDbLine
10
-134.798235
20
-12.4375
30
0
11
-134.380239
21
-9.262498
31
0
39
0
210
0
220
0
230
1
0
LINE
5
C2
100
AcDbEntity
8
SK2
62
256
6
ByLayer
370
-1
48
1
60
0
100
AcDbLine
10
-135.216232
20
-9.262502
30
0
11
-134.380239
21
-9.262498
31
0
39
0
210
0
220
0
230
1
0
LINE
5
C3
100
AcDbEntity
8
SK2
62
256
6
ByLayer
370
-1
48
1
60
0
100
AcDbLine
10
-134.798235
20
12.4375
30
0
11
-134.380239
21
9.262502
31
0
39
0
210
0
220
0
230
1
0
LINE
5
C4
100
AcDbEntity
8
SK2
62
256
6
ByLayer
370
-1
48
1
60
0
100
AcDbLine
10
-134.798235
20
12.4375
30
0
11
-135.216232
21
9.262498
31
0
39
0
210
0
220
0
230
1
0
LINE
5
C5
100
AcDbEntity
8
SK2
62
256
6
ByLayer
370
-1
48
1
60
0
100
AcDbLine
10
-134.380239
20
9.262502
30
0
11
-135.216232
21
9.262498
31
0
39
0
210
0
220
0
230
1
0
ENDBLK
5
C7
100
AcDbEntity
8
0
100
AcDbBlockEnd
0
BLOCK
5
CA
100
AcDbEntity
8
0
100
AcDbBlockBegin
2
_CLOSED
70
0
10
0
20
0
30
0
3
_CLOSED
0
LINE
5
CC
100
AcDbEntity
8
0
62
256
6
ByLayer
370
-2
48
1
60
0
100
AcDbLine
10
-1
20
0.166667
30
0
11
0
21
0
31
0
39
0
210
0
220
0
230
1
0
LINE
5
CD
100
AcDbEntity
8
0
62
256
6
ByLayer
370
-2
48
1
60
0
100
AcDbLine
10
0
20
0
30
0
11
-1
21
-0.166667
31
0
39
0
210
0
220
0
230
1
0
LINE
5
CE
100
AcDbEntity
8
0
62
256
6
ByLayer
370
-2
48
1
60
0
100
AcDbLine
10
-1
20
0.166667
30
0
11
-1
21
-0.166667
31
0
39
0
210
0
220
0
230
1
0
LINE
5
CF
100
AcDbEntity
8
0
62
256
6
ByLayer
370
-2
48
1
60
0
100
AcDbLine
10
0
20
0
30
0
11
-1
21
0
31
0
39
0
210
0
220
0
230
1
0
ENDBLK
5
CB
100
AcDbEntity
8
0
100
AcDbBlockEnd
0
BLOCK
5
DB
100
AcDbEntity
8
0
100
AcDbBlockBegin
2
DimnDraft3D2
70
0
10
0
20
0
30
0
3
DimnDraft3D2
0
MTEXT
5
D1
100
AcDbEntity
8
2
62
256
6
ByLayer
370
-1
48
1
60
0
100
AcDbMText
10
39.426765
20
2.233553
30
0
210
0
220
0
230
1
1
\W01.000;\fsimplex.shx,bigfont.shx;32 
40
4.5
41
0
44
1.084337
50
90
71
7
72
5
7
DEFAULT
0
LINE
5
D2
100
AcDbEntity
8
2
62
256
6
ByLayer
370
-1
48
1
60
0
100
AcDbLine
10
2
20
-12.4375
30
0
11
42.551765
21
-12.4375
31
0
39
0
210
0
220
0
230
1
0
LINE
5
D3
100
AcDbEntity
8
2
62
256
6
ByLayer
370
-1
48
1
60
0
100
AcDbLine
10
28.301765
20
19.9125
30
0
11
42.551765
21
19.9125
31
0
39
0
210
0
220
0
230
1
0
LINE
5
D4
100
AcDbEntity
8
2
62
256
6
ByLayer
370
-1
48
1
60
0
100
AcDbLine
10
40.551765
20
-12.4375
30
0
11
40.551765
21
19.9125
31
0
39
0
210
0
220
0
230
1
0
LINE
5
D5
100
AcDbEntity
8
2
62
256
6
ByLayer
370
-1
48
1
60
0
100
AcDbLine
10
40.551765
20
-12.4375
30
0
11
40.133768
21
-9.262502
31
0
39
0
210
0
220
0
230
1
0
LINE
5
D6
100
AcDbEntity
8
2
62
256
6
ByLayer
370
-1
48
1
60
0
100
AcDbLine
10
40.551765
20
-12.4375
30
0
11
40.969761
21
-9.262498
31
0
39
0
210
0
220
0
230
1
0
LINE
5
D7
100
AcDbEntity
8
2
62
256
6
ByLayer
370
-1
48
1
60
0
100
AcDbLine
10
40.133768
20
-9.262502
30
0
11
40.969761
21
-9.262498
31
0
39
0
210
0
220
0
230
1
0
LINE
5
D8
100
AcDbEntity
8
2
62
256
6
ByLayer
370
-1
48
1
60
0
100
AcDbLine
10
40.551765
20
19.9125
30
0
11
40.969761
21
16.737502
31
0
39
0
210
0
220
0
230
1
0
LINE
5
D9
100
AcDbEntity
8
2
62
256
6
ByLayer
370
-1
48
1
60
0
100
AcDbLine
10
40.551765
20
19.9125
30
0
11
40.133768
21
16.737498
31
0
39
0
210
0
220
0
230
1
0
LINE
5
DA
100
AcDbEntity
8
2
62
256
6
ByLayer
370
-1
48
1
60
0
100
AcDbLine
10
40.969761
20
16.737502
30
0
11
40.133768
21
16.737498
31
0
39
0
210
0
220
0
230
1
0
ENDBLK
5
DC
100
AcDbEntity
8
0
100
AcDbBlockEnd
0
BLOCK
5
E9
100
AcDbEntity
8
0
100
AcDbBlockBegin
2
DimnDraft3D3
70
0
10
0
20
0
30
0
3
DimnDraft3D3
0
MTEXT
5
DF
100
AcDbEntity
8
SK2
62
256
6
ByLayer
370
-1
48
1
60
0
100
AcDbMText
10
-51.966656
20
40.7875
30
0
210
0
220
0
230
1
1
\W01.000;\fsimplex.shx,bigfont.shx;150 
40
4.5
41
0
44
1.084337
50
0
71
7
72
5
7
DEFAULT
0
LINE
5
E0
100
AcDbEntity
8
SK2
62
256
6
ByLayer
370
-1
48
1
60
0
100
AcDbLine
10
26.301765
20
21.9125
30
0
11
26.301765
21
41.6625
31
0
39
0
210
0
220
0
230
1
0
LINE
5
E1
100
AcDbEntity
8
SK2
62
256
6
ByLayer
370
-1
48
1
60
0
100
AcDbLine
10
-125.048235
20
14.4375
30
0
11
-125.048235
21
41.6625
31
0
39
0
210
0
220
0
230
1
0
LINE
5
E2
100
AcDbEntity
8
SK2
62
256
6
ByLayer
370
-1
48
1
60
0
100
AcDbLine
10
26.301765
20
39.6625
30
0
11
-125.048235
21
39.6625
31
0
39
0
210
0
220
0
230
1
0
LINE
5
E3
100
AcDbEntity
8
SK2
62
256
6
ByLayer
370
-1
48
1
60
0
100
AcDbLine
10
26.301765
20
39.6625
30
0
11
23.126766
21
39.244503
31
0
39
0
210
0
220
0
230
1
0
LINE
5
E4
100
AcDbEntity
8
SK2
62
256
6
ByLayer
370
-1
48
1
60
0
100
AcDbLine
10
26.301765
20
39.6625
30
0
11
23.126763
21
40.080497
31
0
39
0
210
0
220
0
230
1
0
LINE
5
E5
100
AcDbEntity
8
SK2
62
256
6
ByLayer
370
-1
48
1
60
0
100
AcDbLine
10
23.126766
20
39.244503
30
0
11
23.126763
21
40.080497
31
0
39
0
210
0
220
0
230
1
0
LINE
5
E6
100
AcDbEntity
8
SK2
62
256
6
ByLayer
370
-1
48
1
60
0
100
AcDbLine
10
-125.048235
20
39.6625
30
0
11
-121.873237
21
40.080497
31
0
39
0
210
0
220
0
230
1
0
LINE
5
E7
100
AcDbEntity
8
SK2
62
256
6
ByLayer
370
-1
48
1
60
0
100
AcDbLine
10
-125.048235
20
39.6625
30
0
11
-121.873234
21
39.244503
31
0
39
0
210
0
220
0
230
1
0
LINE
5
E8
100
AcDbEntity
8
SK2
62
256
6
ByLayer
370
-1
48
1
60
0
100
AcDbLine
10
-121.873237
20
40.080497
30
0
11
-121.873234
21
39.244503
31
0
39
0
210
0
220
0
230
1
0
ENDBLK
5
EA
100
AcDbEntity
8
0
100
AcDbBlockEnd
0
ENDSEC
0
SECTION
2
ENTITIES
0
ARC
5
6B
100
AcDbEntity
8
1
62
256
6
ByLayer
370
-1
48
1
60
0
100
AcDbCircle
39
0
10
-5.189037
20
22.2375
30
0
40
10.2
210
0
220
0
230
-1
100
AcDbArc
50
240
51
286.098934
0
ARC
5
6C
100
AcDbEntity
8
1
62
256
6
ByLayer
370
-1
48
1
60
0
100
AcDbCircle
39
0
10
19.74613
20
13.356865
30
0
40
3
210
0
220
0
230
1
100
AcDbArc
50
192.263569
51
257.736431
0
ARC
5
70
100
AcDbEntity
8
1
62
256
6
ByLayer
370
-1
48
1
60
0
100
AcDbCircle
39
0
10
21.301765
20
14.9125
30
0
40
1.20649999999999
210
0
220
0
230
1
100
AcDbArc
50
138.955279
51
195.079943
0
ARC
5
71
100
AcDbEntity
8
1
62
256
6
ByLayer
370
-1
48
1
60
0
100
AcDbCircle
39
0
10
-21.301765
20
14.9125
30
0
40
1.67649999999998
210
0
220
0
230
-1
100
AcDbArc
50
255.159887
51
315
0
ARC
5
72
100
AcDbEntity
8
1
62
256
6
ByLayer
370
-1
48
1
60
0
100
AcDbCircle
39
0
10
21.301765
20
14.9125
30
0
40
1.20649999999999
210
0
220
0
230
1
100
AcDbArc
50
74.920057
51
131.044721
0
ARC
5
74
100
AcDbEntity
8
1
62
256
6
ByLayer
370
-1
48
1
60
0
100
AcDbCircle
39
0
10
-21.301765
20
14.9125
30
0
40
1.67649999999998
210
0
220
0
230
-1
100
AcDbArc
50
315
51
14.840113
0
ARC
5
75
100
AcDbEntity
8
1
62
256
6
ByLayer
370
-1
48
1
60
0
100
AcDbCircle
39
0
10
-21.301765
20
14.9125
30
0
40
1.20649999999999
210
0
220
0
230
-1
100
AcDbArc
50
221.044721
51
228.955279
0
ARC
5
76
100
AcDbEntity
8
1
62
256
6
ByLayer
370
-1
48
1
60
0
100
AcDbCircle
39
0
10
21.301765
20
14.9125
30
0
40
1.20649999999999
210
0
220
0
230
1
100
AcDbArc
50
15.079943
51
74.920057
0
ARC
5
77
100
AcDbEntity
8
1
62
256
6
ByLayer
370
-1
48
1
60
0
100
AcDbCircle
39
0
10
-21.301765
20
14.9125
30
0
40
1.67649999999998
210
0
220
0
230
-1
100
AcDbArc
50
194.840113
51
255.159887
0
ARC
5
78
100
AcDbEntity
8
1
62
256
6
ByLayer
370
-1
48
1
60
0
100
AcDbCircle
39
0
10
-21.301765
20
14.9125
30
0
40
1.67649999999998
210
0
220
0
230
-1
100
AcDbArc
50
14.840113
51
75.159887
0
ARC
5
79
100
AcDbEntity
8
1
62
256
6
ByLayer
370
-1
48
1
60
0
100
AcDbCircle
39
0
10
-21.301765
20
14.9125
30
0
40
1.67649999999998
210
0
220
0
230
-1
100
AcDbArc
50
75.159887
51
135
0
ARC
5
7A
100
AcDbEntity
8
1
62
256
6
ByLayer
370
-1
48
1
60
0
100
AcDbCircle
39
0
10
21.301765
20
14.9125
30
0
40
1.20649999999999
210
0
220
0
230
1
100
AcDbArc
50
254.920057
51
311.044721
0
ARC
5
7B
100
AcDbEntity
8
1
62
256
6
ByLayer
370
-1
48
1
60
0
100
AcDbCircle
39
0
10
-21.301765
20
14.9125
30
0
40
1.67649999999998
210
0
220
0
230
-1
100
AcDbArc
50
135
51
194.840113
0
ARC
5
7C
100
AcDbEntity
8
1
62
256
6
ByLayer
370
-1
48
1
60
0
100
AcDbCircle
39
0
10
21.301765
20
14.9125
30
0
40
1.20649999999999
210
0
220
0
230
1
100
AcDbArc
50
318.955279
51
15.079943
0
ARC
5
7D
100
AcDbEntity
8
1
62
256
6
ByLayer
370
-1
48
1
60
0
100
AcDbCircle
39
0
10
-21.301765
20
14.9125
30
0
40
1.20649999999999
210
0
220
0
230
-1
100
AcDbArc
50
41.044721
51
48.955279
0
ARC
5
7E
100
AcDbEntity
8
1
62
256
6
ByLayer
370
-1
48
1
60
0
100
AcDbCircle
39
0
10
21.301765
20
14.9125
30
0
40
1.20649999999999
210
0
220
0
230
1
100
AcDbArc
50
195.079943
51
254.920057
0
CIRCLE
5
6D
100
AcDbEntity
8
1
62
256
6
ByLayer
370
-1
48
1
60
0
100
AcDbCircle
10
-21.301765
20
14.9125
30
0
40
2.99999999999999
39
0
210
0
220
0
230
-1
0
CIRCLE
5
6E
100
AcDbEntity
8
1
62
256
6
ByLayer
370
-1
48
1
60
0
100
AcDbCircle
10
-21.301765
20
14.9125
30
0
40
4.99999999999999
39
0
210
0
220
0
230
-1
0
CIRCLE
5
6F
100
AcDbEntity
8
1
62
256
6
ByLayer
370
-1
48
1
60
0
100
AcDbCircle
10
-21.301765
20
14.9125
30
0
40
2.94445165909343
39
0
210
0
220
0
230
-1
0
CIRCLE
5
73
100
AcDbEntity
8
1
62
256
6
ByLayer
370
-1
48
1
60
0
100
AcDbCircle
10
-21.301765
20
14.9125
30
0
40
3.04453416176669
39
0
210
0
220
0
230
-1
0
CIRCLE
5
7F
100
AcDbEntity
8
1
62
256
6
ByLayer
370
-1
48
1
60
0
100
AcDbCircle
10
-21.301765
20
14.9125
30
0
40
2.62499999999999
39
0
210
0
220
0
230
-1
0
CIRCLE
5
80
100
AcDbEntity
8
1
62
256
6
ByLayer
370
-1
48
1
60
0
100
AcDbCircle
10
-21.301765
20
14.9125
30
0
40
1.80000000000001
39
0
210
0
220
0
230
-1
0
POINT
5
41
100
AcDbEntity
8
SK2
62
256
6
ByLayer
370
-1
48
1
60
0
100
AcDbPoint
10
26.301765
20
19.9125
30
0
39
0
210
0
220
0
230
1
50
360
0
POINT
5
43
100
AcDbEntity
8
2
62
256
6
ByLayer
370
-1
48
1
60
0
100
AcDbPoint
10
26.301765
20
19.9125
30
0
39
0
210
0
220
0
230
1
50
360
0
POINT
5
45
100
AcDbEntity
8
80
62
256
6
ByLayer
370
-1
48
1
60
0
100
AcDbPoint
10
0
20
0
30
0
39
0
210
0
220
0
230
1
50
360
0
POINT
5
47
100
AcDbEntity
8
81
62
256
6
ByLayer
370
-1
48
1
60
0
100
AcDbPoint
10
26.301765
20
19.9125
30
0
39
0
210
0
220
0
230
1
50
360
0
POINT
5
49
100
AcDbEntity
8
SK2
62
256
6
ByLayer
370
-1
48
1
60
0
100
AcDbPoint
10
26.301765
20
19.9125
30
0
39
0
210
0
220
0
230
1
50
360
0
POINT
5
4A
100
AcDbEntity
8
SK2
62
256
6
ByLayer
370
-1
48
1
60
0
100
AcDbPoint
10
26.301765
20
19.9125
30
0
39
0
210
0
220
0
230
1
50
360
0
POINT
5
4B
100
AcDbEntity
8
SK2
62
256
6
ByLayer
370
-1
48
1
60
0
100
AcDbPoint
10
26.301765
20
19.9125
30
0
39
0
210
0
220
0
230
1
50
360
0
SPLINE
5
81
100
AcDbEntity
8
1
62
256
6
ByLayer
370
-1
48
1
60
0
100
AcDbSpline
70
4
71
3
72
16
73
12
40
0
40
0
40
0
40
0
40
0.0629997311900964
40
0.0629997311900964
40
0.285872777163817
40
0.285872777163817
40
0.511544652680556
40
0.511544652680556
40
0.751675359283908
40
0.751675359283908
40
1
40
1
40
1
40
1
41
1
10
22.4872292050271
20
16.0979645186593
30
0
41
1
10
22.4812696335454
20
16.1039240901409
30
0
41
1
10
22.4750445223475
20
16.109631757336
30
0
41
1
10
22.4459403765348
20
16.1340861697915
30
0
41
1
10
22.4200772013383
20
16.1497562054189
30
0
41
1
10
22.3659450747373
20
16.1723416734177
30
0
41
1
10
22.3369701252458
20
16.1794540425737
30
0
41
1
10
22.2781330691994
20
16.1850630500955
30
0
41
1
10
22.2475992890507
20
16.1830805575903
30
0
41
1
10
22.1892565776236
20
16.1704407358252
30
0
41
1
10
22.1609132772689
20
16.1593755290971
30
0
41
1
10
22.1354633662734
20
16.1447769705245
30
0
0
SPLINE
5
82
100
AcDbEntity
8
1
62
256
6
ByLayer
370
-1
48
1
60
0
100
AcDbSpline
70
4
71
3
72
18
73
14
40
0
40
0
40
0
40
0
40
0.212474032872507
40
0.212474032872507
40
0.386603697879206
40
0.386603697879206
40
0.562415073202764
40
0.562415073202764
40
0.715377731647781
40
0.715377731647781
40
0.918235368779579
40
0.918235368779579
40
1
40
1
40
1
40
1
41
1
10
21.2000406060065
20
16.3968221457743
30
0
41
1
10
21.2355250365791
20
16.3353630472683
30
0
41
1
10
21.2818914795472
20
16.2774210711654
30
0
41
1
10
21.3837311187786
20
16.1867053397548
30
0
41
1
10
21.437307011163
20
16.1503732995991
30
0
41
1
10
21.5541341880617
20
16.0938941620424
30
0
41
1
10
21.6192878916607
20
16.0732405904605
30
0
41
1
10
21.7408706860431
20
16.0534877343604
30
0
41
1
10
21.7987687433883
20
16.0516140323832
30
0
41
1
10
21.9268411798693
20
16.0628208509639
30
0
41
1
10
21.9971032691333
20
16.0809276205483
30
0
41
1
10
22.086521802838
20
16.1186272333862
30
0
41
1
10
22.1115185162963
20
16.1310417439076
30
0
41
1
10
22.1354633662734
20
16.1447769705245
30
0
0
SPLINE
5
83
100
AcDbEntity
8
1
62
256
6
ByLayer
370
-1
48
1
60
0
100
AcDbSpline
70
4
71
3
72
16
73
12
40
0
40
0
40
0
40
0
40
0.0570946626181283
40
0.0570946626181283
40
0.280051745717057
40
0.280051745717057
40
0.505470715177324
40
0.505470715177324
40
0.745074291066683
40
0.745074291066683
40
1
40
1
40
1
40
1
41
1
10
22.922343874317
20
14.4831104966511
30
0
41
1
10
22.9243014921574
20
14.4904988345245
30
0
41
1
10
22.9259702126815
20
14.4979711654289
30
0
41
1
10
22.9326562321243
20
14.5346147520591
30
0
41
1
10
22.9334536303309
20
14.5648724392116
30
0
41
1
10
22.926236624158
20
14.6231007494453
30
0
41
1
10
22.9180561373606
20
14.6517869556288
30
0
41
1
10
22.8937847432376
20
14.705634613231
30
0
41
1
10
22.8769534751422
20
14.7311482001568
30
0
41
1
10
22.8365484147232
20
14.776159296218
30
0
41
1
10
22.8121570871482
20
14.795723825217
30
0
41
1
10
22.7860868321421
20
14.8107759196386
30
0
0
SPLINE
5
84
100
AcDbEntity
8
1
62
256
6
ByLayer
370
-1
48
1
60
0
100
AcDbSpline
70
4
71
3
72
18
73
14
40
0
40
0
40
0
40
0
40
0.212474276129477
40
0.212474276129477
40
0.386603898215966
40
0.386603898215966
40
0.562415227754658
40
0.562415227754658
40
0.715377877558426
40
0.715377877558426
40
0.918235557790063
40
0.918235557790063
40
1
40
1
40
1
40
1
41
1
10
22.5340416568924
20
15.7461986799055
30
0
41
1
10
22.4987303359573
20
15.6846398643235
30
0
41
1
10
22.4719273156821
20
15.6154392044635
30
0
41
1
10
22.444657836831
20
15.4818089169608
30
0
41
1
10
22.4401615245937
20
15.4172320239162
30
0
41
1
10
22.4500238868475
20
15.2878441994156
30
0
41
1
10
22.4649004534117
20
15.2211339268481
30
0
41
1
10
22.5089066147419
20
15.1060860957743
30
0
41
1
10
22.5363754088755
20
15.055084522914
30
0
41
1
10
22.610410631769
20
14.9499801503725
30
0
41
1
10
22.66136695974
20
14.8983267809775
30
0
41
1
10
22.738888215226
20
14.8399540203514
30
0
41
1
10
22.7621807976748
20
14.824578465412
30
0
41
1
10
22.7860868321421
20
14.8107759196386
30
0
0
SPLINE
5
85
100
AcDbEntity
8
1
62
256
6
ByLayer
370
-1
48
1
60
0
100
AcDbSpline
70
4
71
3
72
14
73
10
40
0
40
0
40
0
40
0
40
0.283482543589318
40
0.283482543589318
40
0.569866164960616
40
0.569866164960616
40
0.829080366665633
40
0.829080366665633
40
1
40
1
40
1
40
1
41
1
10
21.2000406060065
20
16.3968221457743
30
0
41
1
10
21.1833052845623
20
16.4258077530553
30
0
41
1
10
21.1609347614933
20
16.4527553830181
30
0
41
1
10
21.1072469047514
20
16.4975339992213
30
0
41
1
10
21.0749679797061
20
16.5159144716498
30
0
41
1
10
21.0086881108487
20
16.5381925926912
30
0
41
1
10
20.9741209535188
20
16.5435778478491
30
0
41
1
10
20.9172870539169
20
16.542167604469
30
0
41
1
10
20.894394232307
20
16.5389133666849
30
0
41
1
10
20.8723751830191
20
16.5330791879491
30
0
0
SPLINE
5
86
100
AcDbEntity
8
1
62
256
6
ByLayer
370
-1
48
1
60
0
100
AcDbSpline
70
4
71
3
72
16
73
12
40
0
40
0
40
0
40
0
40
0.0621039197212187
40
0.0621039197212187
40
0.282872737560553
40
0.282872737560553
40
0.506396836331492
40
0.506396836331492
40
0.74422910337017
40
0.74422910337017
40
1
40
1
40
1
40
1
41
1
10
20.8723751830191
20
16.5330791879491
30
0
41
1
10
20.8642670739453
20
16.5309308591577
30
0
41
1
10
20.8562425947521
20
16.5284297883513
30
0
41
1
10
20.8205079053158
20
16.5155798811734
30
0
41
1
10
20.7939579400438
20
16.5011009509932
30
0
41
1
10
20.7472182326709
20
16.4656622733669
30
0
41
1
10
20.7265027648849
20
16.4441916981126
30
0
41
1
10
20.6920742352667
20
16.3961532008807
30
0
41
1
10
20.6784371560624
20
16.3687640034493
30
0
41
1
10
20.6596648984674
20
16.3108512037906
30
0
41
1
10
20.65498946093
20
16.2795567524733
30
0
41
1
10
20.6551679950226
20
16.2491070127642
30
0
0
SPLINE
5
87
100
AcDbEntity
8
1
62
256
6
ByLayer
370
-1
48
1
60
0
100
AcDbSpline
70
4
71
3
72
18
73
14
40
0
40
0
40
0
40
0
40
0.212474032872476
40
0.212474032872476
40
0.386603697879183
40
0.386603697879183
40
0.562415073202728
40
0.562415073202728
40
0.715377731647757
40
0.715377731647757
40
0.918235368779571
40
0.918235368779571
40
1
40
1
40
1
40
1
41
1
10
21.4034887667294
20
13.4281778542258
30
0
41
1
10
21.3680043361568
20
13.4896369527317
30
0
41
1
10
21.3216378931887
20
13.5475789288347
30
0
41
1
10
21.2197982539573
20
13.6382946602451
30
0
41
1
10
21.1662223615729
20
13.6746267004009
30
0
41
1
10
21.0493951846742
20
13.7311058379575
30
0
41
1
10
20.9842414810751
20
13.7517594095395
30
0
41
1
10
20.8626586866928
20
13.7715122656395
30
0
41
1
10
20.8047606293476
20
13.7733859676168
30
0
41
1
10
20.6766881928666
20
13.7621791490361
30
0
41
1
10
20.6064261036026
20
13.7440723794517
30
0
41
1
10
20.5170075698979
20
13.7063727666138
30
0
41
1
10
20.4920108564396
20
13.6939582560924
30
0
41
1
10
20.4680660064625
20
13.6802230294755
30
0
0
SPLINE
5
88
100
AcDbEntity
8
1
62
256
6
ByLayer
370
-1
48
1
60
0
100
AcDbSpline
70
4
71
3
72
18
73
14
40
0
40
0
40
0
40
0
40
0.21247427612948
40
0.21247427612948
40
0.386603898215964
40
0.386603898215964
40
0.562415227754654
40
0.562415227754654
40
0.715377877558423
40
0.715377877558423
40
0.918235557790059
40
0.918235557790059
40
1
40
1
40
1
40
1
41
1
10
20.0694877158435
20
14.0788013200945
30
0
41
1
10
20.1047990367786
20
14.1403601356765
30
0
41
1
10
20.1316020570538
20
14.2095607955365
30
0
41
1
10
20.1588715359049
20
14.3431910830392
30
0
41
1
10
20.1633678481422
20
14.4077679760838
30
0
41
1
10
20.1535054858884
20
14.5371558005844
30
0
41
1
10
20.1386289193241
20
14.6038660731519
30
0
41
1
10
20.094622757994
20
14.7189139042256
30
0
41
1
10
20.0671539638604
20
14.769915477086
30
0
41
1
10
19.9931187409669
20
14.8750198496275
30
0
41
1
10
19.9421624129959
20
14.9266732190225
30
0
41
1
10
19.8646411575098
20
14.9850459796486
30
0
41
1
10
19.8413485750611
20
15.000421534588
30
0
41
1
10
19.8174425405937
20
15.0142240803614
30
0
0
SPLINE
5
89
100
AcDbEntity
8
1
62
256
6
ByLayer
370
-1
48
1
60
0
100
AcDbSpline
70
4
71
3
72
16
73
12
40
0
40
0
40
0
40
0
40
0.057094662618338
40
0.057094662618338
40
0.280051745717297
40
0.280051745717297
40
0.505470715177594
40
0.505470715177594
40
0.745074291066988
40
0.745074291066988
40
1
40
1
40
1
40
1
41
1
10
19.6811854984189
20
15.3418895033488
30
0
41
1
10
19.6792278805785
20
15.3345011654754
30
0
41
1
10
19.6775591600544
20
15.327028834571
30
0
41
1
10
19.6708731406116
20
15.2903852479408
30
0
41
1
10
19.670075742405
20
15.2601275607883
30
0
41
1
10
19.6772927485779
20
15.2018992505546
30
0
41
1
10
19.6854732353754
20
15.1732130443711
30
0
41
1
10
19.7097446294983
20
15.1193653867689
30
0
41
1
10
19.7265758975937
20
15.0938517998431
30
0
41
1
10
19.7669809580127
20
15.048840703782
30
0
41
1
10
19.7913722855877
20
15.0292761747829
30
0
41
1
10
19.8174425405937
20
15.0142240803614
30
0
0
SPLINE
5
8A
100
AcDbEntity
8
1
62
256
6
ByLayer
370
-1
48
1
60
0
100
AcDbSpline
70
4
71
3
72
12
73
8
40
0
40
0
40
0
40
0
40
0.422118813951493
40
0.422118813951493
40
0.843213978771927
40
0.843213978771927
40
1
40
1
40
1
40
1
41
1
10
20.509518985868
20
15.8224390089667
30
0
41
1
10
20.5513826962687
20
15.8759604183646
30
0
41
1
10
20.5848968272473
20
15.9357690490229
30
0
41
1
10
20.6319250499849
20
16.0564869516309
30
0
41
1
10
20.6463000716749
20
16.1190021972123
30
0
41
1
10
20.6542981515144
20
16.203330467353
30
0
41
1
10
20.6553016920803
20
16.2263044177568
30
0
41
1
10
20.6551679950226
20
16.2491070127641
30
0
0
SPLINE
5
8B
100
AcDbEntity
8
1
62
256
6
ByLayer
370
-1
48
1
60
0
100
AcDbSpline
70
4
71
3
72
14
73
10
40
0
40
0
40
0
40
0
40
0.282377988048067
40
0.282377988048067
40
0.567084253766532
40
0.567084253766532
40
0.824684854618738
40
0.824684854618738
40
1
40
1
40
1
40
1
41
1
10
19.9651576736038
20
15.5590966913453
30
0
41
1
10
19.9315415130661
20
15.5592937909191
30
0
41
1
10
19.8968380104646
20
15.5535460683122
30
0
41
1
10
19.8308971558294
20
15.529649959663
30
0
41
1
10
19.7986894934059
20
15.5109702154821
30
0
41
1
10
19.7459728353
20
15.4647861923399
30
0
41
1
10
19.7238850503464
20
15.437546504281
30
0
41
1
10
19.6961348827439
20
15.3869253591399
30
0
41
1
10
19.6872247657103
20
15.364682587033
30
0
41
1
10
19.6811854984189
20
15.3418895033488
30
0
0
SPLINE
5
8C
100
AcDbEntity
8
1
62
256
6
ByLayer
370
-1
48
1
60
0
100
AcDbSpline
70
4
71
3
72
16
73
12
40
0
40
0
40
0
40
0
40
0.0621039197209243
40
0.0621039197209243
40
0.282872737560344
40
0.282872737560344
40
0.506396836331129
40
0.506396836331129
40
0.744229103369754
40
0.744229103369754
40
1
40
1
40
1
40
1
41
1
10
21.7311541897169
20
13.2919208120509
30
0
41
1
10
21.7392622987906
20
13.2940691408423
30
0
41
1
10
21.7472867779837
20
13.2965702116487
30
0
41
1
10
21.7830214674201
20
13.3094201188266
30
0
41
1
10
21.8095714326921
20
13.3238990490067
30
0
41
1
10
21.856311140065
20
13.359337726633
30
0
41
1
10
21.877026607851
20
13.3808083018873
30
0
41
1
10
21.9114551374692
20
13.4288467991192
30
0
41
1
10
21.9250922166735
20
13.4562359965506
30
0
41
1
10
21.9438644742685
20
13.5141487962093
30
0
41
1
10
21.9485399118059
20
13.5454432475267
30
0
41
1
10
21.9483613777134
20
13.5758929872359
30
0
0
SPLINE
5
8D
100
AcDbEntity
8
1
62
256
6
ByLayer
370
-1
48
1
60
0
100
AcDbSpline
70
4
71
3
72
14
73
10
40
0
40
0
40
0
40
0
40
0.283482543589101
40
0.283482543589101
40
0.569866164960351
40
0.569866164960351
40
0.829080366665405
40
0.829080366665405
40
1
40
1
40
1
40
1
41
1
10
21.4034887667294
20
13.4281778542258
30
0
41
1
10
21.4202240881736
20
13.3991922469448
30
0
41
1
10
21.4425946112425
20
13.372244616982
30
0
41
1
10
21.4962824679845
20
13.3274660007787
30
0
41
1
10
21.5285613930298
20
13.3090855283503
30
0
41
1
10
21.5948412618871
20
13.2868074073088
30
0
41
1
10
21.629408419217
20
13.2814221521509
30
0
41
1
10
21.6862423188189
20
13.282832395531
30
0
41
1
10
21.7091351404289
20
13.2860866333151
30
0
41
1
10
21.7311541897169
20
13.2919208120509
30
0
0
SPLINE
5
8E
100
AcDbEntity
8
1
62
256
6
ByLayer
370
-1
48
1
60
0
100
AcDbSpline
70
4
71
3
72
14
73
10
40
0
40
0
40
0
40
0
40
0.283903408666424
40
0.283903408666424
40
0.570234175542271
40
0.570234175542271
40
0.829405958796911
40
0.829405958796911
40
1
40
1
40
1
40
1
41
1
10
20.0694877158434
20
14.0788013200945
30
0
41
1
10
20.0528094033664
20
14.0497257393798
30
0
41
1
10
20.0407379647677
20
14.0167892808728
30
0
41
1
10
20.0290234666706
20
13.9478167011908
30
0
41
1
10
20.029367787988
20
13.9106777704806
30
0
41
1
10
20.0434373162429
20
13.8421930403523
30
0
41
1
10
20.0561618757844
20
13.8096100308777
30
0
41
1
10
20.0859321248049
20
13.7612320528696
30
0
41
1
10
20.1002236539982
20
13.7431119950512
30
0
41
1
10
20.1163001677087
20
13.7270354813407
30
0
0
SPLINE
5
8F
100
AcDbEntity
8
1
62
256
6
ByLayer
370
-1
48
1
60
0
100
AcDbSpline
70
4
71
3
72
12
73
8
40
0
40
0
40
0
40
0
40
0.495924969245163
40
0.495924969245163
40
0.900362445266534
40
0.900362445266534
40
1
40
1
40
1
40
1
41
1
10
19.9651576736038
20
15.5590966913453
30
0
41
1
10
20.0365008905965
20
15.5586783890337
30
0
41
1
10
20.1102946938173
20
15.5695458613108
30
0
41
1
10
20.2403305609761
20
15.6119558368382
30
0
41
1
10
20.2987106940376
20
15.6399430148994
30
0
41
1
10
20.3658148643885
20
15.6851403153088
30
0
41
1
10
20.3789844855429
20
15.6947014968214
30
0
41
1
10
20.3918256774012
20
15.7047457004999
30
0
0
SPLINE
5
90
100
AcDbEntity
8
1
62
256
6
ByLayer
370
-1
48
1
60
0
100
AcDbSpline
70
4
71
3
72
12
73
8
40
0
40
0
40
0
40
0
40
0.495924969245362
40
0.495924969245362
40
0.900362445241202
40
0.900362445241202
40
1
40
1
40
1
40
1
41
1
10
22.6383716991321
20
14.2659033086547
30
0
41
1
10
22.5670284821393
20
14.2663216109663
30
0
41
1
10
22.4932346789186
20
14.2554541386892
30
0
41
1
10
22.3631988117634
20
14.213044163163
30
0
41
1
10
22.3048186787055
20
14.1850569851041
30
0
41
1
10
22.237714508354
20
14.139859684696
30
0
41
1
10
22.2245448871962
20
14.1302985031812
30
0
41
1
10
22.2117036953348
20
14.1202542995002
30
0
0
SPLINE
5
91
100
AcDbEntity
8
1
62
256
6
ByLayer
370
-1
48
1
60
0
100
AcDbSpline
70
4
71
3
72
14
73
10
40
0
40
0
40
0
40
0
40
0.283903408666399
40
0.283903408666399
40
0.570234175542254
40
0.570234175542254
40
0.829405958796925
40
0.829405958796925
40
1
40
1
40
1
40
1
41
1
10
22.5340416568924
20
15.7461986799055
30
0
41
1
10
22.5507199693694
20
15.7752742606202
30
0
41
1
10
22.5627914079681
20
15.8082107191272
30
0
41
1
10
22.5745059060652
20
15.8771832988092
30
0
41
1
10
22.5741615847478
20
15.9143222295195
30
0
41
1
10
22.5600920564929
20
15.9828069596477
30
0
41
1
10
22.5473674969514
20
16.0153899691223
30
0
41
1
10
22.5175972479309
20
16.0637679471303
30
0
41
1
10
22.5033057187376
20
16.0818880049488
30
0
41
1
10
22.4872292050271
20
16.0979645186593
30
0
0
SPLINE
5
92
100
AcDbEntity
8
1
62
256
6
ByLayer
370
-1
48
1
60
0
100
AcDbSpline
70
4
71
3
72
12
73
8
40
0
40
0
40
0
40
0
40
0.422118814264018
40
0.422118814264018
40
0.843213979141607
40
0.843213979141607
40
1
40
1
40
1
40
1
41
1
10
22.0940103868677
20
14.0025609910331
30
0
41
1
10
22.0521466764361
20
13.9490395815957
30
0
41
1
10
22.0186325454391
20
13.8892309508882
30
0
41
1
10
21.9716043227087
20
13.7685130482227
30
0
41
1
10
21.9572293010315
20
13.7059978026324
30
0
41
1
10
21.9492312212166
20
13.6216695325388
30
0
41
1
10
21.9482276806558
20
13.5986955821895
30
0
41
1
10
21.9483613777132
20
13.5758929872359
30
0
0
SPLINE
5
93
100
AcDbEntity
8
1
62
256
6
ByLayer
370
-1
48
1
60
0
100
AcDbSpline
70
4
71
3
72
16
73
12
40
0
40
0
40
0
40
0
40
0.0629997311901142
40
0.0629997311901142
40
0.285872777163713
40
0.285872777163713
40
0.511544652680483
40
0.511544652680483
40
0.751675359283708
40
0.751675359283708
40
1
40
1
40
1
40
1
41
1
10
20.1163001677087
20
13.7270354813407
30
0
41
1
10
20.1222597391904
20
13.7210759098591
30
0
41
1
10
20.1284848503883
20
13.715368242664
30
0
41
1
10
20.157588996201
20
13.6909138302085
30
0
41
1
10
20.1834521713975
20
13.6752437945811
30
0
41
1
10
20.2375842979985
20
13.6526583265823
30
0
41
1
10
20.26655924749
20
13.6455459574264
30
0
41
1
10
20.3253963035364
20
13.6399369499045
30
0
41
1
10
20.355930083685
20
13.6419194424097
30
0
41
1
10
20.4142727951122
20
13.6545592641748
30
0
41
1
10
20.442616095467
20
13.665624470903
30
0
41
1
10
20.4680660064624
20
13.6802230294755
30
0
0
SPLINE
5
94
100
AcDbEntity
8
1
62
256
6
ByLayer
370
-1
48
1
60
0
100
AcDbSpline
70
4
71
3
72
14
73
10
40
0
40
0
40
0
40
0
40
0.282377988047952
40
0.282377988047952
40
0.567084253766333
40
0.567084253766333
40
0.824684854618512
40
0.824684854618512
40
1
40
1
40
1
40
1
41
1
10
22.6383716991321
20
14.2659033086547
30
0
41
1
10
22.6719878596697
20
14.2657062090809
30
0
41
1
10
22.7066913622712
20
14.2714539316878
30
0
41
1
10
22.7726322169065
20
14.2953500403369
30
0
41
1
10
22.8048398793299
20
14.3140297845178
30
0
41
1
10
22.8575565374358
20
14.36021380766
30
0
41
1
10
22.8796443223894
20
14.3874534957189
30
0
41
1
10
22.9073944899919
20
14.43807464086
30
0
41
1
10
22.9163046070256
20
14.460317412967
30
0
41
1
10
22.922343874317
20
14.4831104966511
30
0
0
LINE
5
4C
100
AcDbEntity
8
80
62
256
6
ByLayer
370
-1
48
1
60
0
100
AcDbLine
10
0
20
0
30
0
11
-5
21
0
31
0
39
0
210
0
220
0
230
1
0
LINE
5
4D
100
AcDbEntity
8
81
62
256
6
ByLayer
370
-1
48
1
60
0
100
AcDbLine
10
26.301765
20
19.9125
30
0
11
36.301765
21
19.9125
31
0
39
0
210
0
220
0
230
1
0
LINE
5
4E
100
AcDbEntity
8
1
62
256
6
ByLayer
370
-1
48
1
60
0
100
AcDbLine
10
15.264865
20
16.276836
30
0
11
16.311842
21
15.229859
31
0
39
0
210
0
220
0
230
1
0
LINE
5
50
100
AcDbEntity
8
1
62
256
6
ByLayer
370
-1
48
1
60
0
100
AcDbLine
10
12.713212
20
14.803639
30
0
11
19.922906
21
7.593945
31
0
39
0
210
0
220
0
230
1
0
LINE
5
51
100
AcDbEntity
8
1
62
256
6
ByLayer
370
-1
48
1
60
0
100
AcDbLine
10
10.289037
20
13.404041
30
0
11
12.713212
21
14.803639
31
0
39
0
210
0
220
0
230
1
0
LINE
5
52
100
AcDbEntity
8
1
62
256
6
ByLayer
370
-1
48
1
60
0
100
AcDbLine
10
12.847698
20
14.881285
30
0
11
20.028972
21
7.700011
31
0
39
0
210
0
220
0
230
1
0
LINE
5
53
100
AcDbEntity
8
1
62
256
6
ByLayer
370
-1
48
1
60
0
100
AcDbLine
10
22.353292
20
10.02433
30
0
11
22.32707
21
9.998108
31
0
39
0
210
0
220
0
230
1
0
LINE
5
54
100
AcDbEntity
8
1
62
256
6
ByLayer
370
-1
48
1
60
0
100
AcDbLine
10
0
20
-12.328962
30
0
11
19.922906
21
7.593945
31
0
39
0
210
0
220
0
230
1
0
LINE
5
55
100
AcDbEntity
8
1
62
256
6
ByLayer
370
-1
48
1
60
0
100
AcDbLine
10
22.008865
20
9.962759
30
0
11
22.150293
21
9.821331
31
0
39
0
210
0
220
0
230
1
0
LINE
5
56
100
AcDbEntity
8
1
62
256
6
ByLayer
370
-1
48
1
60
0
100
AcDbLine
10
22.32707
20
9.998108
30
0
11
22.309968
21
10.015209
31
0
39
0
210
0
220
0
230
1
0
LINE
5
57
100
AcDbEntity
8
1
62
256
6
ByLayer
370
-1
48
1
60
0
100
AcDbLine
10
0
20
-12.328962
30
0
11
0
21
12.4375
31
0
39
0
210
0
220
0
230
1
0
LINE
5
58
100
AcDbEntity
8
1
62
256
6
ByLayer
370
-1
48
1
60
0
100
AcDbLine
10
19.922906
20
7.593945
30
0
11
20.028972
21
7.700011
31
0
39
0
210
0
220
0
230
1
0
LINE
5
59
100
AcDbEntity
8
1
62
256
6
ByLayer
370
-1
48
1
60
0
100
AcDbLine
10
16.852335
20
17.193363
30
0
11
15.761569
21
16.563609
31
0
39
0
210
0
220
0
230
1
0
LINE
5
5A
100
AcDbEntity
8
1
62
256
6
ByLayer
370
-1
48
1
60
0
100
AcDbLine
10
22.150293
20
9.821331
30
0
11
22.32707
21
9.998108
31
0
39
0
210
0
220
0
230
1
0
LINE
5
5B
100
AcDbEntity
8
1
62
256
6
ByLayer
370
-1
48
1
60
0
100
AcDbLine
10
15.537425
20
16.434199
30
0
11
16.352003
21
15.619621
31
0
39
0
210
0
220
0
230
1
0
LINE
5
5C
100
AcDbEntity
8
1
62
256
6
ByLayer
370
-1
48
1
60
0
100
AcDbLine
10
2.36061
20
12.4375
30
0
11
0
21
12.4375
31
0
39
0
210
0
220
0
230
1
0
LINE
5
5D
100
AcDbEntity
8
1
62
256
6
ByLayer
370
-1
48
1
60
0
100
AcDbLine
10
12.847698
20
14.881285
30
0
11
15.264865
21
16.276836
31
0
39
0
210
0
220
0
230
1
0
LINE
5
5E
100
AcDbEntity
8
1
62
256
6
ByLayer
370
-1
48
1
60
0
100
AcDbLine
10
15.537425
20
16.434199
30
0
11
15.761569
21
16.563609
31
0
39
0
210
0
220
0
230
1
0
LINE
5
5F
100
AcDbEntity
8
1
62
256
6
ByLayer
370
-1
48
1
60
0
100
AcDbLine
10
21.619125
20
9.922576
30
0
11
21.935331
21
9.60637
31
0
39
0
210
0
220
0
230
1
0
LINE
5
60
100
AcDbEntity
8
1
62
256
6
ByLayer
370
-1
48
1
60
0
100
AcDbLine
10
20.028972
20
7.700011
30
0
11
21.935331
21
9.60637
31
0
39
0
210
0
220
0
230
1
0
LINE
5
61
100
AcDbEntity
8
1
62
256
6
ByLayer
370
-1
48
1
60
0
100
AcDbLine
10
15.537425
20
16.434199
30
0
11
15.264865
21
16.276836
31
0
39
0
210
0
220
0
230
1
0
LINE
5
62
100
AcDbEntity
8
1
62
256
6
ByLayer
370
-1
48
1
60
0
100
AcDbLine
10
22.150293
20
9.821331
30
0
11
21.935331
21
9.60637
31
0
39
0
210
0
220
0
230
1
0
LINE
5
63
100
AcDbEntity
8
1
62
256
6
ByLayer
370
-1
48
1
60
0
100
AcDbLine
10
12.713212
20
14.803639
30
0
11
12.847698
21
14.881285
31
0
39
0
210
0
220
0
230
1
0
LINE
5
64
100
AcDbEntity
8
1
62
256
6
ByLayer
370
-1
48
1
60
0
100
AcDbLine
10
16.40445
20
15.920727
30
0
11
15.761569
21
16.563609
31
0
39
0
210
0
220
0
230
1
0
LINE
5
65
100
AcDbEntity
8
SK1
62
256
6
ByLayer
370
-1
48
1
60
0
100
AcDbLine
10
0
20
12.4375
30
0
11
-125.048235
21
12.4375
31
0
39
0
210
0
220
0
230
1
0
LINE
5
67
100
AcDbEntity
8
SK1
62
256
6
ByLayer
370
-1
48
1
60
0
100
AcDbLine
10
-125.048235
20
12.4375
30
0
11
-125.048235
21
-12.4375
31
0
39
0
210
0
220
0
230
1
0
LINE
5
68
100
AcDbEntity
8
SK1
62
256
6
ByLayer
370
-1
48
1
60
0
100
AcDbLine
10
-125.048235
20
-12.4375
30
0
11
-0.108538
21
-12.4375
31
0
39
0
210
0
220
0
230
1
0
LINE
5
69
100
AcDbEntity
8
SK1
62
256
6
ByLayer
370
-1
48
1
60
0
100
AcDbLine
10
0
20
-12.328962
30
0
11
0
21
12.4375
31
0
39
0
210
0
220
0
230
1
0
LINE
5
6A
100
AcDbEntity
8
SK1
62
256
6
ByLayer
370
-1
48
1
60
0
100
AcDbLine
10
-0.108538
20
-12.4375
30
0
11
0
21
-12.328962
31
0
39
0
210
0
220
0
230
1
0
MTEXT
5
95
100
AcDbEntity
8
SK6
62
256
6
ByLayer
370
-1
48
1
60
0
100
AcDbMText
10
-73.213963
20
-20.912993
30
0
210
0
220
0
230
1
1
\W00.740;\fsimplex.shx,bigfont.shx;SRSCR 2525M 10 
40
3.5
41
0
44
1.084337
50
0
71
7
72
5
7
DEFAULT
0
DIMENSION
5
C8
100
AcDbEntity
8
SK2
62
256
6
ByLayer
370
-3
48
1
60
0
100
AcDbDimension
2
DimnDraft3D1
10
-134.798235
20
12.4375
30
0
11
-134.798235
21
-2.628947
31
0
70
32
71
5
72
1
41
1
210
0
220
0
230
1
3
Standard
100
AcDbAlignedDimension
13
-127.048235
23
-12.4375
33
0
14
-127.048235
24
12.4375
34
0
50
90
100
AcDbRotatedDimension
1001
ACAD
1000
DSTYLE
1002
{
1070
    74
1070
     0
1070
   279
1070
     0
1070
   172
1070
     1
1070
   173
1070
     1
1070
   340
1005
96
1070
    77
1070
     1
1070
    73
1070
     0
1070
   171
1070
     3
1070
   274
1070
     4
1070
   177
1070
     2
1070
   176
1070
     2
1070
   178
1070
     7
1070
    78
1070
     8
1070
    41
1041
3.175
1070
   147
1041
2.25
1070
    42
1041
2.0
1070
    44
1041
2.0
1070
   140
1041
4.5
1070
   343
1005
C9
1070
   344
1005
C9
1002
}
0
DIMENSION
5
DD
100
AcDbEntity
8
2
62
256
6
ByLayer
370
-3
48
1
60
0
100
AcDbDimension
2
DimnDraft3D2
10
40.551765
20
19.9125
30
0
11
40.551765
21
1.108553
31
0
70
32
71
5
72
1
41
1
210
0
220
0
230
1
3
Standard
100
AcDbAlignedDimension
13
2
23
-12.4375
33
0
14
28.301765
24
19.9125
34
0
50
90
100
AcDbRotatedDimension
1001
ACAD
1000
DSTYLE
1002
{
1070
    74
1070
     0
1070
   279
1070
     0
1070
   172
1070
     1
1070
   173
1070
     1
1070
   340
1005
96
1070
    77
1070
     1
1070
    73
1070
     0
1070
   171
1070
     3
1070
   274
1070
     4
1070
   177
1070
     2
1070
   176
1070
     2
1070
   178
1070
     7
1070
    78
1070
     8
1070
    41
1041
3.175
1070
   147
1041
2.25
1070
    42
1041
2.0
1070
    44
1041
2.0
1070
   140
1041
4.5
1070
   343
1005
C9
1070
   344
1005
C9
1002
}
0
DIMENSION
5
EB
100
AcDbEntity
8
SK2
62
256
6
ByLayer
370
-3
48
1
60
0
100
AcDbDimension
2
DimnDraft3D3
10
-125.048235
20
39.6625
30
0
11
-53.091656
21
39.6625
31
0
70
32
71
5
72
1
41
1
210
0
220
0
230
1
3
Standard
100
AcDbAlignedDimension
13
26.301765
23
21.9125
33
0
14
-125.048235
24
14.4375
34
0
50
0
100
AcDbRotatedDimension
1001
ACAD
1000
DSTYLE
1002
{
1070
   279
1070
     0
1070
   172
1070
     1
1070
   173
1070
     1
1070
   340
1005
96
1070
    77
1070
     1
1070
    73
1070
     0
1070
   171
1070
     3
1070
   274
1070
     4
1070
   177
1070
     2
1070
   176
1070
     2
1070
   178
1070
     7
1070
    78
1070
     8
1070
    41
1041
3.175
1070
   147
1041
2.25
1070
    42
1041
2.0
1070
    44
1041
2.0
1070
   140
1041
4.5
1070
   343
1005
C9
1070
   344
1005
C9
1002
}
0
ENDSEC
0
SECTION
2
OBJECTS
0
DICTIONARY
5
11b
330
0
100
AcDbDictionary
280
0
281
1
3
ACAD_GROUP
350
11c
3
ACAD_MLINESTYLE
350
11d
0
DICTIONARY
5
11c
330
0
100
AcDbDictionary
280
0
281
1
0
DICTIONARY
5
11d
330
0
100
AcDbDictionary
280
0
281
1
3
Standard
350
18
0
MLINESTYLE
5
18
330
11d
100
AcDbMlineStyle
2
Standard
70
0
3

62
256
51
90
52
90
71
2
49
-0.5
62
256
6
ByLayer
49
0.5
62
256
6
ByLayer
0
RASTERVARIABLES
5
10a
330

100
AcDbRasterVariables
90
0
70
1
71
1
72
1
0
ENDSEC
0
EOF
