0
SECTION
2
HEADER
9
$ACADVER
1
AC1015
9
$DWGCODEPAGE
3
ANSI_1252
9
$HANDSEED
5
128
9
$ANGBASE
50
0
9
$ANGDIR
70
0
9
$ATTMODE
70
1
9
$AUNITS
70
0
9
$AUPREC
70
0
9
$CECOLOR
62
256
9
$CELTSCALE
40
1
9
$CELTYPE
6
ByLayer
9
$CELWEIGHT
370
-1
9
$CLAYER
8
0
9
$CMLJUST
70
0
9
$CMLSCALE
40
1
9
$CMLSTYLE
2
Standard
9
$DIMSTYLE
2
Standard
9
$TEXTSIZE
40
0.2
9
$TEXTSTYLE
7
Standard
9
$LUNITS
70
2
9
$LUPREC
70
4
9
$EXTNAMES
290
1
9
$INSUNITS
70
4
9
$LTSCALE
40
1
9
$LWDISPLAY
290
0
9
$PDMODE
70
0
9
$PDSIZE
40
0
9
$PLINEGEN
70
0
0
ENDSEC
0
SECTION
2
CLASSES
0
CLASS
1
RASTERVARIABLES
2
AcDbRasterVariables
3
ISM
90
0
280
0
281
0
0
ENDSEC
0
SECTION
2
TABLES
0
TABLE
2
VPORT
5
11e
100
AcDbSymbolTable
0
VPORT
5
1
100
AcDbSymbolTableRecord
100
AcDbViewportTableRecord
2
*Active
70
0
10
0
20
0
11
1
21
1
12
-1
22
1
13
0
23
0
14
0.5
24
0.5
15
10
25
10
16
0
26
0
36
1
17
0
27
0
37
0
0
ENDTAB
0
TABLE
2
LTYPE
5
11f
100
AcDbSymbolTable
0
LTYPE
5
14
100
AcDbSymbolTableRecord
100
AcDbLinetypeTableRecord
70
0
2
ByBlock
3

72
65
73
0
40
0
0
LTYPE
5
15
100
AcDbSymbolTableRecord
100
AcDbLinetypeTableRecord
70
0
2
ByLayer
3

72
65
73
0
40
0
0
LTYPE
5
16
100
AcDbSymbolTableRecord
100
AcDbLinetypeTableRecord
70
0
2
CONTINUOUS
3
Solid line
72
65
73
0
40
0
0
LTYPE
5
3B
100
AcDbSymbolTableRecord
100
AcDbLinetypeTableRecord
70
0
2
DASHED
3
__ __ __ __ __ __ __ __ __
72
65
73
2
40
25.72
49
12.86
74
0
49
-12.86
74
0
0
LTYPE
5
3C
100
AcDbSymbolTableRecord
100
AcDbLinetypeTableRecord
70
0
2
HIDDEN
3
_ _ _ _ _ _ _ _ _ _ _ _ _ _ _
72
65
73
2
40
0.5
49
0.25
74
0
49
-0.25
74
0
0
LTYPE
5
3D
100
AcDbSymbolTableRecord
100
AcDbLinetypeTableRecord
70
0
2
PHANTOM
3
____ _ _ ____ _ _ _____ _ _ ____
72
65
73
6
40
50.5
49
18
74
0
49
-6.5
74
0
49
6.5
74
0
49
-6.5
74
0
49
6.5
74
0
49
-6.5
74
0
0
LTYPE
5
3E
100
AcDbSymbolTableRecord
100
AcDbLinetypeTableRecord
70
0
2
CENTER
3
____ _ ____ _ ____ _ ____
72
65
73
4
40
47.5
49
22
74
0
49
-8.5
74
0
49
8.5
74
0
49
-8.5
74
0
0
LTYPE
5
3F
100
AcDbSymbolTableRecord
100
AcDbLinetypeTableRecord
70
0
2
DOT
3
.........................
72
65
73
2
40
10
49
0
74
0
49
-10
74
0
0
LTYPE
5
40
100
AcDbSymbolTableRecord
100
AcDbLinetypeTableRecord
70
0
2
DASHDOT
3
_._._._._._._._._._._._._._._._.
72
65
73
4
40
70
49
31
74
0
49
-13
74
0
49
13
74
0
49
-13
74
0
0
ENDTAB
0
TABLE
2
LAYER
5
120
100
AcDbSymbolTable
0
LAYER
5
10
100
AcDbSymbolTableRecord
100
AcDbLayerTableRecord
2
0
70
0
62
7
6
CONTINUOUS
290
1
370
-3
390
0
0
LAYER
5
42
100
AcDbSymbolTableRecord
100
AcDbLayerTableRecord
2
2
70
0
62
7
6
CONTINUOUS
290
1
370
-3
390
0
0
LAYER
5
44
100
AcDbSymbolTableRecord
100
AcDbLayerTableRecord
2
81
70
0
62
-3
6
CONTINUOUS
290
1
370
-3
390
0
0
LAYER
5
48
100
AcDbSymbolTableRecord
100
AcDbLayerTableRecord
2
80
70
0
62
-6
6
CONTINUOUS
290
1
370
-3
390
0
0
LAYER
5
4F
100
AcDbSymbolTableRecord
100
AcDbLayerTableRecord
2
1
70
0
62
4
6
CONTINUOUS
290
1
370
-3
390
0
0
LAYER
5
10b
100
AcDbSymbolTableRecord
100
AcDbLayerTableRecord
2
SK2
70
0
62
7
6
CONTINUOUS
290
1
370
-3
390
0
0
LAYER
5
10c
100
AcDbSymbolTableRecord
100
AcDbLayerTableRecord
2
SK1
70
0
62
4
6
CONTINUOUS
290
1
370
-3
390
0
0
LAYER
5
10d
100
AcDbSymbolTableRecord
100
AcDbLayerTableRecord
2
SK6
70
0
62
5
6
CONTINUOUS
290
1
370
-3
390
0
0
ENDTAB
0
TABLE
2
STYLE
5
121
100
AcDbSymbolTable
0
STYLE
5
11
100
AcDbSymbolTableRecord
100
AcDbTextStyleTableRecord
2
Standard
3
txt
70
0
71
0
40
0
41
1
42
0
50
0
0
STYLE
5
96
100
AcDbSymbolTableRecord
100
AcDbTextStyleTableRecord
2
DEFAULT
3
simplex.shx
70
0
71
0
40
0
41
1
42
0
50
0
0
STYLE
5
B9
100
AcDbSymbolTableRecord
100
AcDbTextStyleTableRecord
2
DWGDirectTextStyle
3
SIMPLEX
70
0
71
0
40
0
41
1
42
0
50
0
0
ENDTAB
0
TABLE
2
DIMSTYLE
5
122
100
AcDbSymbolTable
100
AcDbDimStyleTable
0
DIMSTYLE
105
27
100
AcDbSymbolTableRecord
100
AcDbDimStyleTableRecord
2
Standard
70
0
3
<>
41
0.18
42
0.0625
44
0.18
140
0.18
147
0.09
73
0
74
0
77
1
271
2
275
0
278
52
280
0
340
11
0
ENDTAB
0
TABLE
2
VIEW
5
123
100
AcDbSymbolTable
0
ENDTAB
0
TABLE
2
UCS
5
124
100
AcDbSymbolTable
0
ENDTAB
0
TABLE
2
APPID
5
125
100
AcDbSymbolTable
0
APPID
5
12
100
AcDbSymbolTableRecord
100
AcDbRegAppTableRecord
2
ACAD
70
0
0
ENDTAB
0
TABLE
2
BLOCK_RECORD
5
126
100
AcDbSymbolTable
0
BLOCK_RECORD
5
1F
100
AcDbSymbolTableRecord
100
AcDbBlockTableRecord
2
*Model_Space
340
0
70
0
0
BLOCK_RECORD
5
1B
100
AcDbSymbolTableRecord
100
AcDbBlockTableRecord
2
*Paper_Space
340
0
70
0
0
BLOCK_RECORD
5
23
100
AcDbSymbolTableRecord
100
AcDbBlockTableRecord
2
*Paper_Space0
340
0
70
0
0
BLOCK_RECORD
5
BB
100
AcDbSymbolTableRecord
100
AcDbBlockTableRecord
2
DimnDraft3D11
340
0
70
0
0
BLOCK_RECORD
5
C9
100
AcDbSymbolTableRecord
100
AcDbBlockTableRecord
2
DimnDraft3D2
340
0
70
0
0
BLOCK_RECORD
5
D7
100
AcDbSymbolTableRecord
100
AcDbBlockTableRecord
2
_CLOSED
340
0
70
0
0
BLOCK_RECORD
5
DE
100
AcDbSymbolTableRecord
100
AcDbBlockTableRecord
2
DimnDraft3D3
340
0
70
0
0
ENDTAB
0
ENDSEC
0
SECTION
2
BLOCKS
0
BLOCK
5
20
100
AcDbEntity
8
0
100
AcDbBlockBegin
2
*Model_Space
70
0
10
0
20
0
30
0
3
*Model_Space
0
ENDBLK
5
21
100
AcDbEntity
8
0
100
AcDbBlockEnd
0
BLOCK
5
1C
100
AcDbEntity
8
0
100
AcDbBlockBegin
2
*Paper_Space
70
0
10
0
20
0
30
0
3
*Paper_Space
0
ENDBLK
5
1D
100
AcDbEntity
8
0
100
AcDbBlockEnd
0
BLOCK
5
24
100
AcDbEntity
8
0
100
AcDbBlockBegin
2
*Paper_Space0
70
0
10
0
20
0
30
0
3
*Paper_Space0
0
ENDBLK
5
25
100
AcDbEntity
8
0
100
AcDbBlockEnd
0
BLOCK
5
BC
100
AcDbEntity
8
0
100
AcDbBlockBegin
2
DimnDraft3D11
70
0
10
0
20
0
30
0
3
DimnDraft3D11
0
LINE
5
BE
100
AcDbEntity
8
SK2
62
256
6
ByLayer
370
-1
48
1
60
0
100
AcDbLine
10
26.945003
20
-21.9125
30
0
11
26.945003
21
-46.1625
31
0
39
0
210
0
220
0
230
1
0
LINE
5
BF
100
AcDbEntity
8
SK2
62
256
6
ByLayer
370
-1
48
1
60
0
100
AcDbLine
10
-144.404997
20
-14.4375
30
0
11
-144.404997
21
-46.1625
31
0
39
0
210
0
220
0
230
1
0
LINE
5
C0
100
AcDbEntity
8
SK2
62
256
6
ByLayer
370
-1
48
1
60
0
100
AcDbLine
10
26.945003
20
-44.1625
30
0
11
-144.404997
21
-44.1625
31
0
39
0
210
0
220
0
230
1
0
LINE
5
C1
100
AcDbEntity
8
SK2
62
256
6
ByLayer
370
-1
48
1
60
0
100
AcDbLine
10
26.945003
20
-44.1625
30
0
11
23.770004
21
-44.580497
31
0
39
0
210
0
220
0
230
1
0
LINE
5
C2
100
AcDbEntity
8
SK2
62
256
6
ByLayer
370
-1
48
1
60
0
100
AcDbLine
10
26.945003
20
-44.1625
30
0
11
23.770001
21
-43.744503
31
0
39
0
210
0
220
0
230
1
0
LINE
5
C3
100
AcDbEntity
8
SK2
62
256
6
ByLayer
370
-1
48
1
60
0
100
AcDbLine
10
23.770004
20
-44.580497
30
0
11
23.770001
21
-43.744503
31
0
39
0
210
0
220
0
230
1
0
LINE
5
C4
100
AcDbEntity
8
SK2
62
256
6
ByLayer
370
-1
48
1
60
0
100
AcDbLine
10
-144.404997
20
-44.1625
30
0
11
-141.229999
21
-43.744503
31
0
39
0
210
0
220
0
230
1
0
LINE
5
C5
100
AcDbEntity
8
SK2
62
256
6
ByLayer
370
-1
48
1
60
0
100
AcDbLine
10
-144.404997
20
-44.1625
30
0
11
-141.229996
21
-44.580497
31
0
39
0
210
0
220
0
230
1
0
LINE
5
C6
100
AcDbEntity
8
SK2
62
256
6
ByLayer
370
-1
48
1
60
0
100
AcDbLine
10
-141.229999
20
-43.744503
30
0
11
-141.229996
21
-44.580497
31
0
39
0
210
0
220
0
230
1
0
MTEXT
5
C7
100
AcDbEntity
8
SK2
62
256
6
ByLayer
370
-1
48
1
60
0
100
AcDbMText
10
-61.323419
20
-43.0375
30
0
210
0
220
0
230
1
1
\W00.604;\fsimplex.shx,bigfont.shx;170 
40
4.5
41
0
44
1.084337
50
0
71
7
72
5
7
DEFAULT
0
ENDBLK
5
BD
100
AcDbEntity
8
0
100
AcDbBlockEnd
0
BLOCK
5
D4
100
AcDbEntity
8
0
100
AcDbBlockBegin
2
DimnDraft3D2
70
0
10
0
20
0
30
0
3
DimnDraft3D2
0
MTEXT
5
CA
100
AcDbEntity
8
2
62
256
6
ByLayer
370
-1
48
1
60
0
100
AcDbMText
10
40.070003
20
-5.241447
30
0
210
0
220
0
230
1
1
\W01.000;\fsimplex.shx,bigfont.shx;32 
40
4.5
41
0
44
1.084337
50
90
71
7
72
5
7
DEFAULT
0
LINE
5
CB
100
AcDbEntity
8
2
62
256
6
ByLayer
370
-1
48
1
60
0
100
AcDbLine
10
2
20
12.4375
30
0
11
43.195003
21
12.4375
31
0
39
0
210
0
220
0
230
1
0
LINE
5
CC
100
AcDbEntity
8
2
62
256
6
ByLayer
370
-1
48
1
60
0
100
AcDbLine
10
28.945003
20
-19.9125
30
0
11
43.195003
21
-19.9125
31
0
39
0
210
0
220
0
230
1
0
LINE
5
CD
100
AcDbEntity
8
2
62
256
6
ByLayer
370
-1
48
1
60
0
100
AcDbLine
10
41.195003
20
12.4375
30
0
11
41.195003
21
-19.9125
31
0
39
0
210
0
220
0
230
1
0
LINE
5
CE
100
AcDbEntity
8
2
62
256
6
ByLayer
370
-1
48
1
60
0
100
AcDbLine
10
41.195003
20
12.4375
30
0
11
41.612999
21
9.262502
31
0
39
0
210
0
220
0
230
1
0
LINE
5
CF
100
AcDbEntity
8
2
62
256
6
ByLayer
370
-1
48
1
60
0
100
AcDbLine
10
41.195003
20
12.4375
30
0
11
40.777006
21
9.262498
31
0
39
0
210
0
220
0
230
1
0
LINE
5
D0
100
AcDbEntity
8
2
62
256
6
ByLayer
370
-1
48
1
60
0
100
AcDbLine
10
41.612999
20
9.262502
30
0
11
40.777006
21
9.262498
31
0
39
0
210
0
220
0
230
1
0
LINE
5
D1
100
AcDbEntity
8
2
62
256
6
ByLayer
370
-1
48
1
60
0
100
AcDbLine
10
41.195003
20
-19.9125
30
0
11
40.777006
21
-16.737502
31
0
39
0
210
0
220
0
230
1
0
LINE
5
D2
100
AcDbEntity
8
2
62
256
6
ByLayer
370
-1
48
1
60
0
100
AcDbLine
10
41.195003
20
-19.9125
30
0
11
41.612999
21
-16.737498
31
0
39
0
210
0
220
0
230
1
0
LINE
5
D3
100
AcDbEntity
8
2
62
256
6
ByLayer
370
-1
48
1
60
0
100
AcDbLine
10
40.777006
20
-16.737502
30
0
11
41.612999
21
-16.737498
31
0
39
0
210
0
220
0
230
1
0
ENDBLK
5
D5
100
AcDbEntity
8
0
100
AcDbBlockEnd
0
BLOCK
5
D8
100
AcDbEntity
8
0
100
AcDbBlockBegin
2
_CLOSED
70
0
10
0
20
0
30
0
3
_CLOSED
0
LINE
5
DA
100
AcDbEntity
8
0
62
256
6
ByLayer
370
-2
48
1
60
0
100
AcDbLine
10
-1
20
0.166667
30
0
11
0
21
0
31
0
39
0
210
0
220
0
230
1
0
LINE
5
DB
100
AcDbEntity
8
0
62
256
6
ByLayer
370
-2
48
1
60
0
100
AcDbLine
10
0
20
0
30
0
11
-1
21
-0.166667
31
0
39
0
210
0
220
0
230
1
0
LINE
5
DC
100
AcDbEntity
8
0
62
256
6
ByLayer
370
-2
48
1
60
0
100
AcDbLine
10
-1
20
0.166667
30
0
11
-1
21
-0.166667
31
0
39
0
210
0
220
0
230
1
0
LINE
5
DD
100
AcDbEntity
8
0
62
256
6
ByLayer
370
-2
48
1
60
0
100
AcDbLine
10
0
20
0
30
0
11
-1
21
0
31
0
39
0
210
0
220
0
230
1
0
ENDBLK
5
D9
100
AcDbEntity
8
0
100
AcDbBlockEnd
0
BLOCK
5
E9
100
AcDbEntity
8
0
100
AcDbBlockBegin
2
DimnDraft3D3
70
0
10
0
20
0
30
0
3
DimnDraft3D3
0
MTEXT
5
DF
100
AcDbEntity
8
SK2
62
256
6
ByLayer
370
-1
48
1
60
0
100
AcDbMText
10
-155.279997
20
-1.503947
30
0
210
0
220
0
230
1
1
\W01.000;\fsimplex.shx,bigfont.shx;25 
40
4.5
41
0
44
1.084337
50
90
71
7
72
5
7
DEFAULT
0
LINE
5
E0
100
AcDbEntity
8
SK2
62
256
6
ByLayer
370
-1
48
1
60
0
100
AcDbLine
10
-146.404997
20
12.4375
30
0
11
-156.154997
21
12.4375
31
0
39
0
210
0
220
0
230
1
0
LINE
5
E1
100
AcDbEntity
8
SK2
62
256
6
ByLayer
370
-1
48
1
60
0
100
AcDbLine
10
-146.404997
20
-12.4375
30
0
11
-156.154997
21
-12.4375
31
0
39
0
210
0
220
0
230
1
0
LINE
5
E2
100
AcDbEntity
8
SK2
62
256
6
ByLayer
370
-1
48
1
60
0
100
AcDbLine
10
-154.154997
20
12.4375
30
0
11
-154.154997
21
-12.4375
31
0
39
0
210
0
220
0
230
1
0
LINE
5
E3
100
AcDbEntity
8
SK2
62
256
6
ByLayer
370
-1
48
1
60
0
100
AcDbLine
10
-154.154997
20
12.4375
30
0
11
-153.737001
21
9.262502
31
0
39
0
210
0
220
0
230
1
0
LINE
5
E4
100
AcDbEntity
8
SK2
62
256
6
ByLayer
370
-1
48
1
60
0
100
AcDbLine
10
-154.154997
20
12.4375
30
0
11
-154.572994
21
9.262498
31
0
39
0
210
0
220
0
230
1
0
LINE
5
E5
100
AcDbEntity
8
SK2
62
256
6
ByLayer
370
-1
48
1
60
0
100
AcDbLine
10
-153.737001
20
9.262502
30
0
11
-154.572994
21
9.262498
31
0
39
0
210
0
220
0
230
1
0
LINE
5
E6
100
AcDbEntity
8
SK2
62
256
6
ByLayer
370
-1
48
1
60
0
100
AcDbLine
10
-154.154997
20
-12.4375
30
0
11
-154.572994
21
-9.262502
31
0
39
0
210
0
220
0
230
1
0
LINE
5
E7
100
AcDbEntity
8
SK2
62
256
6
ByLayer
370
-1
48
1
60
0
100
AcDbLine
10
-154.154997
20
-12.4375
30
0
11
-153.737001
21
-9.262498
31
0
39
0
210
0
220
0
230
1
0
LINE
5
E8
100
AcDbEntity
8
SK2
62
256
6
ByLayer
370
-1
48
1
60
0
100
AcDbLine
10
-154.572994
20
-9.262502
30
0
11
-153.737001
21
-9.262498
31
0
39
0
210
0
220
0
230
1
0
ENDBLK
5
EA
100
AcDbEntity
8
0
100
AcDbBlockEnd
0
ENDSEC
0
SECTION
2
ENTITIES
0
ARC
5
66
100
AcDbEntity
8
1
62
256
6
ByLayer
370
-1
48
1
60
0
100
AcDbCircle
39
0
10
-18.793187
20
-11.760684
30
0
40
7.81988901006696
210
0
220
0
230
-1
100
AcDbArc
50
63.83428
51
78.4024
0
ARC
5
67
100
AcDbEntity
8
1
62
256
6
ByLayer
370
-1
48
1
60
0
100
AcDbCircle
39
0
10
-16.61155
20
-9.579048
30
0
40
5
210
0
220
0
230
-1
100
AcDbArc
50
14.675146
51
75.324854
0
ARC
5
68
100
AcDbEntity
8
1
62
256
6
ByLayer
370
-1
48
1
60
0
100
AcDbCircle
39
0
10
-18.793187
20
-11.760684
30
0
40
7.81988901006696
210
0
220
0
230
-1
100
AcDbArc
50
11.5976
51
26.16572
0
ARC
5
69
100
AcDbEntity
8
1
62
256
6
ByLayer
370
-1
48
1
60
0
100
AcDbCircle
39
0
10
2.828427
20
-22.2375
30
0
40
10.2
210
0
220
0
230
1
100
AcDbArc
50
74.706851
51
106.098934
0
ARC
5
6A
100
AcDbEntity
8
1
62
256
6
ByLayer
370
-1
48
1
60
0
100
AcDbCircle
39
0
10
2.828427
20
-22.2375
30
0
40
10.2
210
0
220
0
230
1
100
AcDbArc
50
60
51
73.741366
0
ARC
5
6B
100
AcDbEntity
8
1
62
256
6
ByLayer
370
-1
48
1
60
0
100
AcDbCircle
39
0
10
18.945003
20
-11.9125
30
0
40
1.9685
210
0
220
0
230
1
100
AcDbArc
50
75.381422
51
135
0
ARC
5
6C
100
AcDbEntity
8
1
62
256
6
ByLayer
370
-1
48
1
60
0
100
AcDbCircle
39
0
10
18.945003
20
-11.9125
30
0
40
1.9685
210
0
220
0
230
1
100
AcDbArc
50
315
51
14.618578
0
ARC
5
6D
100
AcDbEntity
8
1
62
256
6
ByLayer
370
-1
48
1
60
0
100
AcDbCircle
39
0
10
-18.945003
20
-11.9125
30
0
40
1.416
210
0
220
0
230
-1
100
AcDbArc
50
321.192438
51
15.190711
0
ARC
5
6F
100
AcDbEntity
8
1
62
256
6
ByLayer
370
-1
48
1
60
0
100
AcDbCircle
39
0
10
18.945003
20
-11.9125
30
0
40
1.416
210
0
220
0
230
1
100
AcDbArc
50
218.807562
51
231.192438
0
ARC
5
71
100
AcDbEntity
8
1
62
256
6
ByLayer
370
-1
48
1
60
0
100
AcDbCircle
39
0
10
-18.945003
20
-11.9125
30
0
40
1.41599999999998
210
0
220
0
230
-1
100
AcDbArc
50
254.809289
51
308.807562
0
ARC
5
72
100
AcDbEntity
8
1
62
256
6
ByLayer
370
-1
48
1
60
0
100
AcDbCircle
39
0
10
18.945003
20
-11.9125
30
0
40
1.9685
210
0
220
0
230
1
100
AcDbArc
50
194.618578
51
255.381422
0
ARC
5
74
100
AcDbEntity
8
1
62
256
6
ByLayer
370
-1
48
1
60
0
100
AcDbCircle
39
0
10
-18.945003
20
-11.9125
30
0
40
1.416
210
0
220
0
230
-1
100
AcDbArc
50
15.190711
51
74.809289
0
ARC
5
76
100
AcDbEntity
8
1
62
256
6
ByLayer
370
-1
48
1
60
0
100
AcDbCircle
39
0
10
18.945003
20
-11.9125
30
0
40
1.416
210
0
220
0
230
1
100
AcDbArc
50
38.807562
51
51.192438
0
ARC
5
77
100
AcDbEntity
8
1
62
256
6
ByLayer
370
-1
48
1
60
0
100
AcDbCircle
39
0
10
18.945003
20
-11.9125
30
0
40
1.9685
210
0
220
0
230
1
100
AcDbArc
50
14.618578
51
75.381422
0
ARC
5
78
100
AcDbEntity
8
1
62
256
6
ByLayer
370
-1
48
1
60
0
100
AcDbCircle
39
0
10
-18.945003
20
-11.9125
30
0
40
1.416
210
0
220
0
230
-1
100
AcDbArc
50
195.190711
51
254.809289
0
ARC
5
79
100
AcDbEntity
8
1
62
256
6
ByLayer
370
-1
48
1
60
0
100
AcDbCircle
39
0
10
-18.945003
20
-11.9125
30
0
40
1.416
210
0
220
0
230
-1
100
AcDbArc
50
74.809289
51
128.807562
0
ARC
5
7A
100
AcDbEntity
8
1
62
256
6
ByLayer
370
-1
48
1
60
0
100
AcDbCircle
39
0
10
18.945003
20
-11.9125
30
0
40
1.9685
210
0
220
0
230
1
100
AcDbArc
50
135
51
194.618578
0
ARC
5
7C
100
AcDbEntity
8
1
62
256
6
ByLayer
370
-1
48
1
60
0
100
AcDbCircle
39
0
10
-18.945003
20
-11.9125
30
0
40
1.416
210
0
220
0
230
-1
100
AcDbArc
50
141.192438
51
195.190711
0
ARC
5
7D
100
AcDbEntity
8
1
62
256
6
ByLayer
370
-1
48
1
60
0
100
AcDbCircle
39
0
10
18.945003
20
-11.9125
30
0
40
1.9685
210
0
220
0
230
1
100
AcDbArc
50
255.381422
51
315
0
CIRCLE
5
6E
100
AcDbEntity
8
1
62
256
6
ByLayer
370
-1
48
1
60
0
100
AcDbCircle
10
18.945003
20
-11.9125
30
0
40
3.78929484861767
39
0
210
0
220
0
230
1
0
CIRCLE
5
70
100
AcDbEntity
8
1
62
256
6
ByLayer
370
-1
48
1
60
0
100
AcDbCircle
10
18.945003
20
-11.9125
30
0
40
3.6936655976655
39
0
210
0
220
0
230
1
0
CIRCLE
5
73
100
AcDbEntity
8
1
62
256
6
ByLayer
370
-1
48
1
60
0
100
AcDbCircle
10
18.945003
20
-11.9125
30
0
40
2.40000000000004
39
0
210
0
220
0
230
1
0
CIRCLE
5
75
100
AcDbEntity
8
1
62
256
6
ByLayer
370
-1
48
1
60
0
100
AcDbCircle
10
18.945003
20
-11.9125
30
0
40
3.75000000000002
39
0
210
0
220
0
230
1
0
CIRCLE
5
7B
100
AcDbEntity
8
1
62
256
6
ByLayer
370
-1
48
1
60
0
100
AcDbCircle
10
18.945003
20
-11.9125
30
0
40
3.57500000000001
39
0
210
0
220
0
230
1
0
CIRCLE
5
7E
100
AcDbEntity
8
1
62
256
6
ByLayer
370
-1
48
1
60
0
100
AcDbCircle
10
18.945003
20
-11.9125
30
0
40
8
39
0
210
0
220
0
230
1
0
ELLIPSE
5
7F
100
AcDbEntity
8
1
62
256
6
ByLayer
370
-1
48
1
60
0
100
AcDbEllipse
10
2.828441
20
-22.237451
30
0
11
-9.81530232714672
21
2.77476465127469
31
0
210
0
220
0
230
1
40
0.999997
41
-1.57905440698734
42
-1.56220347154095
0
POINT
5
41
100
AcDbEntity
8
2
62
256
6
ByLayer
370
-1
48
1
60
0
100
AcDbPoint
10
26.945003
20
44.7875
30
0
39
0
210
0
220
0
230
1
50
360
0
POINT
5
43
100
AcDbEntity
8
81
62
256
6
ByLayer
370
-1
48
1
60
0
100
AcDbPoint
10
26.945003
20
-19.9125
30
0
39
0
210
0
220
0
230
1
50
360
0
POINT
5
45
100
AcDbEntity
8
SK2
62
256
6
ByLayer
370
-1
48
1
60
0
100
AcDbPoint
10
26.945003
20
44.7875
30
0
39
0
210
0
220
0
230
1
50
360
0
POINT
5
47
100
AcDbEntity
8
80
62
256
6
ByLayer
370
-1
48
1
60
0
100
AcDbPoint
10
0
20
0
30
0
39
0
210
0
220
0
230
1
50
360
0
POINT
5
49
100
AcDbEntity
8
SK2
62
256
6
ByLayer
370
-1
48
1
60
0
100
AcDbPoint
10
26.945003
20
44.7875
30
0
39
0
210
0
220
0
230
1
50
360
0
POINT
5
4A
100
AcDbEntity
8
SK2
62
256
6
ByLayer
370
-1
48
1
60
0
100
AcDbPoint
10
26.945003
20
44.7875
30
0
39
0
210
0
220
0
230
1
50
360
0
POINT
5
4B
100
AcDbEntity
8
SK2
62
256
6
ByLayer
370
-1
48
1
60
0
100
AcDbPoint
10
26.945003
20
44.7875
30
0
39
0
210
0
220
0
230
1
50
360
0
SPLINE
5
80
100
AcDbEntity
8
1
62
256
6
ByLayer
370
-1
48
1
60
0
100
AcDbSpline
70
4
71
3
72
8
73
4
40
0
40
0
40
0
40
0
40
1
40
1
40
1
40
1
41
1
10
11.7746614681421
20
-8.31235594874434
30
0
41
1
10
11.751111819152
20
-8.402280776754
30
0
41
1
10
11.7303099911782
20
-8.48976214604394
30
0
41
1
10
11.7120469824819
20
-8.57495547665826
30
0
0
SPLINE
5
81
100
AcDbEntity
8
1
62
256
6
ByLayer
370
-1
48
1
60
0
100
AcDbSpline
70
4
71
3
72
16
73
12
40
0
40
0
40
0
40
0
40
0.0660419835659605
40
0.0660419835659605
40
0.289197337625552
40
0.289197337625552
40
0.515371789747705
40
0.515371789747705
40
0.756398282445793
40
0.756398282445793
40
1
40
1
40
1
40
1
41
1
10
20.3369422353653
20
-13.3044396987657
30
0
41
1
10
20.3299042142693
20
-13.3114777198617
30
0
41
1
10
20.3225380153467
20
-13.3182051882033
30
0
41
1
10
20.2892542460402
20
-13.3459510353267
30
0
41
1
10
20.2600175794044
20
-13.3635188447117
30
0
41
1
10
20.1988564872115
20
-13.3887990498972
30
0
41
1
10
20.1661340950864
20
-13.3967215158582
30
0
41
1
10
20.0996774177715
20
-13.4028626367244
30
0
41
1
10
20.0651896518224
20
-13.4005232243522
30
0
41
1
10
20.0000634849977
20
-13.386222093018
30
0
41
1
10
19.9687618557057
20
-13.3740325794277
30
0
41
1
10
19.9405618411186
20
-13.3580082768835
30
0
0
SPLINE
5
82
100
AcDbEntity
8
1
62
256
6
ByLayer
370
-1
48
1
60
0
100
AcDbSpline
70
4
71
3
72
14
73
10
40
0
40
0
40
0
40
0
40
0.28496419683264
40
0.28496419683264
40
0.57230642523765
40
0.57230642523765
40
0.83212773806887
40
0.83212773806887
40
1
40
1
40
1
40
1
41
1
10
20.3905108134831
20
-12.908059304519
30
0
41
1
10
20.4092350403104
20
-12.9410107211692
30
0
41
1
10
20.4227300103384
20
-12.9783067532206
30
0
41
1
10
20.435644685269
20
-13.0563473117925
30
0
41
1
10
20.4350759292524
20
-13.0983406135394
30
0
41
1
10
20.418829169822
20
-13.1756823089059
30
0
41
1
10
20.404289961449
20
-13.2124367215684
30
0
41
1
10
20.3706604178294
20
-13.2665566305421
30
0
41
1
10
20.3547732272706
20
-13.2866087068604
30
0
41
1
10
20.3369422353653
20
-13.3044396987657
30
0
0
SPLINE
5
83
100
AcDbEntity
8
1
62
256
6
ByLayer
370
-1
48
1
60
0
100
AcDbSpline
70
4
71
3
72
14
73
10
40
0
40
0
40
0
40
0
40
0.284590154786911
40
0.284590154786911
40
0.571979731772818
40
0.571979731772818
40
0.831839106767992
40
0.831839106767992
40
1
40
1
40
1
40
1
41
1
10
18.8172274188935
20
-13.6630159315608
30
0
41
1
10
18.7982956289498
20
-13.6957912683377
30
0
41
1
10
18.7729887202428
20
-13.726258248659
30
0
41
1
10
18.712258729552
20
-13.7768659434971
30
0
41
1
10
18.6757497362477
20
-13.797632658509
30
0
41
1
10
18.6008143987754
20
-13.8227681432394
30
0
41
1
10
18.5617518395569
20
-13.8288312549547
30
0
41
1
10
18.4980074761633
20
-13.8272150195944
30
0
41
1
10
18.4726286502458
20
-13.8236497141861
30
0
41
1
10
18.4481863643903
20
-13.8172745118599
30
0
0
SPLINE
5
84
100
AcDbEntity
8
1
62
256
6
ByLayer
370
-1
48
1
60
0
100
AcDbSpline
70
4
71
3
72
18
73
14
40
0
40
0
40
0
40
0
40
0.213066582896557
40
0.213066582896557
40
0.387148856106951
40
0.387148856106951
40
0.562939679009034
40
0.562939679009034
40
0.715629616728321
40
0.715629616728321
40
0.919159491961047
40
0.919159491961047
40
1
40
1
40
1
40
1
41
1
10
18.8172274188935
20
-13.6630159315608
30
0
41
1
10
18.8599681563008
20
-13.5890217626636
30
0
41
1
10
18.9158020871754
20
-13.5192740891592
30
0
41
1
10
19.0382878415918
20
-13.4102085246178
30
0
41
1
10
19.10260004996
20
-13.3665744216493
30
0
41
1
10
19.2428648182073
20
-13.2986619065035
30
0
41
1
10
19.3211065312496
20
-13.2737785707233
30
0
41
1
10
19.4669803499924
20
-13.2498825928062
30
0
41
1
10
19.5363739729208
20
-13.2475095460317
30
0
41
1
10
19.6903512379798
20
-13.2606096055443
30
0
41
1
10
19.7750114353549
20
-13.2822168159586
30
0
41
1
10
19.8823521894485
20
-13.3271782562717
30
0
41
1
10
19.9120684397121
20
-13.3418172609802
30
0
41
1
10
19.9405618411186
20
-13.3580082768835
30
0
0
SPLINE
5
85
100
AcDbEntity
8
1
62
256
6
ByLayer
370
-1
48
1
60
0
100
AcDbSpline
70
4
71
3
72
16
73
12
40
0
40
0
40
0
40
0
40
0.0660419835659127
40
0.0660419835659127
40
0.289197337625474
40
0.289197337625474
40
0.51537178974752
40
0.51537178974752
40
0.756398282445623
40
0.756398282445623
40
1
40
1
40
1
40
1
41
1
10
17.5530628378337
20
-10.5205603012343
30
0
41
1
10
17.5601008589297
20
-10.5135222801383
30
0
41
1
10
17.5674670578523
20
-10.5067948117967
30
0
41
1
10
17.6007508271587
20
-10.4790489646733
30
0
41
1
10
17.6299874937946
20
-10.4614811552883
30
0
41
1
10
17.6911485859875
20
-10.4362009501029
30
0
41
1
10
17.7238709781125
20
-10.4282784841418
30
0
41
1
10
17.7903276554275
20
-10.4221373632756
30
0
41
1
10
17.8248154213766
20
-10.4244767756478
30
0
41
1
10
17.8899415882014
20
-10.438777906982
30
0
41
1
10
17.9212432174933
20
-10.4509674205723
30
0
41
1
10
17.9494432320805
20
-10.4669917231166
30
0
0
SPLINE
5
86
100
AcDbEntity
8
1
62
256
6
ByLayer
370
-1
48
1
60
0
100
AcDbSpline
70
4
71
3
72
14
73
10
40
0
40
0
40
0
40
0
40
0.284590154787218
40
0.284590154787218
40
0.571979731773128
40
0.571979731773128
40
0.831839106768294
40
0.831839106768294
40
1
40
1
40
1
40
1
41
1
10
19.0727776543056
20
-10.1619840684392
30
0
41
1
10
19.0917094442493
20
-10.1292087316623
30
0
41
1
10
19.1170163529563
20
-10.098741751341
30
0
41
1
10
19.1777463436471
20
-10.0481340565028
30
0
41
1
10
19.2142553369515
20
-10.027367341491
30
0
41
1
10
19.2891906744238
20
-10.0022318567606
30
0
41
1
10
19.3282532336423
20
-9.99616874504534
30
0
41
1
10
19.3919975970358
20
-9.99778498040561
30
0
41
1
10
19.4173764229533
20
-10.0013502858139
30
0
41
1
10
19.4418187088088
20
-10.0077254881401
30
0
0
SPLINE
5
87
100
AcDbEntity
8
1
62
256
6
ByLayer
370
-1
48
1
60
0
100
AcDbSpline
70
4
71
3
72
12
73
8
40
0
40
0
40
0
40
0
40
0.137204687534202
40
0.137204687534202
40
0.554727373247842
40
0.554727373247842
40
1
40
1
40
1
40
1
41
1
10
18.057585900022
20
-13.0159254452048
30
0
41
1
10
18.0714486132934
20
-13.0362141520396
30
0
41
1
10
18.0843357523632
20
-13.0570259156133
30
0
41
1
10
18.132080431244
20
-13.1422353106107
30
0
41
1
10
18.1586977415338
20
-13.2101263101414
30
0
41
1
10
18.1942531073103
20
-13.3494643856016
30
0
41
1
10
18.2024902699244
20
-13.4223412579937
30
0
41
1
10
18.2015045587148
20
-13.4933788656401
30
0
0
SPLINE
5
88
100
AcDbEntity
8
1
62
256
6
ByLayer
370
-1
48
1
60
0
100
AcDbSpline
70
4
71
3
72
16
73
12
40
0
40
0
40
0
40
0
40
0.0642991671442722
40
0.0642991671442722
40
0.282454928837682
40
0.282454928837682
40
0.503546945938515
40
0.503546945938515
40
0.739145751039909
40
0.739145751039909
40
1
40
1
40
1
40
1
41
1
10
18.4481863643903
20
-13.8172745118599
30
0
41
1
10
18.4385941429096
20
-13.8147726037709
30
0
41
1
10
18.4291030757808
20
-13.8118340856669
30
0
41
1
10
18.3883654325213
20
-13.7971816233023
30
0
41
1
10
18.3584163474923
20
-13.7808549603721
30
0
41
1
10
18.3056603689497
20
-13.7408963146955
30
0
41
1
10
18.2822679254657
20
-13.7166828424014
30
0
41
1
10
18.243341255721
20
-13.6624736500716
30
0
41
1
10
18.2279065533853
20
-13.6315458666776
30
0
41
1
10
18.2063148882328
20
-13.5651634158833
30
0
41
1
10
18.2010138120192
20
-13.5287456859449
30
0
41
1
10
18.2015045587148
20
-13.4933788656401
30
0
0
SPLINE
5
89
100
AcDbEntity
8
1
62
256
6
ByLayer
370
-1
48
1
60
0
100
AcDbSpline
70
4
71
3
72
16
73
12
40
0
40
0
40
0
40
0
40
0.0518597302178467
40
0.0518597302178467
40
0.275230155769316
40
0.275230155769316
40
0.500795347243964
40
0.500795347243964
40
0.740544239763399
40
0.740544239763399
40
1
40
1
40
1
40
1
41
1
10
20.8497770484595
20
-11.4156838277908
30
0
41
1
10
20.8517528261783
20
-11.4232588852271
30
0
41
1
10
20.853460088664
20
-11.430910259968
30
0
41
1
10
20.8610080173517
20
-11.4714744691279
30
0
41
1
10
20.8620327802077
20
-11.5056461664134
30
0
41
1
10
20.8541288411342
20
-11.5714054689624
30
0
41
1
10
20.8450279780332
20
-11.6038048126225
30
0
41
1
10
20.8179029422763
20
-11.6646666800235
30
0
41
1
10
20.7990472058985
20
-11.6935300798966
30
0
41
1
10
20.753324061899
20
-11.7449589510893
30
0
41
1
10
20.7253958943193
20
-11.7674669923156
30
0
41
1
10
20.6955184681603
20
-11.784724882294
30
0
0
SPLINE
5
8A
100
AcDbEntity
8
1
62
256
6
ByLayer
370
-1
48
1
60
0
100
AcDbSpline
70
4
71
3
72
14
73
10
40
0
40
0
40
0
40
0
40
0.28122570661339
40
0.28122570661339
40
0.564721801443803
40
0.564721801443803
40
0.820844725776614
40
0.820844725776614
40
1
40
1
40
1
40
1
41
1
10
17.3641236709604
20
-12.6559979778848
30
0
41
1
10
17.3259771789819
20
-12.656527295045
30
0
41
1
10
17.286556859853
20
-12.6502933986174
30
0
41
1
10
17.2115732674184
20
-12.6236798467231
30
0
41
1
10
17.1749004880838
20
-12.6027044489124
30
0
41
1
10
17.1148374698095
20
-12.5506260582025
30
0
41
1
10
17.0896418485038
20
-12.5198510660775
30
0
41
1
10
17.0575777946532
20
-12.4619034643657
30
0
41
1
10
17.0471699664764
20
-12.4359313156419
30
0
41
1
10
17.0402280247396
20
-12.4093161722093
30
0
0
SPLINE
5
8B
100
AcDbEntity
8
1
62
256
6
ByLayer
370
-1
48
1
60
0
100
AcDbSpline
70
4
71
3
72
12
73
8
40
0
40
0
40
0
40
0
40
0.137204687534282
40
0.137204687534282
40
0.554727373248738
40
0.554727373248738
40
1
40
1
40
1
40
1
41
1
10
19.832419173177
20
-10.8090745547952
30
0
41
1
10
19.8185564599057
20
-10.7887858479604
30
0
41
1
10
19.8056693208359
20
-10.7679740843867
30
0
41
1
10
19.7579246419551
20
-10.6827646893893
30
0
41
1
10
19.7313073316652
20
-10.6148736898586
30
0
41
1
10
19.6957519658889
20
-10.4755356143987
30
0
41
1
10
19.6875148032747
20
-10.4026587420069
30
0
41
1
10
19.6885005144843
20
-10.3316211343608
30
0
0
SPLINE
5
8C
100
AcDbEntity
8
1
62
256
6
ByLayer
370
-1
48
1
60
0
100
AcDbSpline
70
4
71
3
72
16
73
12
40
0
40
0
40
0
40
0
40
0.0642991671443737
40
0.0642991671443737
40
0.282454928837323
40
0.282454928837323
40
0.50354694593764
40
0.50354694593764
40
0.739145751038551
40
0.739145751038551
40
1
40
1
40
1
40
1
41
1
10
19.4418187088088
20
-10.0077254881401
30
0
41
1
10
19.4514109302895
20
-10.0102273962291
30
0
41
1
10
19.4609019974184
20
-10.0131659143331
30
0
41
1
10
19.5016396406778
20
-10.0278183766978
30
0
41
1
10
19.5315887257069
20
-10.0441450396279
30
0
41
1
10
19.5843447042495
20
-10.0841036853046
30
0
41
1
10
19.6077371477334
20
-10.1083171575987
30
0
41
1
10
19.6466638174781
20
-10.1625263499285
30
0
41
1
10
19.6620985198138
20
-10.1934541333226
30
0
41
1
10
19.6836901849664
20
-10.2598365841171
30
0
41
1
10
19.68899126118
20
-10.2962543140557
30
0
41
1
10
19.6885005144843
20
-10.3316211343608
30
0
0
SPLINE
5
8D
100
AcDbEntity
8
1
62
256
6
ByLayer
370
-1
48
1
60
0
100
AcDbSpline
70
4
71
3
72
10
73
6
40
0
40
0
40
0
40
0
40
0.541904960061373
40
0.541904960061373
40
1
40
1
40
1
40
1
41
1
10
17.3641236709604
20
-12.6559979778848
30
0
41
1
10
17.450660833804
20
-12.6547971962948
30
0
41
1
10
17.5402260960391
20
-12.6673591345636
30
0
41
1
10
17.7007071586323
20
-12.7186837932084
30
0
41
1
10
17.7742770289795
20
-12.7539323618772
30
0
41
1
10
17.8415770913948
20
-12.7999166365776
30
0
0
SPLINE
5
8E
100
AcDbEntity
8
1
62
256
6
ByLayer
370
-1
48
1
60
0
100
AcDbSpline
70
4
71
3
72
10
73
6
40
0
40
0
40
0
40
0
40
0.541904960061421
40
0.541904960061421
40
1
40
1
40
1
40
1
41
1
10
20.5258814022388
20
-11.1690020221153
30
0
41
1
10
20.4393442393952
20
-11.1702028037053
30
0
41
1
10
20.3497789771601
20
-11.1576408654364
30
0
41
1
10
20.1892979145669
20
-11.1063162067916
30
0
41
1
10
20.1157280442197
20
-11.0710676381229
30
0
41
1
10
20.0484279818044
20
-11.0250833634225
30
0
0
SPLINE
5
8F
100
AcDbEntity
8
1
62
256
6
ByLayer
370
-1
48
1
60
0
100
AcDbSpline
70
4
71
3
72
14
73
10
40
0
40
0
40
0
40
0
40
0.284964196832704
40
0.284964196832704
40
0.57230642523764
40
0.57230642523764
40
0.832127738068835
40
0.832127738068835
40
1
40
1
40
1
40
1
41
1
10
17.499494259716
20
-10.9169406954811
30
0
41
1
10
17.4807700328887
20
-10.8839892788308
30
0
41
1
10
17.4672750628607
20
-10.8466932467794
30
0
41
1
10
17.45436038793
20
-10.7686526882076
30
0
41
1
10
17.4549291439466
20
-10.7266593864606
30
0
41
1
10
17.4711759033771
20
-10.6493176910942
30
0
41
1
10
17.48571511175
20
-10.6125632784317
30
0
41
1
10
17.5193446553696
20
-10.5584433694579
30
0
41
1
10
17.5352318459284
20
-10.5383912931396
30
0
41
1
10
17.5530628378337
20
-10.5205603012343
30
0
0
SPLINE
5
90
100
AcDbEntity
8
1
62
256
6
ByLayer
370
-1
48
1
60
0
100
AcDbSpline
70
4
71
3
72
14
73
10
40
0
40
0
40
0
40
0
40
0.281225706613398
40
0.281225706613398
40
0.564721801443814
40
0.564721801443814
40
0.820844725776682
40
0.820844725776682
40
1
40
1
40
1
40
1
41
1
10
20.5258814022388
20
-11.1690020221153
30
0
41
1
10
20.5640278942173
20
-11.168472704955
30
0
41
1
10
20.6034482133462
20
-11.1747066013826
30
0
41
1
10
20.6784318057808
20
-11.2013201532769
30
0
41
1
10
20.7151045851153
20
-11.2222955510877
30
0
41
1
10
20.7751676033897
20
-11.2743739417976
30
0
41
1
10
20.8003632246954
20
-11.3051489339227
30
0
41
1
10
20.8324272785459
20
-11.3630965356344
30
0
41
1
10
20.8428351067228
20
-11.3890686843581
30
0
41
1
10
20.8497770484595
20
-11.4156838277908
30
0
0
SPLINE
5
91
100
AcDbEntity
8
1
62
256
6
ByLayer
370
-1
48
1
60
0
100
AcDbSpline
70
4
71
3
72
18
73
14
40
0
40
0
40
0
40
0
40
0.213066582896545
40
0.213066582896545
40
0.387148856106946
40
0.387148856106946
40
0.562939679009028
40
0.562939679009028
40
0.715629616728337
40
0.715629616728337
40
0.919159491961043
40
0.919159491961043
40
1
40
1
40
1
40
1
41
1
10
19.0727776543056
20
-10.1619840684392
30
0
41
1
10
19.0300369168983
20
-10.2359782373365
30
0
41
1
10
18.9742029860237
20
-10.3057259108409
30
0
41
1
10
18.8517172316073
20
-10.4147914753822
30
0
41
1
10
18.787405023239
20
-10.4584255783508
30
0
41
1
10
18.6471402549918
20
-10.5263380934965
30
0
41
1
10
18.5688985419495
20
-10.5512214292767
30
0
41
1
10
18.4230247232067
20
-10.5751174071938
30
0
41
1
10
18.3536311002783
20
-10.5774904539683
30
0
41
1
10
18.1996538352193
20
-10.5643903944556
30
0
41
1
10
18.1149936378442
20
-10.5427831840413
30
0
41
1
10
18.0076528837505
20
-10.4978217437283
30
0
41
1
10
17.977936633487
20
-10.4831827390197
30
0
41
1
10
17.9494432320805
20
-10.4669917231165
30
0
0
SPLINE
5
92
100
AcDbEntity
8
1
62
256
6
ByLayer
370
-1
48
1
60
0
100
AcDbSpline
70
4
71
3
72
18
73
14
40
0
40
0
40
0
40
0
40
0.213067132472605
40
0.213067132472605
40
0.38714930769727
40
0.38714930769727
40
0.562940026019757
40
0.562940026019757
40
0.715629944215764
40
0.715629944215764
40
0.91915991763432
40
0.91915991763432
40
1
40
1
40
1
40
1
41
1
10
17.4994942597161
20
-10.916940695481
30
0
41
1
10
17.5417111865761
20
-10.9912352209364
30
0
41
1
10
17.5736427685135
20
-11.0746773221452
30
0
41
1
10
17.6057834352619
20
-11.2355036482903
30
0
41
1
10
17.6108993765932
20
-11.313052455234
30
0
41
1
10
17.5985464017005
20
-11.4684026921291
30
0
41
1
10
17.5804415915905
20
-11.5484848621001
30
0
41
1
10
17.5272797831044
20
-11.6864123526185
30
0
41
1
10
17.4942308240582
20
-11.7474768285319
30
0
41
1
10
17.4050549895194
20
-11.8736841401893
30
0
41
1
10
17.3435976330649
20
-11.9357906560073
30
0
41
1
10
17.2505224520578
20
-12.0056515505051
30
0
41
1
10
17.222864737203
20
-12.0238832544954
30
0
41
1
10
17.1944866050388
20
-12.040275117706
30
0
0
SPLINE
5
93
100
AcDbEntity
8
1
62
256
6
ByLayer
370
-1
48
1
60
0
100
AcDbSpline
70
4
71
3
72
16
73
12
40
0
40
0
40
0
40
0
40
0.05185973021772
40
0.05185973021772
40
0.275230155769188
40
0.275230155769188
40
0.500795347243787
40
0.500795347243787
40
0.740544239763223
40
0.740544239763223
40
1
40
1
40
1
40
1
41
1
10
17.0402280247396
20
-12.4093161722093
30
0
41
1
10
17.0382522470208
20
-12.4017411147729
30
0
41
1
10
17.0365449845351
20
-12.3940897400321
30
0
41
1
10
17.0289970558475
20
-12.3535255308722
30
0
41
1
10
17.0279722929914
20
-12.3193538335867
30
0
41
1
10
17.0358762320649
20
-12.2535945310377
30
0
41
1
10
17.0449770951659
20
-12.2211951873776
30
0
41
1
10
17.0721021309227
20
-12.1603333199765
30
0
41
1
10
17.0909578673005
20
-12.1314699201035
30
0
41
1
10
17.1366810113001
20
-12.0800410489107
30
0
41
1
10
17.1646091788798
20
-12.0575330076844
30
0
41
1
10
17.1944866050388
20
-12.0402751177061
30
0
0
SPLINE
5
94
100
AcDbEntity
8
1
62
256
6
ByLayer
370
-1
48
1
60
0
100
AcDbSpline
70
4
71
3
72
18
73
14
40
0
40
0
40
0
40
0
40
0.213067132472627
40
0.213067132472627
40
0.387149307697268
40
0.387149307697268
40
0.562940026019732
40
0.562940026019732
40
0.715629944215712
40
0.715629944215712
40
0.919159917634246
40
0.919159917634246
40
1
40
1
40
1
40
1
41
1
10
20.3905108134831
20
-12.908059304519
30
0
41
1
10
20.348293886623
20
-12.8337647790636
30
0
41
1
10
20.3163623046856
20
-12.7503226778548
30
0
41
1
10
20.2842216379371
20
-12.5894963517098
30
0
41
1
10
20.2791056966059
20
-12.5119475447661
30
0
41
1
10
20.2914586714986
20
-12.3565973078709
30
0
41
1
10
20.3095634816085
20
-12.2765151378999
30
0
41
1
10
20.3627252900946
20
-12.1385876473815
30
0
41
1
10
20.3957742491408
20
-12.0775231714682
30
0
41
1
10
20.4849500836796
20
-11.9513158598107
30
0
41
1
10
20.5464074401341
20
-11.8892093439927
30
0
41
1
10
20.6394826211412
20
-11.8193484494949
30
0
41
1
10
20.6671403359961
20
-11.8011167455045
30
0
41
1
10
20.6955184681603
20
-11.784724882294
30
0
0
INSERT
5
C8
100
AcDbEntity
8
SK2
62
256
6
ByLayer
370
-1
48
1
60
0
100
AcDbBlockReference
2
DimnDraft3D11
10
0
20
0
30
0
41
1
42
1
43
1
50
0
210
0
220
0
230
1
0
LINE
5
4C
100
AcDbEntity
8
80
62
256
6
ByLayer
370
-1
48
1
60
0
100
AcDbLine
10
0
20
0
30
0
11
-5
21
0
31
0
39
0
210
0
220
0
230
1
0
LINE
5
4D
100
AcDbEntity
8
81
62
256
6
ByLayer
370
-1
48
1
60
0
100
AcDbLine
10
26.945003
20
-19.9125
30
0
11
36.945003
21
-19.9125
31
0
39
0
210
0
220
0
230
1
0
LINE
5
4E
100
AcDbEntity
8
1
62
256
6
ByLayer
370
-1
48
1
60
0
100
AcDbLine
10
0
20
12.4375
30
0
11
4.211655
21
12.4375
31
0
39
0
210
0
220
0
230
1
0
LINE
5
50
100
AcDbEntity
8
1
62
256
6
ByLayer
370
-1
48
1
60
0
100
AcDbLine
10
20.712769
20
-4.063615
30
0
11
20.304743
21
-3.655588
31
0
39
0
210
0
220
0
230
1
0
LINE
5
51
100
AcDbEntity
8
1
62
256
6
ByLayer
370
-1
48
1
60
0
100
AcDbLine
10
7.928427
20
-13.404041
30
0
11
9.594426
21
-14.365906
31
0
39
0
210
0
220
0
230
1
0
LINE
5
52
100
AcDbEntity
8
1
62
256
6
ByLayer
370
-1
48
1
60
0
100
AcDbLine
10
10.335926
20
-14.794011
30
0
11
11.895411
21
-15.69438
31
0
39
0
210
0
220
0
230
1
0
LINE
5
53
100
AcDbEntity
8
1
62
256
6
ByLayer
370
-1
48
1
60
0
100
AcDbLine
10
5.684159
20
-12.445422
30
0
11
17.389368
21
-0.740213
31
0
39
0
210
0
220
0
230
1
0
LINE
5
54
100
AcDbEntity
8
1
62
256
6
ByLayer
370
-1
48
1
60
0
100
AcDbLine
10
4.211655
20
12.4375
30
0
11
17.283302
21
-0.634147
31
0
39
0
210
0
220
0
230
1
0
LINE
5
55
100
AcDbEntity
8
1
62
256
6
ByLayer
370
-1
48
1
60
0
100
AcDbLine
10
0
20
-12.4375
30
0
11
0
21
12.4375
31
0
39
0
210
0
220
0
230
1
0
LINE
5
56
100
AcDbEntity
8
1
62
256
6
ByLayer
370
-1
48
1
60
0
100
AcDbLine
10
9.594426
20
-14.365906
30
0
11
11.012289
21
-12.948042
31
0
39
0
210
0
220
0
230
1
0
LINE
5
57
100
AcDbEntity
8
1
62
256
6
ByLayer
370
-1
48
1
60
0
100
AcDbLine
10
5.518756
20
-12.398693
30
0
11
17.283302
21
-0.634147
31
0
39
0
210
0
220
0
230
1
0
LINE
5
58
100
AcDbEntity
8
1
62
256
6
ByLayer
370
-1
48
1
60
0
100
AcDbLine
10
20.674662
20
-4.101722
30
0
11
20.712769
21
-4.063615
31
0
39
0
210
0
220
0
230
1
0
LINE
5
59
100
AcDbEntity
8
1
62
256
6
ByLayer
370
-1
48
1
60
0
100
AcDbLine
10
19.980532
20
-3.979799
30
0
11
20.304743
21
-3.655588
31
0
39
0
210
0
220
0
230
1
0
LINE
5
5A
100
AcDbEntity
8
1
62
256
6
ByLayer
370
-1
48
1
60
0
100
AcDbLine
10
20.712769
20
-4.063615
30
0
11
20.773395
21
-4.124241
31
0
39
0
210
0
220
0
230
1
0
LINE
5
5B
100
AcDbEntity
8
1
62
256
6
ByLayer
370
-1
48
1
60
0
100
AcDbLine
10
11.202821
20
-13.927116
30
0
11
10.335926
21
-14.794011
31
0
39
0
210
0
220
0
230
1
0
LINE
5
5C
100
AcDbEntity
8
1
62
256
6
ByLayer
370
-1
48
1
60
0
100
AcDbLine
10
10.111783
20
-14.664602
30
0
11
11.134208
21
-13.642177
31
0
39
0
210
0
220
0
230
1
0
LINE
5
5D
100
AcDbEntity
8
1
62
256
6
ByLayer
370
-1
48
1
60
0
100
AcDbLine
10
10.111783
20
-14.664602
30
0
11
10.335926
21
-14.794011
31
0
39
0
210
0
220
0
230
1
0
LINE
5
5E
100
AcDbEntity
8
1
62
256
6
ByLayer
370
-1
48
1
60
0
100
AcDbLine
10
17.389368
20
-0.740213
30
0
11
20.304743
21
-3.655588
31
0
39
0
210
0
220
0
230
1
0
LINE
5
5F
100
AcDbEntity
8
1
62
256
6
ByLayer
370
-1
48
1
60
0
100
AcDbLine
10
17.283302
20
-0.634147
30
0
11
17.389368
21
-0.740213
31
0
39
0
210
0
220
0
230
1
0
LINE
5
60
100
AcDbEntity
8
1
62
256
6
ByLayer
370
-1
48
1
60
0
100
AcDbLine
10
10.111783
20
-14.664602
30
0
11
9.594426
21
-14.365906
31
0
39
0
210
0
220
0
230
1
0
LINE
5
61
100
AcDbEntity
8
SK1
62
256
6
ByLayer
370
-1
48
1
60
0
100
AcDbLine
10
-144.404997
20
-12.4375
30
0
11
-144.404997
21
12.4375
31
0
39
0
210
0
220
0
230
1
0
LINE
5
63
100
AcDbEntity
8
SK1
62
256
6
ByLayer
370
-1
48
1
60
0
100
AcDbLine
10
0
20
-12.4375
30
0
11
-144.404997
21
-12.4375
31
0
39
0
210
0
220
0
230
1
0
LINE
5
64
100
AcDbEntity
8
SK1
62
256
6
ByLayer
370
-1
48
1
60
0
100
AcDbLine
10
-144.404997
20
12.4375
30
0
11
0
21
12.4375
31
0
39
0
210
0
220
0
230
1
0
LINE
5
65
100
AcDbEntity
8
SK1
62
256
6
ByLayer
370
-1
48
1
60
0
100
AcDbLine
10
0
20
-12.4375
30
0
11
0
21
12.4375
31
0
39
0
210
0
220
0
230
1
0
MTEXT
5
95
100
AcDbEntity
8
SK6
62
256
6
ByLayer
370
-1
48
1
60
0
100
AcDbMText
10
-85.246244
20
26.383341
30
0
210
0
220
0
230
1
1
\W00.742;\fsimplex.shx,bigfont.shx;SRSCL 3225P 16 
40
3.5
41
0
44
1.084337
50
0
71
7
72
5
7
DEFAULT
0
DIMENSION
5
D6
100
AcDbEntity
8
2
62
256
6
ByLayer
370
-3
48
1
60
0
100
AcDbDimension
2
DimnDraft3D2
10
41.195003
20
-19.9125
30
0
11
41.195003
21
-6.366447
31
0
70
32
71
5
72
1
41
1
210
0
220
0
230
1
3
Standard
100
AcDbAlignedDimension
13
2
23
12.4375
33
0
14
28.945003
24
-19.9125
34
0
50
90
100
AcDbRotatedDimension
1001
ACAD
1000
DSTYLE
1002
{
1070
    74
1070
     0
1070
   279
1070
     0
1070
   172
1070
     1
1070
   173
1070
     1
1070
   340
1005
96
1070
    77
1070
     1
1070
    73
1070
     0
1070
   171
1070
     3
1070
   274
1070
     4
1070
   177
1070
     2
1070
   176
1070
     2
1070
   178
1070
     7
1070
    78
1070
     8
1070
    41
1041
3.175
1070
   147
1041
2.25
1070
    42
1041
2.0
1070
    44
1041
2.0
1070
   140
1041
4.5
1070
   343
1005
D7
1070
   344
1005
D7
1002
}
0
DIMENSION
5
EB
100
AcDbEntity
8
SK2
62
256
6
ByLayer
370
-3
48
1
60
0
100
AcDbDimension
2
DimnDraft3D3
10
-154.154997
20
-12.4375
30
0
11
-154.154997
21
-2.628947
31
0
70
32
71
5
72
1
41
1
210
0
220
0
230
1
3
Standard
100
AcDbAlignedDimension
13
-146.404997
23
12.4375
33
0
14
-146.404997
24
-12.4375
34
0
50
90
100
AcDbRotatedDimension
1001
ACAD
1000
DSTYLE
1002
{
1070
    74
1070
     0
1070
   279
1070
     0
1070
   172
1070
     1
1070
   173
1070
     1
1070
   340
1005
96
1070
    77
1070
     1
1070
    73
1070
     0
1070
   171
1070
     3
1070
   274
1070
     4
1070
   177
1070
     2
1070
   176
1070
     2
1070
   178
1070
     7
1070
    78
1070
     8
1070
    41
1041
3.175
1070
   147
1041
2.25
1070
    42
1041
2.0
1070
    44
1041
2.0
1070
   140
1041
4.5
1070
   343
1005
D7
1070
   344
1005
D7
1002
}
0
ENDSEC
0
SECTION
2
OBJECTS
0
DICTIONARY
5
11b
330
0
100
AcDbDictionary
280
0
281
1
3
ACAD_GROUP
350
11c
3
ACAD_MLINESTYLE
350
11d
0
DICTIONARY
5
11c
330
0
100
AcDbDictionary
280
0
281
1
0
DICTIONARY
5
11d
330
0
100
AcDbDictionary
280
0
281
1
3
Standard
350
18
0
MLINESTYLE
5
18
330
11d
100
AcDbMlineStyle
2
Standard
70
0
3

62
256
51
90
52
90
71
2
49
-0.5
62
256
6
ByLayer
49
0.5
62
256
6
ByLayer
0
RASTERVARIABLES
5
10a
330

100
AcDbRasterVariables
90
0
70
1
71
1
72
1
0
ENDSEC
0
EOF
