0
SECTION
2
HEADER
9
$ACADVER
1
AC1015
9
$DWGCODEPAGE
3
ANSI_1252
9
$HANDSEED
5
124
9
$ANGBASE
50
0
9
$ANGDIR
70
0
9
$ATTMODE
70
1
9
$AUNITS
70
0
9
$AUPREC
70
0
9
$CECOLOR
62
256
9
$CELTSCALE
40
1
9
$CELTYPE
6
ByLayer
9
$CELWEIGHT
370
-1
9
$CLAYER
8
0
9
$CMLJUST
70
0
9
$CMLSCALE
40
1
9
$CMLSTYLE
2
Standard
9
$DIMSTYLE
2
Standard
9
$TEXTSIZE
40
0.2
9
$TEXTSTYLE
7
Standard
9
$LUNITS
70
2
9
$LUPREC
70
4
9
$EXTNAMES
290
1
9
$INSUNITS
70
4
9
$LTSCALE
40
1
9
$LWDISPLAY
290
0
9
$PDMODE
70
0
9
$PDSIZE
40
0
9
$PLINEGEN
70
0
0
ENDSEC
0
SECTION
2
CLASSES
0
CLASS
1
RASTERVARIABLES
2
AcDbRasterVariables
3
ISM
90
0
280
0
281
0
0
ENDSEC
0
SECTION
2
TABLES
0
TABLE
2
VPORT
5
11a
100
AcDbSymbolTable
0
VPORT
5
1
100
AcDbSymbolTableRecord
100
AcDbViewportTableRecord
2
*Active
70
0
10
0
20
0
11
1
21
1
12
-1
22
1
13
0
23
0
14
0.5
24
0.5
15
10
25
10
16
0
26
0
36
1
17
0
27
0
37
0
0
ENDTAB
0
TABLE
2
LTYPE
5
11b
100
AcDbSymbolTable
0
LTYPE
5
14
100
AcDbSymbolTableRecord
100
AcDbLinetypeTableRecord
70
0
2
ByBlock
3

72
65
73
0
40
0
0
LTYPE
5
15
100
AcDbSymbolTableRecord
100
AcDbLinetypeTableRecord
70
0
2
ByLayer
3

72
65
73
0
40
0
0
LTYPE
5
16
100
AcDbSymbolTableRecord
100
AcDbLinetypeTableRecord
70
0
2
CONTINUOUS
3
Solid line
72
65
73
0
40
0
0
LTYPE
5
3B
100
AcDbSymbolTableRecord
100
AcDbLinetypeTableRecord
70
0
2
DASHED
3
__ __ __ __ __ __ __ __ __
72
65
73
2
40
25.72
49
12.86
74
0
49
-12.86
74
0
0
LTYPE
5
3C
100
AcDbSymbolTableRecord
100
AcDbLinetypeTableRecord
70
0
2
HIDDEN
3
_ _ _ _ _ _ _ _ _ _ _ _ _ _ _
72
65
73
2
40
0.5
49
0.25
74
0
49
-0.25
74
0
0
LTYPE
5
3D
100
AcDbSymbolTableRecord
100
AcDbLinetypeTableRecord
70
0
2
PHANTOM
3
____ _ _ ____ _ _ _____ _ _ ____
72
65
73
6
40
50.5
49
18
74
0
49
-6.5
74
0
49
6.5
74
0
49
-6.5
74
0
49
6.5
74
0
49
-6.5
74
0
0
LTYPE
5
3E
100
AcDbSymbolTableRecord
100
AcDbLinetypeTableRecord
70
0
2
CENTER
3
____ _ ____ _ ____ _ ____
72
65
73
4
40
47.5
49
22
74
0
49
-8.5
74
0
49
8.5
74
0
49
-8.5
74
0
0
LTYPE
5
3F
100
AcDbSymbolTableRecord
100
AcDbLinetypeTableRecord
70
0
2
DOT
3
.........................
72
65
73
2
40
10
49
0
74
0
49
-10
74
0
0
LTYPE
5
40
100
AcDbSymbolTableRecord
100
AcDbLinetypeTableRecord
70
0
2
DASHDOT
3
_._._._._._._._._._._._._._._._.
72
65
73
4
40
70
49
31
74
0
49
-13
74
0
49
13
74
0
49
-13
74
0
0
ENDTAB
0
TABLE
2
LAYER
5
11c
100
AcDbSymbolTable
0
LAYER
5
10
100
AcDbSymbolTableRecord
100
AcDbLayerTableRecord
2
0
70
0
62
7
6
CONTINUOUS
290
1
370
-3
390
0
0
LAYER
5
42
100
AcDbSymbolTableRecord
100
AcDbLayerTableRecord
2
80
70
0
62
-6
6
CONTINUOUS
290
1
370
-3
390
0
0
LAYER
5
46
100
AcDbSymbolTableRecord
100
AcDbLayerTableRecord
2
2
70
0
62
7
6
CONTINUOUS
290
1
370
-3
390
0
0
LAYER
5
48
100
AcDbSymbolTableRecord
100
AcDbLayerTableRecord
2
81
70
0
62
-3
6
CONTINUOUS
290
1
370
-3
390
0
0
LAYER
5
4F
100
AcDbSymbolTableRecord
100
AcDbLayerTableRecord
2
1
70
0
62
4
6
CONTINUOUS
290
1
370
-3
390
0
0
LAYER
5
107
100
AcDbSymbolTableRecord
100
AcDbLayerTableRecord
2
SK2
70
0
62
7
6
CONTINUOUS
290
1
370
-3
390
0
0
LAYER
5
108
100
AcDbSymbolTableRecord
100
AcDbLayerTableRecord
2
SK1
70
0
62
4
6
CONTINUOUS
290
1
370
-3
390
0
0
LAYER
5
109
100
AcDbSymbolTableRecord
100
AcDbLayerTableRecord
2
SK6
70
0
62
5
6
CONTINUOUS
290
1
370
-3
390
0
0
ENDTAB
0
TABLE
2
STYLE
5
11d
100
AcDbSymbolTable
0
STYLE
5
11
100
AcDbSymbolTableRecord
100
AcDbTextStyleTableRecord
2
Standard
3
txt
70
0
71
0
40
0
41
1
42
0
50
0
0
STYLE
5
92
100
AcDbSymbolTableRecord
100
AcDbTextStyleTableRecord
2
DEFAULT
3
simplex.shx
70
0
71
0
40
0
41
1
42
0
50
0
0
STYLE
5
B5
100
AcDbSymbolTableRecord
100
AcDbTextStyleTableRecord
2
DWGDirectTextStyle
3
SIMPLEX
70
0
71
0
40
0
41
1
42
0
50
0
0
ENDTAB
0
TABLE
2
DIMSTYLE
5
11e
100
AcDbSymbolTable
100
AcDbDimStyleTable
0
DIMSTYLE
105
27
100
AcDbSymbolTableRecord
100
AcDbDimStyleTableRecord
2
Standard
70
0
3
<>
41
0.18
42
0.0625
44
0.18
140
0.18
147
0.09
73
0
74
0
77
1
271
2
275
0
278
52
280
0
340
11
0
ENDTAB
0
TABLE
2
VIEW
5
11f
100
AcDbSymbolTable
0
ENDTAB
0
TABLE
2
UCS
5
120
100
AcDbSymbolTable
0
ENDTAB
0
TABLE
2
APPID
5
121
100
AcDbSymbolTable
0
APPID
5
12
100
AcDbSymbolTableRecord
100
AcDbRegAppTableRecord
2
ACAD
70
0
0
ENDTAB
0
TABLE
2
BLOCK_RECORD
5
122
100
AcDbSymbolTable
0
BLOCK_RECORD
5
1F
100
AcDbSymbolTableRecord
100
AcDbBlockTableRecord
2
*Model_Space
340
0
70
0
0
BLOCK_RECORD
5
1B
100
AcDbSymbolTableRecord
100
AcDbBlockTableRecord
2
*Paper_Space
340
0
70
0
0
BLOCK_RECORD
5
23
100
AcDbSymbolTableRecord
100
AcDbBlockTableRecord
2
*Paper_Space0
340
0
70
0
0
BLOCK_RECORD
5
B7
100
AcDbSymbolTableRecord
100
AcDbBlockTableRecord
2
DimnDraft3D11
340
0
70
0
0
BLOCK_RECORD
5
C5
100
AcDbSymbolTableRecord
100
AcDbBlockTableRecord
2
DimnDraft3D2
340
0
70
0
0
BLOCK_RECORD
5
D3
100
AcDbSymbolTableRecord
100
AcDbBlockTableRecord
2
_CLOSED
340
0
70
0
0
BLOCK_RECORD
5
DA
100
AcDbSymbolTableRecord
100
AcDbBlockTableRecord
2
DimnDraft3D3
340
0
70
0
0
ENDTAB
0
ENDSEC
0
SECTION
2
BLOCKS
0
BLOCK
5
20
100
AcDbEntity
8
0
100
AcDbBlockBegin
2
*Model_Space
70
0
10
0
20
0
30
0
3
*Model_Space
0
ENDBLK
5
21
100
AcDbEntity
8
0
100
AcDbBlockEnd
0
BLOCK
5
1C
100
AcDbEntity
8
0
100
AcDbBlockBegin
2
*Paper_Space
70
0
10
0
20
0
30
0
3
*Paper_Space
0
ENDBLK
5
1D
100
AcDbEntity
8
0
100
AcDbBlockEnd
0
BLOCK
5
24
100
AcDbEntity
8
0
100
AcDbBlockBegin
2
*Paper_Space0
70
0
10
0
20
0
30
0
3
*Paper_Space0
0
ENDBLK
5
25
100
AcDbEntity
8
0
100
AcDbBlockEnd
0
BLOCK
5
B8
100
AcDbEntity
8
0
100
AcDbBlockBegin
2
DimnDraft3D11
70
0
10
0
20
0
30
0
3
DimnDraft3D11
0
LINE
5
BA
100
AcDbEntity
8
SK2
62
256
6
ByLayer
370
-1
48
1
60
0
100
AcDbLine
10
28.604783
20
-21.9125
30
0
11
28.604783
21
-46.1625
31
0
39
0
210
0
220
0
230
1
0
LINE
5
BB
100
AcDbEntity
8
SK2
62
256
6
ByLayer
370
-1
48
1
60
0
100
AcDbLine
10
-142.745217
20
-14.4375
30
0
11
-142.745217
21
-46.1625
31
0
39
0
210
0
220
0
230
1
0
LINE
5
BC
100
AcDbEntity
8
SK2
62
256
6
ByLayer
370
-1
48
1
60
0
100
AcDbLine
10
28.604783
20
-44.1625
30
0
11
-142.745217
21
-44.1625
31
0
39
0
210
0
220
0
230
1
0
LINE
5
BD
100
AcDbEntity
8
SK2
62
256
6
ByLayer
370
-1
48
1
60
0
100
AcDbLine
10
28.604783
20
-44.1625
30
0
11
25.429784
21
-44.580497
31
0
39
0
210
0
220
0
230
1
0
LINE
5
BE
100
AcDbEntity
8
SK2
62
256
6
ByLayer
370
-1
48
1
60
0
100
AcDbLine
10
28.604783
20
-44.1625
30
0
11
25.429781
21
-43.744503
31
0
39
0
210
0
220
0
230
1
0
LINE
5
BF
100
AcDbEntity
8
SK2
62
256
6
ByLayer
370
-1
48
1
60
0
100
AcDbLine
10
25.429784
20
-44.580497
30
0
11
25.429781
21
-43.744503
31
0
39
0
210
0
220
0
230
1
0
LINE
5
C0
100
AcDbEntity
8
SK2
62
256
6
ByLayer
370
-1
48
1
60
0
100
AcDbLine
10
-142.745217
20
-44.1625
30
0
11
-139.570219
21
-43.744503
31
0
39
0
210
0
220
0
230
1
0
LINE
5
C1
100
AcDbEntity
8
SK2
62
256
6
ByLayer
370
-1
48
1
60
0
100
AcDbLine
10
-142.745217
20
-44.1625
30
0
11
-139.570216
21
-44.580497
31
0
39
0
210
0
220
0
230
1
0
LINE
5
C2
100
AcDbEntity
8
SK2
62
256
6
ByLayer
370
-1
48
1
60
0
100
AcDbLine
10
-139.570219
20
-43.744503
30
0
11
-139.570216
21
-44.580497
31
0
39
0
210
0
220
0
230
1
0
MTEXT
5
C3
100
AcDbEntity
8
SK2
62
256
6
ByLayer
370
-1
48
1
60
0
100
AcDbMText
10
-59.663638
20
-43.0375
30
0
210
0
220
0
230
1
1
\W00.604;\fsimplex.shx,bigfont.shx;170 
40
4.5
41
0
44
1.084337
50
0
71
7
72
5
7
DEFAULT
0
ENDBLK
5
B9
100
AcDbEntity
8
0
100
AcDbBlockEnd
0
BLOCK
5
D0
100
AcDbEntity
8
0
100
AcDbBlockBegin
2
DimnDraft3D2
70
0
10
0
20
0
30
0
3
DimnDraft3D2
0
MTEXT
5
C6
100
AcDbEntity
8
2
62
256
6
ByLayer
370
-1
48
1
60
0
100
AcDbMText
10
41.729783
20
-5.241447
30
0
210
0
220
0
230
1
1
\W01.000;\fsimplex.shx,bigfont.shx;32 
40
4.5
41
0
44
1.084337
50
90
71
7
72
5
7
DEFAULT
0
LINE
5
C7
100
AcDbEntity
8
2
62
256
6
ByLayer
370
-1
48
1
60
0
100
AcDbLine
10
2
20
12.4375
30
0
11
44.854783
21
12.4375
31
0
39
0
210
0
220
0
230
1
0
LINE
5
C8
100
AcDbEntity
8
2
62
256
6
ByLayer
370
-1
48
1
60
0
100
AcDbLine
10
30.604783
20
-19.9125
30
0
11
44.854783
21
-19.9125
31
0
39
0
210
0
220
0
230
1
0
LINE
5
C9
100
AcDbEntity
8
2
62
256
6
ByLayer
370
-1
48
1
60
0
100
AcDbLine
10
42.854783
20
12.4375
30
0
11
42.854783
21
-19.9125
31
0
39
0
210
0
220
0
230
1
0
LINE
5
CA
100
AcDbEntity
8
2
62
256
6
ByLayer
370
-1
48
1
60
0
100
AcDbLine
10
42.854783
20
12.4375
30
0
11
43.272779
21
9.262502
31
0
39
0
210
0
220
0
230
1
0
LINE
5
CB
100
AcDbEntity
8
2
62
256
6
ByLayer
370
-1
48
1
60
0
100
AcDbLine
10
42.854783
20
12.4375
30
0
11
42.436786
21
9.262498
31
0
39
0
210
0
220
0
230
1
0
LINE
5
CC
100
AcDbEntity
8
2
62
256
6
ByLayer
370
-1
48
1
60
0
100
AcDbLine
10
43.272779
20
9.262502
30
0
11
42.436786
21
9.262498
31
0
39
0
210
0
220
0
230
1
0
LINE
5
CD
100
AcDbEntity
8
2
62
256
6
ByLayer
370
-1
48
1
60
0
100
AcDbLine
10
42.854783
20
-19.9125
30
0
11
42.436786
21
-16.737502
31
0
39
0
210
0
220
0
230
1
0
LINE
5
CE
100
AcDbEntity
8
2
62
256
6
ByLayer
370
-1
48
1
60
0
100
AcDbLine
10
42.854783
20
-19.9125
30
0
11
43.272779
21
-16.737498
31
0
39
0
210
0
220
0
230
1
0
LINE
5
CF
100
AcDbEntity
8
2
62
256
6
ByLayer
370
-1
48
1
60
0
100
AcDbLine
10
42.436786
20
-16.737502
30
0
11
43.272779
21
-16.737498
31
0
39
0
210
0
220
0
230
1
0
ENDBLK
5
D1
100
AcDbEntity
8
0
100
AcDbBlockEnd
0
BLOCK
5
D4
100
AcDbEntity
8
0
100
AcDbBlockBegin
2
_CLOSED
70
0
10
0
20
0
30
0
3
_CLOSED
0
LINE
5
D6
100
AcDbEntity
8
0
62
256
6
ByLayer
370
-2
48
1
60
0
100
AcDbLine
10
-1
20
0.166667
30
0
11
0
21
0
31
0
39
0
210
0
220
0
230
1
0
LINE
5
D7
100
AcDbEntity
8
0
62
256
6
ByLayer
370
-2
48
1
60
0
100
AcDbLine
10
0
20
0
30
0
11
-1
21
-0.166667
31
0
39
0
210
0
220
0
230
1
0
LINE
5
D8
100
AcDbEntity
8
0
62
256
6
ByLayer
370
-2
48
1
60
0
100
AcDbLine
10
-1
20
0.166667
30
0
11
-1
21
-0.166667
31
0
39
0
210
0
220
0
230
1
0
LINE
5
D9
100
AcDbEntity
8
0
62
256
6
ByLayer
370
-2
48
1
60
0
100
AcDbLine
10
0
20
0
30
0
11
-1
21
0
31
0
39
0
210
0
220
0
230
1
0
ENDBLK
5
D5
100
AcDbEntity
8
0
100
AcDbBlockEnd
0
BLOCK
5
E5
100
AcDbEntity
8
0
100
AcDbBlockBegin
2
DimnDraft3D3
70
0
10
0
20
0
30
0
3
DimnDraft3D3
0
MTEXT
5
DB
100
AcDbEntity
8
SK2
62
256
6
ByLayer
370
-1
48
1
60
0
100
AcDbMText
10
-153.620217
20
-1.503947
30
0
210
0
220
0
230
1
1
\W01.000;\fsimplex.shx,bigfont.shx;25 
40
4.5
41
0
44
1.084337
50
90
71
7
72
5
7
DEFAULT
0
LINE
5
DC
100
AcDbEntity
8
SK2
62
256
6
ByLayer
370
-1
48
1
60
0
100
AcDbLine
10
-144.745217
20
12.4375
30
0
11
-154.495217
21
12.4375
31
0
39
0
210
0
220
0
230
1
0
LINE
5
DD
100
AcDbEntity
8
SK2
62
256
6
ByLayer
370
-1
48
1
60
0
100
AcDbLine
10
-144.745217
20
-12.4375
30
0
11
-154.495217
21
-12.4375
31
0
39
0
210
0
220
0
230
1
0
LINE
5
DE
100
AcDbEntity
8
SK2
62
256
6
ByLayer
370
-1
48
1
60
0
100
AcDbLine
10
-152.495217
20
12.4375
30
0
11
-152.495217
21
-12.4375
31
0
39
0
210
0
220
0
230
1
0
LINE
5
DF
100
AcDbEntity
8
SK2
62
256
6
ByLayer
370
-1
48
1
60
0
100
AcDbLine
10
-152.495217
20
12.4375
30
0
11
-152.077221
21
9.262502
31
0
39
0
210
0
220
0
230
1
0
LINE
5
E0
100
AcDbEntity
8
SK2
62
256
6
ByLayer
370
-1
48
1
60
0
100
AcDbLine
10
-152.495217
20
12.4375
30
0
11
-152.913214
21
9.262498
31
0
39
0
210
0
220
0
230
1
0
LINE
5
E1
100
AcDbEntity
8
SK2
62
256
6
ByLayer
370
-1
48
1
60
0
100
AcDbLine
10
-152.077221
20
9.262502
30
0
11
-152.913214
21
9.262498
31
0
39
0
210
0
220
0
230
1
0
LINE
5
E2
100
AcDbEntity
8
SK2
62
256
6
ByLayer
370
-1
48
1
60
0
100
AcDbLine
10
-152.495217
20
-12.4375
30
0
11
-152.913214
21
-9.262502
31
0
39
0
210
0
220
0
230
1
0
LINE
5
E3
100
AcDbEntity
8
SK2
62
256
6
ByLayer
370
-1
48
1
60
0
100
AcDbLine
10
-152.495217
20
-12.4375
30
0
11
-152.077221
21
-9.262498
31
0
39
0
210
0
220
0
230
1
0
LINE
5
E4
100
AcDbEntity
8
SK2
62
256
6
ByLayer
370
-1
48
1
60
0
100
AcDbLine
10
-152.913214
20
-9.262502
30
0
11
-152.077221
21
-9.262498
31
0
39
0
210
0
220
0
230
1
0
ENDBLK
5
E6
100
AcDbEntity
8
0
100
AcDbBlockEnd
0
ENDSEC
0
SECTION
2
ENTITIES
0
ARC
5
67
100
AcDbEntity
8
1
62
256
6
ByLayer
370
-1
48
1
60
0
100
AcDbCircle
39
0
10
-24.049148
20
-15.356865
30
0
40
1
210
0
220
0
230
-1
100
AcDbArc
50
0.904948
51
89.095013
0
ARC
5
68
100
AcDbEntity
8
1
62
256
6
ByLayer
370
-1
48
1
60
0
100
AcDbCircle
39
0
10
9.327953
20
-22.2375
30
0
40
10.2
210
0
220
0
230
1
100
AcDbArc
50
60
51
106.098934
0
ARC
5
69
100
AcDbEntity
8
1
62
256
6
ByLayer
370
-1
48
1
60
0
100
AcDbCircle
39
0
10
25.604783
20
-16.9125
30
0
40
1.035
210
0
220
0
230
1
100
AcDbArc
50
315
51
14.950841
0
ARC
5
6A
100
AcDbEntity
8
1
62
256
6
ByLayer
370
-1
48
1
60
0
100
AcDbCircle
39
0
10
25.604783
20
-16.9125
30
0
40
0.747999999999998
210
0
220
0
230
1
100
AcDbArc
50
42.838153
51
47.161847
0
ARC
5
6B
100
AcDbEntity
8
1
62
256
6
ByLayer
370
-1
48
1
60
0
100
AcDbCircle
39
0
10
-25.604783
20
-16.9125
30
0
40
0.747999999999998
210
0
220
0
230
-1
100
AcDbArc
50
195.024579
51
254.975421
0
ARC
5
6D
100
AcDbEntity
8
1
62
256
6
ByLayer
370
-1
48
1
60
0
100
AcDbCircle
39
0
10
25.604783
20
-16.9125
30
0
40
1.035
210
0
220
0
230
1
100
AcDbArc
50
194.950841
51
255.049159
0
ARC
5
6F
100
AcDbEntity
8
1
62
256
6
ByLayer
370
-1
48
1
60
0
100
AcDbCircle
39
0
10
-25.604783
20
-16.9125
30
0
40
0.747999999999987
210
0
220
0
230
-1
100
AcDbArc
50
254.975421
51
312.838153
0
ARC
5
71
100
AcDbEntity
8
1
62
256
6
ByLayer
370
-1
48
1
60
0
100
AcDbCircle
39
0
10
25.604783
20
-16.9125
30
0
40
1.035
210
0
220
0
230
1
100
AcDbArc
50
14.950841
51
75.049159
0
ARC
5
72
100
AcDbEntity
8
1
62
256
6
ByLayer
370
-1
48
1
60
0
100
AcDbCircle
39
0
10
25.604783
20
-16.9125
30
0
40
0.747999999999998
210
0
220
0
230
1
100
AcDbArc
50
222.838153
51
227.161847
0
ARC
5
73
100
AcDbEntity
8
1
62
256
6
ByLayer
370
-1
48
1
60
0
100
AcDbCircle
39
0
10
25.604783
20
-16.9125
30
0
40
1.035
210
0
220
0
230
1
100
AcDbArc
50
255.049159
51
315
0
ARC
5
75
100
AcDbEntity
8
1
62
256
6
ByLayer
370
-1
48
1
60
0
100
AcDbCircle
39
0
10
-25.604783
20
-16.9125
30
0
40
0.747999999999998
210
0
220
0
230
-1
100
AcDbArc
50
74.975421
51
132.838153
0
ARC
5
77
100
AcDbEntity
8
1
62
256
6
ByLayer
370
-1
48
1
60
0
100
AcDbCircle
39
0
10
-25.604783
20
-16.9125
30
0
40
0.747999999999998
210
0
220
0
230
-1
100
AcDbArc
50
137.161847
51
195.024579
0
ARC
5
78
100
AcDbEntity
8
1
62
256
6
ByLayer
370
-1
48
1
60
0
100
AcDbCircle
39
0
10
-25.604783
20
-16.9125
30
0
40
0.747999999999998
210
0
220
0
230
-1
100
AcDbArc
50
15.024579
51
74.975421
0
ARC
5
79
100
AcDbEntity
8
1
62
256
6
ByLayer
370
-1
48
1
60
0
100
AcDbCircle
39
0
10
25.604783
20
-16.9125
30
0
40
1.035
210
0
220
0
230
1
100
AcDbArc
50
75.049159
51
135
0
ARC
5
7B
100
AcDbEntity
8
1
62
256
6
ByLayer
370
-1
48
1
60
0
100
AcDbCircle
39
0
10
25.604783
20
-16.9125
30
0
40
1.035
210
0
220
0
230
1
100
AcDbArc
50
135
51
194.950841
0
ARC
5
7C
100
AcDbEntity
8
1
62
256
6
ByLayer
370
-1
48
1
60
0
100
AcDbCircle
39
0
10
-25.604783
20
-16.9125
30
0
40
0.747999999999998
210
0
220
0
230
-1
100
AcDbArc
50
317.161847
51
15.024579
0
CIRCLE
5
6C
100
AcDbEntity
8
1
62
256
6
ByLayer
370
-1
48
1
60
0
100
AcDbCircle
10
25.604783
20
-16.9125
30
0
40
1.87499999999999
39
0
210
0
220
0
230
1
0
CIRCLE
5
6E
100
AcDbEntity
8
1
62
256
6
ByLayer
370
-1
48
1
60
0
100
AcDbCircle
10
25.604783
20
-16.9125
30
0
40
1.9225502321216
39
0
210
0
220
0
230
1
0
CIRCLE
5
70
100
AcDbEntity
8
1
62
256
6
ByLayer
370
-1
48
1
60
0
100
AcDbCircle
10
25.604783
20
-16.9125
30
0
40
1.30000000000007
39
0
210
0
220
0
230
1
0
CIRCLE
5
74
100
AcDbEntity
8
1
62
256
6
ByLayer
370
-1
48
1
60
0
100
AcDbCircle
10
25.604783
20
-16.9125
30
0
40
1.725
39
0
210
0
220
0
230
1
0
CIRCLE
5
76
100
AcDbEntity
8
1
62
256
6
ByLayer
370
-1
48
1
60
0
100
AcDbCircle
10
25.604783
20
-16.9125
30
0
40
3
39
0
210
0
220
0
230
1
0
CIRCLE
5
7A
100
AcDbEntity
8
1
62
256
6
ByLayer
370
-1
48
1
60
0
100
AcDbCircle
10
25.604783
20
-16.9125
30
0
40
1.8247596293947
39
0
210
0
220
0
230
1
0
POINT
5
41
100
AcDbEntity
8
80
62
256
6
ByLayer
370
-1
48
1
60
0
100
AcDbPoint
10
0
20
0
30
0
39
0
210
0
220
0
230
1
50
360
0
POINT
5
43
100
AcDbEntity
8
SK2
62
256
6
ByLayer
370
-1
48
1
60
0
100
AcDbPoint
10
28.604783
20
44.7875
30
0
39
0
210
0
220
0
230
1
50
360
0
POINT
5
45
100
AcDbEntity
8
2
62
256
6
ByLayer
370
-1
48
1
60
0
100
AcDbPoint
10
28.604783
20
44.7875
30
0
39
0
210
0
220
0
230
1
50
360
0
POINT
5
47
100
AcDbEntity
8
81
62
256
6
ByLayer
370
-1
48
1
60
0
100
AcDbPoint
10
28.604783
20
-19.9125
30
0
39
0
210
0
220
0
230
1
50
360
0
POINT
5
49
100
AcDbEntity
8
SK2
62
256
6
ByLayer
370
-1
48
1
60
0
100
AcDbPoint
10
28.604783
20
44.7875
30
0
39
0
210
0
220
0
230
1
50
360
0
POINT
5
4A
100
AcDbEntity
8
SK2
62
256
6
ByLayer
370
-1
48
1
60
0
100
AcDbPoint
10
28.604783
20
44.7875
30
0
39
0
210
0
220
0
230
1
50
360
0
POINT
5
4B
100
AcDbEntity
8
SK2
62
256
6
ByLayer
370
-1
48
1
60
0
100
AcDbPoint
10
28.604783
20
44.7875
30
0
39
0
210
0
220
0
230
1
50
360
0
SPLINE
5
7D
100
AcDbEntity
8
1
62
256
6
ByLayer
370
-1
48
1
60
0
100
AcDbSpline
70
4
71
3
72
12
73
8
40
0
40
0
40
0
40
0
40
0.464604552021785
40
0.464604552021785
40
0.846578136191838
40
0.846578136191838
40
1
40
1
40
1
40
1
41
1
10
26.427545790234
20
-16.5082147162258
30
0
41
1
10
26.3841188429257
20
-16.5078537447115
30
0
41
1
10
26.3392701795105
20
-16.5006722322364
30
0
41
1
10
26.2600821328292
20
-16.4738848952896
30
0
41
1
10
26.2244302985271
20
-16.4563196581559
30
0
41
1
10
26.1784490173024
20
-16.4246597054523
30
0
41
1
10
26.1655505748089
20
-16.4146470021205
30
0
41
1
10
26.1532740884653
20
-16.4039125558543
30
0
0
SPLINE
5
7E
100
AcDbEntity
8
1
62
256
6
ByLayer
370
-1
48
1
60
0
100
AcDbSpline
70
4
71
3
72
16
73
12
40
0
40
0
40
0
40
0
40
0.0663333150889551
40
0.0663333150889551
40
0.290332393163673
40
0.290332393163673
40
0.517281984274793
40
0.517281984274793
40
0.7587404214108
40
0.7587404214108
40
1
40
1
40
1
40
1
41
1
10
25.8718025547223
20
-15.9125373041574
30
0
41
1
10
25.8772097468781
20
-15.9139811857257
30
0
41
1
10
25.882558001332
20
-15.9156729769299
30
0
41
1
10
25.9054207207091
20
-15.9240628036414
30
0
41
1
10
25.9221895793931
20
-15.9333522066989
30
0
41
1
10
25.9516767652178
20
-15.956021910385
30
0
41
1
10
25.9647233919517
20
-15.9697312731188
30
0
41
1
10
25.9863467217581
20
-16.0003561923779
30
0
41
1
10
25.9948717214287
20
-16.0177927639285
30
0
41
1
10
26.0060880038123
20
-16.0532916197999
30
0
41
1
10
26.0089182586425
20
-16.0717250336706
30
0
41
1
10
26.0090679760833
20
-16.089736902075
30
0
0
SPLINE
5
7F
100
AcDbEntity
8
1
62
256
6
ByLayer
370
-1
48
1
60
0
100
AcDbSpline
70
4
71
3
72
14
73
10
40
0
40
0
40
0
40
0
40
0.284432895669673
40
0.284432895669673
40
0.571657515508463
40
0.571657515508463
40
0.831929278174008
40
0.831929278174008
40
1
40
1
40
1
40
1
41
1
10
26.3670393573356
20
-17.4227969859356
30
0
41
1
10
26.3774162890434
20
-17.4412327005443
30
0
41
1
10
26.3848798754562
20
-17.4620779470262
30
0
41
1
10
26.3919819606253
20
-17.5056901358321
30
0
41
1
10
26.3916138100415
20
-17.5291542055869
30
0
41
1
10
26.3824700230818
20
-17.5723860763254
30
0
41
1
10
26.374312409635
20
-17.5929374793048
30
0
41
1
10
26.3554858023981
20
-17.6231879945117
30
0
41
1
10
26.3466036311638
20
-17.6343900982014
30
0
41
1
10
26.3366382108371
20
-17.6443555185281
30
0
0
SPLINE
5
80
100
AcDbEntity
8
1
62
256
6
ByLayer
370
-1
48
1
60
0
100
AcDbSpline
70
4
71
3
72
14
73
10
40
0
40
0
40
0
40
0
40
0.284055387451451
40
0.284055387451451
40
0.57076679562903
40
0.57076679562903
40
0.830540100449525
40
0.830540100449525
40
1
40
1
40
1
40
1
41
1
10
24.7820195943841
20
-17.3167852837742
30
0
41
1
10
24.7608393791737
20
-17.3166092305439
30
0
41
1
10
24.7390195996566
20
-17.3126981133959
30
0
41
1
10
24.6976266066301
20
-17.2971192972179
30
0
41
1
10
24.677450351397
20
-17.2851017728117
30
0
41
1
10
24.6445017666859
20
-17.255609730283
30
0
41
1
10
24.6307404039444
20
-17.2382817052388
30
0
41
1
10
24.6138222718884
20
-17.2067295410224
30
0
41
1
10
24.6084962297593
20
-17.1932869886521
30
0
41
1
10
24.6048199964664
20
-17.1795198624132
30
0
0
SPLINE
5
81
100
AcDbEntity
8
1
62
256
6
ByLayer
370
-1
48
1
60
0
100
AcDbSpline
70
4
71
3
72
12
73
8
40
0
40
0
40
0
40
0
40
0.377026933545603
40
0.377026933545603
40
0.761057669390684
40
0.761057669390684
40
1
40
1
40
1
40
1
41
1
10
26.1133701364547
20
-16.3640086038438
30
0
41
1
10
26.0873589107688
20
-16.3342607762432
30
0
41
1
10
26.0655710075675
20
-16.300592786637
30
0
41
1
10
26.0327738457997
20
-16.2310376994037
30
0
41
1
10
26.0214414914728
20
-16.1942233358916
30
0
41
1
10
26.0112567916565
20
-16.1351029143823
30
0
41
1
10
26.0092553294008
20
-16.1122765826986
30
0
41
1
10
26.0090679760833
20
-16.089736902075
30
0
0
SPLINE
5
82
100
AcDbEntity
8
1
62
256
6
ByLayer
370
-1
48
1
60
0
100
AcDbSpline
70
4
71
3
72
14
73
10
40
0
40
0
40
0
40
0
40
0.283786299521757
40
0.283786299521757
40
0.571091841031538
40
0.571091841031538
40
0.831427885025042
40
0.831427885025042
40
1
40
1
40
1
40
1
41
1
10
25.54476618726
20
-17.8278339589211
30
0
41
1
10
25.5340288698393
20
-17.846006462187
30
0
41
1
10
25.5197639353834
20
-17.8628691764745
30
0
41
1
10
25.4856297969446
20
-17.8908528328592
30
0
41
1
10
25.4651400665472
20
-17.9023020546521
30
0
41
1
10
25.4231423041506
20
-17.9160693450262
30
0
41
1
10
25.4012661983757
20
-17.9193155784473
30
0
41
1
10
25.3656075536089
20
-17.9181898596616
30
0
41
1
10
25.3514194333059
20
-17.916109416244
30
0
41
1
10
25.3377628298959
20
-17.9124626958426
30
0
0
SPLINE
5
83
100
AcDbEntity
8
1
62
256
6
ByLayer
370
-1
48
1
60
0
100
AcDbSpline
70
4
71
3
72
16
73
12
40
0
40
0
40
0
40
0
40
0.066333315089183
40
0.066333315089183
40
0.290332393163936
40
0.290332393163936
40
0.517281984275147
40
0.517281984275147
40
0.758740421410973
40
0.758740421410973
40
1
40
1
40
1
40
1
41
1
10
25.3377628298959
20
-17.9124626958426
30
0
41
1
10
25.33235563774
20
-17.9110188142743
30
0
41
1
10
25.3270073832861
20
-17.9093270230701
30
0
41
1
10
25.304144663909
20
-17.9009371963586
30
0
41
1
10
25.2873758052251
20
-17.8916477933011
30
0
41
1
10
25.2578886194003
20
-17.8689780896149
30
0
41
1
10
25.2448419926664
20
-17.8552687268811
30
0
41
1
10
25.2232186628601
20
-17.8246438076221
30
0
41
1
10
25.2146936631895
20
-17.8072072360714
30
0
41
1
10
25.2034773808059
20
-17.7717083802001
30
0
41
1
10
25.2006471259756
20
-17.7532749663294
30
0
41
1
10
25.2004974085349
20
-17.735263097925
30
0
0
SPLINE
5
84
100
AcDbEntity
8
1
62
256
6
ByLayer
370
-1
48
1
60
0
100
AcDbSpline
70
4
71
3
72
16
73
12
40
0
40
0
40
0
40
0
40
0.0652495868367359
40
0.0652495868367359
40
0.2899131033668
40
0.2899131033668
40
0.517464063819603
40
0.517464063819603
40
0.759507484869768
40
0.759507484869768
40
1
40
1
40
1
40
1
41
1
10
24.6048199964664
20
-17.1795198624132
30
0
41
1
10
24.6034036057682
20
-17.1742156208181
30
0
41
1
10
24.6022222972627
20
-17.1688417490813
30
0
41
1
10
24.5980742325884
20
-17.144949680476
30
0
41
1
10
24.5977345923616
20
-17.1257790385364
30
0
41
1
10
24.6026253575852
20
-17.088905384847
30
0
41
1
10
24.6079749028758
20
-17.0707528754507
30
0
41
1
10
24.6236838010246
20
-17.0367193129991
30
0
41
1
10
24.6345190678267
20
-17.0206217017125
30
0
41
1
10
24.659576915588
20
-16.9932400926583
30
0
41
1
10
24.6740287503677
20
-16.9816274816651
30
0
41
1
10
24.6894487333881
20
-16.972516505049
30
0
0
SPLINE
5
85
100
AcDbEntity
8
1
62
256
6
ByLayer
370
-1
48
1
60
0
100
AcDbSpline
70
4
71
3
72
18
73
14
40
0
40
0
40
0
40
0
40
0.213363142667681
40
0.213363142667681
40
0.38897838494723
40
0.38897838494723
40
0.566232258088061
40
0.566232258088061
40
0.721156268243652
40
0.721156268243652
40
0.927391561000367
40
0.927391561000367
40
1
40
1
40
1
40
1
41
1
10
25.54476618726
20
-17.8278339589211
30
0
41
1
10
25.5668195678149
20
-17.7905094471777
30
0
41
1
10
25.595467223095
20
-17.7553626660494
30
0
41
1
10
25.6582529795623
20
-17.7003190354235
30
0
41
1
10
25.6912971578004
20
-17.6782775414793
30
0
41
1
10
25.7631751494031
20
-17.6441610219006
30
0
41
1
10
25.8031636287785
20
-17.6317808577697
30
0
41
1
10
25.8778345132799
20
-17.6201062607483
30
0
41
1
10
25.9134319633645
20
-17.6191661752572
30
0
41
1
10
25.9922933871361
20
-17.6265311165943
30
0
41
1
10
26.0355770973967
20
-17.6379783936627
30
0
41
1
10
26.088588773886
20
-17.6607543964373
30
0
41
1
10
26.1020811517621
20
-17.6674401696005
30
0
41
1
10
26.1150796782446
20
-17.6747566650265
30
0
0
SPLINE
5
86
100
AcDbEntity
8
1
62
256
6
ByLayer
370
-1
48
1
60
0
100
AcDbSpline
70
4
71
3
72
16
73
12
40
0
40
0
40
0
40
0
40
0.065249586836833
40
0.065249586836833
40
0.289913103367031
40
0.289913103367031
40
0.517464063819909
40
0.517464063819909
40
0.759507484870278
40
0.759507484870278
40
1
40
1
40
1
40
1
41
1
10
26.6047453881517
20
-16.6454801375868
30
0
41
1
10
26.6061617788498
20
-16.6507843791819
30
0
41
1
10
26.6073430873553
20
-16.6561582509187
30
0
41
1
10
26.6114911520297
20
-16.680050319524
30
0
41
1
10
26.6118307922565
20
-16.6992209614636
30
0
41
1
10
26.6069400270328
20
-16.736094615153
30
0
41
1
10
26.6015904817422
20
-16.7542471245493
30
0
41
1
10
26.5858815835935
20
-16.7882806870009
30
0
41
1
10
26.5750463167913
20
-16.8043782982875
30
0
41
1
10
26.54998846903
20
-16.8317599073417
30
0
41
1
10
26.5355366342504
20
-16.8433725183349
30
0
41
1
10
26.5201166512301
20
-16.8524834949509
30
0
0
SPLINE
5
87
100
AcDbEntity
8
1
62
256
6
ByLayer
370
-1
48
1
60
0
100
AcDbSpline
70
4
71
3
72
14
73
10
40
0
40
0
40
0
40
0
40
0.283786299521875
40
0.283786299521875
40
0.571091841031514
40
0.571091841031514
40
0.831427885024913
40
0.831427885024913
40
1
40
1
40
1
40
1
41
1
10
25.6647991973581
20
-15.997166041079
30
0
41
1
10
25.6755365147789
20
-15.978993537813
30
0
41
1
10
25.6898014492347
20
-15.9621308235255
30
0
41
1
10
25.7239355876735
20
-15.9341471671408
30
0
41
1
10
25.7444253180709
20
-15.9226979453479
30
0
41
1
10
25.7864230804675
20
-15.9089306549738
30
0
41
1
10
25.8082991862424
20
-15.9056844215527
30
0
41
1
10
25.8439578310092
20
-15.9068101403384
30
0
41
1
10
25.8581459513122
20
-15.908890583756
30
0
41
1
10
25.8718025547223
20
-15.9125373041574
30
0
0
SPLINE
5
88
100
AcDbEntity
8
1
62
256
6
ByLayer
370
-1
48
1
60
0
100
AcDbSpline
70
4
71
3
72
12
73
8
40
0
40
0
40
0
40
0
40
0.377026933327687
40
0.377026933327687
40
0.761057669137945
40
0.761057669137945
40
1
40
1
40
1
40
1
41
1
10
25.0961952481635
20
-17.4609913961563
30
0
41
1
10
25.1222064738345
20
-17.4907392237398
30
0
41
1
10
25.1439943770256
20
-17.5244072133241
30
0
41
1
10
25.1767915387946
20
-17.5939623005314
30
0
41
1
10
25.188123893127
20
-17.6307766640396
30
0
41
1
10
25.1983085929575
20
-17.6898970855696
30
0
41
1
10
25.2003100552172
20
-17.7127234172777
30
0
41
1
10
25.2004974085349
20
-17.735263097925
30
0
0
SPLINE
5
89
100
AcDbEntity
8
1
62
256
6
ByLayer
370
-1
48
1
60
0
100
AcDbSpline
70
4
71
3
72
12
73
8
40
0
40
0
40
0
40
0
40
0.464604552022517
40
0.464604552022517
40
0.846578136193177
40
0.846578136193177
40
1
40
1
40
1
40
1
41
1
10
24.7820195943841
20
-17.3167852837742
30
0
41
1
10
24.8254465416924
20
-17.3171462552885
30
0
41
1
10
24.8702952051076
20
-17.3243277677636
30
0
41
1
10
24.9494832517889
20
-17.3511151047103
30
0
41
1
10
24.985135086091
20
-17.3686803418441
30
0
41
1
10
25.0311163673157
20
-17.4003402945477
30
0
41
1
10
25.0440148098092
20
-17.4103529978794
30
0
41
1
10
25.0562912961528
20
-17.4210874441455
30
0
0
SPLINE
5
8A
100
AcDbEntity
8
1
62
256
6
ByLayer
370
-1
48
1
60
0
100
AcDbSpline
70
4
71
3
72
18
73
14
40
0
40
0
40
0
40
0
40
0.213366452102832
40
0.213366452102832
40
0.388981121047124
40
0.388981121047124
40
0.566234381977703
40
0.566234381977703
40
0.721158286946587
40
0.721158286946587
40
0.927394173367855
40
0.927394173367855
40
1
40
1
40
1
40
1
41
1
10
24.8425260272826
20
-16.4022030140644
30
0
41
1
10
24.863791236896
20
-16.4399829037821
30
0
41
1
10
24.8798692173237
20
-16.4823804469588
30
0
41
1
10
24.8960749614349
20
-16.5642910018315
30
0
41
1
10
24.8986071576075
20
-16.6039309557805
30
0
41
1
10
24.8921455569314
20
-16.6832316221506
30
0
41
1
10
24.8828376975517
20
-16.7240445933747
30
0
41
1
10
24.8555520892546
20
-16.794525124729
30
0
41
1
10
24.8385405717132
20
-16.8258087788074
30
0
41
1
10
24.7926759738311
20
-16.8903828740464
30
0
41
1
10
24.7610930671345
20
-16.9221168964469
30
0
41
1
10
24.7148332672042
20
-16.9565982193852
30
0
41
1
10
24.7022903189233
20
-16.9649289879053
30
0
41
1
10
24.6894487333881
20
-16.9725165050491
30
0
0
SPLINE
5
8B
100
AcDbEntity
8
1
62
256
6
ByLayer
370
-1
48
1
60
0
100
AcDbSpline
70
4
71
3
72
14
73
10
40
0
40
0
40
0
40
0
40
0.284055387451411
40
0.284055387451411
40
0.570766795628938
40
0.570766795628938
40
0.830540100449516
40
0.830540100449516
40
1
40
1
40
1
40
1
41
1
10
26.427545790234
20
-16.5082147162258
30
0
41
1
10
26.4487260054444
20
-16.5083907694561
30
0
41
1
10
26.4705457849615
20
-16.5123018866041
30
0
41
1
10
26.511938777988
20
-16.5278807027821
30
0
41
1
10
26.532115033221
20
-16.5398982271883
30
0
41
1
10
26.5650636179321
20
-16.569390269717
30
0
41
1
10
26.5788249806736
20
-16.5867182947612
30
0
41
1
10
26.5957431127296
20
-16.6182704589775
30
0
41
1
10
26.6010691548587
20
-16.6317130113479
30
0
41
1
10
26.6047453881517
20
-16.6454801375868
30
0
0
SPLINE
5
8C
100
AcDbEntity
8
1
62
256
6
ByLayer
370
-1
48
1
60
0
100
AcDbSpline
70
4
71
3
72
16
73
12
40
0
40
0
40
0
40
0
40
0.0669928592166006
40
0.0669928592166006
40
0.291635825796029
40
0.291635825796029
40
0.519264067951818
40
0.519264067951818
40
0.761464597914345
40
0.761464597914345
40
1
40
1
40
1
40
1
41
1
10
24.872927173781
20
-16.1806444814719
30
0
41
1
10
24.8769121919346
20
-16.1766594633183
30
0
41
1
10
24.8810849186013
20
-16.1728520238239
30
0
41
1
10
24.8998346033851
20
-16.1572507715073
30
0
41
1
10
24.916277404176
20
-16.1473983363886
30
0
41
1
10
24.950673603745
20
-16.1332474578316
30
0
41
1
10
24.9690764073305
20
-16.1288305508887
30
0
41
1
10
25.0064169944573
20
-16.1254716386601
30
0
41
1
10
25.0257796320387
20
-16.1268360649299
30
0
41
1
10
25.0618661025033
20
-16.1348703682388
30
0
41
1
10
25.0790019463889
20
-16.1415279733317
30
0
41
1
10
25.0944857063735
20
-16.1502433349735
30
0
0
SPLINE
5
8D
100
AcDbEntity
8
1
62
256
6
ByLayer
370
-1
48
1
60
0
100
AcDbSpline
70
4
71
3
72
16
73
12
40
0
40
0
40
0
40
0
40
0.0669928592164455
40
0.0669928592164455
40
0.291635825795939
40
0.291635825795939
40
0.519264067951874
40
0.519264067951874
40
0.761464597914332
40
0.761464597914332
40
1
40
1
40
1
40
1
41
1
10
26.3366382108371
20
-17.6443555185281
30
0
41
1
10
26.3326531926835
20
-17.6483405366817
30
0
41
1
10
26.3284804660168
20
-17.6521479761761
30
0
41
1
10
26.309730781233
20
-17.6677492284928
30
0
41
1
10
26.2932879804421
20
-17.6776016636114
30
0
41
1
10
26.2588917808732
20
-17.6917525421684
30
0
41
1
10
26.2404889772876
20
-17.6961694491113
30
0
41
1
10
26.2031483901608
20
-17.6995283613399
30
0
41
1
10
26.1837857525794
20
-17.6981639350701
30
0
41
1
10
26.1476992821148
20
-17.6901296317612
30
0
41
1
10
26.1305634382292
20
-17.6834720266683
30
0
41
1
10
26.1150796782446
20
-17.6747566650266
30
0
0
SPLINE
5
8E
100
AcDbEntity
8
1
62
256
6
ByLayer
370
-1
48
1
60
0
100
AcDbSpline
70
4
71
3
72
18
73
14
40
0
40
0
40
0
40
0
40
0.213366452102831
40
0.213366452102831
40
0.388981121047118
40
0.388981121047118
40
0.566234381977683
40
0.566234381977683
40
0.721158286946554
40
0.721158286946554
40
0.927394173367805
40
0.927394173367805
40
1
40
1
40
1
40
1
41
1
10
26.3670393573356
20
-17.4227969859356
30
0
41
1
10
26.3457741477222
20
-17.3850170962179
30
0
41
1
10
26.3296961672945
20
-17.3426195530412
30
0
41
1
10
26.3134904231833
20
-17.2607089981685
30
0
41
1
10
26.3109582270107
20
-17.2210690442195
30
0
41
1
10
26.3174198276867
20
-17.1417683778494
30
0
41
1
10
26.3267276870664
20
-17.1009554066253
30
0
41
1
10
26.3540132953635
20
-17.030474875271
30
0
41
1
10
26.3710248129049
20
-16.9991912211926
30
0
41
1
10
26.416889410787
20
-16.9346171259536
30
0
41
1
10
26.4484723174837
20
-16.9028831035531
30
0
41
1
10
26.494732117414
20
-16.8684017806148
30
0
41
1
10
26.5072750656949
20
-16.8600710120947
30
0
41
1
10
26.5201166512301
20
-16.8524834949509
30
0
0
SPLINE
5
8F
100
AcDbEntity
8
1
62
256
6
ByLayer
370
-1
48
1
60
0
100
AcDbSpline
70
4
71
3
72
18
73
14
40
0
40
0
40
0
40
0
40
0.213363142667664
40
0.213363142667664
40
0.38897838494716
40
0.38897838494716
40
0.56623225808799
40
0.56623225808799
40
0.721156268243568
40
0.721156268243568
40
0.927391561000358
40
0.927391561000358
40
1
40
1
40
1
40
1
41
1
10
25.6647991973581
20
-15.997166041079
30
0
41
1
10
25.6427458168031
20
-16.0344905528223
30
0
41
1
10
25.614098161523
20
-16.0696373339506
30
0
41
1
10
25.5513124050558
20
-16.1246809645765
30
0
41
1
10
25.5182682268177
20
-16.1467224585207
30
0
41
1
10
25.446390235215
20
-16.1808389780994
30
0
41
1
10
25.4064017558396
20
-16.1932191422303
30
0
41
1
10
25.3317308713382
20
-16.2048937392516
30
0
41
1
10
25.2961334212536
20
-16.2058338247428
30
0
41
1
10
25.217271997482
20
-16.1984688834057
30
0
41
1
10
25.1739882872215
20
-16.1870216063373
30
0
41
1
10
25.1209766107321
20
-16.1642456035628
30
0
41
1
10
25.1074842328561
20
-16.1575598303996
30
0
41
1
10
25.0944857063735
20
-16.1502433349735
30
0
0
SPLINE
5
90
100
AcDbEntity
8
1
62
256
6
ByLayer
370
-1
48
1
60
0
100
AcDbSpline
70
4
71
3
72
14
73
10
40
0
40
0
40
0
40
0
40
0.284432895669855
40
0.284432895669855
40
0.571657515508659
40
0.571657515508659
40
0.831929278174206
40
0.831929278174206
40
1
40
1
40
1
40
1
41
1
10
24.8425260272825
20
-16.4022030140645
30
0
41
1
10
24.8321490955747
20
-16.3837672994557
30
0
41
1
10
24.8246855091619
20
-16.3629220529738
30
0
41
1
10
24.8175834239928
20
-16.3193098641679
30
0
41
1
10
24.8179515745766
20
-16.2958457944131
30
0
41
1
10
24.8270953615363
20
-16.2526139236746
30
0
41
1
10
24.8352529749831
20
-16.2320625206952
30
0
41
1
10
24.85407958222
20
-16.2018120054883
30
0
41
1
10
24.8629617534543
20
-16.1906099017987
30
0
41
1
10
24.872927173781
20
-16.1806444814719
30
0
0
INSERT
5
C4
100
AcDbEntity
8
SK2
62
256
6
ByLayer
370
-1
48
1
60
0
100
AcDbBlockReference
2
DimnDraft3D11
10
0
20
0
30
0
41
1
42
1
43
1
50
0
210
0
220
0
230
1
0
LINE
5
4C
100
AcDbEntity
8
81
62
256
6
ByLayer
370
-1
48
1
60
0
100
AcDbLine
10
28.604783
20
-19.9125
30
0
11
38.604783
21
-19.9125
31
0
39
0
210
0
220
0
230
1
0
LINE
5
4D
100
AcDbEntity
8
80
62
256
6
ByLayer
370
-1
48
1
60
0
100
AcDbLine
10
0
20
0
30
0
11
-5
21
0
31
0
39
0
210
0
220
0
230
1
0
LINE
5
4E
100
AcDbEntity
8
1
62
256
6
ByLayer
370
-1
48
1
60
0
100
AcDbLine
10
6.499526
20
-12.4375
30
0
11
0
21
-12.4375
31
0
39
0
210
0
220
0
230
1
0
LINE
5
50
100
AcDbEntity
8
1
62
256
6
ByLayer
370
-1
48
1
60
0
100
AcDbLine
10
0
20
-12.4375
30
0
11
0
21
12.298527
31
0
39
0
210
0
220
0
230
1
0
LINE
5
51
100
AcDbEntity
8
1
62
256
6
ByLayer
370
-1
48
1
60
0
100
AcDbLine
10
21.855245
20
-17.69219
30
0
11
22.96117
21
-18.330696
31
0
39
0
210
0
220
0
230
1
0
LINE
5
52
100
AcDbEntity
8
1
62
256
6
ByLayer
370
-1
48
1
60
0
100
AcDbLine
10
25.499838
20
-13.914335
30
0
11
25.85635
21
-13.557822
31
0
39
0
210
0
220
0
230
1
0
LINE
5
53
100
AcDbEntity
8
1
62
256
6
ByLayer
370
-1
48
1
60
0
100
AcDbLine
10
14.427953
20
-13.404041
30
0
11
20.079129
21
-16.666749
31
0
39
0
210
0
220
0
230
1
0
LINE
5
54
100
AcDbEntity
8
1
62
256
6
ByLayer
370
-1
48
1
60
0
100
AcDbLine
10
24.579478
20
-12.280951
30
0
11
25.85635
21
-13.557822
31
0
39
0
210
0
220
0
230
1
0
LINE
5
55
100
AcDbEntity
8
1
62
256
6
ByLayer
370
-1
48
1
60
0
100
AcDbLine
10
20.079129
20
-16.666749
30
0
11
24.522202
21
-12.223675
31
0
39
0
210
0
220
0
230
1
0
LINE
5
56
100
AcDbEntity
8
1
62
256
6
ByLayer
370
-1
48
1
60
0
100
AcDbLine
10
25.922981
20
-13.624453
30
0
11
26.290453
21
-13.991926
31
0
39
0
210
0
220
0
230
1
0
LINE
5
57
100
AcDbEntity
8
1
62
256
6
ByLayer
370
-1
48
1
60
0
100
AcDbLine
10
20.151751
20
-16.708677
30
0
11
21.77076
21
-17.643412
31
0
39
0
210
0
220
0
230
1
0
LINE
5
58
100
AcDbEntity
8
1
62
256
6
ByLayer
370
-1
48
1
60
0
100
AcDbLine
10
21.855245
20
-17.69219
30
0
11
22.604927
21
-16.942507
31
0
39
0
210
0
220
0
230
1
0
LINE
5
59
100
AcDbEntity
8
1
62
256
6
ByLayer
370
-1
48
1
60
0
100
AcDbLine
10
24.522202
20
-12.223675
30
0
11
24.579478
21
-12.280951
31
0
39
0
210
0
220
0
230
1
0
LINE
5
5A
100
AcDbEntity
8
1
62
256
6
ByLayer
370
-1
48
1
60
0
100
AcDbLine
10
25.922981
20
-13.624453
30
0
11
25.85635
21
-13.557822
31
0
39
0
210
0
220
0
230
1
0
LINE
5
5B
100
AcDbEntity
8
1
62
256
6
ByLayer
370
-1
48
1
60
0
100
AcDbLine
10
25.634789
20
-13.912646
30
0
11
25.922981
21
-13.624453
31
0
39
0
210
0
220
0
230
1
0
LINE
5
5C
100
AcDbEntity
8
1
62
256
6
ByLayer
370
-1
48
1
60
0
100
AcDbLine
10
21.77076
20
-17.643412
30
0
11
22.606607
21
-16.807566
31
0
39
0
210
0
220
0
230
1
0
LINE
5
5D
100
AcDbEntity
8
1
62
256
6
ByLayer
370
-1
48
1
60
0
100
AcDbLine
10
20.079129
20
-16.666749
30
0
11
20.151751
21
-16.708677
31
0
39
0
210
0
220
0
230
1
0
LINE
5
5E
100
AcDbEntity
8
1
62
256
6
ByLayer
370
-1
48
1
60
0
100
AcDbLine
10
20.151751
20
-16.708677
30
0
11
24.579478
21
-12.280951
31
0
39
0
210
0
220
0
230
1
0
LINE
5
5F
100
AcDbEntity
8
1
62
256
6
ByLayer
370
-1
48
1
60
0
100
AcDbLine
10
21.855245
20
-17.69219
30
0
11
21.77076
21
-17.643412
31
0
39
0
210
0
220
0
230
1
0
LINE
5
60
100
AcDbEntity
8
1
62
256
6
ByLayer
370
-1
48
1
60
0
100
AcDbLine
10
0
20
12.298527
30
0
11
24.522202
21
-12.223675
31
0
39
0
210
0
220
0
230
1
0
LINE
5
61
100
AcDbEntity
8
SK1
62
256
6
ByLayer
370
-1
48
1
60
0
100
AcDbLine
10
-142.745217
20
12.4375
30
0
11
-0.138973
21
12.4375
31
0
39
0
210
0
220
0
230
1
0
LINE
5
63
100
AcDbEntity
8
SK1
62
256
6
ByLayer
370
-1
48
1
60
0
100
AcDbLine
10
0
20
-12.4375
30
0
11
-142.745217
21
-12.4375
31
0
39
0
210
0
220
0
230
1
0
LINE
5
64
100
AcDbEntity
8
SK1
62
256
6
ByLayer
370
-1
48
1
60
0
100
AcDbLine
10
-142.745217
20
-12.4375
30
0
11
-142.745217
21
12.4375
31
0
39
0
210
0
220
0
230
1
0
LINE
5
65
100
AcDbEntity
8
SK1
62
256
6
ByLayer
370
-1
48
1
60
0
100
AcDbLine
10
0
20
-12.4375
30
0
11
0
21
12.298527
31
0
39
0
210
0
220
0
230
1
0
LINE
5
66
100
AcDbEntity
8
SK1
62
256
6
ByLayer
370
-1
48
1
60
0
100
AcDbLine
10
-0.138973
20
12.4375
30
0
11
0
21
12.298527
31
0
39
0
210
0
220
0
230
1
0
MTEXT
5
91
100
AcDbEntity
8
SK6
62
256
6
ByLayer
370
-1
48
1
60
0
100
AcDbMText
10
-83.586464
20
26.383341
30
0
210
0
220
0
230
1
1
\W00.761;\fsimplex.shx,bigfont.shx;SRSCL 3225P 06 
40
3.5
41
0
44
1.084337
50
0
71
7
72
5
7
DEFAULT
0
DIMENSION
5
D2
100
AcDbEntity
8
2
62
256
6
ByLayer
370
-3
48
1
60
0
100
AcDbDimension
2
DimnDraft3D2
10
42.854783
20
-19.9125
30
0
11
42.854783
21
-6.366447
31
0
70
32
71
5
72
1
41
1
210
0
220
0
230
1
3
Standard
100
AcDbAlignedDimension
13
2
23
12.4375
33
0
14
30.604783
24
-19.9125
34
0
50
90
100
AcDbRotatedDimension
1001
ACAD
1000
DSTYLE
1002
{
1070
    74
1070
     0
1070
   279
1070
     0
1070
   172
1070
     1
1070
   173
1070
     1
1070
   340
1005
92
1070
    77
1070
     1
1070
    73
1070
     0
1070
   171
1070
     3
1070
   274
1070
     4
1070
   177
1070
     2
1070
   176
1070
     2
1070
   178
1070
     7
1070
    78
1070
     8
1070
    41
1041
3.175
1070
   147
1041
2.25
1070
    42
1041
2.0
1070
    44
1041
2.0
1070
   140
1041
4.5
1070
   343
1005
D3
1070
   344
1005
D3
1002
}
0
DIMENSION
5
E7
100
AcDbEntity
8
SK2
62
256
6
ByLayer
370
-3
48
1
60
0
100
AcDbDimension
2
DimnDraft3D3
10
-152.495217
20
-12.4375
30
0
11
-152.495217
21
-2.628947
31
0
70
32
71
5
72
1
41
1
210
0
220
0
230
1
3
Standard
100
AcDbAlignedDimension
13
-144.745217
23
12.4375
33
0
14
-144.745217
24
-12.4375
34
0
50
90
100
AcDbRotatedDimension
1001
ACAD
1000
DSTYLE
1002
{
1070
    74
1070
     0
1070
   279
1070
     0
1070
   172
1070
     1
1070
   173
1070
     1
1070
   340
1005
92
1070
    77
1070
     1
1070
    73
1070
     0
1070
   171
1070
     3
1070
   274
1070
     4
1070
   177
1070
     2
1070
   176
1070
     2
1070
   178
1070
     7
1070
    78
1070
     8
1070
    41
1041
3.175
1070
   147
1041
2.25
1070
    42
1041
2.0
1070
    44
1041
2.0
1070
   140
1041
4.5
1070
   343
1005
D3
1070
   344
1005
D3
1002
}
0
ENDSEC
0
SECTION
2
OBJECTS
0
DICTIONARY
5
117
330
0
100
AcDbDictionary
280
0
281
1
3
ACAD_GROUP
350
118
3
ACAD_MLINESTYLE
350
119
0
DICTIONARY
5
118
330
0
100
AcDbDictionary
280
0
281
1
0
DICTIONARY
5
119
330
0
100
AcDbDictionary
280
0
281
1
3
Standard
350
18
0
MLINESTYLE
5
18
330
119
100
AcDbMlineStyle
2
Standard
70
0
3

62
256
51
90
52
90
71
2
49
-0.5
62
256
6
ByLayer
49
0.5
62
256
6
ByLayer
0
RASTERVARIABLES
5
106
330

100
AcDbRasterVariables
90
0
70
1
71
1
72
1
0
ENDSEC
0
EOF
