0
SECTION
2
HEADER
9
$ACADVER
1
AC1015
9
$DWGCODEPAGE
3
ANSI_1252
9
$HANDSEED
5
13b
9
$ANGBASE
50
0
9
$ANGDIR
70
0
9
$ATTMODE
70
1
9
$AUNITS
70
0
9
$AUPREC
70
0
9
$CECOLOR
62
256
9
$CELTSCALE
40
1
9
$CELTYPE
6
ByLayer
9
$CELWEIGHT
370
-1
9
$CLAYER
8
0
9
$CMLJUST
70
0
9
$CMLSCALE
40
1
9
$CMLSTYLE
2
Standard
9
$DIMSTYLE
2
Standard
9
$TEXTSIZE
40
0.2
9
$TEXTSTYLE
7
Standard
9
$LUNITS
70
2
9
$LUPREC
70
4
9
$EXTNAMES
290
1
9
$INSUNITS
70
4
9
$LTSCALE
40
1
9
$LWDISPLAY
290
0
9
$PDMODE
70
0
9
$PDSIZE
40
0
9
$PLINEGEN
70
0
0
ENDSEC
0
SECTION
2
CLASSES
0
CLASS
1
RASTERVARIABLES
2
AcDbRasterVariables
3
ISM
90
0
280
0
281
0
0
ENDSEC
0
SECTION
2
TABLES
0
TABLE
2
VPORT
5
131
100
AcDbSymbolTable
0
VPORT
5
1
100
AcDbSymbolTableRecord
100
AcDbViewportTableRecord
2
*Active
70
0
10
0
20
0
11
1
21
1
12
-1
22
1
13
0
23
0
14
0.5
24
0.5
15
10
25
10
16
0
26
0
36
1
17
0
27
0
37
0
0
ENDTAB
0
TABLE
2
LTYPE
5
132
100
AcDbSymbolTable
0
LTYPE
5
14
100
AcDbSymbolTableRecord
100
AcDbLinetypeTableRecord
70
0
2
ByBlock
3

72
65
73
0
40
0
0
LTYPE
5
15
100
AcDbSymbolTableRecord
100
AcDbLinetypeTableRecord
70
0
2
ByLayer
3

72
65
73
0
40
0
0
LTYPE
5
16
100
AcDbSymbolTableRecord
100
AcDbLinetypeTableRecord
70
0
2
CONTINUOUS
3
Solid line
72
65
73
0
40
0
0
LTYPE
5
3B
100
AcDbSymbolTableRecord
100
AcDbLinetypeTableRecord
70
0
2
DASHED
3
__ __ __ __ __ __ __ __ __
72
65
73
2
40
25.72
49
12.86
74
0
49
-12.86
74
0
0
LTYPE
5
3C
100
AcDbSymbolTableRecord
100
AcDbLinetypeTableRecord
70
0
2
HIDDEN
3
_ _ _ _ _ _ _ _ _ _ _ _ _ _ _
72
65
73
2
40
0.5
49
0.25
74
0
49
-0.25
74
0
0
LTYPE
5
3D
100
AcDbSymbolTableRecord
100
AcDbLinetypeTableRecord
70
0
2
PHANTOM
3
____ _ _ ____ _ _ _____ _ _ ____
72
65
73
6
40
50.5
49
18
74
0
49
-6.5
74
0
49
6.5
74
0
49
-6.5
74
0
49
6.5
74
0
49
-6.5
74
0
0
LTYPE
5
3E
100
AcDbSymbolTableRecord
100
AcDbLinetypeTableRecord
70
0
2
CENTER
3
____ _ ____ _ ____ _ ____
72
65
73
4
40
47.5
49
22
74
0
49
-8.5
74
0
49
8.5
74
0
49
-8.5
74
0
0
LTYPE
5
3F
100
AcDbSymbolTableRecord
100
AcDbLinetypeTableRecord
70
0
2
DOT
3
.........................
72
65
73
2
40
10
49
0
74
0
49
-10
74
0
0
LTYPE
5
40
100
AcDbSymbolTableRecord
100
AcDbLinetypeTableRecord
70
0
2
DASHDOT
3
_._._._._._._._._._._._._._._._.
72
65
73
4
40
70
49
31
74
0
49
-13
74
0
49
13
74
0
49
-13
74
0
0
ENDTAB
0
TABLE
2
LAYER
5
133
100
AcDbSymbolTable
0
LAYER
5
10
100
AcDbSymbolTableRecord
100
AcDbLayerTableRecord
2
0
70
0
62
7
6
CONTINUOUS
290
1
370
-3
390
0
0
LAYER
5
46
100
AcDbSymbolTableRecord
100
AcDbLayerTableRecord
2
2
70
0
62
7
6
CONTINUOUS
290
1
370
-3
390
0
0
LAYER
5
48
100
AcDbSymbolTableRecord
100
AcDbLayerTableRecord
2
80
70
0
62
-6
6
CONTINUOUS
290
1
370
-3
390
0
0
LAYER
5
4A
100
AcDbSymbolTableRecord
100
AcDbLayerTableRecord
2
81
70
0
62
-3
6
CONTINUOUS
290
1
370
-3
390
0
0
LAYER
5
4F
100
AcDbSymbolTableRecord
100
AcDbLayerTableRecord
2
1
70
0
62
4
6
CONTINUOUS
290
1
370
-3
390
0
0
LAYER
5
11e
100
AcDbSymbolTableRecord
100
AcDbLayerTableRecord
2
SK2
70
0
62
7
6
CONTINUOUS
290
1
370
-3
390
0
0
LAYER
5
11f
100
AcDbSymbolTableRecord
100
AcDbLayerTableRecord
2
SK1
70
0
62
4
6
CONTINUOUS
290
1
370
-3
390
0
0
LAYER
5
120
100
AcDbSymbolTableRecord
100
AcDbLayerTableRecord
2
SK6
70
0
62
5
6
CONTINUOUS
290
1
370
-3
390
0
0
ENDTAB
0
TABLE
2
STYLE
5
134
100
AcDbSymbolTable
0
STYLE
5
11
100
AcDbSymbolTableRecord
100
AcDbTextStyleTableRecord
2
Standard
3
txt
70
0
71
0
40
0
41
1
42
0
50
0
0
STYLE
5
9B
100
AcDbSymbolTableRecord
100
AcDbTextStyleTableRecord
2
DEFAULT
3
simplex.shx
70
0
71
0
40
0
41
1
42
0
50
0
0
STYLE
5
BE
100
AcDbSymbolTableRecord
100
AcDbTextStyleTableRecord
2
DWGDirectTextStyle
3
SIMPLEX
70
0
71
0
40
0
41
1
42
0
50
0
0
ENDTAB
0
TABLE
2
DIMSTYLE
5
135
100
AcDbSymbolTable
100
AcDbDimStyleTable
0
DIMSTYLE
105
27
100
AcDbSymbolTableRecord
100
AcDbDimStyleTableRecord
2
Standard
70
0
3
<>
41
0.18
42
0.0625
44
0.18
140
0.18
147
0.09
73
0
74
0
77
1
271
2
275
0
278
52
280
0
340
11
0
ENDTAB
0
TABLE
2
VIEW
5
136
100
AcDbSymbolTable
0
ENDTAB
0
TABLE
2
UCS
5
137
100
AcDbSymbolTable
0
ENDTAB
0
TABLE
2
APPID
5
138
100
AcDbSymbolTable
0
APPID
5
12
100
AcDbSymbolTableRecord
100
AcDbRegAppTableRecord
2
ACAD
70
0
0
ENDTAB
0
TABLE
2
BLOCK_RECORD
5
139
100
AcDbSymbolTable
0
BLOCK_RECORD
5
1F
100
AcDbSymbolTableRecord
100
AcDbBlockTableRecord
2
*Model_Space
340
0
70
0
0
BLOCK_RECORD
5
1B
100
AcDbSymbolTableRecord
100
AcDbBlockTableRecord
2
*Paper_Space
340
0
70
0
0
BLOCK_RECORD
5
23
100
AcDbSymbolTableRecord
100
AcDbBlockTableRecord
2
*Paper_Space0
340
0
70
0
0
BLOCK_RECORD
5
C0
100
AcDbSymbolTableRecord
100
AcDbBlockTableRecord
2
DimnDraft3D1
340
0
70
0
0
BLOCK_RECORD
5
CE
100
AcDbSymbolTableRecord
100
AcDbBlockTableRecord
2
_CLOSED
340
0
70
0
0
BLOCK_RECORD
5
D5
100
AcDbSymbolTableRecord
100
AcDbBlockTableRecord
2
DimnDraft3D2
340
0
70
0
0
BLOCK_RECORD
5
E3
100
AcDbSymbolTableRecord
100
AcDbBlockTableRecord
2
DimnDraft3D3
340
0
70
0
0
BLOCK_RECORD
5
F1
100
AcDbSymbolTableRecord
100
AcDbBlockTableRecord
2
DimnDraft3D4
340
0
70
0
0
ENDTAB
0
ENDSEC
0
SECTION
2
BLOCKS
0
BLOCK
5
20
100
AcDbEntity
8
0
100
AcDbBlockBegin
2
*Model_Space
70
0
10
0
20
0
30
0
3
*Model_Space
0
ENDBLK
5
21
100
AcDbEntity
8
0
100
AcDbBlockEnd
0
BLOCK
5
1C
100
AcDbEntity
8
0
100
AcDbBlockBegin
2
*Paper_Space
70
0
10
0
20
0
30
0
3
*Paper_Space
0
ENDBLK
5
1D
100
AcDbEntity
8
0
100
AcDbBlockEnd
0
BLOCK
5
24
100
AcDbEntity
8
0
100
AcDbBlockBegin
2
*Paper_Space0
70
0
10
0
20
0
30
0
3
*Paper_Space0
0
ENDBLK
5
25
100
AcDbEntity
8
0
100
AcDbBlockEnd
0
BLOCK
5
CB
100
AcDbEntity
8
0
100
AcDbBlockBegin
2
DimnDraft3D1
70
0
10
0
20
0
30
0
3
DimnDraft3D1
0
MTEXT
5
C1
100
AcDbEntity
8
SK2
62
256
6
ByLayer
370
-1
48
1
60
0
100
AcDbMText
10
-106.430801
20
-1.503947
30
0
210
0
220
0
230
1
1
\W01.000;\fsimplex.shx,bigfont.shx;20 
40
4.5
41
0
44
1.084337
50
90
71
7
72
5
7
DEFAULT
0
LINE
5
C2
100
AcDbEntity
8
SK2
62
256
6
ByLayer
370
-1
48
1
60
0
100
AcDbLine
10
-97.555801
20
-9.9375
30
0
11
-107.305801
21
-9.9375
31
0
39
0
210
0
220
0
230
1
0
LINE
5
C3
100
AcDbEntity
8
SK2
62
256
6
ByLayer
370
-1
48
1
60
0
100
AcDbLine
10
-97.555801
20
9.9375
30
0
11
-107.305801
21
9.9375
31
0
39
0
210
0
220
0
230
1
0
LINE
5
C4
100
AcDbEntity
8
SK2
62
256
6
ByLayer
370
-1
48
1
60
0
100
AcDbLine
10
-105.305801
20
-9.9375
30
0
11
-105.305801
21
9.9375
31
0
39
0
210
0
220
0
230
1
0
LINE
5
C5
100
AcDbEntity
8
SK2
62
256
6
ByLayer
370
-1
48
1
60
0
100
AcDbLine
10
-105.305801
20
-9.9375
30
0
11
-105.723798
21
-6.762502
31
0
39
0
210
0
220
0
230
1
0
LINE
5
C6
100
AcDbEntity
8
SK2
62
256
6
ByLayer
370
-1
48
1
60
0
100
AcDbLine
10
-105.305801
20
-9.9375
30
0
11
-104.887804
21
-6.762498
31
0
39
0
210
0
220
0
230
1
0
LINE
5
C7
100
AcDbEntity
8
SK2
62
256
6
ByLayer
370
-1
48
1
60
0
100
AcDbLine
10
-105.723798
20
-6.762502
30
0
11
-104.887804
21
-6.762498
31
0
39
0
210
0
220
0
230
1
0
LINE
5
C8
100
AcDbEntity
8
SK2
62
256
6
ByLayer
370
-1
48
1
60
0
100
AcDbLine
10
-105.305801
20
9.9375
30
0
11
-104.887804
21
6.762502
31
0
39
0
210
0
220
0
230
1
0
LINE
5
C9
100
AcDbEntity
8
SK2
62
256
6
ByLayer
370
-1
48
1
60
0
100
AcDbLine
10
-105.305801
20
9.9375
30
0
11
-105.723798
21
6.762498
31
0
39
0
210
0
220
0
230
1
0
LINE
5
CA
100
AcDbEntity
8
SK2
62
256
6
ByLayer
370
-1
48
1
60
0
100
AcDbLine
10
-104.887804
20
6.762502
30
0
11
-105.723798
21
6.762498
31
0
39
0
210
0
220
0
230
1
0
ENDBLK
5
CC
100
AcDbEntity
8
0
100
AcDbBlockEnd
0
BLOCK
5
CF
100
AcDbEntity
8
0
100
AcDbBlockBegin
2
_CLOSED
70
0
10
0
20
0
30
0
3
_CLOSED
0
LINE
5
D1
100
AcDbEntity
8
0
62
256
6
ByLayer
370
-2
48
1
60
0
100
AcDbLine
10
-1
20
0.166667
30
0
11
0
21
0
31
0
39
0
210
0
220
0
230
1
0
LINE
5
D2
100
AcDbEntity
8
0
62
256
6
ByLayer
370
-2
48
1
60
0
100
AcDbLine
10
0
20
0
30
0
11
-1
21
-0.166667
31
0
39
0
210
0
220
0
230
1
0
LINE
5
D3
100
AcDbEntity
8
0
62
256
6
ByLayer
370
-2
48
1
60
0
100
AcDbLine
10
-1
20
0.166667
30
0
11
-1
21
-0.166667
31
0
39
0
210
0
220
0
230
1
0
LINE
5
D4
100
AcDbEntity
8
0
62
256
6
ByLayer
370
-2
48
1
60
0
100
AcDbLine
10
0
20
0
30
0
11
-1
21
0
31
0
39
0
210
0
220
0
230
1
0
ENDBLK
5
D0
100
AcDbEntity
8
0
100
AcDbBlockEnd
0
BLOCK
5
E0
100
AcDbEntity
8
0
100
AcDbBlockBegin
2
DimnDraft3D2
70
0
10
0
20
0
30
0
3
DimnDraft3D2
0
MTEXT
5
D6
100
AcDbEntity
8
2
62
256
6
ByLayer
370
-1
48
1
60
0
100
AcDbMText
10
43.919199
20
-5.127632
30
0
210
0
220
0
230
1
1
\W01.000;\fsimplex.shx,bigfont.shx;20.65 
40
4.5
41
0
44
1.084337
50
90
71
7
72
5
7
DEFAULT
0
LINE
5
D7
100
AcDbEntity
8
2
62
256
6
ByLayer
370
-1
48
1
60
0
100
AcDbLine
10
2
20
-9.9375
30
0
11
47.044199
21
-9.9375
31
0
39
0
210
0
220
0
230
1
0
LINE
5
D8
100
AcDbEntity
8
2
62
256
6
ByLayer
370
-1
48
1
60
0
100
AcDbLine
10
32.794199
20
11.0625
30
0
11
47.044199
21
11.0625
31
0
39
0
210
0
220
0
230
1
0
LINE
5
D9
100
AcDbEntity
8
2
62
256
6
ByLayer
370
-1
48
1
60
0
100
AcDbLine
10
45.044199
20
-21.1875
30
0
11
45.044199
21
22.3125
31
0
39
0
210
0
220
0
230
1
0
LINE
5
DA
100
AcDbEntity
8
2
62
256
6
ByLayer
370
-1
48
1
60
0
100
AcDbLine
10
45.044199
20
-9.9375
30
0
11
45.462196
21
-13.112498
31
0
39
0
210
0
220
0
230
1
0
LINE
5
DB
100
AcDbEntity
8
2
62
256
6
ByLayer
370
-1
48
1
60
0
100
AcDbLine
10
45.044199
20
-9.9375
30
0
11
44.626202
21
-13.112502
31
0
39
0
210
0
220
0
230
1
0
LINE
5
DC
100
AcDbEntity
8
2
62
256
6
ByLayer
370
-1
48
1
60
0
100
AcDbLine
10
45.462196
20
-13.112498
30
0
11
44.626202
21
-13.112502
31
0
39
0
210
0
220
0
230
1
0
LINE
5
DD
100
AcDbEntity
8
2
62
256
6
ByLayer
370
-1
48
1
60
0
100
AcDbLine
10
45.044199
20
11.0625
30
0
11
44.626202
21
14.237498
31
0
39
0
210
0
220
0
230
1
0
LINE
5
DE
100
AcDbEntity
8
2
62
256
6
ByLayer
370
-1
48
1
60
0
100
AcDbLine
10
45.044199
20
11.0625
30
0
11
45.462196
21
14.237502
31
0
39
0
210
0
220
0
230
1
0
LINE
5
DF
100
AcDbEntity
8
2
62
256
6
ByLayer
370
-1
48
1
60
0
100
AcDbLine
10
44.626202
20
14.237498
30
0
11
45.462196
21
14.237502
31
0
39
0
210
0
220
0
230
1
0
ENDBLK
5
E1
100
AcDbEntity
8
0
100
AcDbBlockEnd
0
BLOCK
5
EE
100
AcDbEntity
8
0
100
AcDbBlockBegin
2
DimnDraft3D3
70
0
10
0
20
0
30
0
3
DimnDraft3D3
0
MTEXT
5
E4
100
AcDbEntity
8
2
62
256
6
ByLayer
370
-1
48
1
60
0
100
AcDbMText
10
19.290251
20
-21.0625
30
0
210
0
220
0
230
1
1
\W01.000;\fsimplex.shx,bigfont.shx;20 
40
4.5
41
0
44
1.084337
50
0
71
7
72
5
7
DEFAULT
0
LINE
5
E5
100
AcDbEntity
8
2
62
256
6
ByLayer
370
-1
48
1
60
0
100
AcDbLine
10
30.794199
20
1.0625
30
0
11
30.794199
21
-24.1875
31
0
39
0
210
0
220
0
230
1
0
LINE
5
E6
100
AcDbEntity
8
2
62
256
6
ByLayer
370
-1
48
1
60
0
100
AcDbLine
10
10.794199
20
1.0625
30
0
11
10.794199
21
-24.1875
31
0
39
0
210
0
220
0
230
1
0
LINE
5
E7
100
AcDbEntity
8
2
62
256
6
ByLayer
370
-1
48
1
60
0
100
AcDbLine
10
30.794199
20
-22.1875
30
0
11
10.794199
21
-22.1875
31
0
39
0
210
0
220
0
230
1
0
LINE
5
E8
100
AcDbEntity
8
2
62
256
6
ByLayer
370
-1
48
1
60
0
100
AcDbLine
10
30.794199
20
-22.1875
30
0
11
27.6192
21
-22.605497
31
0
39
0
210
0
220
0
230
1
0
LINE
5
E9
100
AcDbEntity
8
2
62
256
6
ByLayer
370
-1
48
1
60
0
100
AcDbLine
10
30.794199
20
-22.1875
30
0
11
27.619197
21
-21.769503
31
0
39
0
210
0
220
0
230
1
0
LINE
5
EA
100
AcDbEntity
8
2
62
256
6
ByLayer
370
-1
48
1
60
0
100
AcDbLine
10
27.6192
20
-22.605497
30
0
11
27.619197
21
-21.769503
31
0
39
0
210
0
220
0
230
1
0
LINE
5
EB
100
AcDbEntity
8
2
62
256
6
ByLayer
370
-1
48
1
60
0
100
AcDbLine
10
10.794199
20
-22.1875
30
0
11
13.969197
21
-21.769503
31
0
39
0
210
0
220
0
230
1
0
LINE
5
EC
100
AcDbEntity
8
2
62
256
6
ByLayer
370
-1
48
1
60
0
100
AcDbLine
10
10.794199
20
-22.1875
30
0
11
13.9692
21
-22.605497
31
0
39
0
210
0
220
0
230
1
0
LINE
5
ED
100
AcDbEntity
8
2
62
256
6
ByLayer
370
-1
48
1
60
0
100
AcDbLine
10
13.969197
20
-21.769503
30
0
11
13.9692
21
-22.605497
31
0
39
0
210
0
220
0
230
1
0
ENDBLK
5
EF
100
AcDbEntity
8
0
100
AcDbBlockEnd
0
BLOCK
5
FC
100
AcDbEntity
8
0
100
AcDbBlockBegin
2
DimnDraft3D4
70
0
10
0
20
0
30
0
3
DimnDraft3D4
0
MTEXT
5
F2
100
AcDbEntity
8
SK2
62
256
6
ByLayer
370
-1
48
1
60
0
100
AcDbMText
10
-34.974222
20
31.9375
30
0
210
0
220
0
230
1
1
\W01.000;\fsimplex.shx,bigfont.shx;125 
40
4.5
41
0
44
1.084337
50
0
71
7
72
5
7
DEFAULT
0
LINE
5
F3
100
AcDbEntity
8
SK2
62
256
6
ByLayer
370
-1
48
1
60
0
100
AcDbLine
10
30.794199
20
13.0625
30
0
11
30.794199
21
32.8125
31
0
39
0
210
0
220
0
230
1
0
LINE
5
F4
100
AcDbEntity
8
SK2
62
256
6
ByLayer
370
-1
48
1
60
0
100
AcDbLine
10
-95.555801
20
11.9375
30
0
11
-95.555801
21
32.8125
31
0
39
0
210
0
220
0
230
1
0
LINE
5
F5
100
AcDbEntity
8
SK2
62
256
6
ByLayer
370
-1
48
1
60
0
100
AcDbLine
10
30.794199
20
30.8125
30
0
11
-95.555801
21
30.8125
31
0
39
0
210
0
220
0
230
1
0
LINE
5
F6
100
AcDbEntity
8
SK2
62
256
6
ByLayer
370
-1
48
1
60
0
100
AcDbLine
10
30.794199
20
30.8125
30
0
11
27.6192
21
30.394503
31
0
39
0
210
0
220
0
230
1
0
LINE
5
F7
100
AcDbEntity
8
SK2
62
256
6
ByLayer
370
-1
48
1
60
0
100
AcDbLine
10
30.794199
20
30.8125
30
0
11
27.619197
21
31.230497
31
0
39
0
210
0
220
0
230
1
0
LINE
5
F8
100
AcDbEntity
8
SK2
62
256
6
ByLayer
370
-1
48
1
60
0
100
AcDbLine
10
27.6192
20
30.394503
30
0
11
27.619197
21
31.230497
31
0
39
0
210
0
220
0
230
1
0
LINE
5
F9
100
AcDbEntity
8
SK2
62
256
6
ByLayer
370
-1
48
1
60
0
100
AcDbLine
10
-95.555801
20
30.8125
30
0
11
-92.380803
21
31.230497
31
0
39
0
210
0
220
0
230
1
0
LINE
5
FA
100
AcDbEntity
8
SK2
62
256
6
ByLayer
370
-1
48
1
60
0
100
AcDbLine
10
-95.555801
20
30.8125
30
0
11
-92.3808
21
30.394503
31
0
39
0
210
0
220
0
230
1
0
LINE
5
FB
100
AcDbEntity
8
SK2
62
256
6
ByLayer
370
-1
48
1
60
0
100
AcDbLine
10
-92.380803
20
31.230497
30
0
11
-92.3808
21
30.394503
31
0
39
0
210
0
220
0
230
1
0
ENDBLK
5
FD
100
AcDbEntity
8
0
100
AcDbBlockEnd
0
ENDSEC
0
SECTION
2
ENTITIES
0
ARC
5
67
100
AcDbEntity
8
1
62
256
6
ByLayer
370
-1
48
1
60
0
100
AcDbCircle
39
0
10
-13.740936
20
-6.5375
30
0
40
10.2
210
0
220
0
230
-1
100
AcDbArc
50
30
51
90
0
ARC
5
68
100
AcDbEntity
8
1
62
256
6
ByLayer
370
-1
48
1
60
0
100
AcDbCircle
39
0
10
24.094199
20
7.0625
30
0
40
1.5
210
0
220
0
230
1
100
AcDbArc
50
142.895898
51
217.104093
0
ARC
5
6A
100
AcDbEntity
8
1
62
256
6
ByLayer
370
-1
48
1
60
0
100
AcDbCircle
39
0
10
-26.794199
20
7.0625
30
0
40
1
210
0
220
0
230
-1
100
AcDbArc
50
137.228335
51
162.771665
0
ARC
5
6B
100
AcDbEntity
8
1
62
256
6
ByLayer
370
-1
48
1
60
0
100
AcDbCircle
39
0
10
-26.794199
20
7.0625
30
0
40
1.25
210
0
220
0
230
-1
100
AcDbArc
50
60
51
120
0
ARC
5
6C
100
AcDbEntity
8
1
62
256
6
ByLayer
370
-1
48
1
60
0
100
AcDbCircle
39
0
10
-26.794199
20
7.0625
30
0
40
1.25
210
0
220
0
230
-1
100
AcDbArc
50
0
51
60
0
ARC
5
6D
100
AcDbEntity
8
1
62
256
6
ByLayer
370
-1
48
1
60
0
100
AcDbCircle
39
0
10
-26.794199
20
7.0625
30
0
40
1
210
0
220
0
230
-1
100
AcDbArc
50
317.228335
51
342.771665
0
ARC
5
6E
100
AcDbEntity
8
1
62
256
6
ByLayer
370
-1
48
1
60
0
100
AcDbCircle
39
0
10
-26.794199
20
7.0625
30
0
40
1.25
210
0
220
0
230
-1
100
AcDbArc
50
180
51
240
0
ARC
5
70
100
AcDbEntity
8
1
62
256
6
ByLayer
370
-1
48
1
60
0
100
AcDbCircle
39
0
10
-26.794199
20
7.0625
30
0
40
1
210
0
220
0
230
-1
100
AcDbArc
50
17.228335
51
42.771665
0
ARC
5
73
100
AcDbEntity
8
1
62
256
6
ByLayer
370
-1
48
1
60
0
100
AcDbCircle
39
0
10
-26.794199
20
7.0625
30
0
40
1.25
210
0
220
0
230
-1
100
AcDbArc
50
240
51
300
0
ARC
5
74
100
AcDbEntity
8
1
62
256
6
ByLayer
370
-1
48
1
60
0
100
AcDbCircle
39
0
10
-26.794199
20
7.0625
30
0
40
1.25
210
0
220
0
230
-1
100
AcDbArc
50
300
51
0
0
ARC
5
76
100
AcDbEntity
8
1
62
256
6
ByLayer
370
-1
48
1
60
0
100
AcDbCircle
39
0
10
-26.794199
20
7.0625
30
0
40
1
210
0
220
0
230
-1
100
AcDbArc
50
257.228335
51
282.771665
0
ARC
5
77
100
AcDbEntity
8
1
62
256
6
ByLayer
370
-1
48
1
60
0
100
AcDbCircle
39
0
10
-26.794199
20
7.0625
30
0
40
1
210
0
220
0
230
-1
100
AcDbArc
50
197.228335
51
222.771665
0
ARC
5
79
100
AcDbEntity
8
1
62
256
6
ByLayer
370
-1
48
1
60
0
100
AcDbCircle
39
0
10
-26.794199
20
7.0625
30
0
40
1.25
210
0
220
0
230
-1
100
AcDbArc
50
120
51
180
0
ARC
5
7A
100
AcDbEntity
8
1
62
256
6
ByLayer
370
-1
48
1
60
0
100
AcDbCircle
39
0
10
-26.794199
20
7.0625
30
0
40
1
210
0
220
0
230
-1
100
AcDbArc
50
77.228335
51
102.771665
0
CIRCLE
5
69
100
AcDbEntity
8
1
62
256
6
ByLayer
370
-1
48
1
60
0
100
AcDbCircle
10
-26.794199
20
7.0625
30
0
40
2.33136445707911
39
0
210
0
220
0
230
-1
0
CIRCLE
5
6F
100
AcDbEntity
8
1
62
256
6
ByLayer
370
-1
48
1
60
0
100
AcDbCircle
10
-26.794199
20
7.0625
30
0
40
3.99999999999999
39
0
210
0
220
0
230
-1
0
CIRCLE
5
71
100
AcDbEntity
8
1
62
256
6
ByLayer
370
-1
48
1
60
0
100
AcDbCircle
10
-26.794199
20
7.0625
30
0
40
2.20103780961135
39
0
210
0
220
0
230
-1
0
CIRCLE
5
72
100
AcDbEntity
8
1
62
256
6
ByLayer
370
-1
48
1
60
0
100
AcDbCircle
10
26.794199
20
7.0625
30
0
40
2.09999999999999
39
0
210
0
220
0
230
1
0
CIRCLE
5
75
100
AcDbEntity
8
1
62
256
6
ByLayer
370
-1
48
1
60
0
100
AcDbCircle
10
26.794199
20
7.0625
30
0
40
1.4
39
0
210
0
220
0
230
1
0
CIRCLE
5
78
100
AcDbEntity
8
1
62
256
6
ByLayer
370
-1
48
1
60
0
100
AcDbCircle
10
-26.794199
20
7.0625
30
0
40
2.25
39
0
210
0
220
0
230
-1
0
CIRCLE
5
7B
100
AcDbEntity
8
1
62
256
6
ByLayer
370
-1
48
1
60
0
100
AcDbCircle
10
26.794199
20
7.0625
30
0
40
0.833572051764943
39
0
210
0
220
0
230
1
0
POINT
5
41
100
AcDbEntity
8
SK2
62
256
6
ByLayer
370
-1
48
1
60
0
100
AcDbPoint
10
30.794199
20
8.719354
30
0
39
0
210
0
220
0
230
1
50
360
0
POINT
5
43
100
AcDbEntity
8
SK2
62
256
6
ByLayer
370
-1
48
1
60
0
100
AcDbPoint
10
30.794199
20
8.719354
30
0
39
0
210
0
220
0
230
1
50
360
0
POINT
5
44
100
AcDbEntity
8
SK2
62
256
6
ByLayer
370
-1
48
1
60
0
100
AcDbPoint
10
30.794199
20
8.719354
30
0
39
0
210
0
220
0
230
1
50
360
0
POINT
5
45
100
AcDbEntity
8
2
62
256
6
ByLayer
370
-1
48
1
60
0
100
AcDbPoint
10
30.794199
20
8.719354
30
0
39
0
210
0
220
0
230
1
50
360
0
POINT
5
47
100
AcDbEntity
8
80
62
256
6
ByLayer
370
-1
48
1
60
0
100
AcDbPoint
10
0
20
0
30
0
39
0
210
0
220
0
230
1
50
360
0
POINT
5
49
100
AcDbEntity
8
81
62
256
6
ByLayer
370
-1
48
1
60
0
100
AcDbPoint
10
30.794199
20
11.0625
30
0
39
0
210
0
220
0
230
1
50
360
0
POINT
5
4B
100
AcDbEntity
8
SK2
62
256
6
ByLayer
370
-1
48
1
60
0
100
AcDbPoint
10
30.794199
20
8.719354
30
0
39
0
210
0
220
0
230
1
50
360
0
SPLINE
5
7C
100
AcDbEntity
8
1
62
256
6
ByLayer
370
-1
48
1
60
0
100
AcDbSpline
70
4
71
3
72
8
73
4
40
0
40
0
40
0
40
0
40
1
40
1
40
1
40
1
41
1
10
25.7963627965449
20
6.77497880875157
30
0
41
1
10
25.8103769884341
20
6.77313462720164
30
0
41
1
10
25.8246084808229
20
6.77030981951836
30
0
41
1
10
25.8390668120784
20
6.76631956556227
30
0
0
SPLINE
5
7D
100
AcDbEntity
8
1
62
256
6
ByLayer
370
-1
48
1
60
0
100
AcDbSpline
70
4
71
3
72
8
73
4
40
0
40
0
40
0
40
0
40
1
40
1
40
1
40
1
41
1
10
27.7493308255098
20
7.3586804344497
30
0
41
1
10
27.7637891567653
20
7.35469018049361
30
0
41
1
10
27.7780206491541
20
7.35186537281032
30
0
41
1
10
27.7920348410433
20
7.3500211912604
30
0
0
SPLINE
5
7E
100
AcDbEntity
8
1
62
256
6
ByLayer
370
-1
48
1
60
0
100
AcDbSpline
70
4
71
3
72
8
73
4
40
0
40
0
40
0
40
0
40
1
40
1
40
1
40
1
41
1
10
26.0601330351041
20
7.74157836456752
30
0
41
1
10
26.0563595307699
20
7.75609477370915
30
0
41
1
10
26.05169013979
20
7.76983201149326
30
0
41
1
10
26.0462801519168
20
7.78289074845779
30
0
0
SPLINE
5
7F
100
AcDbEntity
8
1
62
256
6
ByLayer
370
-1
48
1
60
0
100
AcDbSpline
70
4
71
3
72
8
73
4
40
0
40
0
40
0
40
0
40
1
40
1
40
1
40
1
41
1
10
26.5442814634222
20
6.05458806029978
30
0
41
1
10
26.5528856674382
20
6.06580261571438
30
0
41
1
10
26.5624477688471
20
6.07671504581521
30
0
41
1
10
26.5731325957684
20
6.08724120100075
30
0
0
SPLINE
5
80
100
AcDbEntity
8
1
62
256
6
ByLayer
370
-1
48
1
60
0
100
AcDbSpline
70
4
71
3
72
8
73
4
40
0
40
0
40
0
40
0
40
1
40
1
40
1
40
1
41
1
10
27.0152650418197
20
8.03775879901124
30
0
41
1
10
27.025949868741
20
8.04828495419676
30
0
41
1
10
27.0355119701499
20
8.05919738429762
30
0
41
1
10
27.044116174166
20
8.07041193971222
30
0
0
SPLINE
5
81
100
AcDbEntity
8
1
62
256
6
ByLayer
370
-1
48
1
60
0
100
AcDbSpline
70
4
71
3
72
16
73
12
40
0
40
0
40
0
40
0
40
0.417804919380071
40
0.417804919380071
40
0.619437241835951
40
0.619437241835951
40
0.788375803929702
40
0.788375803929702
40
0.906080805444904
40
0.906080805444904
40
1
40
1
40
1
40
1
41
1
10
26.0462801519168
20
6.34210925155421
30
0
41
1
10
26.030011371954
20
6.30283934499468
30
0
41
1
10
26.0207965730684
20
6.25694271395696
30
0
41
1
10
26.0275197720512
20
6.1806905351948
30
0
41
1
10
26.0330832250705
20
6.15410887294885
30
0
41
1
10
26.0524035002322
20
6.10398813031782
30
0
41
1
10
26.0649303796079
20
6.08016592603744
30
0
41
1
10
26.094109216093
20
6.04121721942462
30
0
41
1
10
26.1086952050148
20
6.02531771805917
30
0
41
1
10
26.1386895383473
20
5.99959268934282
30
0
41
1
10
26.1535889220724
20
5.98898062334973
30
0
41
1
10
26.1691988187941
20
5.97996824527544
30
0
0
SPLINE
5
82
100
AcDbEntity
8
1
62
256
6
ByLayer
370
-1
48
1
60
0
100
AcDbSpline
70
4
71
3
72
16
73
12
40
0
40
0
40
0
40
0
40
0.418045978506521
40
0.418045978506521
40
0.619794635905469
40
0.619794635905469
40
0.788830669762511
40
0.788830669762511
40
0.906603583031558
40
0.906603583031558
40
1
40
1
40
1
40
1
41
1
10
27.5421174856714
20
6.34210925155421
30
0
41
1
10
27.5583862656342
20
6.30283934499468
30
0
41
1
10
27.5676010645197
20
6.25694271395696
30
0
41
1
10
27.560877865537
20
6.1806905351948
30
0
41
1
10
27.5553144125177
20
6.15410887294885
30
0
41
1
10
27.535994137356
20
6.10398813031779
30
0
41
1
10
27.5234672579802
20
6.08016592603741
30
0
41
1
10
27.4942884214952
20
6.0412172194246
30
0
41
1
10
27.4797024325735
20
6.02531771805914
30
0
41
1
10
27.4497080992409
20
5.99959268934279
30
0
41
1
10
27.4348087155157
20
5.9889806233497
30
0
41
1
10
27.4191988187941
20
5.97996824527544
30
0
0
SPLINE
5
83
100
AcDbEntity
8
1
62
256
6
ByLayer
370
-1
48
1
60
0
100
AcDbSpline
70
4
71
3
72
8
73
4
40
0
40
0
40
0
40
0
40
1
40
1
40
1
40
1
41
1
10
26.5442814634222
20
8.07041193971222
30
0
41
1
10
26.5528856674382
20
8.05919738429762
30
0
41
1
10
26.5624477688472
20
8.04828495419676
30
0
41
1
10
26.5731325957684
20
8.03775879901124
30
0
0
SPLINE
5
84
100
AcDbEntity
8
1
62
256
6
ByLayer
370
-1
48
1
60
0
100
AcDbSpline
70
4
71
3
72
8
73
4
40
0
40
0
40
0
40
0
40
1
40
1
40
1
40
1
41
1
10
27.0152650418198
20
6.08724120100075
30
0
41
1
10
27.025949868741
20
6.07671504581521
30
0
41
1
10
27.0355119701499
20
6.06580261571438
30
0
41
1
10
27.044116174166
20
6.05458806029978
30
0
0
SPLINE
5
85
100
AcDbEntity
8
1
62
256
6
ByLayer
370
-1
48
1
60
0
100
AcDbSpline
70
4
71
3
72
18
73
14
40
0
40
0
40
0
40
0
40
0.0250986123280315
40
0.0250986123280315
40
0.128644319228953
40
0.128644319228953
40
0.261874229016305
40
0.261874229016305
40
0.456619428569229
40
0.456619428569229
40
0.778146641389345
40
0.778146641389345
40
1
40
1
40
1
40
1
41
1
10
26.1691988187941
20
8.14503175473652
30
0
41
1
10
26.173411860344
20
8.14746415540949
30
0
41
1
10
26.1776899329799
20
8.14979234948461
30
0
41
1
10
26.1997199524859
20
8.16107435066402
30
0
41
1
10
26.2184231362655
20
8.16826481022449
30
0
41
1
10
26.2600334645531
20
8.17981320421893
30
0
41
1
10
26.2832686896197
20
8.1830342825296
30
0
41
1
10
26.3362050129323
20
8.18474977381433
30
0
41
1
10
26.3650527741301
20
8.18060872973999
30
0
41
1
10
26.432420491034
20
8.16223068944194
30
0
41
1
10
26.466801470321
20
8.14303906909572
30
0
41
1
10
26.5140011039086
20
8.10552101729473
30
0
41
1
10
26.5304430968257
20
8.08844860280783
30
0
41
1
10
26.5442814634222
20
8.07041193971219
30
0
0
SPLINE
5
86
100
AcDbEntity
8
1
62
256
6
ByLayer
370
-1
48
1
60
0
100
AcDbSpline
70
4
71
3
72
18
73
14
40
0
40
0
40
0
40
0
40
0.20888648323963
40
0.20888648323963
40
0.421198226784316
40
0.421198226784316
40
0.600960032344633
40
0.600960032344633
40
0.761871479604322
40
0.761871479604322
40
0.937780558809782
40
0.937780558809782
40
1
40
1
40
1
40
1
41
1
10
27.7493308255098
20
6.76631956556227
30
0
41
1
10
27.718701163878
20
6.75786629897564
30
0
41
1
10
27.6882114931803
20
6.74436905462593
30
0
41
1
10
27.6316990527186
20
6.70722312983537
30
0
41
1
10
27.6048611678866
20
6.68266979647095
30
0
41
1
10
27.5645759349781
20
6.63008830117653
30
0
41
1
10
27.5491959482999
20
6.60240543240843
30
0
41
1
10
27.5288195408683
20
6.54848441476875
30
0
41
1
10
27.5226138397894
20
6.52175995957015
30
0
41
1
10
27.5168589171578
20
6.46712273712171
30
0
41
1
10
27.517863791759
20
6.4386897365886
30
0
41
1
10
27.5238462843958
20
6.40215959076306
30
0
41
1
10
27.5258531263179
20
6.39269841680309
30
0
41
1
10
27.5282646024841
20
6.38342163544451
30
0
0
SPLINE
5
87
100
AcDbEntity
8
1
62
256
6
ByLayer
370
-1
48
1
60
0
100
AcDbSpline
70
4
71
3
72
16
73
12
40
0
40
0
40
0
40
0
40
0.417976185025491
40
0.417976185025491
40
0.61974474847204
40
0.61974474847204
40
0.788797544347714
40
0.788797544347714
40
0.906575913083704
40
0.906575913083704
40
1
40
1
40
1
40
1
41
1
10
27.044116174166
20
6.05458806029978
30
0
41
1
10
27.0699862139331
20
6.02086954386223
30
0
41
1
10
27.1051189792566
20
5.98994596421966
30
0
41
1
10
27.1745053000048
20
5.95764014068695
30
0
41
1
10
27.2003080682204
20
5.94916478954775
30
0
41
1
10
27.2533763562568
20
5.94083182528161
30
0
41
1
10
27.2802719395127
20
5.93976737993677
30
0
41
1
10
27.328594546688
20
5.9455600995995
30
0
41
1
10
27.3496576165396
20
5.95024107004684
30
0
41
1
10
27.3869391870166
20
5.96335424661157
30
0
41
1
10
27.4035843830515
20
5.97095324659625
30
0
41
1
10
27.4191988187941
20
5.97996824527544
30
0
0
SPLINE
5
88
100
AcDbEntity
8
1
62
256
6
ByLayer
370
-1
48
1
60
0
100
AcDbSpline
70
4
71
3
72
18
73
14
40
0
40
0
40
0
40
0
40
0.20888648323967
40
0.20888648323967
40
0.421198226784354
40
0.421198226784354
40
0.600960032344653
40
0.600960032344653
40
0.761871479604307
40
0.761871479604307
40
0.93778055880974
40
0.93778055880974
40
1
40
1
40
1
40
1
41
1
10
25.8390668120784
20
7.3586804344497
30
0
41
1
10
25.8696964737102
20
7.36713370103632
30
0
41
1
10
25.9001861444079
20
7.38063094538603
30
0
41
1
10
25.9566985848696
20
7.4177768701766
30
0
41
1
10
25.9835364697017
20
7.44233020354099
30
0
41
1
10
26.0238217026101
20
7.49491169883547
30
0
41
1
10
26.0392016892884
20
7.52259456760353
30
0
41
1
10
26.0595780967198
20
7.57651558524321
30
0
41
1
10
26.0657837977988
20
7.60324004044182
30
0
41
1
10
26.0715387204304
20
7.65787726289025
30
0
41
1
10
26.0705338458293
20
7.68631026342337
30
0
41
1
10
26.0645513531924
20
7.72284040924893
30
0
41
1
10
26.0625445112703
20
7.73230158320888
30
0
41
1
10
26.0601330351041
20
7.74157836456749
30
0
0
SPLINE
5
89
100
AcDbEntity
8
1
62
256
6
ByLayer
370
-1
48
1
60
0
100
AcDbSpline
70
4
71
3
72
16
73
12
40
0
40
0
40
0
40
0
40
0.121522020819396
40
0.121522020819396
40
0.241963776566783
40
0.241963776566783
40
0.425818169076761
40
0.425818169076761
40
0.725432485828888
40
0.725432485828888
40
1
40
1
40
1
40
1
41
1
10
25.5441988187941
20
7.062500000006
30
0
41
1
10
25.5441988187941
20
7.08578013306118
30
0
41
1
10
25.5471593865773
20
7.10941689283788
30
0
41
1
10
25.5576246731601
20
7.15247628586934
30
0
41
1
10
25.5651659112673
20
7.1725791988116
30
0
41
1
10
25.5872964869211
20
7.21759637764907
30
0
41
1
10
25.6038033345854
20
7.24046697257941
30
0
41
1
10
25.6493428704342
20
7.28977492259457
30
0
41
1
10
25.680613886532
20
7.31083583476121
30
0
41
1
10
25.7398682410916
20
7.33851626448848
30
0
41
1
10
25.7684969953083
20
7.34635422302418
30
0
41
1
10
25.7963627965449
20
7.35002119126042
30
0
0
SPLINE
5
8A
100
AcDbEntity
8
1
62
256
6
ByLayer
370
-1
48
1
60
0
100
AcDbSpline
70
4
71
3
72
18
73
14
40
0
40
0
40
0
40
0
40
0.208886483239688
40
0.208886483239688
40
0.421198226784332
40
0.421198226784332
40
0.600960032344639
40
0.600960032344639
40
0.76187147960424
40
0.76187147960424
40
0.937780558809721
40
0.937780558809721
40
1
40
1
40
1
40
1
41
1
10
26.5731325957684
20
6.08724120100075
30
0
41
1
10
26.5957681701933
20
6.1095406327899
30
0
41
1
10
26.6227019620301
20
6.1291968399922
30
0
41
1
10
26.6831274967766
20
6.15956508666665
30
0
41
1
10
26.7178102496338
20
6.17053071003283
30
0
41
1
10
26.783489776782
20
6.17912799748174
30
0
41
1
10
26.815153837724
20
6.17860602227091
30
0
41
1
10
26.8720390125135
20
6.16929199992458
30
0
41
1
10
26.8982859201573
20
6.16130406710798
30
0
41
1
10
26.9484806041057
20
6.13896936507953
30
0
41
1
10
26.9726018675726
20
6.12388261788075
30
0
41
1
10
27.001246655543
20
6.1004365543665
30
0
41
1
10
27.008436851581
20
6.09396799130062
30
0
41
1
10
27.0152650418198
20
6.08724120100075
30
0
0
SPLINE
5
8B
100
AcDbEntity
8
1
62
256
6
ByLayer
370
-1
48
1
60
0
100
AcDbSpline
70
4
71
3
72
18
73
14
40
0
40
0
40
0
40
0
40
0.208886483239673
40
0.208886483239673
40
0.421198226784328
40
0.421198226784328
40
0.60096003234465
40
0.60096003234465
40
0.761871479604297
40
0.761871479604297
40
0.937780558809757
40
0.937780558809757
40
1
40
1
40
1
40
1
41
1
10
25.8390668120784
20
6.76631956556227
30
0
41
1
10
25.8696964737102
20
6.75786629897564
30
0
41
1
10
25.9001861444079
20
6.74436905462593
30
0
41
1
10
25.9566985848696
20
6.70722312983537
30
0
41
1
10
25.9835364697016
20
6.68266979647095
30
0
41
1
10
26.0238217026101
20
6.63008830117653
30
0
41
1
10
26.0392016892884
20
6.6024054324084
30
0
41
1
10
26.0595780967198
20
6.54848441476875
30
0
41
1
10
26.0657837977988
20
6.52175995957015
30
0
41
1
10
26.0715387204304
20
6.46712273712171
30
0
41
1
10
26.0705338458292
20
6.4386897365886
30
0
41
1
10
26.0645513531924
20
6.40215959076303
30
0
41
1
10
26.0625445112703
20
6.39269841680306
30
0
41
1
10
26.0601330351041
20
6.38342163544448
30
0
0
SPLINE
5
8C
100
AcDbEntity
8
1
62
256
6
ByLayer
370
-1
48
1
60
0
100
AcDbSpline
70
4
71
3
72
16
73
12
40
0
40
0
40
0
40
0
40
0.417976185025463
40
0.417976185025463
40
0.619744748472048
40
0.619744748472048
40
0.788797544347691
40
0.788797544347691
40
0.906575913083679
40
0.906575913083679
40
1
40
1
40
1
40
1
41
1
10
27.044116174166
20
8.07041193971222
30
0
41
1
10
27.0699862139331
20
8.10413045614973
30
0
41
1
10
27.1051189792566
20
8.13505403579231
30
0
41
1
10
27.1745053000048
20
8.16735985932505
30
0
41
1
10
27.2003080682204
20
8.17583521046424
30
0
41
1
10
27.2533763562568
20
8.18416817473039
30
0
41
1
10
27.2802719395127
20
8.18523262007523
30
0
41
1
10
27.3285945466879
20
8.17943990041249
30
0
41
1
10
27.3496576165396
20
8.17475892996515
30
0
41
1
10
27.3869391870166
20
8.16164575340042
30
0
41
1
10
27.4035843830515
20
8.15404675341574
30
0
41
1
10
27.4191988187941
20
8.14503175473652
30
0
0
SPLINE
5
8D
100
AcDbEntity
8
1
62
256
6
ByLayer
370
-1
48
1
60
0
100
AcDbSpline
70
4
71
3
72
16
73
12
40
0
40
0
40
0
40
0
40
0.121522020819397
40
0.121522020819397
40
0.241963776566774
40
0.241963776566774
40
0.425818169076729
40
0.425818169076729
40
0.725432485828815
40
0.725432485828815
40
1
40
1
40
1
40
1
41
1
10
25.5441988187941
20
7.062500000006
30
0
41
1
10
25.5441988187941
20
7.03921986695082
30
0
41
1
10
25.5471593865773
20
7.01558310717411
30
0
41
1
10
25.5576246731601
20
6.97252371414265
30
0
41
1
10
25.5651659112673
20
6.95242080120039
30
0
41
1
10
25.5872964869211
20
6.90740362236292
30
0
41
1
10
25.6038033345854
20
6.88453302743258
30
0
41
1
10
25.6493428704342
20
6.83522507741742
30
0
41
1
10
25.680613886532
20
6.81416416525079
30
0
41
1
10
25.7398682410916
20
6.78648373552349
30
0
41
1
10
25.7684969953083
20
6.77864577698781
30
0
41
1
10
25.7963627965449
20
6.77497880875157
30
0
0
SPLINE
5
8E
100
AcDbEntity
8
1
62
256
6
ByLayer
370
-1
48
1
60
0
100
AcDbSpline
70
4
71
3
72
16
73
12
40
0
40
0
40
0
40
0
40
0.417833985268604
40
0.417833985268604
40
0.619457993186614
40
0.619457993186614
40
0.788389554127557
40
0.788389554127557
40
0.906092272185648
40
0.906092272185648
40
1
40
1
40
1
40
1
41
1
10
27.7920348410433
20
7.3500211912604
30
0
41
1
10
27.8341808940687
20
7.3444750296261
30
0
41
1
10
27.8785393042259
20
7.32950530020679
30
0
41
1
10
27.9412156554194
20
7.28555209952222
30
0
41
1
10
27.9614532452225
20
7.26744286578008
30
0
41
1
10
27.995196856558
20
7.22565055494738
30
0
41
1
10
28.0095630356129
20
7.20289099797731
30
0
41
1
10
28.0287027224706
20
7.15814744749156
30
0
41
1
10
28.0351785502686
20
7.13756588122251
30
0
41
1
10
28.0424586274096
20
7.09872960095245
30
0
41
1
10
28.0441988187941
20
7.08052256959624
30
0
41
1
10
28.0441988187941
20
7.062500000006
30
0
0
SPLINE
5
8F
100
AcDbEntity
8
1
62
256
6
ByLayer
370
-1
48
1
60
0
100
AcDbSpline
70
4
71
3
72
8
73
4
40
0
40
0
40
0
40
0
40
1
40
1
40
1
40
1
41
1
10
27.5282646024841
20
6.38342163544448
30
0
41
1
10
27.5320381068183
20
6.36890522630284
30
0
41
1
10
27.5367074977982
20
6.35516798851873
30
0
41
1
10
27.5421174856714
20
6.34210925155421
30
0
0
SPLINE
5
90
100
AcDbEntity
8
1
62
256
6
ByLayer
370
-1
48
1
60
0
100
AcDbSpline
70
4
71
3
72
18
73
14
40
0
40
0
40
0
40
0
40
0.0251076880059664
40
0.0251076880059664
40
0.128652803862373
40
0.128652803862373
40
0.261885870375173
40
0.261885870375173
40
0.456637719877899
40
0.456637719877899
40
0.778177853243576
40
0.778177853243576
40
1
40
1
40
1
40
1
41
1
10
28.0441988187941
20
7.062500000006
30
0
41
1
10
28.0441988187941
20
7.05763346087983
30
0
41
1
10
28.0440759697223
20
7.05276270199684
30
0
41
1
10
28.042830938051
20
7.0280416231204
30
0
41
1
10
28.0397061677385
20
7.00824927067282
30
0
41
1
10
28.0289015271048
20
6.96643953053101
30
0
41
1
10
28.0200729562191
20
6.94470658894514
30
0
41
1
10
27.9950891609908
20
6.89800431524881
30
0
41
1
10
27.9770781804989
20
6.87509192022685
30
0
41
1
10
27.927476197687
20
6.82593892556687
30
0
41
1
10
27.8936638714453
20
6.80576047333096
30
0
41
1
10
27.8375742766053
20
6.78364632698501
30
0
41
1
10
27.8145712539183
20
6.77794446222302
30
0
41
1
10
27.7920348410433
20
6.77497880875157
30
0
0
SPLINE
5
91
100
AcDbEntity
8
1
62
256
6
ByLayer
370
-1
48
1
60
0
100
AcDbSpline
70
4
71
3
72
18
73
14
40
0
40
0
40
0
40
0
40
0.208886483239613
40
0.208886483239613
40
0.421198226784318
40
0.421198226784318
40
0.600960032344646
40
0.600960032344646
40
0.761871479604293
40
0.761871479604293
40
0.937780558809744
40
0.937780558809744
40
1
40
1
40
1
40
1
41
1
10
27.5282646024841
20
7.74157836456749
30
0
41
1
10
27.5202705152772
20
7.71082566619174
30
0
41
1
10
27.5167146364163
20
7.67767221463973
30
0
41
1
10
27.5206277307011
20
7.61015804317475
30
0
41
1
10
27.5284725987263
20
7.57463908644414
30
0
41
1
10
27.553866892966
20
7.51346030370075
30
0
41
1
10
27.5701509672297
20
7.48629941014352
30
0
41
1
10
27.6066597345878
20
7.44169241485014
30
0
41
1
10
27.6267009411526
20
7.42295589246817
30
0
41
1
10
27.6711407024693
20
7.39065337204818
30
0
41
1
10
27.6962668405375
20
7.37730711871384
30
0
41
1
10
27.7308941211447
20
7.36422303640254
30
0
41
1
10
27.7400911591047
20
7.36123042550844
30
0
41
1
10
27.7493308255097
20
7.35868043444972
30
0
0
SPLINE
5
92
100
AcDbEntity
8
1
62
256
6
ByLayer
370
-1
48
1
60
0
100
AcDbSpline
70
4
71
3
72
16
73
12
40
0
40
0
40
0
40
0
40
0.121458033874119
40
0.121458033874119
40
0.241889325533027
40
0.241889325533027
40
0.425703094688831
40
0.425703094688831
40
0.725236978036441
40
0.725236978036441
40
1
40
1
40
1
40
1
41
1
10
27.4191988187941
20
8.14503175473655
30
0
41
1
10
27.4393494467966
20
8.13339778423494
30
0
41
1
10
27.4583298614614
20
8.11902460832061
30
0
41
1
10
27.4903831819123
20
8.0884435615383
30
0
41
1
10
27.5040240650984
20
8.07186326210271
30
0
41
1
10
27.5319474840003
20
8.03019654448218
30
0
41
1
10
27.5435030519938
20
8.00447096882547
30
0
41
1
10
27.5634428368816
20
7.94039163806588
30
0
41
1
10
27.5660538996914
20
7.9027863990855
30
0
41
1
10
27.5604119670373
20
7.83760958391446
30
0
41
1
10
27.5528822854237
20
7.80887503746865
30
0
41
1
10
27.5421174856714
20
7.78289074845779
30
0
0
SPLINE
5
93
100
AcDbEntity
8
1
62
256
6
ByLayer
370
-1
48
1
60
0
100
AcDbSpline
70
4
71
3
72
18
73
14
40
0
40
0
40
0
40
0
40
0.0250986123280288
40
0.0250986123280288
40
0.128644319228979
40
0.128644319228979
40
0.261874229016367
40
0.261874229016367
40
0.456619428569319
40
0.456619428569319
40
0.778146641389489
40
0.778146641389489
40
1
40
1
40
1
40
1
41
1
10
26.1691988187941
20
5.97996824527544
30
0
41
1
10
26.173411860344
20
5.97753584460247
30
0
41
1
10
26.1776899329799
20
5.97520765052738
30
0
41
1
10
26.1997199524859
20
5.96392564934797
30
0
41
1
10
26.2184231362655
20
5.95673518978748
30
0
41
1
10
26.2600334645531
20
5.94518679579303
30
0
41
1
10
26.2832686896198
20
5.94196571748239
30
0
41
1
10
26.3362050129324
20
5.94025022619766
30
0
41
1
10
26.3650527741301
20
5.94439127027198
30
0
41
1
10
26.432420491034
20
5.96276931057005
30
0
41
1
10
26.4668014703211
20
5.9819609309163
30
0
41
1
10
26.5140011039086
20
6.01947898271726
30
0
41
1
10
26.5304430968258
20
6.03655139720416
30
0
41
1
10
26.5442814634222
20
6.05458806029978
30
0
0
SPLINE
5
94
100
AcDbEntity
8
1
62
256
6
ByLayer
370
-1
48
1
60
0
100
AcDbSpline
70
4
71
3
72
8
73
4
40
0
40
0
40
0
40
0
40
1
40
1
40
1
40
1
41
1
10
27.7920348410433
20
6.77497880875157
30
0
41
1
10
27.7780206491541
20
6.77313462720164
30
0
41
1
10
27.7637891567653
20
6.77030981951836
30
0
41
1
10
27.7493308255098
20
6.76631956556227
30
0
0
SPLINE
5
95
100
AcDbEntity
8
1
62
256
6
ByLayer
370
-1
48
1
60
0
100
AcDbSpline
70
4
71
3
72
8
73
4
40
0
40
0
40
0
40
0
40
1
40
1
40
1
40
1
41
1
10
26.0601330351041
20
6.38342163544448
30
0
41
1
10
26.0563595307699
20
6.36890522630284
30
0
41
1
10
26.05169013979
20
6.35516798851873
30
0
41
1
10
26.0462801519168
20
6.34210925155421
30
0
0
SPLINE
5
96
100
AcDbEntity
8
1
62
256
6
ByLayer
370
-1
48
1
60
0
100
AcDbSpline
70
4
71
3
72
16
73
12
40
0
40
0
40
0
40
0
40
0.417804919380095
40
0.417804919380095
40
0.619437241835954
40
0.619437241835954
40
0.788375803929721
40
0.788375803929721
40
0.906080805444904
40
0.906080805444904
40
1
40
1
40
1
40
1
41
1
10
26.0462801519168
20
7.78289074845779
30
0
41
1
10
26.030011371954
20
7.82216065501731
30
0
41
1
10
26.0207965730684
20
7.86805728605503
30
0
41
1
10
26.0275197720512
20
7.9443094648172
30
0
41
1
10
26.0330832250705
20
7.97089112706311
30
0
41
1
10
26.0524035002322
20
8.02101186969418
30
0
41
1
10
26.064930379608
20
8.04483407397456
30
0
41
1
10
26.094109216093
20
8.08378278058737
30
0
41
1
10
26.1086952050148
20
8.09968228195282
30
0
41
1
10
26.1386895383473
20
8.12540731066917
30
0
41
1
10
26.1535889220724
20
8.13601937666226
30
0
41
1
10
26.1691988187941
20
8.14503175473652
30
0
0
SPLINE
5
97
100
AcDbEntity
8
1
62
256
6
ByLayer
370
-1
48
1
60
0
100
AcDbSpline
70
4
71
3
72
18
73
14
40
0
40
0
40
0
40
0
40
0.208886483239681
40
0.208886483239681
40
0.421198226784352
40
0.421198226784352
40
0.600960032344686
40
0.600960032344686
40
0.761871479604314
40
0.761871479604314
40
0.937780558809819
40
0.937780558809819
40
1
40
1
40
1
40
1
41
1
10
26.5731325957684
20
8.03775879901124
30
0
41
1
10
26.5957681701933
20
8.01545936722209
30
0
41
1
10
26.6227019620301
20
7.99580316001979
30
0
41
1
10
26.6831274967766
20
7.96543491334535
30
0
41
1
10
26.7178102496338
20
7.95446928997913
30
0
41
1
10
26.783489776782
20
7.94587200253022
30
0
41
1
10
26.815153837724
20
7.94639397774108
30
0
41
1
10
26.8720390125135
20
7.95570800008738
30
0
41
1
10
26.8982859201573
20
7.96369593290402
30
0
41
1
10
26.9484806041057
20
7.98603063493246
30
0
41
1
10
26.9726018675726
20
8.00111738213124
30
0
41
1
10
27.001246655543
20
8.0245634456455
30
0
41
1
10
27.0084368515809
20
8.03103200871135
30
0
41
1
10
27.0152650418197
20
8.03775879901121
30
0
0
SPLINE
5
98
100
AcDbEntity
8
1
62
256
6
ByLayer
370
-1
48
1
60
0
100
AcDbSpline
70
4
71
3
72
8
73
4
40
0
40
0
40
0
40
0
40
1
40
1
40
1
40
1
41
1
10
25.7963627965449
20
7.3500211912604
30
0
41
1
10
25.8103769884341
20
7.35186537281032
30
0
41
1
10
25.8246084808229
20
7.35469018049361
30
0
41
1
10
25.8390668120784
20
7.3586804344497
30
0
0
SPLINE
5
99
100
AcDbEntity
8
1
62
256
6
ByLayer
370
-1
48
1
60
0
100
AcDbSpline
70
4
71
3
72
8
73
4
40
0
40
0
40
0
40
0
40
1
40
1
40
1
40
1
41
1
10
27.5421174856714
20
7.78289074845779
30
0
41
1
10
27.5367074977982
20
7.76983201149326
30
0
41
1
10
27.5320381068183
20
7.75609477370915
30
0
41
1
10
27.5282646024841
20
7.74157836456752
30
0
0
LINE
5
4C
100
AcDbEntity
8
81
62
256
6
ByLayer
370
-1
48
1
60
0
100
AcDbLine
10
30.794199
20
11.0625
30
0
11
40.794199
21
11.0625
31
0
39
0
210
0
220
0
230
1
0
LINE
5
4D
100
AcDbEntity
8
80
62
256
6
ByLayer
370
-1
48
1
60
0
100
AcDbLine
10
0
20
0
30
0
11
-5
21
0
31
0
39
0
210
0
220
0
230
1
0
LINE
5
4E
100
AcDbEntity
8
1
62
256
6
ByLayer
370
-1
48
1
60
0
100
AcDbLine
10
21.794199
20
3.6625
30
0
11
21.644199
21
3.6625
31
0
39
0
210
0
220
0
230
1
0
LINE
5
50
100
AcDbEntity
8
1
62
256
6
ByLayer
370
-1
48
1
60
0
100
AcDbLine
10
23.966671
20
10.4625
30
0
11
21.794199
21
10.4625
31
0
39
0
210
0
220
0
230
1
0
LINE
5
51
100
AcDbEntity
8
1
62
256
6
ByLayer
370
-1
48
1
60
0
100
AcDbLine
10
21.644199
20
3.6625
30
0
11
13.740936
21
3.6625
31
0
39
0
210
0
220
0
230
1
0
LINE
5
52
100
AcDbEntity
8
1
62
256
6
ByLayer
370
-1
48
1
60
0
100
AcDbLine
10
23.966671
20
3.6625
30
0
11
24.094199
21
3.6625
31
0
39
0
210
0
220
0
230
1
0
LINE
5
53
100
AcDbEntity
8
1
62
256
6
ByLayer
370
-1
48
1
60
0
100
AcDbLine
10
4.907477
20
-1.4375
30
0
11
0
21
-9.9375
31
0
39
0
210
0
220
0
230
1
0
LINE
5
54
100
AcDbEntity
8
1
62
256
6
ByLayer
370
-1
48
1
60
0
100
AcDbLine
10
21.644199
20
10.4625
30
0
11
0.525
21
10.4625
31
0
39
0
210
0
220
0
230
1
0
LINE
5
55
100
AcDbEntity
8
1
62
256
6
ByLayer
370
-1
48
1
60
0
100
AcDbLine
10
24.687102
20
10.4625
30
0
11
24.094199
21
10.4625
31
0
39
0
210
0
220
0
230
1
0
LINE
5
56
100
AcDbEntity
8
1
62
256
6
ByLayer
370
-1
48
1
60
0
100
AcDbLine
10
21.794199
20
10.4625
30
0
11
21.794199
21
3.6625
31
0
39
0
210
0
220
0
230
1
0
LINE
5
57
100
AcDbEntity
8
1
62
256
6
ByLayer
370
-1
48
1
60
0
100
AcDbLine
10
24.094199
20
10.4625
30
0
11
24.094199
21
10.013776
31
0
39
0
210
0
220
0
230
1
0
LINE
5
58
100
AcDbEntity
8
1
62
256
6
ByLayer
370
-1
48
1
60
0
100
AcDbLine
10
24.687102
20
3.6625
30
0
11
24.094199
21
3.6625
31
0
39
0
210
0
220
0
230
1
0
LINE
5
59
100
AcDbEntity
8
1
62
256
6
ByLayer
370
-1
48
1
60
0
100
AcDbLine
10
0.525
20
10.4625
30
0
11
0
21
9.9375
31
0
39
0
210
0
220
0
230
1
0
LINE
5
5A
100
AcDbEntity
8
1
62
256
6
ByLayer
370
-1
48
1
60
0
100
AcDbLine
10
23.966671
20
3.6625
30
0
11
21.794199
21
3.6625
31
0
39
0
210
0
220
0
230
1
0
LINE
5
5B
100
AcDbEntity
8
1
62
256
6
ByLayer
370
-1
48
1
60
0
100
AcDbLine
10
21.794199
20
10.4625
30
0
11
21.644199
21
10.4625
31
0
39
0
210
0
220
0
230
1
0
LINE
5
5C
100
AcDbEntity
8
1
62
256
6
ByLayer
370
-1
48
1
60
0
100
AcDbLine
10
23.966671
20
10.4625
30
0
11
24.094199
21
10.4625
31
0
39
0
210
0
220
0
230
1
0
LINE
5
5D
100
AcDbEntity
8
1
62
256
6
ByLayer
370
-1
48
1
60
0
100
AcDbLine
10
23.966671
20
10.4625
30
0
11
23.966671
21
9.891832
31
0
39
0
210
0
220
0
230
1
0
LINE
5
5E
100
AcDbEntity
8
1
62
256
6
ByLayer
370
-1
48
1
60
0
100
AcDbLine
10
24.094199
20
4.111224
30
0
11
24.094199
21
3.6625
31
0
39
0
210
0
220
0
230
1
0
LINE
5
5F
100
AcDbEntity
8
1
62
256
6
ByLayer
370
-1
48
1
60
0
100
AcDbLine
10
0
20
-9.9375
30
0
11
0
21
9.9375
31
0
39
0
210
0
220
0
230
1
0
LINE
5
60
100
AcDbEntity
8
1
62
256
6
ByLayer
370
-1
48
1
60
0
100
AcDbLine
10
21.644199
20
10.4625
30
0
11
21.644199
21
3.6625
31
0
39
0
210
0
220
0
230
1
0
LINE
5
61
100
AcDbEntity
8
1
62
256
6
ByLayer
370
-1
48
1
60
0
100
AcDbLine
10
23.966671
20
4.233168
30
0
11
23.966671
21
3.6625
31
0
39
0
210
0
220
0
230
1
0
LINE
5
62
100
AcDbEntity
8
SK1
62
256
6
ByLayer
370
-1
48
1
60
0
100
AcDbLine
10
0
20
9.9375
30
0
11
-95.555801
21
9.9375
31
0
39
0
210
0
220
0
230
1
0
LINE
5
64
100
AcDbEntity
8
SK1
62
256
6
ByLayer
370
-1
48
1
60
0
100
AcDbLine
10
-95.555801
20
-9.9375
30
0
11
0
21
-9.9375
31
0
39
0
210
0
220
0
230
1
0
LINE
5
65
100
AcDbEntity
8
SK1
62
256
6
ByLayer
370
-1
48
1
60
0
100
AcDbLine
10
0
20
-9.9375
30
0
11
0
21
9.9375
31
0
39
0
210
0
220
0
230
1
0
LINE
5
66
100
AcDbEntity
8
SK1
62
256
6
ByLayer
370
-1
48
1
60
0
100
AcDbLine
10
-95.555801
20
9.9375
30
0
11
-95.555801
21
-9.9375
31
0
39
0
210
0
220
0
230
1
0
MTEXT
5
9A
100
AcDbEntity
8
SK6
62
256
6
ByLayer
370
-1
48
1
60
0
100
AcDbMText
10
-52.054862
20
-18.412993
30
0
210
0
220
0
230
1
1
\W00.758;\fsimplex.shx,bigfont.shx;SRDCR 2020K 08-A 
40
3.5
41
0
44
1.084337
50
0
71
7
72
5
7
DEFAULT
0
DIMENSION
5
CD
100
AcDbEntity
8
SK2
62
256
6
ByLayer
370
-3
48
1
60
0
100
AcDbDimension
2
DimnDraft3D1
10
-105.305801
20
9.9375
30
0
11
-105.305801
21
-2.628947
31
0
70
32
71
5
72
1
41
1
210
0
220
0
230
1
3
Standard
100
AcDbAlignedDimension
13
-97.555801
23
-9.9375
33
0
14
-97.555801
24
9.9375
34
0
50
90
100
AcDbRotatedDimension
1001
ACAD
1000
DSTYLE
1002
{
1070
    74
1070
     0
1070
   279
1070
     0
1070
   172
1070
     1
1070
   173
1070
     1
1070
   340
1005
9B
1070
    77
1070
     1
1070
    73
1070
     0
1070
   171
1070
     3
1070
   274
1070
     4
1070
   177
1070
     2
1070
   176
1070
     2
1070
   178
1070
     7
1070
    78
1070
     8
1070
    41
1041
3.175
1070
   147
1041
2.25
1070
    42
1041
2.0
1070
    44
1041
2.0
1070
   140
1041
4.5
1070
   343
1005
CE
1070
   344
1005
CE
1002
}
0
DIMENSION
5
E2
100
AcDbEntity
8
2
62
256
6
ByLayer
370
-3
48
1
60
0
100
AcDbDimension
2
DimnDraft3D2
10
45.044199
20
11.0625
30
0
11
45.044199
21
-6.252632
31
0
70
32
71
5
72
1
41
1
210
0
220
0
230
1
3
Standard
100
AcDbAlignedDimension
13
2
23
-9.9375
33
0
14
32.794199
24
11.0625
34
0
50
90
100
AcDbRotatedDimension
1001
ACAD
1000
DSTYLE
1002
{
1070
    74
1070
     0
1070
   279
1070
     0
1070
   172
1070
     1
1070
   173
1070
     1
1070
   340
1005
9B
1070
    77
1070
     1
1070
    73
1070
     0
1070
   171
1070
     3
1070
   274
1070
     4
1070
   177
1070
     2
1070
   176
1070
     2
1070
   178
1070
     7
1070
    78
1070
     8
1070
    41
1041
3.175
1070
   147
1041
2.25
1070
    42
1041
2.0
1070
    44
1041
2.0
1070
   140
1041
4.5
1070
   343
1005
CE
1070
   344
1005
CE
1002
}
0
DIMENSION
5
F0
100
AcDbEntity
8
2
62
256
6
ByLayer
370
-3
48
1
60
0
100
AcDbDimension
2
DimnDraft3D3
10
10.794199
20
-22.1875
30
0
11
18.165251
21
-22.1875
31
0
70
32
71
5
72
1
41
1
210
0
220
0
230
1
3
Standard
100
AcDbAlignedDimension
13
30.794199
23
1.0625
33
0
14
10.794199
24
1.0625
34
0
50
0
100
AcDbRotatedDimension
1001
ACAD
1000
DSTYLE
1002
{
1070
   279
1070
     0
1070
   172
1070
     1
1070
   173
1070
     1
1070
   340
1005
9B
1070
    77
1070
     1
1070
    73
1070
     0
1070
   171
1070
     3
1070
   274
1070
     4
1070
   177
1070
     2
1070
   176
1070
     2
1070
   178
1070
     7
1070
    78
1070
     8
1070
    41
1041
3.175
1070
   147
1041
2.25
1070
    42
1041
2.0
1070
    44
1041
2.0
1070
   140
1041
4.5
1070
   343
1005
CE
1070
   344
1005
CE
1002
}
0
DIMENSION
5
FE
100
AcDbEntity
8
SK2
62
256
6
ByLayer
370
-3
48
1
60
0
100
AcDbDimension
2
DimnDraft3D4
10
-95.555801
20
30.8125
30
0
11
-36.099222
21
30.8125
31
0
70
32
71
5
72
1
41
1
210
0
220
0
230
1
3
Standard
100
AcDbAlignedDimension
13
30.794199
23
13.0625
33
0
14
-95.555801
24
11.9375
34
0
50
0
100
AcDbRotatedDimension
1001
ACAD
1000
DSTYLE
1002
{
1070
   279
1070
     0
1070
   172
1070
     1
1070
   173
1070
     1
1070
   340
1005
9B
1070
    77
1070
     1
1070
    73
1070
     0
1070
   171
1070
     3
1070
   274
1070
     4
1070
   177
1070
     2
1070
   176
1070
     2
1070
   178
1070
     7
1070
    78
1070
     8
1070
    41
1041
3.175
1070
   147
1041
2.25
1070
    42
1041
2.0
1070
    44
1041
2.0
1070
   140
1041
4.5
1070
   343
1005
CE
1070
   344
1005
CE
1002
}
0
ENDSEC
0
SECTION
2
OBJECTS
0
DICTIONARY
5
12e
330
0
100
AcDbDictionary
280
0
281
1
3
ACAD_GROUP
350
12f
3
ACAD_MLINESTYLE
350
130
0
DICTIONARY
5
12f
330
0
100
AcDbDictionary
280
0
281
1
0
DICTIONARY
5
130
330
0
100
AcDbDictionary
280
0
281
1
3
Standard
350
18
0
MLINESTYLE
5
18
330
130
100
AcDbMlineStyle
2
Standard
70
0
3

62
256
51
90
52
90
71
2
49
-0.5
62
256
6
ByLayer
49
0.5
62
256
6
ByLayer
0
RASTERVARIABLES
5
11d
330

100
AcDbRasterVariables
90
0
70
1
71
1
72
1
0
ENDSEC
0
EOF
