0
SECTION
2
HEADER
9
$ACADVER
1
AC1015
9
$DWGCODEPAGE
3
ANSI_1252
9
$HANDSEED
5
132
9
$ANGBASE
50
0
9
$ANGDIR
70
0
9
$ATTMODE
70
1
9
$AUNITS
70
0
9
$AUPREC
70
0
9
$CECOLOR
62
256
9
$CELTSCALE
40
1
9
$CELTYPE
6
ByLayer
9
$CELWEIGHT
370
-1
9
$CLAYER
8
0
9
$CMLJUST
70
0
9
$CMLSCALE
40
1
9
$CMLSTYLE
2
Standard
9
$DIMSTYLE
2
Standard
9
$TEXTSIZE
40
0.2
9
$TEXTSTYLE
7
Standard
9
$LUNITS
70
2
9
$LUPREC
70
4
9
$EXTNAMES
290
1
9
$INSUNITS
70
4
9
$LTSCALE
40
1
9
$LWDISPLAY
290
0
9
$PDMODE
70
0
9
$PDSIZE
40
0
9
$PLINEGEN
70
0
0
ENDSEC
0
SECTION
2
CLASSES
0
CLASS
1
RASTERVARIABLES
2
AcDbRasterVariables
3
ISM
90
0
280
0
281
0
0
ENDSEC
0
SECTION
2
TABLES
0
TABLE
2
VPORT
5
128
100
AcDbSymbolTable
0
VPORT
5
1
100
AcDbSymbolTableRecord
100
AcDbViewportTableRecord
2
*Active
70
0
10
0
20
0
11
1
21
1
12
-1
22
1
13
0
23
0
14
0.5
24
0.5
15
10
25
10
16
0
26
0
36
1
17
0
27
0
37
0
0
ENDTAB
0
TABLE
2
LTYPE
5
129
100
AcDbSymbolTable
0
LTYPE
5
14
100
AcDbSymbolTableRecord
100
AcDbLinetypeTableRecord
70
0
2
ByBlock
3

72
65
73
0
40
0
0
LTYPE
5
15
100
AcDbSymbolTableRecord
100
AcDbLinetypeTableRecord
70
0
2
ByLayer
3

72
65
73
0
40
0
0
LTYPE
5
16
100
AcDbSymbolTableRecord
100
AcDbLinetypeTableRecord
70
0
2
CONTINUOUS
3
Solid line
72
65
73
0
40
0
0
LTYPE
5
3B
100
AcDbSymbolTableRecord
100
AcDbLinetypeTableRecord
70
0
2
DASHED
3
__ __ __ __ __ __ __ __ __
72
65
73
2
40
25.72
49
12.86
74
0
49
-12.86
74
0
0
LTYPE
5
3C
100
AcDbSymbolTableRecord
100
AcDbLinetypeTableRecord
70
0
2
HIDDEN
3
_ _ _ _ _ _ _ _ _ _ _ _ _ _ _
72
65
73
2
40
0.5
49
0.25
74
0
49
-0.25
74
0
0
LTYPE
5
3D
100
AcDbSymbolTableRecord
100
AcDbLinetypeTableRecord
70
0
2
PHANTOM
3
____ _ _ ____ _ _ _____ _ _ ____
72
65
73
6
40
50.5
49
18
74
0
49
-6.5
74
0
49
6.5
74
0
49
-6.5
74
0
49
6.5
74
0
49
-6.5
74
0
0
LTYPE
5
3E
100
AcDbSymbolTableRecord
100
AcDbLinetypeTableRecord
70
0
2
CENTER
3
____ _ ____ _ ____ _ ____
72
65
73
4
40
47.5
49
22
74
0
49
-8.5
74
0
49
8.5
74
0
49
-8.5
74
0
0
LTYPE
5
3F
100
AcDbSymbolTableRecord
100
AcDbLinetypeTableRecord
70
0
2
DOT
3
.........................
72
65
73
2
40
10
49
0
74
0
49
-10
74
0
0
LTYPE
5
40
100
AcDbSymbolTableRecord
100
AcDbLinetypeTableRecord
70
0
2
DASHDOT
3
_._._._._._._._._._._._._._._._.
72
65
73
4
40
70
49
31
74
0
49
-13
74
0
49
13
74
0
49
-13
74
0
0
ENDTAB
0
TABLE
2
LAYER
5
12a
100
AcDbSymbolTable
0
LAYER
5
10
100
AcDbSymbolTableRecord
100
AcDbLayerTableRecord
2
0
70
0
62
7
6
CONTINUOUS
290
1
370
-3
390
0
0
LAYER
5
44
100
AcDbSymbolTableRecord
100
AcDbLayerTableRecord
2
80
70
0
62
-6
6
CONTINUOUS
290
1
370
-3
390
0
0
LAYER
5
48
100
AcDbSymbolTableRecord
100
AcDbLayerTableRecord
2
2
70
0
62
7
6
CONTINUOUS
290
1
370
-3
390
0
0
LAYER
5
4A
100
AcDbSymbolTableRecord
100
AcDbLayerTableRecord
2
81
70
0
62
-3
6
CONTINUOUS
290
1
370
-3
390
0
0
LAYER
5
4F
100
AcDbSymbolTableRecord
100
AcDbLayerTableRecord
2
1
70
0
62
4
6
CONTINUOUS
290
1
370
-3
390
0
0
LAYER
5
115
100
AcDbSymbolTableRecord
100
AcDbLayerTableRecord
2
SK2
70
0
62
7
6
CONTINUOUS
290
1
370
-3
390
0
0
LAYER
5
116
100
AcDbSymbolTableRecord
100
AcDbLayerTableRecord
2
SK1
70
0
62
4
6
CONTINUOUS
290
1
370
-3
390
0
0
LAYER
5
117
100
AcDbSymbolTableRecord
100
AcDbLayerTableRecord
2
SK6
70
0
62
5
6
CONTINUOUS
290
1
370
-3
390
0
0
ENDTAB
0
TABLE
2
STYLE
5
12b
100
AcDbSymbolTable
0
STYLE
5
11
100
AcDbSymbolTableRecord
100
AcDbTextStyleTableRecord
2
Standard
3
txt
70
0
71
0
40
0
41
1
42
0
50
0
0
STYLE
5
92
100
AcDbSymbolTableRecord
100
AcDbTextStyleTableRecord
2
DEFAULT
3
simplex.shx
70
0
71
0
40
0
41
1
42
0
50
0
0
STYLE
5
B5
100
AcDbSymbolTableRecord
100
AcDbTextStyleTableRecord
2
DWGDirectTextStyle
3
SIMPLEX
70
0
71
0
40
0
41
1
42
0
50
0
0
ENDTAB
0
TABLE
2
DIMSTYLE
5
12c
100
AcDbSymbolTable
100
AcDbDimStyleTable
0
DIMSTYLE
105
27
100
AcDbSymbolTableRecord
100
AcDbDimStyleTableRecord
2
Standard
70
0
3
<>
41
0.18
42
0.0625
44
0.18
140
0.18
147
0.09
73
0
74
0
77
1
271
2
275
0
278
52
280
0
340
11
0
ENDTAB
0
TABLE
2
VIEW
5
12d
100
AcDbSymbolTable
0
ENDTAB
0
TABLE
2
UCS
5
12e
100
AcDbSymbolTable
0
ENDTAB
0
TABLE
2
APPID
5
12f
100
AcDbSymbolTable
0
APPID
5
12
100
AcDbSymbolTableRecord
100
AcDbRegAppTableRecord
2
ACAD
70
0
0
ENDTAB
0
TABLE
2
BLOCK_RECORD
5
130
100
AcDbSymbolTable
0
BLOCK_RECORD
5
1F
100
AcDbSymbolTableRecord
100
AcDbBlockTableRecord
2
*Model_Space
340
0
70
0
0
BLOCK_RECORD
5
1B
100
AcDbSymbolTableRecord
100
AcDbBlockTableRecord
2
*Paper_Space
340
0
70
0
0
BLOCK_RECORD
5
23
100
AcDbSymbolTableRecord
100
AcDbBlockTableRecord
2
*Paper_Space0
340
0
70
0
0
BLOCK_RECORD
5
B7
100
AcDbSymbolTableRecord
100
AcDbBlockTableRecord
2
DimnDraft3D1
340
0
70
0
0
BLOCK_RECORD
5
C5
100
AcDbSymbolTableRecord
100
AcDbBlockTableRecord
2
_CLOSED
340
0
70
0
0
BLOCK_RECORD
5
CC
100
AcDbSymbolTableRecord
100
AcDbBlockTableRecord
2
DimnDraft3D2
340
0
70
0
0
BLOCK_RECORD
5
DA
100
AcDbSymbolTableRecord
100
AcDbBlockTableRecord
2
DimnDraft3D3
340
0
70
0
0
BLOCK_RECORD
5
E8
100
AcDbSymbolTableRecord
100
AcDbBlockTableRecord
2
DimnDraft3D4
340
0
70
0
0
ENDTAB
0
ENDSEC
0
SECTION
2
BLOCKS
0
BLOCK
5
20
100
AcDbEntity
8
0
100
AcDbBlockBegin
2
*Model_Space
70
0
10
0
20
0
30
0
3
*Model_Space
0
ENDBLK
5
21
100
AcDbEntity
8
0
100
AcDbBlockEnd
0
BLOCK
5
1C
100
AcDbEntity
8
0
100
AcDbBlockBegin
2
*Paper_Space
70
0
10
0
20
0
30
0
3
*Paper_Space
0
ENDBLK
5
1D
100
AcDbEntity
8
0
100
AcDbBlockEnd
0
BLOCK
5
24
100
AcDbEntity
8
0
100
AcDbBlockBegin
2
*Paper_Space0
70
0
10
0
20
0
30
0
3
*Paper_Space0
0
ENDBLK
5
25
100
AcDbEntity
8
0
100
AcDbBlockEnd
0
BLOCK
5
C2
100
AcDbEntity
8
0
100
AcDbBlockBegin
2
DimnDraft3D1
70
0
10
0
20
0
30
0
3
DimnDraft3D1
0
MTEXT
5
B8
100
AcDbEntity
8
SK2
62
256
6
ByLayer
370
-1
48
1
60
0
100
AcDbMText
10
-104.912213
20
-1.503947
30
0
210
0
220
0
230
1
1
\W01.000;\fsimplex.shx,bigfont.shx;20 
40
4.5
41
0
44
1.084337
50
90
71
7
72
5
7
DEFAULT
0
LINE
5
B9
100
AcDbEntity
8
SK2
62
256
6
ByLayer
370
-1
48
1
60
0
100
AcDbLine
10
-96.037213
20
-9.9375
30
0
11
-105.787213
21
-9.9375
31
0
39
0
210
0
220
0
230
1
0
LINE
5
BA
100
AcDbEntity
8
SK2
62
256
6
ByLayer
370
-1
48
1
60
0
100
AcDbLine
10
-96.037213
20
9.9375
30
0
11
-105.787213
21
9.9375
31
0
39
0
210
0
220
0
230
1
0
LINE
5
BB
100
AcDbEntity
8
SK2
62
256
6
ByLayer
370
-1
48
1
60
0
100
AcDbLine
10
-103.787213
20
-9.9375
30
0
11
-103.787213
21
9.9375
31
0
39
0
210
0
220
0
230
1
0
LINE
5
BC
100
AcDbEntity
8
SK2
62
256
6
ByLayer
370
-1
48
1
60
0
100
AcDbLine
10
-103.787213
20
-9.9375
30
0
11
-104.20521
21
-6.762502
31
0
39
0
210
0
220
0
230
1
0
LINE
5
BD
100
AcDbEntity
8
SK2
62
256
6
ByLayer
370
-1
48
1
60
0
100
AcDbLine
10
-103.787213
20
-9.9375
30
0
11
-103.369217
21
-6.762498
31
0
39
0
210
0
220
0
230
1
0
LINE
5
BE
100
AcDbEntity
8
SK2
62
256
6
ByLayer
370
-1
48
1
60
0
100
AcDbLine
10
-104.20521
20
-6.762502
30
0
11
-103.369217
21
-6.762498
31
0
39
0
210
0
220
0
230
1
0
LINE
5
BF
100
AcDbEntity
8
SK2
62
256
6
ByLayer
370
-1
48
1
60
0
100
AcDbLine
10
-103.787213
20
9.9375
30
0
11
-103.369217
21
6.762502
31
0
39
0
210
0
220
0
230
1
0
LINE
5
C0
100
AcDbEntity
8
SK2
62
256
6
ByLayer
370
-1
48
1
60
0
100
AcDbLine
10
-103.787213
20
9.9375
30
0
11
-104.20521
21
6.762498
31
0
39
0
210
0
220
0
230
1
0
LINE
5
C1
100
AcDbEntity
8
SK2
62
256
6
ByLayer
370
-1
48
1
60
0
100
AcDbLine
10
-103.369217
20
6.762502
30
0
11
-104.20521
21
6.762498
31
0
39
0
210
0
220
0
230
1
0
ENDBLK
5
C3
100
AcDbEntity
8
0
100
AcDbBlockEnd
0
BLOCK
5
C6
100
AcDbEntity
8
0
100
AcDbBlockBegin
2
_CLOSED
70
0
10
0
20
0
30
0
3
_CLOSED
0
LINE
5
C8
100
AcDbEntity
8
0
62
256
6
ByLayer
370
-2
48
1
60
0
100
AcDbLine
10
-1
20
0.166667
30
0
11
0
21
0
31
0
39
0
210
0
220
0
230
1
0
LINE
5
C9
100
AcDbEntity
8
0
62
256
6
ByLayer
370
-2
48
1
60
0
100
AcDbLine
10
0
20
0
30
0
11
-1
21
-0.166667
31
0
39
0
210
0
220
0
230
1
0
LINE
5
CA
100
AcDbEntity
8
0
62
256
6
ByLayer
370
-2
48
1
60
0
100
AcDbLine
10
-1
20
0.166667
30
0
11
-1
21
-0.166667
31
0
39
0
210
0
220
0
230
1
0
LINE
5
CB
100
AcDbEntity
8
0
62
256
6
ByLayer
370
-2
48
1
60
0
100
AcDbLine
10
0
20
0
30
0
11
-1
21
0
31
0
39
0
210
0
220
0
230
1
0
ENDBLK
5
C7
100
AcDbEntity
8
0
100
AcDbBlockEnd
0
BLOCK
5
D7
100
AcDbEntity
8
0
100
AcDbBlockBegin
2
DimnDraft3D2
70
0
10
0
20
0
30
0
3
DimnDraft3D2
0
MTEXT
5
CD
100
AcDbEntity
8
2
62
256
6
ByLayer
370
-1
48
1
60
0
100
AcDbMText
10
45.437787
20
-5.127632
30
0
210
0
220
0
230
1
1
\W01.000;\fsimplex.shx,bigfont.shx;20.65 
40
4.5
41
0
44
1.084337
50
90
71
7
72
5
7
DEFAULT
0
LINE
5
CE
100
AcDbEntity
8
2
62
256
6
ByLayer
370
-1
48
1
60
0
100
AcDbLine
10
2
20
-9.9375
30
0
11
48.562787
21
-9.9375
31
0
39
0
210
0
220
0
230
1
0
LINE
5
CF
100
AcDbEntity
8
2
62
256
6
ByLayer
370
-1
48
1
60
0
100
AcDbLine
10
34.312787
20
11.0625
30
0
11
48.562787
21
11.0625
31
0
39
0
210
0
220
0
230
1
0
LINE
5
D0
100
AcDbEntity
8
2
62
256
6
ByLayer
370
-1
48
1
60
0
100
AcDbLine
10
46.562787
20
-21.1875
30
0
11
46.562787
21
22.3125
31
0
39
0
210
0
220
0
230
1
0
LINE
5
D1
100
AcDbEntity
8
2
62
256
6
ByLayer
370
-1
48
1
60
0
100
AcDbLine
10
46.562787
20
-9.9375
30
0
11
46.980783
21
-13.112498
31
0
39
0
210
0
220
0
230
1
0
LINE
5
D2
100
AcDbEntity
8
2
62
256
6
ByLayer
370
-1
48
1
60
0
100
AcDbLine
10
46.562787
20
-9.9375
30
0
11
46.14479
21
-13.112502
31
0
39
0
210
0
220
0
230
1
0
LINE
5
D3
100
AcDbEntity
8
2
62
256
6
ByLayer
370
-1
48
1
60
0
100
AcDbLine
10
46.980783
20
-13.112498
30
0
11
46.14479
21
-13.112502
31
0
39
0
210
0
220
0
230
1
0
LINE
5
D4
100
AcDbEntity
8
2
62
256
6
ByLayer
370
-1
48
1
60
0
100
AcDbLine
10
46.562787
20
11.0625
30
0
11
46.14479
21
14.237498
31
0
39
0
210
0
220
0
230
1
0
LINE
5
D5
100
AcDbEntity
8
2
62
256
6
ByLayer
370
-1
48
1
60
0
100
AcDbLine
10
46.562787
20
11.0625
30
0
11
46.980783
21
14.237502
31
0
39
0
210
0
220
0
230
1
0
LINE
5
D6
100
AcDbEntity
8
2
62
256
6
ByLayer
370
-1
48
1
60
0
100
AcDbLine
10
46.14479
20
14.237498
30
0
11
46.980783
21
14.237502
31
0
39
0
210
0
220
0
230
1
0
ENDBLK
5
D8
100
AcDbEntity
8
0
100
AcDbBlockEnd
0
BLOCK
5
E5
100
AcDbEntity
8
0
100
AcDbBlockBegin
2
DimnDraft3D3
70
0
10
0
20
0
30
0
3
DimnDraft3D3
0
MTEXT
5
DB
100
AcDbEntity
8
2
62
256
6
ByLayer
370
-1
48
1
60
0
100
AcDbMText
10
20.808839
20
-21.0625
30
0
210
0
220
0
230
1
1
\W01.000;\fsimplex.shx,bigfont.shx;20 
40
4.5
41
0
44
1.084337
50
0
71
7
72
5
7
DEFAULT
0
LINE
5
DC
100
AcDbEntity
8
2
62
256
6
ByLayer
370
-1
48
1
60
0
100
AcDbLine
10
32.312787
20
3.0625
30
0
11
32.312787
21
-24.1875
31
0
39
0
210
0
220
0
230
1
0
LINE
5
DD
100
AcDbEntity
8
2
62
256
6
ByLayer
370
-1
48
1
60
0
100
AcDbLine
10
12.312787
20
3.0625
30
0
11
12.312787
21
-24.1875
31
0
39
0
210
0
220
0
230
1
0
LINE
5
DE
100
AcDbEntity
8
2
62
256
6
ByLayer
370
-1
48
1
60
0
100
AcDbLine
10
32.312787
20
-22.1875
30
0
11
12.312787
21
-22.1875
31
0
39
0
210
0
220
0
230
1
0
LINE
5
DF
100
AcDbEntity
8
2
62
256
6
ByLayer
370
-1
48
1
60
0
100
AcDbLine
10
32.312787
20
-22.1875
30
0
11
29.137788
21
-22.605497
31
0
39
0
210
0
220
0
230
1
0
LINE
5
E0
100
AcDbEntity
8
2
62
256
6
ByLayer
370
-1
48
1
60
0
100
AcDbLine
10
32.312787
20
-22.1875
30
0
11
29.137785
21
-21.769503
31
0
39
0
210
0
220
0
230
1
0
LINE
5
E1
100
AcDbEntity
8
2
62
256
6
ByLayer
370
-1
48
1
60
0
100
AcDbLine
10
29.137788
20
-22.605497
30
0
11
29.137785
21
-21.769503
31
0
39
0
210
0
220
0
230
1
0
LINE
5
E2
100
AcDbEntity
8
2
62
256
6
ByLayer
370
-1
48
1
60
0
100
AcDbLine
10
12.312787
20
-22.1875
30
0
11
15.487785
21
-21.769503
31
0
39
0
210
0
220
0
230
1
0
LINE
5
E3
100
AcDbEntity
8
2
62
256
6
ByLayer
370
-1
48
1
60
0
100
AcDbLine
10
12.312787
20
-22.1875
30
0
11
15.487788
21
-22.605497
31
0
39
0
210
0
220
0
230
1
0
LINE
5
E4
100
AcDbEntity
8
2
62
256
6
ByLayer
370
-1
48
1
60
0
100
AcDbLine
10
15.487785
20
-21.769503
30
0
11
15.487788
21
-22.605497
31
0
39
0
210
0
220
0
230
1
0
ENDBLK
5
E6
100
AcDbEntity
8
0
100
AcDbBlockEnd
0
BLOCK
5
F3
100
AcDbEntity
8
0
100
AcDbBlockBegin
2
DimnDraft3D4
70
0
10
0
20
0
30
0
3
DimnDraft3D4
0
MTEXT
5
E9
100
AcDbEntity
8
SK2
62
256
6
ByLayer
370
-1
48
1
60
0
100
AcDbMText
10
-33.455634
20
31.9375
30
0
210
0
220
0
230
1
1
\W01.000;\fsimplex.shx,bigfont.shx;125 
40
4.5
41
0
44
1.084337
50
0
71
7
72
5
7
DEFAULT
0
LINE
5
EA
100
AcDbEntity
8
SK2
62
256
6
ByLayer
370
-1
48
1
60
0
100
AcDbLine
10
32.312787
20
13.0625
30
0
11
32.312787
21
32.8125
31
0
39
0
210
0
220
0
230
1
0
LINE
5
EB
100
AcDbEntity
8
SK2
62
256
6
ByLayer
370
-1
48
1
60
0
100
AcDbLine
10
-94.037213
20
11.9375
30
0
11
-94.037213
21
32.8125
31
0
39
0
210
0
220
0
230
1
0
LINE
5
EC
100
AcDbEntity
8
SK2
62
256
6
ByLayer
370
-1
48
1
60
0
100
AcDbLine
10
32.312787
20
30.8125
30
0
11
-94.037213
21
30.8125
31
0
39
0
210
0
220
0
230
1
0
LINE
5
ED
100
AcDbEntity
8
SK2
62
256
6
ByLayer
370
-1
48
1
60
0
100
AcDbLine
10
32.312787
20
30.8125
30
0
11
29.137788
21
30.394503
31
0
39
0
210
0
220
0
230
1
0
LINE
5
EE
100
AcDbEntity
8
SK2
62
256
6
ByLayer
370
-1
48
1
60
0
100
AcDbLine
10
32.312787
20
30.8125
30
0
11
29.137785
21
31.230497
31
0
39
0
210
0
220
0
230
1
0
LINE
5
EF
100
AcDbEntity
8
SK2
62
256
6
ByLayer
370
-1
48
1
60
0
100
AcDbLine
10
29.137788
20
30.394503
30
0
11
29.137785
21
31.230497
31
0
39
0
210
0
220
0
230
1
0
LINE
5
F0
100
AcDbEntity
8
SK2
62
256
6
ByLayer
370
-1
48
1
60
0
100
AcDbLine
10
-94.037213
20
30.8125
30
0
11
-90.862215
21
31.230497
31
0
39
0
210
0
220
0
230
1
0
LINE
5
F1
100
AcDbEntity
8
SK2
62
256
6
ByLayer
370
-1
48
1
60
0
100
AcDbLine
10
-94.037213
20
30.8125
30
0
11
-90.862212
21
30.394503
31
0
39
0
210
0
220
0
230
1
0
LINE
5
F2
100
AcDbEntity
8
SK2
62
256
6
ByLayer
370
-1
48
1
60
0
100
AcDbLine
10
-90.862215
20
31.230497
30
0
11
-90.862212
21
30.394503
31
0
39
0
210
0
220
0
230
1
0
ENDBLK
5
F4
100
AcDbEntity
8
0
100
AcDbBlockEnd
0
ENDSEC
0
SECTION
2
ENTITIES
0
ARC
5
67
100
AcDbEntity
8
1
62
256
6
ByLayer
370
-1
48
1
60
0
100
AcDbCircle
39
0
10
27.112787
20
8.0625
30
0
40
1
210
0
220
0
230
1
100
AcDbArc
50
135.904948
51
224.095013
0
ARC
5
68
100
AcDbEntity
8
1
62
256
6
ByLayer
370
-1
48
1
60
0
100
AcDbCircle
39
0
10
-14.809034
20
-4.6875
30
0
40
10.2
210
0
220
0
230
-1
100
AcDbArc
50
30
51
90
0
ARC
5
69
100
AcDbEntity
8
1
62
256
6
ByLayer
370
-1
48
1
60
0
100
AcDbCircle
39
0
10
29.312787
20
8.0625
30
0
40
0.747999999999999
210
0
220
0
230
1
100
AcDbArc
50
272.161847
51
330.024579
0
ARC
5
6A
100
AcDbEntity
8
1
62
256
6
ByLayer
370
-1
48
1
60
0
100
AcDbCircle
39
0
10
-29.312787
20
8.0625
30
0
40
1.03499999999999
210
0
220
0
230
-1
100
AcDbArc
50
180
51
239.950841
0
ARC
5
6D
100
AcDbEntity
8
1
62
256
6
ByLayer
370
-1
48
1
60
0
100
AcDbCircle
39
0
10
29.312787
20
8.0625
30
0
40
0.747999999999999
210
0
220
0
230
1
100
AcDbArc
50
29.975421
51
87.838153
0
ARC
5
6E
100
AcDbEntity
8
1
62
256
6
ByLayer
370
-1
48
1
60
0
100
AcDbCircle
39
0
10
-29.312787
20
8.0625
30
0
40
0.747999999999999
210
0
220
0
230
-1
100
AcDbArc
50
267.838153
51
272.161847
0
ARC
5
6F
100
AcDbEntity
8
1
62
256
6
ByLayer
370
-1
48
1
60
0
100
AcDbCircle
39
0
10
29.312787
20
8.0625
30
0
40
0.747999999999999
210
0
220
0
230
1
100
AcDbArc
50
150.024579
51
209.975421
0
ARC
5
70
100
AcDbEntity
8
1
62
256
6
ByLayer
370
-1
48
1
60
0
100
AcDbCircle
39
0
10
-29.312787
20
8.0625
30
0
40
1.03499999999999
210
0
220
0
230
-1
100
AcDbArc
50
59.950841
51
120.049159
0
ARC
5
71
100
AcDbEntity
8
1
62
256
6
ByLayer
370
-1
48
1
60
0
100
AcDbCircle
39
0
10
29.312787
20
8.0625
30
0
40
0.747999999999999
210
0
220
0
230
1
100
AcDbArc
50
209.975421
51
267.838153
0
ARC
5
73
100
AcDbEntity
8
1
62
256
6
ByLayer
370
-1
48
1
60
0
100
AcDbCircle
39
0
10
-29.312787
20
8.0625
30
0
40
0.747999999999999
210
0
220
0
230
-1
100
AcDbArc
50
29.975421
51
87.838153
0
ARC
5
74
100
AcDbEntity
8
1
62
256
6
ByLayer
370
-1
48
1
60
0
100
AcDbCircle
39
0
10
-29.312787
20
8.0625
30
0
40
1.03499999999999
210
0
220
0
230
-1
100
AcDbArc
50
239.950841
51
300.049159
0
ARC
5
76
100
AcDbEntity
8
1
62
256
6
ByLayer
370
-1
48
1
60
0
100
AcDbCircle
39
0
10
-29.312787
20
8.0625
30
0
40
1.03499999999999
210
0
220
0
230
-1
100
AcDbArc
50
300.049159
51
0
0
ARC
5
79
100
AcDbEntity
8
1
62
256
6
ByLayer
370
-1
48
1
60
0
100
AcDbCircle
39
0
10
29.312787
20
8.0625
30
0
40
0.747999999999999
210
0
220
0
230
1
100
AcDbArc
50
330.024579
51
29.975421
0
ARC
5
7A
100
AcDbEntity
8
1
62
256
6
ByLayer
370
-1
48
1
60
0
100
AcDbCircle
39
0
10
-29.312787
20
8.0625
30
0
40
1.03499999999999
210
0
220
0
230
-1
100
AcDbArc
50
120.049159
51
180
0
ARC
5
7B
100
AcDbEntity
8
1
62
256
6
ByLayer
370
-1
48
1
60
0
100
AcDbCircle
39
0
10
-29.312787
20
8.0625
30
0
40
0.747999999999999
210
0
220
0
230
-1
100
AcDbArc
50
87.838153
51
92.161847
0
ARC
5
7C
100
AcDbEntity
8
1
62
256
6
ByLayer
370
-1
48
1
60
0
100
AcDbCircle
39
0
10
-29.312787
20
8.0625
30
0
40
1.03499999999999
210
0
220
0
230
-1
100
AcDbArc
50
0
51
59.950841
0
CIRCLE
5
6B
100
AcDbEntity
8
1
62
256
6
ByLayer
370
-1
48
1
60
0
100
AcDbCircle
10
-29.312787
20
8.0625
30
0
40
1.72499999999999
39
0
210
0
220
0
230
-1
0
CIRCLE
5
6C
100
AcDbEntity
8
1
62
256
6
ByLayer
370
-1
48
1
60
0
100
AcDbCircle
10
-29.312787
20
8.0625
30
0
40
1.29999999999998
39
0
210
0
220
0
230
-1
0
CIRCLE
5
72
100
AcDbEntity
8
1
62
256
6
ByLayer
370
-1
48
1
60
0
100
AcDbCircle
10
-29.312787
20
8.0625
30
0
40
1.87499999999999
39
0
210
0
220
0
230
-1
0
CIRCLE
5
75
100
AcDbEntity
8
1
62
256
6
ByLayer
370
-1
48
1
60
0
100
AcDbCircle
10
-29.312787
20
8.0625
30
0
40
2.99999999999999
39
0
210
0
220
0
230
-1
0
CIRCLE
5
77
100
AcDbEntity
8
1
62
256
6
ByLayer
370
-1
48
1
60
0
100
AcDbCircle
10
-29.312787
20
8.0625
30
0
40
1.82475962939468
39
0
210
0
220
0
230
-1
0
CIRCLE
5
78
100
AcDbEntity
8
1
62
256
6
ByLayer
370
-1
48
1
60
0
100
AcDbCircle
10
-29.312787
20
8.0625
30
0
40
1.92255023212158
39
0
210
0
220
0
230
-1
0
POINT
5
41
100
AcDbEntity
8
SK2
62
256
6
ByLayer
370
-1
48
1
60
0
100
AcDbPoint
10
32.312787
20
9.305141
30
0
39
0
210
0
220
0
230
1
50
360
0
POINT
5
43
100
AcDbEntity
8
80
62
256
6
ByLayer
370
-1
48
1
60
0
100
AcDbPoint
10
0
20
0
30
0
39
0
210
0
220
0
230
1
50
360
0
POINT
5
45
100
AcDbEntity
8
SK2
62
256
6
ByLayer
370
-1
48
1
60
0
100
AcDbPoint
10
32.312787
20
9.305141
30
0
39
0
210
0
220
0
230
1
50
360
0
POINT
5
46
100
AcDbEntity
8
SK2
62
256
6
ByLayer
370
-1
48
1
60
0
100
AcDbPoint
10
32.312787
20
9.305141
30
0
39
0
210
0
220
0
230
1
50
360
0
POINT
5
47
100
AcDbEntity
8
2
62
256
6
ByLayer
370
-1
48
1
60
0
100
AcDbPoint
10
32.312787
20
9.305141
30
0
39
0
210
0
220
0
230
1
50
360
0
POINT
5
49
100
AcDbEntity
8
81
62
256
6
ByLayer
370
-1
48
1
60
0
100
AcDbPoint
10
32.312787
20
11.0625
30
0
39
0
210
0
220
0
230
1
50
360
0
POINT
5
4B
100
AcDbEntity
8
SK2
62
256
6
ByLayer
370
-1
48
1
60
0
100
AcDbPoint
10
32.312787
20
9.305141
30
0
39
0
210
0
220
0
230
1
50
360
0
SPLINE
5
7D
100
AcDbEntity
8
1
62
256
6
ByLayer
370
-1
48
1
60
0
100
AcDbSpline
70
4
71
3
72
14
73
10
40
0
40
0
40
0
40
0
40
0.284523597312293
40
0.284523597312293
40
0.571736866218053
40
0.571736866218053
40
0.831999616286289
40
0.831999616286289
40
1
40
1
40
1
40
1
41
1
10
29.9175875231012
20
8.75217692711118
30
0
41
1
10
29.9228586115643
20
8.77267220799092
30
0
41
1
10
29.9246911243615
20
8.79474497696825
30
0
41
1
10
29.9202955379022
20
8.83871924663896
30
0
41
1
10
29.9138840244819
20
8.86129268991994
30
0
41
1
10
29.8938927763006
20
8.90069889124104
30
0
41
1
10
29.8807078261958
20
8.91844815970003
30
0
41
1
10
29.854716578759
20
8.94281065650424
30
0
41
1
10
29.8432495607502
20
8.95133781509657
30
0
41
1
10
29.8310555991411
20
8.95839195859227
30
0
0
SPLINE
5
7E
100
AcDbEntity
8
1
62
256
6
ByLayer
370
-1
48
1
60
0
100
AcDbSpline
70
4
71
3
72
18
73
14
40
0
40
0
40
0
40
0
40
0.213393079737794
40
0.213393079737794
40
0.389003177496061
40
0.389003177496061
40
0.566251555260819
40
0.566251555260819
40
0.72117464589606
40
0.72117464589606
40
0.927415342089927
40
0.927415342089927
40
1
40
1
40
1
40
1
41
1
10
28.4129554353821
20
8.24066239767529
30
0
41
1
10
28.4547118395314
20
8.25234149830587
30
0
41
1
10
28.4960654921353
20
8.27095549423751
30
0
41
1
10
28.5654467812381
20
8.31742168522402
30
0
41
1
10
28.595265420215
20
8.34366151878598
30
0
41
1
10
28.6467671100545
20
8.40430511573064
30
0
41
1
10
28.6690427984862
20
8.43974565084756
30
0
41
1
10
28.699583675636
20
8.50887627893349
30
0
41
1
10
28.7096745541901
20
8.54302602309915
30
0
41
1
10
28.7229022180462
20
8.62111874415254
30
0
41
1
10
28.7230077886626
20
8.66589133497524
30
0
41
1
10
28.7146778995974
20
8.72297998956742
30
0
41
1
10
28.71170008979
20
8.73773555887695
30
0
41
1
10
28.7079859797011
20
8.75217692711118
30
0
0
SPLINE
5
7F
100
AcDbEntity
8
1
62
256
6
ByLayer
370
-1
48
1
60
0
100
AcDbSpline
70
4
71
3
72
14
73
10
40
0
40
0
40
0
40
0
40
0.284519249123213
40
0.284519249123213
40
0.571733062184405
40
0.571733062184405
40
0.83199624428649
40
0.83199624428649
40
1
40
1
40
1
40
1
41
1
10
30.2126180674201
20
7.88433760233366
30
0
41
1
10
30.2329978518489
20
7.89003774721019
30
0
41
1
10
30.253021267622
20
7.89950410620031
30
0
41
1
10
30.2888840458897
20
7.92532832321515
30
0
41
1
10
30.3052131218012
20
7.94218152992511
30
0
41
1
10
30.3293127186886
20
7.97921817609509
30
0
41
1
10
30.3380742571759
20
7.99951882130827
30
0
41
1
10
30.346147636756
20
8.03421635321303
30
0
41
1
10
30.3477867514011
20
8.0484123608924
30
0
41
1
10
30.3477867514011
20
8.06250000000449
30
0
0
SPLINE
5
80
100
AcDbEntity
8
1
62
256
6
ByLayer
370
-1
48
1
60
0
100
AcDbSpline
70
4
71
3
72
12
73
8
40
0
40
0
40
0
40
0
40
0.377026254658375
40
0.377026254658375
40
0.761056299191891
40
0.761056299191891
40
1
40
1
40
1
40
1
41
1
10
29.2845703963382
20
7.31503238377823
30
0
41
1
10
29.2451427916694
20
7.31239020722731
30
0
41
1
10
29.2059295538311
20
7.30398971757759
30
0
41
1
10
29.1335555845103
20
7.27799793923779
30
0
41
1
10
29.0995107138333
20
7.25997943775135
30
0
41
1
10
29.0505045925484
20
7.22537665709532
30
0
41
1
10
29.0329486910719
20
7.21065125069109
30
0
41
1
10
29.016878251239
20
7.19484576846099
30
0
0
SPLINE
5
81
100
AcDbEntity
8
1
62
256
6
ByLayer
370
-1
48
1
60
0
100
AcDbSpline
70
4
71
3
72
16
73
12
40
0
40
0
40
0
40
0
40
0.0668638488454613
40
0.0668638488454613
40
0.290854271538623
40
0.290854271538623
40
0.517824973971325
40
0.517824973971325
40
0.759328674281244
40
0.759328674281244
40
1
40
1
40
1
40
1
41
1
10
29.8310555991411
20
8.95839195859227
30
0
41
1
10
29.8261726503259
20
8.96121671913596
30
0
41
1
10
29.8211538908311
20
8.96382106015591
30
0
41
1
10
29.7990081995997
20
8.9740572127786
30
0
41
1
10
29.7805799120409
20
8.97933236069332
30
0
41
1
10
29.7436970264754
20
8.98412712494141
30
0
41
1
10
29.724777684759
20
8.98364511925948
30
0
41
1
10
29.6878348847935
20
8.97725356088682
30
0
41
1
10
29.6694800727096
20
8.97093824471528
30
0
41
1
10
29.6364999073952
20
8.95376424602591
30
0
41
1
10
29.6215064024532
20
8.94275416159616
30
0
41
1
10
29.6086952515632
20
8.93015423154796
30
0
0
SPLINE
5
82
100
AcDbEntity
8
1
62
256
6
ByLayer
370
-1
48
1
60
0
100
AcDbSpline
70
4
71
3
72
18
73
14
40
0
40
0
40
0
40
0
40
0.213394464779711
40
0.213394464779711
40
0.389004322610654
40
0.389004322610654
40
0.566252444177955
40
0.566252444177955
40
0.721175490823059
40
0.721175490823059
40
0.927416435499175
40
0.927416435499175
40
1
40
1
40
1
40
1
41
1
10
28.7079859797011
20
7.3728230728978
30
0
41
1
10
28.718785886793
20
7.41481575256418
30
0
41
1
10
28.723381219608
20
7.4599324581236
30
0
41
1
10
28.7179022530793
20
7.54325651383709
30
0
41
1
10
28.7101205537913
20
7.58220676720262
30
0
41
1
10
28.6834166863585
20
7.65715314059773
30
0
41
1
10
28.6638938535322
20
7.69418139693644
30
0
41
1
10
28.619347732484
20
7.75523400141583
30
0
41
1
10
28.5948407597309
20
7.78106881688916
30
0
41
1
10
28.5338675777287
20
7.8316229348969
30
0
41
1
10
28.4951653938498
20
7.85413383298382
30
0
41
1
10
28.4415786901414
20
7.87551008993569
30
0
41
1
10
28.4273154243924
20
7.88032117036062
30
0
41
1
10
28.4129554353821
20
7.88433760233366
30
0
0
SPLINE
5
83
100
AcDbEntity
8
1
62
256
6
ByLayer
370
-1
48
1
60
0
100
AcDbSpline
70
4
71
3
72
16
73
12
40
0
40
0
40
0
40
0
40
0.0670553612811388
40
0.0670553612811388
40
0.291697905104216
40
0.291697905104216
40
0.519329228663727
40
0.519329228663727
40
0.761535715028617
40
0.761535715028617
40
1
40
1
40
1
40
1
41
1
10
30.3477867514011
20
8.06250000000449
30
0
41
1
10
30.3477867514011
20
8.06814087767904
30
0
41
1
10
30.3475279750432
20
8.07378893804909
30
0
41
1
10
30.3452991790982
20
8.09808359650708
30
0
41
1
10
30.3406375697298
20
8.11667657129451
30
0
41
1
10
30.3263191971955
20
8.15100326129084
30
0
41
1
10
30.316428318216
20
8.16713844824292
30
0
41
1
10
30.2923970957634
20
8.1959155544254
30
0
41
1
10
30.2777396044995
20
8.20864111396648
30
0
41
1
10
30.2465442254349
20
8.22847148182757
30
0
41
1
10
30.2297245173162
20
8.23587779148522
30
0
41
1
10
30.2126180674201
20
8.24066239767529
30
0
0
SPLINE
5
84
100
AcDbEntity
8
1
62
256
6
ByLayer
370
-1
48
1
60
0
100
AcDbSpline
70
4
71
3
72
16
73
12
40
0
40
0
40
0
40
0
40
0.0650212293341028
40
0.0650212293341028
40
0.28969152326929
40
0.28969152326929
40
0.517236422325928
40
0.517236422325928
40
0.759263521180775
40
0.759263521180775
40
1
40
1
40
1
40
1
41
1
10
28.7945179036611
20
8.95839195859224
30
0
41
1
10
28.7897822919179
20
8.95565243177995
30
0
41
1
10
28.785162874113
20
8.9526989583797
30
0
41
1
10
28.7653464682543
20
8.93875477353197
30
0
41
1
10
28.7515460264396
20
8.92544304222744
30
0
41
1
10
28.7289215499277
20
8.89591761123367
30
0
41
1
10
28.7198634954156
20
8.87930202817265
30
0
41
1
10
28.7068956359173
20
8.84413363863055
30
0
41
1
10
28.7031688203259
20
8.82509116487529
30
0
41
1
10
28.7015130493368
20
8.78799210512258
30
0
41
1
10
28.7035201705557
20
8.76954108508934
30
0
41
1
10
28.7079859797011
20
8.75217692711115
30
0
0
SPLINE
5
85
100
AcDbEntity
8
1
62
256
6
ByLayer
370
-1
48
1
60
0
100
AcDbSpline
70
4
71
3
72
16
73
12
40
0
40
0
40
0
40
0
40
0.0670553612811058
40
0.0670553612811058
40
0.291697905104179
40
0.291697905104179
40
0.519329228663664
40
0.519329228663664
40
0.761535715028559
40
0.761535715028559
40
1
40
1
40
1
40
1
41
1
10
28.2777867514011
20
8.06250000000449
30
0
41
1
10
28.2777867514011
20
8.05685912232994
30
0
41
1
10
28.278045527759
20
8.05121106195989
30
0
41
1
10
28.280274323704
20
8.0269164035019
30
0
41
1
10
28.2849359330724
20
8.00832342871448
30
0
41
1
10
28.2992543056067
20
7.97399673871811
30
0
41
1
10
28.3091451845862
20
7.95786155176606
30
0
41
1
10
28.3331764070388
20
7.92908444558358
30
0
41
1
10
28.3478338983027
20
7.9163588860425
30
0
41
1
10
28.3790292773673
20
7.89652851818141
30
0
41
1
10
28.395848985486
20
7.88912220852376
30
0
41
1
10
28.4129554353821
20
7.88433760233366
30
0
0
SPLINE
5
86
100
AcDbEntity
8
1
62
256
6
ByLayer
370
-1
48
1
60
0
100
AcDbSpline
70
4
71
3
72
14
73
10
40
0
40
0
40
0
40
0
40
0.284523597312296
40
0.284523597312296
40
0.571736866218032
40
0.571736866218032
40
0.831999616286209
40
0.831999616286209
40
1
40
1
40
1
40
1
41
1
10
28.7079859797011
20
7.3728230728978
30
0
41
1
10
28.702714891238
20
7.35232779201806
30
0
41
1
10
28.7008823784407
20
7.33025502304073
30
0
41
1
10
28.7052779649
20
7.28628075337002
30
0
41
1
10
28.7116894783204
20
7.26370731008905
30
0
41
1
10
28.7316807265017
20
7.22430110876795
30
0
41
1
10
28.7448656766065
20
7.20655184030895
30
0
41
1
10
28.7708569240432
20
7.18218934350472
30
0
41
1
10
28.782323942052
20
7.17366218491239
30
0
41
1
10
28.7945179036611
20
7.16660804141671
30
0
0
SPLINE
5
87
100
AcDbEntity
8
1
62
256
6
ByLayer
370
-1
48
1
60
0
100
AcDbSpline
70
4
71
3
72
16
73
12
40
0
40
0
40
0
40
0
40
0.0668638488454661
40
0.0668638488454661
40
0.290854271538524
40
0.290854271538524
40
0.517824973971233
40
0.517824973971233
40
0.759328674281205
40
0.759328674281205
40
1
40
1
40
1
40
1
41
1
10
28.7945179036611
20
7.16660804141671
30
0
41
1
10
28.7994008524763
20
7.16378328087299
30
0
41
1
10
28.8044196119711
20
7.16117893985304
30
0
41
1
10
28.8265653032026
20
7.15094278723038
30
0
41
1
10
28.8449935907613
20
7.14566763931563
30
0
41
1
10
28.8818764763268
20
7.14087287506754
30
0
41
1
10
28.9007958180432
20
7.1413548807495
30
0
41
1
10
28.9377386180087
20
7.14774643912213
30
0
41
1
10
28.9560934300926
20
7.15406175529367
30
0
41
1
10
28.989073595407
20
7.17123575398304
30
0
41
1
10
29.0040671003491
20
7.1822458384128
30
0
41
1
10
29.016878251239
20
7.19484576846099
30
0
0
SPLINE
5
88
100
AcDbEntity
8
1
62
256
6
ByLayer
370
-1
48
1
60
0
100
AcDbSpline
70
4
71
3
72
14
73
10
40
0
40
0
40
0
40
0
40
0.284519249123195
40
0.284519249123195
40
0.571733062184414
40
0.571733062184414
40
0.831996244286486
40
0.831996244286486
40
1
40
1
40
1
40
1
41
1
10
28.4129554353821
20
8.24066239767532
30
0
41
1
10
28.3925756509533
20
8.23496225279879
30
0
41
1
10
28.3725522351803
20
8.22549589380867
30
0
41
1
10
28.3366894569126
20
8.19967167679383
30
0
41
1
10
28.320360381001
20
8.18281847008384
30
0
41
1
10
28.2962607841136
20
8.14578182391389
30
0
41
1
10
28.2874992456264
20
8.12548117870071
30
0
41
1
10
28.2794258660462
20
8.09078364679596
30
0
41
1
10
28.2777867514011
20
8.07658763911658
30
0
41
1
10
28.2777867514011
20
8.06250000000449
30
0
0
SPLINE
5
89
100
AcDbEntity
8
1
62
256
6
ByLayer
370
-1
48
1
60
0
100
AcDbSpline
70
4
71
3
72
16
73
12
40
0
40
0
40
0
40
0
40
0.0650212293342757
40
0.0650212293342757
40
0.289691523269464
40
0.289691523269464
40
0.517236422326038
40
0.517236422326038
40
0.759263521180895
40
0.759263521180895
40
1
40
1
40
1
40
1
41
1
10
29.8310555991411
20
7.16660804141671
30
0
41
1
10
29.8357912108843
20
7.16934756822903
30
0
41
1
10
29.8404106286893
20
7.17230104162928
30
0
41
1
10
29.8602270345479
20
7.18624522647701
30
0
41
1
10
29.8740274763626
20
7.19955695778154
30
0
41
1
10
29.8966519528745
20
7.22908238877534
30
0
41
1
10
29.9057100073867
20
7.24569797183634
30
0
41
1
10
29.9186778668849
20
7.28086636137843
30
0
41
1
10
29.9224046824763
20
7.29990883513369
30
0
41
1
10
29.9240604534654
20
7.3370078948864
30
0
41
1
10
29.9220533322465
20
7.35545891491964
30
0
41
1
10
29.9175875231012
20
7.3728230728978
30
0
0
SPLINE
5
8A
100
AcDbEntity
8
1
62
256
6
ByLayer
370
-1
48
1
60
0
100
AcDbSpline
70
4
71
3
72
12
73
8
40
0
40
0
40
0
40
0
40
0.464379035261993
40
0.464379035261993
40
0.846391164398868
40
0.846391164398868
40
1
40
1
40
1
40
1
41
1
10
29.016878251239
20
8.93015423154796
30
0
41
1
10
29.0478259692537
20
8.89971675676634
30
0
41
1
10
29.0845957811165
20
8.87309333766822
30
0
41
1
10
29.1595068727998
20
8.83603777271878
30
0
41
1
10
29.1971377739627
20
8.82324197112098
30
0
41
1
10
29.2520592312542
20
8.81310350140203
30
0
41
1
10
29.2682794703106
20
8.81105932603924
30
0
41
1
10
29.2845703963381
20
8.80996761623075
30
0
0
SPLINE
5
8B
100
AcDbEntity
8
1
62
256
6
ByLayer
370
-1
48
1
60
0
100
AcDbSpline
70
4
71
3
72
14
73
10
40
0
40
0
40
0
40
0
40
0.283738489034133
40
0.283738489034133
40
0.570489531030698
40
0.570489531030698
40
0.830294403552146
40
0.830294403552146
40
1
40
1
40
1
40
1
41
1
10
29.6086952515632
20
7.19484576846102
30
0
41
1
10
29.6237796163402
20
7.18001010360595
30
0
41
1
10
29.6419499604619
20
7.16735856013332
30
0
41
1
10
29.6822062740799
20
7.14909868014098
30
0
41
1
10
29.7049706557237
20
7.14332019630066
30
0
41
1
10
29.7491260857687
20
7.14085957821615
30
0
41
1
10
29.7711126533162
20
7.14337402344665
30
0
41
1
10
29.8054113677239
20
7.15371688974167
30
0
41
1
10
29.8187034663438
20
7.15946239670961
30
0
41
1
10
29.8310555991411
20
7.16660804141671
30
0
0
SPLINE
5
8C
100
AcDbEntity
8
1
62
256
6
ByLayer
370
-1
48
1
60
0
100
AcDbSpline
70
4
71
3
72
12
73
8
40
0
40
0
40
0
40
0
40
0.464379035262431
40
0.464379035262431
40
0.846391164399561
40
0.846391164399561
40
1
40
1
40
1
40
1
41
1
10
29.6086952515632
20
7.19484576846102
30
0
41
1
10
29.5777475335486
20
7.22528324324264
30
0
41
1
10
29.5409777216857
20
7.25190666234076
30
0
41
1
10
29.4660666300024
20
7.2889622272902
30
0
41
1
10
29.4284357288395
20
7.30175802888797
30
0
41
1
10
29.3735142715481
20
7.31189649860696
30
0
41
1
10
29.3572940324916
20
7.31394067396974
30
0
41
1
10
29.3410031064641
20
7.31503238377823
30
0
0
SPLINE
5
8D
100
AcDbEntity
8
1
62
256
6
ByLayer
370
-1
48
1
60
0
100
AcDbSpline
70
4
71
3
72
18
73
14
40
0
40
0
40
0
40
0
40
0.213394464779729
40
0.213394464779729
40
0.389004322610668
40
0.389004322610668
40
0.566252444177968
40
0.566252444177968
40
0.721175490823049
40
0.721175490823049
40
0.927416435499154
40
0.927416435499154
40
1
40
1
40
1
40
1
41
1
10
29.9175875231012
20
8.75217692711118
30
0
41
1
10
29.9067876160092
20
8.7101842474448
30
0
41
1
10
29.9021922831942
20
8.66506754188538
30
0
41
1
10
29.9076712497229
20
8.58174348617189
30
0
41
1
10
29.915452949011
20
8.54279323280636
30
0
41
1
10
29.9421568164438
20
8.46784685941125
30
0
41
1
10
29.96167964927
20
8.43081860307251
30
0
41
1
10
30.0062257703182
20
8.36976599859312
30
0
41
1
10
30.0307327430713
20
8.34393118311982
30
0
41
1
10
30.0917059250735
20
8.29337706511208
30
0
41
1
10
30.1304081089524
20
8.27086616702516
30
0
41
1
10
30.1839948126608
20
8.24948991007329
30
0
41
1
10
30.1982580784099
20
8.24467882964834
30
0
41
1
10
30.2126180674201
20
8.24066239767532
30
0
0
SPLINE
5
8E
100
AcDbEntity
8
1
62
256
6
ByLayer
370
-1
48
1
60
0
100
AcDbSpline
70
4
71
3
72
12
73
8
40
0
40
0
40
0
40
0
40
0.377026254864938
40
0.377026254864938
40
0.761056299431912
40
0.761056299431912
40
1
40
1
40
1
40
1
41
1
10
29.3410031064641
20
8.80996761623075
30
0
41
1
10
29.3804307111544
20
8.81260979278309
30
0
41
1
10
29.4196439490141
20
8.82101028244074
30
0
41
1
10
29.4920179183516
20
8.84700206079876
30
0
41
1
10
29.5260627890275
20
8.86502056229153
30
0
41
1
10
29.575068910289
20
8.89962334294313
30
0
41
1
10
29.5926248117464
20
8.91434874933367
30
0
41
1
10
29.6086952515632
20
8.93015423154796
30
0
0
SPLINE
5
8F
100
AcDbEntity
8
1
62
256
6
ByLayer
370
-1
48
1
60
0
100
AcDbSpline
70
4
71
3
72
14
73
10
40
0
40
0
40
0
40
0
40
0.283738489034012
40
0.283738489034012
40
0.570489531030541
40
0.570489531030541
40
0.830294403551949
40
0.830294403551949
40
1
40
1
40
1
40
1
41
1
10
29.016878251239
20
8.93015423154796
30
0
41
1
10
29.0017938864621
20
8.944989896403
30
0
41
1
10
28.9836235423403
20
8.95764143987563
30
0
41
1
10
28.9433672287223
20
8.97590131986797
30
0
41
1
10
28.9206028470785
20
8.98167980370832
30
0
41
1
10
28.8764474170335
20
8.98414042179283
30
0
41
1
10
28.854460849486
20
8.98162597656233
30
0
41
1
10
28.8201621350783
20
8.97128311026731
30
0
41
1
10
28.8068700364584
20
8.96553760329934
30
0
41
1
10
28.7945179036611
20
8.95839195859224
30
0
0
SPLINE
5
90
100
AcDbEntity
8
1
62
256
6
ByLayer
370
-1
48
1
60
0
100
AcDbSpline
70
4
71
3
72
18
73
14
40
0
40
0
40
0
40
0
40
0.213393079737792
40
0.213393079737792
40
0.389003177496035
40
0.389003177496035
40
0.566251555260776
40
0.566251555260776
40
0.721174645896022
40
0.721174645896022
40
0.927415342089894
40
0.927415342089894
40
1
40
1
40
1
40
1
41
1
10
30.2126180674201
20
7.88433760233366
30
0
41
1
10
30.1708616632708
20
7.87265850170311
30
0
41
1
10
30.129508010667
20
7.85404450577144
30
0
41
1
10
30.0601267215641
20
7.80757831478496
30
0
41
1
10
30.0303080825873
20
7.781338481223
30
0
41
1
10
29.9788063927478
20
7.72069488427834
30
0
41
1
10
29.9565307043161
20
7.68525434916145
30
0
41
1
10
29.9259898271663
20
7.61612372107552
30
0
41
1
10
29.9158989486122
20
7.58197397690986
30
0
41
1
10
29.9026712847561
20
7.50388125585644
30
0
41
1
10
29.9025657141397
20
7.45910866503377
30
0
41
1
10
29.9108956032048
20
7.40202001044156
30
0
41
1
10
29.9138734130122
20
7.387264441132
30
0
41
1
10
29.9175875231012
20
7.3728230728978
30
0
0
LINE
5
4C
100
AcDbEntity
8
80
62
256
6
ByLayer
370
-1
48
1
60
0
100
AcDbLine
10
0
20
0
30
0
11
-5
21
0
31
0
39
0
210
0
220
0
230
1
0
LINE
5
4D
100
AcDbEntity
8
81
62
256
6
ByLayer
370
-1
48
1
60
0
100
AcDbLine
10
32.312787
20
11.0625
30
0
11
42.312787
21
11.0625
31
0
39
0
210
0
220
0
230
1
0
LINE
5
4E
100
AcDbEntity
8
1
62
256
6
ByLayer
370
-1
48
1
60
0
100
AcDbLine
10
27.732471
20
10.6125
30
0
11
27.212787
21
10.6125
31
0
39
0
210
0
220
0
230
1
0
LINE
5
50
100
AcDbEntity
8
1
62
256
6
ByLayer
370
-1
48
1
60
0
100
AcDbLine
10
27.118556
20
5.5125
30
0
11
27.212787
21
5.5125
31
0
39
0
210
0
220
0
230
1
0
LINE
5
51
100
AcDbEntity
8
1
62
256
6
ByLayer
370
-1
48
1
60
0
100
AcDbLine
10
25.312787
20
10.6125
30
0
11
25.206787
21
10.6125
31
0
39
0
210
0
220
0
230
1
0
LINE
5
52
100
AcDbEntity
8
1
62
256
6
ByLayer
370
-1
48
1
60
0
100
AcDbLine
10
27.212787
20
10.6125
30
0
11
27.212787
21
10.204935
31
0
39
0
210
0
220
0
230
1
0
LINE
5
53
100
AcDbEntity
8
1
62
256
6
ByLayer
370
-1
48
1
60
0
100
AcDbLine
10
25.206787
20
10.6125
30
0
11
0.675
21
10.6125
31
0
39
0
210
0
220
0
230
1
0
LINE
5
54
100
AcDbEntity
8
1
62
256
6
ByLayer
370
-1
48
1
60
0
100
AcDbLine
10
25.312787
20
5.5125
30
0
11
25.206787
21
5.5125
31
0
39
0
210
0
220
0
230
1
0
LINE
5
55
100
AcDbEntity
8
1
62
256
6
ByLayer
370
-1
48
1
60
0
100
AcDbLine
10
0.675
20
10.6125
30
0
11
0
21
9.9375
31
0
39
0
210
0
220
0
230
1
0
LINE
5
56
100
AcDbEntity
8
1
62
256
6
ByLayer
370
-1
48
1
60
0
100
AcDbLine
10
27.118556
20
6.016684
30
0
11
27.118556
21
5.5125
31
0
39
0
210
0
220
0
230
1
0
LINE
5
57
100
AcDbEntity
8
1
62
256
6
ByLayer
370
-1
48
1
60
0
100
AcDbLine
10
0
20
-9.9375
30
0
11
0
21
9.9375
31
0
39
0
210
0
220
0
230
1
0
LINE
5
58
100
AcDbEntity
8
1
62
256
6
ByLayer
370
-1
48
1
60
0
100
AcDbLine
10
25.206787
20
5.5125
30
0
11
14.809034
21
5.5125
31
0
39
0
210
0
220
0
230
1
0
LINE
5
59
100
AcDbEntity
8
1
62
256
6
ByLayer
370
-1
48
1
60
0
100
AcDbLine
10
27.118556
20
10.6125
30
0
11
27.212787
21
10.6125
31
0
39
0
210
0
220
0
230
1
0
LINE
5
5A
100
AcDbEntity
8
1
62
256
6
ByLayer
370
-1
48
1
60
0
100
AcDbLine
10
27.118556
20
5.5125
30
0
11
25.312787
21
5.5125
31
0
39
0
210
0
220
0
230
1
0
LINE
5
5B
100
AcDbEntity
8
1
62
256
6
ByLayer
370
-1
48
1
60
0
100
AcDbLine
10
27.732471
20
5.5125
30
0
11
27.212787
21
5.5125
31
0
39
0
210
0
220
0
230
1
0
LINE
5
5C
100
AcDbEntity
8
1
62
256
6
ByLayer
370
-1
48
1
60
0
100
AcDbLine
10
27.118556
20
10.6125
30
0
11
25.312787
21
10.6125
31
0
39
0
210
0
220
0
230
1
0
LINE
5
5D
100
AcDbEntity
8
1
62
256
6
ByLayer
370
-1
48
1
60
0
100
AcDbLine
10
5.975575
20
0.4125
30
0
11
0
21
-9.9375
31
0
39
0
210
0
220
0
230
1
0
LINE
5
5E
100
AcDbEntity
8
1
62
256
6
ByLayer
370
-1
48
1
60
0
100
AcDbLine
10
27.212787
20
5.920065
30
0
11
27.212787
21
5.5125
31
0
39
0
210
0
220
0
230
1
0
LINE
5
5F
100
AcDbEntity
8
1
62
256
6
ByLayer
370
-1
48
1
60
0
100
AcDbLine
10
25.206787
20
10.6125
30
0
11
25.206787
21
5.5125
31
0
39
0
210
0
220
0
230
1
0
LINE
5
60
100
AcDbEntity
8
1
62
256
6
ByLayer
370
-1
48
1
60
0
100
AcDbLine
10
27.118556
20
10.6125
30
0
11
27.118556
21
10.108316
31
0
39
0
210
0
220
0
230
1
0
LINE
5
61
100
AcDbEntity
8
1
62
256
6
ByLayer
370
-1
48
1
60
0
100
AcDbLine
10
25.312787
20
10.6125
30
0
11
25.312787
21
5.5125
31
0
39
0
210
0
220
0
230
1
0
LINE
5
62
100
AcDbEntity
8
SK1
62
256
6
ByLayer
370
-1
48
1
60
0
100
AcDbLine
10
-94.037213
20
9.9375
30
0
11
-94.037213
21
-9.9375
31
0
39
0
210
0
220
0
230
1
0
LINE
5
64
100
AcDbEntity
8
SK1
62
256
6
ByLayer
370
-1
48
1
60
0
100
AcDbLine
10
-94.037213
20
-9.9375
30
0
11
0
21
-9.9375
31
0
39
0
210
0
220
0
230
1
0
LINE
5
65
100
AcDbEntity
8
SK1
62
256
6
ByLayer
370
-1
48
1
60
0
100
AcDbLine
10
0
20
9.9375
30
0
11
-94.037213
21
9.9375
31
0
39
0
210
0
220
0
230
1
0
LINE
5
66
100
AcDbEntity
8
SK1
62
256
6
ByLayer
370
-1
48
1
60
0
100
AcDbLine
10
0
20
-9.9375
30
0
11
0
21
9.9375
31
0
39
0
210
0
220
0
230
1
0
MTEXT
5
91
100
AcDbEntity
8
SK6
62
256
6
ByLayer
370
-1
48
1
60
0
100
AcDbMText
10
-50.536274
20
-18.412993
30
0
210
0
220
0
230
1
1
\W00.758;\fsimplex.shx,bigfont.shx;SRDCR 2020K 06-A 
40
3.5
41
0
44
1.084337
50
0
71
7
72
5
7
DEFAULT
0
DIMENSION
5
C4
100
AcDbEntity
8
SK2
62
256
6
ByLayer
370
-3
48
1
60
0
100
AcDbDimension
2
DimnDraft3D1
10
-103.787213
20
9.9375
30
0
11
-103.787213
21
-2.628947
31
0
70
32
71
5
72
1
41
1
210
0
220
0
230
1
3
Standard
100
AcDbAlignedDimension
13
-96.037213
23
-9.9375
33
0
14
-96.037213
24
9.9375
34
0
50
90
100
AcDbRotatedDimension
1001
ACAD
1000
DSTYLE
1002
{
1070
    74
1070
     0
1070
   279
1070
     0
1070
   172
1070
     1
1070
   173
1070
     1
1070
   340
1005
92
1070
    77
1070
     1
1070
    73
1070
     0
1070
   171
1070
     3
1070
   274
1070
     4
1070
   177
1070
     2
1070
   176
1070
     2
1070
   178
1070
     7
1070
    78
1070
     8
1070
    41
1041
3.175
1070
   147
1041
2.25
1070
    42
1041
2.0
1070
    44
1041
2.0
1070
   140
1041
4.5
1070
   343
1005
C5
1070
   344
1005
C5
1002
}
0
DIMENSION
5
D9
100
AcDbEntity
8
2
62
256
6
ByLayer
370
-3
48
1
60
0
100
AcDbDimension
2
DimnDraft3D2
10
46.562787
20
11.0625
30
0
11
46.562787
21
-6.252632
31
0
70
32
71
5
72
1
41
1
210
0
220
0
230
1
3
Standard
100
AcDbAlignedDimension
13
2
23
-9.9375
33
0
14
34.312787
24
11.0625
34
0
50
90
100
AcDbRotatedDimension
1001
ACAD
1000
DSTYLE
1002
{
1070
    74
1070
     0
1070
   279
1070
     0
1070
   172
1070
     1
1070
   173
1070
     1
1070
   340
1005
92
1070
    77
1070
     1
1070
    73
1070
     0
1070
   171
1070
     3
1070
   274
1070
     4
1070
   177
1070
     2
1070
   176
1070
     2
1070
   178
1070
     7
1070
    78
1070
     8
1070
    41
1041
3.175
1070
   147
1041
2.25
1070
    42
1041
2.0
1070
    44
1041
2.0
1070
   140
1041
4.5
1070
   343
1005
C5
1070
   344
1005
C5
1002
}
0
DIMENSION
5
E7
100
AcDbEntity
8
2
62
256
6
ByLayer
370
-3
48
1
60
0
100
AcDbDimension
2
DimnDraft3D3
10
12.312787
20
-22.1875
30
0
11
19.683839
21
-22.1875
31
0
70
32
71
5
72
1
41
1
210
0
220
0
230
1
3
Standard
100
AcDbAlignedDimension
13
32.312787
23
3.0625
33
0
14
12.312787
24
3.0625
34
0
50
0
100
AcDbRotatedDimension
1001
ACAD
1000
DSTYLE
1002
{
1070
   279
1070
     0
1070
   172
1070
     1
1070
   173
1070
     1
1070
   340
1005
92
1070
    77
1070
     1
1070
    73
1070
     0
1070
   171
1070
     3
1070
   274
1070
     4
1070
   177
1070
     2
1070
   176
1070
     2
1070
   178
1070
     7
1070
    78
1070
     8
1070
    41
1041
3.175
1070
   147
1041
2.25
1070
    42
1041
2.0
1070
    44
1041
2.0
1070
   140
1041
4.5
1070
   343
1005
C5
1070
   344
1005
C5
1002
}
0
DIMENSION
5
F5
100
AcDbEntity
8
SK2
62
256
6
ByLayer
370
-3
48
1
60
0
100
AcDbDimension
2
DimnDraft3D4
10
-94.037213
20
30.8125
30
0
11
-34.580634
21
30.8125
31
0
70
32
71
5
72
1
41
1
210
0
220
0
230
1
3
Standard
100
AcDbAlignedDimension
13
32.312787
23
13.0625
33
0
14
-94.037213
24
11.9375
34
0
50
0
100
AcDbRotatedDimension
1001
ACAD
1000
DSTYLE
1002
{
1070
   279
1070
     0
1070
   172
1070
     1
1070
   173
1070
     1
1070
   340
1005
92
1070
    77
1070
     1
1070
    73
1070
     0
1070
   171
1070
     3
1070
   274
1070
     4
1070
   177
1070
     2
1070
   176
1070
     2
1070
   178
1070
     7
1070
    78
1070
     8
1070
    41
1041
3.175
1070
   147
1041
2.25
1070
    42
1041
2.0
1070
    44
1041
2.0
1070
   140
1041
4.5
1070
   343
1005
C5
1070
   344
1005
C5
1002
}
0
ENDSEC
0
SECTION
2
OBJECTS
0
DICTIONARY
5
125
330
0
100
AcDbDictionary
280
0
281
1
3
ACAD_GROUP
350
126
3
ACAD_MLINESTYLE
350
127
0
DICTIONARY
5
126
330
0
100
AcDbDictionary
280
0
281
1
0
DICTIONARY
5
127
330
0
100
AcDbDictionary
280
0
281
1
3
Standard
350
18
0
MLINESTYLE
5
18
330
127
100
AcDbMlineStyle
2
Standard
70
0
3

62
256
51
90
52
90
71
2
49
-0.5
62
256
6
ByLayer
49
0.5
62
256
6
ByLayer
0
RASTERVARIABLES
5
114
330

100
AcDbRasterVariables
90
0
70
1
71
1
72
1
0
ENDSEC
0
EOF
