0
SECTION
2
HEADER
9
$ACADVER
1
AC1015
9
$DWGCODEPAGE
3
ANSI_1252
9
$HANDSEED
5
137
9
$ANGBASE
50
0
9
$ANGDIR
70
0
9
$ATTMODE
70
1
9
$AUNITS
70
0
9
$AUPREC
70
0
9
$CECOLOR
62
256
9
$CELTSCALE
40
1
9
$CELTYPE
6
ByLayer
9
$CELWEIGHT
370
-1
9
$CLAYER
8
0
9
$CMLJUST
70
0
9
$CMLSCALE
40
1
9
$CMLSTYLE
2
Standard
9
$DIMSTYLE
2
Standard
9
$TEXTSIZE
40
0.2
9
$TEXTSTYLE
7
Standard
9
$LUNITS
70
2
9
$LUPREC
70
4
9
$EXTNAMES
290
1
9
$INSUNITS
70
4
9
$LTSCALE
40
1
9
$LWDISPLAY
290
0
9
$PDMODE
70
0
9
$PDSIZE
40
0
9
$PLINEGEN
70
0
0
ENDSEC
0
SECTION
2
CLASSES
0
CLASS
1
RASTERVARIABLES
2
AcDbRasterVariables
3
ISM
90
0
280
0
281
0
0
ENDSEC
0
SECTION
2
TABLES
0
TABLE
2
VPORT
5
12d
100
AcDbSymbolTable
0
VPORT
5
1
100
AcDbSymbolTableRecord
100
AcDbViewportTableRecord
2
*Active
70
0
10
0
20
0
11
1
21
1
12
-1
22
1
13
0
23
0
14
0.5
24
0.5
15
10
25
10
16
0
26
0
36
1
17
0
27
0
37
0
0
ENDTAB
0
TABLE
2
LTYPE
5
12e
100
AcDbSymbolTable
0
LTYPE
5
14
100
AcDbSymbolTableRecord
100
AcDbLinetypeTableRecord
70
0
2
ByBlock
3

72
65
73
0
40
0
0
LTYPE
5
15
100
AcDbSymbolTableRecord
100
AcDbLinetypeTableRecord
70
0
2
ByLayer
3

72
65
73
0
40
0
0
LTYPE
5
16
100
AcDbSymbolTableRecord
100
AcDbLinetypeTableRecord
70
0
2
CONTINUOUS
3
Solid line
72
65
73
0
40
0
0
LTYPE
5
3B
100
AcDbSymbolTableRecord
100
AcDbLinetypeTableRecord
70
0
2
DASHED
3
__ __ __ __ __ __ __ __ __
72
65
73
2
40
25.72
49
12.86
74
0
49
-12.86
74
0
0
LTYPE
5
3C
100
AcDbSymbolTableRecord
100
AcDbLinetypeTableRecord
70
0
2
HIDDEN
3
_ _ _ _ _ _ _ _ _ _ _ _ _ _ _
72
65
73
2
40
0.5
49
0.25
74
0
49
-0.25
74
0
0
LTYPE
5
3D
100
AcDbSymbolTableRecord
100
AcDbLinetypeTableRecord
70
0
2
PHANTOM
3
____ _ _ ____ _ _ _____ _ _ ____
72
65
73
6
40
50.5
49
18
74
0
49
-6.5
74
0
49
6.5
74
0
49
-6.5
74
0
49
6.5
74
0
49
-6.5
74
0
0
LTYPE
5
3E
100
AcDbSymbolTableRecord
100
AcDbLinetypeTableRecord
70
0
2
CENTER
3
____ _ ____ _ ____ _ ____
72
65
73
4
40
47.5
49
22
74
0
49
-8.5
74
0
49
8.5
74
0
49
-8.5
74
0
0
LTYPE
5
3F
100
AcDbSymbolTableRecord
100
AcDbLinetypeTableRecord
70
0
2
DOT
3
.........................
72
65
73
2
40
10
49
0
74
0
49
-10
74
0
0
LTYPE
5
40
100
AcDbSymbolTableRecord
100
AcDbLinetypeTableRecord
70
0
2
DASHDOT
3
_._._._._._._._._._._._._._._._.
72
65
73
4
40
70
49
31
74
0
49
-13
74
0
49
13
74
0
49
-13
74
0
0
ENDTAB
0
TABLE
2
LAYER
5
12f
100
AcDbSymbolTable
0
LAYER
5
10
100
AcDbSymbolTableRecord
100
AcDbLayerTableRecord
2
0
70
0
62
7
6
CONTINUOUS
290
1
370
-3
390
0
0
LAYER
5
44
100
AcDbSymbolTableRecord
100
AcDbLayerTableRecord
2
2
70
0
62
7
6
CONTINUOUS
290
1
370
-3
390
0
0
LAYER
5
48
100
AcDbSymbolTableRecord
100
AcDbLayerTableRecord
2
81
70
0
62
-3
6
CONTINUOUS
290
1
370
-3
390
0
0
LAYER
5
4B
100
AcDbSymbolTableRecord
100
AcDbLayerTableRecord
2
80
70
0
62
-6
6
CONTINUOUS
290
1
370
-3
390
0
0
LAYER
5
4F
100
AcDbSymbolTableRecord
100
AcDbLayerTableRecord
2
1
70
0
62
4
6
CONTINUOUS
290
1
370
-3
390
0
0
LAYER
5
11a
100
AcDbSymbolTableRecord
100
AcDbLayerTableRecord
2
SK2
70
0
62
7
6
CONTINUOUS
290
1
370
-3
390
0
0
LAYER
5
11b
100
AcDbSymbolTableRecord
100
AcDbLayerTableRecord
2
SK1
70
0
62
4
6
CONTINUOUS
290
1
370
-3
390
0
0
LAYER
5
11c
100
AcDbSymbolTableRecord
100
AcDbLayerTableRecord
2
SK6
70
0
62
5
6
CONTINUOUS
290
1
370
-3
390
0
0
ENDTAB
0
TABLE
2
STYLE
5
130
100
AcDbSymbolTable
0
STYLE
5
11
100
AcDbSymbolTableRecord
100
AcDbTextStyleTableRecord
2
Standard
3
txt
70
0
71
0
40
0
41
1
42
0
50
0
0
STYLE
5
97
100
AcDbSymbolTableRecord
100
AcDbTextStyleTableRecord
2
DEFAULT
3
simplex.shx
70
0
71
0
40
0
41
1
42
0
50
0
0
STYLE
5
BA
100
AcDbSymbolTableRecord
100
AcDbTextStyleTableRecord
2
DWGDirectTextStyle
3
SIMPLEX
70
0
71
0
40
0
41
1
42
0
50
0
0
ENDTAB
0
TABLE
2
DIMSTYLE
5
131
100
AcDbSymbolTable
100
AcDbDimStyleTable
0
DIMSTYLE
105
27
100
AcDbSymbolTableRecord
100
AcDbDimStyleTableRecord
2
Standard
70
0
3
<>
41
0.18
42
0.0625
44
0.18
140
0.18
147
0.09
73
0
74
0
77
1
271
2
275
0
278
52
280
0
340
11
0
ENDTAB
0
TABLE
2
VIEW
5
132
100
AcDbSymbolTable
0
ENDTAB
0
TABLE
2
UCS
5
133
100
AcDbSymbolTable
0
ENDTAB
0
TABLE
2
APPID
5
134
100
AcDbSymbolTable
0
APPID
5
12
100
AcDbSymbolTableRecord
100
AcDbRegAppTableRecord
2
ACAD
70
0
0
ENDTAB
0
TABLE
2
BLOCK_RECORD
5
135
100
AcDbSymbolTable
0
BLOCK_RECORD
5
1F
100
AcDbSymbolTableRecord
100
AcDbBlockTableRecord
2
*Model_Space
340
0
70
0
0
BLOCK_RECORD
5
1B
100
AcDbSymbolTableRecord
100
AcDbBlockTableRecord
2
*Paper_Space
340
0
70
0
0
BLOCK_RECORD
5
23
100
AcDbSymbolTableRecord
100
AcDbBlockTableRecord
2
*Paper_Space0
340
0
70
0
0
BLOCK_RECORD
5
BC
100
AcDbSymbolTableRecord
100
AcDbBlockTableRecord
2
DimnDraft3D1
340
0
70
0
0
BLOCK_RECORD
5
CA
100
AcDbSymbolTableRecord
100
AcDbBlockTableRecord
2
_CLOSED
340
0
70
0
0
BLOCK_RECORD
5
D1
100
AcDbSymbolTableRecord
100
AcDbBlockTableRecord
2
DimnDraft3D2
340
0
70
0
0
BLOCK_RECORD
5
DF
100
AcDbSymbolTableRecord
100
AcDbBlockTableRecord
2
DimnDraft3D3
340
0
70
0
0
BLOCK_RECORD
5
ED
100
AcDbSymbolTableRecord
100
AcDbBlockTableRecord
2
DimnDraft3D4
340
0
70
0
0
ENDTAB
0
ENDSEC
0
SECTION
2
BLOCKS
0
BLOCK
5
20
100
AcDbEntity
8
0
100
AcDbBlockBegin
2
*Model_Space
70
0
10
0
20
0
30
0
3
*Model_Space
0
ENDBLK
5
21
100
AcDbEntity
8
0
100
AcDbBlockEnd
0
BLOCK
5
1C
100
AcDbEntity
8
0
100
AcDbBlockBegin
2
*Paper_Space
70
0
10
0
20
0
30
0
3
*Paper_Space
0
ENDBLK
5
1D
100
AcDbEntity
8
0
100
AcDbBlockEnd
0
BLOCK
5
24
100
AcDbEntity
8
0
100
AcDbBlockBegin
2
*Paper_Space0
70
0
10
0
20
0
30
0
3
*Paper_Space0
0
ENDBLK
5
25
100
AcDbEntity
8
0
100
AcDbBlockEnd
0
BLOCK
5
C7
100
AcDbEntity
8
0
100
AcDbBlockBegin
2
DimnDraft3D1
70
0
10
0
20
0
30
0
3
DimnDraft3D1
0
MTEXT
5
BD
100
AcDbEntity
8
SK2
62
256
6
ByLayer
370
-1
48
1
60
0
100
AcDbMText
10
-142.381215
20
-1.503947
30
0
210
0
220
0
230
1
1
\W01.000;\fsimplex.shx,bigfont.shx;25 
40
4.5
41
0
44
1.084337
50
90
71
7
72
5
7
DEFAULT
0
LINE
5
BE
100
AcDbEntity
8
SK2
62
256
6
ByLayer
370
-1
48
1
60
0
100
AcDbLine
10
-133.506215
20
-12.4375
30
0
11
-143.256215
21
-12.4375
31
0
39
0
210
0
220
0
230
1
0
LINE
5
BF
100
AcDbEntity
8
SK2
62
256
6
ByLayer
370
-1
48
1
60
0
100
AcDbLine
10
-133.506215
20
12.4375
30
0
11
-143.256215
21
12.4375
31
0
39
0
210
0
220
0
230
1
0
LINE
5
C0
100
AcDbEntity
8
SK2
62
256
6
ByLayer
370
-1
48
1
60
0
100
AcDbLine
10
-141.256215
20
-12.4375
30
0
11
-141.256215
21
12.4375
31
0
39
0
210
0
220
0
230
1
0
LINE
5
C1
100
AcDbEntity
8
SK2
62
256
6
ByLayer
370
-1
48
1
60
0
100
AcDbLine
10
-141.256215
20
-12.4375
30
0
11
-141.674212
21
-9.262502
31
0
39
0
210
0
220
0
230
1
0
LINE
5
C2
100
AcDbEntity
8
SK2
62
256
6
ByLayer
370
-1
48
1
60
0
100
AcDbLine
10
-141.256215
20
-12.4375
30
0
11
-140.838218
21
-9.262498
31
0
39
0
210
0
220
0
230
1
0
LINE
5
C3
100
AcDbEntity
8
SK2
62
256
6
ByLayer
370
-1
48
1
60
0
100
AcDbLine
10
-141.674212
20
-9.262502
30
0
11
-140.838218
21
-9.262498
31
0
39
0
210
0
220
0
230
1
0
LINE
5
C4
100
AcDbEntity
8
SK2
62
256
6
ByLayer
370
-1
48
1
60
0
100
AcDbLine
10
-141.256215
20
12.4375
30
0
11
-140.838218
21
9.262502
31
0
39
0
210
0
220
0
230
1
0
LINE
5
C5
100
AcDbEntity
8
SK2
62
256
6
ByLayer
370
-1
48
1
60
0
100
AcDbLine
10
-141.256215
20
12.4375
30
0
11
-141.674212
21
9.262498
31
0
39
0
210
0
220
0
230
1
0
LINE
5
C6
100
AcDbEntity
8
SK2
62
256
6
ByLayer
370
-1
48
1
60
0
100
AcDbLine
10
-140.838218
20
9.262502
30
0
11
-141.674212
21
9.262498
31
0
39
0
210
0
220
0
230
1
0
ENDBLK
5
C8
100
AcDbEntity
8
0
100
AcDbBlockEnd
0
BLOCK
5
CB
100
AcDbEntity
8
0
100
AcDbBlockBegin
2
_CLOSED
70
0
10
0
20
0
30
0
3
_CLOSED
0
LINE
5
CD
100
AcDbEntity
8
0
62
256
6
ByLayer
370
-2
48
1
60
0
100
AcDbLine
10
-1
20
0.166667
30
0
11
0
21
0
31
0
39
0
210
0
220
0
230
1
0
LINE
5
CE
100
AcDbEntity
8
0
62
256
6
ByLayer
370
-2
48
1
60
0
100
AcDbLine
10
0
20
0
30
0
11
-1
21
-0.166667
31
0
39
0
210
0
220
0
230
1
0
LINE
5
CF
100
AcDbEntity
8
0
62
256
6
ByLayer
370
-2
48
1
60
0
100
AcDbLine
10
-1
20
0.166667
30
0
11
-1
21
-0.166667
31
0
39
0
210
0
220
0
230
1
0
LINE
5
D0
100
AcDbEntity
8
0
62
256
6
ByLayer
370
-2
48
1
60
0
100
AcDbLine
10
0
20
0
30
0
11
-1
21
0
31
0
39
0
210
0
220
0
230
1
0
ENDBLK
5
CC
100
AcDbEntity
8
0
100
AcDbBlockEnd
0
BLOCK
5
DC
100
AcDbEntity
8
0
100
AcDbBlockBegin
2
DimnDraft3D2
70
0
10
0
20
0
30
0
3
DimnDraft3D2
0
MTEXT
5
D2
100
AcDbEntity
8
2
62
256
6
ByLayer
370
-1
48
1
60
0
100
AcDbMText
10
52.968785
20
-6.225658
30
0
210
0
220
0
230
1
1
\W01.000;\fsimplex.shx,bigfont.shx;20.5 
40
4.5
41
0
44
1.084337
50
90
71
7
72
5
7
DEFAULT
0
LINE
5
D3
100
AcDbEntity
8
2
62
256
6
ByLayer
370
-1
48
1
60
0
100
AcDbLine
10
2
20
-12.4375
30
0
11
56.093785
21
-12.4375
31
0
39
0
210
0
220
0
230
1
0
LINE
5
D4
100
AcDbEntity
8
2
62
256
6
ByLayer
370
-1
48
1
60
0
100
AcDbLine
10
41.843785
20
8.0625
30
0
11
56.093785
21
8.0625
31
0
39
0
210
0
220
0
230
1
0
LINE
5
D5
100
AcDbEntity
8
2
62
256
6
ByLayer
370
-1
48
1
60
0
100
AcDbLine
10
54.093785
20
-23.6875
30
0
11
54.093785
21
19.3125
31
0
39
0
210
0
220
0
230
1
0
LINE
5
D6
100
AcDbEntity
8
2
62
256
6
ByLayer
370
-1
48
1
60
0
100
AcDbLine
10
54.093785
20
-12.4375
30
0
11
54.511782
21
-15.612498
31
0
39
0
210
0
220
0
230
1
0
LINE
5
D7
100
AcDbEntity
8
2
62
256
6
ByLayer
370
-1
48
1
60
0
100
AcDbLine
10
54.093785
20
-12.4375
30
0
11
53.675788
21
-15.612502
31
0
39
0
210
0
220
0
230
1
0
LINE
5
D8
100
AcDbEntity
8
2
62
256
6
ByLayer
370
-1
48
1
60
0
100
AcDbLine
10
54.511782
20
-15.612498
30
0
11
53.675788
21
-15.612502
31
0
39
0
210
0
220
0
230
1
0
LINE
5
D9
100
AcDbEntity
8
2
62
256
6
ByLayer
370
-1
48
1
60
0
100
AcDbLine
10
54.093785
20
8.0625
30
0
11
53.675788
21
11.237498
31
0
39
0
210
0
220
0
230
1
0
LINE
5
DA
100
AcDbEntity
8
2
62
256
6
ByLayer
370
-1
48
1
60
0
100
AcDbLine
10
54.093785
20
8.0625
30
0
11
54.511782
21
11.237502
31
0
39
0
210
0
220
0
230
1
0
LINE
5
DB
100
AcDbEntity
8
2
62
256
6
ByLayer
370
-1
48
1
60
0
100
AcDbLine
10
53.675788
20
11.237498
30
0
11
54.511782
21
11.237502
31
0
39
0
210
0
220
0
230
1
0
ENDBLK
5
DD
100
AcDbEntity
8
0
100
AcDbBlockEnd
0
BLOCK
5
EA
100
AcDbEntity
8
0
100
AcDbBlockBegin
2
DimnDraft3D3
70
0
10
0
20
0
30
0
3
DimnDraft3D3
0
MTEXT
5
E0
100
AcDbEntity
8
2
62
256
6
ByLayer
370
-1
48
1
60
0
100
AcDbMText
10
20.839838
20
-23.5625
30
0
210
0
220
0
230
1
1
\W01.000;\fsimplex.shx,bigfont.shx;35 
40
4.5
41
0
44
1.084337
50
0
71
7
72
5
7
DEFAULT
0
LINE
5
E1
100
AcDbEntity
8
2
62
256
6
ByLayer
370
-1
48
1
60
0
100
AcDbLine
10
39.843785
20
-9.9375
30
0
11
39.843785
21
-26.6875
31
0
39
0
210
0
220
0
230
1
0
LINE
5
E2
100
AcDbEntity
8
2
62
256
6
ByLayer
370
-1
48
1
60
0
100
AcDbLine
10
4.843785
20
-9.9375
30
0
11
4.843785
21
-26.6875
31
0
39
0
210
0
220
0
230
1
0
LINE
5
E3
100
AcDbEntity
8
2
62
256
6
ByLayer
370
-1
48
1
60
0
100
AcDbLine
10
39.843785
20
-24.6875
30
0
11
4.843785
21
-24.6875
31
0
39
0
210
0
220
0
230
1
0
LINE
5
E4
100
AcDbEntity
8
2
62
256
6
ByLayer
370
-1
48
1
60
0
100
AcDbLine
10
39.843785
20
-24.6875
30
0
11
36.668786
21
-25.105497
31
0
39
0
210
0
220
0
230
1
0
LINE
5
E5
100
AcDbEntity
8
2
62
256
6
ByLayer
370
-1
48
1
60
0
100
AcDbLine
10
39.843785
20
-24.6875
30
0
11
36.668783
21
-24.269503
31
0
39
0
210
0
220
0
230
1
0
LINE
5
E6
100
AcDbEntity
8
2
62
256
6
ByLayer
370
-1
48
1
60
0
100
AcDbLine
10
36.668786
20
-25.105497
30
0
11
36.668783
21
-24.269503
31
0
39
0
210
0
220
0
230
1
0
LINE
5
E7
100
AcDbEntity
8
2
62
256
6
ByLayer
370
-1
48
1
60
0
100
AcDbLine
10
4.843785
20
-24.6875
30
0
11
8.018783
21
-24.269503
31
0
39
0
210
0
220
0
230
1
0
LINE
5
E8
100
AcDbEntity
8
2
62
256
6
ByLayer
370
-1
48
1
60
0
100
AcDbLine
10
4.843785
20
-24.6875
30
0
11
8.018786
21
-25.105497
31
0
39
0
210
0
220
0
230
1
0
LINE
5
E9
100
AcDbEntity
8
2
62
256
6
ByLayer
370
-1
48
1
60
0
100
AcDbLine
10
8.018783
20
-24.269503
30
0
11
8.018786
21
-25.105497
31
0
39
0
210
0
220
0
230
1
0
ENDBLK
5
EB
100
AcDbEntity
8
0
100
AcDbBlockEnd
0
BLOCK
5
F8
100
AcDbEntity
8
0
100
AcDbBlockBegin
2
DimnDraft3D4
70
0
10
0
20
0
30
0
3
DimnDraft3D4
0
MTEXT
5
EE
100
AcDbEntity
8
SK2
62
256
6
ByLayer
370
-1
48
1
60
0
100
AcDbMText
10
-48.424636
20
28.9375
30
0
210
0
220
0
230
1
1
\W01.000;\fsimplex.shx,bigfont.shx;170 
40
4.5
41
0
44
1.084337
50
0
71
7
72
5
7
DEFAULT
0
LINE
5
EF
100
AcDbEntity
8
SK2
62
256
6
ByLayer
370
-1
48
1
60
0
100
AcDbLine
10
39.843785
20
10.0625
30
0
11
39.843785
21
29.8125
31
0
39
0
210
0
220
0
230
1
0
LINE
5
F0
100
AcDbEntity
8
SK2
62
256
6
ByLayer
370
-1
48
1
60
0
100
AcDbLine
10
-131.506215
20
14.4375
30
0
11
-131.506215
21
29.8125
31
0
39
0
210
0
220
0
230
1
0
LINE
5
F1
100
AcDbEntity
8
SK2
62
256
6
ByLayer
370
-1
48
1
60
0
100
AcDbLine
10
39.843785
20
27.8125
30
0
11
-131.506215
21
27.8125
31
0
39
0
210
0
220
0
230
1
0
LINE
5
F2
100
AcDbEntity
8
SK2
62
256
6
ByLayer
370
-1
48
1
60
0
100
AcDbLine
10
39.843785
20
27.8125
30
0
11
36.668786
21
27.394503
31
0
39
0
210
0
220
0
230
1
0
LINE
5
F3
100
AcDbEntity
8
SK2
62
256
6
ByLayer
370
-1
48
1
60
0
100
AcDbLine
10
39.843785
20
27.8125
30
0
11
36.668783
21
28.230497
31
0
39
0
210
0
220
0
230
1
0
LINE
5
F4
100
AcDbEntity
8
SK2
62
256
6
ByLayer
370
-1
48
1
60
0
100
AcDbLine
10
36.668786
20
27.394503
30
0
11
36.668783
21
28.230497
31
0
39
0
210
0
220
0
230
1
0
LINE
5
F5
100
AcDbEntity
8
SK2
62
256
6
ByLayer
370
-1
48
1
60
0
100
AcDbLine
10
-131.506215
20
27.8125
30
0
11
-128.331217
21
28.230497
31
0
39
0
210
0
220
0
230
1
0
LINE
5
F6
100
AcDbEntity
8
SK2
62
256
6
ByLayer
370
-1
48
1
60
0
100
AcDbLine
10
-131.506215
20
27.8125
30
0
11
-128.331214
21
27.394503
31
0
39
0
210
0
220
0
230
1
0
LINE
5
F7
100
AcDbEntity
8
SK2
62
256
6
ByLayer
370
-1
48
1
60
0
100
AcDbLine
10
-128.331217
20
28.230497
30
0
11
-128.331214
21
27.394503
31
0
39
0
210
0
220
0
230
1
0
ENDBLK
5
F9
100
AcDbEntity
8
0
100
AcDbBlockEnd
0
ENDSEC
0
SECTION
2
ENTITIES
0
ARC
5
67
100
AcDbEntity
8
1
62
256
6
ByLayer
370
-1
48
1
60
0
100
AcDbCircle
39
0
10
31.629085
20
0
30
0
40
7.81988901006696
210
0
220
0
230
1
100
AcDbArc
50
146.5976
51
161.16572
0
ARC
5
68
100
AcDbEntity
8
1
62
256
6
ByLayer
370
-1
48
1
60
0
100
AcDbCircle
39
0
10
28.543785
20
0
30
0
40
5
210
0
220
0
230
1
100
AcDbArc
50
149.675146
51
210.324854
0
ARC
5
69
100
AcDbEntity
8
1
62
256
6
ByLayer
370
-1
48
1
60
0
100
AcDbCircle
39
0
10
-9.143785
20
-17
30
0
40
10.2
210
0
220
0
230
-1
100
AcDbArc
50
30
51
90
0
ARC
5
6A
100
AcDbEntity
8
1
62
256
6
ByLayer
370
-1
48
1
60
0
100
AcDbCircle
39
0
10
-9.143785
20
17
30
0
40
10.2
210
0
220
0
230
-1
100
AcDbArc
50
270
51
330
0
ARC
5
6B
100
AcDbEntity
8
1
62
256
6
ByLayer
370
-1
48
1
60
0
100
AcDbCircle
39
0
10
31.629085
20
0
30
0
40
7.81988901006696
210
0
220
0
230
1
100
AcDbArc
50
198.83428
51
213.4024
0
ARC
5
6C
100
AcDbEntity
8
1
62
256
6
ByLayer
370
-1
48
1
60
0
100
AcDbCircle
39
0
10
31.843785
20
0
30
0
40
1.416
210
0
220
0
230
1
100
AcDbArc
50
29.809289
51
83.807562
0
ARC
5
6E
100
AcDbEntity
8
1
62
256
6
ByLayer
370
-1
48
1
60
0
100
AcDbCircle
39
0
10
31.843785
20
0
30
0
40
1.416
210
0
220
0
230
1
100
AcDbArc
50
276.192438
51
330.190711
0
ARC
5
6F
100
AcDbEntity
8
1
62
256
6
ByLayer
370
-1
48
1
60
0
100
AcDbCircle
39
0
10
31.843785
20
0
30
0
40
1.416
210
0
220
0
230
1
100
AcDbArc
50
150.190711
51
209.809289
0
ARC
5
70
100
AcDbEntity
8
1
62
256
6
ByLayer
370
-1
48
1
60
0
100
AcDbCircle
39
0
10
-31.843785
20
0
30
0
40
1.96850000000001
210
0
220
0
230
-1
100
AcDbArc
50
59.618578
51
120.381422
0
ARC
5
71
100
AcDbEntity
8
1
62
256
6
ByLayer
370
-1
48
1
60
0
100
AcDbCircle
39
0
10
31.843785
20
0
30
0
40
1.416
210
0
220
0
230
1
100
AcDbArc
50
330.190711
51
29.809289
0
ARC
5
72
100
AcDbEntity
8
1
62
256
6
ByLayer
370
-1
48
1
60
0
100
AcDbCircle
39
0
10
-31.843785
20
0
30
0
40
1.416
210
0
220
0
230
-1
100
AcDbArc
50
83.807562
51
96.192438
0
ARC
5
74
100
AcDbEntity
8
1
62
256
6
ByLayer
370
-1
48
1
60
0
100
AcDbCircle
39
0
10
-31.843785
20
0
30
0
40
1.416
210
0
220
0
230
-1
100
AcDbArc
50
29.809289
51
83.807562
0
ARC
5
75
100
AcDbEntity
8
1
62
256
6
ByLayer
370
-1
48
1
60
0
100
AcDbCircle
39
0
10
-31.843785
20
0
30
0
40
1.96850000000001
210
0
220
0
230
-1
100
AcDbArc
50
180
51
239.618578
0
ARC
5
77
100
AcDbEntity
8
1
62
256
6
ByLayer
370
-1
48
1
60
0
100
AcDbCircle
39
0
10
-31.843785
20
0
30
0
40
1.96850000000001
210
0
220
0
230
-1
100
AcDbArc
50
0
51
59.618578
0
ARC
5
78
100
AcDbEntity
8
1
62
256
6
ByLayer
370
-1
48
1
60
0
100
AcDbCircle
39
0
10
-31.843785
20
0
30
0
40
1.416
210
0
220
0
230
-1
100
AcDbArc
50
263.807562
51
276.192438
0
ARC
5
79
100
AcDbEntity
8
1
62
256
6
ByLayer
370
-1
48
1
60
0
100
AcDbCircle
39
0
10
-31.843785
20
0
30
0
40
1.96850000000001
210
0
220
0
230
-1
100
AcDbArc
50
120.381422
51
180
0
ARC
5
7B
100
AcDbEntity
8
1
62
256
6
ByLayer
370
-1
48
1
60
0
100
AcDbCircle
39
0
10
31.843785
20
0
30
0
40
1.416
210
0
220
0
230
1
100
AcDbArc
50
209.809289
51
263.807562
0
ARC
5
7C
100
AcDbEntity
8
1
62
256
6
ByLayer
370
-1
48
1
60
0
100
AcDbCircle
39
0
10
-31.843785
20
0
30
0
40
1.96850000000001
210
0
220
0
230
-1
100
AcDbArc
50
300.381422
51
0
0
ARC
5
7D
100
AcDbEntity
8
1
62
256
6
ByLayer
370
-1
48
1
60
0
100
AcDbCircle
39
0
10
-31.843785
20
0
30
0
40
1.96850000000001
210
0
220
0
230
-1
100
AcDbArc
50
239.618578
51
300.381422
0
CIRCLE
5
6D
100
AcDbEntity
8
1
62
256
6
ByLayer
370
-1
48
1
60
0
100
AcDbCircle
10
-31.843785
20
0
30
0
40
3.78929484861765
39
0
210
0
220
0
230
-1
0
CIRCLE
5
73
100
AcDbEntity
8
1
62
256
6
ByLayer
370
-1
48
1
60
0
100
AcDbCircle
10
-31.843785
20
0
30
0
40
3.57499999999999
39
0
210
0
220
0
230
-1
0
CIRCLE
5
76
100
AcDbEntity
8
1
62
256
6
ByLayer
370
-1
48
1
60
0
100
AcDbCircle
10
-31.843785
20
0
30
0
40
2.40000000000001
39
0
210
0
220
0
230
-1
0
CIRCLE
5
7A
100
AcDbEntity
8
1
62
256
6
ByLayer
370
-1
48
1
60
0
100
AcDbCircle
10
-31.843785
20
0
30
0
40
3.75000000000003
39
0
210
0
220
0
230
-1
0
CIRCLE
5
7E
100
AcDbEntity
8
1
62
256
6
ByLayer
370
-1
48
1
60
0
100
AcDbCircle
10
-31.843785
20
0
30
0
40
3.69366559766551
39
0
210
0
220
0
230
-1
0
CIRCLE
5
7F
100
AcDbEntity
8
1
62
256
6
ByLayer
370
-1
48
1
60
0
100
AcDbCircle
10
-31.843785
20
0
30
0
40
8.00000000000001
39
0
210
0
220
0
230
-1
0
POINT
5
41
100
AcDbEntity
8
SK2
62
256
6
ByLayer
370
-1
48
1
60
0
100
AcDbPoint
10
39.843785
20
3.313708
30
0
39
0
210
0
220
0
230
1
50
360
0
POINT
5
43
100
AcDbEntity
8
2
62
256
6
ByLayer
370
-1
48
1
60
0
100
AcDbPoint
10
39.843785
20
3.313708
30
0
39
0
210
0
220
0
230
1
50
360
0
POINT
5
45
100
AcDbEntity
8
SK2
62
256
6
ByLayer
370
-1
48
1
60
0
100
AcDbPoint
10
39.843785
20
3.313708
30
0
39
0
210
0
220
0
230
1
50
360
0
POINT
5
46
100
AcDbEntity
8
SK2
62
256
6
ByLayer
370
-1
48
1
60
0
100
AcDbPoint
10
39.843785
20
3.313708
30
0
39
0
210
0
220
0
230
1
50
360
0
POINT
5
47
100
AcDbEntity
8
81
62
256
6
ByLayer
370
-1
48
1
60
0
100
AcDbPoint
10
39.843785
20
8.0625
30
0
39
0
210
0
220
0
230
1
50
360
0
POINT
5
49
100
AcDbEntity
8
SK2
62
256
6
ByLayer
370
-1
48
1
60
0
100
AcDbPoint
10
39.843785
20
3.313708
30
0
39
0
210
0
220
0
230
1
50
360
0
POINT
5
4A
100
AcDbEntity
8
80
62
256
6
ByLayer
370
-1
48
1
60
0
100
AcDbPoint
10
0
20
0
30
0
39
0
210
0
220
0
230
1
50
360
0
SPLINE
5
80
100
AcDbEntity
8
1
62
256
6
ByLayer
370
-1
48
1
60
0
100
AcDbSpline
70
4
71
3
72
8
73
4
40
0
40
0
40
0
40
0
40
1
40
1
40
1
40
1
41
1
10
24.22790182348
20
2.52451052104726
30
0
41
1
10
24.2519161465712
20
2.56556521639465
30
0
41
1
10
24.2759868164375
20
2.60565892610623
30
0
41
1
10
24.3001087579503
20
2.64482616658816
30
0
0
SPLINE
5
81
100
AcDbEntity
8
1
62
256
6
ByLayer
370
-1
48
1
60
0
100
AcDbSpline
70
4
71
3
72
8
73
4
40
0
40
0
40
0
40
0
40
1
40
1
40
1
40
1
41
1
10
24.2779268525629
20
-2.60851212925525
30
0
41
1
10
24.2612218144114
20
-2.58096233744871
30
0
41
1
10
24.2445461723418
20
-2.55296556717144
30
0
41
1
10
24.22790182348
20
-2.52451052102333
30
0
0
SPLINE
5
82
100
AcDbEntity
8
1
62
256
6
ByLayer
370
-1
48
1
60
0
100
AcDbSpline
70
4
71
3
72
18
73
14
40
0
40
0
40
0
40
0
40
0.213081262000638
40
0.213081262000638
40
0.387160943926357
40
0.387160943926357
40
0.562948999942013
40
0.562948999942013
40
0.715638435810371
40
0.715638435810371
40
0.919170953808122
40
0.919170953808122
40
1
40
1
40
1
40
1
41
1
10
32.9912359218829
20
1.32815233799056
30
0
41
1
10
32.9691348849616
20
1.24560260340951
30
0
41
1
10
32.9592965546065
20
1.15679631719971
30
0
41
1
10
32.968790150831
20
0.993059164711667
30
0
41
1
10
32.9834132824533
20
0.916730717511456
30
0
41
1
10
33.03457633189
20
0.769530009203606
30
0
41
1
10
33.0723071392938
20
0.69661142500118
30
0
41
1
10
33.158559400806
20
0.576568724206879
30
0
41
1
10
33.2059505575484
20
0.525823063403294
30
0
41
1
10
33.3240938188069
20
0.426209209014758
30
0
41
1
10
33.3992376323044
20
0.38162477172466
30
0
41
1
10
33.5069286217936
20
0.337519283833785
30
0
41
1
10
33.5382881274383
20
0.326859843651135
30
0
41
1
10
33.5698803284424
20
0.318161969558787
30
0
0
SPLINE
5
83
100
AcDbEntity
8
1
62
256
6
ByLayer
370
-1
48
1
60
0
100
AcDbSpline
70
4
71
3
72
10
73
6
40
0
40
0
40
0
40
0
40
0.479736826302678
40
0.479736826302678
40
1
40
1
40
1
40
1
41
1
10
31.9965261816745
20
1.40773793631178
30
0
41
1
10
32.0803131262122
20
1.42350344078062
30
0
41
1
10
32.1606504446362
20
1.45245021913271
30
0
41
1
10
32.3090044947449
20
1.53137369452941
30
0
41
1
10
32.3779082441023
20
1.58395618461458
30
0
41
1
10
32.4359025924652
20
1.64358262810072
30
0
0
SPLINE
5
84
100
AcDbEntity
8
1
62
256
6
ByLayer
370
-1
48
1
60
0
100
AcDbSpline
70
4
71
3
72
14
73
10
40
0
40
0
40
0
40
0
40
0.281038222380294
40
0.281038222380294
40
0.56455785706693
40
0.56455785706693
40
0.820700196129933
40
0.820700196129933
40
1
40
1
40
1
40
1
41
1
10
31.2516671841308
20
1.64358262810069
30
0
41
1
10
31.2250855128712
20
1.67091236908189
30
0
41
1
10
31.1928288573931
20
1.69436552454786
30
0
41
1
10
31.121020082787
20
1.7285748604389
30
0
41
1
10
31.0802569643779
20
1.73968475905679
30
0
41
1
10
31.0009578030472
20
1.74534868558618
30
0
41
1
10
30.9613773755997
20
1.74141172565504
30
0
41
1
10
30.8977025613102
20
1.72311543465764
30
0
41
1
10
30.8719555210838
20
1.71210329847537
30
0
41
1
10
30.8482079987028
20
1.69818105835171
30
0
0
SPLINE
5
85
100
AcDbEntity
8
1
62
256
6
ByLayer
370
-1
48
1
60
0
100
AcDbSpline
70
4
71
3
72
16
73
12
40
0
40
0
40
0
40
0
40
0.0645965064171135
40
0.0645965064171135
40
0.282747320500329
40
0.282747320500329
40
0.503851581407167
40
0.503851581407167
40
0.739476498257747
40
0.739476498257747
40
1
40
1
40
1
40
1
41
1
10
30.8482079987028
20
-1.69818105832783
30
0
41
1
10
30.856799140382
20
-1.70321770743482
30
0
41
1
10
30.8656297250832
20
-1.70787061463275
30
0
41
1
10
30.9048442965789
20
-1.72631831325987
30
0
41
1
10
30.9375686013759
20
-1.73593690822369
30
0
41
1
10
31.0031303577497
20
-1.74495954998804
30
0
41
1
10
31.0367929524046
20
-1.74436533861083
30
0
41
1
10
31.1026479270553
20
-1.73353188574788
30
0
41
1
10
31.1354284876938
20
-1.72256237927442
30
0
41
1
10
31.1975811942851
20
-1.69088505351871
30
0
41
1
10
31.2270370311543
20
-1.66890593053583
30
0
41
1
10
31.2516671841308
20
-1.64358262807679
30
0
0
SPLINE
5
86
100
AcDbEntity
8
1
62
256
6
ByLayer
370
-1
48
1
60
0
100
AcDbSpline
70
4
71
3
72
18
73
14
40
0
40
0
40
0
40
0
40
0.213081026856106
40
0.213081026856106
40
0.38716075070474
40
0.38716075070474
40
0.562948851464641
40
0.562948851464641
40
0.715638295683691
40
0.715638295683691
40
0.919170771668914
40
0.919170771668914
40
1
40
1
40
1
40
1
41
1
10
30.1176894481537
20
0.318161969558787
30
0
41
1
10
30.2000808618239
20
0.340845737058828
30
0
41
1
10
30.2816677493404
20
0.377272513038491
30
0
41
1
10
30.4181186700444
20
0.468273055915716
30
0
41
1
10
30.4765698389185
20
0.519491516745546
30
0
41
1
10
30.5776807453904
20
0.638076087898042
30
0
41
1
10
30.6215035040674
20
0.707504489711255
30
0
41
1
10
30.6814392773633
20
0.842624486418515
30
0
41
1
10
30.7012481750357
20
0.909172607372341
30
0
41
1
10
30.7274314239608
20
1.06147226393313
30
0
41
1
10
30.7278891562124
20
1.14884590367993
30
0
41
1
10
30.7114728434133
20
1.26405511686372
30
0
41
1
10
30.7048082961243
20
1.29649939375508
30
0
41
1
10
30.6963338547132
20
1.32815233799053
30
0
0
SPLINE
5
87
100
AcDbEntity
8
1
62
256
6
ByLayer
370
-1
48
1
60
0
100
AcDbSpline
70
4
71
3
72
14
73
10
40
0
40
0
40
0
40
0
40
0.285013984727043
40
0.285013984727043
40
0.572349910643021
40
0.572349910643021
40
0.832166158509319
40
0.832166158509319
40
1
40
1
40
1
40
1
41
1
10
33.5698803284423
20
-0.318161969534884
30
0
41
1
10
33.6064268916289
20
-0.308100074668403
30
0
41
1
10
33.642347801986
20
-0.291265975856703
30
0
41
1
10
33.7066653167071
20
-0.245207102113028
30
0
41
1
10
33.7359546148109
20
-0.215109853957188
30
0
41
1
10
33.7791507915973
20
-0.148931317719587
30
0
41
1
10
33.7948570447593
20
-0.112660945922329
30
0
41
1
10
33.8093412364748
20
-0.0506181015054779
30
0
41
1
10
33.812284888298
20
-0.0252110816538504
30
0
41
1
10
33.812284888298
20
1.19655E-11
30
0
0
SPLINE
5
88
100
AcDbEntity
8
1
62
256
6
ByLayer
370
-1
48
1
60
0
100
AcDbSpline
70
4
71
3
72
14
73
10
40
0
40
0
40
0
40
0
40
0.285013984727072
40
0.285013984727072
40
0.57234991064308
40
0.57234991064308
40
0.832166158509334
40
0.832166158509334
40
1
40
1
40
1
40
1
41
1
10
30.1176894481537
20
0.318161969558787
30
0
41
1
10
30.0811428849671
20
0.308100074692334
30
0
41
1
10
30.04522197461
20
0.291265975880606
30
0
41
1
10
29.9809044598889
20
0.245207102136959
30
0
41
1
10
29.9516151617851
20
0.21510985398109
30
0
41
1
10
29.9084189849987
20
0.148931317743518
30
0
41
1
10
29.8927127318366
20
0.112660945946231
30
0
41
1
10
29.8782285401212
20
0.0506181015294089
30
0
41
1
10
29.875284888298
20
0.0252110816777531
30
0
41
1
10
29.875284888298
20
1.19655E-11
30
0
0
SPLINE
5
89
100
AcDbEntity
8
1
62
256
6
ByLayer
370
-1
48
1
60
0
100
AcDbSpline
70
4
71
3
72
10
73
6
40
0
40
0
40
0
40
0
40
0.541781546918545
40
0.541781546918545
40
1
40
1
40
1
40
1
41
1
10
32.4359025924652
20
-1.64358262807681
30
0
41
1
10
32.3755742407531
20
-1.58155649698793
30
0
41
1
10
32.3033787004975
20
-1.52711767767281
30
0
41
1
10
32.1536175750715
20
-1.44992229522927
30
0
41
1
10
32.0766516362497
20
-1.42281448811994
30
0
41
1
10
31.9965261816744
20
-1.40773793628787
30
0
0
SPLINE
5
8A
100
AcDbEntity
8
1
62
256
6
ByLayer
370
-1
48
1
60
0
100
AcDbSpline
70
4
71
3
72
10
73
6
40
0
40
0
40
0
40
0
40
0.541781546917745
40
0.541781546917745
40
1
40
1
40
1
40
1
41
1
10
31.2516671841308
20
1.64358262810069
30
0
41
1
10
31.3119955358429
20
1.5815564970118
30
0
41
1
10
31.3841910760985
20
1.52711767769671
30
0
41
1
10
31.5339522015246
20
1.44992229525317
30
0
41
1
10
31.6109181403463
20
1.42281448814384
30
0
41
1
10
31.6910435949215
20
1.40773793631178
30
0
0
SPLINE
5
8B
100
AcDbEntity
8
1
62
256
6
ByLayer
370
-1
48
1
60
0
100
AcDbSpline
70
4
71
3
72
16
73
12
40
0
40
0
40
0
40
0
40
0.0660777514108853
40
0.0660777514108853
40
0.289232858199884
40
0.289232858199884
40
0.515409129607293
40
0.515409129607293
40
0.75643912779133
40
0.75643912779133
40
1
40
1
40
1
40
1
41
1
10
29.875284888298
20
1.19655E-11
30
0
41
1
10
29.875284888298
20
-0.0099586067321695
30
0
41
1
10
29.8757370253906
20
-0.0199296962797746
30
0
41
1
10
29.8796554952469
20
-0.0630891514868495
30
0
41
1
10
29.8879081734367
20
-0.096184332442931
30
0
41
1
10
29.9132826215345
20
-0.157306256487033
30
0
41
1
10
29.9308202065309
20
-0.186045714242283
30
0
41
1
10
29.9734723644377
20
-0.23737829857194
30
0
41
1
10
29.9995143945822
20
-0.2601095025924
30
0
41
1
10
30.0556752252778
20
-0.296042539355767
30
0
41
1
10
30.08642317569
20
-0.309553829152719
30
0
41
1
10
30.1176894481537
20
-0.318161969534884
30
0
0
SPLINE
5
8C
100
AcDbEntity
8
1
62
256
6
ByLayer
370
-1
48
1
60
0
100
AcDbSpline
70
4
71
3
72
14
73
10
40
0
40
0
40
0
40
0
40
0.285014780844597
40
0.285014780844597
40
0.572350605982626
40
0.572350605982626
40
0.832166772861851
40
0.832166772861851
40
1
40
1
40
1
40
1
41
1
10
32.9912359218828
20
1.32815233799056
30
0
41
1
10
33.0010393499621
20
1.36476918944476
30
0
41
1
10
33.004684087432
20
1.40427139210635
30
0
41
1
10
32.9974788795389
20
1.4830512387631
30
0
41
1
10
32.9863277996424
20
1.52354024827053
30
0
41
1
10
32.9510836374089
20
1.59427464153694
30
0
41
1
10
32.9277374753187
20
1.62616793531635
30
0
41
1
10
32.8815399721937
20
1.67004143752513
30
0
41
1
10
32.8611107366114
20
1.68543049764659
30
0
41
1
10
32.8393617778932
20
1.69818105835174
30
0
0
SPLINE
5
8D
100
AcDbEntity
8
1
62
256
6
ByLayer
370
-1
48
1
60
0
100
AcDbSpline
70
4
71
3
72
16
73
12
40
0
40
0
40
0
40
0
40
0.0517235387677625
40
0.0517235387677625
40
0.27509867752194
40
0.27509867752194
40
0.500660612379922
40
0.500660612379922
40
0.740399911602462
40
0.740399911602462
40
1
40
1
40
1
40
1
41
1
10
30.8482079987028
20
1.69818105835171
30
0
41
1
10
30.8414722357929
20
1.69423214498116
30
0
41
1
10
30.8348716782137
20
1.69004068469994
30
0
41
1
10
30.8008633833094
20
1.66671229859546
30
0
41
1
10
30.775970822073
20
1.64327794145365
30
0
41
1
10
30.7350511734576
20
1.59119709083004
30
0
41
1
10
30.7185713789542
20
1.56185510971602
30
0
41
1
10
30.6947048968341
20
1.49964422734962
30
0
41
1
10
30.6876223129725
20
1.46590385104176
30
0
41
1
10
30.6835735371926
20
1.39718720763045
30
0
41
1
10
30.6874053583971
20
1.36150122581503
30
0
41
1
10
30.6963338547131
20
1.32815233799053
30
0
0
SPLINE
5
8E
100
AcDbEntity
8
1
62
256
6
ByLayer
370
-1
48
1
60
0
100
AcDbSpline
70
4
71
3
72
18
73
14
40
0
40
0
40
0
40
0
40
0.213081262000627
40
0.213081262000627
40
0.387160943926346
40
0.387160943926346
40
0.562948999942006
40
0.562948999942006
40
0.715638435810365
40
0.715638435810365
40
0.91917095380812
40
0.91917095380812
40
1
40
1
40
1
40
1
41
1
10
30.6963338547132
20
-1.32815233796663
30
0
41
1
10
30.7184348916345
20
-1.24560260338558
30
0
41
1
10
30.7282732219895
20
-1.1567963171758
30
0
41
1
10
30.718779625765
20
-0.993059164687736
30
0
41
1
10
30.7041564941427
20
-0.916730717487553
30
0
41
1
10
30.652993444706
20
-0.769530009179704
30
0
41
1
10
30.6152626373023
20
-0.696611424977277
30
0
41
1
10
30.52901037579
20
-0.576568724182977
30
0
41
1
10
30.4816192190476
20
-0.525823063379391
30
0
41
1
10
30.3634759577891
20
-0.426209208990855
30
0
41
1
10
30.2883321442916
20
-0.381624771700757
30
0
41
1
10
30.1806411548024
20
-0.337519283809883
30
0
41
1
10
30.1492816491578
20
-0.326859843627204
30
0
41
1
10
30.1176894481537
20
-0.318161969534884
30
0
0
SPLINE
5
8F
100
AcDbEntity
8
1
62
256
6
ByLayer
370
-1
48
1
60
0
100
AcDbSpline
70
4
71
3
72
10
73
6
40
0
40
0
40
0
40
0
40
0.479736826236851
40
0.479736826236851
40
1
40
1
40
1
40
1
41
1
10
31.6910435949215
20
-1.40773793628787
30
0
41
1
10
31.6072566503952
20
-1.42350344075456
30
0
41
1
10
31.5269193319816
20
-1.45245021910088
30
0
41
1
10
31.3785652818685
20
-1.53137369449226
30
0
41
1
10
31.309661532501
20
-1.58395618458323
30
0
41
1
10
31.2516671841308
20
-1.64358262807679
30
0
0
SPLINE
5
90
100
AcDbEntity
8
1
62
256
6
ByLayer
370
-1
48
1
60
0
100
AcDbSpline
70
4
71
3
72
16
73
12
40
0
40
0
40
0
40
0
40
0.0645965064171817
40
0.0645965064171817
40
0.282747320500348
40
0.282747320500348
40
0.503851581407267
40
0.503851581407267
40
0.739476498257803
40
0.739476498257803
40
1
40
1
40
1
40
1
41
1
10
32.8393617778932
20
1.69818105835174
30
0
41
1
10
32.830770636214
20
1.70321770745872
30
0
41
1
10
32.8219400515127
20
1.70787061465666
30
0
41
1
10
32.782725480017
20
1.7263183132838
30
0
41
1
10
32.7500011752201
20
1.7359369082476
30
0
41
1
10
32.6844394188463
20
1.74495955001194
30
0
41
1
10
32.6507768241913
20
1.74436533863474
30
0
41
1
10
32.5849218495406
20
1.73353188577178
30
0
41
1
10
32.5521412889022
20
1.72256237929832
30
0
41
1
10
32.4899885823108
20
1.69088505354264
30
0
41
1
10
32.4605327454417
20
1.66890593055976
30
0
41
1
10
32.4359025924652
20
1.64358262810072
30
0
0
SPLINE
5
91
100
AcDbEntity
8
1
62
256
6
ByLayer
370
-1
48
1
60
0
100
AcDbSpline
70
4
71
3
72
14
73
10
40
0
40
0
40
0
40
0
40
0.281038222380451
40
0.281038222380451
40
0.564557857067104
40
0.564557857067104
40
0.820700196130088
40
0.820700196130088
40
1
40
1
40
1
40
1
41
1
10
32.4359025924652
20
-1.64358262807681
30
0
41
1
10
32.4624842637249
20
-1.67091236905802
30
0
41
1
10
32.494740919203
20
-1.69436552452399
30
0
41
1
10
32.566549693809
20
-1.72857486041502
30
0
41
1
10
32.6073128122182
20
-1.73968475903291
30
0
41
1
10
32.6866119735488
20
-1.74534868556225
30
0
41
1
10
32.7261924009964
20
-1.74141172563111
30
0
41
1
10
32.7898672152858
20
-1.72311543463371
30
0
41
1
10
32.8156142555122
20
-1.71210329845147
30
0
41
1
10
32.8393617778932
20
-1.69818105832783
30
0
0
SPLINE
5
92
100
AcDbEntity
8
1
62
256
6
ByLayer
370
-1
48
1
60
0
100
AcDbSpline
70
4
71
3
72
16
73
12
40
0
40
0
40
0
40
0
40
0.0660777514109146
40
0.0660777514109146
40
0.289232858199943
40
0.289232858199943
40
0.515409129607383
40
0.515409129607383
40
0.756439127791433
40
0.756439127791433
40
1
40
1
40
1
40
1
41
1
10
33.812284888298
20
1.19655E-11
30
0
41
1
10
33.812284888298
20
0.0099586067561006
30
0
41
1
10
33.8118327512053
20
0.0199296963036772
30
0
41
1
10
33.807914281349
20
0.0630891515107805
30
0
41
1
10
33.7996616031593
20
0.0961843324668337
30
0
41
1
10
33.7742871550614
20
0.157306256510935
30
0
41
1
10
33.7567495700651
20
0.186045714266214
30
0
41
1
10
33.7140974121583
20
0.237378298595843
30
0
41
1
10
33.6880553820138
20
0.260109502616331
30
0
41
1
10
33.6318945513181
20
0.29604253937967
30
0
41
1
10
33.601146600906
20
0.309553829176622
30
0
41
1
10
33.5698803284423
20
0.318161969558787
30
0
0
SPLINE
5
93
100
AcDbEntity
8
1
62
256
6
ByLayer
370
-1
48
1
60
0
100
AcDbSpline
70
4
71
3
72
14
73
10
40
0
40
0
40
0
40
0
40
0.285014780844647
40
0.285014780844647
40
0.572350605982616
40
0.572350605982616
40
0.832166772861817
40
0.832166772861817
40
1
40
1
40
1
40
1
41
1
10
30.6963338547131
20
-1.32815233796663
30
0
41
1
10
30.6865304266339
20
-1.36476918942083
30
0
41
1
10
30.682885689164
20
-1.40427139208245
30
0
41
1
10
30.6900908970571
20
-1.48305123873919
30
0
41
1
10
30.7012419769535
20
-1.5235402482466
30
0
41
1
10
30.7364861391871
20
-1.59427464151304
30
0
41
1
10
30.7598323012773
20
-1.62616793529244
30
0
41
1
10
30.8060298044022
20
-1.67004143750123
30
0
41
1
10
30.8264590399846
20
-1.68543049762269
30
0
41
1
10
30.8482079987028
20
-1.69818105832783
30
0
0
SPLINE
5
94
100
AcDbEntity
8
1
62
256
6
ByLayer
370
-1
48
1
60
0
100
AcDbSpline
70
4
71
3
72
16
73
12
40
0
40
0
40
0
40
0
40
0.0517235387679717
40
0.0517235387679717
40
0.275098677522099
40
0.275098677522099
40
0.500660612380131
40
0.500660612380131
40
0.740399911602674
40
0.740399911602674
40
1
40
1
40
1
40
1
41
1
10
32.8393617778932
20
-1.69818105832783
30
0
41
1
10
32.8460975408031
20
-1.69423214495723
30
0
41
1
10
32.8526980983823
20
-1.69004068467601
30
0
41
1
10
32.8867063932866
20
-1.66671229857153
30
0
41
1
10
32.911598954523
20
-1.64327794142972
30
0
41
1
10
32.9525186031384
20
-1.59119709080608
30
0
41
1
10
32.9689983976418
20
-1.56185510969206
30
0
41
1
10
32.9928648797619
20
-1.49964422732566
30
0
41
1
10
32.9999474636236
20
-1.4659038510178
30
0
41
1
10
33.0039962394034
20
-1.39718720760652
30
0
41
1
10
33.0001644181988
20
-1.3615012257911
30
0
41
1
10
32.9912359218828
20
-1.32815233796663
30
0
0
SPLINE
5
95
100
AcDbEntity
8
1
62
256
6
ByLayer
370
-1
48
1
60
0
100
AcDbSpline
70
4
71
3
72
18
73
14
40
0
40
0
40
0
40
0
40
0.213081026856107
40
0.213081026856107
40
0.387160750704742
40
0.387160750704742
40
0.562948851464644
40
0.562948851464644
40
0.715638295683692
40
0.715638295683692
40
0.919170771668918
40
0.919170771668918
40
1
40
1
40
1
40
1
41
1
10
33.5698803284423
20
-0.318161969534884
30
0
41
1
10
33.4874889147722
20
-0.340845737034925
30
0
41
1
10
33.4059020272556
20
-0.377272513014589
30
0
41
1
10
33.2694511065516
20
-0.468273055891814
30
0
41
1
10
33.2109999376775
20
-0.519491516721644
30
0
41
1
10
33.1098890312056
20
-0.63807608787414
30
0
41
1
10
33.0660662725287
20
-0.707504489687352
30
0
41
1
10
33.0061304992327
20
-0.842624486394612
30
0
41
1
10
32.9863216015603
20
-0.909172607348438
30
0
41
1
10
32.9601383526352
20
-1.06147226390922
30
0
41
1
10
32.9596806203836
20
-1.14884590365602
30
0
41
1
10
32.9760969331827
20
-1.26405511683981
30
0
41
1
10
32.9827614804717
20
-1.29649939373118
30
0
41
1
10
32.9912359218829
20
-1.32815233796663
30
0
0
LINE
5
4C
100
AcDbEntity
8
81
62
256
6
ByLayer
370
-1
48
1
60
0
100
AcDbLine
10
39.843785
20
8.0625
30
0
11
49.843785
21
8.0625
31
0
39
0
210
0
220
0
230
1
0
LINE
5
4D
100
AcDbEntity
8
80
62
256
6
ByLayer
370
-1
48
1
60
0
100
AcDbLine
10
0
20
0
30
0
11
-5
21
0
31
0
39
0
210
0
220
0
230
1
0
LINE
5
4E
100
AcDbEntity
8
1
62
256
6
ByLayer
370
-1
48
1
60
0
100
AcDbLine
10
26.966748
20
-6.8
30
0
11
27.543785
21
-6.8
31
0
39
0
210
0
220
0
230
1
0
LINE
5
50
100
AcDbEntity
8
1
62
256
6
ByLayer
370
-1
48
1
60
0
100
AcDbLine
10
22.843785
20
6.8
30
0
11
22.843785
21
-6.8
31
0
39
0
210
0
220
0
230
1
0
LINE
5
51
100
AcDbEntity
8
1
62
256
6
ByLayer
370
-1
48
1
60
0
100
AcDbLine
10
26.966748
20
6.8
30
0
11
26.966748
21
6.341496
31
0
39
0
210
0
220
0
230
1
0
LINE
5
52
100
AcDbEntity
8
1
62
256
6
ByLayer
370
-1
48
1
60
0
100
AcDbLine
10
22.843785
20
6.8
30
0
11
26.966748
21
6.8
31
0
39
0
210
0
220
0
230
1
0
LINE
5
53
100
AcDbEntity
8
1
62
256
6
ByLayer
370
-1
48
1
60
0
100
AcDbLine
10
26.966748
20
-6.341496
30
0
11
26.966748
21
-6.8
31
0
39
0
210
0
220
0
230
1
0
LINE
5
54
100
AcDbEntity
8
1
62
256
6
ByLayer
370
-1
48
1
60
0
100
AcDbLine
10
26.966748
20
-6.8
30
0
11
22.843785
21
-6.8
31
0
39
0
210
0
220
0
230
1
0
LINE
5
55
100
AcDbEntity
8
1
62
256
6
ByLayer
370
-1
48
1
60
0
100
AcDbLine
10
9.143785
20
6.8
30
0
11
22.693785
21
6.8
31
0
39
0
210
0
220
0
230
1
0
LINE
5
56
100
AcDbEntity
8
1
62
256
6
ByLayer
370
-1
48
1
60
0
100
AcDbLine
10
27.543785
20
-6.746108
30
0
11
27.543785
21
-6.8
31
0
39
0
210
0
220
0
230
1
0
LINE
5
57
100
AcDbEntity
8
1
62
256
6
ByLayer
370
-1
48
1
60
0
100
AcDbLine
10
0
20
12.4375
30
0
11
0.310326
21
11.9
31
0
39
0
210
0
220
0
230
1
0
LINE
5
58
100
AcDbEntity
8
1
62
256
6
ByLayer
370
-1
48
1
60
0
100
AcDbLine
10
27.629523
20
-6.8
30
0
11
27.543785
21
-6.8
31
0
39
0
210
0
220
0
230
1
0
LINE
5
59
100
AcDbEntity
8
1
62
256
6
ByLayer
370
-1
48
1
60
0
100
AcDbLine
10
22.843785
20
-6.8
30
0
11
22.693785
21
-6.8
31
0
39
0
210
0
220
0
230
1
0
LINE
5
5A
100
AcDbEntity
8
1
62
256
6
ByLayer
370
-1
48
1
60
0
100
AcDbLine
10
27.543785
20
6.8
30
0
11
27.629523
21
6.8
31
0
39
0
210
0
220
0
230
1
0
LINE
5
5B
100
AcDbEntity
8
1
62
256
6
ByLayer
370
-1
48
1
60
0
100
AcDbLine
10
22.693785
20
6.8
30
0
11
22.693785
21
-6.8
31
0
39
0
210
0
220
0
230
1
0
LINE
5
5C
100
AcDbEntity
8
1
62
256
6
ByLayer
370
-1
48
1
60
0
100
AcDbLine
10
0
20
-12.4375
30
0
11
0
21
12.4375
31
0
39
0
210
0
220
0
230
1
0
LINE
5
5D
100
AcDbEntity
8
1
62
256
6
ByLayer
370
-1
48
1
60
0
100
AcDbLine
10
22.693785
20
6.8
30
0
11
22.843785
21
6.8
31
0
39
0
210
0
220
0
230
1
0
LINE
5
5E
100
AcDbEntity
8
1
62
256
6
ByLayer
370
-1
48
1
60
0
100
AcDbLine
10
0.310326
20
-11.9
30
0
11
0
21
-12.4375
31
0
39
0
210
0
220
0
230
1
0
LINE
5
5F
100
AcDbEntity
8
1
62
256
6
ByLayer
370
-1
48
1
60
0
100
AcDbLine
10
27.543785
20
6.8
30
0
11
26.966748
21
6.8
31
0
39
0
210
0
220
0
230
1
0
LINE
5
60
100
AcDbEntity
8
1
62
256
6
ByLayer
370
-1
48
1
60
0
100
AcDbLine
10
27.543785
20
6.8
30
0
11
27.543785
21
6.746108
31
0
39
0
210
0
220
0
230
1
0
LINE
5
61
100
AcDbEntity
8
1
62
256
6
ByLayer
370
-1
48
1
60
0
100
AcDbLine
10
22.693785
20
-6.8
30
0
11
9.143785
21
-6.8
31
0
39
0
210
0
220
0
230
1
0
LINE
5
62
100
AcDbEntity
8
SK1
62
256
6
ByLayer
370
-1
48
1
60
0
100
AcDbLine
10
-131.506215
20
-12.4375
30
0
11
0
21
-12.4375
31
0
39
0
210
0
220
0
230
1
0
LINE
5
64
100
AcDbEntity
8
SK1
62
256
6
ByLayer
370
-1
48
1
60
0
100
AcDbLine
10
-131.506215
20
12.4375
30
0
11
-131.506215
21
-12.4375
31
0
39
0
210
0
220
0
230
1
0
LINE
5
65
100
AcDbEntity
8
SK1
62
256
6
ByLayer
370
-1
48
1
60
0
100
AcDbLine
10
0
20
12.4375
30
0
11
-131.506215
21
12.4375
31
0
39
0
210
0
220
0
230
1
0
LINE
5
66
100
AcDbEntity
8
SK1
62
256
6
ByLayer
370
-1
48
1
60
0
100
AcDbLine
10
0
20
-12.4375
30
0
11
0
21
12.4375
31
0
39
0
210
0
220
0
230
1
0
MTEXT
5
96
100
AcDbEntity
8
SK6
62
256
6
ByLayer
370
-1
48
1
60
0
100
AcDbMText
10
-73.005276
20
-24.400493
30
0
210
0
220
0
230
1
1
\W00.740;\fsimplex.shx,bigfont.shx;SRDCN 3225P 16-A 
40
3.5
41
0
44
1.084337
50
0
71
7
72
5
7
DEFAULT
0
DIMENSION
5
C9
100
AcDbEntity
8
SK2
62
256
6
ByLayer
370
-3
48
1
60
0
100
AcDbDimension
2
DimnDraft3D1
10
-141.256215
20
12.4375
30
0
11
-141.256215
21
-2.628947
31
0
70
32
71
5
72
1
41
1
210
0
220
0
230
1
3
Standard
100
AcDbAlignedDimension
13
-133.506215
23
-12.4375
33
0
14
-133.506215
24
12.4375
34
0
50
90
100
AcDbRotatedDimension
1001
ACAD
1000
DSTYLE
1002
{
1070
    74
1070
     0
1070
   279
1070
     0
1070
   172
1070
     1
1070
   173
1070
     1
1070
   340
1005
97
1070
    77
1070
     1
1070
    73
1070
     0
1070
   171
1070
     3
1070
   274
1070
     4
1070
   177
1070
     2
1070
   176
1070
     2
1070
   178
1070
     7
1070
    78
1070
     8
1070
    41
1041
3.175
1070
   147
1041
2.25
1070
    42
1041
2.0
1070
    44
1041
2.0
1070
   140
1041
4.5
1070
   343
1005
CA
1070
   344
1005
CA
1002
}
0
DIMENSION
5
DE
100
AcDbEntity
8
2
62
256
6
ByLayer
370
-3
48
1
60
0
100
AcDbDimension
2
DimnDraft3D2
10
54.093785
20
8.0625
30
0
11
54.093785
21
-7.350658
31
0
70
32
71
5
72
1
41
1
210
0
220
0
230
1
3
Standard
100
AcDbAlignedDimension
13
2
23
-12.4375
33
0
14
41.843785
24
8.0625
34
0
50
90
100
AcDbRotatedDimension
1001
ACAD
1000
DSTYLE
1002
{
1070
    74
1070
     0
1070
   279
1070
     0
1070
   172
1070
     1
1070
   173
1070
     1
1070
   340
1005
97
1070
    77
1070
     1
1070
    73
1070
     0
1070
   171
1070
     3
1070
   274
1070
     4
1070
   177
1070
     2
1070
   176
1070
     2
1070
   178
1070
     7
1070
    78
1070
     8
1070
    41
1041
3.175
1070
   147
1041
2.25
1070
    42
1041
2.0
1070
    44
1041
2.0
1070
   140
1041
4.5
1070
   343
1005
CA
1070
   344
1005
CA
1002
}
0
DIMENSION
5
EC
100
AcDbEntity
8
2
62
256
6
ByLayer
370
-3
48
1
60
0
100
AcDbDimension
2
DimnDraft3D3
10
4.843785
20
-24.6875
30
0
11
19.714838
21
-24.6875
31
0
70
32
71
5
72
1
41
1
210
0
220
0
230
1
3
Standard
100
AcDbAlignedDimension
13
39.843785
23
-9.9375
33
0
14
4.843785
24
-9.9375
34
0
50
0
100
AcDbRotatedDimension
1001
ACAD
1000
DSTYLE
1002
{
1070
   279
1070
     0
1070
   172
1070
     1
1070
   173
1070
     1
1070
   340
1005
97
1070
    77
1070
     1
1070
    73
1070
     0
1070
   171
1070
     3
1070
   274
1070
     4
1070
   177
1070
     2
1070
   176
1070
     2
1070
   178
1070
     7
1070
    78
1070
     8
1070
    41
1041
3.175
1070
   147
1041
2.25
1070
    42
1041
2.0
1070
    44
1041
2.0
1070
   140
1041
4.5
1070
   343
1005
CA
1070
   344
1005
CA
1002
}
0
DIMENSION
5
FA
100
AcDbEntity
8
SK2
62
256
6
ByLayer
370
-3
48
1
60
0
100
AcDbDimension
2
DimnDraft3D4
10
-131.506215
20
27.8125
30
0
11
-49.549636
21
27.8125
31
0
70
32
71
5
72
1
41
1
210
0
220
0
230
1
3
Standard
100
AcDbAlignedDimension
13
39.843785
23
10.0625
33
0
14
-131.506215
24
14.4375
34
0
50
0
100
AcDbRotatedDimension
1001
ACAD
1000
DSTYLE
1002
{
1070
   279
1070
     0
1070
   172
1070
     1
1070
   173
1070
     1
1070
   340
1005
97
1070
    77
1070
     1
1070
    73
1070
     0
1070
   171
1070
     3
1070
   274
1070
     4
1070
   177
1070
     2
1070
   176
1070
     2
1070
   178
1070
     7
1070
    78
1070
     8
1070
    41
1041
3.175
1070
   147
1041
2.25
1070
    42
1041
2.0
1070
    44
1041
2.0
1070
   140
1041
4.5
1070
   343
1005
CA
1070
   344
1005
CA
1002
}
0
ENDSEC
0
SECTION
2
OBJECTS
0
DICTIONARY
5
12a
330
0
100
AcDbDictionary
280
0
281
1
3
ACAD_GROUP
350
12b
3
ACAD_MLINESTYLE
350
12c
0
DICTIONARY
5
12b
330
0
100
AcDbDictionary
280
0
281
1
0
DICTIONARY
5
12c
330
0
100
AcDbDictionary
280
0
281
1
3
Standard
350
18
0
MLINESTYLE
5
18
330
12c
100
AcDbMlineStyle
2
Standard
70
0
3

62
256
51
90
52
90
71
2
49
-0.5
62
256
6
ByLayer
49
0.5
62
256
6
ByLayer
0
RASTERVARIABLES
5
119
330

100
AcDbRasterVariables
90
0
70
1
71
1
72
1
0
ENDSEC
0
EOF
