0
SECTION
2
HEADER
9
$ACADVER
1
AC1015
9
$DWGCODEPAGE
3
ANSI_1252
9
$HANDSEED
5
137
9
$ANGBASE
50
0
9
$ANGDIR
70
0
9
$ATTMODE
70
1
9
$AUNITS
70
0
9
$AUPREC
70
0
9
$CECOLOR
62
256
9
$CELTSCALE
40
1
9
$CELTYPE
6
ByLayer
9
$CELWEIGHT
370
-1
9
$CLAYER
8
0
9
$CMLJUST
70
0
9
$CMLSCALE
40
1
9
$CMLSTYLE
2
Standard
9
$DIMSTYLE
2
Standard
9
$TEXTSIZE
40
0.2
9
$TEXTSTYLE
7
Standard
9
$LUNITS
70
2
9
$LUPREC
70
4
9
$EXTNAMES
290
1
9
$INSUNITS
70
4
9
$LTSCALE
40
1
9
$LWDISPLAY
290
0
9
$PDMODE
70
0
9
$PDSIZE
40
0
9
$PLINEGEN
70
0
0
ENDSEC
0
SECTION
2
CLASSES
0
CLASS
1
RASTERVARIABLES
2
AcDbRasterVariables
3
ISM
90
0
280
0
281
0
0
ENDSEC
0
SECTION
2
TABLES
0
TABLE
2
VPORT
5
12d
100
AcDbSymbolTable
0
VPORT
5
1
100
AcDbSymbolTableRecord
100
AcDbViewportTableRecord
2
*Active
70
0
10
0
20
0
11
1
21
1
12
-1
22
1
13
0
23
0
14
0.5
24
0.5
15
10
25
10
16
0
26
0
36
1
17
0
27
0
37
0
0
ENDTAB
0
TABLE
2
LTYPE
5
12e
100
AcDbSymbolTable
0
LTYPE
5
14
100
AcDbSymbolTableRecord
100
AcDbLinetypeTableRecord
70
0
2
ByBlock
3

72
65
73
0
40
0
0
LTYPE
5
15
100
AcDbSymbolTableRecord
100
AcDbLinetypeTableRecord
70
0
2
ByLayer
3

72
65
73
0
40
0
0
LTYPE
5
16
100
AcDbSymbolTableRecord
100
AcDbLinetypeTableRecord
70
0
2
CONTINUOUS
3
Solid line
72
65
73
0
40
0
0
LTYPE
5
3B
100
AcDbSymbolTableRecord
100
AcDbLinetypeTableRecord
70
0
2
DASHED
3
__ __ __ __ __ __ __ __ __
72
65
73
2
40
25.72
49
12.86
74
0
49
-12.86
74
0
0
LTYPE
5
3C
100
AcDbSymbolTableRecord
100
AcDbLinetypeTableRecord
70
0
2
HIDDEN
3
_ _ _ _ _ _ _ _ _ _ _ _ _ _ _
72
65
73
2
40
0.5
49
0.25
74
0
49
-0.25
74
0
0
LTYPE
5
3D
100
AcDbSymbolTableRecord
100
AcDbLinetypeTableRecord
70
0
2
PHANTOM
3
____ _ _ ____ _ _ _____ _ _ ____
72
65
73
6
40
50.5
49
18
74
0
49
-6.5
74
0
49
6.5
74
0
49
-6.5
74
0
49
6.5
74
0
49
-6.5
74
0
0
LTYPE
5
3E
100
AcDbSymbolTableRecord
100
AcDbLinetypeTableRecord
70
0
2
CENTER
3
____ _ ____ _ ____ _ ____
72
65
73
4
40
47.5
49
22
74
0
49
-8.5
74
0
49
8.5
74
0
49
-8.5
74
0
0
LTYPE
5
3F
100
AcDbSymbolTableRecord
100
AcDbLinetypeTableRecord
70
0
2
DOT
3
.........................
72
65
73
2
40
10
49
0
74
0
49
-10
74
0
0
LTYPE
5
40
100
AcDbSymbolTableRecord
100
AcDbLinetypeTableRecord
70
0
2
DASHDOT
3
_._._._._._._._._._._._._._._._.
72
65
73
4
40
70
49
31
74
0
49
-13
74
0
49
13
74
0
49
-13
74
0
0
ENDTAB
0
TABLE
2
LAYER
5
12f
100
AcDbSymbolTable
0
LAYER
5
10
100
AcDbSymbolTableRecord
100
AcDbLayerTableRecord
2
0
70
0
62
7
6
CONTINUOUS
290
1
370
-3
390
0
0
LAYER
5
44
100
AcDbSymbolTableRecord
100
AcDbLayerTableRecord
2
81
70
0
62
-3
6
CONTINUOUS
290
1
370
-3
390
0
0
LAYER
5
47
100
AcDbSymbolTableRecord
100
AcDbLayerTableRecord
2
80
70
0
62
-6
6
CONTINUOUS
290
1
370
-3
390
0
0
LAYER
5
49
100
AcDbSymbolTableRecord
100
AcDbLayerTableRecord
2
2
70
0
62
7
6
CONTINUOUS
290
1
370
-3
390
0
0
LAYER
5
4F
100
AcDbSymbolTableRecord
100
AcDbLayerTableRecord
2
1
70
0
62
4
6
CONTINUOUS
290
1
370
-3
390
0
0
LAYER
5
11a
100
AcDbSymbolTableRecord
100
AcDbLayerTableRecord
2
SK2
70
0
62
7
6
CONTINUOUS
290
1
370
-3
390
0
0
LAYER
5
11b
100
AcDbSymbolTableRecord
100
AcDbLayerTableRecord
2
SK1
70
0
62
4
6
CONTINUOUS
290
1
370
-3
390
0
0
LAYER
5
11c
100
AcDbSymbolTableRecord
100
AcDbLayerTableRecord
2
SK6
70
0
62
5
6
CONTINUOUS
290
1
370
-3
390
0
0
ENDTAB
0
TABLE
2
STYLE
5
130
100
AcDbSymbolTable
0
STYLE
5
11
100
AcDbSymbolTableRecord
100
AcDbTextStyleTableRecord
2
Standard
3
txt
70
0
71
0
40
0
41
1
42
0
50
0
0
STYLE
5
97
100
AcDbSymbolTableRecord
100
AcDbTextStyleTableRecord
2
DEFAULT
3
simplex.shx
70
0
71
0
40
0
41
1
42
0
50
0
0
STYLE
5
BA
100
AcDbSymbolTableRecord
100
AcDbTextStyleTableRecord
2
DWGDirectTextStyle
3
SIMPLEX
70
0
71
0
40
0
41
1
42
0
50
0
0
ENDTAB
0
TABLE
2
DIMSTYLE
5
131
100
AcDbSymbolTable
100
AcDbDimStyleTable
0
DIMSTYLE
105
27
100
AcDbSymbolTableRecord
100
AcDbDimStyleTableRecord
2
Standard
70
0
3
<>
41
0.18
42
0.0625
44
0.18
140
0.18
147
0.09
73
0
74
0
77
1
271
2
275
0
278
52
280
0
340
11
0
ENDTAB
0
TABLE
2
VIEW
5
132
100
AcDbSymbolTable
0
ENDTAB
0
TABLE
2
UCS
5
133
100
AcDbSymbolTable
0
ENDTAB
0
TABLE
2
APPID
5
134
100
AcDbSymbolTable
0
APPID
5
12
100
AcDbSymbolTableRecord
100
AcDbRegAppTableRecord
2
ACAD
70
0
0
ENDTAB
0
TABLE
2
BLOCK_RECORD
5
135
100
AcDbSymbolTable
0
BLOCK_RECORD
5
1F
100
AcDbSymbolTableRecord
100
AcDbBlockTableRecord
2
*Model_Space
340
0
70
0
0
BLOCK_RECORD
5
1B
100
AcDbSymbolTableRecord
100
AcDbBlockTableRecord
2
*Paper_Space
340
0
70
0
0
BLOCK_RECORD
5
23
100
AcDbSymbolTableRecord
100
AcDbBlockTableRecord
2
*Paper_Space0
340
0
70
0
0
BLOCK_RECORD
5
BC
100
AcDbSymbolTableRecord
100
AcDbBlockTableRecord
2
DimnDraft3D1
340
0
70
0
0
BLOCK_RECORD
5
CA
100
AcDbSymbolTableRecord
100
AcDbBlockTableRecord
2
_CLOSED
340
0
70
0
0
BLOCK_RECORD
5
D1
100
AcDbSymbolTableRecord
100
AcDbBlockTableRecord
2
DimnDraft3D2
340
0
70
0
0
BLOCK_RECORD
5
DF
100
AcDbSymbolTableRecord
100
AcDbBlockTableRecord
2
DimnDraft3D3
340
0
70
0
0
BLOCK_RECORD
5
ED
100
AcDbSymbolTableRecord
100
AcDbBlockTableRecord
2
DimnDraft3D4
340
0
70
0
0
ENDTAB
0
ENDSEC
0
SECTION
2
BLOCKS
0
BLOCK
5
20
100
AcDbEntity
8
0
100
AcDbBlockBegin
2
*Model_Space
70
0
10
0
20
0
30
0
3
*Model_Space
0
ENDBLK
5
21
100
AcDbEntity
8
0
100
AcDbBlockEnd
0
BLOCK
5
1C
100
AcDbEntity
8
0
100
AcDbBlockBegin
2
*Paper_Space
70
0
10
0
20
0
30
0
3
*Paper_Space
0
ENDBLK
5
1D
100
AcDbEntity
8
0
100
AcDbBlockEnd
0
BLOCK
5
24
100
AcDbEntity
8
0
100
AcDbBlockBegin
2
*Paper_Space0
70
0
10
0
20
0
30
0
3
*Paper_Space0
0
ENDBLK
5
25
100
AcDbEntity
8
0
100
AcDbBlockEnd
0
BLOCK
5
C7
100
AcDbEntity
8
0
100
AcDbBlockBegin
2
DimnDraft3D1
70
0
10
0
20
0
30
0
3
DimnDraft3D1
0
MTEXT
5
BD
100
AcDbEntity
8
SK2
62
256
6
ByLayer
370
-1
48
1
60
0
100
AcDbMText
10
-106.483278
20
-1.503947
30
0
210
0
220
0
230
1
1
\W01.000;\fsimplex.shx,bigfont.shx;20 
40
4.5
41
0
44
1.084337
50
90
71
7
72
5
7
DEFAULT
0
LINE
5
BE
100
AcDbEntity
8
SK2
62
256
6
ByLayer
370
-1
48
1
60
0
100
AcDbLine
10
-97.608278
20
-9.9375
30
0
11
-107.358278
21
-9.9375
31
0
39
0
210
0
220
0
230
1
0
LINE
5
BF
100
AcDbEntity
8
SK2
62
256
6
ByLayer
370
-1
48
1
60
0
100
AcDbLine
10
-97.608278
20
9.9375
30
0
11
-107.358278
21
9.9375
31
0
39
0
210
0
220
0
230
1
0
LINE
5
C0
100
AcDbEntity
8
SK2
62
256
6
ByLayer
370
-1
48
1
60
0
100
AcDbLine
10
-105.358278
20
-9.9375
30
0
11
-105.358278
21
9.9375
31
0
39
0
210
0
220
0
230
1
0
LINE
5
C1
100
AcDbEntity
8
SK2
62
256
6
ByLayer
370
-1
48
1
60
0
100
AcDbLine
10
-105.358278
20
-9.9375
30
0
11
-105.776275
21
-6.762502
31
0
39
0
210
0
220
0
230
1
0
LINE
5
C2
100
AcDbEntity
8
SK2
62
256
6
ByLayer
370
-1
48
1
60
0
100
AcDbLine
10
-105.358278
20
-9.9375
30
0
11
-104.940281
21
-6.762498
31
0
39
0
210
0
220
0
230
1
0
LINE
5
C3
100
AcDbEntity
8
SK2
62
256
6
ByLayer
370
-1
48
1
60
0
100
AcDbLine
10
-105.776275
20
-6.762502
30
0
11
-104.940281
21
-6.762498
31
0
39
0
210
0
220
0
230
1
0
LINE
5
C4
100
AcDbEntity
8
SK2
62
256
6
ByLayer
370
-1
48
1
60
0
100
AcDbLine
10
-105.358278
20
9.9375
30
0
11
-104.940281
21
6.762502
31
0
39
0
210
0
220
0
230
1
0
LINE
5
C5
100
AcDbEntity
8
SK2
62
256
6
ByLayer
370
-1
48
1
60
0
100
AcDbLine
10
-105.358278
20
9.9375
30
0
11
-105.776275
21
6.762498
31
0
39
0
210
0
220
0
230
1
0
LINE
5
C6
100
AcDbEntity
8
SK2
62
256
6
ByLayer
370
-1
48
1
60
0
100
AcDbLine
10
-104.940281
20
6.762502
30
0
11
-105.776275
21
6.762498
31
0
39
0
210
0
220
0
230
1
0
ENDBLK
5
C8
100
AcDbEntity
8
0
100
AcDbBlockEnd
0
BLOCK
5
CB
100
AcDbEntity
8
0
100
AcDbBlockBegin
2
_CLOSED
70
0
10
0
20
0
30
0
3
_CLOSED
0
LINE
5
CD
100
AcDbEntity
8
0
62
256
6
ByLayer
370
-2
48
1
60
0
100
AcDbLine
10
-1
20
0.166667
30
0
11
0
21
0
31
0
39
0
210
0
220
0
230
1
0
LINE
5
CE
100
AcDbEntity
8
0
62
256
6
ByLayer
370
-2
48
1
60
0
100
AcDbLine
10
0
20
0
30
0
11
-1
21
-0.166667
31
0
39
0
210
0
220
0
230
1
0
LINE
5
CF
100
AcDbEntity
8
0
62
256
6
ByLayer
370
-2
48
1
60
0
100
AcDbLine
10
-1
20
0.166667
30
0
11
-1
21
-0.166667
31
0
39
0
210
0
220
0
230
1
0
LINE
5
D0
100
AcDbEntity
8
0
62
256
6
ByLayer
370
-2
48
1
60
0
100
AcDbLine
10
0
20
0
30
0
11
-1
21
0
31
0
39
0
210
0
220
0
230
1
0
ENDBLK
5
CC
100
AcDbEntity
8
0
100
AcDbBlockEnd
0
BLOCK
5
DC
100
AcDbEntity
8
0
100
AcDbBlockBegin
2
DimnDraft3D2
70
0
10
0
20
0
30
0
3
DimnDraft3D2
0
MTEXT
5
D2
100
AcDbEntity
8
2
62
256
6
ByLayer
370
-1
48
1
60
0
100
AcDbMText
10
43.866722
20
-3.378947
30
0
210
0
220
0
230
1
1
\W01.000;\fsimplex.shx,bigfont.shx;15 
40
4.5
41
0
44
1.084337
50
90
71
7
72
5
7
DEFAULT
0
LINE
5
D3
100
AcDbEntity
8
2
62
256
6
ByLayer
370
-1
48
1
60
0
100
AcDbLine
10
2
20
-9.9375
30
0
11
46.991722
21
-9.9375
31
0
39
0
210
0
220
0
230
1
0
LINE
5
D4
100
AcDbEntity
8
2
62
256
6
ByLayer
370
-1
48
1
60
0
100
AcDbLine
10
32.741722
20
5.0625
30
0
11
46.991722
21
5.0625
31
0
39
0
210
0
220
0
230
1
0
LINE
5
D5
100
AcDbEntity
8
2
62
256
6
ByLayer
370
-1
48
1
60
0
100
AcDbLine
10
44.991722
20
-9.9375
30
0
11
44.991722
21
5.0625
31
0
39
0
210
0
220
0
230
1
0
LINE
5
D6
100
AcDbEntity
8
2
62
256
6
ByLayer
370
-1
48
1
60
0
100
AcDbLine
10
44.991722
20
-9.9375
30
0
11
44.573725
21
-6.762502
31
0
39
0
210
0
220
0
230
1
0
LINE
5
D7
100
AcDbEntity
8
2
62
256
6
ByLayer
370
-1
48
1
60
0
100
AcDbLine
10
44.991722
20
-9.9375
30
0
11
45.409719
21
-6.762498
31
0
39
0
210
0
220
0
230
1
0
LINE
5
D8
100
AcDbEntity
8
2
62
256
6
ByLayer
370
-1
48
1
60
0
100
AcDbLine
10
44.573725
20
-6.762502
30
0
11
45.409719
21
-6.762498
31
0
39
0
210
0
220
0
230
1
0
LINE
5
D9
100
AcDbEntity
8
2
62
256
6
ByLayer
370
-1
48
1
60
0
100
AcDbLine
10
44.991722
20
5.0625
30
0
11
45.409719
21
1.887502
31
0
39
0
210
0
220
0
230
1
0
LINE
5
DA
100
AcDbEntity
8
2
62
256
6
ByLayer
370
-1
48
1
60
0
100
AcDbLine
10
44.991722
20
5.0625
30
0
11
44.573725
21
1.887498
31
0
39
0
210
0
220
0
230
1
0
LINE
5
DB
100
AcDbEntity
8
2
62
256
6
ByLayer
370
-1
48
1
60
0
100
AcDbLine
10
45.409719
20
1.887502
30
0
11
44.573725
21
1.887498
31
0
39
0
210
0
220
0
230
1
0
ENDBLK
5
DD
100
AcDbEntity
8
0
100
AcDbBlockEnd
0
BLOCK
5
EA
100
AcDbEntity
8
0
100
AcDbBlockBegin
2
DimnDraft3D3
70
0
10
0
20
0
30
0
3
DimnDraft3D3
0
MTEXT
5
E0
100
AcDbEntity
8
2
62
256
6
ByLayer
370
-1
48
1
60
0
100
AcDbMText
10
16.737775
20
-21.0625
30
0
210
0
220
0
230
1
1
\W01.000;\fsimplex.shx,bigfont.shx;25 
40
4.5
41
0
44
1.084337
50
0
71
7
72
5
7
DEFAULT
0
LINE
5
E1
100
AcDbEntity
8
2
62
256
6
ByLayer
370
-1
48
1
60
0
100
AcDbLine
10
30.741722
20
-6.9375
30
0
11
30.741722
21
-24.1875
31
0
39
0
210
0
220
0
230
1
0
LINE
5
E2
100
AcDbEntity
8
2
62
256
6
ByLayer
370
-1
48
1
60
0
100
AcDbLine
10
5.741722
20
-6.9375
30
0
11
5.741722
21
-24.1875
31
0
39
0
210
0
220
0
230
1
0
LINE
5
E3
100
AcDbEntity
8
2
62
256
6
ByLayer
370
-1
48
1
60
0
100
AcDbLine
10
30.741722
20
-22.1875
30
0
11
5.741722
21
-22.1875
31
0
39
0
210
0
220
0
230
1
0
LINE
5
E4
100
AcDbEntity
8
2
62
256
6
ByLayer
370
-1
48
1
60
0
100
AcDbLine
10
30.741722
20
-22.1875
30
0
11
27.566723
21
-22.605497
31
0
39
0
210
0
220
0
230
1
0
LINE
5
E5
100
AcDbEntity
8
2
62
256
6
ByLayer
370
-1
48
1
60
0
100
AcDbLine
10
30.741722
20
-22.1875
30
0
11
27.56672
21
-21.769503
31
0
39
0
210
0
220
0
230
1
0
LINE
5
E6
100
AcDbEntity
8
2
62
256
6
ByLayer
370
-1
48
1
60
0
100
AcDbLine
10
27.566723
20
-22.605497
30
0
11
27.56672
21
-21.769503
31
0
39
0
210
0
220
0
230
1
0
LINE
5
E7
100
AcDbEntity
8
2
62
256
6
ByLayer
370
-1
48
1
60
0
100
AcDbLine
10
5.741722
20
-22.1875
30
0
11
8.91672
21
-21.769503
31
0
39
0
210
0
220
0
230
1
0
LINE
5
E8
100
AcDbEntity
8
2
62
256
6
ByLayer
370
-1
48
1
60
0
100
AcDbLine
10
5.741722
20
-22.1875
30
0
11
8.916723
21
-22.605497
31
0
39
0
210
0
220
0
230
1
0
LINE
5
E9
100
AcDbEntity
8
2
62
256
6
ByLayer
370
-1
48
1
60
0
100
AcDbLine
10
8.91672
20
-21.769503
30
0
11
8.916723
21
-22.605497
31
0
39
0
210
0
220
0
230
1
0
ENDBLK
5
EB
100
AcDbEntity
8
0
100
AcDbBlockEnd
0
BLOCK
5
F8
100
AcDbEntity
8
0
100
AcDbBlockBegin
2
DimnDraft3D4
70
0
10
0
20
0
30
0
3
DimnDraft3D4
0
MTEXT
5
EE
100
AcDbEntity
8
SK2
62
256
6
ByLayer
370
-1
48
1
60
0
100
AcDbMText
10
-35.026699
20
25.9375
30
0
210
0
220
0
230
1
1
\W01.000;\fsimplex.shx,bigfont.shx;125 
40
4.5
41
0
44
1.084337
50
0
71
7
72
5
7
DEFAULT
0
LINE
5
EF
100
AcDbEntity
8
SK2
62
256
6
ByLayer
370
-1
48
1
60
0
100
AcDbLine
10
30.741722
20
7.0625
30
0
11
30.741722
21
26.8125
31
0
39
0
210
0
220
0
230
1
0
LINE
5
F0
100
AcDbEntity
8
SK2
62
256
6
ByLayer
370
-1
48
1
60
0
100
AcDbLine
10
-95.608278
20
11.9375
30
0
11
-95.608278
21
26.8125
31
0
39
0
210
0
220
0
230
1
0
LINE
5
F1
100
AcDbEntity
8
SK2
62
256
6
ByLayer
370
-1
48
1
60
0
100
AcDbLine
10
30.741722
20
24.8125
30
0
11
-95.608278
21
24.8125
31
0
39
0
210
0
220
0
230
1
0
LINE
5
F2
100
AcDbEntity
8
SK2
62
256
6
ByLayer
370
-1
48
1
60
0
100
AcDbLine
10
30.741722
20
24.8125
30
0
11
27.566723
21
24.394503
31
0
39
0
210
0
220
0
230
1
0
LINE
5
F3
100
AcDbEntity
8
SK2
62
256
6
ByLayer
370
-1
48
1
60
0
100
AcDbLine
10
30.741722
20
24.8125
30
0
11
27.56672
21
25.230497
31
0
39
0
210
0
220
0
230
1
0
LINE
5
F4
100
AcDbEntity
8
SK2
62
256
6
ByLayer
370
-1
48
1
60
0
100
AcDbLine
10
27.566723
20
24.394503
30
0
11
27.56672
21
25.230497
31
0
39
0
210
0
220
0
230
1
0
LINE
5
F5
100
AcDbEntity
8
SK2
62
256
6
ByLayer
370
-1
48
1
60
0
100
AcDbLine
10
-95.608278
20
24.8125
30
0
11
-92.43328
21
25.230497
31
0
39
0
210
0
220
0
230
1
0
LINE
5
F6
100
AcDbEntity
8
SK2
62
256
6
ByLayer
370
-1
48
1
60
0
100
AcDbLine
10
-95.608278
20
24.8125
30
0
11
-92.433277
21
24.394503
31
0
39
0
210
0
220
0
230
1
0
LINE
5
F7
100
AcDbEntity
8
SK2
62
256
6
ByLayer
370
-1
48
1
60
0
100
AcDbLine
10
-92.43328
20
25.230497
30
0
11
-92.433277
21
24.394503
31
0
39
0
210
0
220
0
230
1
0
ENDBLK
5
F9
100
AcDbEntity
8
0
100
AcDbBlockEnd
0
ENDSEC
0
SECTION
2
ENTITIES
0
ARC
5
6B
100
AcDbEntity
8
1
62
256
6
ByLayer
370
-1
48
1
60
0
100
AcDbCircle
39
0
10
-9.20152
20
-14.4
30
0
40
10.2
210
0
220
0
230
-1
100
AcDbArc
50
30
51
90
0
ARC
5
6C
100
AcDbEntity
8
1
62
256
6
ByLayer
370
-1
48
1
60
0
100
AcDbCircle
39
0
10
-9.20152
20
14.4
30
0
40
10.2
210
0
220
0
230
-1
100
AcDbArc
50
270
51
330
0
ARC
5
6D
100
AcDbEntity
8
1
62
256
6
ByLayer
370
-1
48
1
60
0
100
AcDbCircle
39
0
10
23.541722
20
0
30
0
40
3
210
0
220
0
230
1
100
AcDbArc
50
147.263569
51
212.736431
0
ARC
5
6E
100
AcDbEntity
8
1
62
256
6
ByLayer
370
-1
48
1
60
0
100
AcDbCircle
39
0
10
-25.741722
20
0
30
0
40
1.6765
210
0
220
0
230
-1
100
AcDbArc
50
0
51
59.840113
0
ARC
5
6F
100
AcDbEntity
8
1
62
256
6
ByLayer
370
-1
48
1
60
0
100
AcDbCircle
39
0
10
-25.741722
20
0
30
0
40
1.2065
210
0
220
0
230
-1
100
AcDbArc
50
266.044721
51
273.955279
0
ARC
5
70
100
AcDbEntity
8
1
62
256
6
ByLayer
370
-1
48
1
60
0
100
AcDbCircle
39
0
10
-25.741722
20
0
30
0
40
1.2065
210
0
220
0
230
-1
100
AcDbArc
50
29.920057
51
86.044721
0
ARC
5
71
100
AcDbEntity
8
1
62
256
6
ByLayer
370
-1
48
1
60
0
100
AcDbCircle
39
0
10
-25.741722
20
0
30
0
40
1.6765
210
0
220
0
230
-1
100
AcDbArc
50
300.159887
51
0
0
ARC
5
73
100
AcDbEntity
8
1
62
256
6
ByLayer
370
-1
48
1
60
0
100
AcDbCircle
39
0
10
-25.741722
20
0
30
0
40
1.6765
210
0
220
0
230
-1
100
AcDbArc
50
239.840113
51
300.159887
0
ARC
5
74
100
AcDbEntity
8
1
62
256
6
ByLayer
370
-1
48
1
60
0
100
AcDbCircle
39
0
10
-25.741722
20
0
30
0
40
1.6765
210
0
220
0
230
-1
100
AcDbArc
50
120.159887
51
180
0
ARC
5
75
100
AcDbEntity
8
1
62
256
6
ByLayer
370
-1
48
1
60
0
100
AcDbCircle
39
0
10
25.741722
20
0
30
0
40
1.2065
210
0
220
0
230
1
100
AcDbArc
50
29.920057
51
86.044721
0
ARC
5
76
100
AcDbEntity
8
1
62
256
6
ByLayer
370
-1
48
1
60
0
100
AcDbCircle
39
0
10
25.741722
20
0
30
0
40
1.2065
210
0
220
0
230
1
100
AcDbArc
50
150.079943
51
209.920057
0
ARC
5
77
100
AcDbEntity
8
1
62
256
6
ByLayer
370
-1
48
1
60
0
100
AcDbCircle
39
0
10
25.741722
20
0
30
0
40
1.2065
210
0
220
0
230
1
100
AcDbArc
50
273.955279
51
330.079943
0
ARC
5
78
100
AcDbEntity
8
1
62
256
6
ByLayer
370
-1
48
1
60
0
100
AcDbCircle
39
0
10
25.741722
20
0
30
0
40
1.2065
210
0
220
0
230
1
100
AcDbArc
50
330.079943
51
29.920057
0
ARC
5
7A
100
AcDbEntity
8
1
62
256
6
ByLayer
370
-1
48
1
60
0
100
AcDbCircle
39
0
10
-25.741722
20
0
30
0
40
1.6765
210
0
220
0
230
-1
100
AcDbArc
50
180
51
239.840113
0
ARC
5
7D
100
AcDbEntity
8
1
62
256
6
ByLayer
370
-1
48
1
60
0
100
AcDbCircle
39
0
10
-25.741722
20
0
30
0
40
1.2065
210
0
220
0
230
-1
100
AcDbArc
50
86.044721
51
93.955279
0
ARC
5
7E
100
AcDbEntity
8
1
62
256
6
ByLayer
370
-1
48
1
60
0
100
AcDbCircle
39
0
10
25.741722
20
0
30
0
40
1.2065
210
0
220
0
230
1
100
AcDbArc
50
209.920057
51
266.044721
0
ARC
5
81
100
AcDbEntity
8
1
62
256
6
ByLayer
370
-1
48
1
60
0
100
AcDbCircle
39
0
10
-25.741722
20
0
30
0
40
1.6765
210
0
220
0
230
-1
100
AcDbArc
50
59.840113
51
120.159887
0
CIRCLE
5
72
100
AcDbEntity
8
1
62
256
6
ByLayer
370
-1
48
1
60
0
100
AcDbCircle
10
-25.741722
20
0
30
0
40
1.8
39
0
210
0
220
0
230
-1
0
CIRCLE
5
79
100
AcDbEntity
8
1
62
256
6
ByLayer
370
-1
48
1
60
0
100
AcDbCircle
10
-25.741722
20
0
30
0
40
2.625
39
0
210
0
220
0
230
-1
0
CIRCLE
5
7B
100
AcDbEntity
8
1
62
256
6
ByLayer
370
-1
48
1
60
0
100
AcDbCircle
10
-25.741722
20
0
30
0
40
4.99999999999999
39
0
210
0
220
0
230
-1
0
CIRCLE
5
7C
100
AcDbEntity
8
1
62
256
6
ByLayer
370
-1
48
1
60
0
100
AcDbCircle
10
-25.741722
20
0
30
0
40
3.04453416176669
39
0
210
0
220
0
230
-1
0
CIRCLE
5
7F
100
AcDbEntity
8
1
62
256
6
ByLayer
370
-1
48
1
60
0
100
AcDbCircle
10
-25.741722
20
0
30
0
40
2.94445165909343
39
0
210
0
220
0
230
-1
0
CIRCLE
5
80
100
AcDbEntity
8
1
62
256
6
ByLayer
370
-1
48
1
60
0
100
AcDbCircle
10
-25.741722
20
0
30
0
40
3
39
0
210
0
220
0
230
-1
0
POINT
5
41
100
AcDbEntity
8
SK2
62
256
6
ByLayer
370
-1
48
1
60
0
100
AcDbPoint
10
30.741722
20
2.071068
30
0
39
0
210
0
220
0
230
1
50
360
0
POINT
5
43
100
AcDbEntity
8
81
62
256
6
ByLayer
370
-1
48
1
60
0
100
AcDbPoint
10
30.741722
20
5.0625
30
0
39
0
210
0
220
0
230
1
50
360
0
POINT
5
45
100
AcDbEntity
8
SK2
62
256
6
ByLayer
370
-1
48
1
60
0
100
AcDbPoint
10
30.741722
20
2.071068
30
0
39
0
210
0
220
0
230
1
50
360
0
POINT
5
46
100
AcDbEntity
8
80
62
256
6
ByLayer
370
-1
48
1
60
0
100
AcDbPoint
10
0
20
0
30
0
39
0
210
0
220
0
230
1
50
360
0
POINT
5
48
100
AcDbEntity
8
2
62
256
6
ByLayer
370
-1
48
1
60
0
100
AcDbPoint
10
30.741722
20
2.071068
30
0
39
0
210
0
220
0
230
1
50
360
0
POINT
5
4A
100
AcDbEntity
8
SK2
62
256
6
ByLayer
370
-1
48
1
60
0
100
AcDbPoint
10
30.741722
20
2.071068
30
0
39
0
210
0
220
0
230
1
50
360
0
POINT
5
4B
100
AcDbEntity
8
SK2
62
256
6
ByLayer
370
-1
48
1
60
0
100
AcDbPoint
10
30.741722
20
2.071068
30
0
39
0
210
0
220
0
230
1
50
360
0
SPLINE
5
82
100
AcDbEntity
8
1
62
256
6
ByLayer
370
-1
48
1
60
0
100
AcDbSpline
70
4
71
3
72
16
73
12
40
0
40
0
40
0
40
0
40
0.056944617282487
40
0.056944617282487
40
0.279906644834026
40
0.279906644834026
40
0.505321967306642
40
0.505321967306642
40
0.74491504712876
40
0.74491504712876
40
1
40
1
40
1
40
1
41
1
10
24.8994236369093
20
1.44954676284436
30
0
41
1
10
24.8928323790773
20
1.44571673442914
30
0
41
1
10
24.8863852658509
20
1.4416244262286
30
0
41
1
10
24.8557583237306
20
1.42045865075656
30
0
41
1
10
24.8337942735635
20
1.39963106376905
30
0
41
1
10
24.7977143041763
20
1.353361023811
30
0
41
1
10
24.7832093864864
20
1.32729536172306
30
0
41
1
10
24.7622850583484
20
1.27206196335027
30
0
41
1
10
24.7561397401833
20
1.24212170470065
30
0
41
1
10
24.7528690395802
20
1.18170391696125
30
0
41
1
10
24.7562814193453
20
1.15060073486211
30
0
41
1
10
24.7640774728609
20
1.12150404178331
30
0
0
SPLINE
5
83
100
AcDbEntity
8
1
62
256
6
ByLayer
370
-1
48
1
60
0
100
AcDbSpline
70
4
71
3
72
14
73
10
40
0
40
0
40
0
40
0
40
0.283961749036664
40
0.283961749036664
40
0.570285189258974
40
0.570285189258974
40
0.829451094335636
40
0.829451094335636
40
1
40
1
40
1
40
1
41
1
10
26.7193664082784
20
1.12150404178334
30
0
41
1
10
26.7280432689737
20
1.153888113036
30
0
41
1
10
26.7312758003732
20
1.18882554196639
30
0
41
1
10
26.7249283060538
20
1.2585042146215
30
0
41
1
10
26.7150809583265
20
1.2943148228494
30
0
41
1
10
26.6839365319394
20
1.35690846987777
30
0
41
1
10
26.6632896891701
20
1.38514373354076
30
0
41
1
10
26.6221240999063
20
1.42427613243922
30
0
41
1
10
26.6036728913338
20
1.43812706136089
30
0
41
1
10
26.5840202442299
20
1.44954676284439
30
0
0
SPLINE
5
84
100
AcDbEntity
8
1
62
256
6
ByLayer
370
-1
48
1
60
0
100
AcDbSpline
70
4
71
3
72
12
73
8
40
0
40
0
40
0
40
0
40
0.495785575728928
40
0.495785575728928
40
0.900238279923884
40
0.900238279923884
40
1
40
1
40
1
40
1
41
1
10
25.2538109632057
20
1.40233678765756
30
0
41
1
10
25.303948335601
20
1.35160801296411
30
0
41
1
10
25.3637929288418
20
1.30712335146057
30
0
41
1
10
25.485705651812
20
1.24516073118261
30
0
41
1
10
25.5467757063852
20
1.22366365064283
30
0
41
1
10
25.6262046839493
20
1.2081620259724
30
0
41
1
10
25.6422976601182
20
1.20560657990112
30
0
41
1
10
25.6585002040524
20
1.20362635090339
30
0
0
SPLINE
5
85
100
AcDbEntity
8
1
62
256
6
ByLayer
370
-1
48
1
60
0
100
AcDbSpline
70
4
71
3
72
18
73
14
40
0
40
0
40
0
40
0
40
0.212491592102398
40
0.212491592102398
40
0.386618191488459
40
0.386618191488459
40
0.562426295050798
40
0.562426295050798
40
0.715388354469444
40
0.715388354469444
40
0.918249128147144
40
0.918249128147144
40
1
40
1
40
1
40
1
41
1
10
27.202587332755
20
-0.281837412122968
30
0
41
1
10
27.1340842170851
20
-0.300398706929457
30
0
41
1
10
27.0661937712891
20
-0.330381808903127
30
0
41
1
10
26.9524176745763
20
-0.405596523644164
30
0
41
1
10
26.9035772337904
20
-0.448080643410634
30
0
41
1
10
26.8190635192396
20
-0.546545944405011
30
0
41
1
10
26.782413476352
20
-0.604236286885907
30
0
41
1
10
26.7321821577754
20
-0.716703910705121
30
0
41
1
10
26.7155430854221
20
-0.772190714029961
30
0
41
1
10
26.6935759305018
20
-0.898862337751439
30
0
41
1
10
26.6930843949932
20
-0.971419161552888
30
0
41
1
10
26.7066258266385
20
-1.06750657273707
30
0
41
1
10
26.7122233409494
20
-1.09484444569196
30
0
41
1
10
26.7193664082785
20
-1.12150404176839
30
0
0
SPLINE
5
86
100
AcDbEntity
8
1
62
256
6
ByLayer
370
-1
48
1
60
0
100
AcDbSpline
70
4
71
3
72
18
73
14
40
0
40
0
40
0
40
0
40
0.212491695755299
40
0.212491695755299
40
0.386618276853802
40
0.386618276853802
40
0.562426360907938
40
0.562426360907938
40
0.715388416645927
40
0.715388416645927
40
0.918249208689836
40
0.918249208689836
40
1
40
1
40
1
40
1
41
1
10
24.7640774728609
20
-1.12150404176836
30
0
41
1
10
24.7824458643796
20
-1.05294891329137
30
0
41
1
10
24.7906308314165
20
-0.979185025504108
30
0
41
1
10
24.7827609397157
20
-0.843022153365325
30
0
41
1
10
24.770566181126
20
-0.77944876007362
30
0
41
1
10
24.7278913689467
20
-0.656905539523677
30
0
41
1
10
24.6964242722304
20
-0.596232464314596
30
0
41
1
10
24.6244187042306
20
-0.496295746396243
30
0
41
1
10
24.5848030416802
20
-0.454031777737725
30
0
41
1
10
24.4863159780892
20
-0.371396705684134
30
0
41
1
10
24.4238283530407
20
-0.334518098051092
30
0
41
1
10
24.3339452086516
20
-0.297950670793426
30
0
41
1
10
24.30749590449
20
-0.289055491728504
30
0
41
1
10
24.2808565483843
20
-0.281837412122968
30
0
0
SPLINE
5
87
100
AcDbEntity
8
1
62
256
6
ByLayer
370
-1
48
1
60
0
100
AcDbSpline
70
4
71
3
72
12
73
8
40
0
40
0
40
0
40
0
40
0.422118641229814
40
0.422118641229814
40
0.843213633747296
40
0.843213633747296
40
1
40
1
40
1
40
1
41
1
10
25.6585002040524
20
-1.20362635088844
30
0
41
1
10
25.5910527390185
20
-1.21186958890243
30
0
41
1
10
25.525063581426
20
-1.23046260793384
30
0
41
1
10
25.4064491586763
20
-1.28256908027373
30
0
41
1
10
25.3520795292815
20
-1.31660935903523
30
0
41
1
10
25.2867949411283
20
-1.37058295420641
30
0
41
1
10
25.2698402946678
20
-1.38611837998818
30
0
41
1
10
25.2538109632057
20
-1.40233678764261
30
0
0
SPLINE
5
88
100
AcDbEntity
8
1
62
256
6
ByLayer
370
-1
48
1
60
0
100
AcDbSpline
70
4
71
3
72
14
73
10
40
0
40
0
40
0
40
0
40
0.283961457856627
40
0.283961457856627
40
0.57028493464669
40
0.57028493464669
40
0.829450869060511
40
0.829450869060511
40
1
40
1
40
1
40
1
41
1
10
24.2808565483843
20
0.281837412137918
30
0
41
1
10
24.2484970642046
20
0.273069432466173
30
0
41
1
10
24.2166651893573
20
0.258311308216605
30
0
41
1
10
24.159608231996
20
0.217815543961109
30
0
41
1
10
24.1335928626575
20
0.19130949331722
30
0
41
1
10
24.0951201160476
20
0.132933226223543
30
0
41
1
10
24.0810804177883
20
0.100895602617811
30
0
41
1
10
24.0679276725486
20
0.0456420108857571
30
0
41
1
10
24.0652219405696
20
0.0227296608030372
30
0
41
1
10
24.0652219405696
20
7.4749E-12
30
0
0
SPLINE
5
89
100
AcDbEntity
8
1
62
256
6
ByLayer
370
-1
48
1
60
0
100
AcDbSpline
70
4
71
3
72
16
73
12
40
0
40
0
40
0
40
0
40
0.0624450082613386
40
0.0624450082613386
40
0.283207995985739
40
0.283207995985739
40
0.506745688833498
40
0.506745688833498
40
0.744607284736931
40
0.744607284736931
40
1
40
1
40
1
40
1
41
1
10
26.5840202442299
20
1.44954676284439
30
0
41
1
10
26.5767282573851
20
1.45378396878158
30
0
41
1
10
26.5692438460383
20
1.4577092519531
30
0
41
1
10
26.5348413128496
20
1.47389408654342
30
0
41
1
10
26.5058270765528
20
1.48241558863609
30
0
41
1
10
26.4477156020889
20
1.49038000158893
30
0
41
1
10
26.4178854839959
20
1.48983232118658
30
0
41
1
10
26.3595746482142
20
1.48018142672558
30
0
41
1
10
26.330567439493
20
1.47044293261126
30
0
41
1
10
26.2763972985686
20
1.44276136964191
30
0
41
1
10
26.2510065549753
20
1.42396254038587
30
0
41
1
10
26.2296329179336
20
1.40233678765756
30
0
0
SPLINE
5
8A
100
AcDbEntity
8
1
62
256
6
ByLayer
370
-1
48
1
60
0
100
AcDbSpline
70
4
71
3
72
14
73
10
40
0
40
0
40
0
40
0
40
0.282169922576049
40
0.282169922576049
40
0.56690224531795
40
0.56690224531795
40
0.82452397208025
40
0.82452397208025
40
1
40
1
40
1
40
1
41
1
10
25.2538109632057
20
1.40233678765756
30
0
41
1
10
25.2301974834373
20
1.42622880348662
30
0
41
1
10
25.2016193121669
20
1.4466909539924
30
0
41
1
10
25.1381253478724
20
1.47642759952868
30
0
41
1
10
25.1021427237799
20
1.48600316008023
30
0
41
1
10
25.0322061728662
20
1.49063981766778
30
0
41
1
10
24.9973232357417
20
1.48700486818095
30
0
41
1
10
24.9418800984191
20
1.47083834363633
30
0
41
1
10
24.9198298316846
20
1.46140433355825
30
0
41
1
10
24.8994236369093
20
1.44954676284436
30
0
0
SPLINE
5
8B
100
AcDbEntity
8
1
62
256
6
ByLayer
370
-1
48
1
60
0
100
AcDbSpline
70
4
71
3
72
18
73
14
40
0
40
0
40
0
40
0
40
0.212491592102406
40
0.212491592102406
40
0.386618191488454
40
0.386618191488454
40
0.562426295050785
40
0.562426295050785
40
0.715388354469427
40
0.715388354469427
40
0.918249128147118
40
0.918249128147118
40
1
40
1
40
1
40
1
41
1
10
24.2808565483843
20
0.281837412137889
30
0
41
1
10
24.3493596640542
20
0.300398706944378
30
0
41
1
10
24.4172501098502
20
0.330381808918077
30
0
41
1
10
24.531026206563
20
0.405596523659113
30
0
41
1
10
24.5798666473489
20
0.448080643425584
30
0
41
1
10
24.6643803618997
20
0.546545944419933
30
0
41
1
10
24.7010304047873
20
0.604236286900829
30
0
41
1
10
24.7512617233639
20
0.716703910720042
30
0
41
1
10
24.7679007957172
20
0.77219071404491
30
0
41
1
10
24.7898679506375
20
0.89886233776636
30
0
41
1
10
24.7903594861461
20
0.971419161567809
30
0
41
1
10
24.7768180545008
20
1.067506572752
30
0
41
1
10
24.7712205401899
20
1.09484444570691
30
0
41
1
10
24.7640774728609
20
1.12150404178334
30
0
0
SPLINE
5
8C
100
AcDbEntity
8
1
62
256
6
ByLayer
370
-1
48
1
60
0
100
AcDbSpline
70
4
71
3
72
16
73
12
40
0
40
0
40
0
40
0
40
0.0569446172825265
40
0.0569446172825265
40
0.279906644834108
40
0.279906644834108
40
0.505321967306678
40
0.505321967306678
40
0.744915047128811
40
0.744915047128811
40
1
40
1
40
1
40
1
41
1
10
26.58402024423
20
-1.44954676282944
30
0
41
1
10
26.590611502062
20
-1.44571673441419
30
0
41
1
10
26.5970586152884
20
-1.44162442621365
30
0
41
1
10
26.6276855574087
20
-1.42045865074161
30
0
41
1
10
26.6496496075758
20
-1.39963106375407
30
0
41
1
10
26.685729576963
20
-1.35336102379605
30
0
41
1
10
26.7002344946529
20
-1.32729536170811
30
0
41
1
10
26.7211588227908
20
-1.27206196333532
30
0
41
1
10
26.727304140956
20
-1.24212170468567
30
0
41
1
10
26.7305748415591
20
-1.1817039169463
30
0
41
1
10
26.727162461794
20
-1.15060073484719
30
0
41
1
10
26.7193664082784
20
-1.12150404176839
30
0
0
SPLINE
5
8D
100
AcDbEntity
8
1
62
256
6
ByLayer
370
-1
48
1
60
0
100
AcDbSpline
70
4
71
3
72
14
73
10
40
0
40
0
40
0
40
0
40
0.283961749036706
40
0.283961749036706
40
0.570285189259023
40
0.570285189259023
40
0.829451094335667
40
0.829451094335667
40
1
40
1
40
1
40
1
41
1
10
24.7640774728609
20
-1.12150404176836
30
0
41
1
10
24.7554006121656
20
-1.15388811302105
30
0
41
1
10
24.752168080766
20
-1.18882554195145
30
0
41
1
10
24.7585155750855
20
-1.25850421460652
30
0
41
1
10
24.7683629228127
20
-1.29431482283445
30
0
41
1
10
24.7995073491999
20
-1.35690846986282
30
0
41
1
10
24.8201541919692
20
-1.38514373352578
30
0
41
1
10
24.861319781233
20
-1.42427613242427
30
0
41
1
10
24.8797709898055
20
-1.43812706134591
30
0
41
1
10
24.8994236369093
20
-1.44954676282941
30
0
0
SPLINE
5
8E
100
AcDbEntity
8
1
62
256
6
ByLayer
370
-1
48
1
60
0
100
AcDbSpline
70
4
71
3
72
14
73
10
40
0
40
0
40
0
40
0
40
0.283961457856638
40
0.283961457856638
40
0.570284934646669
40
0.570284934646669
40
0.829450869060507
40
0.829450869060507
40
1
40
1
40
1
40
1
41
1
10
27.202587332755
20
-0.281837412122968
30
0
41
1
10
27.2349468169347
20
-0.273069432451223
30
0
41
1
10
27.266778691782
20
-0.258311308201684
30
0
41
1
10
27.3238356491434
20
-0.217815543946159
30
0
41
1
10
27.3498510184817
20
-0.191309493302271
30
0
41
1
10
27.3883237650917
20
-0.132933226208593
30
0
41
1
10
27.402363463351
20
-0.100895602602861
30
0
41
1
10
27.4155162085906
20
-0.0456420108708073
30
0
41
1
10
27.4182219405697
20
-0.0227296607880874
30
0
41
1
10
27.4182219405697
20
7.4749E-12
30
0
0
SPLINE
5
8F
100
AcDbEntity
8
1
62
256
6
ByLayer
370
-1
48
1
60
0
100
AcDbSpline
70
4
71
3
72
16
73
12
40
0
40
0
40
0
40
0
40
0.0624450082614052
40
0.0624450082614052
40
0.283207995985789
40
0.283207995985789
40
0.506745688833532
40
0.506745688833532
40
0.744607284736943
40
0.744607284736943
40
1
40
1
40
1
40
1
41
1
10
24.8994236369093
20
-1.44954676282941
30
0
41
1
10
24.9067156237542
20
-1.45378396876663
30
0
41
1
10
24.914200035101
20
-1.45770925193815
30
0
41
1
10
24.9486025682897
20
-1.47389408652848
30
0
41
1
10
24.9776168045865
20
-1.48241558862114
30
0
41
1
10
25.0357282790504
20
-1.49038000157398
30
0
41
1
10
25.0655583971433
20
-1.48983232117163
30
0
41
1
10
25.1238692329251
20
-1.48018142671063
30
0
41
1
10
25.1528764416462
20
-1.47044293259631
30
0
41
1
10
25.2070465825707
20
-1.44276136962697
30
0
41
1
10
25.232437326164
20
-1.42396254037092
30
0
41
1
10
25.2538109632057
20
-1.40233678764261
30
0
0
SPLINE
5
90
100
AcDbEntity
8
1
62
256
6
ByLayer
370
-1
48
1
60
0
100
AcDbSpline
70
4
71
3
72
14
73
10
40
0
40
0
40
0
40
0
40
0.282169922576098
40
0.282169922576098
40
0.566902245317968
40
0.566902245317968
40
0.824523972080318
40
0.824523972080318
40
1
40
1
40
1
40
1
41
1
10
26.2296329179336
20
-1.40233678764261
30
0
41
1
10
26.2532463977019
20
-1.42622880347167
30
0
41
1
10
26.2818245689724
20
-1.44669095397745
30
0
41
1
10
26.345318533267
20
-1.47642759951373
30
0
41
1
10
26.3813011573594
20
-1.48600316006528
30
0
41
1
10
26.4512377082731
20
-1.49063981765283
30
0
41
1
10
26.4861206453977
20
-1.487004868166
30
0
41
1
10
26.5415637827202
20
-1.47083834362138
30
0
41
1
10
26.5636140494547
20
-1.4614043335433
30
0
41
1
10
26.58402024423
20
-1.44954676282944
30
0
0
SPLINE
5
91
100
AcDbEntity
8
1
62
256
6
ByLayer
370
-1
48
1
60
0
100
AcDbSpline
70
4
71
3
72
16
73
12
40
0
40
0
40
0
40
0
40
0.0630415689509801
40
0.0630415689509801
40
0.285914332025018
40
0.285914332025018
40
0.511588305408964
40
0.511588305408964
40
0.751723061839437
40
0.751723061839437
40
1
40
1
40
1
40
1
41
1
10
27.4182219405697
20
7.4749E-12
30
0
41
1
10
27.4182219405697
20
0.0084336538403988
30
0
41
1
10
27.4178555693183
20
0.0168769683579342
30
0
41
1
10
27.4145650839848
20
0.0547537924390156
30
0
41
1
10
27.4073558309806
20
0.0841216087780197
30
0
41
1
10
27.3850460292626
20
0.138367789850804
30
0
41
1
10
27.3695854064896
20
0.163884549651328
30
0
41
1
10
27.3319447753895
20
0.209452916509292
30
0
41
1
10
27.3089509703498
20
0.229640568260663
30
0
41
1
10
27.2587615587731
20
0.261951448655139
30
0
41
1
10
27.2309006540865
20
0.274165762475746
30
0
41
1
10
27.202587332755
20
0.281837412137889
30
0
0
SPLINE
5
92
100
AcDbEntity
8
1
62
256
6
ByLayer
370
-1
48
1
60
0
100
AcDbSpline
70
4
71
3
72
12
73
8
40
0
40
0
40
0
40
0
40
0.49578557572891
40
0.49578557572891
40
0.90023827992388
40
0.90023827992388
40
1
40
1
40
1
40
1
41
1
10
26.2296329179336
20
-1.40233678764261
30
0
41
1
10
26.1794955455383
20
-1.35160801294916
30
0
41
1
10
26.1196509522975
20
-1.30712335144563
30
0
41
1
10
25.9977382293273
20
-1.24516073116766
30
0
41
1
10
25.9366681747541
20
-1.22366365062788
30
0
41
1
10
25.85723919719
20
-1.20816202595745
30
0
41
1
10
25.8411462210212
20
-1.20560657988617
30
0
41
1
10
25.8249436770869
20
-1.20362635088844
30
0
0
SPLINE
5
93
100
AcDbEntity
8
1
62
256
6
ByLayer
370
-1
48
1
60
0
100
AcDbSpline
70
4
71
3
72
16
73
12
40
0
40
0
40
0
40
0
40
0.063041568950968
40
0.063041568950968
40
0.285914332025004
40
0.285914332025004
40
0.511588305408911
40
0.511588305408911
40
0.75172306183937
40
0.75172306183937
40
1
40
1
40
1
40
1
41
1
10
24.0652219405696
20
7.4749E-12
30
0
41
1
10
24.0652219405696
20
-0.008433653825449
30
0
41
1
10
24.065588311821
20
-0.0168769683429844
30
0
41
1
10
24.0688787971545
20
-0.0547537924240658
30
0
41
1
10
24.0760880501587
20
-0.0841216087630983
30
0
41
1
10
24.0983978518767
20
-0.138367789835854
30
0
41
1
10
24.1138584746497
20
-0.163884549636379
30
0
41
1
10
24.1514991057498
20
-0.209452916494342
30
0
41
1
10
24.1744929107895
20
-0.229640568245713
30
0
41
1
10
24.2246823223662
20
-0.26195144864019
30
0
41
1
10
24.2525432270528
20
-0.274165762460825
30
0
41
1
10
24.2808565483843
20
-0.281837412122968
30
0
0
SPLINE
5
94
100
AcDbEntity
8
1
62
256
6
ByLayer
370
-1
48
1
60
0
100
AcDbSpline
70
4
71
3
72
18
73
14
40
0
40
0
40
0
40
0
40
0.212491695755309
40
0.212491695755309
40
0.386618276853813
40
0.386618276853813
40
0.56242636090794
40
0.56242636090794
40
0.715388416645941
40
0.715388416645941
40
0.918249208689865
40
0.918249208689865
40
1
40
1
40
1
40
1
41
1
10
26.7193664082785
20
1.12150404178334
30
0
41
1
10
26.7009980167597
20
1.05294891330632
30
0
41
1
10
26.6928130497228
20
0.979185025519058
30
0
41
1
10
26.7006829414236
20
0.843022153380275
30
0
41
1
10
26.7128777000133
20
0.779448760088542
30
0
41
1
10
26.7555525121926
20
0.656905539538627
30
0
41
1
10
26.7870196089089
20
0.596232464329546
30
0
41
1
10
26.8590251769087
20
0.496295746411192
30
0
41
1
10
26.8986408394592
20
0.454031777752675
30
0
41
1
10
26.9971279030501
20
0.371396705699055
30
0
41
1
10
27.0596155280987
20
0.334518098066042
30
0
41
1
10
27.1494986724877
20
0.297950670808348
30
0
41
1
10
27.1759479766493
20
0.289055491743426
30
0
41
1
10
27.202587332755
20
0.281837412137918
30
0
0
SPLINE
5
95
100
AcDbEntity
8
1
62
256
6
ByLayer
370
-1
48
1
60
0
100
AcDbSpline
70
4
71
3
72
12
73
8
40
0
40
0
40
0
40
0
40
0.422118641229899
40
0.422118641229899
40
0.843213633747375
40
0.843213633747375
40
1
40
1
40
1
40
1
41
1
10
25.8249436770869
20
1.20362635090339
30
0
41
1
10
25.8923911421209
20
1.21186958891738
30
0
41
1
10
25.9583802997134
20
1.2304626079488
30
0
41
1
10
26.076994722463
20
1.28256908028868
30
0
41
1
10
26.1313643518578
20
1.31660935905018
30
0
41
1
10
26.196648940011
20
1.37058295422136
30
0
41
1
10
26.2136035864715
20
1.38611838000313
30
0
41
1
10
26.2296329179336
20
1.40233678765756
30
0
0
LINE
5
4C
100
AcDbEntity
8
80
62
256
6
ByLayer
370
-1
48
1
60
0
100
AcDbLine
10
0
20
0
30
0
11
-5
21
0
31
0
39
0
210
0
220
0
230
1
0
LINE
5
4D
100
AcDbEntity
8
81
62
256
6
ByLayer
370
-1
48
1
60
0
100
AcDbLine
10
30.741722
20
5.0625
30
0
11
40.741722
21
5.0625
31
0
39
0
210
0
220
0
230
1
0
LINE
5
4E
100
AcDbEntity
8
1
62
256
6
ByLayer
370
-1
48
1
60
0
100
AcDbLine
10
22.991722
20
-4.2
30
0
11
23.028806
21
-4.2
31
0
39
0
210
0
220
0
230
1
0
LINE
5
50
100
AcDbEntity
8
1
62
256
6
ByLayer
370
-1
48
1
60
0
100
AcDbLine
10
22.741722
20
4.2
30
0
11
22.437721
21
4.2
31
0
39
0
210
0
220
0
230
1
0
LINE
5
51
100
AcDbEntity
8
1
62
256
6
ByLayer
370
-1
48
1
60
0
100
AcDbLine
10
22.991722
20
4.175815
30
0
11
22.991722
21
4.2
31
0
39
0
210
0
220
0
230
1
0
LINE
5
52
100
AcDbEntity
8
1
62
256
6
ByLayer
370
-1
48
1
60
0
100
AcDbLine
10
22.437721
20
-4.2
30
0
11
19.741722
21
-4.2
31
0
39
0
210
0
220
0
230
1
0
LINE
5
53
100
AcDbEntity
8
1
62
256
6
ByLayer
370
-1
48
1
60
0
100
AcDbLine
10
19.741722
20
4.2
30
0
11
22.437721
21
4.2
31
0
39
0
210
0
220
0
230
1
0
LINE
5
54
100
AcDbEntity
8
1
62
256
6
ByLayer
370
-1
48
1
60
0
100
AcDbLine
10
22.437721
20
-4.2
30
0
11
22.741722
21
-4.2
31
0
39
0
210
0
220
0
230
1
0
LINE
5
55
100
AcDbEntity
8
1
62
256
6
ByLayer
370
-1
48
1
60
0
100
AcDbLine
10
22.991722
20
-4.2
30
0
11
22.991722
21
-4.175815
31
0
39
0
210
0
220
0
230
1
0
LINE
5
56
100
AcDbEntity
8
1
62
256
6
ByLayer
370
-1
48
1
60
0
100
AcDbLine
10
19.591722
20
4.2
30
0
11
19.591722
21
-4.2
31
0
39
0
210
0
220
0
230
1
0
LINE
5
57
100
AcDbEntity
8
1
62
256
6
ByLayer
370
-1
48
1
60
0
100
AcDbLine
10
19.741722
20
-4.2
30
0
11
19.591722
21
-4.2
31
0
39
0
210
0
220
0
230
1
0
LINE
5
58
100
AcDbEntity
8
1
62
256
6
ByLayer
370
-1
48
1
60
0
100
AcDbLine
10
22.741722
20
4.2
30
0
11
22.991722
21
4.2
31
0
39
0
210
0
220
0
230
1
0
LINE
5
59
100
AcDbEntity
8
1
62
256
6
ByLayer
370
-1
48
1
60
0
100
AcDbLine
10
22.741722
20
4.2
30
0
11
22.741722
21
3.999991
31
0
39
0
210
0
220
0
230
1
0
LINE
5
5A
100
AcDbEntity
8
1
62
256
6
ByLayer
370
-1
48
1
60
0
100
AcDbLine
10
0
20
9.9375
30
0
11
0.368061
21
9.3
31
0
39
0
210
0
220
0
230
1
0
LINE
5
5B
100
AcDbEntity
8
1
62
256
6
ByLayer
370
-1
48
1
60
0
100
AcDbLine
10
22.437721
20
-3.752816
30
0
11
22.437721
21
-4.2
31
0
39
0
210
0
220
0
230
1
0
LINE
5
5C
100
AcDbEntity
8
1
62
256
6
ByLayer
370
-1
48
1
60
0
100
AcDbLine
10
0
20
-9.9375
30
0
11
0
21
9.9375
31
0
39
0
210
0
220
0
230
1
0
LINE
5
5D
100
AcDbEntity
8
1
62
256
6
ByLayer
370
-1
48
1
60
0
100
AcDbLine
10
19.591722
20
-4.2
30
0
11
9.20152
21
-4.2
31
0
39
0
210
0
220
0
230
1
0
LINE
5
5E
100
AcDbEntity
8
1
62
256
6
ByLayer
370
-1
48
1
60
0
100
AcDbLine
10
22.437721
20
4.2
30
0
11
22.437721
21
3.752816
31
0
39
0
210
0
220
0
230
1
0
LINE
5
5F
100
AcDbEntity
8
1
62
256
6
ByLayer
370
-1
48
1
60
0
100
AcDbLine
10
9.20152
20
4.2
30
0
11
19.591722
21
4.2
31
0
39
0
210
0
220
0
230
1
0
LINE
5
60
100
AcDbEntity
8
1
62
256
6
ByLayer
370
-1
48
1
60
0
100
AcDbLine
10
22.741722
20
-3.999991
30
0
11
22.741722
21
-4.2
31
0
39
0
210
0
220
0
230
1
0
LINE
5
61
100
AcDbEntity
8
1
62
256
6
ByLayer
370
-1
48
1
60
0
100
AcDbLine
10
19.591722
20
4.2
30
0
11
19.741722
21
4.2
31
0
39
0
210
0
220
0
230
1
0
LINE
5
62
100
AcDbEntity
8
1
62
256
6
ByLayer
370
-1
48
1
60
0
100
AcDbLine
10
19.741722
20
4.2
30
0
11
19.741722
21
-4.2
31
0
39
0
210
0
220
0
230
1
0
LINE
5
63
100
AcDbEntity
8
1
62
256
6
ByLayer
370
-1
48
1
60
0
100
AcDbLine
10
0.368061
20
-9.3
30
0
11
0
21
-9.9375
31
0
39
0
210
0
220
0
230
1
0
LINE
5
64
100
AcDbEntity
8
1
62
256
6
ByLayer
370
-1
48
1
60
0
100
AcDbLine
10
23.028806
20
4.2
30
0
11
22.991722
21
4.2
31
0
39
0
210
0
220
0
230
1
0
LINE
5
65
100
AcDbEntity
8
1
62
256
6
ByLayer
370
-1
48
1
60
0
100
AcDbLine
10
22.991722
20
-4.2
30
0
11
22.741722
21
-4.2
31
0
39
0
210
0
220
0
230
1
0
LINE
5
66
100
AcDbEntity
8
SK1
62
256
6
ByLayer
370
-1
48
1
60
0
100
AcDbLine
10
0
20
-9.9375
30
0
11
0
21
9.9375
31
0
39
0
210
0
220
0
230
1
0
LINE
5
68
100
AcDbEntity
8
SK1
62
256
6
ByLayer
370
-1
48
1
60
0
100
AcDbLine
10
0
20
9.9375
30
0
11
-95.608278
21
9.9375
31
0
39
0
210
0
220
0
230
1
0
LINE
5
69
100
AcDbEntity
8
SK1
62
256
6
ByLayer
370
-1
48
1
60
0
100
AcDbLine
10
-95.608278
20
9.9375
30
0
11
-95.608278
21
-9.9375
31
0
39
0
210
0
220
0
230
1
0
LINE
5
6A
100
AcDbEntity
8
SK1
62
256
6
ByLayer
370
-1
48
1
60
0
100
AcDbLine
10
-95.608278
20
-9.9375
30
0
11
0
21
-9.9375
31
0
39
0
210
0
220
0
230
1
0
MTEXT
5
96
100
AcDbEntity
8
SK6
62
256
6
ByLayer
370
-1
48
1
60
0
100
AcDbMText
10
-52.107339
20
-18.412993
30
0
210
0
220
0
230
1
1
\W00.740;\fsimplex.shx,bigfont.shx;SRDCN 2020K 10-A 
40
3.5
41
0
44
1.084337
50
0
71
7
72
5
7
DEFAULT
0
DIMENSION
5
C9
100
AcDbEntity
8
SK2
62
256
6
ByLayer
370
-3
48
1
60
0
100
AcDbDimension
2
DimnDraft3D1
10
-105.358278
20
9.9375
30
0
11
-105.358278
21
-2.628947
31
0
70
32
71
5
72
1
41
1
210
0
220
0
230
1
3
Standard
100
AcDbAlignedDimension
13
-97.608278
23
-9.9375
33
0
14
-97.608278
24
9.9375
34
0
50
90
100
AcDbRotatedDimension
1001
ACAD
1000
DSTYLE
1002
{
1070
    74
1070
     0
1070
   279
1070
     0
1070
   172
1070
     1
1070
   173
1070
     1
1070
   340
1005
97
1070
    77
1070
     1
1070
    73
1070
     0
1070
   171
1070
     3
1070
   274
1070
     4
1070
   177
1070
     2
1070
   176
1070
     2
1070
   178
1070
     7
1070
    78
1070
     8
1070
    41
1041
3.175
1070
   147
1041
2.25
1070
    42
1041
2.0
1070
    44
1041
2.0
1070
   140
1041
4.5
1070
   343
1005
CA
1070
   344
1005
CA
1002
}
0
DIMENSION
5
DE
100
AcDbEntity
8
2
62
256
6
ByLayer
370
-3
48
1
60
0
100
AcDbDimension
2
DimnDraft3D2
10
44.991722
20
5.0625
30
0
11
44.991722
21
-4.503947
31
0
70
32
71
5
72
1
41
1
210
0
220
0
230
1
3
Standard
100
AcDbAlignedDimension
13
2
23
-9.9375
33
0
14
32.741722
24
5.0625
34
0
50
90
100
AcDbRotatedDimension
1001
ACAD
1000
DSTYLE
1002
{
1070
    74
1070
     0
1070
   279
1070
     0
1070
   172
1070
     1
1070
   173
1070
     1
1070
   340
1005
97
1070
    77
1070
     1
1070
    73
1070
     0
1070
   171
1070
     3
1070
   274
1070
     4
1070
   177
1070
     2
1070
   176
1070
     2
1070
   178
1070
     7
1070
    78
1070
     8
1070
    41
1041
3.175
1070
   147
1041
2.25
1070
    42
1041
2.0
1070
    44
1041
2.0
1070
   140
1041
4.5
1070
   343
1005
CA
1070
   344
1005
CA
1002
}
0
DIMENSION
5
EC
100
AcDbEntity
8
2
62
256
6
ByLayer
370
-3
48
1
60
0
100
AcDbDimension
2
DimnDraft3D3
10
5.741722
20
-22.1875
30
0
11
15.612775
21
-22.1875
31
0
70
32
71
5
72
1
41
1
210
0
220
0
230
1
3
Standard
100
AcDbAlignedDimension
13
30.741722
23
-6.9375
33
0
14
5.741722
24
-6.9375
34
0
50
0
100
AcDbRotatedDimension
1001
ACAD
1000
DSTYLE
1002
{
1070
   279
1070
     0
1070
   172
1070
     1
1070
   173
1070
     1
1070
   340
1005
97
1070
    77
1070
     1
1070
    73
1070
     0
1070
   171
1070
     3
1070
   274
1070
     4
1070
   177
1070
     2
1070
   176
1070
     2
1070
   178
1070
     7
1070
    78
1070
     8
1070
    41
1041
3.175
1070
   147
1041
2.25
1070
    42
1041
2.0
1070
    44
1041
2.0
1070
   140
1041
4.5
1070
   343
1005
CA
1070
   344
1005
CA
1002
}
0
DIMENSION
5
FA
100
AcDbEntity
8
SK2
62
256
6
ByLayer
370
-3
48
1
60
0
100
AcDbDimension
2
DimnDraft3D4
10
-95.608278
20
24.8125
30
0
11
-36.151699
21
24.8125
31
0
70
32
71
5
72
1
41
1
210
0
220
0
230
1
3
Standard
100
AcDbAlignedDimension
13
30.741722
23
7.0625
33
0
14
-95.608278
24
11.9375
34
0
50
0
100
AcDbRotatedDimension
1001
ACAD
1000
DSTYLE
1002
{
1070
   279
1070
     0
1070
   172
1070
     1
1070
   173
1070
     1
1070
   340
1005
97
1070
    77
1070
     1
1070
    73
1070
     0
1070
   171
1070
     3
1070
   274
1070
     4
1070
   177
1070
     2
1070
   176
1070
     2
1070
   178
1070
     7
1070
    78
1070
     8
1070
    41
1041
3.175
1070
   147
1041
2.25
1070
    42
1041
2.0
1070
    44
1041
2.0
1070
   140
1041
4.5
1070
   343
1005
CA
1070
   344
1005
CA
1002
}
0
ENDSEC
0
SECTION
2
OBJECTS
0
DICTIONARY
5
12a
330
0
100
AcDbDictionary
280
0
281
1
3
ACAD_GROUP
350
12b
3
ACAD_MLINESTYLE
350
12c
0
DICTIONARY
5
12b
330
0
100
AcDbDictionary
280
0
281
1
0
DICTIONARY
5
12c
330
0
100
AcDbDictionary
280
0
281
1
3
Standard
350
18
0
MLINESTYLE
5
18
330
12c
100
AcDbMlineStyle
2
Standard
70
0
3

62
256
51
90
52
90
71
2
49
-0.5
62
256
6
ByLayer
49
0.5
62
256
6
ByLayer
0
RASTERVARIABLES
5
119
330

100
AcDbRasterVariables
90
0
70
1
71
1
72
1
0
ENDSEC
0
EOF
