0
SECTION
2
HEADER
9
$ACADVER
1
AC1015
9
$DWGCODEPAGE
3
ANSI_1252
9
$HANDSEED
5
295
9
$ANGBASE
50
0
9
$ANGDIR
70
0
9
$ATTMODE
70
1
9
$AUNITS
70
0
9
$AUPREC
70
0
9
$CECOLOR
62
256
9
$CELTSCALE
40
1
9
$CELTYPE
6
ByLayer
9
$CELWEIGHT
370
18
9
$CLAYER
8
0
9
$CMLJUST
70
0
9
$CMLSCALE
40
1
9
$CMLSTYLE
2
Standard
9
$DIMSTYLE
2
Standard
9
$TEXTSIZE
40
0.2
9
$TEXTSTYLE
7
Standard
9
$LUNITS
70
2
9
$LUPREC
70
4
9
$EXTNAMES
290
1
9
$INSUNITS
70
4
9
$LTSCALE
40
1
9
$LWDISPLAY
290
1
9
$PDMODE
70
0
9
$PDSIZE
40
0
9
$PLINEGEN
70
0
0
ENDSEC
0
SECTION
2
CLASSES
0
CLASS
1
RASTERVARIABLES
2
AcDbRasterVariables
3
ISM
90
0
280
0
281
0
0
ENDSEC
0
SECTION
2
TABLES
0
TABLE
2
VPORT
5
28b
100
AcDbSymbolTable
0
VPORT
5
1
100
AcDbSymbolTableRecord
100
AcDbViewportTableRecord
2
*Active
70
0
10
0
20
0
11
1
21
1
12
-1
22
1
13
0
23
0
14
0.5
24
0.5
15
10
25
10
16
0
26
0
36
1
17
0
27
0
37
0
0
ENDTAB
0
TABLE
2
LTYPE
5
28c
100
AcDbSymbolTable
0
LTYPE
5
14
100
AcDbSymbolTableRecord
100
AcDbLinetypeTableRecord
70
0
2
ByBlock
3

72
65
73
0
40
0
0
LTYPE
5
15
100
AcDbSymbolTableRecord
100
AcDbLinetypeTableRecord
70
0
2
ByLayer
3

72
65
73
0
40
0
0
LTYPE
5
16
100
AcDbSymbolTableRecord
100
AcDbLinetypeTableRecord
70
0
2
CONTINUOUS
3
Solid line
72
65
73
0
40
0
0
LTYPE
5
6A
100
AcDbSymbolTableRecord
100
AcDbLinetypeTableRecord
70
0
2
CENTER
3
____ _ ____ _ ____ _ ____
72
65
73
4
40
47.5
49
22
74
0
49
-8.5
74
0
49
8.5
74
0
49
-8.5
74
0
0
LTYPE
5
6B
100
AcDbSymbolTableRecord
100
AcDbLinetypeTableRecord
70
0
2
DASHED
3
__ __ __ __ __ __ __ __ __
72
65
73
2
40
25.72
49
12.86
74
0
49
-12.86
74
0
0
ENDTAB
0
TABLE
2
LAYER
5
28d
100
AcDbSymbolTable
0
LAYER
5
10
100
AcDbSymbolTableRecord
100
AcDbLayerTableRecord
2
0
70
0
62
7
6
CONTINUOUS
290
1
370
-3
390
0
0
LAYER
5
6D
100
AcDbSymbolTableRecord
100
AcDbLayerTableRecord
2
80
70
0
62
-6
6
CONTINUOUS
290
1
370
-3
390
0
0
LAYER
5
6F
100
AcDbSymbolTableRecord
100
AcDbLayerTableRecord
2
81
70
0
62
-3
6
CONTINUOUS
290
1
370
-3
390
0
0
LAYER
5
71
100
AcDbSymbolTableRecord
100
AcDbLayerTableRecord
2
1
70
0
62
4
6
CONTINUOUS
290
1
370
-3
390
0
0
LAYER
5
127
100
AcDbSymbolTableRecord
100
AcDbLayerTableRecord
2
4
70
0
62
-2
6
CENTER
290
1
370
-3
390
0
0
LAYER
5
1E6
100
AcDbSymbolTableRecord
100
AcDbLayerTableRecord
2
2
70
0
62
7
6
CONTINUOUS
290
1
370
-3
390
0
0
LAYER
5
277
100
AcDbSymbolTableRecord
100
AcDbLayerTableRecord
2
SK1
70
0
62
4
6
CONTINUOUS
290
1
370
-3
390
0
0
LAYER
5
278
100
AcDbSymbolTableRecord
100
AcDbLayerTableRecord
2
SK4
70
0
62
2
6
CENTER
290
1
370
-3
390
0
0
LAYER
5
279
100
AcDbSymbolTableRecord
100
AcDbLayerTableRecord
2
SK6
70
0
62
5
6
CONTINUOUS
290
1
370
-3
390
0
0
LAYER
5
27a
100
AcDbSymbolTableRecord
100
AcDbLayerTableRecord
2
SK2
70
0
62
7
6
CONTINUOUS
290
1
370
-3
390
0
0
ENDTAB
0
TABLE
2
STYLE
5
28e
100
AcDbSymbolTable
0
STYLE
5
11
100
AcDbSymbolTableRecord
100
AcDbTextStyleTableRecord
2
Standard
3
txt
70
0
71
0
40
0
41
1
42
0
50
0
0
STYLE
5
1E1
100
AcDbSymbolTableRecord
100
AcDbTextStyleTableRecord
2
iso_b_vert
3
simplex.shx
70
0
71
0
40
0
41
1
42
0
50
0
0
STYLE
5
1E2
100
AcDbSymbolTableRecord
100
AcDbTextStyleTableRecord
2
DWGDirectTextStyle
3
simplex
70
0
71
0
40
0
41
1
42
0
50
0
0
ENDTAB
0
TABLE
2
DIMSTYLE
5
28f
100
AcDbSymbolTable
100
AcDbDimStyleTable
0
DIMSTYLE
105
27
100
AcDbSymbolTableRecord
100
AcDbDimStyleTableRecord
2
Standard
70
0
3
<>
41
0.18
42
0.0625
44
0.18
140
0.18
147
0.09
73
0
74
0
77
1
271
2
275
0
278
52
280
0
340
11
0
ENDTAB
0
TABLE
2
VIEW
5
290
100
AcDbSymbolTable
0
ENDTAB
0
TABLE
2
UCS
5
291
100
AcDbSymbolTable
0
ENDTAB
0
TABLE
2
APPID
5
292
100
AcDbSymbolTable
0
APPID
5
12
100
AcDbSymbolTableRecord
100
AcDbRegAppTableRecord
2
ACAD
70
0
0
ENDTAB
0
TABLE
2
BLOCK_RECORD
5
293
100
AcDbSymbolTable
0
BLOCK_RECORD
5
1F
100
AcDbSymbolTableRecord
100
AcDbBlockTableRecord
2
*Model_Space
340
0
70
0
0
BLOCK_RECORD
5
1B
100
AcDbSymbolTableRecord
100
AcDbBlockTableRecord
2
*Paper_Space
340
0
70
0
0
BLOCK_RECORD
5
23
100
AcDbSymbolTableRecord
100
AcDbBlockTableRecord
2
*Paper_Space0
340
0
70
0
0
BLOCK_RECORD
5
1E4
100
AcDbSymbolTableRecord
100
AcDbBlockTableRecord
2
DimnDraft3D1
340
0
70
0
0
BLOCK_RECORD
5
1F3
100
AcDbSymbolTableRecord
100
AcDbBlockTableRecord
2
DimnDraft3D2
340
0
70
0
0
BLOCK_RECORD
5
201
100
AcDbSymbolTableRecord
100
AcDbBlockTableRecord
2
DimnDraft3D3
340
0
70
0
0
BLOCK_RECORD
5
210
100
AcDbSymbolTableRecord
100
AcDbBlockTableRecord
2
DimnDraft3D4
340
0
70
0
0
ENDTAB
0
ENDSEC
0
SECTION
2
BLOCKS
0
BLOCK
5
20
100
AcDbEntity
8
0
100
AcDbBlockBegin
2
*Model_Space
70
0
10
0
20
0
30
0
3
*Model_Space
0
ENDBLK
5
21
100
AcDbEntity
8
0
100
AcDbBlockEnd
0
BLOCK
5
1C
100
AcDbEntity
8
0
100
AcDbBlockBegin
2
*Paper_Space
70
0
10
0
20
0
30
0
3
*Paper_Space
0
ENDBLK
5
1D
100
AcDbEntity
8
0
100
AcDbBlockEnd
0
BLOCK
5
24
100
AcDbEntity
8
0
100
AcDbBlockBegin
2
*Paper_Space0
70
0
10
0
20
0
30
0
3
*Paper_Space0
0
ENDBLK
5
25
100
AcDbEntity
8
0
100
AcDbBlockEnd
0
BLOCK
5
1F0
100
AcDbEntity
8
0
100
AcDbBlockBegin
2
DimnDraft3D1
70
0
10
0
20
0
30
0
3
DimnDraft3D1
0
MTEXT
5
1E5
100
AcDbEntity
8
2
62
256
6
ByLayer
370
18
48
1
60
0
100
AcDbMText
10
8.288161
20
102.743335
30
0
210
0
220
0
230
1
1
\W0.5144;18
40
3.50012
41
0
44
1.084337
50
0
71
7
72
5
7
iso_b_vert
0
LINE
5
1E7
100
AcDbEntity
8
2
62
256
6
ByLayer
370
13
48
1
60
0
100
AcDbLine
10
18.040846
20
72.5875
30
0
11
18.040846
21
105.043305
31
0
39
0
210
0
220
0
230
1
0
LINE
5
1E8
100
AcDbEntity
8
2
62
256
6
ByLayer
370
13
48
1
60
0
100
AcDbLine
10
0
20
1.5875
30
0
11
0
21
105.043305
31
0
39
0
210
0
220
0
230
1
0
LINE
5
1E9
100
AcDbEntity
8
2
62
256
6
ByLayer
370
13
48
1
60
0
100
AcDbLine
10
18.040846
20
101.868305
30
0
11
0
21
101.868305
31
0
39
0
210
0
220
0
230
1
0
LINE
5
1EA
100
AcDbEntity
8
2
62
256
6
ByLayer
370
13
48
1
60
0
100
AcDbLine
10
18.040846
20
101.868305
30
0
11
14.865848
21
101.450308
31
0
39
0
210
0
220
0
230
1
0
LINE
5
1EB
100
AcDbEntity
8
2
62
256
6
ByLayer
370
13
48
1
60
0
100
AcDbLine
10
18.040846
20
101.868305
30
0
11
14.865845
21
102.286301
31
0
39
0
210
0
220
0
230
1
0
LINE
5
1EC
100
AcDbEntity
8
2
62
256
6
ByLayer
370
13
48
1
60
0
100
AcDbLine
10
14.865848
20
101.450308
30
0
11
14.865845
21
102.286301
31
0
39
0
210
0
220
0
230
1
0
LINE
5
1ED
100
AcDbEntity
8
2
62
256
6
ByLayer
370
13
48
1
60
0
100
AcDbLine
10
0
20
101.868305
30
0
11
3.174998
21
102.286301
31
0
39
0
210
0
220
0
230
1
0
LINE
5
1EE
100
AcDbEntity
8
2
62
256
6
ByLayer
370
13
48
1
60
0
100
AcDbLine
10
0
20
101.868305
30
0
11
3.175002
21
101.450308
31
0
39
0
210
0
220
0
230
1
0
LINE
5
1EF
100
AcDbEntity
8
2
62
256
6
ByLayer
370
13
48
1
60
0
100
AcDbLine
10
3.174998
20
102.286301
30
0
11
3.175002
21
101.450308
31
0
39
0
210
0
220
0
230
1
0
ENDBLK
5
1F1
100
AcDbEntity
8
0
100
AcDbBlockEnd
0
BLOCK
5
1FE
100
AcDbEntity
8
0
100
AcDbBlockBegin
2
DimnDraft3D2
70
0
10
0
20
0
30
0
3
DimnDraft3D2
0
MTEXT
5
1F4
100
AcDbEntity
8
2
62
256
6
ByLayer
370
18
48
1
60
0
100
AcDbMText
10
31.855323
20
34.767738
30
0
210
0
220
0
230
1
1
\W0.6139;71
40
3.50012
41
0
44
1.084337
50
90
71
7
72
5
7
iso_b_vert
0
LINE
5
1F5
100
AcDbEntity
8
2
62
256
6
ByLayer
370
13
48
1
60
0
100
AcDbLine
10
19.628346
20
71
30
0
11
35.905353
21
71
31
0
39
0
210
0
220
0
230
1
0
LINE
5
1F6
100
AcDbEntity
8
2
62
256
6
ByLayer
370
13
48
1
60
0
100
AcDbLine
10
1.5875
20
0
30
0
11
35.905353
21
0
31
0
39
0
210
0
220
0
230
1
0
LINE
5
1F7
100
AcDbEntity
8
2
62
256
6
ByLayer
370
13
48
1
60
0
100
AcDbLine
10
32.730353
20
71
30
0
11
32.730353
21
0
31
0
39
0
210
0
220
0
230
1
0
LINE
5
1F8
100
AcDbEntity
8
2
62
256
6
ByLayer
370
13
48
1
60
0
100
AcDbLine
10
32.730353
20
71
30
0
11
33.148349
21
67.825002
31
0
39
0
210
0
220
0
230
1
0
LINE
5
1F9
100
AcDbEntity
8
2
62
256
6
ByLayer
370
13
48
1
60
0
100
AcDbLine
10
32.730353
20
71
30
0
11
32.312356
21
67.824998
31
0
39
0
210
0
220
0
230
1
0
LINE
5
1FA
100
AcDbEntity
8
2
62
256
6
ByLayer
370
13
48
1
60
0
100
AcDbLine
10
33.148349
20
67.825002
30
0
11
32.312356
21
67.824998
31
0
39
0
210
0
220
0
230
1
0
LINE
5
1FB
100
AcDbEntity
8
2
62
256
6
ByLayer
370
13
48
1
60
0
100
AcDbLine
10
32.730353
20
0
30
0
11
32.312356
21
3.174998
31
0
39
0
210
0
220
0
230
1
0
LINE
5
1FC
100
AcDbEntity
8
2
62
256
6
ByLayer
370
13
48
1
60
0
100
AcDbLine
10
32.730353
20
0
30
0
11
33.148349
21
3.175002
31
0
39
0
210
0
220
0
230
1
0
LINE
5
1FD
100
AcDbEntity
8
2
62
256
6
ByLayer
370
13
48
1
60
0
100
AcDbLine
10
32.312356
20
3.174998
30
0
11
33.148349
21
3.175002
31
0
39
0
210
0
220
0
230
1
0
ENDBLK
5
1FF
100
AcDbEntity
8
0
100
AcDbBlockEnd
0
BLOCK
5
20D
100
AcDbEntity
8
0
100
AcDbBlockBegin
2
DimnDraft3D3
70
0
10
0
20
0
30
0
3
DimnDraft3D3
0
MTEXT
5
202
100
AcDbEntity
8
SK2
62
256
6
ByLayer
370
18
48
1
60
0
100
AcDbMText
10
-17.936524
20
-1.354124
30
0
210
0
220
0
230
1
1
\W0.7183;40
40
3.50012
41
0
44
1.084337
50
90
71
7
72
5
7
iso_b_vert
0
LINE
5
204
100
AcDbEntity
8
SK2
62
256
6
ByLayer
370
13
48
1
60
0
100
AcDbLine
10
-1.0875
20
19.99974
30
0
11
-20.236494
21
19.99974
31
0
39
0
210
0
220
0
230
1
0
LINE
5
205
100
AcDbEntity
8
SK2
62
256
6
ByLayer
370
13
48
1
60
0
100
AcDbLine
10
-1.0875
20
-20
30
0
11
-20.236494
21
-20
31
0
39
0
210
0
220
0
230
1
0
LINE
5
206
100
AcDbEntity
8
SK2
62
256
6
ByLayer
370
13
48
1
60
0
100
AcDbLine
10
-17.061494
20
19.99974
30
0
11
-17.061494
21
-20
31
0
39
0
210
0
220
0
230
1
0
LINE
5
207
100
AcDbEntity
8
SK2
62
256
6
ByLayer
370
13
48
1
60
0
100
AcDbLine
10
-17.061494
20
19.99974
30
0
11
-16.643498
21
16.824742
31
0
39
0
210
0
220
0
230
1
0
LINE
5
208
100
AcDbEntity
8
SK2
62
256
6
ByLayer
370
13
48
1
60
0
100
AcDbLine
10
-17.061494
20
19.99974
30
0
11
-17.479491
21
16.824739
31
0
39
0
210
0
220
0
230
1
0
LINE
5
209
100
AcDbEntity
8
SK2
62
256
6
ByLayer
370
13
48
1
60
0
100
AcDbLine
10
-16.643498
20
16.824742
30
0
11
-17.479491
21
16.824739
31
0
39
0
210
0
220
0
230
1
0
LINE
5
20A
100
AcDbEntity
8
SK2
62
256
6
ByLayer
370
13
48
1
60
0
100
AcDbLine
10
-17.061494
20
-20
30
0
11
-17.479491
21
-16.825002
31
0
39
0
210
0
220
0
230
1
0
LINE
5
20B
100
AcDbEntity
8
SK2
62
256
6
ByLayer
370
13
48
1
60
0
100
AcDbLine
10
-17.061494
20
-20
30
0
11
-16.643498
21
-16.824998
31
0
39
0
210
0
220
0
230
1
0
LINE
5
20C
100
AcDbEntity
8
SK2
62
256
6
ByLayer
370
13
48
1
60
0
100
AcDbLine
10
-17.479491
20
-16.825002
30
0
11
-16.643498
21
-16.824998
31
0
39
0
210
0
220
0
230
1
0
ENDBLK
5
20E
100
AcDbEntity
8
0
100
AcDbBlockEnd
0
BLOCK
5
21B
100
AcDbEntity
8
0
100
AcDbBlockBegin
2
DimnDraft3D4
70
0
10
0
20
0
30
0
3
DimnDraft3D4
0
MTEXT
5
211
100
AcDbEntity
8
SK2
62
256
6
ByLayer
370
18
48
1
60
0
100
AcDbMText
10
-16.960052
20
44.815669
30
0
210
0
220
0
230
1
1
\W0.7721;45.4
40
3.50012
41
0
44
1.084337
50
90
71
7
72
5
7
iso_b_vert
0
LINE
5
212
100
AcDbEntity
8
SK2
62
256
6
ByLayer
370
13
48
1
60
0
100
AcDbLine
10
16.453346
20
71
30
0
11
-19.260022
21
71
31
0
39
0
210
0
220
0
230
1
0
LINE
5
213
100
AcDbEntity
8
SK2
62
256
6
ByLayer
370
13
48
1
60
0
100
AcDbLine
10
5.6825
20
25.65
30
0
11
-19.260022
21
25.65
31
0
39
0
210
0
220
0
230
1
0
LINE
5
214
100
AcDbEntity
8
SK2
62
256
6
ByLayer
370
13
48
1
60
0
100
AcDbLine
10
-16.085022
20
71
30
0
11
-16.085022
21
25.65
31
0
39
0
210
0
220
0
230
1
0
LINE
5
215
100
AcDbEntity
8
SK2
62
256
6
ByLayer
370
13
48
1
60
0
100
AcDbLine
10
-16.085022
20
71
30
0
11
-15.667025
21
67.825002
31
0
39
0
210
0
220
0
230
1
0
LINE
5
216
100
AcDbEntity
8
SK2
62
256
6
ByLayer
370
13
48
1
60
0
100
AcDbLine
10
-16.085022
20
71
30
0
11
-16.503019
21
67.824998
31
0
39
0
210
0
220
0
230
1
0
LINE
5
217
100
AcDbEntity
8
SK2
62
256
6
ByLayer
370
13
48
1
60
0
100
AcDbLine
10
-15.667025
20
67.825002
30
0
11
-16.503019
21
67.824998
31
0
39
0
210
0
220
0
230
1
0
LINE
5
218
100
AcDbEntity
8
SK2
62
256
6
ByLayer
370
13
48
1
60
0
100
AcDbLine
10
-16.085022
20
25.65
30
0
11
-16.503019
21
28.824998
31
0
39
0
210
0
220
0
230
1
0
LINE
5
219
100
AcDbEntity
8
SK2
62
256
6
ByLayer
370
13
48
1
60
0
100
AcDbLine
10
-16.085022
20
25.65
30
0
11
-15.667025
21
28.825002
31
0
39
0
210
0
220
0
230
1
0
LINE
5
21A
100
AcDbEntity
8
SK2
62
256
6
ByLayer
370
13
48
1
60
0
100
AcDbLine
10
-16.503019
20
28.824998
30
0
11
-15.667025
21
28.825002
31
0
39
0
210
0
220
0
230
1
0
ENDBLK
5
21C
100
AcDbEntity
8
0
100
AcDbBlockEnd
0
ENDSEC
0
SECTION
2
ENTITIES
0
ARC
5
12A
100
AcDbEntity
8
1
62
256
6
ByLayer
370
18
48
1
60
0
100
AcDbCircle
39
0
10
17.616874
20
70.6
30
0
40
0.4
210
0
220
0
230
1
100
AcDbArc
50
356.667001
51
90
0
ARC
5
12B
100
AcDbEntity
8
1
62
256
6
ByLayer
370
18
48
1
60
0
100
AcDbCircle
39
0
10
-12.383126
20
70.6
30
0
40
0.4
210
0
220
0
230
-1
100
AcDbArc
50
356.667001
51
90
0
ARC
5
12C
100
AcDbEntity
8
1
62
256
6
ByLayer
370
18
48
1
60
0
100
AcDbCircle
39
0
10
12.383126
20
46.4
30
0
40
0.4
210
0
220
0
230
1
100
AcDbArc
50
176.667001
51
250.559076
0
ARC
5
12D
100
AcDbEntity
8
1
62
256
6
ByLayer
370
18
48
1
60
0
100
AcDbCircle
39
0
10
-17.616874
20
46.4
30
0
40
0.4
210
0
220
0
230
-1
100
AcDbArc
50
176.667001
51
250.559076
0
ARC
5
12E
100
AcDbEntity
8
SK1
62
256
6
ByLayer
370
18
48
1
60
0
100
AcDbCircle
39
0
10
-0.240519
20
-5.25
30
0
40
0.204499999999988
210
0
220
0
230
-1
100
AcDbArc
50
120
51
240
0
ARC
5
12F
100
AcDbEntity
8
SK1
62
256
6
ByLayer
370
18
48
1
60
0
100
AcDbCircle
39
0
10
0.174981
20
-4.60077
30
0
40
0.149999999999843
210
0
220
0
230
-1
100
AcDbArc
50
300
51
0
0
ARC
5
130
100
AcDbEntity
8
SK1
62
256
6
ByLayer
370
18
48
1
60
0
100
AcDbCircle
39
0
10
0.174981
20
-4.39923
30
0
40
0.150000000000217
210
0
220
0
230
-1
100
AcDbArc
50
0
51
60
0
ARC
5
131
100
AcDbEntity
8
SK1
62
256
6
ByLayer
370
18
48
1
60
0
100
AcDbCircle
39
0
10
-0.240519
20
-3.75
30
0
40
0.204500000000003
210
0
220
0
230
-1
100
AcDbArc
50
120
51
240
0
ARC
5
132
100
AcDbEntity
8
SK1
62
256
6
ByLayer
370
18
48
1
60
0
100
AcDbCircle
39
0
10
0.174981
20
-3.10077
30
0
40
0.14999999999964
210
0
220
0
230
-1
100
AcDbArc
50
300
51
0
0
ARC
5
133
100
AcDbEntity
8
SK1
62
256
6
ByLayer
370
18
48
1
60
0
100
AcDbCircle
39
0
10
0.174981
20
-2.89923
30
0
40
0.150000000000768
210
0
220
0
230
-1
100
AcDbArc
50
0
51
60
0
ARC
5
134
100
AcDbEntity
8
SK1
62
256
6
ByLayer
370
18
48
1
60
0
100
AcDbCircle
39
0
10
-0.240519
20
-2.25
30
0
40
0.204499999999997
210
0
220
0
230
-1
100
AcDbArc
50
120
51
240
0
ARC
5
135
100
AcDbEntity
8
SK1
62
256
6
ByLayer
370
18
48
1
60
0
100
AcDbCircle
39
0
10
0.174981
20
-1.60077
30
0
40
0.150000000000713
210
0
220
0
230
-1
100
AcDbArc
50
300
51
0
0
ARC
5
136
100
AcDbEntity
8
SK1
62
256
6
ByLayer
370
18
48
1
60
0
100
AcDbCircle
39
0
10
0.174981
20
-1.39923
30
0
40
0.150000000000799
210
0
220
0
230
-1
100
AcDbArc
50
0
51
60
0
ARC
5
137
100
AcDbEntity
8
SK1
62
256
6
ByLayer
370
18
48
1
60
0
100
AcDbCircle
39
0
10
-0.240519
20
-0.75
30
0
40
0.204500000000015
210
0
220
0
230
-1
100
AcDbArc
50
120
51
240
0
ARC
5
138
100
AcDbEntity
8
SK1
62
256
6
ByLayer
370
18
48
1
60
0
100
AcDbCircle
39
0
10
0.174981
20
-0.10077
30
0
40
0.150000000000333
210
0
220
0
230
-1
100
AcDbArc
50
300
51
0
0
ARC
5
139
100
AcDbEntity
8
SK1
62
256
6
ByLayer
370
18
48
1
60
0
100
AcDbCircle
39
0
10
0.174981
20
0.10077
30
0
40
0.150000000000783
210
0
220
0
230
-1
100
AcDbArc
50
0
51
60
0
ARC
5
13A
100
AcDbEntity
8
SK1
62
256
6
ByLayer
370
18
48
1
60
0
100
AcDbCircle
39
0
10
-0.240519
20
0.75
30
0
40
0.204499999999974
210
0
220
0
230
-1
100
AcDbArc
50
120
51
240
0
ARC
5
13B
100
AcDbEntity
8
SK1
62
256
6
ByLayer
370
18
48
1
60
0
100
AcDbCircle
39
0
10
0.174981
20
1.39923
30
0
40
0.150000000000321
210
0
220
0
230
-1
100
AcDbArc
50
300
51
0
0
ARC
5
13C
100
AcDbEntity
8
SK1
62
256
6
ByLayer
370
18
48
1
60
0
100
AcDbCircle
39
0
10
0.174981
20
1.60077
30
0
40
0.150000000000789
210
0
220
0
230
-1
100
AcDbArc
50
0
51
60
0
ARC
5
13D
100
AcDbEntity
8
SK1
62
256
6
ByLayer
370
18
48
1
60
0
100
AcDbCircle
39
0
10
-0.240519
20
2.25
30
0
40
0.204499999999988
210
0
220
0
230
-1
100
AcDbArc
50
120
51
240
0
ARC
5
13E
100
AcDbEntity
8
SK1
62
256
6
ByLayer
370
18
48
1
60
0
100
AcDbCircle
39
0
10
0.174981
20
2.89923
30
0
40
0.149999999999603
210
0
220
0
230
-1
100
AcDbArc
50
300
51
0
0
ARC
5
13F
100
AcDbEntity
8
SK1
62
256
6
ByLayer
370
18
48
1
60
0
100
AcDbCircle
39
0
10
0.174981
20
3.10077
30
0
40
0.150000000000321
210
0
220
0
230
-1
100
AcDbArc
50
0
51
60
0
ARC
5
140
100
AcDbEntity
8
SK1
62
256
6
ByLayer
370
18
48
1
60
0
100
AcDbCircle
39
0
10
-0.240519
20
3.75
30
0
40
0.204499999999996
210
0
220
0
230
-1
100
AcDbArc
50
120
51
240
0
ARC
5
141
100
AcDbEntity
8
SK1
62
256
6
ByLayer
370
18
48
1
60
0
100
AcDbCircle
39
0
10
0.174981
20
4.39923
30
0
40
0.150000000000425
210
0
220
0
230
-1
100
AcDbArc
50
300
51
0
0
ARC
5
142
100
AcDbEntity
8
SK1
62
256
6
ByLayer
370
18
48
1
60
0
100
AcDbCircle
39
0
10
0.174981
20
4.60077
30
0
40
0.149999999999661
210
0
220
0
230
-1
100
AcDbArc
50
0
51
60
0
ARC
5
143
100
AcDbEntity
8
SK1
62
256
6
ByLayer
370
18
48
1
60
0
100
AcDbCircle
39
0
10
-0.240519
20
5.25
30
0
40
0.20449999999999
210
0
220
0
230
-1
100
AcDbArc
50
120
51
240
0
ARC
5
144
100
AcDbEntity
8
SK1
62
256
6
ByLayer
370
18
48
1
60
0
100
AcDbCircle
39
0
10
0.174981
20
16.39923
30
0
40
0.150000000000017
210
0
220
0
230
-1
100
AcDbArc
50
300
51
0
0
ARC
5
145
100
AcDbEntity
8
SK1
62
256
6
ByLayer
370
18
48
1
60
0
100
AcDbCircle
39
0
10
0.174981
20
16.60077
30
0
40
0.149999999999609
210
0
220
0
230
-1
100
AcDbArc
50
0
51
60
0
ARC
5
146
100
AcDbEntity
8
SK1
62
256
6
ByLayer
370
18
48
1
60
0
100
AcDbCircle
39
0
10
-0.240519
20
17.25
30
0
40
0.204499999999994
210
0
220
0
230
-1
100
AcDbArc
50
120
51
240
0
ARC
5
147
100
AcDbEntity
8
SK1
62
256
6
ByLayer
370
18
48
1
60
0
100
AcDbCircle
39
0
10
0.174981
20
17.89923
30
0
40
0.150000000000483
210
0
220
0
230
-1
100
AcDbArc
50
300
51
0
0
ARC
5
148
100
AcDbEntity
8
SK1
62
256
6
ByLayer
370
18
48
1
60
0
100
AcDbCircle
39
0
10
0.174981
20
18.10077
30
0
40
0.150000000000001
210
0
220
0
230
-1
100
AcDbArc
50
0
51
60
0
ARC
5
149
100
AcDbEntity
8
SK1
62
256
6
ByLayer
370
18
48
1
60
0
100
AcDbCircle
39
0
10
-0.240519
20
18.75
30
0
40
0.204500000000008
210
0
220
0
230
-1
100
AcDbArc
50
120
51
240
0
ELLIPSE
5
14A
100
AcDbEntity
8
1
62
256
6
ByLayer
370
18
48
1
60
0
100
AcDbEllipse
10
12.641251
20
64.044631
30
0
11
5.1452170995493E-11
21
0.433147585586639
31
0
210
0
220
0
230
-1
40
0.230868
41
2.96704007689056
42
3.14159265358979
0
ELLIPSE
5
14B
100
AcDbEntity
8
1
62
256
6
ByLayer
370
18
48
1
60
0
100
AcDbEllipse
10
17.358749
20
64.044631
30
0
11
5.634812626487E-11
21
-0.43314758534163
31
0
210
0
220
0
230
-1
40
0.230868
41
0
42
0.174552576751368
0
ELLIPSE
5
14C
100
AcDbEntity
8
1
62
256
6
ByLayer
370
18
48
1
60
0
100
AcDbEllipse
10
15.667299
20
65.336487
30
0
11
-2.65217643860926E-17
21
0.433147587439996
31
0
210
0
220
0
230
-1
40
0.230868
41
-2.96705972839691
42
-2.47750918247951
0
ELLIPSE
5
14D
100
AcDbEntity
8
1
62
256
6
ByLayer
370
18
48
1
60
0
100
AcDbEllipse
10
14.332701
20
65.336487
30
0
11
-2.65217643852125E-17
21
0.433147587425621
31
0
210
0
220
0
230
-1
40
0.230868
41
2.47750918246886
42
2.9670597283964
0
ELLIPSE
5
14E
100
AcDbEntity
8
1
62
256
6
ByLayer
370
18
48
1
60
0
100
AcDbEllipse
10
15
20
50.416619
30
0
11
1.2
21
0
31
0
210
0
220
0
230
1
40
0.309017
41
0
42
6.28318530717959
0
ELLIPSE
5
14F
100
AcDbEntity
8
1
62
256
6
ByLayer
370
18
48
1
60
0
100
AcDbEllipse
10
15
20
50.416619
30
0
11
0.866025403784439
21
0
31
0
210
0
220
0
230
1
40
0.309017
41
2.82743338823082
42
-2.40855436775219
0
ELLIPSE
5
150
100
AcDbEntity
8
1
62
256
6
ByLayer
370
18
48
1
60
0
100
AcDbEllipse
10
15
20
50.416619
30
0
11
0.866025403784439
21
0
31
0
210
0
220
0
230
1
40
0.309017
41
-2.40855436775219
42
-1.36135681655558
0
ELLIPSE
5
151
100
AcDbEntity
8
1
62
256
6
ByLayer
370
18
48
1
60
0
100
AcDbEllipse
10
15
20
50.416619
30
0
11
0.866025403784439
21
0
31
0
210
0
220
0
230
1
40
0.309017
41
-1.36135681655558
42
-0.314159265358997
0
ELLIPSE
5
152
100
AcDbEntity
8
1
62
256
6
ByLayer
370
18
48
1
60
0
100
AcDbEllipse
10
15
20
50.416619
30
0
11
0.866025403784439
21
0
31
0
210
0
220
0
230
1
40
0.309017
41
-0.314159265358997
42
0.733038285837637
0
ELLIPSE
5
153
100
AcDbEntity
8
1
62
256
6
ByLayer
370
18
48
1
60
0
100
AcDbEllipse
10
15
20
50.416619
30
0
11
0.866025403784439
21
0
31
0
210
0
220
0
230
1
40
0.309017
41
0.733038285837637
42
1.78023583703421
0
ELLIPSE
5
154
100
AcDbEntity
8
1
62
256
6
ByLayer
370
18
48
1
60
0
100
AcDbEllipse
10
15
20
50.416619
30
0
11
0.866025403784439
21
0
31
0
210
0
220
0
230
1
40
0.309017
41
1.78023583703421
42
2.82743338823082
0
ELLIPSE
5
155
100
AcDbEntity
8
1
62
256
6
ByLayer
370
18
48
1
60
0
100
AcDbEllipse
10
-142.175001
20
58.047011
30
0
11
160.000001253464
21
1.61702250079978E-13
31
0
210
0
220
0
230
-1
40
0.36397
41
0.0477407088746806
42
0.0872556817588168
0
ELLIPSE
5
156
100
AcDbEntity
8
1
62
256
6
ByLayer
370
18
48
1
60
0
100
AcDbEllipse
10
-142.174999
20
-6.222895
30
0
11
-1.16754321512561E-14
21
190.680574452573
31
0
210
0
220
0
230
-1
40
0.8391
41
1.43955705516027
42
1.50230677630421
0
ELLIPSE
5
157
100
AcDbEntity
8
1
62
256
6
ByLayer
370
18
48
1
60
0
100
AcDbEllipse
10
-142.175
20
-3.111448
30
0
11
-1.16754321840089E-14
21
190.680574987485
31
0
210
0
220
0
230
-1
40
0.8391
41
1.44231816139847
42
1.51410244748913
0
ELLIPSE
5
158
100
AcDbEntity
8
1
62
256
6
ByLayer
370
18
48
1
60
0
100
AcDbEllipse
10
-142.175001
20
56.463521
30
0
11
160.000001112008
21
1.61702249937017E-13
31
0
210
0
220
0
230
-1
40
0.32492
41
0.105215551832853
42
0.128478165067933
0
ELLIPSE
5
159
100
AcDbEntity
8
1
62
256
6
ByLayer
370
18
48
1
60
0
100
AcDbEllipse
10
172.175057
20
56.463524
30
0
11
160.000056702385
21
2.39760014395145E-06
31
0
210
0
220
0
230
-1
40
0.32492
41
3.01311451568042
42
3.03637712484719
0
ELLIPSE
5
15A
100
AcDbEntity
8
1
62
256
6
ByLayer
370
18
48
1
60
0
100
AcDbEllipse
10
15
20
50.416619
30
0
11
1.25
21
0
31
0
210
0
220
0
230
1
40
0.309017
41
0
42
6.28318530717959
0
ELLIPSE
5
15B
100
AcDbEntity
8
1
62
256
6
ByLayer
370
18
48
1
60
0
100
AcDbEllipse
10
172.175004
20
58.047011
30
0
11
160.000003873402
21
1.61702252727789E-13
31
0
210
0
220
0
230
-1
40
0.36397
41
3.05433697254361
42
3.09385194510192
0
ELLIPSE
5
15C
100
AcDbEntity
8
1
62
256
6
ByLayer
370
18
48
1
60
0
100
AcDbEllipse
10
14.109018
20
55.638744
30
0
11
1.50645415436126
21
-0.0601335100028704
31
0
210
0
220
0
230
-1
40
0.471741
41
0.462447234676048
42
2.51031386497271
0
ELLIPSE
5
15D
100
AcDbEntity
8
1
62
256
6
ByLayer
370
18
48
1
60
0
100
AcDbEllipse
10
15.640309
20
54.192484
30
0
11
1.50872878215654
21
0.114562328313686
31
0
210
0
220
0
230
-1
40
0.559901
41
0
42
6.28318530717959
0
ELLIPSE
5
15E
100
AcDbEntity
8
1
62
256
6
ByLayer
370
18
48
1
60
0
100
AcDbEllipse
10
14.359925
20
52.276506
30
0
11
0.668787242548376
21
-8.04078430037226
31
0
210
0
220
0
230
-1
40
0.185719
41
2.32266899043471
42
-2.29177724438394
0
POINT
5
6C
100
AcDbEntity
8
80
62
256
6
ByLayer
370
18
48
1
60
0
100
AcDbPoint
10
0
20
0
30
0
39
0
210
0
220
0
230
1
50
360
0
POINT
5
6E
100
AcDbEntity
8
81
62
256
6
ByLayer
370
18
48
1
60
0
100
AcDbPoint
10
18.040846
20
71
30
0
39
0
210
0
220
0
230
1
50
360
0
SPLINE
5
15F
100
AcDbEntity
8
1
62
256
6
ByLayer
370
18
48
1
60
0
100
AcDbSpline
70
4
71
2
72
6
73
3
40
0
40
0
40
0
40
1
40
1
40
1
41
1
10
15.483085351822
20
65.4823668306203
30
0
41
1
10
15.4931766319907
20
65.3769907517282
30
0
41
1
10
15.513887568156
20
65.3065261768005
30
0
0
SPLINE
5
160
100
AcDbEntity
8
1
62
256
6
ByLayer
370
18
48
1
60
0
100
AcDbSpline
70
4
71
2
72
6
73
3
40
0
40
0
40
0
40
1
40
1
40
1
41
1
10
15.4277346738575
20
66.1702887043921
30
0
41
1
10
15.4509625305676
20
65.8195527839449
30
0
41
1
10
15.48308535183
20
65.4823668305907
30
0
0
SPLINE
5
161
100
AcDbEntity
8
1
62
256
6
ByLayer
370
18
48
1
60
0
100
AcDbSpline
70
4
71
3
72
20
73
16
40
0
40
0
40
0
40
0
40
0.119760301054386
40
0.229755695722273
40
0.329996235928918
40
0.420495232983855
40
0.501270823768944
40
0.638194936766705
40
0.751527594230751
40
0.809708245630588
40
0.860663174703898
40
0.904640927165879
40
0.942029454089465
40
0.973461643046277
40
1
40
1
40
1
40
1
41
1
10
15.427732523738
20
66.1703211834999
30
0
41
1
10
15.4253272164387
20
66.2032384223176
30
0
41
1
10
15.4207127235966
20
66.266388924105
30
0
41
1
10
15.4112496745573
20
66.356855759262
30
0
41
1
10
15.4006795939482
20
66.4390901560859
30
0
41
1
10
15.3891781587031
20
66.5130842502183
30
0
41
1
10
15.3738059064435
20
66.5966964538528
30
0
41
1
10
15.3535144824558
20
66.685793659409
30
0
41
1
10
15.3289484468661
20
66.7674524892746
30
0
41
1
10
15.306675565102
20
66.8248261983127
30
0
41
1
10
15.2885610109195
20
66.8631746632323
30
0
41
1
10
15.2700121064863
20
66.8949500526214
30
0
41
1
10
15.2509864679419
20
66.9199071235433
30
0
41
1
10
15.231923071649
20
66.9389623673363
30
0
41
1
10
15.2173890993506
20
66.9465271444833
30
0
41
1
10
15.210735586972
20
66.9499902265199
30
0
0
SPLINE
5
162
100
AcDbEntity
8
1
62
256
6
ByLayer
370
18
48
1
60
0
100
AcDbSpline
70
4
71
3
72
13
73
9
40
0
40
0
40
0
40
0
40
0.173254768746516
40
0.342985030730132
40
0.509834375982743
40
0.674480181908029
40
0.837627275076536
40
1
40
1
40
1
40
1
41
1
10
15.210735587058
20
66.9499902266699
30
0
41
1
10
15.2002070571625
20
66.9540586583589
30
0
41
1
10
15.1793641783437
20
66.9621127579832
30
0
41
1
10
15.1474976132413
20
66.9717000120854
30
0
41
1
10
15.1156548906239
20
66.9792735390135
30
0
41
1
10
15.0837772256579
20
66.9846204008344
30
0
41
1
10
15.051891504488
20
66.9879790358223
30
0
41
1
10
15.0306136295519
20
66.9883962127301
30
0
41
1
10
15.0200000006976
20
66.9886043049799
30
0
0
SPLINE
5
163
100
AcDbEntity
8
1
62
256
6
ByLayer
370
18
48
1
60
0
100
AcDbSpline
70
4
71
2
72
6
73
3
40
0
40
0
40
0
40
1
40
1
40
1
41
1
10
14.789264412942
20
66.9499902266707
30
0
41
1
10
14.8844087349086
20
66.9884919085572
30
0
41
1
10
14.9799999993024
20
66.9886043049806
30
0
0
SPLINE
5
164
100
AcDbEntity
8
1
62
256
6
ByLayer
370
18
48
1
60
0
100
AcDbSpline
70
4
71
2
72
10
73
7
40
0
40
0
40
0
40
0.5
40
0.5
40
0.75
40
0.75
40
1
40
1
40
1
41
1
10
14.572267476262
20
66.1703211835004
30
0
41
1
10
14.5875343736815
20
66.4005090492968
30
0
41
1
10
14.623741643263
20
66.5813994958523
30
0
41
1
10
14.6470238717702
20
66.6977168199743
30
0
41
1
10
14.6769810514918
20
66.7815407125726
30
0
41
1
10
14.7281228301936
20
66.9246417322623
30
0
41
1
10
14.789264413028
20
66.9499902265207
30
0
0
SPLINE
5
165
100
AcDbEntity
8
1
62
256
6
ByLayer
370
18
48
1
60
0
100
AcDbSpline
70
4
71
3
72
10
73
6
40
0
40
0
40
0
40
0
40
0.349345455437194
40
0.68267778943698
40
1
40
1
40
1
40
1
41
1
10
14.5722653261451
20
66.1702887043916
30
0
41
1
10
14.5667261918134
20
66.0901143749181
30
0
41
1
10
14.555901823206
20
65.9334407065972
30
0
41
1
10
14.5373916006501
20
65.7041244704148
30
0
41
1
10
14.5236274042276
20
65.5550634362737
30
0
41
1
10
14.51691464817
20
65.4823668305899
30
0
0
SPLINE
5
166
100
AcDbEntity
8
1
62
256
6
ByLayer
370
18
48
1
60
0
100
AcDbSpline
70
4
71
3
72
9
73
5
40
0
40
0
40
0
40
0
40
0.572743649990668
40
1
40
1
40
1
40
1
41
1
10
14.5169146481781
20
65.48236683062
30
0
41
1
10
14.5132484323122
20
65.4484188310256
30
0
41
1
10
14.5068472860648
20
65.3891462409324
30
0
41
1
10
14.4923195144977
20
65.3312589075659
30
0
41
1
10
14.4861124318441
20
65.3065261767999
30
0
0
SPLINE
5
167
100
AcDbEntity
8
1
62
256
6
ByLayer
370
18
48
1
60
0
100
AcDbSpline
70
4
71
3
72
8
73
4
40
0
40
0
40
0
40
0
40
1
40
1
40
1
40
1
41
1
10
15.8236391035469
20
50.3339208296894
30
0
41
1
10
15.7630353238583
20
50.2946690506358
30
0
41
1
10
15.7019075042184
20
50.2599360579464
30
0
41
1
10
15.6400254028397
20
50.2317072220996
30
0
0
SPLINE
5
168
100
AcDbEntity
8
1
62
256
6
ByLayer
370
18
48
1
60
0
100
AcDbSpline
70
4
71
3
72
10
73
6
40
0
40
0
40
0
40
0
40
0.448711827957027
40
0.448711827957027
40
1
40
1
40
1
40
1
41
1
10
14.2580187662386
20
50.3174976347297
30
0
41
1
10
14.2455708225849
20
50.3373824072501
30
0
41
1
10
14.2331652630756
20
50.361126865122
30
0
41
1
10
14.2059201024736
20
50.4208705180198
30
0
41
1
10
14.1910789852938
20
50.4584844857447
30
0
41
1
10
14.1763608964536
20
50.4993169642539
30
0
0
SPLINE
5
169
100
AcDbEntity
8
1
62
256
6
ByLayer
370
18
48
1
60
0
100
AcDbSpline
70
4
71
3
72
12
73
8
40
0
40
0
40
0
40
0
40
0.500000000000001
40
0.500000000000001
40
0.75
40
0.75
40
1
40
1
40
1
40
1
41
1
10
15.6435822975543
20
50.5956893329397
30
0
41
1
10
15.6729819152576
20
50.5141258044757
30
0
41
1
10
15.7028223342849
20
50.4459459222684
30
0
41
1
10
15.7487478862329
20
50.3790455997888
30
0
41
1
10
15.7640400279558
20
50.3628939874346
30
0
41
1
10
15.7940798975265
20
50.3414213608512
30
0
41
1
10
15.8089210147063
20
50.3358829799679
30
0
41
1
10
15.8236391035464
20
50.3339208296913
30
0
0
SPLINE
5
16A
100
AcDbEntity
8
1
62
256
6
ByLayer
370
18
48
1
60
0
100
AcDbSpline
70
4
71
3
72
12
73
8
40
0
40
0
40
0
40
0
40
0.499999999999998
40
0.499999999999998
40
0.749999999999999
40
0.749999999999999
40
1
40
1
40
1
40
1
41
1
10
14.1763608964532
20
50.4993169642515
30
0
41
1
10
14.2814448081915
20
50.4897334768106
30
0
41
1
10
14.3881042889691
20
50.4946128638567
30
0
41
1
10
14.5522573298736
20
50.5401535651543
30
0
41
1
10
14.606916478415
20
50.5614422011618
30
0
41
1
10
14.7142888610915
20
50.6135171650893
30
0
41
1
10
14.7673358994427
20
50.6443147744971
30
0
41
1
10
14.8199431940084
20
50.678387400223
30
0
0
SPLINE
5
16B
100
AcDbEntity
8
1
62
256
6
ByLayer
370
18
48
1
60
0
100
AcDbSpline
70
4
71
3
72
14
73
10
40
0
40
0
40
0
40
0
40
0.25
40
0.25
40
0.5
40
0.5
40
0.75
40
0.75
40
1
40
1
40
1
40
1
41
1
10
15.6435822975544
20
50.5956893329439
30
0
41
1
10
15.5765832865419
20
50.5830754675544
30
0
41
1
10
15.507962806818
20
50.5737444136305
30
0
41
1
10
15.3704114213436
20
50.5653800845599
30
0
41
1
10
15.301250637926
20
50.5663456964317
30
0
41
1
10
15.1620267748508
20
50.5803385449681
30
0
41
1
10
15.09146932551
20
50.5935734987075
30
0
41
1
10
14.9539544484143
20
50.629710301765
30
0
41
1
10
14.8865123499416
20
50.6524866169475
30
0
41
1
10
14.8199431940081
20
50.6783874002251
30
0
0
SPLINE
5
16C
100
AcDbEntity
8
1
62
256
6
ByLayer
370
18
48
1
60
0
100
AcDbSpline
70
4
71
3
72
16
73
12
40
0
40
0
40
0
40
0
40
0.250000000000003
40
0.250000000000003
40
0.500000000000005
40
0.500000000000005
40
0.625000000000005
40
0.625000000000005
40
0.750000000000004
40
0.750000000000004
40
1
40
1
40
1
40
1
41
1
10
17.75
20
57.2658921984253
30
0
41
1
10
17.7445925068201
20
57.0378392320945
30
0
41
1
10
17.738465983547
20
56.8249960957689
30
0
41
1
10
17.7245190316489
20
56.428481196563
30
0
41
1
10
17.7166994642764
20
56.2448130361995
30
0
41
1
10
17.7034402513215
20
55.9915778127716
30
0
41
1
10
17.6987506668584
20
55.9106786341588
30
0
41
1
10
17.6888730066763
20
55.7575948755357
30
0
41
1
10
17.6837025735286
20
55.6856343876435
30
0
41
1
10
17.6674529662841
20
55.4833088405964
30
0
41
1
10
17.6556378440457
20
55.3664322487922
30
0
41
1
10
17.6427006041805
20
55.267875013206
30
0
0
SPLINE
5
16D
100
AcDbEntity
8
1
62
256
6
ByLayer
370
18
48
1
60
0
100
AcDbSpline
70
4
71
3
72
113
73
109
40
0
40
0
40
0
40
0
40
0.0312500000000005
40
0.0312500000000005
40
0.0468750000000005
40
0.0468750000000005
40
0.0625000000000007
40
0.0625000000000007
40
0.0937500000000009
40
0.0937500000000009
40
0.109375000000001
40
0.109375000000001
40
0.117187500000001
40
0.117187500000001
40
0.125000000000001
40
0.125000000000001
40
0.156250000000002
40
0.156250000000002
40
0.171875000000002
40
0.171875000000002
40
0.187500000000002
40
0.187500000000002
40
0.218750000000002
40
0.218750000000002
40
0.226562500000002
40
0.226562500000002
40
0.234375000000002
40
0.234375000000002
40
0.250000000000003
40
0.250000000000003
40
0.281250000000003
40
0.281250000000003
40
0.296875000000003
40
0.296875000000003
40
0.312500000000003
40
0.312500000000003
40
0.343750000000003
40
0.343750000000003
40
0.351562500000003
40
0.351562500000003
40
0.359375000000003
40
0.359375000000003
40
0.375000000000003
40
0.375000000000003
40
0.406250000000003
40
0.406250000000003
40
0.437500000000003
40
0.437500000000003
40
0.453125000000003
40
0.453125000000003
40
0.460937500000003
40
0.460937500000003
40
0.468750000000002
40
0.468750000000002
40
0.500000000000002
40
0.500000000000002
40
0.515625000000002
40
0.515625000000002
40
0.531250000000002
40
0.531250000000002
40
0.562500000000001
40
0.562500000000001
40
0.578125000000001
40
0.578125000000001
40
0.593750000000001
40
0.593750000000001
40
0.625000000000001
40
0.625000000000001
40
0.640625000000001
40
0.640625000000001
40
0.648437500000001
40
0.648437500000001
40
0.656250000000001
40
0.656250000000001
40
0.687500000000001
40
0.687500000000001
40
0.703125000000001
40
0.703125000000001
40
0.718750000000001
40
0.718750000000001
40
0.750000000000001
40
0.750000000000001
40
0.765625000000001
40
0.765625000000001
40
0.781250000000001
40
0.796875000000002
40
0.796875000000002
40
0.812500000000002
40
0.812500000000002
40
0.843750000000002
40
0.843750000000002
40
0.859375000000002
40
0.859375000000002
40
0.875000000000002
40
0.875000000000002
40
0.906250000000001
40
0.906250000000001
40
0.914062500000001
40
0.914062500000001
40
0.921875000000001
40
0.921875000000001
40
0.937500000000001
40
0.937500000000001
40
0.968750000000001
40
0.968750000000001
40
0.984375
40
0.984375
40
1
40
1
40
1
40
1
41
1
10
15.9579801851313
20
-14.0420198148685
30
0
41
1
10
15.8970684580258
20
-13.9824973013078
30
0
41
1
10
15.836146309953
20
-13.8888289977633
30
0
41
1
10
15.7450102950263
20
-13.6981868702558
30
0
41
1
10
15.7146746855636
20
-13.6262337651657
30
0
41
1
10
15.6541591059969
20
-13.4650915471736
30
0
41
1
10
15.6239426262308
20
-13.3756789338931
30
0
41
1
10
15.5354305591221
20
-13.0866887900134
30
0
41
1
10
15.4786505688982
20
-12.8650705571408
30
0
41
1
10
15.3973420794104
20
-12.4895739211721
30
0
41
1
10
15.370886937283
20
-12.357188501546
30
0
41
1
10
15.3322835400808
20
-12.1474314035721
30
0
41
1
10
15.3195755673476
20
-12.0755132626994
30
0
41
1
10
15.2947827492788
20
-11.9293173123758
30
0
41
1
10
15.2826699371558
20
-11.8548974247797
30
0
41
1
10
15.2235348517429
20
-11.4762842515414
30
0
41
1
10
15.1807680510075
20
-11.1527035432028
30
0
41
1
10
15.1240155854451
20
-10.6362457385103
30
0
41
1
10
15.106337096371
20
-10.4588822467473
30
0
41
1
10
15.073639305061
20
-10.0933400853949
30
0
41
1
10
15.0588136428908
20
-9.90723401678886
30
0
41
1
10
15.019177855574
20
-9.34261551497858
30
0
41
1
10
14.999045625945
20
-8.95638077012646
30
0
41
1
10
14.9820677750819
20
-8.46121381375053
30
0
41
1
10
14.9790839722407
20
-8.36155716447595
30
0
41
1
10
14.9739580096301
20
-8.16097603668021
30
0
41
1
10
14.9718119942771
20
-8.05978614675126
30
0
41
1
10
14.9667044949956
20
-7.75651436332515
30
0
41
1
10
14.9650635679017
20
-7.55495790028019
30
0
41
1
10
14.9652909491631
20
-6.95210769101581
30
0
41
1
10
14.972278735502
20
-6.55261905709258
30
0
41
1
10
14.9930285409364
20
-5.95704808540069
30
0
41
1
10
15.0017229444327
20
-5.7582169691577
30
0
41
1
10
15.0222377776427
20
-5.36891494950933
30
0
41
1
10
15.0340596344831
20
-5.17790174146899
30
0
41
1
10
15.0740080963338
20
-4.61549596840985
30
0
41
1
10
15.1065898509415
20
-4.25465352221389
30
0
41
1
10
15.1544991063692
20
-3.82157373932682
30
0
41
1
10
15.164465722845
20
-3.73568279775716
30
0
41
1
10
15.1849327184103
20
-3.56727689144853
30
0
41
1
10
15.1954464682147
20
-3.48462243346566
30
0
41
1
10
15.2277947241795
20
-3.24121724525162
30
0
41
1
10
15.2504346911751
20
-3.08501567561154
30
0
41
1
10
15.3213691448991
20
-2.63426356707404
30
0
41
1
10
15.3726565977419
20
-2.35742103226704
30
0
41
1
10
15.4826724145682
20
-1.85262712824633
30
0
41
1
10
15.539781796181
20
-1.6320780950299
30
0
41
1
10
15.6278728469723
20
-1.34696524374576
30
0
41
1
10
15.6576475075015
20
-1.25958440547615
30
0
41
1
10
15.7028747685322
20
-1.14013631783641
30
0
41
1
10
15.7180449519685
20
-1.1022603218259
30
0
41
1
10
15.7485682412577
20
-1.03044701218957
30
0
41
1
10
15.7639581092125
20
-0.99643885261932
30
0
41
1
10
15.8407096351773
20
-0.837736049368061
30
0
41
1
10
15.9016908671839
20
-0.746084489209977
30
0
41
1
10
15.9922952127518
20
-0.659853178990574
30
0
41
1
10
16.022353496794
20
-0.63970194743402
30
0
41
1
10
16.0821593679982
20
-0.616912853888977
30
0
41
1
10
16.1120529828897
20
-0.614339874344921
30
0
41
1
10
16.1998586890012
20
-0.633532333483004
30
0
41
1
10
16.2560056286902
20
-0.681529384553329
30
0
41
1
10
16.3368671283468
20
-0.80516968335445
30
0
41
1
10
16.3632597698762
20
-0.855040948022605
30
0
41
1
10
16.4149453829696
20
-0.972521954521142
30
0
41
1
10
16.4403265445326
20
-1.04048679218354
30
0
41
1
10
16.5134569726768
20
-1.26750901099027
30
0
41
1
10
16.5586334815857
20
-1.45017323116929
30
0
41
1
10
16.6215999908626
20
-1.77046080945902
30
0
41
1
10
16.6417852575456
20
-1.88498310100712
30
0
41
1
10
16.6708961441794
20
-2.06873749620607
30
0
41
1
10
16.6804286288455
20
-2.13215830055336
30
0
41
1
10
16.6989643739504
20
-2.26206072681507
30
0
41
1
10
16.7079698771152
20
-2.32853451811786
30
0
41
1
10
16.7517392223843
20
-2.66838896284057
30
0
41
1
10
16.7827584393768
20
-2.96405077042385
30
0
41
1
10
16.8239404159918
20
-3.44293742154943
30
0
41
1
10
16.8367707565357
20
-3.60849929916705
30
0
41
1
10
16.8606768311653
20
-3.9518754751945
30
0
41
1
10
16.871647774614
20
-4.12830704093918
30
0
41
1
10
16.9014769890198
20
-4.66606072428567
30
0
41
1
10
16.9174368807189
20
-5.03798508542491
30
0
41
1
10
16.9359037248771
20
-5.6160200374344
30
0
41
1
10
16.9411491032781
20
-5.81250663680075
30
0
41
1
10
16.9497430441506
20
-6.21061204948055
30
0
41
1
10
16.9563810136405
20
-6.61067911234699
30
0
41
1
10
16.9592248559077
20
-7.01461566980498
30
0
41
1
10
16.9601652942923
20
-7.42050768488681
30
0
41
1
10
16.9596738861676
20
-7.62391473357138
30
0
41
1
10
16.9553888935811
20
-8.22716092782446
30
0
41
1
10
16.9488278034668
20
-8.62324360861064
30
0
41
1
10
16.9332770587921
20
-9.20830385441568
30
0
41
1
10
16.9271336026496
20
-9.40182732753118
30
0
41
1
10
16.9128092724345
20
-9.78564100502663
30
0
41
1
10
16.9047369809416
20
-9.97301801561815
30
0
41
1
10
16.8777761158792
20
-10.5220166429316
30
0
41
1
10
16.856170614489
20
-10.8706064912809
30
0
41
1
10
16.8241699242103
20
-11.2844929280066
30
0
41
1
10
16.8175179260068
20
-11.3661695550687
30
0
41
1
10
16.8036896938528
20
-11.5272858519102
30
0
41
1
10
16.7964987070221
20
-11.6068649643816
30
0
41
1
10
16.7743229133769
20
-11.839946774839
30
0
41
1
10
16.7586851379409
20
-11.9884654187737
30
0
41
1
10
16.7091319791576
20
-12.4139972202336
30
0
41
1
10
16.6725978768172
20
-12.6711402327029
30
0
41
1
10
16.6118736026637
20
-13.0164814644275
30
0
41
1
10
16.5905480802834
20
-13.1251569193356
30
0
41
1
10
16.5465951185833
20
-13.3247960376838
30
0
41
1
10
16.5238972976442
20
-13.4162545117713
30
0
41
1
10
16.5004540628098
20
-13.49954593719
30
0
0
SPLINE
5
16E
100
AcDbEntity
8
1
62
256
6
ByLayer
370
18
48
1
60
0
100
AcDbSpline
70
4
71
3
72
8
73
4
40
0
40
0
40
0
40
0
40
1
40
1
40
1
40
1
41
1
10
15.7564967008365
20
-14.2435032991635
30
0
41
1
10
15.3875965950545
20
-13.1694401893762
30
0
41
1
10
14.9814339486164
20
-11.9592813141926
30
0
41
1
10
14.5468185035565
20
-10.6135198841349
30
0
0
SPLINE
5
16F
100
AcDbEntity
8
1
62
256
6
ByLayer
370
18
48
1
60
0
100
AcDbSpline
70
4
71
3
72
22
73
18
40
0
40
0
40
0
40
0
40
0.249999999999999
40
0.249999999999999
40
0.3125
40
0.3125
40
0.375000000000001
40
0.375000000000001
40
0.500000000000002
40
0.500000000000002
40
0.625000000000003
40
0.625000000000003
40
0.687500000000003
40
0.687500000000003
40
0.750000000000003
40
0.750000000000003
40
1
40
1
40
1
40
1
41
1
10
14.5468185035565
20
-10.613519884135
30
0
41
1
10
14.45970646642
20
-10.3437825312534
30
0
41
1
10
14.379323848507
20
-10.0267758613741
30
0
41
1
10
14.2881840106263
20
-9.57247326418664
30
0
41
1
10
14.2704298380336
20
-9.47866755015764
30
0
41
1
10
14.2359217249155
20
-9.28501466601307
30
0
41
1
10
14.2191503060707
20
-9.18500766037394
30
0
41
1
10
14.1711023591683
20
-8.88009498615963
30
0
41
1
10
14.1418370152578
20
-8.66901224501677
30
0
41
1
10
14.0889432451282
20
-8.23151012329791
30
0
41
1
10
14.0653141285807
20
-8.00509130765528
30
0
41
1
10
14.0343563289932
20
-7.65361899034122
30
0
41
1
10
14.0247611020668
20
-7.53411966759251
30
0
41
1
10
14.007261795421
20
-7.29275843604376
30
0
41
1
10
13.9993869570053
20
-7.17138398211478
30
0
41
1
10
13.9643347666917
20
-6.56111454363
30
0
41
1
10
13.9499499599599
20
-6.06218934236014
30
0
41
1
10
13.9499499599599
20
-5.55216789572157
30
0
0
SPLINE
5
170
100
AcDbEntity
8
1
62
256
6
ByLayer
370
18
48
1
60
0
100
AcDbSpline
70
4
71
3
72
20
73
16
40
0
40
0
40
0
40
0
40
0.250000000000001
40
0.250000000000001
40
0.375000000000002
40
0.375000000000002
40
0.437500000000002
40
0.437500000000002
40
0.500000000000001
40
0.500000000000001
40
0.75
40
0.75
40
0.875000000000001
40
0.875000000000001
40
1
40
1
40
1
40
1
41
1
10
14.5375454813323
20
10.9336389904906
30
0
41
1
10
14.4683088898503
20
10.7128767819754
30
0
41
1
10
14.4031089949309
20
10.4642789687675
30
0
41
1
10
14.3117810055374
20
10.0509107336532
30
0
41
1
10
14.2824237590829
20
9.90633193858216
30
0
41
1
10
14.2401339761789
20
9.67904058315023
30
0
41
1
10
14.2263288823146
20
9.60153680323774
30
0
41
1
10
14.1993278012701
20
9.44297333735031
30
0
41
1
10
14.1861404466194
20
9.36193966707029
30
0
41
1
10
14.1224611654968
20
8.95215113876071
30
0
41
1
10
14.0781104769206
20
8.60633917849356
30
0
41
1
10
14.0219032073249
20
8.06099095021892
30
0
41
1
10
14.0048964118977
20
7.87474172725305
30
0
41
1
10
13.9745329804439
20
7.49301410871507
30
0
41
1
10
13.9611994345723
20
7.29758641185489
30
0
41
1
10
13.9499499599599
20
7.09999999999943
30
0
0
SPLINE
5
171
100
AcDbEntity
8
1
62
256
6
ByLayer
370
18
48
1
60
0
100
AcDbSpline
70
4
71
3
72
10
73
6
40
0
40
0
40
0
40
0
40
0.5
40
0.5
40
1
40
1
40
1
40
1
41
1
10
16.0029153830266
20
15.445794216984
30
0
41
1
10
15.7856899852694
20
14.7978001914652
30
0
41
1
10
15.5535257222921
20
14.0973657855575
30
0
41
1
10
15.0636454760875
20
12.5931505081335
30
0
41
1
10
14.8059237468541
20
11.7893682710033
30
0
41
1
10
14.5375454813323
20
10.9336389904906
30
0
0
SPLINE
5
172
100
AcDbEntity
8
1
62
256
6
ByLayer
370
18
48
1
60
0
100
AcDbSpline
70
4
71
3
72
18
73
14
40
0
40
0
40
0
40
0
40
0.250000000000002
40
0.250000000000002
40
0.375000000000002
40
0.375000000000002
40
0.500000000000001
40
0.500000000000001
40
0.750000000000001
40
0.750000000000001
40
0.875
40
0.875
40
1
40
1
40
1
40
1
41
1
10
16.4490768728027
20
18.7301094955368
30
0
41
1
10
16.4299173799402
20
18.368052192668
30
0
41
1
10
16.4062579120676
20
18.0242453300029
30
0
41
1
10
16.3636483064315
20
17.535415271991
30
0
41
1
10
16.3482495942378
20
17.3769820967336
30
0
41
1
10
16.3148842705035
20
17.0694297321084
30
0
41
1
10
16.2971689240522
20
16.9226510094581
30
0
41
1
10
16.2409742276659
20
16.5033139107795
30
0
41
1
10
16.1994352882043
20
16.2512222430071
30
0
41
1
10
16.1303735514443
20
15.9145488565964
30
0
41
1
10
16.1061354685836
20
15.8090108096154
30
0
41
1
10
16.0559258205255
20
15.6150516397565
30
0
41
1
10
16.0299023801295
20
15.5262977541849
30
0
41
1
10
16.0029153830266
20
15.445794216984
30
0
0
SPLINE
5
173
100
AcDbEntity
8
1
62
256
6
ByLayer
370
18
48
1
60
0
100
AcDbSpline
70
4
71
3
72
82
73
78
40
0
40
0
40
0
40
0
40
0.03125
40
0.03125
40
0.0624999999999999
40
0.0624999999999999
40
0.0937499999999999
40
0.0937499999999999
40
0.125
40
0.125
40
0.1875
40
0.1875
40
0.21875
40
0.21875
40
0.25
40
0.25
40
0.28125
40
0.28125
40
0.3125
40
0.3125
40
0.34375
40
0.34375
40
0.375
40
0.375
40
0.40625
40
0.40625
40
0.4375
40
0.4375
40
0.46875
40
0.46875
40
0.5
40
0.5
40
0.53125
40
0.53125
40
0.562500000000001
40
0.562500000000001
40
0.593750000000001
40
0.593750000000001
40
0.609375000000001
40
0.609375000000001
40
0.625000000000001
40
0.625000000000001
40
0.656250000000001
40
0.656250000000001
40
0.671875000000001
40
0.671875000000001
40
0.687500000000001
40
0.687500000000001
40
0.718750000000001
40
0.718750000000001
40
0.734375000000001
40
0.734375000000001
40
0.750000000000001
40
0.750000000000001
40
0.781250000000002
40
0.781250000000002
40
0.796875000000002
40
0.796875000000002
40
0.812500000000002
40
0.812500000000002
40
0.843750000000002
40
0.843750000000002
40
0.859375000000002
40
0.859375000000002
40
0.875000000000002
40
0.875000000000002
40
0.906250000000001
40
0.906250000000001
40
0.921875000000001
40
0.921875000000001
40
0.937500000000001
40
0.937500000000001
40
0.968750000000001
40
0.968750000000001
40
0.984375
40
0.984375
40
1
40
1
40
1
40
1
41
1
10
17.567933189815
20
7.69318364539862
30
0
41
1
10
17.5760217111664
20
7.6937014747177
30
0
41
1
10
17.5838182617666
20
7.68209270460699
30
0
41
1
10
17.5988214959727
20
7.63566494725052
30
0
41
1
10
17.6060358969856
20
7.60084638933625
30
0
41
1
10
17.619912254913
20
7.50699431063126
30
0
41
1
10
17.6263840063594
20
7.44923009910255
30
0
41
1
10
17.6384732415264
20
7.31315239306119
30
0
41
1
10
17.644095559243
20
7.23480367588718
30
0
41
1
10
17.659774918959
20
6.96746269432614
30
0
41
1
10
17.6680935122141
20
6.75700646256172
30
0
41
1
10
17.6779140140378
20
6.3934733866397
30
0
41
1
10
17.6806414708437
20
6.26761938959007
30
0
41
1
10
17.685125247827
20
6.00694567850283
30
0
41
1
10
17.6868824795633
20
5.87199255761533
30
0
41
1
10
17.6894315688818
20
5.59325313783989
30
0
41
1
10
17.6901902376787
20
5.45324576293342
30
0
41
1
10
17.6907421572985
20
5.17200735125846
30
0
41
1
10
17.6905341644303
20
5.03053647074927
30
0
41
1
10
17.6891055306724
20
4.7472964919404
30
0
41
1
10
17.6879046024953
20
4.6091411952255
30
0
41
1
10
17.6845303679292
20
4.33948615807103
30
0
41
1
10
17.6823507438458
20
4.20767717960467
30
0
41
1
10
17.6769337816635
20
3.95231149229244
30
0
41
1
10
17.6737631457315
20
3.83179217982715
30
0
41
1
10
17.6664501406577
20
3.60452876487281
30
0
41
1
10
17.662293621969
20
3.49747737471262
30
0
41
1
10
17.6529268772919
20
3.29910326429251
30
0
41
1
10
17.6478240919486
20
3.20995603906147
30
0
41
1
10
17.6367196349168
20
3.0509868144465
30
0
41
1
10
17.6306942778653
20
2.98094630994217
30
0
41
1
10
17.6177194117926
20
2.86206610389098
30
0
41
1
10
17.6109092461513
20
2.81439799754963
30
0
41
1
10
17.5966074350993
20
2.74174417892311
30
0
41
1
10
17.5890831409582
20
2.71670662616682
30
0
41
1
10
17.5734260387406
20
2.69067105547384
30
0
41
1
10
17.5654514929661
20
2.68982959036245
30
0
41
1
10
17.5532773458286
20
2.70618428249844
30
0
41
1
10
17.5491839599997
20
2.7145883105737
30
0
41
1
10
17.5409283018298
20
2.73738603456312
30
0
41
1
10
17.5367500074479
20
2.75184877195446
30
0
41
1
10
17.5242292484208
20
2.80405992586409
30
0
41
1
10
17.5159907254396
20
2.85009007011328
30
0
41
1
10
17.5038333290318
20
2.93539402050922
30
0
41
1
10
17.4998145830398
20
2.96655348566699
30
0
41
1
10
17.4918549779274
20
3.03440409721065
30
0
41
1
10
17.4878986774692
20
3.071254883747
30
0
41
1
10
17.476278718215
20
3.1892634987305
30
0
41
1
10
17.4689359975357
20
3.27695707214107
30
0
41
1
10
17.4585759564604
20
3.42158225407567
30
0
41
1
10
17.4552321854701
20
3.47198352257678
30
0
41
1
10
17.4487791462902
20
3.57724059642175
30
0
41
1
10
17.445657708926
20
3.63233433658778
30
0
41
1
10
17.436765876225
20
3.80280971895087
30
0
41
1
10
17.4315127239923
20
3.92226219176877
30
0
41
1
10
17.4246756207072
20
4.10986285637892
30
0
41
1
10
17.4225711275145
20
4.17380782791329
30
0
41
1
10
17.418725944704
20
4.30456591623508
30
0
41
1
10
17.4169788139738
20
4.37167536417931
30
0
41
1
10
17.4123645325369
20
4.57525149066223
30
0
41
1
10
17.4101363256504
20
4.71288137892131
30
0
41
1
10
17.4080553378692
20
4.92210290734462
30
0
41
1
10
17.4075727932676
20
4.9923087543018
30
0
41
1
10
17.4070390190652
20
5.13366617901841
30
0
41
1
10
17.4069889364361
20
5.2051435456878
30
0
41
1
10
17.4075025921318
20
5.41851352511625
30
0
41
1
10
17.4087149609458
20
5.55856202772753
30
0
41
1
10
17.4117804574526
20
5.76544244911747
30
0
41
1
10
17.4130110403021
20
5.83386759981005
30
0
41
1
10
17.4158908815803
20
5.96963046290887
30
0
41
1
10
17.4175493950548
20
6.0372820646808
30
0
41
1
10
17.4230908467321
20
6.23596259363984
30
0
41
1
10
17.4275150857779
20
6.3623783910451
30
0
41
1
10
17.4351567351775
20
6.54322618464289
30
0
41
1
10
17.4378723430195
20
6.60203808048112
30
0
41
1
10
17.4436349698288
20
6.71667121926137
30
0
41
1
10
17.4466978614987
20
6.77274854495519
30
0
41
1
10
17.449881188194
20
6.82652386267861
30
0
0
SPLINE
5
174
100
AcDbEntity
8
1
62
256
6
ByLayer
370
18
48
1
60
0
100
AcDbSpline
70
4
71
3
72
18
73
14
40
0
40
0
40
0
40
0
40
0.249999999999999
40
0.249999999999999
40
0.374999999999999
40
0.374999999999999
40
0.5
40
0.5
40
0.75
40
0.75
40
0.875
40
0.875
40
1
40
1
40
1
40
1
41
1
10
17.216302018614
20
52.9721006119887
30
0
41
1
10
17.2002350923587
20
52.7447248033754
30
0
41
1
10
17.1824513637208
20
52.5307964403634
30
0
41
1
10
17.152875578413
20
52.2305492092328
30
0
41
1
10
17.1424918451425
20
52.1336221531521
30
0
41
1
10
17.1210077138913
20
51.9496176924884
30
0
41
1
10
17.1098840260027
20
51.8622448533842
30
0
41
1
10
17.0753310834529
20
51.6137068047302
30
0
41
1
10
17.0507248354505
20
51.4660540817004
30
0
41
1
10
17.0112273924267
20
51.2716809976574
30
0
41
1
10
16.9976290663348
20
51.2114245984404
30
0
41
1
10
16.9695126688874
20
51.1002031656286
30
0
41
1
10
16.9550257128287
20
51.0493913836586
30
0
41
1
10
16.9401917167959
20
51.0037511862873
30
0
0
SPLINE
5
175
100
AcDbEntity
8
1
62
256
6
ByLayer
370
18
48
1
60
0
100
AcDbSpline
70
2053
71
3
72
110
73
106
40
0
40
0
40
0
40
0
40
0.0312500000000005
40
0.0312500000000005
40
0.0468750000000006
40
0.0468750000000006
40
0.0625000000000008
40
0.0625000000000008
40
0.0937500000000011
40
0.0937500000000011
40
0.101562500000001
40
0.101562500000001
40
0.109375000000001
40
0.109375000000001
40
0.125000000000001
40
0.125000000000001
40
0.156250000000002
40
0.156250000000002
40
0.164062500000002
40
0.164062500000002
40
0.171875000000002
40
0.171875000000002
40
0.187500000000002
40
0.203125000000002
40
0.203125000000002
40
0.210937500000002
40
0.210937500000002
40
0.218750000000002
40
0.218750000000002
40
0.250000000000002
40
0.250000000000002
40
0.265625000000002
40
0.265625000000002
40
0.281250000000002
40
0.281250000000002
40
0.312500000000002
40
0.312500000000002
40
0.328125000000002
40
0.328125000000002
40
0.343750000000002
40
0.343750000000002
40
0.375000000000002
40
0.375000000000002
40
0.390625000000003
40
0.390625000000003
40
0.406250000000003
40
0.421875000000003
40
0.421875000000003
40
0.437500000000003
40
0.437500000000003
40
0.468750000000003
40
0.468750000000003
40
0.484375000000004
40
0.484375000000004
40
0.500000000000004
40
0.500000000000004
40
0.531250000000004
40
0.531250000000004
40
0.539062500000004
40
0.539062500000004
40
0.546875000000004
40
0.546875000000004
40
0.562500000000004
40
0.578125000000004
40
0.578125000000004
40
0.585937500000004
40
0.585937500000004
40
0.593750000000004
40
0.593750000000004
40
0.625000000000004
40
0.625000000000004
40
0.640625000000004
40
0.640625000000004
40
0.656250000000004
40
0.656250000000004
40
0.687500000000003
40
0.687500000000003
40
0.703125000000003
40
0.703125000000003
40
0.718750000000003
40
0.718750000000003
40
0.750000000000003
40
0.750000000000003
40
0.781250000000002
40
0.781250000000002
40
0.796875000000002
40
0.796875000000002
40
0.812500000000002
40
0.812500000000002
40
0.843750000000001
40
0.843750000000001
40
0.859375000000001
40
0.859375000000001
40
0.875000000000001
40
0.875000000000001
40
0.906250000000001
40
0.906250000000001
40
0.921875000000001
40
0.921875000000001
40
0.9375
40
0.953125
40
0.953125
40
0.96875
40
0.96875
40
1
40
1
40
1
40
1
41
1
10
16.9598685052014
20
7.36729208785467
30
0
41
1
10
16.9598685052014
20
6.91883656487843
30
0
41
1
10
16.9552660421167
20
6.47796290519795
30
0
41
1
10
16.9415845813901
20
5.8275571396386
30
0
41
1
10
16.9358829801494
20
5.61258639232764
30
0
41
1
10
16.9220786611846
20
5.18639270113255
30
0
41
1
10
16.9139420566742
20
4.97477246433223
30
0
41
1
10
16.8863119930952
20
4.35956765070682
30
0
41
1
10
16.8635116445642
20
3.97073757555111
30
0
41
1
10
16.8290163694264
20
3.51111250386984
30
0
41
1
10
16.8218144190004
20
3.4205200848389
30
0
41
1
10
16.8067784889798
20
3.24204380435685
30
0
41
1
10
16.7989214943142
20
3.15392840867682
30
0
41
1
10
16.7745866669067
20
2.89613297904899
30
0
41
1
10
16.7573271127948
20
2.73262504390235
30
0
41
1
10
16.7023338688955
20
2.26639491179284
30
0
41
1
10
16.6614175351316
20
1.98773739455021
30
0
41
1
10
16.6041521308312
20
1.6805956025386
30
0
41
1
10
16.5923730147686
20
1.62118205154533
30
0
41
1
10
16.5684358614301
20
1.50780829169557
30
0
41
1
10
16.5562489553066
20
1.45368199087554
30
0
41
1
10
16.5190233692499
20
1.29884553086117
30
0
41
1
10
16.4676181522495
20
1.1124748682208
30
0
41
1
10
16.4125178033507
20
0.965666999629292
30
0
41
1
10
16.3697235319785
20
0.870599412325674
30
0
41
1
10
16.3552136599228
20
0.841420992511701
30
0
41
1
10
16.3256860510843
20
0.788174976192266
30
0
41
1
10
16.3106819885625
20
0.764152039683552
30
0
41
1
10
16.2351907503691
20
0.658077040299332
30
0
41
1
10
16.1726628253863
20
0.616557727059785
30
0
41
1
10
16.0755885184714
20
0.617673867210669
30
0
41
1
10
16.0426827486467
20
0.628686590783502
30
0
41
1
10
15.9757540867645
20
0.672651461109297
30
0
41
1
10
15.9420911683691
20
0.705424958144903
30
0
41
1
10
15.8413945898556
20
0.834392422728342
30
0
41
1
10
15.774290103077
20
0.961167282129026
30
0
41
1
10
15.6741096082461
20
1.21314817053371
30
0
41
1
10
15.6406314814564
20
1.30811133922094
30
0
41
1
10
15.5752132207235
20
1.5155763676166
30
0
41
1
10
15.5431810931527
20
1.62819348522115
30
0
41
1
10
15.4492483888486
20
1.99215887345724
30
0
41
1
10
15.3894816709428
20
2.26936073670481
30
0
41
1
10
15.3051248640409
20
2.73945640652488
30
0
41
1
10
15.2782434402502
20
2.90340410150054
30
0
41
1
10
15.2273978887167
20
3.24316667015464
30
0
41
1
10
15.179342622127
20
3.59550401892986
30
0
41
1
10
15.1371012565072
20
3.97288491153466
30
0
41
1
10
15.0979620270448
20
4.36310297188717
30
0
41
1
10
15.0798719349492
20
4.56572476841171
30
0
41
1
10
15.0316162787833
20
5.18091168981493
30
0
41
1
10
15.0070894842261
20
5.60308170336103
30
0
41
1
10
14.9821206620849
20
6.25424254219521
30
0
41
1
10
14.9757758998194
20
6.47444513992517
30
0
41
1
10
14.9672602855829
20
6.92051863027314
30
0
41
1
10
14.9651556165412
20
7.14279239089706
30
0
41
1
10
14.9650997099451
20
7.80740337156001
30
0
41
1
10
14.9733613144155
20
8.24755105775424
30
0
41
1
10
14.9941096484116
20
8.79401305951254
30
0
41
1
10
14.9987993879025
20
8.90342236929399
30
0
41
1
10
15.0091612578564
20
9.12017210700031
30
0
41
1
10
15.0148255134491
20
9.22742786662437
30
0
41
1
10
15.0332246404405
20
9.54590764793082
30
0
41
1
10
15.0615013411788
20
9.9617965697613
30
0
41
1
10
15.0969483193868
20
10.3605259405047
30
0
41
1
10
15.1261674800859
20
10.6530788140104
30
0
41
1
10
15.1363468396776
20
10.7495121531781
30
0
41
1
10
15.157583639417
20
10.9401762139134
30
0
41
1
10
15.1686587285139
20
11.0345244529887
30
0
41
1
10
15.2255927417969
20
11.4956412307562
30
0
41
1
10
15.2764997706916
20
11.8348210693309
30
0
41
1
10
15.3598515206718
20
12.3004847027458
30
0
41
1
10
15.3888097740987
20
12.4484689059254
30
0
41
1
10
15.4490025263961
20
12.7295659713729
30
0
41
1
10
15.4799321915106
20
12.8611842963585
30
0
41
1
10
15.5741404380483
20
13.2266128309683
30
0
41
1
10
15.6391581511587
20
13.4328616817839
30
0
41
1
10
15.7393604900664
20
13.6858791880299
30
0
41
1
10
15.7733748055266
20
13.7609962841155
30
0
41
1
10
15.8409128822337
20
13.889140707411
30
0
41
1
10
15.8745468507067
20
13.9425472146235
30
0
41
1
10
15.9749609879886
20
14.0714637924946
30
0
41
1
10
16.0412467984471
20
14.1159767090747
30
0
41
1
10
16.172243766135
20
14.1185505825786
30
0
41
1
10
16.2349223309843
20
14.0764833465032
30
0
41
1
10
16.3247462659753
20
13.9508665887934
30
0
41
1
10
16.3540026349335
20
13.8984992123496
30
0
41
1
10
16.4111776090644
20
13.7722844248154
30
0
41
1
10
16.4392160116964
20
13.6979675844561
30
0
41
1
10
16.5197158582123
20
13.4467673643863
30
0
41
1
10
16.5690470754138
20
13.2413364936219
30
0
41
1
10
16.6372716358951
20
12.8768050237782
30
0
41
1
10
16.659045532908
20
12.7458320271358
30
0
41
1
10
16.7007162085814
20
12.4642219076261
30
0
41
1
10
16.7202664888705
20
12.315926072799
30
0
41
1
10
16.7753590846515
20
11.8495406540167
30
0
41
1
10
16.807390282246
20
11.510053236813
30
0
41
1
10
16.8490612617948
20
10.9571418581384
30
0
41
1
10
16.8619079328159
20
10.7647867322661
30
0
41
1
10
16.8849997546329
20
10.3735968509164
30
0
41
1
10
16.9056456074466
20
9.97414958936756
30
0
41
1
10
16.9216987004841
20
9.55848908064243
30
0
41
1
10
16.9355176443269
20
9.13463493125562
30
0
41
1
10
16.9413232850289
20
8.91797527880709
30
0
41
1
10
16.9552661905396
20
8.25947982346409
30
0
41
1
10
16.9598685052014
20
7.8157476108309
30
0
41
1
10
16.9598685052014
20
7.36729208785467
30
0
0
SPLINE
5
176
100
AcDbEntity
8
1
62
256
6
ByLayer
370
18
48
1
60
0
100
AcDbSpline
70
4
71
3
72
18
73
14
40
0
40
0
40
0
40
0
40
0.124999999999996
40
0.124999999999996
40
0.249999999999991
40
0.249999999999991
40
0.374999999999987
40
0.374999999999987
40
0.499999999999982
40
0.499999999999982
40
0.749999999999991
40
0.749999999999991
40
1
40
1
40
1
40
1
41
1
10
2.17000000000004
20
10.5219466619723
30
0
41
1
10
2.20603382633007
20
10.5219466619723
30
0
41
1
10
2.24091813821596
20
10.5291751613909
30
0
41
1
10
2.3019509566227
20
10.5519654962793
30
0
41
1
10
2.32866851826665
20
10.5673950450326
30
0
41
1
10
2.37468698387147
20
10.6008589239216
30
0
41
1
10
2.39463788235966
20
10.619356991403
30
0
41
1
10
2.42925250800673
20
10.6570898685398
30
0
41
1
10
2.44408808177548
20
10.6764740059446
30
0
41
1
10
2.48332364475911
20
10.7354820438178
30
0
41
1
10
2.50247354408575
20
10.7759924240566
30
0
41
1
10
2.53050307587873
20
10.8554753501713
30
0
41
1
10
2.53950148085019
20
10.8948255747506
30
0
41
1
10
2.54427636019821
20
10.9336389904911
30
0
0
SPLINE
5
177
100
AcDbEntity
8
SK1
62
256
6
ByLayer
370
18
48
1
60
0
100
AcDbSpline
70
4
71
3
72
8
73
4
40
0
40
0
40
0
40
0
40
1
40
1
40
1
40
1
41
1
10
0.342769052838236
20
9.92710219507393
30
0
41
1
10
0.200228104510018
20
10.0093982499618
30
0
41
1
10
0.0693189021618537
20
10.0849787131769
30
0
41
1
10
-0.0469703231317453
20
10.152118328704
30
0
0
SPLINE
5
178
100
AcDbEntity
8
SK1
62
256
6
ByLayer
370
18
48
1
60
0
100
AcDbSpline
70
4
71
3
72
8
73
4
40
0
40
0
40
0
40
0
40
1
40
1
40
1
40
1
41
1
10
0.126148905032551
20
5.55216789572142
30
0
41
1
10
0.0001260536854204
20
5.62492722287072
30
0
41
1
10
-0.125290129204416
20
5.69733628982291
30
0
41
1
10
-0.249980947161674
20
5.76932656713601
30
0
0
SPLINE
5
179
100
AcDbEntity
8
SK1
62
256
6
ByLayer
370
18
48
1
60
0
100
AcDbSpline
70
4
71
3
72
10
73
6
40
0
40
0
40
0
40
0
40
0.5
40
0.5
40
1
40
1
40
1
40
1
41
1
10
-0.32498094716172
20
5.89923037770373
30
0
41
1
10
-0.32498094716172
20
5.86925980150136
30
0
41
1
10
-0.315419205835127
20
5.84050503820615
30
0
41
1
10
-0.287575493106942
20
5.79678996467393
30
0
41
1
10
-0.269423016056493
20
5.78055145084602
30
0
41
1
10
-0.249980947161703
20
5.76932656713598
30
0
0
SPLINE
5
17A
100
AcDbEntity
8
SK1
62
256
6
ByLayer
370
18
48
1
60
0
100
AcDbSpline
70
4
71
3
72
10
73
6
40
0
40
0
40
0
40
0
40
0.5
40
0.5
40
1
40
1
40
1
40
1
41
1
10
-0.24998094716176
20
6.23067343286388
30
0
41
1
10
-0.269221301634303
20
6.21956500902985
30
0
41
1
10
-0.287683543961634
20
6.20323581555741
30
0
41
1
10
-0.315955426925711
20
6.15845317404327
30
0
41
1
10
-0.324980948528662
20
6.12971339378612
30
0
41
1
10
-0.32498094716172
20
6.10076961521219
30
0
0
SPLINE
5
17B
100
AcDbEntity
8
SK1
62
256
6
ByLayer
370
18
48
1
60
0
100
AcDbSpline
70
4
71
3
72
8
73
4
40
0
40
0
40
0
40
0
40
1
40
1
40
1
40
1
41
1
10
-0.249980947161674
20
6.23067343286394
30
0
41
1
10
-0.0532711848777581
20
6.34424386707079
30
0
41
1
10
0.144388484030202
20
6.45836273012273
30
0
41
1
10
0.342769052838349
20
6.5728978049261
30
0
0
SPLINE
5
17C
100
AcDbEntity
8
SK1
62
256
6
ByLayer
370
18
48
1
60
0
100
AcDbSpline
70
4
71
3
72
18
73
14
40
0
40
0
40
0
40
0
40
0.249999999999983
40
0.249999999999983
40
0.374999999999982
40
0.374999999999982
40
0.49999999999998
40
0.49999999999998
40
0.624999999999979
40
0.624999999999979
40
0.749999999999977
40
0.749999999999977
40
1
40
1
40
1
40
1
41
1
10
0.342769052839515
20
6.57289780491908
30
0
41
1
10
0.370516593263858
20
6.58891785485201
30
0
41
1
10
0.397303986572126
20
6.61292698995089
30
0
41
1
10
0.427069711749169
20
6.66393798432307
30
0
41
1
10
0.434841942706072
20
6.68302567681891
30
0
41
1
10
0.444310147221216
20
6.72323929480851
30
0
41
1
10
0.44590256767404
20
6.74420182497147
30
0
41
1
10
0.443169313479842
20
6.78389511560459
30
0
41
1
10
0.43890091878913
20
6.80280522841377
30
0
41
1
10
0.426637846290475
20
6.83662304318062
30
0
41
1
10
0.418504222063206
20
6.85201367673571
30
0
41
1
10
0.390918604963105
20
6.89234207927839
30
0
41
1
10
0.36778268519231
20
6.91266056770311
30
0
41
1
10
0.342769052829652
20
6.92710219507941
30
0
0
SPLINE
5
17D
100
AcDbEntity
8
SK1
62
256
6
ByLayer
370
18
48
1
60
0
100
AcDbSpline
70
4
71
3
72
8
73
4
40
0
40
0
40
0
40
0
40
1
40
1
40
1
40
1
41
1
10
0.342769052829738
20
6.92710219507882
30
0
41
1
10
0.141559860419449
20
7.04327037648031
30
0
41
1
10
-0.0563906484607912
20
7.15755715606855
30
0
41
1
10
-0.249980947161674
20
7.26932656713601
30
0
0
SPLINE
5
17E
100
AcDbEntity
8
SK1
62
256
6
ByLayer
370
18
48
1
60
0
100
AcDbSpline
70
4
71
3
72
12
73
8
40
0
40
0
40
0
40
0
40
0.250000000000002
40
0.250000000000002
40
0.500000000000004
40
0.500000000000004
40
1
40
1
40
1
40
1
41
1
10
-0.324980947162828
20
7.39923037770146
30
0
41
1
10
-0.324980947162572
20
7.38337657086743
30
0
41
1
10
-0.322450175693035
20
7.36837825477232
30
0
41
1
10
-0.314111654910107
20
7.34142317214574
30
0
41
1
10
-0.308330050423848
20
7.32935310050166
30
0
41
1
10
-0.287609551001083
20
7.29688749110625
30
0
41
1
10
-0.269931169711498
20
7.28084483349554
30
0
41
1
10
-0.249980947161674
20
7.26932656713601
30
0
0
SPLINE
5
17F
100
AcDbEntity
8
SK1
62
256
6
ByLayer
370
18
48
1
60
0
100
AcDbSpline
70
4
71
3
72
12
73
8
40
0
40
0
40
0
40
0
40
0.500000000000018
40
0.500000000000018
40
0.750000000000009
40
0.750000000000009
40
1
40
1
40
1
40
1
41
1
10
-0.249980947162015
20
7.73067343286516
30
0
41
1
10
-0.269423441542301
20
7.71944830350105
30
0
41
1
10
-0.289029564075918
20
7.70196041488731
30
0
41
1
10
-0.310297262082173
20
7.66692217929642
30
0
41
1
10
-0.31598186619928
20
7.65376622660898
30
0
41
1
10
-0.323277724085727
20
7.62718865316546
30
0
41
1
10
-0.324980946025619
20
7.61364114856778
30
0
41
1
10
-0.32498094716172
20
7.60076963553593
30
0
0
SPLINE
5
180
100
AcDbEntity
8
SK1
62
256
6
ByLayer
370
18
48
1
60
0
100
AcDbSpline
70
4
71
3
72
8
73
4
40
0
40
0
40
0
40
0
40
1
40
1
40
1
40
1
41
1
10
-0.249980947161674
20
7.73067343286394
30
0
41
1
10
-0.052543083876742
20
7.84466423637971
30
0
41
1
10
0.145053884699962
20
7.95874689937853
30
0
41
1
10
0.342769052838349
20
8.0728978049261
30
0
0
SPLINE
5
181
100
AcDbEntity
8
SK1
62
256
6
ByLayer
370
18
48
1
60
0
100
AcDbSpline
70
4
71
3
72
20
73
16
40
0
40
0
40
0
40
0
40
0.124999999999996
40
0.124999999999996
40
0.249999999999991
40
0.249999999999991
40
0.374999999999987
40
0.374999999999987
40
0.499999999999983
40
0.499999999999983
40
0.624999999999978
40
0.624999999999978
40
0.749999999999974
40
0.749999999999974
40
1
40
1
40
1
40
1
41
1
10
0.342769052838406
20
8.07289780491897
30
0
41
1
10
0.358292509144491
20
8.08186027659568
30
0
41
1
10
0.373840112708166
20
8.09359617355807
30
0
41
1
10
0.402117274927292
20
8.1230248979202
30
0
41
1
10
0.414983786794892
20
8.14098160453815
30
0
41
1
10
0.434460540703242
20
8.18137308670538
30
0
41
1
10
0.440646639176151
20
8.20301629896767
30
0
41
1
10
0.446015310825373
20
8.2445404277255
30
0
41
1
10
0.445321800639675
20
8.26441983775572
30
0
41
1
10
0.439548347043939
20
8.30039282960797
30
0
41
1
10
0.434428159406906
20
8.31691561693779
30
0
41
1
10
0.421597423724677
20
8.34637979558778
30
0
41
1
10
0.41380725868504
20
8.35960033832481
30
0
41
1
10
0.387312012959029
20
8.39544835043748
30
0
41
1
10
0.366333953146182
20
8.41349699353785
30
0
41
1
10
0.342769052838435
20
8.42710219507399
30
0
0
SPLINE
5
182
100
AcDbEntity
8
SK1
62
256
6
ByLayer
370
18
48
1
60
0
100
AcDbSpline
70
4
71
3
72
8
73
4
40
0
40
0
40
0
40
0
40
1
40
1
40
1
40
1
41
1
10
0.342769052838349
20
8.42710219507384
30
0
41
1
10
0.136066482638825
20
8.54644197962074
30
0
41
1
10
-0.0625363391942528
20
8.66110537226788
30
0
41
1
10
-0.249980947161674
20
8.76932656713603
30
0
0
SPLINE
5
183
100
AcDbEntity
8
SK1
62
256
6
ByLayer
370
18
48
1
60
0
100
AcDbSpline
70
4
71
3
72
10
73
6
40
0
40
0
40
0
40
0
40
0.5
40
0.5
40
1
40
1
40
1
40
1
41
1
10
-0.32498094716172
20
8.89923037769211
30
0
41
1
10
-0.32498094715919
20
8.86655406122372
30
0
41
1
10
-0.315260525494324
20
8.84047279882145
30
0
41
1
10
-0.288469123361096
20
8.79798193556152
30
0
41
1
10
-0.270641110941796
20
8.78125471825552
30
0
41
1
10
-0.249980947161873
20
8.76932656713569
30
0
0
SPLINE
5
184
100
AcDbEntity
8
SK1
62
256
6
ByLayer
370
18
48
1
60
0
100
AcDbSpline
70
4
71
3
72
14
73
10
40
0
40
0
40
0
40
0
40
0.25
40
0.25
40
0.5
40
0.5
40
0.75
40
0.75
40
1
40
1
40
1
40
1
41
1
10
-0.249980947161134
20
9.2306734328661
30
0
41
1
10
-0.260244164922483
20
9.224747961329
30
0
41
1
10
-0.270778577522606
20
9.21705150636512
30
0
41
1
10
-0.290763328836448
20
9.19717036212273
30
0
41
1
10
-0.299849915215759
20
9.18511528382061
30
0
41
1
10
-0.313591135543078
20
9.15987685939751
30
0
41
1
10
-0.318241784057051
20
9.14694235130656
30
0
41
1
10
-0.323900489139703
20
9.12264559791504
30
0
41
1
10
-0.324980945088214
20
9.11142868840227
30
0
41
1
10
-0.32498094716172
20
9.10076965147604
30
0
0
SPLINE
5
185
100
AcDbEntity
8
SK1
62
256
6
ByLayer
370
18
48
1
60
0
100
AcDbSpline
70
4
71
3
72
8
73
4
40
0
40
0
40
0
40
0
40
1
40
1
40
1
40
1
41
1
10
-0.24998094716139
20
9.23067343286411
30
0
41
1
10
-0.052567100611526
20
9.34465037031143
30
0
41
1
10
0.145035952120537
20
9.45873654599896
30
0
41
1
10
0.342769052838349
20
9.5728978049261
30
0
0
SPLINE
5
186
100
AcDbEntity
8
SK1
62
256
6
ByLayer
370
18
48
1
60
0
100
AcDbSpline
70
4
71
3
72
18
73
14
40
0
40
0
40
0
40
0
40
0.124999999999994
40
0.124999999999994
40
0.249999999999987
40
0.249999999999987
40
0.374999999999981
40
0.374999999999981
40
0.499999999999974
40
0.499999999999974
40
0.749999999999987
40
0.749999999999987
40
1
40
1
40
1
40
1
41
1
10
0.342769052837781
20
9.57289780492357
30
0
41
1
10
0.361659745428568
20
9.58380435137582
30
0
41
1
10
0.3814272633619
20
9.59943461143857
30
0
41
1
10
0.41520141296229
20
9.64040468492161
30
0
41
1
10
0.428156283128942
20
9.66518180396034
30
0
41
1
10
0.44273950066065
20
9.71115740671524
30
0
41
1
10
0.445111268805135
20
9.73216305181916
30
0
41
1
10
0.444921672841389
20
9.76989222185929
30
0
41
1
10
0.442344734563449
20
9.78660417650849
30
0
41
1
10
0.430207127453343
20
9.83277421407411
30
0
41
1
10
0.41668283915493
20
9.85712203954068
30
0
41
1
10
0.383930349616634
20
9.89812835961126
30
0
41
1
10
0.364451801694315
20
9.91458365418578
30
0
41
1
10
0.342769052838662
20
9.92710219507435
30
0
0
SPLINE
5
187
100
AcDbEntity
8
SK1
62
256
6
ByLayer
370
18
48
1
60
0
100
AcDbSpline
70
4
71
3
72
8
73
4
40
0
40
0
40
0
40
0
40
1
40
1
40
1
40
1
41
1
10
0.342769052838207
20
-9.92710219507396
30
0
41
1
10
0.200228104509989
20
-10.0093982499618
30
0
41
1
10
0.0693189021618537
20
-10.0849787131769
30
0
41
1
10
-0.0469703231317453
20
-10.152118328704
30
0
0
SPLINE
5
188
100
AcDbEntity
8
SK1
62
256
6
ByLayer
370
18
48
1
60
0
100
AcDbSpline
70
4
71
3
72
18
73
14
40
0
40
0
40
0
40
0
40
0.125000000000006
40
0.125000000000006
40
0.250000000000013
40
0.250000000000013
40
0.375000000000019
40
0.375000000000019
40
0.500000000000026
40
0.500000000000026
40
0.750000000000013
40
0.750000000000013
40
1
40
1
40
1
40
1
41
1
10
0.342769052837724
20
-9.5728978049236
30
0
41
1
10
0.361659745428511
20
-9.58380435137585
30
0
41
1
10
0.381427263361814
20
-9.59943461143857
30
0
41
1
10
0.415201412962205
20
-9.64040468492161
30
0
41
1
10
0.428156283128885
20
-9.66518180396034
30
0
41
1
10
0.442739500660622
20
-9.71115740671524
30
0
41
1
10
0.445111268805107
20
-9.73216305181916
30
0
41
1
10
0.444921672841389
20
-9.76989222185929
30
0
41
1
10
0.442344734563449
20
-9.78660417650849
30
0
41
1
10
0.430207127453343
20
-9.83277421407411
30
0
41
1
10
0.416682839154873
20
-9.85712203954071
30
0
41
1
10
0.383930349616577
20
-9.89812835961129
30
0
41
1
10
0.364451801694287
20
-9.9145836541858
30
0
41
1
10
0.342769052838634
20
-9.92710219507438
30
0
0
SPLINE
5
189
100
AcDbEntity
8
SK1
62
256
6
ByLayer
370
18
48
1
60
0
100
AcDbSpline
70
4
71
3
72
8
73
4
40
0
40
0
40
0
40
0
40
1
40
1
40
1
40
1
41
1
10
-0.249980947161674
20
-9.23067343286399
30
0
41
1
10
-0.052567100611725
20
-9.34465037031137
30
0
41
1
10
0.145035952120395
20
-9.45873654599896
30
0
41
1
10
0.342769052838293
20
-9.57289780492613
30
0
0
SPLINE
5
18A
100
AcDbEntity
8
SK1
62
256
6
ByLayer
370
18
48
1
60
0
100
AcDbSpline
70
4
71
3
72
14
73
10
40
0
40
0
40
0
40
0
40
0.25
40
0.25
40
0.5
40
0.5
40
0.75
40
0.75
40
1
40
1
40
1
40
1
41
1
10
-0.32498094716658
20
-9.10076962228263
30
0
41
1
10
-0.324980947167546
20
-9.11136059578075
30
0
41
1
10
-0.323881994656688
20
-9.12274977248742
30
0
41
1
10
-0.318229425941439
20
-9.14697051270778
30
0
41
1
10
-0.313571777695898
20
-9.15991639605676
30
0
41
1
10
-0.299850214227689
20
-9.18511074688465
30
0
41
1
10
-0.290682009752658
20
-9.19725898448249
30
0
41
1
10
-0.270776707340502
20
-9.21704560963477
30
0
41
1
10
-0.260190127137946
20
-9.22477916006093
30
0
41
1
10
-0.249980947161618
20
-9.23067343286826
30
0
0
SPLINE
5
18B
100
AcDbEntity
8
SK1
62
256
6
ByLayer
370
18
48
1
60
0
100
AcDbSpline
70
4
71
3
72
12
73
8
40
0
40
0
40
0
40
0
40
0.500000000000033
40
0.500000000000033
40
0.750000000000016
40
0.750000000000016
40
1
40
1
40
1
40
1
41
1
10
-0.249980947162243
20
-8.76932656713529
30
0
41
1
10
-0.270604914733212
20
-8.78123382036415
30
0
41
1
10
-0.288263389710181
20
-8.79770683350708
30
0
41
1
10
-0.308536328216121
20
-8.82978294689869
30
0
41
1
10
-0.314161023968154
20
-8.8415881426252
30
0
41
1
10
-0.322390682705674
20
-8.8681805643136
30
0
41
1
10
-0.324980951347413
20
-8.88288598383093
30
0
41
1
10
-0.324980947161748
20
-8.89923041611755
30
0
0
SPLINE
5
18C
100
AcDbEntity
8
SK1
62
256
6
ByLayer
370
18
48
1
60
0
100
AcDbSpline
70
4
71
3
72
8
73
4
40
0
40
0
40
0
40
0
40
1
40
1
40
1
40
1
41
1
10
0.342769052838321
20
-8.4271021950739
30
0
41
1
10
0.136066482638796
20
-8.54644197962079
30
0
41
1
10
-0.0625363391942813
20
-8.66110537226794
30
0
41
1
10
-0.249980947161703
20
-8.76932656713606
30
0
0
SPLINE
5
18D
100
AcDbEntity
8
SK1
62
256
6
ByLayer
370
18
48
1
60
0
100
AcDbSpline
70
4
71
3
72
20
73
16
40
0
40
0
40
0
40
0
40
0.125000000000004
40
0.125000000000004
40
0.250000000000007
40
0.250000000000007
40
0.375000000000011
40
0.375000000000011
40
0.500000000000015
40
0.500000000000015
40
0.625000000000018
40
0.625000000000018
40
0.750000000000022
40
0.750000000000022
40
1
40
1
40
1
40
1
41
1
10
0.342769052838406
20
-8.07289780491902
30
0
41
1
10
0.358292509144462
20
-8.08186027659576
30
0
41
1
10
0.373840112708137
20
-8.09359617355813
30
0
41
1
10
0.402117274927264
20
-8.12302489792026
30
0
41
1
10
0.414983786794892
20
-8.14098160453824
30
0
41
1
10
0.434460540703213
20
-8.18137308670543
30
0
41
1
10
0.440646639176151
20
-8.20301629896773
30
0
41
1
10
0.446015310825373
20
-8.24454042772558
30
0
41
1
10
0.445321800639675
20
-8.26441983775581
30
0
41
1
10
0.439548347043939
20
-8.30039282960803
30
0
41
1
10
0.434428159406906
20
-8.31691561693788
30
0
41
1
10
0.421597423724648
20
-8.34637979558786
30
0
41
1
10
0.413807258685011
20
-8.35960033832487
30
0
41
1
10
0.387312012959001
20
-8.39544835043753
30
0
41
1
10
0.366333953146153
20
-8.41349699353793
30
0
41
1
10
0.342769052838406
20
-8.42710219507404
30
0
0
SPLINE
5
18E
100
AcDbEntity
8
SK1
62
256
6
ByLayer
370
18
48
1
60
0
100
AcDbSpline
70
4
71
3
72
8
73
4
40
0
40
0
40
0
40
0
40
1
40
1
40
1
40
1
41
1
10
-0.249980947161674
20
-7.73067343286399
30
0
41
1
10
-0.0525430838767704
20
-7.84466423637977
30
0
41
1
10
0.145053884699934
20
-7.95874689937858
30
0
41
1
10
0.342769052838321
20
-8.07289780492616
30
0
0
SPLINE
5
18F
100
AcDbEntity
8
SK1
62
256
6
ByLayer
370
18
48
1
60
0
100
AcDbSpline
70
4
71
3
72
12
73
8
40
0
40
0
40
0
40
0
40
0.25
40
0.25
40
0.5
40
0.5
40
1
40
1
40
1
40
1
41
1
10
-0.324980947161805
20
-7.60076962228362
30
0
41
1
10
-0.324980947162885
20
-7.61355284176682
30
0
41
1
10
-0.323278187877463
20
-7.62715829572272
30
0
41
1
10
-0.316025131018904
20
-7.65363711598732
30
0
41
1
10
-0.310349374009121
20
-7.66682045254666
30
0
41
1
10
-0.289065322062839
20
-7.70193309425639
30
0
41
1
10
-0.269481467385702
20
-7.71941480226346
30
0
41
1
10
-0.249980947161731
20
-7.73067343286408
30
0
0
SPLINE
5
190
100
AcDbEntity
8
SK1
62
256
6
ByLayer
370
18
48
1
60
0
100
AcDbSpline
70
4
71
3
72
10
73
6
40
0
40
0
40
0
40
0
40
0.5
40
0.5
40
1
40
1
40
1
40
1
41
1
10
-0.249980947159997
20
-7.26932656713433
30
0
41
1
10
-0.269739875690249
20
-7.28073438983975
30
0
41
1
10
-0.287604165308949
20
-7.29692770850386
30
0
41
1
10
-0.315076899640559
20
-7.33987593818733
30
0
41
1
10
-0.324980951061292
20
-7.36726670859457
30
0
41
1
10
-0.324980947161748
20
-7.39923039600367
30
0
0
SPLINE
5
191
100
AcDbEntity
8
SK1
62
256
6
ByLayer
370
18
48
1
60
0
100
AcDbSpline
70
4
71
3
72
8
73
4
40
0
40
0
40
0
40
0
40
1
40
1
40
1
40
1
41
1
10
0.342769052838321
20
-6.9271021950739
30
0
41
1
10
0.141559860425673
20
-7.04327037647678
30
0
41
1
10
-0.056390648456869
20
-7.15755715606633
30
0
41
1
10
-0.249980947159941
20
-7.26932656713507
30
0
0
SPLINE
5
192
100
AcDbEntity
8
SK1
62
256
6
ByLayer
370
18
48
1
60
0
100
AcDbSpline
70
4
71
3
72
18
73
14
40
0
40
0
40
0
40
0
40
0.25
40
0.25
40
0.375000000000005
40
0.375000000000005
40
0.50000000000001
40
0.50000000000001
40
0.625000000000015
40
0.625000000000015
40
0.75000000000002
40
0.75000000000002
40
1
40
1
40
1
40
1
41
1
10
0.342769052839486
20
-6.57289780491917
30
0
41
1
10
0.370516593263005
20
-6.58891785485159
30
0
41
1
10
0.397303986570535
20
-6.61292698994959
30
0
41
1
10
0.427069711747322
20
-6.66393798431929
30
0
41
1
10
0.434841942704395
20
-6.68302567681428
30
0
41
1
10
0.444310147220364
20
-6.72323929480254
30
0
41
1
10
0.445902567673784
20
-6.74420182496482
30
0
41
1
10
0.443169313481036
20
-6.78389511559726
30
0
41
1
10
0.438900918791092
20
-6.80280522840633
30
0
41
1
10
0.426637846293914
20
-6.83662304317315
30
0
41
1
10
0.418504222067412
20
-6.8520136767284
30
0
41
1
10
0.390918604969357
20
-6.89234207927174
30
0
41
1
10
0.36778268519987
20
-6.91266056769712
30
0
41
1
10
0.34276905283852
20
-6.92710219507436
30
0
0
SPLINE
5
193
100
AcDbEntity
8
SK1
62
256
6
ByLayer
370
18
48
1
60
0
100
AcDbSpline
70
4
71
3
72
8
73
4
40
0
40
0
40
0
40
0
40
1
40
1
40
1
40
1
41
1
10
-0.249980947161674
20
-6.23067343286399
30
0
41
1
10
-0.0532711848777865
20
-6.34424386707084
30
0
41
1
10
0.144388484030202
20
-6.45836273012279
30
0
41
1
10
0.342769052838349
20
-6.57289780492616
30
0
0
SPLINE
5
194
100
AcDbEntity
8
SK1
62
256
6
ByLayer
370
18
48
1
60
0
100
AcDbSpline
70
4
71
3
72
10
73
6
40
0
40
0
40
0
40
0
40
0.5
40
0.5
40
1
40
1
40
1
40
1
41
1
10
-0.324980947161748
20
-6.10076962229397
30
0
41
1
10
-0.324980947162175
20
-6.12931852219361
30
0
41
1
10
-0.315985583490772
20
-6.15835355448573
30
0
41
1
10
-0.287820516916753
20
-6.20307039555917
30
0
41
1
10
-0.269391712225314
20
-6.21946662242934
30
0
41
1
10
-0.249980947161674
20
-6.23067343286399
30
0
0
SPLINE
5
195
100
AcDbEntity
8
SK1
62
256
6
ByLayer
370
18
48
1
60
0
100
AcDbSpline
70
4
71
3
72
10
73
6
40
0
40
0
40
0
40
0
40
0.5
40
0.5
40
1
40
1
40
1
40
1
41
1
10
-0.249980947161703
20
-5.76932656713606
30
0
41
1
10
-0.269347069078151
20
-5.78050760283767
30
0
41
1
10
-0.287503923386055
20
-5.79667268399615
30
0
41
1
10
-0.315507104250116
20
-5.84064795806296
30
0
41
1
10
-0.324980950420496
20
-5.86885663496989
30
0
41
1
10
-0.324980947161748
20
-5.8992303937971
30
0
0
SPLINE
5
196
100
AcDbEntity
8
SK1
62
256
6
ByLayer
370
18
48
1
60
0
100
AcDbSpline
70
4
71
3
72
8
73
4
40
0
40
0
40
0
40
0
40
1
40
1
40
1
40
1
41
1
10
0.126148905032437
20
-5.55216789572154
30
0
41
1
10
0.0001260536853351
20
-5.62492722287084
30
0
41
1
10
-0.125290129204444
20
-5.69733628982297
30
0
41
1
10
-0.249980947161674
20
-5.76932656713606
30
0
0
SPLINE
5
197
100
AcDbEntity
8
1
62
256
6
ByLayer
370
18
48
1
60
0
100
AcDbSpline
70
4
71
3
72
25
73
21
40
0
40
0
40
0
40
0
40
0.125
40
0.125
40
0.249999999999999
40
0.249999999999999
40
0.374999999999999
40
0.374999999999999
40
0.437499999999999
40
0.437499999999999
40
0.499999999999999
40
0.562499999999999
40
0.562499999999999
40
0.624999999999999
40
0.624999999999999
40
0.75
40
0.75
40
0.875
40
0.875
40
1
40
1
40
1
40
1
41
1
10
2.16999999999996
20
17.0091721829587
30
0
41
1
10
2.27949121396116
20
17.0091721829587
30
0
41
1
10
2.38692168587326
20
17.0183044373394
30
0
41
1
10
2.59786336230917
20
17.0539373240554
30
0
41
1
10
2.70244915362355
20
17.0809405205128
30
0
41
1
10
2.89922184648168
20
17.1502460966471
30
0
41
1
10
2.99212951448112
20
17.192467084322
30
0
41
1
10
3.12342989703342
20
17.2669341274153
30
0
41
1
10
3.16577678413867
20
17.2936250385444
30
0
41
1
10
3.24599949154231
20
17.3495386510297
30
0
41
1
10
3.32224368810159
20
17.4082489217067
30
0
41
1
10
3.3907817636119
20
17.4723761404331
30
0
41
1
10
3.45547868333662
20
17.5392034648558
30
0
41
1
10
3.48601735213526
20
17.5741315126773
30
0
41
1
10
3.57026152917663
20
17.6810727977765
30
0
41
1
10
3.61713639906418
20
17.7555940920328
30
0
41
1
10
3.69309257165767
20
17.9108190903118
30
0
41
1
10
3.72217654128261
20
17.9921568578366
30
0
41
1
10
3.76042094849254
20
18.1552245058841
30
0
41
1
10
3.76999999999998
20
18.2375249858537
30
0
41
1
10
3.76999999999998
20
18.320595005774
30
0
0
SPLINE
5
198
100
AcDbEntity
8
1
62
256
6
ByLayer
370
18
48
1
60
0
100
AcDbSpline
70
4
71
3
72
18
73
14
40
0
40
0
40
0
40
0
40
0.249999999999999
40
0.249999999999999
40
0.374999999999999
40
0.374999999999999
40
0.5
40
0.5
40
0.75
40
0.75
40
0.875
40
0.875
40
1
40
1
40
1
40
1
41
1
10
2.9413088192797
20
15.445794216984
30
0
41
1
10
2.95157945463041
20
15.586939082111
30
0
41
1
10
3.02015661859255
20
15.7482910416571
30
0
41
1
10
3.15234177127465
20
16.0210738673555
30
0
41
1
10
3.20107111858687
20
16.1169203341389
30
0
41
1
10
3.29964478456321
20
16.3167856107055
30
0
41
1
10
3.34970516146677
20
16.4211252397386
30
0
41
1
10
3.49509553834238
20
16.748443571924
30
0
41
1
10
3.58591792634621
20
16.9854620249357
30
0
41
1
10
3.68909458891423
20
17.3765307834614
30
0
41
1
10
3.7180618510481
20
17.5138736894581
30
0
41
1
10
3.75839940074729
20
17.7955652296129
30
0
41
1
10
3.76999999999998
20
17.94020140234
30
0
41
1
10
3.76999999999998
20
18.0887707143127
30
0
0
SPLINE
5
199
100
AcDbEntity
8
1
62
256
6
ByLayer
370
18
48
1
60
0
100
AcDbSpline
70
4
71
3
72
12
73
8
40
0
40
0
40
0
40
0
40
0.25
40
0.25
40
0.5
40
0.5
40
1
40
1
40
1
40
1
41
1
10
2.54427636019565
20
10.9336389904907
30
0
41
1
10
2.59690380298147
20
11.3614300753151
30
0
41
1
10
2.63905230048741
20
11.7767224025097
30
0
41
1
10
2.71540377494091
20
12.5818779203775
30
0
41
1
10
2.74910178905574
20
12.9717769078535
30
0
41
1
10
2.84237835609642
20
14.1007745743661
30
0
41
1
10
2.89432392689318
20
14.8001013194704
30
0
41
1
10
2.9413088192797
20
15.445794216984
30
0
0
SPLINE
5
19A
100
AcDbEntity
8
SK1
62
256
6
ByLayer
370
18
48
1
60
0
100
AcDbSpline
70
4
71
3
72
12
73
8
40
0
40
0
40
0
40
0
40
0.249999999999999
40
0.249999999999999
40
0.499999999999998
40
0.499999999999998
40
1
40
1
40
1
40
1
41
1
10
-0.324980947161691
20
10.3992303777078
30
0
41
1
10
-0.324980947162175
20
10.382160386372
30
0
41
1
10
-0.322272682190118
20
10.3677132137599
30
0
41
1
10
-0.314112329532776
20
10.3415186347891
30
0
41
1
10
-0.308560266702557
20
10.3298545571437
30
0
41
1
10
-0.288558618446018
20
10.298107339107
30
0
41
1
10
-0.271062951512988
20
10.2814982680233
30
0
41
1
10
-0.249980947161703
20
10.269326567136
30
0
0
SPLINE
5
19B
100
AcDbEntity
8
SK1
62
256
6
ByLayer
370
18
48
1
60
0
100
AcDbSpline
70
4
71
3
72
14
73
10
40
0
40
0
40
0
40
0
40
0.25
40
0.25
40
0.5
40
0.5
40
0.75
40
0.75
40
1
40
1
40
1
40
1
41
1
10
-0.249980947161646
20
10.730673432864
30
0
41
1
10
-0.261170454548704
20
10.724213167762
30
0
41
1
10
-0.273714893758182
20
10.7149334060328
30
0
41
1
10
-0.296507637462639
20
10.6902851252668
30
0
41
1
10
-0.305604265762298
20
10.6757872382091
30
0
41
1
10
-0.317090744544771
20
10.6507185917272
30
0
41
1
10
-0.320295416587925
20
10.6394071207652
30
0
41
1
10
-0.324248578481274
20
10.6188893781669
30
0
41
1
10
-0.324980944492836
20
10.6094813158657
30
0
41
1
10
-0.324980947161691
20
10.6007696682495
30
0
0
SPLINE
5
19C
100
AcDbEntity
8
SK1
62
256
6
ByLayer
370
18
48
1
60
0
100
AcDbSpline
70
4
71
3
72
8
73
4
40
0
40
0
40
0
40
0
40
1
40
1
40
1
40
1
41
1
10
-0.249980947161674
20
10.7306734328639
30
0
41
1
10
-0.0526311005796458
20
10.8446134199126
30
0
41
1
10
0.144956402685125
20
10.958690618111
30
0
41
1
10
0.342769052838321
20
11.0728978049261
30
0
0
SPLINE
5
19D
100
AcDbEntity
8
SK1
62
256
6
ByLayer
370
18
48
1
60
0
100
AcDbSpline
70
4
71
3
72
22
73
18
40
0
40
0
40
0
40
0
40
0.0625000000000023
40
0.0625000000000023
40
0.125000000000004
40
0.125000000000004
40
0.187500000000007
40
0.187500000000007
40
0.250000000000009
40
0.250000000000009
40
0.375000000000004
40
0.375000000000004
40
0.499999999999998
40
0.499999999999998
40
0.749999999999999
40
0.749999999999999
40
1
40
1
40
1
40
1
41
1
10
0.342769052838293
20
11.072897804926
30
0
41
1
10
0.354050595451184
20
11.0794112065905
30
0
41
1
10
0.366209629257298
20
11.0878490587058
30
0
41
1
10
0.390520771895695
20
11.1100338146445
30
0
41
1
10
0.402179577389575
20
11.1236871566761
30
0
41
1
10
0.420239075386945
20
11.1510567178538
30
0
41
1
10
0.426716865430194
20
11.1644252779557
30
0
41
1
10
0.436131893586406
20
11.188940397959
30
0
41
1
10
0.439120072139218
20
11.2000710535235
30
0
41
1
10
0.445319628398266
20
11.231641555031
30
0
41
1
10
0.445676858959672
20
11.2496418556063
30
0
41
1
10
0.443105753875756
20
11.2823802755193
30
0
41
1
10
0.440018994658629
20
11.2971638179407
30
0
41
1
10
0.42726417477968
20
11.3381142409963
30
0
41
1
10
0.414383428423491
20
11.3604758779005
30
0
41
1
10
0.382981648139577
20
11.398788943257
30
0
41
1
10
0.364323351058232
20
11.4146578151944
30
0
41
1
10
0.342769052838321
20
11.4271021950739
30
0
0
SPLINE
5
19E
100
AcDbEntity
8
SK1
62
256
6
ByLayer
370
18
48
1
60
0
100
AcDbSpline
70
4
71
3
72
8
73
4
40
0
40
0
40
0
40
0
40
1
40
1
40
1
40
1
41
1
10
0.342769052838321
20
11.4271021950739
30
0
41
1
10
0.140428826570854
20
11.5439233791773
30
0
41
1
10
-0.0572098387455924
20
11.6580301158
30
0
41
1
10
-0.249980947161703
20
11.769326567136
30
0
0
SPLINE
5
19F
100
AcDbEntity
8
SK1
62
256
6
ByLayer
370
18
48
1
60
0
100
AcDbSpline
70
4
71
3
72
12
73
8
40
0
40
0
40
0
40
0
40
0.250000000000006
40
0.250000000000006
40
0.500000000000012
40
0.500000000000012
40
1
40
1
40
1
40
1
41
1
10
-0.324980947161691
20
11.8992303777033
30
0
41
1
10
-0.324980947161663
20
11.8822810726519
30
0
41
1
10
-0.322258331788419
20
11.8676586519617
30
0
41
1
10
-0.31411018496658
20
11.841520265274
30
0
41
1
10
-0.308588305166779
20
11.8299276392252
30
0
41
1
10
-0.288794763919839
20
11.7984256267748
30
0
41
1
10
-0.271268222819287
20
11.7816167814671
30
0
41
1
10
-0.249980947161816
20
11.7693265671359
30
0
0
SPLINE
5
1A0
100
AcDbEntity
8
SK1
62
256
6
ByLayer
370
18
48
1
60
0
100
AcDbSpline
70
4
71
3
72
18
73
14
40
0
40
0
40
0
40
0
40
0.125000000000004
40
0.125000000000004
40
0.250000000000008
40
0.250000000000008
40
0.375000000000013
40
0.375000000000013
40
0.500000000000017
40
0.500000000000017
40
0.750000000000009
40
0.750000000000009
40
1
40
1
40
1
40
1
41
1
10
-0.249980947106025
20
12.230673432896
30
0
41
1
10
-0.255633945171525
20
12.2274096729444
30
0
41
1
10
-0.261545722398751
20
12.2235307522799
30
0
41
1
10
-0.274089073361182
20
12.2136471429456
30
0
41
1
10
-0.28055847567137
20
12.207688162703
30
0
41
1
10
-0.292389202619034
20
12.1945432345727
30
0
41
1
10
-0.297726742186029
20
12.1873734755297
30
0
41
1
10
-0.306407273047313
20
12.1735286661001
30
0
41
1
10
-0.309705607901151
20
12.167065512717
30
0
41
1
10
-0.317845872191299
20
12.1484469794848
30
0
41
1
10
-0.320694136903313
20
12.1377750261149
30
0
41
1
10
-0.324336623178112
20
12.1179339928976
30
0
41
1
10
-0.324980944532399
20
12.1090654184484
30
0
41
1
10
-0.324980947161691
20
12.1007696698376
30
0
0
SPLINE
5
1A1
100
AcDbEntity
8
SK1
62
256
6
ByLayer
370
18
48
1
60
0
100
AcDbSpline
70
4
71
3
72
8
73
4
40
0
40
0
40
0
40
0
40
1
40
1
40
1
40
1
41
1
10
-0.249980947106735
20
12.2306734328956
30
0
41
1
10
-0.0527632893805503
20
12.3445371006728
30
0
41
1
10
0.144826582216524
20
12.4586156662285
30
0
41
1
10
0.342769052838293
20
12.572897804926
30
0
0
SPLINE
5
1A2
100
AcDbEntity
8
SK1
62
256
6
ByLayer
370
18
48
1
60
0
100
AcDbSpline
70
4
71
3
72
22
73
18
40
0
40
0
40
0
40
0
40
0.0625000000000027
40
0.0625000000000027
40
0.125000000000005
40
0.125000000000005
40
0.187500000000008
40
0.187500000000008
40
0.250000000000011
40
0.250000000000011
40
0.37500000000001
40
0.37500000000001
40
0.500000000000009
40
0.500000000000009
40
0.750000000000004
40
0.750000000000004
40
1
40
1
40
1
40
1
41
1
10
0.342769052838293
20
12.572897804926
30
0
41
1
10
0.354608181839353
20
12.5797331292418
30
0
41
1
10
0.367641788103981
20
12.5887969509659
30
0
41
1
10
0.393933820837333
20
12.6135796136967
30
0
41
1
10
0.406050000047799
20
12.6287545713996
30
0
41
1
10
0.423576796837693
20
12.6573133731199
30
0
41
1
10
0.429373222380661
20
12.6705238773507
30
0
41
1
10
0.437772772863838
20
12.6945624553124
30
0
41
1
10
0.440407220383747
20
12.7055989539009
30
0
41
1
10
0.445588571768326
20
12.7361193630089
30
0
41
1
10
0.445625738411877
20
12.7535773835824
30
0
41
1
10
0.44251653002371
20
12.7857570881226
30
0
41
1
10
0.43928045288169
20
12.8000626434377
30
0
41
1
10
0.426421000815083
20
12.8396056103106
30
0
41
1
10
0.413679423890869
20
12.8615037472977
30
0
41
1
10
0.382525012517561
20
12.8991707316469
30
0
41
1
10
0.363925974973796
20
12.9148872403836
30
0
41
1
10
0.342769052839486
20
12.9271021950732
30
0
0
SPLINE
5
1A3
100
AcDbEntity
8
SK1
62
256
6
ByLayer
370
18
48
1
60
0
100
AcDbSpline
70
4
71
3
72
8
73
4
40
0
40
0
40
0
40
0
40
1
40
1
40
1
40
1
41
1
10
0.342769052839429
20
12.9271021950732
30
0
41
1
10
0.139093450172993
20
13.0446943591001
30
0
41
1
10
-0.0585614418591263
20
13.1588104642215
30
0
41
1
10
-0.249980947161703
20
13.269326567136
30
0
0
SPLINE
5
1A4
100
AcDbEntity
8
SK1
62
256
6
ByLayer
370
18
48
1
60
0
100
AcDbSpline
70
4
71
3
72
12
73
8
40
0
40
0
40
0
40
0
40
0.25
40
0.25
40
0.5
40
0.5
40
1
40
1
40
1
40
1
41
1
10
-0.324980947161691
20
13.3992303777037
30
0
41
1
10
-0.324980947161691
20
13.3823326876339
30
0
41
1
10
-0.322317549925202
20
13.3679129498827
30
0
41
1
10
-0.314174146943401
20
13.3416620797113
30
0
41
1
10
-0.308592611466196
20
13.32992807673
30
0
41
1
10
-0.28872036239386
20
13.2983200786429
30
0
41
1
10
-0.271353500686501
20
13.2816660166669
30
0
41
1
10
-0.249980947161703
20
13.269326567136
30
0
0
SPLINE
5
1A5
100
AcDbEntity
8
SK1
62
256
6
ByLayer
370
18
48
1
60
0
100
AcDbSpline
70
4
71
3
72
18
73
14
40
0
40
0
40
0
40
0
40
0.125000000000004
40
0.125000000000004
40
0.250000000000007
40
0.250000000000007
40
0.375000000000011
40
0.375000000000011
40
0.500000000000014
40
0.500000000000014
40
0.750000000000007
40
0.750000000000007
40
1
40
1
40
1
40
1
41
1
10
-0.249980947185321
20
13.7306734328503
30
0
41
1
10
-0.255879787461367
20
13.7272677358276
30
0
41
1
10
-0.262132384433158
20
13.723150251631
30
0
41
1
10
-0.27541223169635
20
13.712510163469
30
0
41
1
10
-0.282361551212944
20
13.7059304146114
30
0
41
1
10
-0.294715763793562
20
13.6916154260128
30
0
41
1
10
-0.2999934319879
20
13.6840478259869
30
0
41
1
10
-0.308106196543776
20
13.6703472663303
30
0
41
1
10
-0.311189532504045
20
13.6639225594934
30
0
41
1
10
-0.318524863889934
20
13.6461505958498
30
0
41
1
10
-0.321129814062175
20
13.6358528996718
30
0
41
1
10
-0.324389075210149
20
13.617126239329
30
0
41
1
10
-0.324980944658876
20
13.608686349407
30
0
41
1
10
-0.324980947161691
20
13.6007696697179
30
0
0
SPLINE
5
1A6
100
AcDbEntity
8
SK1
62
256
6
ByLayer
370
18
48
1
60
0
100
AcDbSpline
70
4
71
3
72
8
73
4
40
0
40
0
40
0
40
0
40
1
40
1
40
1
40
1
41
1
10
-0.24998094718336
20
13.7306734328514
30
0
41
1
10
-0.0530000040878349
20
13.8444004333728
30
0
41
1
10
0.144595422321913
20
13.9584822060011
30
0
41
1
10
0.342769052838321
20
14.0728978049261
30
0
0
SPLINE
5
1A7
100
AcDbEntity
8
SK1
62
256
6
ByLayer
370
18
48
1
60
0
100
AcDbSpline
70
4
71
3
72
24
73
20
40
0
40
0
40
0
40
0
40
0.062500000000001
40
0.062500000000001
40
0.0937500000000025
40
0.0937500000000025
40
0.125000000000004
40
0.125000000000004
40
0.187500000000009
40
0.187500000000009
40
0.250000000000014
40
0.250000000000014
40
0.375000000000015
40
0.375000000000015
40
0.500000000000016
40
0.500000000000016
40
0.750000000000008
40
0.750000000000008
40
1
40
1
40
1
40
1
41
1
10
0.342769052834654
20
14.072897804918
30
0
41
1
10
0.355492163966858
20
14.0802434965545
30
0
41
1
10
0.370101104686626
20
14.0905168173619
30
0
41
1
10
0.391579881066661
20
14.1117885239882
30
0
41
1
10
0.398484982044181
20
14.1197537295974
30
0
41
1
10
0.410274648123874
20
14.135543180138
30
0
41
1
10
0.415157671611098
20
14.1432678560081
30
0
41
1
10
0.42737222945658
20
14.1652254088806
30
0
41
1
10
0.432321891039976
20
14.1780120112318
30
0
41
1
10
0.439549508736405
20
14.2014461443951
30
0
41
1
10
0.441681157637134
20
14.2118967014105
30
0
41
1
10
0.445788200762763
20
14.2412797940188
30
0
41
1
10
0.445442817618016
20
14.2583164448053
30
0
41
1
10
0.441818702447677
20
14.2892602049515
30
0
41
1
10
0.438463981017094
20
14.3031082300083
30
0
41
1
10
0.425407582488617
20
14.3414669139582
30
0
41
1
10
0.412753784859774
20
14.3628334233235
30
0
41
1
10
0.381951448310986
20
14.3996431149244
30
0
41
1
10
0.363680833357222
20
14.4150287729627
30
0
41
1
10
0.342769052840254
20
14.4271021950737
30
0
0
SPLINE
5
1A8
100
AcDbEntity
8
SK1
62
256
6
ByLayer
370
18
48
1
60
0
100
AcDbSpline
70
4
71
3
72
8
73
4
40
0
40
0
40
0
40
0
40
1
40
1
40
1
40
1
41
1
10
0.342769052839714
20
14.4271021950731
30
0
41
1
10
0.136951465371453
20
14.5459310346018
30
0
41
1
10
-0.0607307434435995
20
14.6600629110752
30
0
41
1
10
-0.249980947161703
20
14.769326567136
30
0
0
SPLINE
5
1A9
100
AcDbEntity
8
SK1
62
256
6
ByLayer
370
18
48
1
60
0
100
AcDbSpline
70
4
71
3
72
12
73
8
40
0
40
0
40
0
40
0
40
0.249999999999995
40
0.249999999999995
40
0.49999999999999
40
0.49999999999999
40
1
40
1
40
1
40
1
41
1
10
-0.324980947162942
20
14.8992303777024
30
0
41
1
10
-0.3249809471628
20
14.8822327202223
30
0
41
1
10
-0.322303765072405
20
14.8679024610083
30
0
41
1
10
-0.314253239814264
20
14.8418833678346
30
0
41
1
10
-0.308779232189266
20
14.8302966226742
30
0
41
1
10
-0.289069242120092
20
14.7987354246532
30
0
41
1
10
-0.271567465529586
20
14.781789549324
30
0
41
1
10
-0.249980947163294
20
14.7693265671343
30
0
0
SPLINE
5
1AA
100
AcDbEntity
8
SK1
62
256
6
ByLayer
370
18
48
1
60
0
100
AcDbSpline
70
4
71
3
72
18
73
14
40
0
40
0
40
0
40
0
40
0.125000000000008
40
0.125000000000008
40
0.250000000000017
40
0.250000000000017
40
0.375000000000025
40
0.375000000000025
40
0.500000000000034
40
0.500000000000034
40
0.750000000000017
40
0.750000000000017
40
1
40
1
40
1
40
1
41
1
10
-0.249980947169377
20
15.2306734328595
30
0
41
1
10
-0.256081154466244
20
15.227151476534
30
0
41
1
10
-0.262717445722217
20
15.2227905443193
30
0
41
1
10
-0.277142436186779
20
15.2109958839183
30
0
41
1
10
-0.2850014701296
20
15.2032301173287
30
0
41
1
10
-0.297781574311529
20
15.1875029750968
30
0
41
1
10
-0.302626773518909
20
15.1799265663383
30
0
41
1
10
-0.310060604035954
20
15.1664412681963
30
0
41
1
10
-0.312734553913856
20
15.1604407626017
30
0
41
1
10
-0.31927971421004
20
15.1434857839011
30
0
41
1
10
-0.321537832798299
20
15.1339462395637
30
0
41
1
10
-0.324437343072788
20
15.1163386422425
30
0
41
1
10
-0.324980944828638
20
15.1083205516146
30
0
41
1
10
-0.324980947162828
20
15.1007696686656
30
0
0
SPLINE
5
1AB
100
AcDbEntity
8
SK1
62
256
6
ByLayer
370
18
48
1
60
0
100
AcDbSpline
70
4
71
3
72
8
73
4
40
0
40
0
40
0
40
0
40
1
40
1
40
1
40
1
41
1
10
-0.24998094716895
20
15.2306734328597
30
0
41
1
10
-0.0534841279736895
20
15.344120924317
30
0
41
1
10
0.144124364078948
20
15.4582102403978
30
0
41
1
10
0.342769052838321
20
15.5728978049261
30
0
0
SPLINE
5
1AC
100
AcDbEntity
8
SK1
62
256
6
ByLayer
370
18
48
1
60
0
100
AcDbSpline
70
4
71
3
72
26
73
22
40
0
40
0
40
0
40
0
40
0.0312499999999991
40
0.0312499999999991
40
0.0624999999999982
40
0.0624999999999982
40
0.0937499999999973
40
0.0937499999999973
40
0.124999999999996
40
0.124999999999996
40
0.1875
40
0.1875
40
0.250000000000004
40
0.250000000000004
40
0.375000000000003
40
0.375000000000003
40
0.500000000000003
40
0.500000000000003
40
0.750000000000001
40
0.750000000000001
40
1
40
1
40
1
40
1
41
1
10
0.342769052838321
20
15.572897804926
30
0
41
1
10
0.349594124357736
20
15.576838261805
30
0
41
1
10
0.356954877171006
20
15.5815885538065
30
0
41
1
10
0.372789901199894
20
15.5937177583001
30
0
41
1
10
0.381285818620256
20
15.6011915260058
30
0
41
1
10
0.397454220776581
20
15.6183542733494
30
0
41
1
10
0.404609871673983
20
15.6275380928634
30
0
41
1
10
0.415901574081062
20
15.6443416507405
30
0
41
1
10
0.420288786491653
20
15.6521867818629
30
0
41
1
10
0.430951862660152
20
15.6737574524048
30
0
41
1
10
0.435119125430134
20
15.686091672949
30
0
41
1
10
0.44107425637398
20
15.7083938363465
30
0
41
1
10
0.442799242142428
20
15.7184741707155
30
0
41
1
10
0.445882914634098
20
15.7469103630901
30
0
41
1
10
0.44514232311937
20
15.763216131862
30
0
41
1
10
0.441022492344644
20
15.7929385564271
30
0
41
1
10
0.437545776439265
20
15.8063404779235
30
0
41
1
10
0.424260602356327
20
15.8435596603405
30
0
41
1
10
0.411612191613671
20
15.86447031358
30
0
41
1
10
0.381069122415454
20
15.9004060928585
30
0
41
1
10
0.363218614943634
20
15.9152956348876
30
0
41
1
10
0.342769052838321
20
15.9271021950739
30
0
0
SPLINE
5
1AD
100
AcDbEntity
8
SK1
62
256
6
ByLayer
370
18
48
1
60
0
100
AcDbSpline
70
4
71
3
72
8
73
4
40
0
40
0
40
0
40
0
40
1
40
1
40
1
40
1
41
1
10
0.342769052838321
20
15.9271021950739
30
0
41
1
10
0.154967412090116
20
16.0355295229141
30
0
41
1
10
-0.0231141435526467
20
16.1383449570022
30
0
41
1
10
-0.191153296296136
20
16.235362407073
30
0
0
SPLINE
5
1AE
100
AcDbEntity
8
SK1
62
256
6
ByLayer
370
18
48
1
60
0
100
AcDbSpline
70
4
71
3
72
8
73
4
40
0
40
0
40
0
40
0
40
1
40
1
40
1
40
1
41
1
10
-0.191153296296136
20
16.235362407073
30
0
41
1
10
0.0391213082546074
20
16.424921166169
30
0
41
1
10
0.269507094643444
20
16.614400634237
30
0
41
1
10
0.499999999999943
20
16.8038037087752
30
0
0
SPLINE
5
1AF
100
AcDbEntity
8
SK1
62
256
6
ByLayer
370
18
48
1
60
0
100
AcDbSpline
70
4
71
3
72
8
73
4
40
0
40
0
40
0
40
0
40
1
40
1
40
1
40
1
41
1
10
-0.0469703231320295
20
10.1521183287042
30
0
41
1
10
-0.115112466683144
20
10.1914602136266
30
0
41
1
10
-0.182784534593168
20
10.230530700251
30
0
41
1
10
-0.249980947161674
20
10.269326567136
30
0
0
SPLINE
5
1B0
100
AcDbEntity
8
SK1
62
256
6
ByLayer
370
18
48
1
60
0
100
AcDbSpline
70
4
71
3
72
9
73
5
40
0
40
0
40
0
40
0
40
0.999292586041592
40
1
40
1
40
1
40
1
41
1
10
0.342769052838207
20
-18.9271021950739
30
0
41
1
10
-0.0434394769975768
20
-19.1500797937379
30
0
41
1
10
-0.237878022121834
20
-19.2623389401063
30
0
41
1
10
-0.237740711892102
20
-19.2622596640082
30
0
41
1
10
-0.237739845780098
20
-19.2622591639582
30
0
0
SPLINE
5
1B1
100
AcDbEntity
8
SK1
62
256
6
ByLayer
370
18
48
1
60
0
100
AcDbSpline
70
4
71
3
72
30
73
26
40
0
40
0
40
0
40
0
40
0.015624999999996
40
0.015624999999996
40
0.0312499999999921
40
0.0312499999999921
40
0.0390624999999921
40
0.0390624999999921
40
0.0468749999999921
40
0.0468749999999921
40
0.0624999999999934
40
0.0624999999999934
40
0.0937499999999934
40
0.0937499999999934
40
0.124999999999993
40
0.124999999999993
40
0.187499999999993
40
0.187499999999993
40
0.249999999999994
40
0.249999999999994
40
0.499999999999996
40
0.499999999999996
40
0.749999999999998
40
0.749999999999998
40
1
40
1
40
1
40
1
41
1
10
0.342769052844432
20
-18.5728978049297
30
0
41
1
10
0.347171951280018
20
-18.5754398195269
30
0
41
1
10
0.351960418968901
20
-18.5784059956171
30
0
41
1
10
0.362777228869362
20
-18.5859371497908
30
0
41
1
10
0.368887800440746
20
-18.5905116721256
30
0
41
1
10
0.379817395547832
20
-18.6002003847113
30
0
41
1
10
0.38368411184581
20
-18.6038737992161
30
0
41
1
10
0.391157562605201
20
-18.611590679319
30
0
41
1
10
0.394657280740859
20
-18.6155242596523
30
0
41
1
10
0.403675823340677
20
-18.6263537691197
30
0
41
1
10
0.407992032601754
20
-18.632462271674
30
0
41
1
10
0.418659317700417
20
-18.6487351879591
30
0
41
1
10
0.42283735992973
20
-18.6569874846893
30
0
41
1
10
0.42987321252204
20
-18.6723064010643
30
0
41
1
10
0.432448702746285
20
-18.6790960893603
30
0
41
1
10
0.43874265926425
20
-18.6979993068621
30
0
41
1
10
0.441072721492304
20
-18.7087665577519
30
0
41
1
10
0.44415675200807
20
-18.7287007453875
30
0
41
1
10
0.444833293181148
20
-18.737793336681
30
0
41
1
10
0.445598279075028
20
-18.7805244811046
30
0
41
1
10
0.438596852655991
20
-18.806468681596
30
0
41
1
10
0.419591814375593
20
-18.8517667571323
30
0
41
1
10
0.407057571212306
20
-18.8706572738759
30
0
41
1
10
0.377955530591549
20
-18.9029851967484
30
0
41
1
10
0.361336931577199
20
-18.9163820252857
30
0
41
1
10
0.342769052838236
20
-18.927102195074
30
0
0
SPLINE
5
1B2
100
AcDbEntity
8
SK1
62
256
6
ByLayer
370
18
48
1
60
0
100
AcDbSpline
70
4
71
3
72
8
73
4
40
0
40
0
40
0
40
0
40
1
40
1
40
1
40
1
41
1
10
-0.249980947164175
20
-18.2306734328626
30
0
41
1
10
-0.0602000624356265
20
-18.3402434777477
30
0
41
1
10
0.137660453241608
20
-18.4544782997359
30
0
41
1
10
0.34276905284446
20
-18.5728978049297
30
0
0
SPLINE
5
1B3
100
AcDbEntity
8
SK1
62
256
6
ByLayer
370
18
48
1
60
0
100
AcDbSpline
70
4
71
3
72
22
73
18
40
0
40
0
40
0
40
0
40
0.500000000000006
40
0.500000000000006
40
0.625000000000008
40
0.625000000000008
40
0.75000000000001
40
0.75000000000001
40
0.812500000000011
40
0.812500000000011
40
0.843750000000004
40
0.843750000000004
40
0.874999999999997
40
0.874999999999997
40
0.937499999999998
40
0.937499999999998
40
1
40
1
40
1
40
1
41
1
10
-0.324980947161777
20
-18.1007696736903
30
0
41
1
10
-0.324980942713722
20
-18.1137518803149
30
0
41
1
10
-0.323786972692915
20
-18.1278012981292
30
0
41
1
10
-0.316461247037864
20
-18.1508365404436
30
0
41
1
10
-0.314676140574164
20
-18.1557309360372
30
0
41
1
10
-0.309877142831482
20
-18.1666369849616
30
0
41
1
10
-0.30701594651407
20
-18.1725080306412
30
0
41
1
10
-0.299937942812335
20
-18.1838699189832
30
0
41
1
10
-0.29706124438934
20
-18.1881873513923
30
0
41
1
10
-0.290809955665623
20
-18.1961373598805
30
0
41
1
10
-0.288344686571179
20
-18.1990897237154
30
0
41
1
10
-0.282576626494205
20
-18.2053705283389
30
0
41
1
10
-0.279276769685708
20
-18.2086541663267
30
0
41
1
10
-0.270235529332297
20
-18.2169304518467
30
0
41
1
10
-0.265307390124065
20
-18.2206340696716
30
0
41
1
10
-0.256901453626085
20
-18.2265288472599
30
0
41
1
10
-0.253317987424794
20
-18.2287467917697
30
0
41
1
10
-0.249980947164204
20
-18.2306734328625
30
0
0
SPLINE
5
1B4
100
AcDbEntity
8
SK1
62
256
6
ByLayer
370
18
48
1
60
0
100
AcDbSpline
70
4
71
3
72
12
73
8
40
0
40
0
40
0
40
0
40
0.499999999999999
40
0.499999999999999
40
0.75
40
0.75
40
1
40
1
40
1
40
1
41
1
10
-0.24998094716176
20
-17.7693265671361
30
0
41
1
10
-0.272414825236751
20
-17.7822787726817
30
0
41
1
10
-0.289849679960668
20
-17.7996215327343
30
0
41
1
10
-0.309329969157972
20
-17.8313737108875
30
0
41
1
10
-0.314672522354186
20
-17.8429531170883
30
0
41
1
10
-0.322455514656298
20
-17.8686997670906
30
0
41
1
10
-0.324980947161777
20
-17.8827821226977
30
0
41
1
10
-0.324980947161777
20
-17.8992303777038
30
0
0
SPLINE
5
1B5
100
AcDbEntity
8
SK1
62
256
6
ByLayer
370
18
48
1
60
0
100
AcDbSpline
70
4
71
3
72
8
73
4
40
0
40
0
40
0
40
0
40
1
40
1
40
1
40
1
41
1
10
0.342769052838207
20
-17.4271021950739
30
0
41
1
10
0.122384349147296
20
-17.5543413630752
30
0
41
1
10
-0.0754822092164602
20
-17.6685796738101
30
0
41
1
10
-0.249980947161788
20
-17.7693265671361
30
0
0
SPLINE
5
1B6
100
AcDbEntity
8
SK1
62
256
6
ByLayer
370
18
48
1
60
0
100
AcDbSpline
70
4
71
3
72
28
73
24
40
0
40
0
40
0
40
0
40
0.0312500000000019
40
0.0312500000000019
40
0.0468749999999989
40
0.0468749999999989
40
0.0624999999999959
40
0.0624999999999959
40
0.093749999999993
40
0.093749999999993
40
0.12499999999999
40
0.12499999999999
40
0.187499999999991
40
0.187499999999991
40
0.249999999999992
40
0.249999999999992
40
0.374999999999992
40
0.374999999999992
40
0.499999999999991
40
0.499999999999991
40
0.749999999999995
40
0.749999999999995
40
1
40
1
40
1
40
1
41
1
10
0.342769052838207
20
-17.0728978049261
30
0
41
1
10
0.350219788009184
20
-17.0771994888827
30
0
41
1
10
0.358549452454469
20
-17.0825539799039
30
0
41
1
10
0.372864218035403
20
-17.0939798699871
30
0
41
1
10
0.377987963333482
20
-17.0984317564579
30
0
41
1
10
0.388166271881545
20
-17.1083280814277
30
0
41
1
10
0.393183542585433
20
-17.1137579495876
30
0
41
1
10
0.40650203797324
20
-17.1297408233559
30
0
41
1
10
0.412744887295162
20
-17.1393052009069
30
0
41
1
10
0.422483911889856
20
-17.1561710776415
30
0
41
1
10
0.426016499716923
20
-17.1635944235195
30
0
41
1
10
0.434672051565229
20
-17.1840851392542
30
0
41
1
10
0.437986803453327
20
-17.1957274100747
30
0
41
1
10
0.442636637049759
20
-17.2170226031548
30
0
41
1
10
0.443877476648396
20
-17.2266145363654
30
0
41
1
10
0.44578095406996
20
-17.2535938389765
30
0
41
1
10
0.444634637795758
20
-17.269194360565
30
0
41
1
10
0.439866649629636
20
-17.2978762065492
30
0
41
1
10
0.436160069704755
20
-17.310907227539
30
0
41
1
10
0.422428671235451
20
-17.3468944380384
30
0
41
1
10
0.409842691366435
20
-17.3669156018501
30
0
41
1
10
0.379945598132963
20
-17.4013274297263
30
0
41
1
10
0.362582983642795
20
-17.4156626167902
30
0
41
1
10
0.342769052838236
20
-17.4271021950739
30
0
0
SPLINE
5
1B7
100
AcDbEntity
8
SK1
62
256
6
ByLayer
370
18
48
1
60
0
100
AcDbSpline
70
4
71
3
72
8
73
4
40
0
40
0
40
0
40
0
40
1
40
1
40
1
40
1
41
1
10
-0.249980947157098
20
-16.7306734328667
30
0
41
1
10
-0.0547247618712277
20
-16.8434046440024
30
0
41
1
10
0.142923239003039
20
-16.957516770512
30
0
41
1
10
0.342769052838236
20
-17.0728978049261
30
0
0
SPLINE
5
1B8
100
AcDbEntity
8
SK1
62
256
6
ByLayer
370
18
48
1
60
0
100
AcDbSpline
70
4
71
3
72
20
73
16
40
0
40
0
40
0
40
0
40
0.249999999999999
40
0.249999999999999
40
0.499999999999998
40
0.499999999999998
40
0.624999999999997
40
0.624999999999997
40
0.749999999999997
40
0.749999999999997
40
0.812499999999996
40
0.812499999999996
40
0.874999999999996
40
0.874999999999996
40
1
40
1
40
1
40
1
41
1
10
-0.324980947161777
20
-16.6007696742417
30
0
41
1
10
-0.324980944714184
20
-16.6078374423781
30
0
41
1
10
-0.324500996960808
20
-16.6153798571388
30
0
41
1
10
-0.321956071445783
20
-16.6318825954065
30
0
41
1
10
-0.319966113323744
20
-16.6407981042996
30
0
41
1
10
-0.314369069028999
20
-16.6564624937186
30
0
41
1
10
-0.312057921716729
20
-16.6620851226961
30
0
41
1
10
-0.305703740350111
20
-16.6746698177186
30
0
41
1
10
-0.301711034698229
20
-16.6816998750712
30
0
41
1
10
-0.292329218117743
20
-16.6943481376134
30
0
41
1
10
-0.288588938352376
20
-16.6989035673295
30
0
41
1
10
-0.280264486169813
20
-16.7077856175685
30
0
41
1
10
-0.275807648856869
20
-16.7119602336366
30
0
41
1
10
-0.263376019538612
20
-16.7224405493048
30
0
41
1
10
-0.256236858595798
20
-16.7270615807138
30
0
41
1
10
-0.249980947157155
20
-16.7306734328666
30
0
0
SPLINE
5
1B9
100
AcDbEntity
8
SK1
62
256
6
ByLayer
370
18
48
1
60
0
100
AcDbSpline
70
4
71
3
72
12
73
8
40
0
40
0
40
0
40
0
40
0.499999999999998
40
0.499999999999998
40
0.749999999999999
40
0.749999999999999
40
1
40
1
40
1
40
1
41
1
10
-0.249980947162555
20
-16.2693265671352
30
0
41
1
10
-0.271790390976747
20
-16.2819182553923
30
0
41
1
10
-0.28924094962801
20
-16.2989278931105
30
0
41
1
10
-0.30890401999153
20
-16.3305383497192
30
0
41
1
10
-0.314354285966459
20
-16.342132433195
30
0
41
1
10
-0.322353048377551
20
-16.3681407231553
30
0
41
1
10
-0.324980947161748
20
-16.3825186935891
30
0
41
1
10
-0.324980947161777
20
-16.3992303777035
30
0
0
SPLINE
5
1BA
100
AcDbEntity
8
SK1
62
256
6
ByLayer
370
18
48
1
60
0
100
AcDbSpline
70
4
71
3
72
8
73
4
40
0
40
0
40
0
40
0
40
1
40
1
40
1
40
1
41
1
10
0.342769052838207
20
-15.9271021950739
30
0
41
1
10
0.132896815745255
20
-16.048271987655
30
0
41
1
10
-0.0648365548914001
20
-16.1624334024198
30
0
41
1
10
-0.249980947161788
20
-16.2693265671361
30
0
0
SPLINE
5
1BB
100
AcDbEntity
8
SK1
62
256
6
ByLayer
370
18
48
1
60
0
100
AcDbSpline
70
4
71
3
72
26
73
22
40
0
40
0
40
0
40
0
40
0.0312499999999997
40
0.0312499999999997
40
0.0624999999999993
40
0.0624999999999993
40
0.093749999999999
40
0.093749999999999
40
0.124999999999999
40
0.124999999999999
40
0.187500000000004
40
0.187500000000004
40
0.250000000000009
40
0.250000000000009
40
0.37500000000001
40
0.37500000000001
40
0.500000000000012
40
0.500000000000012
40
0.750000000000006
40
0.750000000000006
40
1
40
1
40
1
40
1
41
1
10
0.342769052838207
20
-15.5728978049261
30
0
41
1
10
0.349594124357651
20
-15.5768382618051
30
0
41
1
10
0.356954877170921
20
-15.5815885538065
30
0
41
1
10
0.372789901199781
20
-15.5937177583002
30
0
41
1
10
0.381285818620142
20
-15.6011915260059
30
0
41
1
10
0.397454220776496
20
-15.6183542733494
30
0
41
1
10
0.404609871673898
20
-15.6275380928634
30
0
41
1
10
0.415901574080948
20
-15.6443416507405
30
0
41
1
10
0.42028878649154
20
-15.652186781863
30
0
41
1
10
0.430951862660038
20
-15.6737574524048
30
0
41
1
10
0.435119125430049
20
-15.6860916729491
30
0
41
1
10
0.441074256373866
20
-15.7083938363465
30
0
41
1
10
0.442799242142314
20
-15.7184741707155
30
0
41
1
10
0.445882914634012
20
-15.7469103630901
30
0
41
1
10
0.445142323119285
20
-15.763216131862
30
0
41
1
10
0.441022492344558
20
-15.7929385564271
30
0
41
1
10
0.43754577643918
20
-15.8063404779236
30
0
41
1
10
0.424260602356242
20
-15.8435596603405
30
0
41
1
10
0.411612191613557
20
-15.8644703135801
30
0
41
1
10
0.381069122415369
20
-15.9004060928586
30
0
41
1
10
0.363218614943548
20
-15.9152956348876
30
0
41
1
10
0.342769052838236
20
-15.9271021950739
30
0
0
SPLINE
5
1BC
100
AcDbEntity
8
SK1
62
256
6
ByLayer
370
18
48
1
60
0
100
AcDbSpline
70
4
71
3
72
8
73
4
40
0
40
0
40
0
40
0
40
1
40
1
40
1
40
1
41
1
10
-0.249980947159742
20
-15.2306734328652
30
0
41
1
10
-0.0534841279675504
20
-15.3441209243207
30
0
41
1
10
0.144124364081989
20
-15.4582102403996
30
0
41
1
10
0.342769052838236
20
-15.5728978049261
30
0
0
SPLINE
5
1BD
100
AcDbEntity
8
SK1
62
256
6
ByLayer
370
18
48
1
60
0
100
AcDbSpline
70
4
71
3
72
18
73
14
40
0
40
0
40
0
40
0
40
0.250000000000006
40
0.250000000000006
40
0.500000000000011
40
0.500000000000011
40
0.625000000000008
40
0.625000000000008
40
0.750000000000006
40
0.750000000000006
40
0.875000000000003
40
0.875000000000003
40
1
40
1
40
1
40
1
41
1
10
-0.324980947177067
20
-15.1007696733176
30
0
41
1
10
-0.324980944602771
20
-15.1083379719955
30
0
41
1
10
-0.324432712680704
20
-15.116420417677
30
0
41
1
10
-0.321494646794207
20
-15.1341539514463
30
0
41
1
10
-0.31918243802312
20
-15.1438135323922
30
0
41
1
10
-0.312597598822265
20
-15.1607560309805
30
0
41
1
10
-0.309874417347231
20
-15.1668188717234
30
0
41
1
10
-0.30243916897706
20
-15.18022497668
30
0
41
1
10
-0.297509190612402
20
-15.1878765947346
30
0
41
1
10
-0.284807946299509
20
-15.2034284034641
30
0
41
1
10
-0.276922579050307
20
-15.2111916961387
30
0
41
1
10
-0.262620965309281
20
-15.2228530278962
30
0
41
1
10
-0.256002024866291
20
-15.2271971620468
30
0
41
1
10
-0.249980947147179
20
-15.2306734328874
30
0
0
SPLINE
5
1BE
100
AcDbEntity
8
SK1
62
256
6
ByLayer
370
18
48
1
60
0
100
AcDbSpline
70
4
71
3
72
12
73
8
40
0
40
0
40
0
40
0
40
0.499999999999999
40
0.499999999999999
40
0.749999999999999
40
0.749999999999999
40
1
40
1
40
1
40
1
41
1
10
-0.24998094716176
20
-14.7693265671361
30
0
41
1
10
-0.271516642801032
20
-14.7817602068106
30
0
41
1
10
-0.289005300634528
20
-14.7986536555468
30
0
41
1
10
-0.308758860239465
20
-14.8302537328973
30
0
41
1
10
-0.314253887073988
20
-14.8418692188386
30
0
41
1
10
-0.322334268365807
20
-14.8680173504829
30
0
41
1
10
-0.324980947161777
20
-14.8824182338689
30
0
41
1
10
-0.324980947161777
20
-14.8992303777037
30
0
0
SPLINE
5
1BF
100
AcDbEntity
8
SK1
62
256
6
ByLayer
370
18
48
1
60
0
100
AcDbSpline
70
4
71
3
72
8
73
4
40
0
40
0
40
0
40
0
40
1
40
1
40
1
40
1
41
1
10
0.342769052839628
20
-14.4271021950731
30
0
41
1
10
0.136951465371368
20
-14.5459310346019
30
0
41
1
10
-0.0607307434436848
20
-14.6600629110753
30
0
41
1
10
-0.24998094716176
20
-14.7693265671361
30
0
0
SPLINE
5
1C0
100
AcDbEntity
8
SK1
62
256
6
ByLayer
370
18
48
1
60
0
100
AcDbSpline
70
4
71
3
72
24
73
20
40
0
40
0
40
0
40
0
40
0.0624999999999906
40
0.0624999999999906
40
0.0937499999999886
40
0.0937499999999886
40
0.124999999999987
40
0.124999999999987
40
0.187499999999983
40
0.187499999999983
40
0.249999999999979
40
0.249999999999979
40
0.374999999999983
40
0.374999999999983
40
0.499999999999987
40
0.499999999999987
40
0.749999999999994
40
0.749999999999994
40
1
40
1
40
1
40
1
41
1
10
0.342769052834541
20
-14.072897804918
30
0
41
1
10
0.355492163966773
20
-14.0802434965546
30
0
41
1
10
0.37010110468654
20
-14.090516817362
30
0
41
1
10
0.391579881066605
20
-14.1117885239883
30
0
41
1
10
0.398484982044096
20
-14.1197537295975
30
0
41
1
10
0.410274648123817
20
-14.1355431801381
30
0
41
1
10
0.415157671611013
20
-14.1432678560082
30
0
41
1
10
0.427372229456495
20
-14.1652254088807
30
0
41
1
10
0.432321891039919
20
-14.1780120112319
30
0
41
1
10
0.43954950873632
20
-14.2014461443952
30
0
41
1
10
0.441681157637049
20
-14.2118967014105
30
0
41
1
10
0.445788200762678
20
-14.2412797940188
30
0
41
1
10
0.445442817617931
20
-14.2583164448054
30
0
41
1
10
0.441818702447591
20
-14.2892602049515
30
0
41
1
10
0.438463981017009
20
-14.3031082300084
30
0
41
1
10
0.425407582488532
20
-14.3414669139582
30
0
41
1
10
0.412753784859689
20
-14.3628334233236
30
0
41
1
10
0.3819514483109
20
-14.3996431149244
30
0
41
1
10
0.363680833357137
20
-14.4150287729628
30
0
41
1
10
0.342769052840168
20
-14.4271021950738
30
0
0
SPLINE
5
1C1
100
AcDbEntity
8
SK1
62
256
6
ByLayer
370
18
48
1
60
0
100
AcDbSpline
70
4
71
3
72
8
73
4
40
0
40
0
40
0
40
0
40
1
40
1
40
1
40
1
41
1
10
-0.249980947161788
20
-13.7306734328639
30
0
41
1
10
-0.0530000040734251
20
-13.8444004333812
30
0
41
1
10
0.144595422329075
20
-13.9584822060054
30
0
41
1
10
0.342769052838236
20
-14.0728978049261
30
0
0
SPLINE
5
1C2
100
AcDbEntity
8
SK1
62
256
6
ByLayer
370
18
48
1
60
0
100
AcDbSpline
70
4
71
3
72
18
73
14
40
0
40
0
40
0
40
0
40
0.249999999999976
40
0.249999999999976
40
0.499999999999952
40
0.499999999999952
40
0.624999999999964
40
0.624999999999964
40
0.749999999999976
40
0.749999999999976
40
0.874999999999988
40
0.874999999999988
40
1
40
1
40
1
40
1
41
1
10
-0.324980947162345
20
-13.6007696670361
30
0
41
1
10
-0.324980944779668
20
-13.6087580826516
30
0
41
1
10
-0.3243750918177
20
-13.6172515822333
30
0
41
1
10
-0.321101652116056
20
-13.635969125766
30
0
41
1
10
-0.318480845447851
20
-13.6462848088004
30
0
41
1
10
-0.31114059852689
20
-13.6640271324653
30
0
41
1
10
-0.308065534855842
20
-13.6704290602801
30
0
41
1
10
-0.299905142428884
20
-13.684183591263
30
0
41
1
10
-0.294738072321451
20
-13.6915917814673
30
0
41
1
10
-0.282309515722517
20
-13.7059884988998
30
0
41
1
10
-0.275307003668445
20
-13.7125990917557
30
0
41
1
10
-0.26213719440247
20
-13.7231417450232
30
0
41
1
10
-0.255819243409519
20
-13.727302690991
30
0
41
1
10
-0.2499809471378
20
-13.7306734329128
30
0
0
SPLINE
5
1C3
100
AcDbEntity
8
SK1
62
256
6
ByLayer
370
18
48
1
60
0
100
AcDbSpline
70
4
71
3
72
12
73
8
40
0
40
0
40
0
40
0
40
0.50000000000001
40
0.50000000000001
40
0.750000000000005
40
0.750000000000005
40
1
40
1
40
1
40
1
41
1
10
-0.249980947161788
20
-13.2693265671361
30
0
41
1
10
-0.271365093900869
20
-13.2816727100123
30
0
41
1
10
-0.288886118499562
20
-13.298502388523
30
0
41
1
10
-0.30871866818876
20
-13.3301698901522
30
0
41
1
10
-0.314220321073407
20
-13.3417949276563
30
0
41
1
10
-0.322302273623194
20
-13.367879764646
30
0
41
1
10
-0.324980947161777
20
-13.3822418326898
30
0
41
1
10
-0.324980947161777
20
-13.3992303777038
30
0
0
SPLINE
5
1C4
100
AcDbEntity
8
SK1
62
256
6
ByLayer
370
18
48
1
60
0
100
AcDbSpline
70
4
71
3
72
8
73
4
40
0
40
0
40
0
40
0
40
1
40
1
40
1
40
1
41
1
10
0.342769052839344
20
-12.9271021950733
30
0
41
1
10
0.139093450172908
20
-13.0446943591001
30
0
41
1
10
-0.0585614418592115
20
-13.1588104642215
30
0
41
1
10
-0.249980947161788
20
-13.2693265671361
30
0
0
SPLINE
5
1C5
100
AcDbEntity
8
SK1
62
256
6
ByLayer
370
18
48
1
60
0
100
AcDbSpline
70
4
71
3
72
22
73
18
40
0
40
0
40
0
40
0
40
0.0625000000000003
40
0.0625000000000003
40
0.125000000000001
40
0.125000000000001
40
0.187500000000001
40
0.187500000000001
40
0.250000000000001
40
0.250000000000001
40
0.375000000000002
40
0.375000000000002
40
0.500000000000002
40
0.500000000000002
40
0.750000000000001
40
0.750000000000001
40
1
40
1
40
1
40
1
41
1
10
0.342769052838236
20
-12.5728978049261
30
0
41
1
10
0.354608181839694
20
-12.5797331292421
30
0
41
1
10
0.367641788105743
20
-12.5887969509676
30
0
41
1
10
0.393933820836537
20
-12.6135796136962
30
0
41
1
10
0.406050000047856
20
-12.6287545714
30
0
41
1
10
0.423576796837125
20
-12.6573133731191
30
0
41
1
10
0.429373222380292
20
-12.6705238773501
30
0
41
1
10
0.437772772863411
20
-12.6945624553113
30
0
41
1
10
0.440407220383435
20
-12.7055989538999
30
0
41
1
10
0.445588571768212
20
-12.7361193630082
30
0
41
1
10
0.44562573841182
20
-12.7535773835817
30
0
41
1
10
0.442516530023738
20
-12.7857570881221
30
0
41
1
10
0.439280452881718
20
-12.8000626434373
30
0
41
1
10
0.426421000815168
20
-12.8396056103103
30
0
41
1
10
0.413679423890926
20
-12.8615037472976
30
0
41
1
10
0.382525012517561
20
-12.8991707316468
30
0
41
1
10
0.363925974973768
20
-12.9148872403836
30
0
41
1
10
0.342769052839401
20
-12.9271021950733
30
0
0
SPLINE
5
1C6
100
AcDbEntity
8
SK1
62
256
6
ByLayer
370
18
48
1
60
0
100
AcDbSpline
70
4
71
3
72
8
73
4
40
0
40
0
40
0
40
0
40
1
40
1
40
1
40
1
41
1
10
-0.249980947161788
20
-12.2306734328639
30
0
41
1
10
-0.052763289417328
20
-12.3445371006516
30
0
41
1
10
0.14482658219805
20
-12.458615666218
30
0
41
1
10
0.342769052838236
20
-12.5728978049261
30
0
0
SPLINE
5
1C7
100
AcDbEntity
8
SK1
62
256
6
ByLayer
370
18
48
1
60
0
100
AcDbSpline
70
4
71
3
72
16
73
12
40
0
40
0
40
0
40
0
40
0.25
40
0.25
40
0.5
40
0.5
40
0.625
40
0.625
40
0.75
40
0.75
40
1
40
1
40
1
40
1
41
1
10
-0.324980947189772
20
-12.1007696222698
30
0
41
1
10
-0.32498094719125
20
-12.1091375518884
30
0
41
1
10
-0.324309016993169
20
-12.1181205982702
30
0
41
1
10
-0.320686052162785
20
-12.1377824738949
30
0
41
1
10
-0.317786456289298
20
-12.1486027991513
30
0
41
1
10
-0.309681694932976
20
-12.1671101461963
30
0
41
1
10
-0.30633378809955
20
-12.1736485913716
30
0
41
1
10
-0.297771572636094
20
-12.187299242956
30
0
41
1
10
-0.292433481716671
20
-12.1944924874516
30
0
41
1
10
-0.274589605548442
20
-12.2143231712481
30
0
41
1
10
-0.261321720492418
20
-12.2241258343668
30
0
41
1
10
-0.249980947142433
20
-12.2306734329092
30
0
0
SPLINE
5
1C8
100
AcDbEntity
8
SK1
62
256
6
ByLayer
370
18
48
1
60
0
100
AcDbSpline
70
4
71
3
72
12
73
8
40
0
40
0
40
0
40
0
40
0.500000000000013
40
0.500000000000013
40
0.750000000000007
40
0.750000000000007
40
1
40
1
40
1
40
1
41
1
10
-0.24998094716176
20
-11.7693265671361
30
0
41
1
10
-0.271180770286861
20
-11.7815662907241
30
0
41
1
10
-0.288598490316787
20
-11.7981560037922
30
0
41
1
10
-0.308577748339189
20
-11.829889635649
30
0
41
1
10
-0.314125680259394
20
-11.8415504008793
30
0
41
1
10
-0.322280802533072
20
-11.8677503986238
30
0
41
1
10
-0.324980952094364
20
-11.8823349663461
30
0
41
1
10
-0.324980947161777
20
-11.899230421496
30
0
0
SPLINE
5
1C9
100
AcDbEntity
8
SK1
62
256
6
ByLayer
370
18
48
1
60
0
100
AcDbSpline
70
4
71
3
72
8
73
4
40
0
40
0
40
0
40
0
40
1
40
1
40
1
40
1
41
1
10
0.342769052838236
20
-11.427102195074
30
0
41
1
10
0.140428826570769
20
-11.5439233791774
30
0
41
1
10
-0.0572098387456776
20
-11.6580301158001
30
0
41
1
10
-0.24998094716176
20
-11.7693265671361
30
0
0
SPLINE
5
1CA
100
AcDbEntity
8
SK1
62
256
6
ByLayer
370
18
48
1
60
0
100
AcDbSpline
70
4
71
3
72
22
73
18
40
0
40
0
40
0
40
0
40
0.0625000000000055
40
0.0625000000000055
40
0.125000000000011
40
0.125000000000011
40
0.187500000000016
40
0.187500000000016
40
0.250000000000022
40
0.250000000000022
40
0.375000000000019
40
0.375000000000019
40
0.500000000000016
40
0.500000000000016
40
0.750000000000008
40
0.750000000000008
40
1
40
1
40
1
40
1
41
1
10
0.342769052838236
20
-11.0728978049261
30
0
41
1
10
0.354050595451099
20
-11.0794112065905
30
0
41
1
10
0.366209629257241
20
-11.0878490587059
30
0
41
1
10
0.390520771895581
20
-11.1100338146446
30
0
41
1
10
0.402179577389489
20
-11.1236871566762
30
0
41
1
10
0.42023907538686
20
-11.1510567178538
30
0
41
1
10
0.426716865430109
20
-11.1644252779558
30
0
41
1
10
0.436131893586321
20
-11.188940397959
30
0
41
1
10
0.439120072139133
20
-11.2000710535235
30
0
41
1
10
0.445319628398181
20
-11.2316415550311
30
0
41
1
10
0.445676858959587
20
-11.2496418556063
30
0
41
1
10
0.44310575387567
20
-11.2823802755193
30
0
41
1
10
0.440018994658544
20
-11.2971638179408
30
0
41
1
10
0.427264174779594
20
-11.3381142409964
30
0
41
1
10
0.414383428423406
20
-11.3604758779005
30
0
41
1
10
0.382981648139491
20
-11.398788943257
30
0
41
1
10
0.364323351058147
20
-11.4146578151945
30
0
41
1
10
0.342769052838236
20
-11.427102195074
30
0
0
SPLINE
5
1CB
100
AcDbEntity
8
SK1
62
256
6
ByLayer
370
18
48
1
60
0
100
AcDbSpline
70
4
71
3
72
8
73
4
40
0
40
0
40
0
40
0
40
1
40
1
40
1
40
1
41
1
10
-0.249980947161788
20
-10.7306734328639
30
0
41
1
10
-0.0526311005797311
20
-10.8446134199126
30
0
41
1
10
0.14495640268504
20
-10.958690618111
30
0
41
1
10
0.342769052838236
20
-11.0728978049261
30
0
0
SPLINE
5
1CC
100
AcDbEntity
8
SK1
62
256
6
ByLayer
370
18
48
1
60
0
100
AcDbSpline
70
4
71
3
72
14
73
10
40
0
40
0
40
0
40
0
40
0.25
40
0.25
40
0.5
40
0.5
40
0.75
40
0.75
40
1
40
1
40
1
40
1
41
1
10
-0.324980947161777
20
-10.6007696222963
30
0
41
1
10
-0.324980947161777
20
-10.6094638429983
30
0
41
1
10
-0.324257414918748
20
-10.6188504811585
30
0
41
1
10
-0.320279451865019
20
-10.6394830025956
30
0
41
1
10
-0.317087137316264
20
-10.6507433672039
30
0
41
1
10
-0.305544085308554
20
-10.6759015823238
30
0
41
1
10
-0.296574052598231
20
-10.690224877575
30
0
41
1
10
-0.273553804333829
20
-10.7150959876527
30
0
41
1
10
-0.261125044145928
20
-10.7242393854777
30
0
41
1
10
-0.249980947157866
20
-10.7306734328728
30
0
0
SPLINE
5
1CD
100
AcDbEntity
8
SK1
62
256
6
ByLayer
370
18
48
1
60
0
100
AcDbSpline
70
4
71
3
72
12
73
8
40
0
40
0
40
0
40
0
40
0.5
40
0.5
40
0.75
40
0.75
40
1
40
1
40
1
40
1
41
1
10
-0.249980947163408
20
-10.2693265671371
30
0
41
1
10
-0.271072889936534
20
-10.2815040059752
30
0
41
1
10
-0.288435995715815
20
-10.2979819796639
30
0
41
1
10
-0.308444760829644
20
-10.3296370448461
30
0
41
1
10
-0.314074872656846
20
-10.3414150937225
30
0
41
1
10
-0.322278016727296
20
-10.3677137080055
30
0
41
1
10
-0.324980951859658
20
-10.3821975796411
30
0
41
1
10
-0.324980947161777
20
-10.3992304190757
30
0
0
SPLINE
5
1CE
100
AcDbEntity
8
SK1
62
256
6
ByLayer
370
18
48
1
60
0
100
AcDbSpline
70
4
71
3
72
8
73
4
40
0
40
0
40
0
40
0
40
1
40
1
40
1
40
1
41
1
10
-0.0469703231317453
20
-10.152118328704
30
0
41
1
10
-0.11511246668357
20
-10.1914602136268
30
0
41
1
10
-0.182784534594305
20
-10.2305307002517
30
0
41
1
10
-0.249980947163522
20
-10.2693265671371
30
0
0
SPLINE
5
1CF
100
AcDbEntity
8
1
62
256
6
ByLayer
370
18
48
1
60
0
100
AcDbSpline
70
4
71
3
72
26
73
22
40
0
40
0
40
0
40
0
40
0.125000000000003
40
0.125000000000003
40
0.250000000000005
40
0.250000000000005
40
0.312500000000006
40
0.312500000000006
40
0.375000000000006
40
0.375000000000006
40
0.500000000000005
40
0.500000000000005
40
0.625000000000004
40
0.625000000000004
40
0.750000000000002
40
0.750000000000002
40
0.875000000000001
40
0.875000000000001
40
0.9375
40
0.9375
40
1
40
1
40
1
40
1
41
1
10
11.8805521859849
20
25.6499999999999
30
0
41
1
10
11.9851342813094
20
25.6499999999999
30
0
41
1
10
12.0901066198518
20
25.6600897741791
30
0
41
1
10
12.2977449910104
20
25.7008782999533
30
0
41
1
10
12.3980399340183
20
25.7310107023337
30
0
41
1
10
12.543354106978
20
25.7903795937262
30
0
41
1
10
12.5909313063288
20
25.8125479362294
30
0
41
1
10
12.684315182974
20
25.8617769038785
30
0
41
1
10
12.7300828346089
20
25.888859548804
30
0
41
1
10
12.8616917406704
20
25.9756871903673
30
0
41
1
10
12.942954211376
20
26.0414809935791
30
0
41
1
10
13.0925066956118
20
26.1889090438427
30
0
41
1
10
13.1608533382247
20
26.2710614539293
30
0
41
1
10
13.2782865164338
20
26.4444228823576
30
0
41
1
10
13.3282839596405
20
26.5363848742859
30
0
41
1
10
13.4102656838035
20
26.7312196186078
30
0
41
1
10
13.4415062169439
20
26.8326406463026
30
0
41
1
10
13.4728548305559
20
26.9881401825304
30
0
41
1
10
13.4807350635024
20
27.040727355073
30
0
41
1
10
13.4911367434541
20
27.1453904255343
30
0
41
1
10
13.4937156593443
20
27.1977040307292
30
0
41
1
10
13.4937156593443
20
27.2499999999999
30
0
0
SPLINE
5
1D0
100
AcDbEntity
8
1
62
256
6
ByLayer
370
18
48
1
60
0
100
AcDbSpline
70
4
71
3
72
28
73
24
40
0
40
0
40
0
40
0
40
0.125000000000002
40
0.125000000000002
40
0.187500000000001
40
0.187500000000001
40
0.25
40
0.25
40
0.375000000000001
40
0.375000000000001
40
0.500000000000002
40
0.500000000000002
40
0.625000000000003
40
0.625000000000003
40
0.687500000000002
40
0.687500000000002
40
0.750000000000002
40
0.750000000000002
40
0.875000000000001
40
0.875000000000001
40
0.937500000000001
40
0.937500000000001
40
1
40
1
40
1
40
1
41
1
10
12.25
20
27.2499999999999
30
0
41
1
10
12.25
20
27.1443436000928
30
0
41
1
10
12.2396372015814
20
27.0404522641387
30
0
41
1
10
12.2091848293824
20
26.887154524091
30
0
41
1
10
12.1965308814966
20
26.8364816325248
30
0
41
1
10
12.1661027018158
20
26.7360079716486
30
0
41
1
10
12.1482421485506
20
26.6860694810822
30
0
41
1
10
12.0880630281274
20
26.5408008808704
30
0
41
1
10
12.038961558879
20
26.4489334731817
30
0
41
1
10
11.922958238747
20
26.2750645586304
30
0
41
1
10
11.8554358001371
20
26.1927352406192
30
0
41
1
10
11.7079354088973
20
26.0451527440036
30
0
41
1
10
11.6274545444755
20
25.9789227800429
30
0
41
1
10
11.4963991525631
20
25.8911872292538
30
0
41
1
10
11.4509859334657
20
25.8639404226962
30
0
41
1
10
11.3586850438285
20
25.8145540323303
30
0
41
1
10
11.3115553982706
20
25.7922427822317
30
0
41
1
10
11.1672737257015
20
25.7323457256529
30
0
41
1
10
11.0667052752204
20
25.7016228937956
30
0
41
1
10
10.9116258588642
20
25.6706549942057
30
0
41
1
10
10.859607848803
20
25.6629175118293
30
0
41
1
10
10.7549264522005
20
25.6525781038916
30
0
41
1
10
10.7020776433341
20
25.6499999999999
30
0
41
1
10
10.65
20
25.6499999999999
30
0
0
SPLINE
5
1D1
100
AcDbEntity
8
1
62
256
6
ByLayer
370
18
48
1
60
0
100
AcDbSpline
70
4
71
3
72
28
73
24
40
0
40
0
40
0
40
0
40
0.062499999999998
40
0.062499999999998
40
0.124999999999996
40
0.124999999999996
40
0.249999999999998
40
0.249999999999998
40
0.3125
40
0.3125
40
0.375000000000002
40
0.375000000000002
40
0.500000000000001
40
0.500000000000001
40
0.5625
40
0.5625
40
0.624999999999999
40
0.624999999999999
40
0.75
40
0.75
40
0.875
40
0.875
40
1
40
1
40
1
40
1
41
1
10
3.76999999999998
20
19.0012232580839
30
0
41
1
10
3.76999999999998
20
18.9593135550037
30
0
41
1
10
3.76757746962406
20
18.9170141504409
30
0
41
1
10
3.7579725633079
20
18.8334341882512
30
0
41
1
10
3.75081215734787
20
18.792044314751
30
0
41
1
10
3.72238375597883
20
18.6690535222888
30
0
41
1
10
3.69423346054722
20
18.5886204216587
30
0
41
1
10
3.63757449449579
20
18.4704199130916
30
0
41
1
10
3.61619216269341
20
18.4313611210627
30
0
41
1
10
3.56936735729838
20
18.3557074926521
30
0
41
1
10
3.54384011220083
20
18.3189078848006
30
0
41
1
10
3.46092804975893
20
18.2115837831593
30
0
41
1
10
3.39728089556141
20
18.1441009875147
30
0
41
1
10
3.28819039973769
20
18.0494920901383
30
0
41
1
10
3.24965900546943
20
18.019211507436
30
0
41
1
10
3.16973274897731
20
17.9623392023904
30
0
41
1
10
3.12814097261003
20
17.9355706628323
30
0
41
1
10
2.99844300594501
20
17.8603054541236
30
0
41
1
10
2.90496241734027
20
17.8166067260284
30
0
41
1
10
2.7056988740994
20
17.7447958929058
30
0
41
1
10
2.6028381418613
20
17.7176443644392
30
0
41
1
10
2.39068895318943
20
17.6807672178765
30
0
41
1
10
2.28045545814305
20
17.6711067478126
30
0
41
1
10
2.16999999999999
20
17.6711067478126
30
0
0
SPLINE
5
1D2
100
AcDbEntity
8
1
62
256
6
ByLayer
370
18
48
1
60
0
100
AcDbSpline
70
4
71
3
72
16
73
12
40
0
40
0
40
0
40
0
40
0.249999999999998
40
0.249999999999998
40
0.499999999999997
40
0.499999999999997
40
0.624999999999998
40
0.624999999999998
40
0.749999999999999
40
0.749999999999999
40
1
40
1
40
1
40
1
41
1
10
12.25
20
57.2658921984254
30
0
41
1
10
12.25540749318
20
57.0378392320945
30
0
41
1
10
12.261534016453
20
56.8249960957689
30
0
41
1
10
12.2754809683511
20
56.4284811965631
30
0
41
1
10
12.2833005357237
20
56.2448130361995
30
0
41
1
10
12.2965597486786
20
55.9915778127717
30
0
41
1
10
12.3012493331416
20
55.9106786341589
30
0
41
1
10
12.3111269933238
20
55.7575948755357
30
0
41
1
10
12.3162974264714
20
55.6856343876435
30
0
41
1
10
12.332547033716
20
55.4833088405964
30
0
41
1
10
12.3443621559544
20
55.3664322487923
30
0
41
1
10
12.3572993958195
20
55.267875013206
30
0
0
SPLINE
5
1D3
100
AcDbEntity
8
1
62
256
6
ByLayer
370
18
48
1
60
0
100
AcDbSpline
70
4
71
3
72
16
73
12
40
0
40
0
40
0
40
0
40
0.250000000000002
40
0.250000000000002
40
0.375000000000002
40
0.375000000000002
40
0.500000000000002
40
0.500000000000002
40
0.750000000000001
40
0.750000000000001
40
1
40
1
40
1
40
1
41
1
10
12.7836979813861
20
52.9721006119887
30
0
41
1
10
12.7998178059602
20
52.7439761973358
30
0
41
1
10
12.817618587015
20
52.5300654960566
30
0
41
1
10
12.8471170428714
20
52.2306345405182
30
0
41
1
10
12.8574178069541
20
52.1344102339501
30
0
41
1
10
12.8790248466649
20
51.9493245793013
30
0
41
1
10
12.8902468493236
20
51.8612232456289
30
0
41
1
10
12.9249735031
20
51.6116783565375
30
0
41
1
10
12.9496276412814
20
51.4641188537943
30
0
41
1
10
13.0021848223624
20
51.2058803292229
30
0
41
1
10
13.0300865825694
20
51.0951968277842
30
0
41
1
10
13.0598082832042
20
51.0037511862873
30
0
0
SPLINE
5
1D4
100
AcDbEntity
8
1
62
256
6
ByLayer
370
18
48
1
60
0
100
AcDbSpline
70
4
71
3
72
26
73
22
40
0
40
0
40
0
40
0
40
0.125
40
0.125
40
0.1875
40
0.1875
40
0.25
40
0.25
40
0.375000000000001
40
0.375000000000001
40
0.500000000000002
40
0.500000000000002
40
0.625000000000003
40
0.625000000000003
40
0.687500000000004
40
0.687500000000004
40
0.750000000000005
40
0.750000000000005
40
0.875000000000002
40
0.875000000000002
40
1
40
1
40
1
40
1
41
1
10
2.16999999999999
20
20.2497602181968
30
0
41
1
10
2.27566323761687
20
20.2497602181968
30
0
41
1
10
2.3795618698133
20
20.2601251574046
30
0
41
1
10
2.53287111707527
20
20.2905843881831
30
0
41
1
10
2.58354793879289
20
20.3032412352001
30
0
41
1
10
2.68402963142302
20
20.3336765938184
30
0
41
1
10
2.7339695545937
20
20.3515405919616
30
0
41
1
10
2.87923861994636
20
20.411729001596
30
0
41
1
10
2.97110622437296
20
20.4608375439978
30
0
41
1
10
3.14497517610602
20
20.5768569868367
30
0
41
1
10
3.22729748095264
20
20.6443835273158
30
0
41
1
10
3.37486480442942
20
20.7918858358857
30
0
41
1
10
3.44108884960156
20
20.8723673856719
30
0
41
1
10
3.52881760168836
20
21.0034238092426
30
0
41
1
10
3.55605853178795
20
21.0488309288958
30
0
41
1
10
3.60543652602476
20
21.1411207040025
30
0
41
1
10
3.62774470247038
20
21.1882449378362
30
0
41
1
10
3.68763544171387
20
21.3325109761789
30
0
41
1
10
3.71836448959584
20
21.4331063015569
30
0
41
1
10
3.75964308428243
20
21.6397677412218
30
0
41
1
10
3.77000000000513
20
21.7442417657978
30
0
41
1
10
3.77000000000516
20
21.849867382613
30
0
0
SPLINE
5
1D5
100
AcDbEntity
8
1
62
256
6
ByLayer
370
18
48
1
60
0
100
AcDbSpline
70
4
71
3
72
16
73
12
40
0
40
0
40
0
40
0
40
0.124999999999999
40
0.124999999999999
40
0.249999999999998
40
0.249999999999998
40
0.499999999999999
40
0.499999999999999
40
0.749999999999999
40
0.749999999999999
40
1
40
1
40
1
40
1
41
1
10
12.8761561775978
20
55.267875013206
30
0
41
1
10
12.802394601123
20
55.3197517366783
30
0
41
1
10
12.7469056946157
20
55.3788187270642
30
0
41
1
10
12.6621756200276
20
55.512149963067
30
0
41
1
10
12.6330768328387
20
55.587005693662
30
0
41
1
10
12.5774547693476
20
55.8281161821676
30
0
41
1
10
12.5802926200321
20
56.0123222335141
30
0
41
1
10
12.6231947988332
20
56.4276638376564
30
0
41
1
10
12.6631228355755
20
56.6526404001068
30
0
41
1
10
12.7450063174734
20
57.137642255522
30
0
41
1
10
12.787409412528
20
57.3976271904331
30
0
41
1
10
12.8123930488215
20
57.6777018864082
30
0
0
SPLINE
5
1D6
100
AcDbEntity
8
1
62
256
6
ByLayer
370
18
48
1
60
0
100
AcDbSpline
70
4
71
3
72
20
73
16
40
0
40
0
40
0
40
0
40
0.249999999999999
40
0.249999999999999
40
0.499999999999997
40
0.499999999999997
40
0.624999999999997
40
0.624999999999997
40
0.749999999999996
40
0.749999999999996
40
0.812499999999997
40
0.812499999999997
40
0.874999999999998
40
0.874999999999998
40
1
40
1
40
1
40
1
41
1
10
15.0401715963029
20
57.6777018864082
30
0
41
1
10
15.1093039020691
20
57.4009249638051
30
0
41
1
10
15.1935528630941
20
57.1453227056209
30
0
41
1
10
15.3576125720982
20
56.667485025296
30
0
41
1
10
15.4379414498302
20
56.445349279762
30
0
41
1
10
15.5315095925007
20
56.1354247148658
30
0
41
1
10
15.5580230458605
20
56.0363403517179
30
0
41
1
10
15.5957930974895
20
55.849937996204
30
0
41
1
10
15.6072712503796
20
55.762132223104
30
0
41
1
10
15.6081786180632
20
55.6385668015819
30
0
41
1
10
15.6057014354064
20
55.5985835853931
30
0
41
1
10
15.5942051772301
20
55.5225361672599
30
0
41
1
10
15.5852141881782
20
55.486381808092
30
0
41
1
10
15.5469219537876
20
55.3834149169466
30
0
41
1
10
15.5066566607602
20
55.3220900037353
30
0
41
1
10
15.4445839052642
20
55.267875013206
30
0
0
SPLINE
5
1D7
100
AcDbEntity
8
1
62
256
6
ByLayer
370
18
48
1
60
0
100
AcDbSpline
70
4
71
3
72
10
73
6
40
0
40
0
40
0
40
0
40
0.5
40
0.5
40
1
40
1
40
1
40
1
41
1
10
13.7982616359124
20
62.5050395804411
30
0
41
1
10
13.9007183972381
20
62.5333628794681
30
0
41
1
10
14.0041556837244
20
62.5587580079351
30
0
41
1
10
14.2119105558206
20
62.6069194022121
30
0
41
1
10
14.3162581128898
20
62.6295961633896
30
0
41
1
10
14.4208747878793
20
62.6514692499618
30
0
0
SPLINE
5
1D8
100
AcDbEntity
8
1
62
256
6
ByLayer
370
18
48
1
60
0
100
AcDbSpline
70
4
71
3
72
10
73
6
40
0
40
0
40
0
40
0
40
0.5
40
0.5
40
1
40
1
40
1
40
1
41
1
10
14.4208747878793
20
62.6514692499618
30
0
41
1
10
14.4503850127167
20
62.6576392004281
30
0
41
1
10
14.4752781325261
20
62.6733227627806
30
0
41
1
10
14.5139445941626
20
62.7123014398027
30
0
41
1
10
14.5274704961217
20
62.7350266161391
30
0
41
1
10
14.5357814543499
20
62.7593914652916
30
0
0
SPLINE
5
1D9
100
AcDbEntity
8
1
62
256
6
ByLayer
370
18
48
1
60
0
100
AcDbSpline
70
4
71
3
72
8
73
4
40
0
40
0
40
0
40
0
40
1
40
1
40
1
40
1
41
1
10
14.5357814543471
20
62.7593914652924
30
0
41
1
10
14.5512502519442
20
62.8047406187441
30
0
41
1
10
14.5674330623666
20
62.8499044623431
30
0
41
1
10
14.5840461068824
20
62.89495664602
30
0
0
SPLINE
5
1DA
100
AcDbEntity
8
1
62
256
6
ByLayer
370
18
48
1
60
0
100
AcDbSpline
70
4
71
3
72
10
73
6
40
0
40
0
40
0
40
0
40
0.5
40
0.5
40
1
40
1
40
1
40
1
41
1
10
14.5840461068824
20
62.89495664602
30
0
41
1
10
14.5936823485915
20
62.9210887454686
30
0
41
1
10
14.6112815911898
20
62.9449897282018
30
0
41
1
10
14.6603050458056
20
62.9798716818809
30
0
41
1
10
14.6922319406868
20
62.9905882925125
30
0
41
1
10
14.7249999999992
20
62.9905882925127
30
0
0
SPLINE
5
1DB
100
AcDbEntity
8
1
62
256
6
ByLayer
370
18
48
1
60
0
100
AcDbSpline
70
4
71
3
72
10
73
6
40
0
40
0
40
0
40
0
40
0.5
40
0.5
40
1
40
1
40
1
40
1
41
1
10
15.275
20
62.9905882925046
30
0
41
1
10
15.3076928409579
20
62.9905882925046
30
0
41
1
10
15.3392929936167
20
62.9801232760231
30
0
41
1
10
15.3888988387746
20
62.9448956076663
30
0
41
1
10
15.4063279015147
20
62.9210609486574
30
0
41
1
10
15.4159538931179
20
62.8949566460194
30
0
0
SPLINE
5
1DC
100
AcDbEntity
8
1
62
256
6
ByLayer
370
18
48
1
60
0
100
AcDbSpline
70
4
71
3
72
8
73
4
40
0
40
0
40
0
40
0
40
1
40
1
40
1
40
1
41
1
10
15.4159538931179
20
62.8949566460194
30
0
41
1
10
15.4325727629137
20
62.8498886650222
30
0
41
1
10
15.4487561448334
20
62.8047218656093
30
0
41
1
10
15.4642185456529
20
62.7593914652924
30
0
0
SPLINE
5
1DD
100
AcDbEntity
8
1
62
256
6
ByLayer
370
18
48
1
60
0
100
AcDbSpline
70
4
71
3
72
10
73
6
40
0
40
0
40
0
40
0
40
0.5
40
0.5
40
1
40
1
40
1
40
1
41
1
10
15.4642185456529
20
62.7593914652924
30
0
41
1
10
15.4725393818735
20
62.7349976572896
30
0
41
1
10
15.4861569991746
20
62.7122004682843
30
0
41
1
10
15.5246114936507
20
62.6734325860131
30
0
41
1
10
15.5495324620613
20
62.6576564546691
30
0
41
1
10
15.5791252121208
20
62.6514692499618
30
0
0
SPLINE
5
1DE
100
AcDbEntity
8
1
62
256
6
ByLayer
370
18
48
1
60
0
100
AcDbSpline
70
4
71
3
72
10
73
6
40
0
40
0
40
0
40
0
40
0.5
40
0.5
40
1
40
1
40
1
40
1
41
1
10
15.5791252121208
20
62.6514692499618
30
0
41
1
10
15.6837720320051
20
62.6295898607434
30
0
41
1
10
15.7882322843414
20
62.6068879658318
30
0
41
1
10
15.9960360019525
20
62.5587118923842
30
0
41
1
10
16.0994391096109
20
62.533319338041
30
0
41
1
10
16.2017383640795
20
62.5050395804434
30
0
0
SPLINE
5
1DF
100
AcDbEntity
8
SK1
62
256
6
ByLayer
370
18
48
1
60
0
100
AcDbSpline
70
4
71
3
72
8
73
4
40
0
40
0
40
0
40
0
40
1
40
1
40
1
40
1
41
1
10
0.499999999999972
20
19.9722858711787
30
0
41
1
10
0.259892386095004
20
19.7322584035836
30
0
41
1
10
0.0197847849938455
20
19.4922309231891
30
0
41
1
10
-0.220322802830935
20
19.252203429523
30
0
0
LINE
5
70
100
AcDbEntity
8
1
62
256
6
ByLayer
370
18
48
1
60
0
100
AcDbLine
10
12.641251
20
63.611484
30
0
11
12.641251
21
62.18506
31
0
39
0
210
0
220
0
230
1
0
LINE
5
72
100
AcDbEntity
8
1
62
256
6
ByLayer
370
18
48
1
60
0
100
AcDbLine
10
12.658616
20
63.618068
30
0
11
12.658616
21
62.189967
31
0
39
0
210
0
220
0
230
1
0
LINE
5
73
100
AcDbEntity
8
1
62
256
6
ByLayer
370
18
48
1
60
0
100
AcDbLine
10
17.341384
20
63.618068
30
0
11
17.341384
21
62.189967
31
0
39
0
210
0
220
0
230
1
0
LINE
5
74
100
AcDbEntity
8
1
62
256
6
ByLayer
370
18
48
1
60
0
100
AcDbLine
10
17.358749
20
63.611484
30
0
11
17.358749
21
62.18506
31
0
39
0
210
0
220
0
230
1
0
LINE
5
75
100
AcDbEntity
8
1
62
256
6
ByLayer
370
18
48
1
60
0
100
AcDbLine
10
12.641251
20
63.611484
30
0
11
12.4
21
63.611484
31
0
39
0
210
0
220
0
230
1
0
LINE
5
76
100
AcDbEntity
8
1
62
256
6
ByLayer
370
18
48
1
60
0
100
AcDbLine
10
12.4
20
65.039855
30
0
11
12.4
21
63.611484
31
0
39
0
210
0
220
0
230
1
0
LINE
5
77
100
AcDbEntity
8
1
62
256
6
ByLayer
370
18
48
1
60
0
100
AcDbLine
10
12.167091
20
65.467511
30
0
11
12.4
21
65.039855
31
0
39
0
210
0
220
0
230
1
0
LINE
5
78
100
AcDbEntity
8
1
62
256
6
ByLayer
370
18
48
1
60
0
100
AcDbLine
10
12.167091
20
65.467511
30
0
11
12.078922
21
68.143073
31
0
39
0
210
0
220
0
230
1
0
LINE
5
79
100
AcDbEntity
8
1
62
256
6
ByLayer
370
18
48
1
60
0
100
AcDbLine
10
17.921078
20
68.143073
30
0
11
12.078922
21
68.143073
31
0
39
0
210
0
220
0
230
1
0
LINE
5
7A
100
AcDbEntity
8
1
62
256
6
ByLayer
370
18
48
1
60
0
100
AcDbLine
10
17.832909
20
65.467511
30
0
11
17.921078
21
68.143073
31
0
39
0
210
0
220
0
230
1
0
LINE
5
7B
100
AcDbEntity
8
1
62
256
6
ByLayer
370
18
48
1
60
0
100
AcDbLine
10
17.832909
20
65.467511
30
0
11
17.6
21
65.039855
31
0
39
0
210
0
220
0
230
1
0
LINE
5
7C
100
AcDbEntity
8
1
62
256
6
ByLayer
370
18
48
1
60
0
100
AcDbLine
10
17.6
20
65.039855
30
0
11
17.6
21
63.611484
31
0
39
0
210
0
220
0
230
1
0
LINE
5
7D
100
AcDbEntity
8
1
62
256
6
ByLayer
370
18
48
1
60
0
100
AcDbLine
10
17.358749
20
63.611484
30
0
11
17.6
21
63.611484
31
0
39
0
210
0
220
0
230
1
0
LINE
5
7E
100
AcDbEntity
8
1
62
256
6
ByLayer
370
18
48
1
60
0
100
AcDbLine
10
15.649934
20
64.90992
30
0
11
17.341382
21
63.618066
31
0
39
0
210
0
220
0
230
1
0
LINE
5
7F
100
AcDbEntity
8
1
62
256
6
ByLayer
370
18
48
1
60
0
100
AcDbLine
10
15.513888
20
65.306526
30
0
11
15.605665
21
64.995391
31
0
39
0
210
0
220
0
230
1
0
LINE
5
80
100
AcDbEntity
8
1
62
256
6
ByLayer
370
18
48
1
60
0
100
AcDbLine
10
14.98
20
66.988604
30
0
11
15.02
21
66.988604
31
0
39
0
210
0
220
0
230
1
0
LINE
5
81
100
AcDbEntity
8
1
62
256
6
ByLayer
370
18
48
1
60
0
100
AcDbLine
10
14.486112
20
65.306526
30
0
11
14.394335
21
64.995391
31
0
39
0
210
0
220
0
230
1
0
LINE
5
82
100
AcDbEntity
8
1
62
256
6
ByLayer
370
18
48
1
60
0
100
AcDbLine
10
14.350066
20
64.90992
30
0
11
12.658618
21
63.618066
31
0
39
0
210
0
220
0
230
1
0
LINE
5
83
100
AcDbEntity
8
1
62
256
6
ByLayer
370
18
48
1
60
0
100
AcDbLine
10
17.832909
20
51.532489
30
0
11
17.749997
21
51.684728
31
0
39
0
210
0
220
0
230
1
0
LINE
5
84
100
AcDbEntity
8
1
62
256
6
ByLayer
370
18
48
1
60
0
100
AcDbLine
10
17.832909
20
51.532489
30
0
11
17.921078
21
48.856927
31
0
39
0
210
0
220
0
230
1
0
LINE
5
85
100
AcDbEntity
8
1
62
256
6
ByLayer
370
18
48
1
60
0
100
AcDbLine
10
17.921078
20
48.856927
30
0
11
17.749921
21
48.856927
31
0
39
0
210
0
220
0
230
1
0
LINE
5
86
100
AcDbEntity
8
1
62
256
6
ByLayer
370
18
48
1
60
0
100
AcDbLine
10
12.250079
20
48.856927
30
0
11
12.078922
21
48.856927
31
0
39
0
210
0
220
0
230
1
0
LINE
5
87
100
AcDbEntity
8
1
62
256
6
ByLayer
370
18
48
1
60
0
100
AcDbLine
10
12.167091
20
51.532489
30
0
11
12.078922
21
48.856927
31
0
39
0
210
0
220
0
230
1
0
LINE
5
88
100
AcDbEntity
8
1
62
256
6
ByLayer
370
18
48
1
60
0
100
AcDbLine
10
12.167091
20
51.532489
30
0
11
12.250003
21
51.684728
31
0
39
0
210
0
220
0
230
1
0
LINE
5
89
100
AcDbEntity
8
1
62
256
6
ByLayer
370
18
48
1
60
0
100
AcDbLine
10
12.4
20
63.611484
30
0
11
12.4
21
62.118451
31
0
39
0
210
0
220
0
230
1
0
LINE
5
8A
100
AcDbEntity
8
1
62
256
6
ByLayer
370
18
48
1
60
0
100
AcDbLine
10
17.6
20
63.611484
30
0
11
17.6
21
62.118451
31
0
39
0
210
0
220
0
230
1
0
LINE
5
8B
100
AcDbEntity
8
1
62
256
6
ByLayer
370
18
48
1
60
0
100
AcDbLine
10
15.649934
20
64.90992
30
0
11
15.649934
21
62.636201
31
0
39
0
210
0
220
0
230
1
0
LINE
5
8C
100
AcDbEntity
8
1
62
256
6
ByLayer
370
18
48
1
60
0
100
AcDbLine
10
14.350066
20
64.90992
30
0
11
14.350066
21
62.634799
31
0
39
0
210
0
220
0
230
1
0
LINE
5
8D
100
AcDbEntity
8
1
62
256
6
ByLayer
370
18
48
1
60
0
100
AcDbLine
10
15.605665
20
64.995391
30
0
11
15.605665
21
62.645683
31
0
39
0
210
0
220
0
230
1
0
LINE
5
8E
100
AcDbEntity
8
1
62
256
6
ByLayer
370
18
48
1
60
0
100
AcDbLine
10
14.394335
20
64.995391
30
0
11
14.394335
21
62.645074
31
0
39
0
210
0
220
0
230
1
0
LINE
5
8F
100
AcDbEntity
8
1
62
256
6
ByLayer
370
18
48
1
60
0
100
AcDbLine
10
14.486112
20
62.686333
30
0
11
14.486112
21
65.306526
31
0
39
0
210
0
220
0
230
1
0
LINE
5
90
100
AcDbEntity
8
1
62
256
6
ByLayer
370
18
48
1
60
0
100
AcDbLine
10
15.513888
20
62.687396
30
0
11
15.513888
21
65.306526
31
0
39
0
210
0
220
0
230
1
0
LINE
5
91
100
AcDbEntity
8
1
62
256
6
ByLayer
370
18
48
1
60
0
100
AcDbLine
10
15.483085
20
65.482367
30
0
11
15.483085
21
62.726077
31
0
39
0
210
0
220
0
230
1
0
LINE
5
92
100
AcDbEntity
8
1
62
256
6
ByLayer
370
18
48
1
60
0
100
AcDbLine
10
14.516915
20
65.482367
30
0
11
14.516915
21
62.725423
31
0
39
0
210
0
220
0
230
1
0
LINE
5
93
100
AcDbEntity
8
1
62
256
6
ByLayer
370
18
48
1
60
0
100
AcDbLine
10
14.572267
20
66.170287
30
0
11
14.572267
21
62.861757
31
0
39
0
210
0
220
0
230
1
0
LINE
5
94
100
AcDbEntity
8
1
62
256
6
ByLayer
370
18
48
1
60
0
100
AcDbLine
10
15.427733
20
66.170287
30
0
11
15.427733
21
62.861757
31
0
39
0
210
0
220
0
230
1
0
LINE
5
95
100
AcDbEntity
8
1
62
256
6
ByLayer
370
18
48
1
60
0
100
AcDbLine
10
15.210736
20
62.99051
30
0
11
15.210736
21
66.94999
31
0
39
0
210
0
220
0
230
1
0
LINE
5
96
100
AcDbEntity
8
1
62
256
6
ByLayer
370
18
48
1
60
0
100
AcDbLine
10
14.789264
20
62.99051
30
0
11
14.789264
21
66.94999
31
0
39
0
210
0
220
0
230
1
0
LINE
5
97
100
AcDbEntity
8
1
62
256
6
ByLayer
370
18
48
1
60
0
100
AcDbLine
10
14.98
20
62.990472
30
0
11
14.98
21
66.988604
31
0
39
0
210
0
220
0
230
1
0
LINE
5
98
100
AcDbEntity
8
1
62
256
6
ByLayer
370
18
48
1
60
0
100
AcDbLine
10
15.02
20
62.990472
30
0
11
15.02
21
66.988604
31
0
39
0
210
0
220
0
230
1
0
LINE
5
99
100
AcDbEntity
8
1
62
256
6
ByLayer
370
18
48
1
60
0
100
AcDbLine
10
12.100747
20
68.568682
30
0
11
17.899253
21
68.568682
31
0
39
0
210
0
220
0
230
1
0
LINE
5
9A
100
AcDbEntity
8
1
62
256
6
ByLayer
370
18
48
1
60
0
100
AcDbLine
10
12.100747
20
68.568682
30
0
11
12.078922
21
68.143073
31
0
39
0
210
0
220
0
230
1
0
LINE
5
9B
100
AcDbEntity
8
1
62
256
6
ByLayer
370
18
48
1
60
0
100
AcDbLine
10
17.899253
20
68.568682
30
0
11
17.921078
21
68.143073
31
0
39
0
210
0
220
0
230
1
0
LINE
5
9C
100
AcDbEntity
8
1
62
256
6
ByLayer
370
18
48
1
60
0
100
AcDbLine
10
12.100747
20
48.431318
30
0
11
12.250059
21
48.431318
31
0
39
0
210
0
220
0
230
1
0
LINE
5
9D
100
AcDbEntity
8
1
62
256
6
ByLayer
370
18
48
1
60
0
100
AcDbLine
10
17.749941
20
48.431318
30
0
11
17.899253
21
48.431318
31
0
39
0
210
0
220
0
230
1
0
LINE
5
9E
100
AcDbEntity
8
1
62
256
6
ByLayer
370
18
48
1
60
0
100
AcDbLine
10
17.899253
20
48.431318
30
0
11
17.921078
21
48.856927
31
0
39
0
210
0
220
0
230
1
0
LINE
5
9F
100
AcDbEntity
8
1
62
256
6
ByLayer
370
18
48
1
60
0
100
AcDbLine
10
12.100747
20
48.431318
30
0
11
12.078922
21
48.856927
31
0
39
0
210
0
220
0
230
1
0
LINE
5
A0
100
AcDbEntity
8
1
62
256
6
ByLayer
370
18
48
1
60
0
100
AcDbLine
10
12.383126
20
71
30
0
11
17.616874
21
71
31
0
39
0
210
0
220
0
230
1
0
LINE
5
A1
100
AcDbEntity
8
1
62
256
6
ByLayer
370
18
48
1
60
0
100
AcDbLine
10
11.983803
20
70.576744
30
0
11
12.100747
21
68.568682
31
0
39
0
210
0
220
0
230
1
0
LINE
5
A2
100
AcDbEntity
8
1
62
256
6
ByLayer
370
18
48
1
60
0
100
AcDbLine
10
18.016197
20
70.576744
30
0
11
17.899253
21
68.568682
31
0
39
0
210
0
220
0
230
1
0
LINE
5
A3
100
AcDbEntity
8
1
62
256
6
ByLayer
370
18
48
1
60
0
100
AcDbLine
10
18.016197
20
46.423256
30
0
11
17.899253
21
48.431318
31
0
39
0
210
0
220
0
230
1
0
LINE
5
A4
100
AcDbEntity
8
1
62
256
6
ByLayer
370
18
48
1
60
0
100
AcDbLine
10
11.983803
20
46.423256
30
0
11
12.100747
21
48.431318
31
0
39
0
210
0
220
0
230
1
0
LINE
5
A5
100
AcDbEntity
8
1
62
256
6
ByLayer
370
18
48
1
60
0
100
AcDbLine
10
15.643582
20
50.237527
30
0
11
15.643582
21
50.595689
31
0
39
0
210
0
220
0
230
1
0
LINE
5
A6
100
AcDbEntity
8
1
62
256
6
ByLayer
370
18
48
1
60
0
100
AcDbLine
10
14.819943
20
50.154831
30
0
11
14.819943
21
50.678387
31
0
39
0
210
0
220
0
230
1
0
LINE
5
A7
100
AcDbEntity
8
SK1
62
256
6
ByLayer
370
18
48
1
60
0
100
AcDbLine
10
-6.824981
20
5.9325
30
0
11
-7.824981
21
5.664551
31
0
39
0
210
0
220
0
230
1
0
LINE
5
A9
100
AcDbEntity
8
SK1
62
256
6
ByLayer
370
18
48
1
60
0
100
AcDbLine
10
-6.824981
20
-5.9325
30
0
11
-6.824981
21
5.9325
31
0
39
0
210
0
220
0
230
1
0
LINE
5
AA
100
AcDbEntity
8
SK1
62
256
6
ByLayer
370
18
48
1
60
0
100
AcDbLine
10
-7.824981
20
-5.664551
30
0
11
-6.824981
21
-5.9325
31
0
39
0
210
0
220
0
230
1
0
LINE
5
AB
100
AcDbEntity
8
SK1
62
256
6
ByLayer
370
18
48
1
60
0
100
AcDbLine
10
-7.824981
20
-5.664551
30
0
11
-7.824981
21
5.664551
31
0
39
0
210
0
220
0
230
1
0
LINE
5
AC
100
AcDbEntity
8
SK1
62
256
6
ByLayer
370
18
48
1
60
0
100
AcDbLine
10
-6.824981
20
-5.9325
30
0
11
-0.325106
21
-5.9325
31
0
39
0
210
0
220
0
230
1
0
LINE
5
AD
100
AcDbEntity
8
SK1
62
256
6
ByLayer
370
18
48
1
60
0
100
AcDbLine
10
-0.325106
20
5.9325
30
0
11
-6.824981
21
5.9325
31
0
39
0
210
0
220
0
230
1
0
LINE
5
AE
100
AcDbEntity
8
1
62
256
6
ByLayer
370
18
48
1
60
0
100
AcDbLine
10
17.75
20
-12.25
30
0
11
17.75
21
57.265892
31
0
39
0
210
0
220
0
230
1
0
LINE
5
AF
100
AcDbEntity
8
1
62
256
6
ByLayer
370
18
48
1
60
0
100
AcDbLine
10
16.500454
20
-13.499546
30
0
11
17.75
21
-12.25
31
0
39
0
210
0
220
0
230
1
0
LINE
5
B0
100
AcDbEntity
8
1
62
256
6
ByLayer
370
18
48
1
60
0
100
AcDbLine
10
15.756497
20
-14.243503
30
0
11
15.95798
21
-14.04202
31
0
39
0
210
0
220
0
230
1
0
LINE
5
B1
100
AcDbEntity
8
1
62
256
6
ByLayer
370
18
48
1
60
0
100
AcDbLine
10
13.94995
20
-5.552168
30
0
11
13.94995
21
7.1
31
0
39
0
210
0
220
0
230
1
0
LINE
5
B2
100
AcDbEntity
8
1
62
256
6
ByLayer
370
18
48
1
60
0
100
AcDbLine
10
16.506284
20
49.802668
30
0
11
16.506284
21
21.319501
31
0
39
0
210
0
220
0
230
1
0
LINE
5
B3
100
AcDbEntity
8
1
62
256
6
ByLayer
370
18
48
1
60
0
100
AcDbLine
10
14.537545
20
10.933639
30
0
11
2.544276
21
10.933639
31
0
39
0
210
0
220
0
230
1
0
LINE
5
B4
100
AcDbEntity
8
1
62
256
6
ByLayer
370
18
48
1
60
0
100
AcDbLine
10
13.94995
20
7.1
30
0
11
1.5
21
7.1
31
0
39
0
210
0
220
0
230
1
0
LINE
5
B5
100
AcDbEntity
8
1
62
256
6
ByLayer
370
18
48
1
60
0
100
AcDbLine
10
1.5
20
7.1
30
0
11
1.5
21
10.521947
31
0
39
0
210
0
220
0
230
1
0
LINE
5
B6
100
AcDbEntity
8
1
62
256
6
ByLayer
370
18
48
1
60
0
100
AcDbLine
10
2.17
20
10.521947
30
0
11
1.5
21
10.521947
31
0
39
0
210
0
220
0
230
1
0
LINE
5
B7
100
AcDbEntity
8
SK1
62
256
6
ByLayer
370
18
48
1
60
0
100
AcDbLine
10
-0.04697
20
10.152118
30
0
11
0.5
21
10.61352
31
0
39
0
210
0
220
0
230
1
0
LINE
5
B8
100
AcDbEntity
8
1
62
256
6
ByLayer
370
18
48
1
60
0
100
AcDbLine
10
0.5
20
5.552168
30
0
11
0.5
21
10.61352
31
0
39
0
210
0
220
0
230
1
0
LINE
5
B9
100
AcDbEntity
8
SK1
62
256
6
ByLayer
370
18
48
1
60
0
100
AcDbLine
10
0.126149
20
5.552168
30
0
11
0.5
21
5.552168
31
0
39
0
210
0
220
0
230
1
0
LINE
5
BA
100
AcDbEntity
8
SK1
62
256
6
ByLayer
370
18
48
1
60
0
100
AcDbLine
10
-0.324981
20
6.10077
30
0
11
-0.324981
21
5.89923
31
0
39
0
210
0
220
0
230
1
0
LINE
5
BB
100
AcDbEntity
8
SK1
62
256
6
ByLayer
370
18
48
1
60
0
100
AcDbLine
10
-0.324981
20
7.60077
30
0
11
-0.324981
21
7.39923
31
0
39
0
210
0
220
0
230
1
0
LINE
5
BC
100
AcDbEntity
8
SK1
62
256
6
ByLayer
370
18
48
1
60
0
100
AcDbLine
10
-0.324981
20
9.10077
30
0
11
-0.324981
21
8.89923
31
0
39
0
210
0
220
0
230
1
0
LINE
5
BD
100
AcDbEntity
8
1
62
256
6
ByLayer
370
18
48
1
60
0
100
AcDbLine
10
1.5
20
10.61352
30
0
11
0.5
21
10.61352
31
0
39
0
210
0
220
0
230
1
0
LINE
5
BE
100
AcDbEntity
8
1
62
256
6
ByLayer
370
18
48
1
60
0
100
AcDbLine
10
1.5
20
5.552168
30
0
11
0.5
21
5.552168
31
0
39
0
210
0
220
0
230
1
0
LINE
5
BF
100
AcDbEntity
8
SK1
62
256
6
ByLayer
370
18
48
1
60
0
100
AcDbLine
10
0.126149
20
-5.552168
30
0
11
0.5
21
-5.552168
31
0
39
0
210
0
220
0
230
1
0
LINE
5
C0
100
AcDbEntity
8
1
62
256
6
ByLayer
370
18
48
1
60
0
100
AcDbLine
10
0.5
20
-10.61352
30
0
11
0.5
21
-5.552168
31
0
39
0
210
0
220
0
230
1
0
LINE
5
C1
100
AcDbEntity
8
SK1
62
256
6
ByLayer
370
18
48
1
60
0
100
AcDbLine
10
-0.04697
20
-10.152118
30
0
11
0.5
21
-10.61352
31
0
39
0
210
0
220
0
230
1
0
LINE
5
C2
100
AcDbEntity
8
SK1
62
256
6
ByLayer
370
18
48
1
60
0
100
AcDbLine
10
-0.324981
20
-8.89923
30
0
11
-0.324981
21
-9.10077
31
0
39
0
210
0
220
0
230
1
0
LINE
5
C3
100
AcDbEntity
8
SK1
62
256
6
ByLayer
370
18
48
1
60
0
100
AcDbLine
10
-0.324981
20
-7.39923
30
0
11
-0.324981
21
-7.60077
31
0
39
0
210
0
220
0
230
1
0
LINE
5
C4
100
AcDbEntity
8
SK1
62
256
6
ByLayer
370
18
48
1
60
0
100
AcDbLine
10
-0.324981
20
-5.89923
30
0
11
-0.324981
21
-6.10077
31
0
39
0
210
0
220
0
230
1
0
LINE
5
C5
100
AcDbEntity
8
SK1
62
256
6
ByLayer
370
18
48
1
60
0
100
AcDbLine
10
-0.249981
20
-4.730673
30
0
11
0.342769
21
-5.072898
31
0
39
0
210
0
220
0
230
1
0
LINE
5
C6
100
AcDbEntity
8
SK1
62
256
6
ByLayer
370
18
48
1
60
0
100
AcDbLine
10
-0.324981
20
-4.39923
30
0
11
-0.324981
21
-4.60077
31
0
39
0
210
0
220
0
230
1
0
LINE
5
C7
100
AcDbEntity
8
SK1
62
256
6
ByLayer
370
18
48
1
60
0
100
AcDbLine
10
0.342769
20
-3.927102
30
0
11
-0.249981
21
-4.269327
31
0
39
0
210
0
220
0
230
1
0
LINE
5
C8
100
AcDbEntity
8
SK1
62
256
6
ByLayer
370
18
48
1
60
0
100
AcDbLine
10
-0.249981
20
-3.230673
30
0
11
0.342769
21
-3.572898
31
0
39
0
210
0
220
0
230
1
0
LINE
5
C9
100
AcDbEntity
8
SK1
62
256
6
ByLayer
370
18
48
1
60
0
100
AcDbLine
10
-0.324981
20
-2.89923
30
0
11
-0.324981
21
-3.10077
31
0
39
0
210
0
220
0
230
1
0
LINE
5
CA
100
AcDbEntity
8
SK1
62
256
6
ByLayer
370
18
48
1
60
0
100
AcDbLine
10
0.342769
20
-2.427102
30
0
11
-0.249981
21
-2.769327
31
0
39
0
210
0
220
0
230
1
0
LINE
5
CB
100
AcDbEntity
8
SK1
62
256
6
ByLayer
370
18
48
1
60
0
100
AcDbLine
10
-0.249981
20
-1.730673
30
0
11
0.342769
21
-2.072898
31
0
39
0
210
0
220
0
230
1
0
LINE
5
CC
100
AcDbEntity
8
SK1
62
256
6
ByLayer
370
18
48
1
60
0
100
AcDbLine
10
-0.324981
20
-1.39923
30
0
11
-0.324981
21
-1.60077
31
0
39
0
210
0
220
0
230
1
0
LINE
5
CD
100
AcDbEntity
8
SK1
62
256
6
ByLayer
370
18
48
1
60
0
100
AcDbLine
10
0.342769
20
-0.927102
30
0
11
-0.249981
21
-1.269327
31
0
39
0
210
0
220
0
230
1
0
LINE
5
CE
100
AcDbEntity
8
SK1
62
256
6
ByLayer
370
18
48
1
60
0
100
AcDbLine
10
-0.249981
20
-0.230673
30
0
11
0.342769
21
-0.572898
31
0
39
0
210
0
220
0
230
1
0
LINE
5
CF
100
AcDbEntity
8
SK1
62
256
6
ByLayer
370
18
48
1
60
0
100
AcDbLine
10
-0.324981
20
0.10077
30
0
11
-0.324981
21
-0.10077
31
0
39
0
210
0
220
0
230
1
0
LINE
5
D0
100
AcDbEntity
8
SK1
62
256
6
ByLayer
370
18
48
1
60
0
100
AcDbLine
10
-0.249981
20
0.230673
30
0
11
0.342769
21
0.572898
31
0
39
0
210
0
220
0
230
1
0
LINE
5
D1
100
AcDbEntity
8
SK1
62
256
6
ByLayer
370
18
48
1
60
0
100
AcDbLine
10
0.342769
20
0.927102
30
0
11
-0.249981
21
1.269327
31
0
39
0
210
0
220
0
230
1
0
LINE
5
D2
100
AcDbEntity
8
SK1
62
256
6
ByLayer
370
18
48
1
60
0
100
AcDbLine
10
-0.324981
20
1.60077
30
0
11
-0.324981
21
1.39923
31
0
39
0
210
0
220
0
230
1
0
LINE
5
D3
100
AcDbEntity
8
SK1
62
256
6
ByLayer
370
18
48
1
60
0
100
AcDbLine
10
-0.249981
20
1.730673
30
0
11
0.342769
21
2.072898
31
0
39
0
210
0
220
0
230
1
0
LINE
5
D4
100
AcDbEntity
8
SK1
62
256
6
ByLayer
370
18
48
1
60
0
100
AcDbLine
10
0.342769
20
2.427102
30
0
11
-0.249981
21
2.769327
31
0
39
0
210
0
220
0
230
1
0
LINE
5
D5
100
AcDbEntity
8
SK1
62
256
6
ByLayer
370
18
48
1
60
0
100
AcDbLine
10
-0.324981
20
3.10077
30
0
11
-0.324981
21
2.89923
31
0
39
0
210
0
220
0
230
1
0
LINE
5
D6
100
AcDbEntity
8
SK1
62
256
6
ByLayer
370
18
48
1
60
0
100
AcDbLine
10
-0.249981
20
3.230673
30
0
11
0.342769
21
3.572898
31
0
39
0
210
0
220
0
230
1
0
LINE
5
D7
100
AcDbEntity
8
SK1
62
256
6
ByLayer
370
18
48
1
60
0
100
AcDbLine
10
0.342769
20
3.927102
30
0
11
-0.249981
21
4.269327
31
0
39
0
210
0
220
0
230
1
0
LINE
5
D8
100
AcDbEntity
8
SK1
62
256
6
ByLayer
370
18
48
1
60
0
100
AcDbLine
10
-0.324981
20
4.60077
30
0
11
-0.324981
21
4.39923
31
0
39
0
210
0
220
0
230
1
0
LINE
5
D9
100
AcDbEntity
8
SK1
62
256
6
ByLayer
370
18
48
1
60
0
100
AcDbLine
10
-0.249981
20
4.730673
30
0
11
0.342769
21
5.072898
31
0
39
0
210
0
220
0
230
1
0
LINE
5
DA
100
AcDbEntity
8
SK1
62
256
6
ByLayer
370
18
48
1
60
0
100
AcDbLine
10
0.342769
20
5.427102
30
0
11
0.126149
21
5.552168
31
0
39
0
210
0
220
0
230
1
0
LINE
5
DB
100
AcDbEntity
8
1
62
256
6
ByLayer
370
18
48
1
60
0
100
AcDbLine
10
0.5
20
-5.552168
30
0
11
0.5
21
5.552168
31
0
39
0
210
0
220
0
230
1
0
LINE
5
DC
100
AcDbEntity
8
SK1
62
256
6
ByLayer
370
18
48
1
60
0
100
AcDbLine
10
0.342769
20
-5.427102
30
0
11
0.126149
21
-5.552168
31
0
39
0
210
0
220
0
230
1
0
LINE
5
DD
100
AcDbEntity
8
1
62
256
6
ByLayer
370
18
48
1
60
0
100
AcDbLine
10
13.94995
20
-5.552168
30
0
11
0.5
21
-5.552168
31
0
39
0
210
0
220
0
230
1
0
LINE
5
DE
100
AcDbEntity
8
1
62
256
6
ByLayer
370
18
48
1
60
0
100
AcDbLine
10
14.546819
20
-10.61352
30
0
11
0.5
21
-10.61352
31
0
39
0
210
0
220
0
230
1
0
LINE
5
DF
100
AcDbEntity
8
1
62
256
6
ByLayer
370
18
48
1
60
0
100
AcDbLine
10
1.5
20
7.1
30
0
11
1.5
21
5.552168
31
0
39
0
210
0
220
0
230
1
0
LINE
5
E0
100
AcDbEntity
8
1
62
256
6
ByLayer
370
18
48
1
60
0
100
AcDbLine
10
2.17
20
17.009172
30
0
11
2.17
21
10.521947
31
0
39
0
210
0
220
0
230
1
0
LINE
5
E1
100
AcDbEntity
8
1
62
256
6
ByLayer
370
18
48
1
60
0
100
AcDbLine
10
2.17
20
17.009172
30
0
11
1.5
21
17.009172
31
0
39
0
210
0
220
0
230
1
0
LINE
5
E2
100
AcDbEntity
8
1
62
256
6
ByLayer
370
18
48
1
60
0
100
AcDbLine
10
1.5
20
10.521947
30
0
11
1.5
21
17.009172
31
0
39
0
210
0
220
0
230
1
0
LINE
5
E3
100
AcDbEntity
8
1
62
256
6
ByLayer
370
18
48
1
60
0
100
AcDbLine
10
16.002915
20
15.445794
30
0
11
2.941309
21
15.445794
31
0
39
0
210
0
220
0
230
1
0
LINE
5
E4
100
AcDbEntity
8
1
62
256
6
ByLayer
370
18
48
1
60
0
100
AcDbLine
10
0.5
20
10.61352
30
0
11
0.5
21
16.803804
31
0
39
0
210
0
220
0
230
1
0
LINE
5
E5
100
AcDbEntity
8
1
62
256
6
ByLayer
370
18
48
1
60
0
100
AcDbLine
10
1.5
20
16.803804
30
0
11
0.5
21
16.803804
31
0
39
0
210
0
220
0
230
1
0
LINE
5
E6
100
AcDbEntity
8
SK1
62
256
6
ByLayer
370
18
48
1
60
0
100
AcDbLine
10
-0.324981
20
10.60077
30
0
11
-0.324981
21
10.39923
31
0
39
0
210
0
220
0
230
1
0
LINE
5
E7
100
AcDbEntity
8
SK1
62
256
6
ByLayer
370
18
48
1
60
0
100
AcDbLine
10
-0.324981
20
12.10077
30
0
11
-0.324981
21
11.89923
31
0
39
0
210
0
220
0
230
1
0
LINE
5
E8
100
AcDbEntity
8
SK1
62
256
6
ByLayer
370
18
48
1
60
0
100
AcDbLine
10
-0.324981
20
13.60077
30
0
11
-0.324981
21
13.39923
31
0
39
0
210
0
220
0
230
1
0
LINE
5
E9
100
AcDbEntity
8
SK1
62
256
6
ByLayer
370
18
48
1
60
0
100
AcDbLine
10
-0.324981
20
15.10077
30
0
11
-0.324981
21
14.89923
31
0
39
0
210
0
220
0
230
1
0
LINE
5
EA
100
AcDbEntity
8
1
62
256
6
ByLayer
370
18
48
1
60
0
100
AcDbLine
10
0.5
20
-20
30
0
11
10
21
-20
31
0
39
0
210
0
220
0
230
1
0
LINE
5
EB
100
AcDbEntity
8
1
62
256
6
ByLayer
370
18
48
1
60
0
100
AcDbLine
10
15.756497
20
-14.243503
30
0
11
10
21
-20
31
0
39
0
210
0
220
0
230
1
0
LINE
5
EC
100
AcDbEntity
8
1
62
256
6
ByLayer
370
18
48
1
60
0
100
AcDbLine
10
0.5
20
-20
30
0
11
0.5
21
-10.61352
31
0
39
0
210
0
220
0
230
1
0
LINE
5
ED
100
AcDbEntity
8
SK1
62
256
6
ByLayer
370
18
48
1
60
0
100
AcDbLine
10
-0.237236
20
-19.262764
30
0
11
0.5
21
-20
31
0
39
0
210
0
220
0
230
1
0
LINE
5
EE
100
AcDbEntity
8
SK1
62
256
6
ByLayer
370
18
48
1
60
0
100
AcDbLine
10
-0.324981
20
-17.89923
30
0
11
-0.324981
21
-18.10077
31
0
39
0
210
0
220
0
230
1
0
LINE
5
EF
100
AcDbEntity
8
SK1
62
256
6
ByLayer
370
18
48
1
60
0
100
AcDbLine
10
-0.324981
20
-16.39923
30
0
11
-0.324981
21
-16.60077
31
0
39
0
210
0
220
0
230
1
0
LINE
5
F0
100
AcDbEntity
8
SK1
62
256
6
ByLayer
370
18
48
1
60
0
100
AcDbLine
10
-0.324981
20
-14.89923
30
0
11
-0.324981
21
-15.10077
31
0
39
0
210
0
220
0
230
1
0
LINE
5
F1
100
AcDbEntity
8
SK1
62
256
6
ByLayer
370
18
48
1
60
0
100
AcDbLine
10
-0.324981
20
-13.39923
30
0
11
-0.324981
21
-13.60077
31
0
39
0
210
0
220
0
230
1
0
LINE
5
F2
100
AcDbEntity
8
SK1
62
256
6
ByLayer
370
18
48
1
60
0
100
AcDbLine
10
-0.324981
20
-11.89923
30
0
11
-0.324981
21
-12.10077
31
0
39
0
210
0
220
0
230
1
0
LINE
5
F3
100
AcDbEntity
8
SK1
62
256
6
ByLayer
370
18
48
1
60
0
100
AcDbLine
10
-0.324981
20
-10.39923
30
0
11
-0.324981
21
-10.60077
31
0
39
0
210
0
220
0
230
1
0
LINE
5
F4
100
AcDbEntity
8
1
62
256
6
ByLayer
370
18
48
1
60
0
100
AcDbLine
10
15.957976
20
-14.042024
30
0
11
16.500454
21
-13.499546
31
0
39
0
210
0
220
0
230
1
0
LINE
5
F5
100
AcDbEntity
8
1
62
256
6
ByLayer
370
18
48
1
60
0
100
AcDbLine
10
3.77
20
18.730109
30
0
11
3.77
21
18.088771
31
0
39
0
210
0
220
0
230
1
0
LINE
5
F6
100
AcDbEntity
8
1
62
256
6
ByLayer
370
18
48
1
60
0
100
AcDbLine
10
16.449077
20
18.730109
30
0
11
3.77
21
18.730109
31
0
39
0
210
0
220
0
230
1
0
LINE
5
F7
100
AcDbEntity
8
1
62
256
6
ByLayer
370
18
48
1
60
0
100
AcDbLine
10
3.77
20
21.319501
30
0
11
16.506284
21
21.319501
31
0
39
0
210
0
220
0
230
1
0
LINE
5
F8
100
AcDbEntity
8
1
62
256
6
ByLayer
370
18
48
1
60
0
100
AcDbLine
10
3.77
20
23.199274
30
0
11
3.77
21
21.319501
31
0
39
0
210
0
220
0
230
1
0
LINE
5
F9
100
AcDbEntity
8
1
62
256
6
ByLayer
370
18
48
1
60
0
100
AcDbLine
10
7.27
20
25.65
30
0
11
3.77
21
23.199274
31
0
39
0
210
0
220
0
230
1
0
LINE
5
FA
100
AcDbEntity
8
1
62
256
6
ByLayer
370
18
48
1
60
0
100
AcDbLine
10
11.880552
20
25.65
30
0
11
7.27
21
25.65
31
0
39
0
210
0
220
0
230
1
0
LINE
5
FB
100
AcDbEntity
8
1
62
256
6
ByLayer
370
18
48
1
60
0
100
AcDbLine
10
13.493716
20
49.802668
30
0
11
13.493716
21
27.25
31
0
39
0
210
0
220
0
230
1
0
LINE
5
FC
100
AcDbEntity
8
1
62
256
6
ByLayer
370
18
48
1
60
0
100
AcDbLine
10
16.506284
20
49.802668
30
0
11
13.493716
21
49.802668
31
0
39
0
210
0
220
0
230
1
0
LINE
5
FD
100
AcDbEntity
8
1
62
256
6
ByLayer
370
18
48
1
60
0
100
AcDbLine
10
13.059808
20
51.003751
30
0
11
16.940192
21
51.003751
31
0
39
0
210
0
220
0
230
1
0
LINE
5
FE
100
AcDbEntity
8
1
62
256
6
ByLayer
370
18
48
1
60
0
100
AcDbLine
10
13.493716
20
27.25
30
0
11
12.25
21
27.25
31
0
39
0
210
0
220
0
230
1
0
LINE
5
FF
100
AcDbEntity
8
1
62
256
6
ByLayer
370
18
48
1
60
0
100
AcDbLine
10
17.567933
20
7.693184
30
0
11
17.398212
21
7.693184
31
0
39
0
210
0
220
0
230
1
0
LINE
5
100
100
AcDbEntity
8
SK1
62
256
6
ByLayer
370
18
48
1
60
0
100
AcDbLine
10
0.5
20
16.803737
30
0
11
0.5
21
17.462705
31
0
39
0
210
0
220
0
230
1
0
LINE
5
101
100
AcDbEntity
8
1
62
256
6
ByLayer
370
18
48
1
60
0
100
AcDbLine
10
0.5
20
17.462705
30
0
11
1.5
21
17.462705
31
0
39
0
210
0
220
0
230
1
0
LINE
5
102
100
AcDbEntity
8
1
62
256
6
ByLayer
370
18
48
1
60
0
100
AcDbLine
10
1.5
20
17.671107
30
0
11
1.5
21
17.462705
31
0
39
0
210
0
220
0
230
1
0
LINE
5
103
100
AcDbEntity
8
1
62
256
6
ByLayer
370
18
48
1
60
0
100
AcDbLine
10
1.5
20
17.671107
30
0
11
2.17
21
17.671107
31
0
39
0
210
0
220
0
230
1
0
LINE
5
104
100
AcDbEntity
8
1
62
256
6
ByLayer
370
18
48
1
60
0
100
AcDbLine
10
3.77
20
19.001223
30
0
11
3.77
21
21.319501
31
0
39
0
210
0
220
0
230
1
0
LINE
5
105
100
AcDbEntity
8
1
62
256
6
ByLayer
370
18
48
1
60
0
100
AcDbLine
10
12.25
20
27.25
30
0
11
12.25
21
57.265892
31
0
39
0
210
0
220
0
230
1
0
LINE
5
106
100
AcDbEntity
8
1
62
256
6
ByLayer
370
18
48
1
60
0
100
AcDbLine
10
2.17
20
20.24976
30
0
11
2.17
21
17.671107
31
0
39
0
210
0
220
0
230
1
0
LINE
5
107
100
AcDbEntity
8
1
62
256
6
ByLayer
370
18
48
1
60
0
100
AcDbLine
10
1.5
20
17.671107
30
0
11
1.5
21
20.24976
31
0
39
0
210
0
220
0
230
1
0
LINE
5
108
100
AcDbEntity
8
1
62
256
6
ByLayer
370
18
48
1
60
0
100
AcDbLine
10
2.17
20
20.24976
30
0
11
1.5
21
20.24976
31
0
39
0
210
0
220
0
230
1
0
LINE
5
109
100
AcDbEntity
8
1
62
256
6
ByLayer
370
18
48
1
60
0
100
AcDbLine
10
0.5
20
17.462705
30
0
11
0.5
21
19.99974
31
0
39
0
210
0
220
0
230
1
0
LINE
5
10A
100
AcDbEntity
8
1
62
256
6
ByLayer
370
18
48
1
60
0
100
AcDbLine
10
1.5
20
19.99974
30
0
11
0.5
21
19.99974
31
0
39
0
210
0
220
0
230
1
0
LINE
5
10B
100
AcDbEntity
8
1
62
256
6
ByLayer
370
18
48
1
60
0
100
AcDbLine
10
12.783698
20
52.972101
30
0
11
17.216302
21
52.972101
31
0
39
0
210
0
220
0
230
1
0
LINE
5
10C
100
AcDbEntity
8
1
62
256
6
ByLayer
370
18
48
1
60
0
100
AcDbLine
10
12.876156
20
55.267875
30
0
11
12.357299
21
55.267875
31
0
39
0
210
0
220
0
230
1
0
LINE
5
10D
100
AcDbEntity
8
1
62
256
6
ByLayer
370
18
48
1
60
0
100
AcDbLine
10
17.642701
20
55.267875
30
0
11
15.444584
21
55.267875
31
0
39
0
210
0
220
0
230
1
0
LINE
5
10E
100
AcDbEntity
8
1
62
256
6
ByLayer
370
18
48
1
60
0
100
AcDbLine
10
12.25
20
57.677702
30
0
11
12.25
21
57.265892
31
0
39
0
210
0
220
0
230
1
0
LINE
5
10F
100
AcDbEntity
8
1
62
256
6
ByLayer
370
18
48
1
60
0
100
AcDbLine
10
12.812393
20
57.677702
30
0
11
12.25
21
57.677702
31
0
39
0
210
0
220
0
230
1
0
LINE
5
110
100
AcDbEntity
8
1
62
256
6
ByLayer
370
18
48
1
60
0
100
AcDbLine
10
17.75
20
57.265892
30
0
11
17.75
21
57.677702
31
0
39
0
210
0
220
0
230
1
0
LINE
5
111
100
AcDbEntity
8
1
62
256
6
ByLayer
370
18
48
1
60
0
100
AcDbLine
10
17.75
20
57.677702
30
0
11
15.040172
21
57.677702
31
0
39
0
210
0
220
0
230
1
0
LINE
5
112
100
AcDbEntity
8
1
62
256
6
ByLayer
370
18
48
1
60
0
100
AcDbLine
10
12.25
20
62.077036
30
0
11
13.798262
21
62.50504
31
0
39
0
210
0
220
0
230
1
0
LINE
5
113
100
AcDbEntity
8
1
62
256
6
ByLayer
370
18
48
1
60
0
100
AcDbLine
10
14.725
20
62.990588
30
0
11
15.275
21
62.990588
31
0
39
0
210
0
220
0
230
1
0
LINE
5
114
100
AcDbEntity
8
1
62
256
6
ByLayer
370
18
48
1
60
0
100
AcDbLine
10
16.201738
20
62.50504
30
0
11
17.75
21
62.077036
31
0
39
0
210
0
220
0
230
1
0
LINE
5
115
100
AcDbEntity
8
1
62
256
6
ByLayer
370
18
48
1
60
0
100
AcDbLine
10
12.25
20
62.077036
30
0
11
12.25
21
57.677702
31
0
39
0
210
0
220
0
230
1
0
LINE
5
116
100
AcDbEntity
8
1
62
256
6
ByLayer
370
18
48
1
60
0
100
AcDbLine
10
17.75
20
57.677702
30
0
11
17.75
21
62.077036
31
0
39
0
210
0
220
0
230
1
0
LINE
5
117
100
AcDbEntity
8
SK1
62
256
6
ByLayer
370
18
48
1
60
0
100
AcDbLine
10
-0.249981
20
16.269327
30
0
11
-0.22967
21
16.2576
31
0
39
0
210
0
220
0
230
1
0
LINE
5
118
100
AcDbEntity
8
SK1
62
256
6
ByLayer
370
18
48
1
60
0
100
AcDbLine
10
-0.324981
20
16.39923
30
0
11
-0.324981
21
16.60077
31
0
39
0
210
0
220
0
230
1
0
LINE
5
119
100
AcDbEntity
8
SK1
62
256
6
ByLayer
370
18
48
1
60
0
100
AcDbLine
10
0.342769
20
17.072898
30
0
11
-0.249981
21
16.730673
31
0
39
0
210
0
220
0
230
1
0
LINE
5
11A
100
AcDbEntity
8
SK1
62
256
6
ByLayer
370
18
48
1
60
0
100
AcDbLine
10
-0.249981
20
17.769327
30
0
11
0.342769
21
17.427102
31
0
39
0
210
0
220
0
230
1
0
LINE
5
11B
100
AcDbEntity
8
SK1
62
256
6
ByLayer
370
18
48
1
60
0
100
AcDbLine
10
-0.324981
20
17.89923
30
0
11
-0.324981
21
18.10077
31
0
39
0
210
0
220
0
230
1
0
LINE
5
11C
100
AcDbEntity
8
SK1
62
256
6
ByLayer
370
18
48
1
60
0
100
AcDbLine
10
0.342769
20
18.572898
30
0
11
-0.249981
21
18.230673
31
0
39
0
210
0
220
0
230
1
0
LINE
5
11D
100
AcDbEntity
8
SK1
62
256
6
ByLayer
370
18
48
1
60
0
100
AcDbLine
10
-0.220323
20
19.252203
30
0
11
0.342769
21
18.927102
31
0
39
0
210
0
220
0
230
1
0
LINE
5
11E
100
AcDbEntity
8
1
62
256
6
ByLayer
370
18
48
1
60
0
100
AcDbLine
10
12.25
20
63.961973
30
0
11
12.400028
21
63.961527
31
0
39
0
210
0
220
0
230
1
0
LINE
5
11F
100
AcDbEntity
8
1
62
256
6
ByLayer
370
18
48
1
60
0
100
AcDbLine
10
12.25
20
65.315285
30
0
11
12.25
21
63.961973
31
0
39
0
210
0
220
0
230
1
0
LINE
5
120
100
AcDbEntity
8
1
62
256
6
ByLayer
370
18
48
1
60
0
100
AcDbLine
10
12.25
20
63.961973
30
0
11
12.25
21
62.07706
31
0
39
0
210
0
220
0
230
1
0
LINE
5
121
100
AcDbEntity
8
1
62
256
6
ByLayer
370
18
48
1
60
0
100
AcDbLine
10
17.599972
20
63.961527
30
0
11
17.75
21
63.961973
31
0
39
0
210
0
220
0
230
1
0
LINE
5
122
100
AcDbEntity
8
1
62
256
6
ByLayer
370
18
48
1
60
0
100
AcDbLine
10
17.75
20
62.07706
30
0
11
17.75
21
63.961973
31
0
39
0
210
0
220
0
230
1
0
LINE
5
123
100
AcDbEntity
8
1
62
256
6
ByLayer
370
18
48
1
60
0
100
AcDbLine
10
17.75
20
63.961973
30
0
11
17.75
21
65.315285
31
0
39
0
210
0
220
0
230
1
0
LINE
5
124
100
AcDbEntity
8
SK4
62
256
6
ByLayer
370
13
48
0.05
60
0
100
AcDbLine
10
-12.824981
20
0
30
0
11
21.175019
21
0
31
0
39
0
210
0
220
0
230
1
0
LINE
5
126
100
AcDbEntity
8
4
62
256
6
ByLayer
370
13
48
0.05
60
0
100
AcDbLine
10
-3.824981
20
0
30
0
11
22.175019
21
0
31
0
39
0
210
0
220
0
230
1
0
LINE
5
128
100
AcDbEntity
8
80
62
256
6
ByLayer
370
18
48
1
60
0
100
AcDbLine
10
0
20
0
30
0
11
-9.3
21
0
31
0
39
0
210
0
220
0
230
1
0
LINE
5
129
100
AcDbEntity
8
81
62
256
6
ByLayer
370
18
48
1
60
0
100
AcDbLine
10
18.040846
20
71
30
0
11
18.040846
21
76.27315
31
0
39
0
210
0
220
0
230
1
0
MTEXT
5
1E0
100
AcDbEntity
8
SK6
62
256
6
ByLayer
370
18
48
1
60
0
100
AcDbMText
10
-15.561722
20
-48.958686
30
0
210
0
220
0
230
1
1
\W0.7689;SL70-R123K45A-HP
40
3.175
41
0
44
1.084337
50
0
71
7
72
5
7
iso_b_vert
0
DIMENSION
5
1F2
100
AcDbEntity
8
2
62
256
6
ByLayer
370
13
48
1
60
0
100
AcDbDimension
2
DimnDraft3D1
10
0
20
101.868305
30
0
11
9.020423
21
101.868305
31
0
70
32
71
5
72
1
41
1
210
0
220
0
230
1
3
Standard
100
AcDbAlignedDimension
13
18.040846
23
72.5875
33
0
14
0
24
1.5875
34
0
50
0
100
AcDbRotatedDimension
1001
ACAD
1000
DSTYLE
1002
{
1070
   279
1070
     0
1070
   172
1070
     1
1070
   173
1070
     1
1070
   340
1005
1E1
1070
   271
1070
     1
1070
   272
1070
     2
1070
    77
1070
     1
1070
    73
1070
     0
1070
   171
1070
     3
1070
   274
1070
     4
1070
   177
1070
     7
1070
   176
1070
     7
1070
   178
1070
     7
1070
    78
1070
     8
1070
    48
1040
-0.005
1070
    41
1041
3.175
1070
   147
1041
1.75006
1070
    42
1041
1.5875
1070
    44
1041
3.175
1070
   140
1041
3.50012
1070
   343
1005
0
1070
   344
1005
0
1002
}
0
DIMENSION
5
200
100
AcDbEntity
8
2
62
256
6
ByLayer
370
13
48
1
60
0
100
AcDbDimension
2
DimnDraft3D2
10
32.730353
20
0
30
0
11
32.730353
21
35.5
31
0
70
32
71
5
72
1
41
1
210
0
220
0
230
1
3
Standard
100
AcDbAlignedDimension
13
19.628346
23
71
33
0
14
1.5875
24
0
34
0
50
90
100
AcDbRotatedDimension
1001
ACAD
1000
DSTYLE
1002
{
1070
    74
1070
     0
1070
   279
1070
     0
1070
   172
1070
     1
1070
   173
1070
     1
1070
   340
1005
1E1
1070
   271
1070
     1
1070
   272
1070
     2
1070
    77
1070
     1
1070
    73
1070
     0
1070
   171
1070
     3
1070
   274
1070
     4
1070
   177
1070
     7
1070
   176
1070
     7
1070
   178
1070
     7
1070
    78
1070
     8
1070
    48
1040
-0.005
1070
    41
1041
3.175
1070
   147
1041
1.75006
1070
    42
1041
1.5875
1070
    44
1041
3.175
1070
   140
1041
3.50012
1070
   343
1005
0
1070
   344
1005
0
1002
}
0
DIMENSION
5
20F
100
AcDbEntity
8
SK2
62
256
6
ByLayer
370
13
48
1
60
0
100
AcDbDimension
2
DimnDraft3D3
10
-17.061494
20
-20
30
0
11
-17.061494
21
-0.00013
31
0
70
32
71
5
72
1
41
1
210
0
220
0
230
1
3
Standard
100
AcDbAlignedDimension
13
-1.0875
23
19.99974
33
0
14
-1.0875
24
-20
34
0
50
90
100
AcDbRotatedDimension
1001
ACAD
1000
DSTYLE
1002
{
1070
    74
1070
     0
1070
   279
1070
     0
1070
   172
1070
     1
1070
   173
1070
     1
1070
   340
1005
1E1
1070
   271
1070
     1
1070
   272
1070
     2
1070
    77
1070
     1
1070
    73
1070
     0
1070
   171
1070
     3
1070
   274
1070
     4
1070
   177
1070
     7
1070
   176
1070
     7
1070
   178
1070
     7
1070
    78
1070
     8
1070
    48
1040
-0.005
1070
    41
1041
3.175
1070
   147
1041
1.75006
1070
    42
1041
1.5875
1070
    44
1041
3.175
1070
   140
1041
3.50012
1070
   343
1005
0
1070
   344
1005
0
1002
}
0
DIMENSION
5
21D
100
AcDbEntity
8
SK2
62
256
6
ByLayer
370
13
48
1
60
0
100
AcDbDimension
2
DimnDraft3D4
10
-16.085022
20
25.65
30
0
11
-16.085022
21
48.325
31
0
70
32
71
5
72
1
41
1
210
0
220
0
230
1
3
Standard
100
AcDbAlignedDimension
13
16.453346
23
71
33
0
14
5.6825
24
25.65
34
0
50
90
100
AcDbRotatedDimension
1001
ACAD
1000
DSTYLE
1002
{
1070
    74
1070
     0
1070
   279
1070
     0
1070
   172
1070
     1
1070
   173
1070
     1
1070
   340
1005
1E1
1070
   271
1070
     1
1070
   272
1070
     2
1070
    77
1070
     1
1070
    73
1070
     0
1070
   171
1070
     3
1070
   274
1070
     4
1070
   177
1070
     7
1070
   176
1070
     7
1070
   178
1070
     7
1070
    78
1070
     8
1070
    48
1040
-0.005
1070
    41
1041
3.175
1070
   147
1041
1.75006
1070
    42
1041
1.5875
1070
    44
1041
3.175
1070
   140
1041
3.50012
1070
   343
1005
0
1070
   344
1005
0
1002
}
0
ENDSEC
0
SECTION
2
OBJECTS
0
DICTIONARY
5
288
330
0
100
AcDbDictionary
280
0
281
1
3
ACAD_GROUP
350
289
3
ACAD_MLINESTYLE
350
28a
0
DICTIONARY
5
289
330
0
100
AcDbDictionary
280
0
281
1
0
DICTIONARY
5
28a
330
0
100
AcDbDictionary
280
0
281
1
3
Standard
350
18
0
MLINESTYLE
5
18
330
28a
100
AcDbMlineStyle
2
Standard
70
0
3

62
256
51
90
52
90
71
2
49
-0.5
62
256
6
ByLayer
49
0.5
62
256
6
ByLayer
0
RASTERVARIABLES
5
276
330

100
AcDbRasterVariables
90
0
70
1
71
1
72
1
0
ENDSEC
0
EOF
