0
SECTION
2
HEADER
9
$ACADVER
1
AC1015
9
$DWGCODEPAGE
3
ANSI_1252
9
$HANDSEED
5
2a3
9
$ANGBASE
50
0
9
$ANGDIR
70
0
9
$ATTMODE
70
1
9
$AUNITS
70
0
9
$AUPREC
70
0
9
$CECOLOR
62
256
9
$CELTSCALE
40
1
9
$CELTYPE
6
ByLayer
9
$CELWEIGHT
370
18
9
$CLAYER
8
0
9
$CMLJUST
70
0
9
$CMLSCALE
40
1
9
$CMLSTYLE
2
Standard
9
$DIMSTYLE
2
Standard
9
$TEXTSIZE
40
0.2
9
$TEXTSTYLE
7
Standard
9
$LUNITS
70
2
9
$LUPREC
70
4
9
$EXTNAMES
290
1
9
$INSUNITS
70
4
9
$LTSCALE
40
1
9
$LWDISPLAY
290
1
9
$PDMODE
70
0
9
$PDSIZE
40
0
9
$PLINEGEN
70
0
0
ENDSEC
0
SECTION
2
CLASSES
0
CLASS
1
RASTERVARIABLES
2
AcDbRasterVariables
3
ISM
90
0
280
0
281
0
0
ENDSEC
0
SECTION
2
TABLES
0
TABLE
2
VPORT
5
299
100
AcDbSymbolTable
0
VPORT
5
1
100
AcDbSymbolTableRecord
100
AcDbViewportTableRecord
2
*Active
70
0
10
0
20
0
11
1
21
1
12
-1
22
1
13
0
23
0
14
0.5
24
0.5
15
10
25
10
16
0
26
0
36
1
17
0
27
0
37
0
0
ENDTAB
0
TABLE
2
LTYPE
5
29a
100
AcDbSymbolTable
0
LTYPE
5
14
100
AcDbSymbolTableRecord
100
AcDbLinetypeTableRecord
70
0
2
ByBlock
3

72
65
73
0
40
0
0
LTYPE
5
15
100
AcDbSymbolTableRecord
100
AcDbLinetypeTableRecord
70
0
2
ByLayer
3

72
65
73
0
40
0
0
LTYPE
5
16
100
AcDbSymbolTableRecord
100
AcDbLinetypeTableRecord
70
0
2
CONTINUOUS
3
Solid line
72
65
73
0
40
0
0
LTYPE
5
6A
100
AcDbSymbolTableRecord
100
AcDbLinetypeTableRecord
70
0
2
CENTER
3
____ _ ____ _ ____ _ ____
72
65
73
4
40
47.5
49
22
74
0
49
-8.5
74
0
49
8.5
74
0
49
-8.5
74
0
0
LTYPE
5
6B
100
AcDbSymbolTableRecord
100
AcDbLinetypeTableRecord
70
0
2
DASHED
3
__ __ __ __ __ __ __ __ __
72
65
73
2
40
25.72
49
12.86
74
0
49
-12.86
74
0
0
ENDTAB
0
TABLE
2
LAYER
5
29b
100
AcDbSymbolTable
0
LAYER
5
10
100
AcDbSymbolTableRecord
100
AcDbLayerTableRecord
2
0
70
0
62
7
6
CONTINUOUS
290
1
370
-3
390
0
0
LAYER
5
6D
100
AcDbSymbolTableRecord
100
AcDbLayerTableRecord
2
1
70
0
62
4
6
CONTINUOUS
290
1
370
-3
390
0
0
LAYER
5
74
100
AcDbSymbolTableRecord
100
AcDbLayerTableRecord
2
80
70
0
62
-6
6
CONTINUOUS
290
1
370
-3
390
0
0
LAYER
5
76
100
AcDbSymbolTableRecord
100
AcDbLayerTableRecord
2
81
70
0
62
-3
6
CONTINUOUS
290
1
370
-3
390
0
0
LAYER
5
12E
100
AcDbSymbolTableRecord
100
AcDbLayerTableRecord
2
4
70
0
62
-2
6
CENTER
290
1
370
-3
390
0
0
LAYER
5
1ED
100
AcDbSymbolTableRecord
100
AcDbLayerTableRecord
2
2
70
0
62
7
6
CONTINUOUS
290
1
370
-3
390
0
0
LAYER
5
285
100
AcDbSymbolTableRecord
100
AcDbLayerTableRecord
2
SK1
70
0
62
4
6
CONTINUOUS
290
1
370
-3
390
0
0
LAYER
5
286
100
AcDbSymbolTableRecord
100
AcDbLayerTableRecord
2
SK4
70
0
62
2
6
CENTER
290
1
370
-3
390
0
0
LAYER
5
287
100
AcDbSymbolTableRecord
100
AcDbLayerTableRecord
2
SK6
70
0
62
5
6
CONTINUOUS
290
1
370
-3
390
0
0
LAYER
5
288
100
AcDbSymbolTableRecord
100
AcDbLayerTableRecord
2
SK2
70
0
62
7
6
CONTINUOUS
290
1
370
-3
390
0
0
ENDTAB
0
TABLE
2
STYLE
5
29c
100
AcDbSymbolTable
0
STYLE
5
11
100
AcDbSymbolTableRecord
100
AcDbTextStyleTableRecord
2
Standard
3
txt
70
0
71
0
40
0
41
1
42
0
50
0
0
STYLE
5
1E8
100
AcDbSymbolTableRecord
100
AcDbTextStyleTableRecord
2
iso_b_vert
3
simplex.shx
70
0
71
0
40
0
41
1
42
0
50
0
0
STYLE
5
1E9
100
AcDbSymbolTableRecord
100
AcDbTextStyleTableRecord
2
DWGDirectTextStyle
3
simplex
70
0
71
0
40
0
41
1
42
0
50
0
0
ENDTAB
0
TABLE
2
DIMSTYLE
5
29d
100
AcDbSymbolTable
100
AcDbDimStyleTable
0
DIMSTYLE
105
27
100
AcDbSymbolTableRecord
100
AcDbDimStyleTableRecord
2
Standard
70
0
3
<>
41
0.18
42
0.0625
44
0.18
140
0.18
147
0.09
73
0
74
0
77
1
271
2
275
0
278
52
280
0
340
11
0
ENDTAB
0
TABLE
2
VIEW
5
29e
100
AcDbSymbolTable
0
ENDTAB
0
TABLE
2
UCS
5
29f
100
AcDbSymbolTable
0
ENDTAB
0
TABLE
2
APPID
5
2a0
100
AcDbSymbolTable
0
APPID
5
12
100
AcDbSymbolTableRecord
100
AcDbRegAppTableRecord
2
ACAD
70
0
0
ENDTAB
0
TABLE
2
BLOCK_RECORD
5
2a1
100
AcDbSymbolTable
0
BLOCK_RECORD
5
1F
100
AcDbSymbolTableRecord
100
AcDbBlockTableRecord
2
*Model_Space
340
0
70
0
0
BLOCK_RECORD
5
1B
100
AcDbSymbolTableRecord
100
AcDbBlockTableRecord
2
*Paper_Space
340
0
70
0
0
BLOCK_RECORD
5
23
100
AcDbSymbolTableRecord
100
AcDbBlockTableRecord
2
*Paper_Space0
340
0
70
0
0
BLOCK_RECORD
5
1EB
100
AcDbSymbolTableRecord
100
AcDbBlockTableRecord
2
DimnDraft3D1
340
0
70
0
0
BLOCK_RECORD
5
1FA
100
AcDbSymbolTableRecord
100
AcDbBlockTableRecord
2
DimnDraft3D2
340
0
70
0
0
BLOCK_RECORD
5
209
100
AcDbSymbolTableRecord
100
AcDbBlockTableRecord
2
_CLOSED
340
0
70
0
0
BLOCK_RECORD
5
210
100
AcDbSymbolTableRecord
100
AcDbBlockTableRecord
2
DimnDraft3D3
340
0
70
0
0
BLOCK_RECORD
5
21E
100
AcDbSymbolTableRecord
100
AcDbBlockTableRecord
2
DimnDraft3D4
340
0
70
0
0
ENDTAB
0
ENDSEC
0
SECTION
2
BLOCKS
0
BLOCK
5
20
100
AcDbEntity
8
0
100
AcDbBlockBegin
2
*Model_Space
70
0
10
0
20
0
30
0
3
*Model_Space
0
ENDBLK
5
21
100
AcDbEntity
8
0
100
AcDbBlockEnd
0
BLOCK
5
1C
100
AcDbEntity
8
0
100
AcDbBlockBegin
2
*Paper_Space
70
0
10
0
20
0
30
0
3
*Paper_Space
0
ENDBLK
5
1D
100
AcDbEntity
8
0
100
AcDbBlockEnd
0
BLOCK
5
24
100
AcDbEntity
8
0
100
AcDbBlockBegin
2
*Paper_Space0
70
0
10
0
20
0
30
0
3
*Paper_Space0
0
ENDBLK
5
25
100
AcDbEntity
8
0
100
AcDbBlockEnd
0
BLOCK
5
1F7
100
AcDbEntity
8
0
100
AcDbBlockBegin
2
DimnDraft3D1
70
0
10
0
20
0
30
0
3
DimnDraft3D1
0
MTEXT
5
1EC
100
AcDbEntity
8
2
62
256
6
ByLayer
370
18
48
1
60
0
100
AcDbMText
10
29.865109
20
28.669777
30
0
210
0
220
0
230
1
1
\W0.6562;55
40
3.50012
41
0
44
1.084337
50
270
71
7
72
5
7
iso_b_vert
0
LINE
5
1EE
100
AcDbEntity
8
2
62
256
6
ByLayer
370
13
48
1
60
0
100
AcDbLine
10
1.5875
20
0
30
0
11
32.165079
21
0
31
0
39
0
210
0
220
0
230
1
0
LINE
5
1EF
100
AcDbEntity
8
2
62
256
6
ByLayer
370
13
48
1
60
0
100
AcDbLine
10
15.5875
20
55
30
0
11
32.165079
21
55
31
0
39
0
210
0
220
0
230
1
0
LINE
5
1F0
100
AcDbEntity
8
2
62
256
6
ByLayer
370
13
48
1
60
0
100
AcDbLine
10
28.990079
20
0
30
0
11
28.990079
21
55
31
0
39
0
210
0
220
0
230
1
0
LINE
5
1F1
100
AcDbEntity
8
2
62
256
6
ByLayer
370
13
48
1
60
0
100
AcDbLine
10
28.990079
20
0
30
0
11
28.572082
21
3.174998
31
0
39
0
210
0
220
0
230
1
0
LINE
5
1F2
100
AcDbEntity
8
2
62
256
6
ByLayer
370
13
48
1
60
0
100
AcDbLine
10
28.990079
20
0
30
0
11
29.408076
21
3.175002
31
0
39
0
210
0
220
0
230
1
0
LINE
5
1F3
100
AcDbEntity
8
2
62
256
6
ByLayer
370
13
48
1
60
0
100
AcDbLine
10
28.572082
20
3.174998
30
0
11
29.408076
21
3.175002
31
0
39
0
210
0
220
0
230
1
0
LINE
5
1F4
100
AcDbEntity
8
2
62
256
6
ByLayer
370
13
48
1
60
0
100
AcDbLine
10
28.990079
20
55
30
0
11
29.408076
21
51.825002
31
0
39
0
210
0
220
0
230
1
0
LINE
5
1F5
100
AcDbEntity
8
2
62
256
6
ByLayer
370
13
48
1
60
0
100
AcDbLine
10
28.990079
20
55
30
0
11
28.572082
21
51.824998
31
0
39
0
210
0
220
0
230
1
0
LINE
5
1F6
100
AcDbEntity
8
2
62
256
6
ByLayer
370
13
48
1
60
0
100
AcDbLine
10
29.408076
20
51.825002
30
0
11
28.572082
21
51.824998
31
0
39
0
210
0
220
0
230
1
0
ENDBLK
5
1F8
100
AcDbEntity
8
0
100
AcDbBlockEnd
0
BLOCK
5
206
100
AcDbEntity
8
0
100
AcDbBlockBegin
2
DimnDraft3D2
70
0
10
0
20
0
30
0
3
DimnDraft3D2
0
MTEXT
5
1FB
100
AcDbEntity
8
SK2
62
256
6
ByLayer
370
18
48
1
60
0
100
AcDbMText
10
-18.708089
20
40.626104
30
0
210
0
220
0
230
1
1
\W0.7279;30.35
40
3.50012
41
0
44
1.084337
50
270
71
7
72
5
7
iso_b_vert
0
LINE
5
1FD
100
AcDbEntity
8
SK2
62
256
6
ByLayer
370
13
48
1
60
0
100
AcDbLine
10
5.6825
20
24.65
30
0
11
-22.758119
21
24.65
31
0
39
0
210
0
220
0
230
1
0
LINE
5
1FE
100
AcDbEntity
8
SK2
62
256
6
ByLayer
370
13
48
1
60
0
100
AcDbLine
10
12.4125
20
55
30
0
11
-22.758119
21
55
31
0
39
0
210
0
220
0
230
1
0
LINE
5
1FF
100
AcDbEntity
8
SK2
62
256
6
ByLayer
370
13
48
1
60
0
100
AcDbLine
10
-19.583119
20
24.65
30
0
11
-19.583119
21
55
31
0
39
0
210
0
220
0
230
1
0
LINE
5
200
100
AcDbEntity
8
SK2
62
256
6
ByLayer
370
13
48
1
60
0
100
AcDbLine
10
-19.583119
20
24.65
30
0
11
-20.001115
21
27.824998
31
0
39
0
210
0
220
0
230
1
0
LINE
5
201
100
AcDbEntity
8
SK2
62
256
6
ByLayer
370
13
48
1
60
0
100
AcDbLine
10
-19.583119
20
24.65
30
0
11
-19.165122
21
27.825002
31
0
39
0
210
0
220
0
230
1
0
LINE
5
202
100
AcDbEntity
8
SK2
62
256
6
ByLayer
370
13
48
1
60
0
100
AcDbLine
10
-20.001115
20
27.824998
30
0
11
-19.165122
21
27.825002
31
0
39
0
210
0
220
0
230
1
0
LINE
5
203
100
AcDbEntity
8
SK2
62
256
6
ByLayer
370
13
48
1
60
0
100
AcDbLine
10
-19.583119
20
55
30
0
11
-19.165122
21
51.825002
31
0
39
0
210
0
220
0
230
1
0
LINE
5
204
100
AcDbEntity
8
SK2
62
256
6
ByLayer
370
13
48
1
60
0
100
AcDbLine
10
-19.583119
20
55
30
0
11
-20.001115
21
51.824998
31
0
39
0
210
0
220
0
230
1
0
LINE
5
205
100
AcDbEntity
8
SK2
62
256
6
ByLayer
370
13
48
1
60
0
100
AcDbLine
10
-19.165122
20
51.825002
30
0
11
-20.001115
21
51.824998
31
0
39
0
210
0
220
0
230
1
0
ENDBLK
5
207
100
AcDbEntity
8
0
100
AcDbBlockEnd
0
BLOCK
5
20A
100
AcDbEntity
8
0
100
AcDbBlockBegin
2
_CLOSED
70
0
10
0
20
0
30
0
3
_CLOSED
0
LINE
5
20C
100
AcDbEntity
8
0
62
256
6
ByLayer
370
-2
48
1
60
0
100
AcDbLine
10
-1
20
0.166667
30
0
11
0
21
0
31
0
39
0
210
0
220
0
230
1
0
LINE
5
20D
100
AcDbEntity
8
0
62
256
6
ByLayer
370
-2
48
1
60
0
100
AcDbLine
10
0
20
0
30
0
11
-1
21
-0.166667
31
0
39
0
210
0
220
0
230
1
0
LINE
5
20E
100
AcDbEntity
8
0
62
256
6
ByLayer
370
-2
48
1
60
0
100
AcDbLine
10
-1
20
0.166667
30
0
11
-1
21
-0.166667
31
0
39
0
210
0
220
0
230
1
0
LINE
5
20F
100
AcDbEntity
8
0
62
256
6
ByLayer
370
-2
48
1
60
0
100
AcDbLine
10
0
20
0
30
0
11
-1
21
0
31
0
39
0
210
0
220
0
230
1
0
ENDBLK
5
20B
100
AcDbEntity
8
0
100
AcDbBlockEnd
0
BLOCK
5
21B
100
AcDbEntity
8
0
100
AcDbBlockBegin
2
DimnDraft3D3
70
0
10
0
20
0
30
0
3
DimnDraft3D3
0
MTEXT
5
211
100
AcDbEntity
8
2
62
256
6
ByLayer
370
18
48
1
60
0
100
AcDbMText
10
6.083521
20
71.468844
30
0
210
0
220
0
230
1
1
\W0.5613;14
40
3.50012
41
0
44
1.084337
50
0
71
7
72
5
7
iso_b_vert
0
LINE
5
212
100
AcDbEntity
8
2
62
256
6
ByLayer
370
13
48
1
60
0
100
AcDbLine
10
14
20
56.5875
30
0
11
14
21
73.768814
31
0
39
0
210
0
220
0
230
1
0
LINE
5
213
100
AcDbEntity
8
2
62
256
6
ByLayer
370
13
48
1
60
0
100
AcDbLine
10
0
20
1.5875
30
0
11
0
21
73.768814
31
0
39
0
210
0
220
0
230
1
0
LINE
5
214
100
AcDbEntity
8
2
62
256
6
ByLayer
370
13
48
1
60
0
100
AcDbLine
10
14
20
70.593814
30
0
11
0
21
70.593814
31
0
39
0
210
0
220
0
230
1
0
LINE
5
215
100
AcDbEntity
8
2
62
256
6
ByLayer
370
13
48
1
60
0
100
AcDbLine
10
14
20
70.593814
30
0
11
10.825002
21
70.175817
31
0
39
0
210
0
220
0
230
1
0
LINE
5
216
100
AcDbEntity
8
2
62
256
6
ByLayer
370
13
48
1
60
0
100
AcDbLine
10
14
20
70.593814
30
0
11
10.824998
21
71.01181
31
0
39
0
210
0
220
0
230
1
0
LINE
5
217
100
AcDbEntity
8
2
62
256
6
ByLayer
370
13
48
1
60
0
100
AcDbLine
10
10.825002
20
70.175817
30
0
11
10.824998
21
71.01181
31
0
39
0
210
0
220
0
230
1
0
LINE
5
218
100
AcDbEntity
8
2
62
256
6
ByLayer
370
13
48
1
60
0
100
AcDbLine
10
0
20
70.593814
30
0
11
3.174998
21
71.01181
31
0
39
0
210
0
220
0
230
1
0
LINE
5
219
100
AcDbEntity
8
2
62
256
6
ByLayer
370
13
48
1
60
0
100
AcDbLine
10
0
20
70.593814
30
0
11
3.175002
21
70.175817
31
0
39
0
210
0
220
0
230
1
0
LINE
5
21A
100
AcDbEntity
8
2
62
256
6
ByLayer
370
13
48
1
60
0
100
AcDbLine
10
3.174998
20
71.01181
30
0
11
3.175002
21
70.175817
31
0
39
0
210
0
220
0
230
1
0
ENDBLK
5
21C
100
AcDbEntity
8
0
100
AcDbBlockEnd
0
BLOCK
5
229
100
AcDbEntity
8
0
100
AcDbBlockBegin
2
DimnDraft3D4
70
0
10
0
20
0
30
0
3
DimnDraft3D4
0
MTEXT
5
21F
100
AcDbEntity
8
SK2
62
256
6
ByLayer
370
18
48
1
60
0
100
AcDbMText
10
-19.803181
20
1.353994
30
0
210
0
220
0
230
1
1
\W0.7183;40
40
3.50012
41
0
44
1.084337
50
270
71
7
72
5
7
iso_b_vert
0
LINE
5
220
100
AcDbEntity
8
SK2
62
256
6
ByLayer
370
13
48
1
60
0
100
AcDbLine
10
-1.0875
20
-20
30
0
11
-23.853211
21
-20
31
0
39
0
210
0
220
0
230
1
0
LINE
5
221
100
AcDbEntity
8
SK2
62
256
6
ByLayer
370
13
48
1
60
0
100
AcDbLine
10
-1.0875
20
20
30
0
11
-23.853211
21
20
31
0
39
0
210
0
220
0
230
1
0
LINE
5
222
100
AcDbEntity
8
SK2
62
256
6
ByLayer
370
13
48
1
60
0
100
AcDbLine
10
-20.678211
20
-20
30
0
11
-20.678211
21
20
31
0
39
0
210
0
220
0
230
1
0
LINE
5
223
100
AcDbEntity
8
SK2
62
256
6
ByLayer
370
13
48
1
60
0
100
AcDbLine
10
-20.678211
20
-20
30
0
11
-21.096207
21
-16.825002
31
0
39
0
210
0
220
0
230
1
0
LINE
5
224
100
AcDbEntity
8
SK2
62
256
6
ByLayer
370
13
48
1
60
0
100
AcDbLine
10
-20.678211
20
-20
30
0
11
-20.260214
21
-16.824998
31
0
39
0
210
0
220
0
230
1
0
LINE
5
225
100
AcDbEntity
8
SK2
62
256
6
ByLayer
370
13
48
1
60
0
100
AcDbLine
10
-21.096207
20
-16.825002
30
0
11
-20.260214
21
-16.824998
31
0
39
0
210
0
220
0
230
1
0
LINE
5
226
100
AcDbEntity
8
SK2
62
256
6
ByLayer
370
13
48
1
60
0
100
AcDbLine
10
-20.678211
20
20
30
0
11
-20.260214
21
16.825002
31
0
39
0
210
0
220
0
230
1
0
LINE
5
227
100
AcDbEntity
8
SK2
62
256
6
ByLayer
370
13
48
1
60
0
100
AcDbLine
10
-20.678211
20
20
30
0
11
-21.096207
21
16.824998
31
0
39
0
210
0
220
0
230
1
0
LINE
5
228
100
AcDbEntity
8
SK2
62
256
6
ByLayer
370
13
48
1
60
0
100
AcDbLine
10
-20.260214
20
16.825002
30
0
11
-21.096207
21
16.824998
31
0
39
0
210
0
220
0
230
1
0
ENDBLK
5
22A
100
AcDbEntity
8
0
100
AcDbBlockEnd
0
ENDSEC
0
SECTION
2
ENTITIES
0
ARC
5
131
100
AcDbEntity
8
1
62
256
6
ByLayer
370
18
48
1
60
0
100
AcDbCircle
39
0
10
-16.616874
20
30.4
30
0
40
0.4
210
0
220
0
230
-1
100
AcDbArc
50
176.667001
51
250.559076
0
ARC
5
132
100
AcDbEntity
8
1
62
256
6
ByLayer
370
18
48
1
60
0
100
AcDbCircle
39
0
10
11.383126
20
30.4
30
0
40
0.4
210
0
220
0
230
1
100
AcDbArc
50
176.667001
51
250.559076
0
ARC
5
133
100
AcDbEntity
8
1
62
256
6
ByLayer
370
18
48
1
60
0
100
AcDbCircle
39
0
10
16.616874
20
54.6
30
0
40
0.4
210
0
220
0
230
1
100
AcDbArc
50
356.667001
51
90
0
ARC
5
134
100
AcDbEntity
8
1
62
256
6
ByLayer
370
18
48
1
60
0
100
AcDbCircle
39
0
10
-11.383126
20
54.6
30
0
40
0.4
210
0
220
0
230
-1
100
AcDbArc
50
356.667001
51
90
0
ARC
5
135
100
AcDbEntity
8
1
62
256
6
ByLayer
370
18
48
1
60
0
100
AcDbCircle
39
0
10
-0.240519
20
-5.25
30
0
40
0.204499999999988
210
0
220
0
230
-1
100
AcDbArc
50
120
51
240
0
ARC
5
136
100
AcDbEntity
8
1
62
256
6
ByLayer
370
18
48
1
60
0
100
AcDbCircle
39
0
10
0.174981
20
-4.60077
30
0
40
0.149999999999843
210
0
220
0
230
-1
100
AcDbArc
50
300
51
0
0
ARC
5
137
100
AcDbEntity
8
1
62
256
6
ByLayer
370
18
48
1
60
0
100
AcDbCircle
39
0
10
0.174981
20
-4.39923
30
0
40
0.150000000000217
210
0
220
0
230
-1
100
AcDbArc
50
0
51
60
0
ARC
5
138
100
AcDbEntity
8
1
62
256
6
ByLayer
370
18
48
1
60
0
100
AcDbCircle
39
0
10
-0.240519
20
-3.75
30
0
40
0.204500000000003
210
0
220
0
230
-1
100
AcDbArc
50
120
51
240
0
ARC
5
139
100
AcDbEntity
8
1
62
256
6
ByLayer
370
18
48
1
60
0
100
AcDbCircle
39
0
10
0.174981
20
-3.10077
30
0
40
0.14999999999964
210
0
220
0
230
-1
100
AcDbArc
50
300
51
0
0
ARC
5
13A
100
AcDbEntity
8
1
62
256
6
ByLayer
370
18
48
1
60
0
100
AcDbCircle
39
0
10
0.174981
20
-2.89923
30
0
40
0.150000000000768
210
0
220
0
230
-1
100
AcDbArc
50
0
51
60
0
ARC
5
13B
100
AcDbEntity
8
1
62
256
6
ByLayer
370
18
48
1
60
0
100
AcDbCircle
39
0
10
-0.240519
20
-2.25
30
0
40
0.204499999999997
210
0
220
0
230
-1
100
AcDbArc
50
120
51
240
0
ARC
5
13C
100
AcDbEntity
8
1
62
256
6
ByLayer
370
18
48
1
60
0
100
AcDbCircle
39
0
10
0.174981
20
-1.60077
30
0
40
0.150000000000713
210
0
220
0
230
-1
100
AcDbArc
50
300
51
0
0
ARC
5
13D
100
AcDbEntity
8
1
62
256
6
ByLayer
370
18
48
1
60
0
100
AcDbCircle
39
0
10
0.174981
20
-1.39923
30
0
40
0.150000000000799
210
0
220
0
230
-1
100
AcDbArc
50
0
51
60
0
ARC
5
13E
100
AcDbEntity
8
1
62
256
6
ByLayer
370
18
48
1
60
0
100
AcDbCircle
39
0
10
-0.240519
20
-0.75
30
0
40
0.204500000000015
210
0
220
0
230
-1
100
AcDbArc
50
120
51
240
0
ARC
5
13F
100
AcDbEntity
8
1
62
256
6
ByLayer
370
18
48
1
60
0
100
AcDbCircle
39
0
10
0.174981
20
-0.10077
30
0
40
0.150000000000333
210
0
220
0
230
-1
100
AcDbArc
50
300
51
0
0
ARC
5
140
100
AcDbEntity
8
1
62
256
6
ByLayer
370
18
48
1
60
0
100
AcDbCircle
39
0
10
0.174981
20
0.10077
30
0
40
0.150000000000783
210
0
220
0
230
-1
100
AcDbArc
50
0
51
60
0
ARC
5
141
100
AcDbEntity
8
1
62
256
6
ByLayer
370
18
48
1
60
0
100
AcDbCircle
39
0
10
-0.240519
20
0.75
30
0
40
0.204499999999974
210
0
220
0
230
-1
100
AcDbArc
50
120
51
240
0
ARC
5
142
100
AcDbEntity
8
1
62
256
6
ByLayer
370
18
48
1
60
0
100
AcDbCircle
39
0
10
0.174981
20
1.39923
30
0
40
0.150000000000321
210
0
220
0
230
-1
100
AcDbArc
50
300
51
0
0
ARC
5
143
100
AcDbEntity
8
1
62
256
6
ByLayer
370
18
48
1
60
0
100
AcDbCircle
39
0
10
0.174981
20
1.60077
30
0
40
0.150000000000789
210
0
220
0
230
-1
100
AcDbArc
50
0
51
60
0
ARC
5
144
100
AcDbEntity
8
1
62
256
6
ByLayer
370
18
48
1
60
0
100
AcDbCircle
39
0
10
-0.240519
20
2.25
30
0
40
0.204499999999988
210
0
220
0
230
-1
100
AcDbArc
50
120
51
240
0
ARC
5
145
100
AcDbEntity
8
1
62
256
6
ByLayer
370
18
48
1
60
0
100
AcDbCircle
39
0
10
0.174981
20
2.89923
30
0
40
0.149999999999603
210
0
220
0
230
-1
100
AcDbArc
50
300
51
0
0
ARC
5
146
100
AcDbEntity
8
1
62
256
6
ByLayer
370
18
48
1
60
0
100
AcDbCircle
39
0
10
0.174981
20
3.10077
30
0
40
0.150000000000321
210
0
220
0
230
-1
100
AcDbArc
50
0
51
60
0
ARC
5
147
100
AcDbEntity
8
1
62
256
6
ByLayer
370
18
48
1
60
0
100
AcDbCircle
39
0
10
-0.240519
20
3.75
30
0
40
0.204499999999996
210
0
220
0
230
-1
100
AcDbArc
50
120
51
240
0
ARC
5
148
100
AcDbEntity
8
1
62
256
6
ByLayer
370
18
48
1
60
0
100
AcDbCircle
39
0
10
0.174981
20
4.39923
30
0
40
0.150000000000425
210
0
220
0
230
-1
100
AcDbArc
50
300
51
0
0
ARC
5
149
100
AcDbEntity
8
1
62
256
6
ByLayer
370
18
48
1
60
0
100
AcDbCircle
39
0
10
0.174981
20
4.60077
30
0
40
0.149999999999661
210
0
220
0
230
-1
100
AcDbArc
50
0
51
60
0
ARC
5
14A
100
AcDbEntity
8
1
62
256
6
ByLayer
370
18
48
1
60
0
100
AcDbCircle
39
0
10
-0.240519
20
5.25
30
0
40
0.20449999999999
210
0
220
0
230
-1
100
AcDbArc
50
120
51
240
0
ARC
5
14B
100
AcDbEntity
8
1
62
256
6
ByLayer
370
18
48
1
60
0
100
AcDbCircle
39
0
10
0.174981
20
16.39923
30
0
40
0.150000000000178
210
0
220
0
230
-1
100
AcDbArc
50
300
51
0
0
ARC
5
14C
100
AcDbEntity
8
1
62
256
6
ByLayer
370
18
48
1
60
0
100
AcDbCircle
39
0
10
0.174981
20
16.60077
30
0
40
0.150000000000012
210
0
220
0
230
-1
100
AcDbArc
50
0
51
60
0
ARC
5
14D
100
AcDbEntity
8
1
62
256
6
ByLayer
370
18
48
1
60
0
100
AcDbCircle
39
0
10
-0.240519
20
17.25
30
0
40
0.204499999999996
210
0
220
0
230
-1
100
AcDbArc
50
120
51
240
0
ARC
5
14E
100
AcDbEntity
8
1
62
256
6
ByLayer
370
18
48
1
60
0
100
AcDbCircle
39
0
10
0.174981
20
17.89923
30
0
40
0.149999999999864
210
0
220
0
230
-1
100
AcDbArc
50
300
51
0
0
ARC
5
14F
100
AcDbEntity
8
1
62
256
6
ByLayer
370
18
48
1
60
0
100
AcDbCircle
39
0
10
0.174981
20
18.10077
30
0
40
0.149999999999901
210
0
220
0
230
-1
100
AcDbArc
50
0
51
60
0
ARC
5
150
100
AcDbEntity
8
1
62
256
6
ByLayer
370
18
48
1
60
0
100
AcDbCircle
39
0
10
-0.240519
20
18.75
30
0
40
0.2045
210
0
220
0
230
-1
100
AcDbArc
50
120
51
240
0
ELLIPSE
5
151
100
AcDbEntity
8
1
62
256
6
ByLayer
370
18
48
1
60
0
100
AcDbEllipse
10
16.358749
20
48.044631
30
0
11
3.99801455756139E-11
21
0.433147589086941
31
0
210
0
220
0
230
-1
40
0.230868
41
3.14159265358979
42
-2.96704007764629
0
ELLIPSE
5
152
100
AcDbEntity
8
1
62
256
6
ByLayer
370
18
48
1
60
0
100
AcDbEllipse
10
14.667299
20
49.336487
30
0
11
-2.65217643855394E-17
21
0.433147587430961
31
0
210
0
220
0
230
-1
40
0.230868
41
-2.967059728398
42
-2.4775091824732
0
ELLIPSE
5
153
100
AcDbEntity
8
1
62
256
6
ByLayer
370
18
48
1
60
0
100
AcDbEllipse
10
13.332701
20
49.336487
30
0
11
-2.65217643855394E-17
21
0.433147587430961
31
0
210
0
220
0
230
-1
40
0.230868
41
2.4775091824732
42
2.967059728398
0
ELLIPSE
5
154
100
AcDbEntity
8
1
62
256
6
ByLayer
370
18
48
1
60
0
100
AcDbEllipse
10
11.641251
20
48.044631
30
0
11
3.90022167133359E-11
21
-0.433147589087041
31
0
210
0
220
0
230
-1
40
0.230868
41
-0.174552575943966
42
0
0
ELLIPSE
5
155
100
AcDbEntity
8
1
62
256
6
ByLayer
370
18
48
1
60
0
100
AcDbEllipse
10
14
20
34.441631
30
0
11
1.2
21
0
31
0
210
0
220
0
230
1
40
0.469472
41
0
42
6.28318530717959
0
ELLIPSE
5
156
100
AcDbEntity
8
1
62
256
6
ByLayer
370
18
48
1
60
0
100
AcDbEllipse
10
14
20
34.441631
30
0
11
0.866025403784439
21
0
31
0
210
0
220
0
230
1
40
0.469472
41
0.738776862593359
42
1.78597441378994
0
ELLIPSE
5
157
100
AcDbEntity
8
1
62
256
6
ByLayer
370
18
48
1
60
0
100
AcDbEllipse
10
14
20
34.441631
30
0
11
0.866025403784439
21
0
31
0
210
0
220
0
230
1
40
0.469472
41
1.78597441378994
42
2.83317196498654
0
ELLIPSE
5
158
100
AcDbEntity
8
1
62
256
6
ByLayer
370
18
48
1
60
0
100
AcDbEllipse
10
14
20
34.441631
30
0
11
0.866025403784439
21
0
31
0
210
0
220
0
230
1
40
0.469472
41
2.83317196498654
42
-2.40281579099644
0
ELLIPSE
5
159
100
AcDbEntity
8
1
62
256
6
ByLayer
370
18
48
1
60
0
100
AcDbEllipse
10
14
20
34.441631
30
0
11
0.866025403784439
21
0
31
0
210
0
220
0
230
1
40
0.469472
41
-2.40281579099644
42
-1.35561823979985
0
ELLIPSE
5
15A
100
AcDbEntity
8
1
62
256
6
ByLayer
370
18
48
1
60
0
100
AcDbEllipse
10
14
20
34.441631
30
0
11
0.866025403784439
21
0
31
0
210
0
220
0
230
1
40
0.469472
41
-1.35561823979985
42
-0.308420688603257
0
ELLIPSE
5
15B
100
AcDbEntity
8
1
62
256
6
ByLayer
370
18
48
1
60
0
100
AcDbEllipse
10
14
20
34.441631
30
0
11
0.866025403784439
21
0
31
0
210
0
220
0
230
1
40
0.469472
41
-0.308420688603257
42
0.738776862593359
0
ELLIPSE
5
15C
100
AcDbEntity
8
1
62
256
6
ByLayer
370
18
48
1
60
0
100
AcDbEllipse
10
-143.1
20
-6.222895
30
0
11
-1.16754321704548E-14
21
190.680574766122
31
0
210
0
220
0
230
-1
40
0.8391
41
1.43763178728485
42
1.50230677641371
0
ELLIPSE
5
15D
100
AcDbEntity
8
1
62
256
6
ByLayer
370
18
48
1
60
0
100
AcDbEllipse
10
171.099993
20
41.744929
30
0
11
159.999993045982
21
1.61702241785176E-13
31
0
210
0
220
0
230
-1
40
0.32492
41
3.05792363060868
42
3.09259222493577
0
ELLIPSE
5
15E
100
AcDbEntity
8
1
62
256
6
ByLayer
370
18
48
1
60
0
100
AcDbEllipse
10
171.099998
20
44.510003
30
0
11
159.999998269613
21
1.61702247064381E-13
31
0
210
0
220
0
230
-1
40
0.531709
41
3.00996287034292
42
3.05792363197992
0
ELLIPSE
5
15F
100
AcDbEntity
8
1
62
256
6
ByLayer
370
18
48
1
60
0
100
AcDbEllipse
10
-143.1
20
-3.111448
30
0
11
-1.1675432171249E-14
21
190.680574779093
31
0
210
0
220
0
230
-1
40
0.8391
41
1.4391665442297
42
1.51410244742894
0
ELLIPSE
5
160
100
AcDbEntity
8
1
62
256
6
ByLayer
370
18
48
1
60
0
100
AcDbEllipse
10
-143.099995
20
41.744929
30
0
11
159.99999498855
21
1.61702243748411E-13
31
0
210
0
220
0
230
-1
40
0.32492
41
0.0490004283595248
42
0.0836690224746479
0
ELLIPSE
5
161
100
AcDbEntity
8
1
62
256
6
ByLayer
370
18
48
1
60
0
100
AcDbEllipse
10
-143.099998
20
44.510003
30
0
11
159.999998198857
21
1.61702246992873E-13
31
0
210
0
220
0
230
-1
40
0.531709
41
0.0836690216279803
42
0.131629783275773
0
ELLIPSE
5
162
100
AcDbEntity
8
1
62
256
6
ByLayer
370
18
48
1
60
0
100
AcDbEllipse
10
14
20
34.441631
30
0
11
1.25
21
0
31
0
210
0
220
0
230
1
40
0.469472
41
0
42
6.28318530717959
0
ELLIPSE
5
163
100
AcDbEntity
8
1
62
256
6
ByLayer
370
18
48
1
60
0
100
AcDbEllipse
10
13.112831
20
39.587656
30
0
11
1.50617874956197
21
-0.0459707659411344
31
0
210
0
220
0
230
-1
40
0.412991
41
0.59985566253227
42
2.39419843108357
0
ELLIPSE
5
164
100
AcDbEntity
8
1
62
256
6
ByLayer
370
18
48
1
60
0
100
AcDbEllipse
10
14.652089
20
38.333768
30
0
11
1.50869817014196
21
0.0826979742707255
31
0
210
0
220
0
230
-1
40
0.485115
41
0
42
6.28318530717959
0
ELLIPSE
5
165
100
AcDbEntity
8
1
62
256
6
ByLayer
370
18
48
1
60
0
100
AcDbEllipse
10
13.359925
20
36.276506
30
0
11
0.668787242548363
21
-8.04078430037219
31
0
210
0
220
0
230
-1
40
0.185719
41
2.32266899043471
42
-2.29177724438393
0
POINT
5
6C
100
AcDbEntity
8
1
62
256
6
ByLayer
370
13
48
1
60
1
100
AcDbPoint
10
173.749185
20
205.336947
30
0
39
0
210
0
220
0
230
1
50
360
0
POINT
5
6E
100
AcDbEntity
8
1
62
256
6
ByLayer
370
13
48
1
60
1
100
AcDbPoint
10
160.995165
20
205.336947
30
0
39
0
210
0
220
0
230
1
50
360
0
POINT
5
6F
100
AcDbEntity
8
1
62
256
6
ByLayer
370
13
48
1
60
1
100
AcDbPoint
10
166.318525
20
151.585975
30
0
39
0
210
0
220
0
230
1
50
360
0
POINT
5
70
100
AcDbEntity
8
1
62
256
6
ByLayer
370
13
48
1
60
1
100
AcDbPoint
10
165.513686
20
162.371115
30
0
39
0
210
0
220
0
230
1
50
360
0
POINT
5
71
100
AcDbEntity
8
1
62
256
6
ByLayer
370
13
48
1
60
1
100
AcDbPoint
10
172.249185
20
197.969655
30
0
39
0
210
0
220
0
230
1
50
360
0
POINT
5
72
100
AcDbEntity
8
1
62
256
6
ByLayer
370
13
48
1
60
1
100
AcDbPoint
10
188.249185
20
197.969655
30
0
39
0
210
0
220
0
230
1
50
360
0
POINT
5
73
100
AcDbEntity
8
80
62
256
6
ByLayer
370
18
48
1
60
0
100
AcDbPoint
10
0
20
0
30
0
39
0
210
0
220
0
230
1
50
360
0
POINT
5
75
100
AcDbEntity
8
81
62
256
6
ByLayer
370
18
48
1
60
0
100
AcDbPoint
10
14
20
55
30
0
39
0
210
0
220
0
230
1
50
360
0
SPLINE
5
166
100
AcDbEntity
8
1
62
256
6
ByLayer
370
18
48
1
60
0
100
AcDbSpline
70
4
71
2
72
6
73
3
40
0
40
0
40
0
40
1
40
1
40
1
41
1
10
14.4830853518221
20
49.4823668306204
30
0
41
1
10
14.4931766319908
20
49.3769907517283
30
0
41
1
10
14.5138875681561
20
49.3065261768006
30
0
0
SPLINE
5
167
100
AcDbEntity
8
1
62
256
6
ByLayer
370
18
48
1
60
0
100
AcDbSpline
70
4
71
2
72
6
73
3
40
0
40
0
40
0
40
1
40
1
40
1
41
1
10
14.4277346738575
20
50.1702887043921
30
0
41
1
10
14.4509625305677
20
49.819552783945
30
0
41
1
10
14.4830853518301
20
49.4823668305908
30
0
0
SPLINE
5
168
100
AcDbEntity
8
1
62
256
6
ByLayer
370
18
48
1
60
0
100
AcDbSpline
70
4
71
3
72
20
73
16
40
0
40
0
40
0
40
0
40
0.119760301054401
40
0.229755695722288
40
0.329996235928916
40
0.420495232983852
40
0.50127082376895
40
0.638194936766724
40
0.751527594230747
40
0.809708245630584
40
0.860663174703903
40
0.904640927165888
40
0.942029454089467
40
0.973461643046277
40
1
40
1
40
1
40
1
41
1
10
14.4277325237381
20
50.1703211835
30
0
41
1
10
14.4253272164388
20
50.2032384223177
30
0
41
1
10
14.4207127235967
20
50.2663889241051
30
0
41
1
10
14.4112496745574
20
50.3568557592621
30
0
41
1
10
14.4006795939483
20
50.439090156086
30
0
41
1
10
14.3891781587032
20
50.5130842502184
30
0
41
1
10
14.3738059064435
20
50.5966964538529
30
0
41
1
10
14.3535144824559
20
50.6857936594091
30
0
41
1
10
14.3289484468662
20
50.7674524892747
30
0
41
1
10
14.306675565102
20
50.8248261983127
30
0
41
1
10
14.2885610109196
20
50.8631746632324
30
0
41
1
10
14.2700121064863
20
50.8949500526214
30
0
41
1
10
14.250986467942
20
50.9199071235433
30
0
41
1
10
14.231923071649
20
50.9389623673364
30
0
41
1
10
14.2173890993507
20
50.9465271444833
30
0
41
1
10
14.2107355869721
20
50.94999022652
30
0
0
SPLINE
5
169
100
AcDbEntity
8
1
62
256
6
ByLayer
370
18
48
1
60
0
100
AcDbSpline
70
4
71
3
72
13
73
9
40
0
40
0
40
0
40
0
40
0.173254768746515
40
0.342985030730123
40
0.509834375982733
40
0.674480181908037
40
0.837627275076529
40
1
40
1
40
1
40
1
41
1
10
14.2107355870581
20
50.94999022667
30
0
41
1
10
14.2002070571625
20
50.954058658359
30
0
41
1
10
14.1793641783437
20
50.9621127579833
30
0
41
1
10
14.1474976132413
20
50.9717000120855
30
0
41
1
10
14.115654890624
20
50.9792735390135
30
0
41
1
10
14.083777225658
20
50.9846204008345
30
0
41
1
10
14.0518915044881
20
50.9879790358224
30
0
41
1
10
14.030613629552
20
50.9883962127302
30
0
41
1
10
14.0200000006977
20
50.98860430498
30
0
0
SPLINE
5
16A
100
AcDbEntity
8
1
62
256
6
ByLayer
370
18
48
1
60
0
100
AcDbSpline
70
4
71
2
72
6
73
3
40
0
40
0
40
0
40
1
40
1
40
1
41
1
10
13.7892644129421
20
50.9499902266708
30
0
41
1
10
13.8844087349087
20
50.9884919085573
30
0
41
1
10
13.9799999993025
20
50.9886043049807
30
0
0
SPLINE
5
16B
100
AcDbEntity
8
1
62
256
6
ByLayer
370
18
48
1
60
0
100
AcDbSpline
70
4
71
2
72
10
73
7
40
0
40
0
40
0
40
0.5
40
0.5
40
0.75
40
0.75
40
1
40
1
40
1
41
1
10
13.5722674762621
20
50.1703211835005
30
0
41
1
10
13.5875343736816
20
50.4005090492969
30
0
41
1
10
13.623741643263
20
50.5813994958523
30
0
41
1
10
13.6470238717702
20
50.6977168199744
30
0
41
1
10
13.6769810514918
20
50.7815407125727
30
0
41
1
10
13.7281228301936
20
50.9246417322624
30
0
41
1
10
13.7892644130281
20
50.9499902265207
30
0
0
SPLINE
5
16C
100
AcDbEntity
8
1
62
256
6
ByLayer
370
18
48
1
60
0
100
AcDbSpline
70
4
71
3
72
10
73
6
40
0
40
0
40
0
40
0
40
0.349345455437204
40
0.682677789436989
40
1
40
1
40
1
40
1
41
1
10
13.5722653261452
20
50.1702887043917
30
0
41
1
10
13.5667261918135
20
50.0901143749181
30
0
41
1
10
13.5559018232061
20
49.9334407065973
30
0
41
1
10
13.5373916006501
20
49.7041244704149
30
0
41
1
10
13.5236274042276
20
49.5550634362738
30
0
41
1
10
13.5169146481701
20
49.48236683059
30
0
0
SPLINE
5
16D
100
AcDbEntity
8
1
62
256
6
ByLayer
370
18
48
1
60
0
100
AcDbSpline
70
4
71
3
72
9
73
5
40
0
40
0
40
0
40
0
40
0.572743649990616
40
1
40
1
40
1
40
1
41
1
10
13.5169146481782
20
49.48236683062
30
0
41
1
10
13.5132484323123
20
49.4484188310257
30
0
41
1
10
13.5068472860649
20
49.3891462409325
30
0
41
1
10
13.4923195144977
20
49.331258907566
30
0
41
1
10
13.4861124318442
20
49.3065261768
30
0
0
SPLINE
5
16E
100
AcDbEntity
8
1
62
256
6
ByLayer
370
18
48
1
60
0
100
AcDbSpline
70
4
71
3
72
10
73
6
40
0
40
0
40
0
40
0
40
0.406154267944024
40
0.406154267944024
40
1
40
1
40
1
40
1
41
1
10
13.7066586576978
20
34.0584511068454
30
0
41
1
10
13.6587890429893
20
34.0679708216385
30
0
41
1
10
13.6111278686132
20
34.0799674642447
30
0
41
1
10
13.4952171223463
20
34.1146568159778
30
0
41
1
10
13.427203502661
20
34.1397187097038
30
0
41
1
10
13.3597536951606
20
34.1678503469507
30
0
0
SPLINE
5
16F
100
AcDbEntity
8
1
62
256
6
ByLayer
370
18
48
1
60
0
100
AcDbSpline
70
4
71
3
72
14
73
10
40
0
40
0
40
0
40
0
40
0.0689918220300213
40
0.0689918220300213
40
0.379327881353348
40
0.379327881353348
40
0.689663940676674
40
0.689663940676674
40
1
40
1
40
1
40
1
41
1
10
14.3081736781129
20
34.0613831311378
30
0
41
1
10
14.3200345375899
20
34.063716105704
30
0
41
1
10
14.331913883343
20
34.066271984055
30
0
41
1
10
14.3972611792643
20
34.0816336361127
30
0
41
1
10
14.4510225121493
20
34.0990725573771
30
0
41
1
10
14.5592465674371
20
34.1453640628219
30
0
41
1
10
14.6140935823794
20
34.1745277361539
30
0
41
1
10
14.7209891772363
20
34.2409686101339
30
0
41
1
10
14.7734145103122
20
34.2782451942813
30
0
41
1
10
14.8251612716293
20
34.3182136932163
30
0
0
SPLINE
5
170
100
AcDbEntity
8
1
62
256
6
ByLayer
370
18
48
1
60
0
100
AcDbSpline
70
4
71
3
72
12
73
8
40
0
40
0
40
0
40
0
40
0.499999999999999
40
0.499999999999999
40
0.75
40
0.75
40
1
40
1
40
1
40
1
41
1
10
13.3597536951611
20
34.1678503469484
30
0
41
1
10
13.3295608385162
20
34.1966628656646
30
0
41
1
10
13.298915287169
20
34.2394679130929
30
0
41
1
10
13.2517506056314
20
34.3406541032462
30
0
41
1
10
13.2360458625462
20
34.3800327843568
30
0
41
1
10
13.2051954792273
20
34.4669093736106
30
0
41
1
10
13.1899539298989
20
34.5145375420302
30
0
41
1
10
13.1748387283707
20
34.565048386429
30
0
0
SPLINE
5
171
100
AcDbEntity
8
1
62
256
6
ByLayer
370
18
48
1
60
0
100
AcDbSpline
70
4
71
3
72
12
73
8
40
0
40
0
40
0
40
0
40
0.500000000000006
40
0.500000000000006
40
0.750000000000003
40
0.750000000000003
40
1
40
1
40
1
40
1
41
1
10
14.640246304839
20
34.7154117326906
30
0
41
1
10
14.6704391614839
20
34.6145155136689
30
0
41
1
10
14.7010847128312
20
34.5256670435357
30
0
41
1
10
14.7482493943687
20
34.4242334094043
30
0
41
1
10
14.7639541374539
20
34.3961443968799
30
0
41
1
10
14.7948045207729
20
34.3504875088914
30
0
41
1
10
14.8100460701012
20
34.3326378675163
30
0
41
1
10
14.8251612716294
20
34.318213693214
30
0
0
SPLINE
5
172
100
AcDbEntity
8
1
62
256
6
ByLayer
370
18
48
1
60
0
100
AcDbSpline
70
4
71
3
72
14
73
10
40
0
40
0
40
0
40
0
40
0.25
40
0.25
40
0.5
40
0.5
40
0.75
40
0.75
40
1
40
1
40
1
40
1
41
1
10
13.1748387283708
20
34.5650483864309
30
0
41
1
10
13.2269196325483
20
34.5693632395832
30
0
41
1
10
13.2802609666233
20
34.5771136456619
30
0
41
1
10
13.3871849408449
20
34.6022490221982
30
0
41
1
10
13.4409462737299
20
34.6196879434625
30
0
41
1
10
13.5491703290177
20
34.6659794489074
30
0
41
1
10
13.6040173439599
20
34.6951431222393
30
0
41
1
10
13.7109129388169
20
34.7615839962194
30
0
41
1
10
13.7633382718928
20
34.7988605803668
30
0
41
1
10
13.8150850332099
20
34.8388290793017
30
0
0
SPLINE
5
173
100
AcDbEntity
8
1
62
256
6
ByLayer
370
18
48
1
60
0
100
AcDbSpline
70
4
71
3
72
12
73
8
40
0
40
0
40
0
40
0
40
0.500000000000004
40
0.500000000000004
40
0.750000000000002
40
0.750000000000002
40
1
40
1
40
1
40
1
41
1
10
13.8150850332093
20
34.8388290792977
30
0
41
1
10
13.9498171017687
20
34.7826356842577
30
0
41
1
10
14.0865692671472
20
34.7391602870936
30
0
41
1
10
14.2970361064143
20
34.7075575564013
30
0
41
1
10
14.3671166737138
20
34.702720612208
30
0
41
1
10
14.5047828776538
20
34.7027400665243
30
0
41
1
10
14.5727964973391
20
34.7074566998428
30
0
41
1
10
14.6402463048395
20
34.7154117326923
30
0
0
SPLINE
5
174
100
AcDbEntity
8
1
62
256
6
ByLayer
370
18
48
1
60
0
100
AcDbSpline
70
4
71
3
72
8
73
4
40
0
40
0
40
0
40
0
40
1
40
1
40
1
40
1
41
1
10
0.342769052838293
20
9.92710219507401
30
0
41
1
10
0.200228104510074
20
10.0093982499619
30
0
41
1
10
0.0693189021619105
20
10.084978713177
30
0
41
1
10
-0.0469703231316885
20
10.1521183287041
30
0
0
SPLINE
5
175
100
AcDbEntity
8
1
62
256
6
ByLayer
370
18
48
1
60
0
100
AcDbSpline
70
4
71
3
72
8
73
4
40
0
40
0
40
0
40
0
40
1
40
1
40
1
40
1
41
1
10
0.126148905032608
20
5.55216789572151
30
0
41
1
10
0.0001260536854772
20
5.62492722287081
30
0
41
1
10
-0.125290129204359
20
5.697336289823
30
0
41
1
10
-0.249980947161618
20
5.76932656713609
30
0
0
SPLINE
5
176
100
AcDbEntity
8
1
62
256
6
ByLayer
370
18
48
1
60
0
100
AcDbSpline
70
4
71
3
72
10
73
6
40
0
40
0
40
0
40
0
40
0.5
40
0.5
40
1
40
1
40
1
40
1
41
1
10
-0.324980947161663
20
5.89923037770382
30
0
41
1
10
-0.324980947161663
20
5.86925980150144
30
0
41
1
10
-0.31541920583507
20
5.84050503820623
30
0
41
1
10
-0.287575493106886
20
5.79678996467402
30
0
41
1
10
-0.269423016056436
20
5.78055145084608
30
0
41
1
10
-0.249980947161646
20
5.76932656713606
30
0
0
SPLINE
5
177
100
AcDbEntity
8
1
62
256
6
ByLayer
370
18
48
1
60
0
100
AcDbSpline
70
4
71
3
72
10
73
6
40
0
40
0
40
0
40
0
40
0.5
40
0.5
40
1
40
1
40
1
40
1
41
1
10
-0.249980947161703
20
6.23067343286397
30
0
41
1
10
-0.269221301634246
20
6.21956500902994
30
0
41
1
10
-0.287683543961578
20
6.20323581555749
30
0
41
1
10
-0.315955426925655
20
6.15845317404336
30
0
41
1
10
-0.324980948528605
20
6.1297133937862
30
0
41
1
10
-0.324980947161663
20
6.10076961521227
30
0
0
SPLINE
5
178
100
AcDbEntity
8
1
62
256
6
ByLayer
370
18
48
1
60
0
100
AcDbSpline
70
4
71
3
72
8
73
4
40
0
40
0
40
0
40
0
40
1
40
1
40
1
40
1
41
1
10
-0.249980947161618
20
6.23067343286402
30
0
41
1
10
-0.0532711848777012
20
6.34424386707087
30
0
41
1
10
0.144388484030259
20
6.45836273012281
30
0
41
1
10
0.342769052838406
20
6.57289780492618
30
0
0
SPLINE
5
179
100
AcDbEntity
8
1
62
256
6
ByLayer
370
18
48
1
60
0
100
AcDbSpline
70
4
71
3
72
18
73
14
40
0
40
0
40
0
40
0
40
0.249999999999983
40
0.249999999999983
40
0.374999999999982
40
0.374999999999982
40
0.49999999999998
40
0.49999999999998
40
0.624999999999979
40
0.624999999999979
40
0.749999999999977
40
0.749999999999977
40
1
40
1
40
1
40
1
41
1
10
0.342769052839571
20
6.57289780491917
30
0
41
1
10
0.370516593263915
20
6.5889178548521
30
0
41
1
10
0.397303986572183
20
6.61292698995098
30
0
41
1
10
0.427069711749226
20
6.66393798432316
30
0
41
1
10
0.434841942706129
20
6.683025676819
30
0
41
1
10
0.444310147221273
20
6.72323929480859
30
0
41
1
10
0.445902567674096
20
6.74420182497156
30
0
41
1
10
0.443169313479899
20
6.78389511560468
30
0
41
1
10
0.438900918789187
20
6.80280522841383
30
0
41
1
10
0.426637846290532
20
6.83662304318071
30
0
41
1
10
0.418504222063262
20
6.85201367673579
30
0
41
1
10
0.390918604963161
20
6.89234207927848
30
0
41
1
10
0.367782685192367
20
6.9126605677032
30
0
41
1
10
0.342769052829709
20
6.9271021950795
30
0
0
SPLINE
5
17A
100
AcDbEntity
8
1
62
256
6
ByLayer
370
18
48
1
60
0
100
AcDbSpline
70
4
71
3
72
8
73
4
40
0
40
0
40
0
40
0
40
1
40
1
40
1
40
1
41
1
10
0.342769052829794
20
6.9271021950789
30
0
41
1
10
0.141559860419505
20
7.04327037648039
30
0
41
1
10
-0.0563906484607344
20
7.15755715606863
30
0
41
1
10
-0.249980947161618
20
7.26932656713609
30
0
0
SPLINE
5
17B
100
AcDbEntity
8
1
62
256
6
ByLayer
370
18
48
1
60
0
100
AcDbSpline
70
4
71
3
72
12
73
8
40
0
40
0
40
0
40
0
40
0.250000000000002
40
0.250000000000002
40
0.500000000000004
40
0.500000000000004
40
1
40
1
40
1
40
1
41
1
10
-0.324980947162771
20
7.39923037770154
30
0
41
1
10
-0.324980947162516
20
7.38337657086751
30
0
41
1
10
-0.322450175692978
20
7.36837825477244
30
0
41
1
10
-0.31411165491005
20
7.34142317214582
30
0
41
1
10
-0.308330050423791
20
7.32935310050175
30
0
41
1
10
-0.287609551001026
20
7.29688749110633
30
0
41
1
10
-0.269931169711441
20
7.28084483349562
30
0
41
1
10
-0.249980947161618
20
7.26932656713609
30
0
0
SPLINE
5
17C
100
AcDbEntity
8
1
62
256
6
ByLayer
370
18
48
1
60
0
100
AcDbSpline
70
4
71
3
72
12
73
8
40
0
40
0
40
0
40
0
40
0.500000000000018
40
0.500000000000018
40
0.750000000000009
40
0.750000000000009
40
1
40
1
40
1
40
1
41
1
10
-0.249980947161959
20
7.73067343286525
30
0
41
1
10
-0.269423441542244
20
7.71944830350114
30
0
41
1
10
-0.289029564075861
20
7.7019604148874
30
0
41
1
10
-0.310297262082116
20
7.66692217929651
30
0
41
1
10
-0.315981866199223
20
7.65376622660906
30
0
41
1
10
-0.323277724085671
20
7.62718865316555
30
0
41
1
10
-0.324980946025562
20
7.61364114856787
30
0
41
1
10
-0.324980947161663
20
7.60076963553601
30
0
0
SPLINE
5
17D
100
AcDbEntity
8
1
62
256
6
ByLayer
370
18
48
1
60
0
100
AcDbSpline
70
4
71
3
72
8
73
4
40
0
40
0
40
0
40
0
40
1
40
1
40
1
40
1
41
1
10
-0.249980947161618
20
7.73067343286402
30
0
41
1
10
-0.0525430838766852
20
7.8446642363798
30
0
41
1
10
0.145053884700019
20
7.95874689937861
30
0
41
1
10
0.342769052838406
20
8.07289780492619
30
0
0
SPLINE
5
17E
100
AcDbEntity
8
1
62
256
6
ByLayer
370
18
48
1
60
0
100
AcDbSpline
70
4
71
3
72
20
73
16
40
0
40
0
40
0
40
0
40
0.124999999999996
40
0.124999999999996
40
0.249999999999991
40
0.249999999999991
40
0.374999999999987
40
0.374999999999987
40
0.499999999999983
40
0.499999999999983
40
0.624999999999978
40
0.624999999999978
40
0.749999999999974
40
0.749999999999974
40
1
40
1
40
1
40
1
41
1
10
0.342769052838463
20
8.07289780491905
30
0
41
1
10
0.358292509144548
20
8.08186027659576
30
0
41
1
10
0.373840112708223
20
8.09359617355815
30
0
41
1
10
0.402117274927349
20
8.12302489792029
30
0
41
1
10
0.414983786794949
20
8.14098160453824
30
0
41
1
10
0.434460540703299
20
8.18137308670546
30
0
41
1
10
0.440646639176208
20
8.20301629896775
30
0
41
1
10
0.44601531082543
20
8.24454042772558
30
0
41
1
10
0.445321800639732
20
8.26441983775581
30
0
41
1
10
0.439548347043996
20
8.30039282960806
30
0
41
1
10
0.434428159406963
20
8.31691561693788
30
0
41
1
10
0.421597423724734
20
8.34637979558786
30
0
41
1
10
0.413807258685097
20
8.35960033832487
30
0
41
1
10
0.387312012959086
20
8.39544835043756
30
0
41
1
10
0.366333953146238
20
8.41349699353793
30
0
41
1
10
0.342769052838492
20
8.42710219507407
30
0
0
SPLINE
5
17F
100
AcDbEntity
8
1
62
256
6
ByLayer
370
18
48
1
60
0
100
AcDbSpline
70
4
71
3
72
8
73
4
40
0
40
0
40
0
40
0
40
1
40
1
40
1
40
1
41
1
10
0.342769052838406
20
8.42710219507393
30
0
41
1
10
0.136066482638881
20
8.54644197962082
30
0
41
1
10
-0.062536339194196
20
8.66110537226797
30
0
41
1
10
-0.249980947161618
20
8.76932656713612
30
0
0
SPLINE
5
180
100
AcDbEntity
8
1
62
256
6
ByLayer
370
18
48
1
60
0
100
AcDbSpline
70
4
71
3
72
10
73
6
40
0
40
0
40
0
40
0
40
0.5
40
0.5
40
1
40
1
40
1
40
1
41
1
10
-0.324980947161663
20
8.89923037769219
30
0
41
1
10
-0.324980947159133
20
8.86655406122381
30
0
41
1
10
-0.315260525494267
20
8.84047279882154
30
0
41
1
10
-0.28846912336104
20
8.79798193556161
30
0
41
1
10
-0.270641110941739
20
8.78125471825561
30
0
41
1
10
-0.249980947161816
20
8.76932656713578
30
0
0
SPLINE
5
181
100
AcDbEntity
8
1
62
256
6
ByLayer
370
18
48
1
60
0
100
AcDbSpline
70
4
71
3
72
14
73
10
40
0
40
0
40
0
40
0
40
0.25
40
0.25
40
0.5
40
0.5
40
0.75
40
0.75
40
1
40
1
40
1
40
1
41
1
10
-0.249980947161077
20
9.23067343286618
30
0
41
1
10
-0.260244164922426
20
9.22474796132906
30
0
41
1
10
-0.270778577522549
20
9.21705150636521
30
0
41
1
10
-0.290763328836391
20
9.19717036212282
30
0
41
1
10
-0.299849915215702
20
9.18511528382069
30
0
41
1
10
-0.313591135543021
20
9.1598768593976
30
0
41
1
10
-0.318241784056994
20
9.14694235130665
30
0
41
1
10
-0.323900489139646
20
9.12264559791512
30
0
41
1
10
-0.324980945088157
20
9.11142868840236
30
0
41
1
10
-0.324980947161663
20
9.10076965147613
30
0
0
SPLINE
5
182
100
AcDbEntity
8
1
62
256
6
ByLayer
370
18
48
1
60
0
100
AcDbSpline
70
4
71
3
72
8
73
4
40
0
40
0
40
0
40
0
40
1
40
1
40
1
40
1
41
1
10
-0.249980947161333
20
9.23067343286419
30
0
41
1
10
-0.0525671006114692
20
9.34465037031151
30
0
41
1
10
0.145035952120594
20
9.45873654599905
30
0
41
1
10
0.342769052838406
20
9.57289780492619
30
0
0
SPLINE
5
183
100
AcDbEntity
8
1
62
256
6
ByLayer
370
18
48
1
60
0
100
AcDbSpline
70
4
71
3
72
18
73
14
40
0
40
0
40
0
40
0
40
0.124999999999994
40
0.124999999999994
40
0.249999999999987
40
0.249999999999987
40
0.374999999999981
40
0.374999999999981
40
0.499999999999974
40
0.499999999999974
40
0.749999999999987
40
0.749999999999987
40
1
40
1
40
1
40
1
41
1
10
0.342769052837838
20
9.57289780492366
30
0
41
1
10
0.361659745428625
20
9.5838043513759
30
0
41
1
10
0.381427263361957
20
9.59943461143865
30
0
41
1
10
0.415201412962347
20
9.64040468492169
30
0
41
1
10
0.428156283128999
20
9.66518180396042
30
0
41
1
10
0.442739500660707
20
9.71115740671533
30
0
41
1
10
0.445111268805192
20
9.73216305181924
30
0
41
1
10
0.444921672841446
20
9.76989222185938
30
0
41
1
10
0.442344734563505
20
9.78660417650858
30
0
41
1
10
0.4302071274534
20
9.83277421407419
30
0
41
1
10
0.416682839154987
20
9.85712203954077
30
0
41
1
10
0.383930349616691
20
9.89812835961135
30
0
41
1
10
0.364451801694372
20
9.91458365418586
30
0
41
1
10
0.342769052838719
20
9.92710219507444
30
0
0
SPLINE
5
184
100
AcDbEntity
8
1
62
256
6
ByLayer
370
18
48
1
60
0
100
AcDbSpline
70
4
71
3
72
8
73
4
40
0
40
0
40
0
40
0
40
1
40
1
40
1
40
1
41
1
10
0.342769052838264
20
-9.92710219507387
30
0
41
1
10
0.200228104510046
20
-10.0093982499617
30
0
41
1
10
0.0693189021619105
20
-10.0849787131768
30
0
41
1
10
-0.0469703231316885
20
-10.1521183287039
30
0
0
SPLINE
5
185
100
AcDbEntity
8
1
62
256
6
ByLayer
370
18
48
1
60
0
100
AcDbSpline
70
4
71
3
72
18
73
14
40
0
40
0
40
0
40
0
40
0.125000000000006
40
0.125000000000006
40
0.250000000000013
40
0.250000000000013
40
0.375000000000019
40
0.375000000000019
40
0.500000000000026
40
0.500000000000026
40
0.750000000000013
40
0.750000000000013
40
1
40
1
40
1
40
1
41
1
10
0.342769052837781
20
-9.57289780492351
30
0
41
1
10
0.361659745428568
20
-9.58380435137576
30
0
41
1
10
0.381427263361871
20
-9.59943461143848
30
0
41
1
10
0.415201412962261
20
-9.64040468492152
30
0
41
1
10
0.428156283128942
20
-9.66518180396025
30
0
41
1
10
0.442739500660679
20
-9.71115740671516
30
0
41
1
10
0.445111268805164
20
-9.73216305181907
30
0
41
1
10
0.444921672841446
20
-9.76989222185921
30
0
41
1
10
0.442344734563505
20
-9.7866041765084
30
0
41
1
10
0.4302071274534
20
-9.83277421407402
30
0
41
1
10
0.41668283915493
20
-9.85712203954063
30
0
41
1
10
0.383930349616634
20
-9.89812835961121
30
0
41
1
10
0.364451801694344
20
-9.91458365418572
30
0
41
1
10
0.34276905283869
20
-9.92710219507433
30
0
0
SPLINE
5
186
100
AcDbEntity
8
1
62
256
6
ByLayer
370
18
48
1
60
0
100
AcDbSpline
70
4
71
3
72
8
73
4
40
0
40
0
40
0
40
0
40
1
40
1
40
1
40
1
41
1
10
-0.249980947161618
20
-9.23067343286391
30
0
41
1
10
-0.0525671006116681
20
-9.34465037031129
30
0
41
1
10
0.145035952120452
20
-9.45873654599887
30
0
41
1
10
0.342769052838349
20
-9.57289780492604
30
0
0
SPLINE
5
187
100
AcDbEntity
8
1
62
256
6
ByLayer
370
18
48
1
60
0
100
AcDbSpline
70
4
71
3
72
14
73
10
40
0
40
0
40
0
40
0
40
0.25
40
0.25
40
0.5
40
0.5
40
0.75
40
0.75
40
1
40
1
40
1
40
1
41
1
10
-0.324980947166523
20
-9.10076962228254
30
0
41
1
10
-0.324980947167489
20
-9.11136059578067
30
0
41
1
10
-0.323881994656631
20
-9.12274977248734
30
0
41
1
10
-0.318229425941382
20
-9.1469705127077
30
0
41
1
10
-0.313571777695841
20
-9.15991639605667
30
0
41
1
10
-0.299850214227632
20
-9.18511074688456
30
0
41
1
10
-0.290682009752601
20
-9.1972589844824
30
0
41
1
10
-0.270776707340446
20
-9.21704560963468
30
0
41
1
10
-0.260190127137889
20
-9.22477916006085
30
0
41
1
10
-0.249980947161561
20
-9.23067343286817
30
0
0
SPLINE
5
188
100
AcDbEntity
8
1
62
256
6
ByLayer
370
18
48
1
60
0
100
AcDbSpline
70
4
71
3
72
12
73
8
40
0
40
0
40
0
40
0
40
0.500000000000033
40
0.500000000000033
40
0.750000000000016
40
0.750000000000016
40
1
40
1
40
1
40
1
41
1
10
-0.249980947162186
20
-8.76932656713521
30
0
41
1
10
-0.270604914733156
20
-8.78123382036407
30
0
41
1
10
-0.288263389710124
20
-8.79770683350699
30
0
41
1
10
-0.308536328216064
20
-8.8297829468986
30
0
41
1
10
-0.314161023968097
20
-8.84158814262511
30
0
41
1
10
-0.322390682705617
20
-8.86818056431352
30
0
41
1
10
-0.324980951347356
20
-8.88288598383085
30
0
41
1
10
-0.324980947161691
20
-8.89923041611746
30
0
0
SPLINE
5
189
100
AcDbEntity
8
1
62
256
6
ByLayer
370
18
48
1
60
0
100
AcDbSpline
70
4
71
3
72
8
73
4
40
0
40
0
40
0
40
0
40
1
40
1
40
1
40
1
41
1
10
0.342769052838378
20
-8.42710219507381
30
0
41
1
10
0.136066482638853
20
-8.54644197962071
30
0
41
1
10
-0.0625363391942244
20
-8.66110537226785
30
0
41
1
10
-0.249980947161646
20
-8.76932656713598
30
0
0
SPLINE
5
18A
100
AcDbEntity
8
1
62
256
6
ByLayer
370
18
48
1
60
0
100
AcDbSpline
70
4
71
3
72
20
73
16
40
0
40
0
40
0
40
0
40
0.125000000000004
40
0.125000000000004
40
0.250000000000007
40
0.250000000000007
40
0.375000000000011
40
0.375000000000011
40
0.500000000000015
40
0.500000000000015
40
0.625000000000018
40
0.625000000000018
40
0.750000000000022
40
0.750000000000022
40
1
40
1
40
1
40
1
41
1
10
0.342769052838463
20
-8.07289780491894
30
0
41
1
10
0.358292509144519
20
-8.08186027659565
30
0
41
1
10
0.373840112708194
20
-8.09359617355807
30
0
41
1
10
0.402117274927321
20
-8.12302489792017
30
0
41
1
10
0.414983786794949
20
-8.14098160453815
30
0
41
1
10
0.43446054070327
20
-8.18137308670535
30
0
41
1
10
0.440646639176208
20
-8.20301629896764
30
0
41
1
10
0.44601531082543
20
-8.2445404277255
30
0
41
1
10
0.445321800639732
20
-8.26441983775572
30
0
41
1
10
0.439548347043996
20
-8.30039282960797
30
0
41
1
10
0.434428159406963
20
-8.31691561693776
30
0
41
1
10
0.421597423724705
20
-8.34637979558778
30
0
41
1
10
0.413807258685068
20
-8.35960033832478
30
0
41
1
10
0.387312012959057
20
-8.39544835043745
30
0
41
1
10
0.36633395314621
20
-8.41349699353785
30
0
41
1
10
0.342769052838463
20
-8.42710219507396
30
0
0
SPLINE
5
18B
100
AcDbEntity
8
1
62
256
6
ByLayer
370
18
48
1
60
0
100
AcDbSpline
70
4
71
3
72
8
73
4
40
0
40
0
40
0
40
0
40
1
40
1
40
1
40
1
41
1
10
-0.249980947161618
20
-7.73067343286391
30
0
41
1
10
-0.0525430838767136
20
-7.84466423637968
30
0
41
1
10
0.145053884699991
20
-7.9587468993785
30
0
41
1
10
0.342769052838378
20
-8.07289780492607
30
0
0
SPLINE
5
18C
100
AcDbEntity
8
1
62
256
6
ByLayer
370
18
48
1
60
0
100
AcDbSpline
70
4
71
3
72
12
73
8
40
0
40
0
40
0
40
0
40
0.25
40
0.25
40
0.5
40
0.5
40
1
40
1
40
1
40
1
41
1
10
-0.324980947161748
20
-7.60076962228351
30
0
41
1
10
-0.324980947162828
20
-7.61355284176673
30
0
41
1
10
-0.323278187877406
20
-7.62715829572264
30
0
41
1
10
-0.316025131018847
20
-7.65363711598724
30
0
41
1
10
-0.310349374009064
20
-7.66682045254657
30
0
41
1
10
-0.289065322062783
20
-7.7019330942563
30
0
41
1
10
-0.269481467385646
20
-7.71941480226337
30
0
41
1
10
-0.249980947161674
20
-7.73067343286402
30
0
0
SPLINE
5
18D
100
AcDbEntity
8
1
62
256
6
ByLayer
370
18
48
1
60
0
100
AcDbSpline
70
4
71
3
72
10
73
6
40
0
40
0
40
0
40
0
40
0.5
40
0.5
40
1
40
1
40
1
40
1
41
1
10
-0.249980947159941
20
-7.26932656713424
30
0
41
1
10
-0.269739875690192
20
-7.28073438983967
30
0
41
1
10
-0.287604165308892
20
-7.29692770850377
30
0
41
1
10
-0.315076899640502
20
-7.33987593818725
30
0
41
1
10
-0.324980951061235
20
-7.36726670859449
30
0
41
1
10
-0.324980947161691
20
-7.39923039600359
30
0
0
SPLINE
5
18E
100
AcDbEntity
8
1
62
256
6
ByLayer
370
18
48
1
60
0
100
AcDbSpline
70
4
71
3
72
8
73
4
40
0
40
0
40
0
40
0
40
1
40
1
40
1
40
1
41
1
10
0.342769052838378
20
-6.92710219507382
30
0
41
1
10
0.14155986042573
20
-7.0432703764767
30
0
41
1
10
-0.0563906484568122
20
-7.15755715606625
30
0
41
1
10
-0.249980947159884
20
-7.26932656713498
30
0
0
SPLINE
5
18F
100
AcDbEntity
8
1
62
256
6
ByLayer
370
18
48
1
60
0
100
AcDbSpline
70
4
71
3
72
18
73
14
40
0
40
0
40
0
40
0
40
0.25
40
0.25
40
0.375000000000005
40
0.375000000000005
40
0.50000000000001
40
0.50000000000001
40
0.625000000000015
40
0.625000000000015
40
0.75000000000002
40
0.75000000000002
40
1
40
1
40
1
40
1
41
1
10
0.342769052839543
20
-6.57289780491908
30
0
41
1
10
0.370516593263062
20
-6.5889178548515
30
0
41
1
10
0.397303986570591
20
-6.6129269899495
30
0
41
1
10
0.427069711747379
20
-6.6639379843192
30
0
41
1
10
0.434841942704452
20
-6.6830256768142
30
0
41
1
10
0.444310147220421
20
-6.72323929480245
30
0
41
1
10
0.445902567673841
20
-6.74420182496473
30
0
41
1
10
0.443169313481093
20
-6.78389511559718
30
0
41
1
10
0.438900918791148
20
-6.80280522840624
30
0
41
1
10
0.426637846293971
20
-6.83662304317306
30
0
41
1
10
0.418504222067469
20
-6.85201367672832
30
0
41
1
10
0.390918604969414
20
-6.89234207927166
30
0
41
1
10
0.367782685199927
20
-6.91266056769703
30
0
41
1
10
0.342769052838577
20
-6.92710219507427
30
0
0
SPLINE
5
190
100
AcDbEntity
8
1
62
256
6
ByLayer
370
18
48
1
60
0
100
AcDbSpline
70
4
71
3
72
8
73
4
40
0
40
0
40
0
40
0
40
1
40
1
40
1
40
1
41
1
10
-0.249980947161618
20
-6.23067343286391
30
0
41
1
10
-0.0532711848777296
20
-6.34424386707076
30
0
41
1
10
0.144388484030259
20
-6.4583627301227
30
0
41
1
10
0.342769052838406
20
-6.57289780492607
30
0
0
SPLINE
5
191
100
AcDbEntity
8
1
62
256
6
ByLayer
370
18
48
1
60
0
100
AcDbSpline
70
4
71
3
72
10
73
6
40
0
40
0
40
0
40
0
40
0.5
40
0.5
40
1
40
1
40
1
40
1
41
1
10
-0.324980947161691
20
-6.10076962229388
30
0
41
1
10
-0.324980947162118
20
-6.12931852219353
30
0
41
1
10
-0.315985583490715
20
-6.15835355448564
30
0
41
1
10
-0.287820516916696
20
-6.20307039555908
30
0
41
1
10
-0.269391712225257
20
-6.21946662242925
30
0
41
1
10
-0.249980947161618
20
-6.23067343286391
30
0
0
SPLINE
5
192
100
AcDbEntity
8
1
62
256
6
ByLayer
370
18
48
1
60
0
100
AcDbSpline
70
4
71
3
72
10
73
6
40
0
40
0
40
0
40
0
40
0.5
40
0.5
40
1
40
1
40
1
40
1
41
1
10
-0.249980947161646
20
-5.76932656713598
30
0
41
1
10
-0.269347069078094
20
-5.78050760283759
30
0
41
1
10
-0.287503923385998
20
-5.79667268399606
30
0
41
1
10
-0.31550710425006
20
-5.84064795806287
30
0
41
1
10
-0.324980950420439
20
-5.8688566349698
30
0
41
1
10
-0.324980947161691
20
-5.89923039379701
30
0
0
SPLINE
5
193
100
AcDbEntity
8
1
62
256
6
ByLayer
370
18
48
1
60
0
100
AcDbSpline
70
4
71
3
72
8
73
4
40
0
40
0
40
0
40
0
40
1
40
1
40
1
40
1
41
1
10
0.126148905032494
20
-5.55216789572145
30
0
41
1
10
0.000126053685392
20
-5.62492722287075
30
0
41
1
10
-0.125290129204387
20
-5.69733628982289
30
0
41
1
10
-0.249980947161618
20
-5.76932656713598
30
0
0
SPLINE
5
194
100
AcDbEntity
8
1
62
256
6
ByLayer
370
18
48
1
60
0
100
AcDbSpline
70
4
71
3
72
22
73
18
40
0
40
0
40
0
40
0
40
0.249999999999996
40
0.249999999999996
40
0.312499999999995
40
0.312499999999995
40
0.374999999999995
40
0.374999999999995
40
0.499999999999997
40
0.499999999999997
40
0.624999999999999
40
0.624999999999999
40
0.6875
40
0.6875
40
0.75
40
0.75
40
1
40
1
40
1
40
1
41
1
10
13.6218185035565
20
-10.6135198841349
30
0
41
1
10
13.5347064664202
20
-10.3437825312534
30
0
41
1
10
13.4543238485071
20
-10.026775861374
30
0
41
1
10
13.3631840106263
20
-9.57247326418656
30
0
41
1
10
13.3454298380336
20
-9.47866755015755
30
0
41
1
10
13.3109217249155
20
-9.28501466601298
30
0
41
1
10
13.2941503060707
20
-9.18500766037386
30
0
41
1
10
13.2461023591684
20
-8.88009498615955
30
0
41
1
10
13.2168370152578
20
-8.66901224501669
30
0
41
1
10
13.1639432451282
20
-8.23151012329782
30
0
41
1
10
13.1403141285807
20
-8.00509130765519
30
0
41
1
10
13.1093563289933
20
-7.65361899034113
30
0
41
1
10
13.0997611020669
20
-7.53411966759242
30
0
41
1
10
13.0822617954211
20
-7.29275843604367
30
0
41
1
10
13.0743869570053
20
-7.17138398211469
30
0
41
1
10
13.0393347666918
20
-6.56111454362991
30
0
41
1
10
13.0249499599599
20
-6.06218934236006
30
0
41
1
10
13.0249499599599
20
-5.55216789572148
30
0
0
SPLINE
5
195
100
AcDbEntity
8
1
62
256
6
ByLayer
370
18
48
1
60
0
100
AcDbSpline
70
4
71
3
72
24
73
20
40
0
40
0
40
0
40
0
40
0.0625000000000032
40
0.0625000000000032
40
0.125000000000006
40
0.125000000000006
40
0.18750000000001
40
0.18750000000001
40
0.250000000000013
40
0.250000000000013
40
0.312500000000016
40
0.312500000000016
40
0.375000000000019
40
0.375000000000019
40
0.500000000000019
40
0.500000000000019
40
0.750000000000009
40
0.750000000000009
40
1
40
1
40
1
40
1
41
1
10
2.17000000000007
20
9.86505004699595
30
0
41
1
10
2.21360594749777
20
9.86505004699598
30
0
41
1
10
2.25588130501527
20
9.87059109464479
30
0
41
1
10
2.33809751967635
20
9.89130514093932
30
0
41
1
10
2.37633974755775
20
9.90605240637134
30
0
41
1
10
2.44757051369848
20
9.94143301002023
30
0
41
1
10
2.48067532306743
20
9.96219851853922
30
0
41
1
10
2.54076700818561
20
10.0064005261324
30
0
41
1
10
2.56817738443652
20
10.0300605608639
30
0
41
1
10
2.619021439938
20
10.0795349585368
30
0
41
1
10
2.64240637985691
20
10.1053563222147
30
0
41
1
10
2.68510808657968
20
10.1574274787174
30
0
41
1
10
2.70458095960134
20
10.1838352704318
30
0
41
1
10
2.75853852616188
20
10.2637135016592
30
0
41
1
10
2.78862266924162
20
10.3178169173336
30
0
41
1
10
2.86617647785621
20
10.480579216777
30
0
41
1
10
2.89969658780566
20
10.5859644616191
30
0
41
1
10
2.94428106913702
20
10.7880471044001
30
0
41
1
10
2.9550083889898
20
10.8848823437252
30
0
41
1
10
2.95533674511236
20
10.9770849420983
30
0
0
SPLINE
5
196
100
AcDbEntity
8
1
62
256
6
ByLayer
370
18
48
1
60
0
100
AcDbSpline
70
4
71
3
72
16
73
12
40
0
40
0
40
0
40
0
40
0.250000000000001
40
0.250000000000001
40
0.500000000000001
40
0.500000000000001
40
0.625000000000002
40
0.625000000000002
40
0.750000000000002
40
0.750000000000002
40
1
40
1
40
1
40
1
41
1
10
13.564404685348
20
10.9770849420983
30
0
41
1
10
13.5067603981784
20
10.7995081613727
30
0
41
1
10
13.4518023335859
20
10.6029654458177
30
0
41
1
10
13.3475194352402
20
10.1731873945621
30
0
41
1
10
13.2981927665003
20
9.93995245231184
30
0
41
1
10
13.2289362639107
20
9.56155956372652
30
0
41
1
10
13.2065984460848
20
9.43029750238048
30
0
41
1
10
13.1642625858528
20
9.16199869724272
30
0
41
1
10
13.1441818166186
20
9.02455499909519
30
0
41
1
10
13.087258779083
20
8.60241448469534
30
0
41
1
10
13.053716675672
20
8.30796814064377
30
0
41
1
10
13.0249499599599
20
7.99999999999969
30
0
0
SPLINE
5
197
100
AcDbEntity
8
1
62
256
6
ByLayer
370
18
48
1
60
0
100
AcDbSpline
70
4
71
3
72
51
73
47
40
0
40
0
40
0
40
0
40
0.0625000000000007
40
0.0625000000000007
40
0.0937500000000012
40
0.0937500000000012
40
0.125000000000002
40
0.125000000000002
40
0.187500000000002
40
0.187500000000002
40
0.218750000000003
40
0.218750000000003
40
0.250000000000003
40
0.281250000000003
40
0.281250000000003
40
0.312500000000003
40
0.312500000000003
40
0.375000000000002
40
0.375000000000002
40
0.437500000000002
40
0.437500000000002
40
0.500000000000001
40
0.500000000000001
40
0.531250000000001
40
0.531250000000001
40
0.562500000000001
40
0.593750000000002
40
0.593750000000002
40
0.625000000000002
40
0.625000000000002
40
0.687500000000001
40
0.687500000000001
40
0.718750000000001
40
0.718750000000001
40
0.750000000000001
40
0.750000000000001
40
0.8125
40
0.8125
40
0.84375
40
0.84375
40
0.875
40
0.90625
40
0.90625
40
0.9375
40
0.9375
40
1
40
1
40
1
40
1
41
1
10
16.75
20
3.88515862922213
30
0
41
1
10
16.7460596487497
20
3.73704717592861
30
0
41
1
10
16.7414505684031
20
3.60093435064999
30
0
41
1
10
16.7334524956971
20
3.41403476081194
30
0
41
1
10
16.7306043320112
20
3.35463667167329
30
0
41
1
10
16.7245118030046
20
3.24180550441736
30
0
41
1
10
16.7212727997979
20
3.18856605728678
30
0
41
1
10
16.7111535759938
20
3.04145561358698
30
0
41
1
10
16.7038072235106
20
2.95875088279914
30
0
41
1
10
16.6917738065213
20
2.85787557985833
30
0
41
1
10
16.6875701327342
20
2.82804983245899
30
0
41
1
10
16.6789812686122
20
2.7775601618699
30
0
41
1
10
16.6701828669532
20
2.73589150718462
30
0
41
1
10
16.6609543768816
20
2.71148720097946
30
0
41
1
10
16.6515026240267
20
2.69580380723966
30
0
41
1
10
16.6466407396026
20
2.69233264362549
30
0
41
1
10
16.6318800847349
20
2.69549059231377
30
0
41
1
10
16.6219215527304
20
2.71532583572113
30
0
41
1
10
16.6018130096329
20
2.78946594841511
30
0
41
1
10
16.5915625343078
20
2.84473622739793
30
0
41
1
10
16.5718152283659
20
2.98615204176542
30
0
41
1
10
16.5622395300029
20
3.07225397908402
30
0
41
1
10
16.5484437701745
20
3.22494292206054
30
0
41
1
10
16.5439399705696
20
3.27988469999576
30
0
41
1
10
16.5353547344919
20
3.39517123867782
30
0
41
1
10
16.5271361129876
20
3.5164358291731
30
0
41
1
10
16.5196819933169
20
3.64947978935641
30
0
41
1
10
16.5126377088288
20
3.78851428851786
30
0
41
1
10
16.5093036008174
20
3.86147837470651
30
0
41
1
10
16.5001471028254
20
4.08542770659838
30
0
41
1
10
16.495130985449
20
4.24165483565562
30
0
41
1
10
16.4893094643467
20
4.48622668968383
30
0
41
1
10
16.4876504075988
20
4.56973255738208
30
0
41
1
10
16.4849562076028
20
4.73917401403793
30
0
41
1
10
16.4839339745248
20
4.82416690601642
30
0
41
1
10
16.4818207099083
20
5.07993563192744
30
0
41
1
10
16.4816751544337
20
5.25149317719149
30
0
41
1
10
16.4834132655573
20
5.51044567318382
30
0
41
1
10
16.4843192655256
20
5.5963557782394
30
0
41
1
10
16.4867370239367
20
5.76498741511108
30
0
41
1
10
16.4897651480929
20
5.93117802737277
30
0
41
1
10
16.4939821037793
20
6.09253351968482
30
0
41
1
10
16.4987928526597
20
6.25141724158269
30
0
41
1
10
16.5015060721767
20
6.32979782590292
30
0
41
1
10
16.5103316495231
20
6.55582817268692
30
0
41
1
10
16.5171708050859
20
6.69627386288369
30
0
41
1
10
16.524881188194
20
6.82652386267873
30
0
0
SPLINE
5
198
100
AcDbEntity
8
1
62
256
6
ByLayer
370
18
48
1
60
0
100
AcDbSpline
70
4
71
3
72
111
73
107
40
0
40
0
40
0
40
0
40
0.0312499999999992
40
0.0312499999999992
40
0.0468749999999988
40
0.0468749999999988
40
0.0624999999999985
40
0.0624999999999985
40
0.0937499999999979
40
0.0937499999999979
40
0.109374999999998
40
0.109374999999998
40
0.124999999999997
40
0.124999999999997
40
0.156249999999997
40
0.156249999999997
40
0.164062499999997
40
0.164062499999997
40
0.171874999999997
40
0.171874999999997
40
0.187499999999996
40
0.187499999999996
40
0.218749999999996
40
0.218749999999996
40
0.234374999999995
40
0.234374999999995
40
0.249999999999995
40
0.249999999999995
40
0.281249999999994
40
0.281249999999994
40
0.296874999999994
40
0.296874999999994
40
0.312499999999994
40
0.312499999999994
40
0.343749999999993
40
0.343749999999993
40
0.359374999999993
40
0.359374999999993
40
0.374999999999993
40
0.390624999999993
40
0.390624999999993
40
0.406249999999993
40
0.406249999999993
40
0.437499999999992
40
0.437499999999992
40
0.453124999999992
40
0.453124999999992
40
0.460937499999992
40
0.460937499999992
40
0.468749999999992
40
0.468749999999992
40
0.499999999999992
40
0.499999999999992
40
0.515624999999992
40
0.515624999999992
40
0.531249999999992
40
0.531249999999992
40
0.562499999999992
40
0.562499999999992
40
0.578124999999992
40
0.578124999999992
40
0.593749999999992
40
0.593749999999992
40
0.624999999999993
40
0.624999999999993
40
0.640624999999993
40
0.640624999999993
40
0.656249999999993
40
0.656249999999993
40
0.687499999999994
40
0.687499999999994
40
0.703124999999994
40
0.703124999999994
40
0.710937499999994
40
0.710937499999994
40
0.718749999999994
40
0.718749999999994
40
0.749999999999994
40
0.749999999999994
40
0.765624999999994
40
0.765624999999994
40
0.781249999999995
40
0.781249999999995
40
0.796874999999995
40
0.796874999999995
40
0.812499999999995
40
0.812499999999995
40
0.843749999999996
40
0.843749999999996
40
0.859374999999996
40
0.859374999999996
40
0.867187499999996
40
0.867187499999996
40
0.874999999999996
40
0.874999999999996
40
0.906249999999997
40
0.906249999999997
40
0.921874999999997
40
0.921874999999997
40
0.937499999999998
40
0.937499999999998
40
0.968749999999999
40
0.968749999999999
40
0.984374999999999
40
0.984374999999999
40
1
40
1
40
1
40
1
41
1
10
14.9970577570045
20
-14.0029422429949
30
0
41
1
10
14.9369002788785
20
-13.9308688739048
30
0
41
1
10
14.8767567078032
20
-13.8258637546994
30
0
41
1
10
14.786850648539
20
-13.6191166970254
30
0
41
1
10
14.7569353327653
20
-13.5419486580954
30
0
41
1
10
14.6972855590595
20
-13.3705476858273
30
0
41
1
10
14.6679514001327
20
-13.2774508063638
30
0
41
1
10
14.5816855157417
20
-12.9772084263096
30
0
41
1
10
14.5263876609686
20
-12.7490237431263
30
0
41
1
10
14.4473280911094
20
-12.3644077435915
30
0
41
1
10
14.4215790678956
20
-12.2288323222442
30
0
41
1
10
14.3717391254208
20
-11.9440867931353
30
0
41
1
10
14.3479226525005
20
-11.7965258830939
30
0
41
1
10
14.2798381705278
20
-11.3387032624624
30
0
41
1
10
14.2389104830384
20
-11.0134165627214
30
0
41
1
10
14.1938690108859
20
-10.5813403366946
30
0
41
1
10
14.1851685882824
20
-10.4936424659745
30
0
41
1
10
14.168405407043
20
-10.3156336290448
30
0
41
1
10
14.1603237499198
20
-10.2250873468186
30
0
41
1
10
14.1372638242612
20
-9.95174862255942
30
0
41
1
10
14.1234392065911
20
-9.76706071335772
30
0
41
1
10
14.0865950023976
20
-9.20579804959885
30
0
41
1
10
14.0681760543576
20
-8.82207924109673
30
0
41
1
10
14.0502198227547
20
-8.23191604996657
30
0
41
1
10
14.0458467671716
20
-8.03170730492008
30
0
41
1
10
14.040571218544
20
-7.63283512173388
30
0
41
1
10
14.039642031702
20
-7.43400352440884
30
0
41
1
10
14.041863360675
20
-6.83927826768289
30
0
41
1
10
14.0499932150077
20
-6.44514057593204
30
0
41
1
10
14.0722423419701
20
-5.85752678405936
30
0
41
1
10
14.081380313871
20
-5.66190719996592
30
0
41
1
10
14.1026249749071
20
-5.27968442566848
30
0
41
1
10
14.1147605337888
20
-5.09210169969884
30
0
41
1
10
14.1555183117894
20
-4.53970959437905
30
0
41
1
10
14.1884650798018
20
-4.18517562553888
30
0
41
1
10
14.246297901899
20
-3.67451029412237
30
0
41
1
10
14.2668588529671
20
-3.50905713572701
30
0
41
1
10
14.3099254477326
20
-3.19115190613866
30
0
41
1
10
14.3550711209448
20
-2.88504812740365
30
0
41
1
10
14.4041169233681
20
-2.60215261692073
30
0
41
1
10
14.4550288331199
20
-2.33093617746062
30
0
41
1
10
14.4814675163516
20
-2.20094237670591
30
0
41
1
10
14.5632039396327
20
-1.83043307555457
30
0
41
1
10
14.6197077743349
20
-1.61447075435191
30
0
41
1
10
14.7068330487186
20
-1.33507541846941
30
0
41
1
10
14.7362738247164
20
-1.24941368875071
30
0
41
1
10
14.7809850453375
20
-1.13227045006306
30
0
41
1
10
14.7959806685925
20
-1.09511697042294
30
0
41
1
10
14.826150071252
20
-1.0246566135655
30
0
41
1
10
14.8413563431369
20
-0.991289407475136
30
0
41
1
10
14.9171510561684
20
-0.83559234873951
30
0
41
1
10
14.9773749057925
20
-0.745455267452058
30
0
41
1
10
15.066864732948
20
-0.660251996961932
30
0
41
1
10
15.0965550314804
20
-0.640233631368204
30
0
41
1
10
15.1556328006558
20
-0.617275905170743
30
0
41
1
10
15.1851637064444
20
-0.614393588318194
30
0
41
1
10
15.2719785840722
20
-0.632021190019174
30
0
41
1
10
15.3275208572973
20
-0.678150583113961
30
0
41
1
10
15.4075532937402
20
-0.797705618466125
30
0
41
1
10
15.4336826270243
20
-0.845998906276151
30
0
41
1
10
15.4848673949451
20
-0.959853040328738
30
0
41
1
10
15.5100311130781
20
-1.02580050252942
30
0
41
1
10
15.5826597157385
20
-1.24654128905658
30
0
41
1
10
15.6275702008688
20
-1.42432968645403
30
0
41
1
10
15.690235379736
20
-1.73611197979341
30
0
41
1
10
15.7103366187999
20
-1.84759870593058
30
0
41
1
10
15.7490168823724
20
-2.08607683029649
30
0
41
1
10
15.7676395014928
20
-2.21352247627584
30
0
41
1
10
15.820258357026
20
-2.61192791822626
30
0
41
1
10
15.8513999750515
20
-2.90081589144214
30
0
41
1
10
15.8928673914571
20
-3.36858948816734
30
0
41
1
10
15.9058100309295
20
-3.53028690812019
30
0
41
1
10
15.9239377930235
20
-3.78173740327506
30
0
41
1
10
15.9297785802466
20
-3.86725250689344
30
0
41
1
10
15.9409367675188
20
-4.03979916805574
30
0
41
1
10
15.9462619191434
20
-4.12691461433934
30
0
41
1
10
15.9716653501488
20
-4.56663247630175
30
0
41
1
10
15.9881119279827
20
-4.9315611162115
30
0
41
1
10
16.0074316559719
20
-5.4985280432202
30
0
41
1
10
16.0129729969609
20
-5.69079791554384
30
0
41
1
10
16.0222524736554
20
-6.08210862833906
30
0
41
1
10
16.0259519255876
20
-6.27971504870899
30
0
41
1
10
16.0314710131166
20
-6.67591820768413
30
0
41
1
10
16.0333015091406
20
-6.87496446478971
30
0
41
1
10
16.0351126861935
20
-7.27495577567149
30
0
41
1
10
16.0350845437008
20
-7.47648302966113
30
0
41
1
10
16.0322257960636
20
-8.07455467114877
30
0
41
1
10
16.0266836046098
20
-8.46729081502053
30
0
41
1
10
16.012862393861
20
-9.0475937438294
30
0
41
1
10
16.0073301194937
20
-9.23955262707418
30
0
41
1
10
15.9975690937526
20
-9.52521950042814
30
0
41
1
10
15.9940618159506
20
-9.62027854173843
30
0
41
1
10
15.9866093607127
20
-9.80794805662185
30
0
41
1
10
15.9826610759472
20
-9.9006864596806
30
0
41
1
10
15.9618073274666
20
-10.3589912535817
30
0
41
1
10
15.94159693498
20
-10.7085202660799
30
0
41
1
10
15.9055626664065
20
-11.2074102901913
30
0
41
1
10
15.8925919401312
20
-11.3694488979111
30
0
41
1
10
15.8645782983009
20
-11.684751512612
30
0
41
1
10
15.8496788292267
20
-11.8363234050096
30
0
41
1
10
15.8025273702567
20
-12.2703491963182
30
0
41
1
10
15.7677222930272
20
-12.5336120721279
30
0
41
1
10
15.7098943647878
20
-12.8894926092192
30
0
41
1
10
15.6896155284351
20
-13.0018812388451
30
0
41
1
10
15.647289014763
20
-13.2118070422615
30
0
41
1
10
15.6254282116758
20
-13.3084872903848
30
0
41
1
10
15.6028507402698
20
-13.3971492597296
30
0
0
SPLINE
5
199
100
AcDbEntity
8
1
62
256
6
ByLayer
370
18
48
1
60
0
100
AcDbSpline
70
4
71
3
72
8
73
4
40
0
40
0
40
0
40
0
40
1
40
1
40
1
40
1
41
1
10
14.8123290900518
20
-14.1876709099481
30
0
41
1
10
14.4484718193831
20
-13.1273273280449
30
0
41
1
10
14.0488369916734
20
-11.9357577791779
30
0
41
1
10
13.6218185035565
20
-10.6135198841349
30
0
0
SPLINE
5
19A
100
AcDbEntity
8
1
62
256
6
ByLayer
370
18
48
1
60
0
100
AcDbSpline
70
4
71
3
72
8
73
4
40
0
40
0
40
0
40
0
40
1
40
1
40
1
40
1
41
1
10
14.9959065411722
20
15.2310538694221
30
0
41
1
10
14.5689791667873
20
14.0051298723491
30
0
41
1
10
14.0868528340395
20
12.5865186760563
30
0
41
1
10
13.564404685348
20
10.9770849420983
30
0
0
SPLINE
5
19B
100
AcDbEntity
8
1
62
256
6
ByLayer
370
18
48
1
60
0
100
AcDbSpline
70
4
71
3
72
19
73
15
40
0
40
0
40
0
40
0
40
0.125
40
0.125
40
0.25
40
0.375
40
0.375
40
0.5
40
0.5
40
0.75
40
0.75
40
0.875
40
0.875
40
1
40
1
40
1
40
1
41
1
10
15.4834715420328
20
19.0940172702461
30
0
41
1
10
15.4751795014671
20
18.8815142489278
30
0
41
1
10
15.4651922682928
20
18.6702519365172
30
0
41
1
10
15.4422937391654
20
18.2618078491158
30
0
41
1
10
15.4164091776754
20
17.8651453527301
30
0
41
1
10
15.3844428027066
20
17.4915779706268
30
0
41
1
10
15.3492557011082
20
17.1297328266265
30
0
41
1
10
15.3299273046705
20
16.9538082150071
30
0
41
1
10
15.2680803519656
20
16.4553051237552
30
0
41
1
10
15.2215599120801
20
16.1587653421609
30
0
41
1
10
15.1430779978272
20
15.7669120669213
30
0
41
1
10
15.1153243653808
20
15.6447379660562
30
0
41
1
10
15.057435417004
20
15.4219724391155
30
0
41
1
10
15.027299049288
20
15.3211976065927
30
0
41
1
10
14.9959065411722
20
15.2310538694221
30
0
0
SPLINE
5
19C
100
AcDbEntity
8
1
62
256
6
ByLayer
370
18
48
1
60
0
100
AcDbSpline
70
2053
71
3
72
110
73
106
40
0
40
0
40
0
40
0
40
0.0312500000000006
40
0.0312500000000006
40
0.0468750000000008
40
0.0468750000000008
40
0.0625000000000011
40
0.0625000000000011
40
0.0937500000000015
40
0.0937500000000015
40
0.101562500000002
40
0.101562500000002
40
0.109375000000002
40
0.109375000000002
40
0.125000000000002
40
0.125000000000002
40
0.156250000000002
40
0.156250000000002
40
0.164062500000002
40
0.164062500000002
40
0.171875000000002
40
0.171875000000002
40
0.187500000000002
40
0.203125000000002
40
0.203125000000002
40
0.210937500000002
40
0.210937500000002
40
0.218750000000002
40
0.218750000000002
40
0.250000000000002
40
0.250000000000002
40
0.265625000000002
40
0.265625000000002
40
0.281250000000002
40
0.281250000000002
40
0.312500000000002
40
0.312500000000002
40
0.328125000000002
40
0.328125000000002
40
0.343750000000002
40
0.343750000000002
40
0.375000000000002
40
0.375000000000002
40
0.390625000000002
40
0.390625000000002
40
0.406250000000002
40
0.421875000000002
40
0.421875000000002
40
0.437500000000002
40
0.437500000000002
40
0.468750000000002
40
0.468750000000002
40
0.484375000000002
40
0.484375000000002
40
0.500000000000002
40
0.500000000000002
40
0.531250000000001
40
0.531250000000001
40
0.539062500000001
40
0.539062500000001
40
0.546875000000001
40
0.546875000000001
40
0.562500000000001
40
0.578125000000001
40
0.578125000000001
40
0.585937500000001
40
0.585937500000001
40
0.593750000000001
40
0.593750000000001
40
0.625000000000001
40
0.625000000000001
40
0.640625
40
0.640625
40
0.65625
40
0.65625
40
0.6875
40
0.6875
40
0.703125
40
0.703125
40
0.71875
40
0.71875
40
0.75
40
0.75
40
0.781250000000001
40
0.781250000000001
40
0.796875000000001
40
0.796875000000001
40
0.812500000000001
40
0.812500000000001
40
0.843750000000001
40
0.843750000000001
40
0.859375
40
0.859375
40
0.875
40
0.875
40
0.90625
40
0.90625
40
0.921875
40
0.921875
40
0.9375
40
0.953125
40
0.953125
40
0.96875
40
0.96875
40
1
40
1
40
1
40
1
41
1
10
16.0348685052014
20
7.36729208785476
30
0
41
1
10
16.0348685052014
20
6.91883656487852
30
0
41
1
10
16.0302660421167
20
6.47796290519804
30
0
41
1
10
16.0165845813901
20
5.82755713963869
30
0
41
1
10
16.0108829801495
20
5.61258639232773
30
0
41
1
10
15.9970786611846
20
5.18639270113263
30
0
41
1
10
15.9889420566743
20
4.97477246433232
30
0
41
1
10
15.9613119930953
20
4.35956765070691
30
0
41
1
10
15.9385116445642
20
3.9707375755512
30
0
41
1
10
15.9040163694264
20
3.51111250386992
30
0
41
1
10
15.8968144190004
20
3.42052008483898
30
0
41
1
10
15.8817784889798
20
3.24204380435697
30
0
41
1
10
15.8739214943142
20
3.1539284086769
30
0
41
1
10
15.8495866669067
20
2.89613297904907
30
0
41
1
10
15.8323271127949
20
2.73262504390243
30
0
41
1
10
15.7773338688955
20
2.26639491179296
30
0
41
1
10
15.7364175351316
20
1.98773739455029
30
0
41
1
10
15.6791521308313
20
1.68059560253869
30
0
41
1
10
15.6673730147687
20
1.62118205154542
30
0
41
1
10
15.6434358614301
20
1.50780829169565
30
0
41
1
10
15.6312489553067
20
1.45368199087562
30
0
41
1
10
15.5940233692499
20
1.29884553086126
30
0
41
1
10
15.5426181522495
20
1.11247486822089
30
0
41
1
10
15.4875178033508
20
0.965666999629377
30
0
41
1
10
15.4447235319785
20
0.87059941232576
30
0
41
1
10
15.4302136599228
20
0.841420992511786
30
0
41
1
10
15.4006860510843
20
0.788174976192352
30
0
41
1
10
15.3856819885625
20
0.764152039683665
30
0
41
1
10
15.3101907503692
20
0.658077040299418
30
0
41
1
10
15.2476628253864
20
0.61655772705987
30
0
41
1
10
15.1505885184714
20
0.617673867210755
30
0
41
1
10
15.1176827486467
20
0.628686590783559
30
0
41
1
10
15.0507540867645
20
0.672651461109382
30
0
41
1
10
15.0170911683692
20
0.705424958144988
30
0
41
1
10
14.9163945898556
20
0.834392422728428
30
0
41
1
10
14.8492901030771
20
0.961167282129111
30
0
41
1
10
14.7491096082461
20
1.2131481705338
30
0
41
1
10
14.7156314814564
20
1.308111339221
30
0
41
1
10
14.6502132207235
20
1.51557636761666
30
0
41
1
10
14.6181810931527
20
1.62819348522123
30
0
41
1
10
14.5242483888486
20
1.99215887345733
30
0
41
1
10
14.4644816709428
20
2.2693607367049
30
0
41
1
10
14.380124864041
20
2.73945640652496
30
0
41
1
10
14.3532434402503
20
2.90340410150063
30
0
41
1
10
14.3023978887167
20
3.24316667015472
30
0
41
1
10
14.2543426221271
20
3.59550401892994
30
0
41
1
10
14.2121012565072
20
3.97288491153475
30
0
41
1
10
14.1729620270448
20
4.36310297188726
30
0
41
1
10
14.1548719349493
20
4.56572476841177
30
0
41
1
10
14.1066162787834
20
5.18091168981499
30
0
41
1
10
14.0820894842262
20
5.60308170336108
30
0
41
1
10
14.0571206620849
20
6.25424254219527
30
0
41
1
10
14.0507758998195
20
6.47444513992525
30
0
41
1
10
14.0422602855829
20
6.92051863027319
30
0
41
1
10
14.0401556165413
20
7.14279239089714
30
0
41
1
10
14.0400997099451
20
7.8074033715601
30
0
41
1
10
14.0483613144155
20
8.24755105775432
30
0
41
1
10
14.0691096484117
20
8.79401305951262
30
0
41
1
10
14.0737993879026
20
8.90342236929408
30
0
41
1
10
14.0841612578564
20
9.12017210700037
30
0
41
1
10
14.0898255134491
20
9.22742786662442
30
0
41
1
10
14.1082246404405
20
9.5459076479309
30
0
41
1
10
14.1365013411789
20
9.96179656976142
30
0
41
1
10
14.1719483193868
20
10.3605259405048
30
0
41
1
10
14.201167480086
20
10.6530788140105
30
0
41
1
10
14.2113468396777
20
10.7495121531781
30
0
41
1
10
14.232583639417
20
10.9401762139134
30
0
41
1
10
14.2436587285139
20
11.0345244529888
30
0
41
1
10
14.3005927417969
20
11.4956412307563
30
0
41
1
10
14.3514997706916
20
11.834821069331
30
0
41
1
10
14.4348515206719
20
12.3004847027459
30
0
41
1
10
14.4638097740988
20
12.4484689059254
30
0
41
1
10
14.5240025263961
20
12.729565971373
30
0
41
1
10
14.5549321915107
20
12.8611842963586
30
0
41
1
10
14.6491404380484
20
13.2266128309683
30
0
41
1
10
14.7141581511588
20
13.432861681784
30
0
41
1
10
14.8143604900665
20
13.68587918803
30
0
41
1
10
14.8483748055266
20
13.7609962841156
30
0
41
1
10
14.9159128822338
20
13.8891407074111
30
0
41
1
10
14.9495468507067
20
13.9425472146236
30
0
41
1
10
15.0499609879886
20
14.0714637924947
30
0
41
1
10
15.1162467984472
20
14.1159767090747
30
0
41
1
10
15.2472437661351
20
14.1185505825787
30
0
41
1
10
15.3099223309843
20
14.0764833465033
30
0
41
1
10
15.3997462659753
20
13.9508665887935
30
0
41
1
10
15.4290026349336
20
13.8984992123497
30
0
41
1
10
15.4861776090644
20
13.7722844248155
30
0
41
1
10
15.5142160116965
20
13.6979675844562
30
0
41
1
10
15.5947158582123
20
13.4467673643863
30
0
41
1
10
15.6440470754138
20
13.241336493622
30
0
41
1
10
15.7122716358952
20
12.8768050237782
30
0
41
1
10
15.7340455329081
20
12.7458320271359
30
0
41
1
10
15.7757162085815
20
12.4642219076262
30
0
41
1
10
15.7952664888706
20
12.315926072799
30
0
41
1
10
15.8503590846516
20
11.8495406540168
30
0
41
1
10
15.882390282246
20
11.5100532368131
30
0
41
1
10
15.9240612617948
20
10.9571418581385
30
0
41
1
10
15.936907932816
20
10.7647867322662
30
0
41
1
10
15.9599997546329
20
10.3735968509164
30
0
41
1
10
15.9806456074466
20
9.97414958936764
30
0
41
1
10
15.9966987004841
20
9.55848908064252
30
0
41
1
10
16.0105176443269
20
9.1346349312557
30
0
41
1
10
16.0163232850289
20
8.91797527880718
30
0
41
1
10
16.0302661905396
20
8.25947982346418
30
0
41
1
10
16.0348685052014
20
7.81574761083098
30
0
41
1
10
16.0348685052014
20
7.36729208785476
30
0
0
SPLINE
5
19D
100
AcDbEntity
8
1
62
256
6
ByLayer
370
18
48
1
60
0
100
AcDbSpline
70
4
71
3
72
25
73
21
40
0
40
0
40
0
40
0
40
0.125000000000002
40
0.125000000000002
40
0.250000000000005
40
0.250000000000005
40
0.375000000000007
40
0.375000000000007
40
0.437500000000007
40
0.437500000000007
40
0.500000000000007
40
0.562500000000007
40
0.562500000000007
40
0.625000000000007
40
0.625000000000007
40
0.750000000000005
40
0.750000000000005
40
0.875000000000002
40
0.875000000000002
40
1
40
1
40
1
40
1
41
1
10
2.17000000000002
20
17.0091721829588
30
0
41
1
10
2.27949121396125
20
17.0091721829588
30
0
41
1
10
2.38692168587335
20
17.0183044373395
30
0
41
1
10
2.59786336230923
20
17.0539373240555
30
0
41
1
10
2.70244915362363
20
17.0809405205129
30
0
41
1
10
2.89922184648177
20
17.1502460966473
30
0
41
1
10
2.99212951448121
20
17.1924670843222
30
0
41
1
10
3.1234298970335
20
17.2669341274154
30
0
41
1
10
3.16577678413876
20
17.2936250385446
30
0
41
1
10
3.24599949154239
20
17.3495386510298
30
0
41
1
10
3.32224368810168
20
17.4082489217068
30
0
41
1
10
3.39078176361198
20
17.4723761404332
30
0
41
1
10
3.45547868333671
20
17.5392034648559
30
0
41
1
10
3.48601735213535
20
17.5741315126774
30
0
41
1
10
3.57026152917672
20
17.6810727977766
30
0
41
1
10
3.61713639906427
20
17.7555940920329
30
0
41
1
10
3.69309257165773
20
17.910819090312
30
0
41
1
10
3.72217654128269
20
17.9921568578367
30
0
41
1
10
3.76042094849262
20
18.1552245058843
30
0
41
1
10
3.77000000000004
20
18.2375249858539
30
0
41
1
10
3.77000000000004
20
18.3205950057741
30
0
0
SPLINE
5
19E
100
AcDbEntity
8
1
62
256
6
ByLayer
370
18
48
1
60
0
100
AcDbSpline
70
4
71
3
72
20
73
16
40
0
40
0
40
0
40
0
40
0.125000000000001
40
0.125000000000001
40
0.250000000000001
40
0.250000000000001
40
0.375000000000002
40
0.375000000000002
40
0.500000000000003
40
0.500000000000003
40
0.750000000000002
40
0.750000000000002
40
0.875000000000001
40
0.875000000000001
40
1
40
1
40
1
40
1
41
1
10
2.97307000269225
20
15.2310538694221
30
0
41
1
10
2.97342016926822
20
15.3015720493926
30
0
41
1
10
2.98801016896067
20
15.3776297927986
30
0
41
1
10
3.03866407827917
20
15.5403223785438
30
0
41
1
10
3.07447293759523
20
15.62697324344
30
0
41
1
10
3.15750516908108
20
15.8112084045509
30
0
41
1
10
3.20439360709835
20
15.9082246372335
30
0
41
1
10
3.30037554776888
20
16.1106814881535
30
0
41
1
10
3.34965769123116
20
16.216416435031
30
0
41
1
10
3.49364273158213
20
16.5482720289033
30
0
41
1
10
3.58474760696004
20
16.7887722766033
30
0
41
1
10
3.6885897676847
20
17.1861311662323
30
0
41
1
10
3.71768887804871
20
17.3252255950788
30
0
41
1
10
3.7582444667178
20
17.6100409360178
30
0
41
1
10
3.77000000000379
20
17.7565014410265
30
0
41
1
10
3.77000000000382
20
17.9072567459161
30
0
0
SPLINE
5
19F
100
AcDbEntity
8
1
62
256
6
ByLayer
370
18
48
1
60
0
100
AcDbSpline
70
4
71
3
72
12
73
8
40
0
40
0
40
0
40
0
40
0.25
40
0.25
40
0.5
40
0.5
40
1
40
1
40
1
40
1
41
1
10
2.95533674511233
20
10.9770849420983
30
0
41
1
10
2.95677130511021
20
11.3799102596006
30
0
41
1
10
2.95821788747227
20
11.770851232524
30
0
41
1
10
2.96113448901369
20
12.528985411335
30
0
41
1
10
2.96260484514846
20
12.8962461680271
30
0
41
1
10
2.96704232727649
20
13.9604414599916
30
0
41
1
10
2.97003825188173
20
14.6205057361482
30
0
41
1
10
2.97307000269223
20
15.2310538694221
30
0
0
SPLINE
5
1A0
100
AcDbEntity
8
1
62
256
6
ByLayer
370
18
48
1
60
0
100
AcDbSpline
70
4
71
3
72
12
73
8
40
0
40
0
40
0
40
0
40
0.249999999999999
40
0.249999999999999
40
0.499999999999998
40
0.499999999999998
40
1
40
1
40
1
40
1
41
1
10
-0.324980947161635
20
10.3992303777079
30
0
41
1
10
-0.324980947162118
20
10.382160386372
30
0
41
1
10
-0.322272682190061
20
10.36771321376
30
0
41
1
10
-0.314112329532719
20
10.3415186347891
30
0
41
1
10
-0.3085602667025
20
10.3298545571438
30
0
41
1
10
-0.288558618445961
20
10.2981073391071
30
0
41
1
10
-0.271062951512931
20
10.2814982680234
30
0
41
1
10
-0.249980947161646
20
10.2693265671361
30
0
0
SPLINE
5
1A1
100
AcDbEntity
8
1
62
256
6
ByLayer
370
18
48
1
60
0
100
AcDbSpline
70
4
71
3
72
14
73
10
40
0
40
0
40
0
40
0
40
0.25
40
0.25
40
0.5
40
0.5
40
0.75
40
0.75
40
1
40
1
40
1
40
1
41
1
10
-0.249980947161589
20
10.7306734328641
30
0
41
1
10
-0.261170454548648
20
10.7242131677621
30
0
41
1
10
-0.273714893758125
20
10.7149334060329
30
0
41
1
10
-0.296507637462582
20
10.6902851252669
30
0
41
1
10
-0.305604265762241
20
10.6757872382091
30
0
41
1
10
-0.317090744544714
20
10.6507185917273
30
0
41
1
10
-0.320295416587868
20
10.6394071207653
30
0
41
1
10
-0.324248578481218
20
10.618889378167
30
0
41
1
10
-0.324980944492779
20
10.6094813158658
30
0
41
1
10
-0.324980947161635
20
10.6007696682495
30
0
0
SPLINE
5
1A2
100
AcDbEntity
8
1
62
256
6
ByLayer
370
18
48
1
60
0
100
AcDbSpline
70
4
71
3
72
8
73
4
40
0
40
0
40
0
40
0
40
1
40
1
40
1
40
1
41
1
10
-0.249980947161618
20
10.730673432864
30
0
41
1
10
-0.052631100579589
20
10.8446134199127
30
0
41
1
10
0.144956402685182
20
10.9586906181111
30
0
41
1
10
0.342769052838378
20
11.0728978049262
30
0
0
SPLINE
5
1A3
100
AcDbEntity
8
1
62
256
6
ByLayer
370
18
48
1
60
0
100
AcDbSpline
70
4
71
3
72
22
73
18
40
0
40
0
40
0
40
0
40
0.0625000000000023
40
0.0625000000000023
40
0.125000000000004
40
0.125000000000004
40
0.187500000000007
40
0.187500000000007
40
0.250000000000009
40
0.250000000000009
40
0.375000000000004
40
0.375000000000004
40
0.499999999999998
40
0.499999999999998
40
0.749999999999999
40
0.749999999999999
40
1
40
1
40
1
40
1
41
1
10
0.342769052838349
20
11.0728978049261
30
0
41
1
10
0.354050595451241
20
11.0794112065905
30
0
41
1
10
0.366209629257355
20
11.0878490587059
30
0
41
1
10
0.390520771895751
20
11.1100338146446
30
0
41
1
10
0.402179577389632
20
11.1236871566762
30
0
41
1
10
0.420239075387002
20
11.1510567178539
30
0
41
1
10
0.426716865430251
20
11.1644252779558
30
0
41
1
10
0.436131893586463
20
11.188940397959
30
0
41
1
10
0.439120072139275
20
11.2000710535236
30
0
41
1
10
0.445319628398323
20
11.2316415550311
30
0
41
1
10
0.445676858959729
20
11.2496418556063
30
0
41
1
10
0.443105753875813
20
11.2823802755194
30
0
41
1
10
0.440018994658686
20
11.2971638179408
30
0
41
1
10
0.427264174779736
20
11.3381142409964
30
0
41
1
10
0.414383428423548
20
11.3604758779005
30
0
41
1
10
0.382981648139633
20
11.3987889432571
30
0
41
1
10
0.364323351058289
20
11.4146578151945
30
0
41
1
10
0.342769052838378
20
11.427102195074
30
0
0
SPLINE
5
1A4
100
AcDbEntity
8
1
62
256
6
ByLayer
370
18
48
1
60
0
100
AcDbSpline
70
4
71
3
72
8
73
4
40
0
40
0
40
0
40
0
40
1
40
1
40
1
40
1
41
1
10
0.342769052838378
20
11.427102195074
30
0
41
1
10
0.140428826570911
20
11.5439233791774
30
0
41
1
10
-0.0572098387455355
20
11.6580301158001
30
0
41
1
10
-0.249980947161646
20
11.7693265671361
30
0
0
SPLINE
5
1A5
100
AcDbEntity
8
1
62
256
6
ByLayer
370
18
48
1
60
0
100
AcDbSpline
70
4
71
3
72
12
73
8
40
0
40
0
40
0
40
0
40
0.250000000000006
40
0.250000000000006
40
0.500000000000012
40
0.500000000000012
40
1
40
1
40
1
40
1
41
1
10
-0.324980947161635
20
11.8992303777034
30
0
41
1
10
-0.324980947161606
20
11.882281072652
30
0
41
1
10
-0.322258331788362
20
11.8676586519618
30
0
41
1
10
-0.314110184966523
20
11.8415202652741
30
0
41
1
10
-0.308588305166722
20
11.8299276392253
30
0
41
1
10
-0.288794763919782
20
11.7984256267749
30
0
41
1
10
-0.271268222819231
20
11.7816167814671
30
0
41
1
10
-0.24998094716176
20
11.769326567136
30
0
0
SPLINE
5
1A6
100
AcDbEntity
8
1
62
256
6
ByLayer
370
18
48
1
60
0
100
AcDbSpline
70
4
71
3
72
18
73
14
40
0
40
0
40
0
40
0
40
0.125000000000004
40
0.125000000000004
40
0.250000000000008
40
0.250000000000008
40
0.375000000000013
40
0.375000000000013
40
0.500000000000017
40
0.500000000000017
40
0.750000000000009
40
0.750000000000009
40
1
40
1
40
1
40
1
41
1
10
-0.249980947105968
20
12.2306734328961
30
0
41
1
10
-0.255633945171468
20
12.2274096729445
30
0
41
1
10
-0.261545722398694
20
12.22353075228
30
0
41
1
10
-0.274089073361125
20
12.2136471429456
30
0
41
1
10
-0.280558475671313
20
12.2076881627031
30
0
41
1
10
-0.292389202618978
20
12.1945432345728
30
0
41
1
10
-0.297726742185972
20
12.1873734755298
30
0
41
1
10
-0.306407273047256
20
12.1735286661002
30
0
41
1
10
-0.309705607901094
20
12.1670655127171
30
0
41
1
10
-0.317845872191242
20
12.1484469794849
30
0
41
1
10
-0.320694136903256
20
12.137775026115
30
0
41
1
10
-0.324336623178056
20
12.1179339928977
30
0
41
1
10
-0.324980944532342
20
12.1090654184485
30
0
41
1
10
-0.324980947161635
20
12.1007696698377
30
0
0
SPLINE
5
1A7
100
AcDbEntity
8
1
62
256
6
ByLayer
370
18
48
1
60
0
100
AcDbSpline
70
4
71
3
72
8
73
4
40
0
40
0
40
0
40
0
40
1
40
1
40
1
40
1
41
1
10
-0.249980947106678
20
12.2306734328957
30
0
41
1
10
-0.0527632893804935
20
12.3445371006729
30
0
41
1
10
0.144826582216581
20
12.4586156662286
30
0
41
1
10
0.342769052838349
20
12.5728978049261
30
0
0
SPLINE
5
1A8
100
AcDbEntity
8
1
62
256
6
ByLayer
370
18
48
1
60
0
100
AcDbSpline
70
4
71
3
72
22
73
18
40
0
40
0
40
0
40
0
40
0.0625000000000027
40
0.0625000000000027
40
0.125000000000005
40
0.125000000000005
40
0.187500000000008
40
0.187500000000008
40
0.250000000000011
40
0.250000000000011
40
0.37500000000001
40
0.37500000000001
40
0.500000000000009
40
0.500000000000009
40
0.750000000000004
40
0.750000000000004
40
1
40
1
40
1
40
1
41
1
10
0.342769052838349
20
12.5728978049261
30
0
41
1
10
0.35460818183941
20
12.5797331292418
30
0
41
1
10
0.367641788104038
20
12.588796950966
30
0
41
1
10
0.39393382083739
20
12.6135796136968
30
0
41
1
10
0.406050000047856
20
12.6287545713997
30
0
41
1
10
0.42357679683775
20
12.65731337312
30
0
41
1
10
0.429373222380718
20
12.6705238773507
30
0
41
1
10
0.437772772863894
20
12.6945624553125
30
0
41
1
10
0.440407220383804
20
12.705598953901
30
0
41
1
10
0.445588571768383
20
12.736119363009
30
0
41
1
10
0.445625738411934
20
12.7535773835825
30
0
41
1
10
0.442516530023767
20
12.7857570881227
30
0
41
1
10
0.439280452881746
20
12.8000626434378
30
0
41
1
10
0.42642100081514
20
12.8396056103107
30
0
41
1
10
0.413679423890926
20
12.8615037472978
30
0
41
1
10
0.382525012517618
20
12.899170731647
30
0
41
1
10
0.363925974973853
20
12.9148872403836
30
0
41
1
10
0.342769052839543
20
12.9271021950733
30
0
0
SPLINE
5
1A9
100
AcDbEntity
8
1
62
256
6
ByLayer
370
18
48
1
60
0
100
AcDbSpline
70
4
71
3
72
8
73
4
40
0
40
0
40
0
40
0
40
1
40
1
40
1
40
1
41
1
10
0.342769052839486
20
12.9271021950733
30
0
41
1
10
0.13909345017305
20
13.0446943591002
30
0
41
1
10
-0.0585614418590694
20
13.1588104642216
30
0
41
1
10
-0.249980947161646
20
13.2693265671361
30
0
0
SPLINE
5
1AA
100
AcDbEntity
8
1
62
256
6
ByLayer
370
18
48
1
60
0
100
AcDbSpline
70
4
71
3
72
12
73
8
40
0
40
0
40
0
40
0
40
0.25
40
0.25
40
0.5
40
0.5
40
1
40
1
40
1
40
1
41
1
10
-0.324980947161635
20
13.3992303777038
30
0
41
1
10
-0.324980947161635
20
13.382332687634
30
0
41
1
10
-0.322317549925145
20
13.3679129498828
30
0
41
1
10
-0.314174146943344
20
13.3416620797113
30
0
41
1
10
-0.308592611466139
20
13.3299280767301
30
0
41
1
10
-0.288720362393804
20
13.298320078643
30
0
41
1
10
-0.271353500686445
20
13.281666016667
30
0
41
1
10
-0.249980947161646
20
13.2693265671361
30
0
0
SPLINE
5
1AB
100
AcDbEntity
8
1
62
256
6
ByLayer
370
18
48
1
60
0
100
AcDbSpline
70
4
71
3
72
18
73
14
40
0
40
0
40
0
40
0
40
0.125000000000004
40
0.125000000000004
40
0.250000000000007
40
0.250000000000007
40
0.375000000000011
40
0.375000000000011
40
0.500000000000014
40
0.500000000000014
40
0.750000000000007
40
0.750000000000007
40
1
40
1
40
1
40
1
41
1
10
-0.249980947185264
20
13.7306734328504
30
0
41
1
10
-0.255879787461311
20
13.7272677358277
30
0
41
1
10
-0.262132384433102
20
13.7231502516311
30
0
41
1
10
-0.275412231696293
20
13.7125101634691
30
0
41
1
10
-0.282361551212887
20
13.7059304146115
30
0
41
1
10
-0.294715763793505
20
13.6916154260129
30
0
41
1
10
-0.299993431987844
20
13.684047825987
30
0
41
1
10
-0.308106196543719
20
13.6703472663304
30
0
41
1
10
-0.311189532503988
20
13.6639225594934
30
0
41
1
10
-0.318524863889877
20
13.6461505958499
30
0
41
1
10
-0.321129814062118
20
13.6358528996719
30
0
41
1
10
-0.324389075210092
20
13.6171262393291
30
0
41
1
10
-0.324980944658819
20
13.6086863494071
30
0
41
1
10
-0.324980947161635
20
13.600769669718
30
0
0
SPLINE
5
1AC
100
AcDbEntity
8
1
62
256
6
ByLayer
370
18
48
1
60
0
100
AcDbSpline
70
4
71
3
72
8
73
4
40
0
40
0
40
0
40
0
40
1
40
1
40
1
40
1
41
1
10
-0.249980947183303
20
13.7306734328515
30
0
41
1
10
-0.0530000040877781
20
13.8444004333729
30
0
41
1
10
0.14459542232197
20
13.9584822060012
30
0
41
1
10
0.342769052838378
20
14.0728978049262
30
0
0
SPLINE
5
1AD
100
AcDbEntity
8
1
62
256
6
ByLayer
370
18
48
1
60
0
100
AcDbSpline
70
4
71
3
72
24
73
20
40
0
40
0
40
0
40
0
40
0.062500000000001
40
0.062500000000001
40
0.0937500000000025
40
0.0937500000000025
40
0.125000000000004
40
0.125000000000004
40
0.187500000000009
40
0.187500000000009
40
0.250000000000014
40
0.250000000000014
40
0.375000000000015
40
0.375000000000015
40
0.500000000000016
40
0.500000000000016
40
0.750000000000008
40
0.750000000000008
40
1
40
1
40
1
40
1
41
1
10
0.342769052834711
20
14.0728978049181
30
0
41
1
10
0.355492163966915
20
14.0802434965546
30
0
41
1
10
0.370101104686682
20
14.090516817362
30
0
41
1
10
0.391579881066718
20
14.1117885239883
30
0
41
1
10
0.398484982044238
20
14.1197537295975
30
0
41
1
10
0.410274648123931
20
14.1355431801381
30
0
41
1
10
0.415157671611155
20
14.1432678560082
30
0
41
1
10
0.427372229456637
20
14.1652254088807
30
0
41
1
10
0.432321891040033
20
14.1780120112319
30
0
41
1
10
0.439549508736462
20
14.2014461443952
30
0
41
1
10
0.441681157637191
20
14.2118967014106
30
0
41
1
10
0.44578820076282
20
14.2412797940188
30
0
41
1
10
0.445442817618073
20
14.2583164448054
30
0
41
1
10
0.441818702447733
20
14.2892602049516
30
0
41
1
10
0.438463981017151
20
14.3031082300084
30
0
41
1
10
0.425407582488674
20
14.3414669139582
30
0
41
1
10
0.412753784859831
20
14.3628334233236
30
0
41
1
10
0.381951448311042
20
14.3996431149245
30
0
41
1
10
0.363680833357279
20
14.4150287729628
30
0
41
1
10
0.342769052840311
20
14.4271021950738
30
0
0
SPLINE
5
1AE
100
AcDbEntity
8
1
62
256
6
ByLayer
370
18
48
1
60
0
100
AcDbSpline
70
4
71
3
72
8
73
4
40
0
40
0
40
0
40
0
40
1
40
1
40
1
40
1
41
1
10
0.34276905283977
20
14.4271021950732
30
0
41
1
10
0.13695146537151
20
14.5459310346019
30
0
41
1
10
-0.0607307434435427
20
14.6600629110753
30
0
41
1
10
-0.249980947161646
20
14.7693265671361
30
0
0
SPLINE
5
1AF
100
AcDbEntity
8
1
62
256
6
ByLayer
370
18
48
1
60
0
100
AcDbSpline
70
4
71
3
72
12
73
8
40
0
40
0
40
0
40
0
40
0.249999999999995
40
0.249999999999995
40
0.49999999999999
40
0.49999999999999
40
1
40
1
40
1
40
1
41
1
10
-0.324980947162885
20
14.8992303777025
30
0
41
1
10
-0.324980947162743
20
14.8822327202224
30
0
41
1
10
-0.322303765072348
20
14.8679024610084
30
0
41
1
10
-0.314253239814207
20
14.8418833678347
30
0
41
1
10
-0.30877923218921
20
14.8302966226743
30
0
41
1
10
-0.289069242120036
20
14.7987354246533
30
0
41
1
10
-0.271567465529529
20
14.7817895493241
30
0
41
1
10
-0.249980947163237
20
14.7693265671344
30
0
0
SPLINE
5
1B0
100
AcDbEntity
8
1
62
256
6
ByLayer
370
18
48
1
60
0
100
AcDbSpline
70
4
71
3
72
18
73
14
40
0
40
0
40
0
40
0
40
0.125000000000008
40
0.125000000000008
40
0.250000000000017
40
0.250000000000017
40
0.375000000000025
40
0.375000000000025
40
0.500000000000034
40
0.500000000000034
40
0.750000000000017
40
0.750000000000017
40
1
40
1
40
1
40
1
41
1
10
-0.24998094716932
20
15.2306734328595
30
0
41
1
10
-0.256081154466187
20
15.2271514765341
30
0
41
1
10
-0.26271744572216
20
15.2227905443194
30
0
41
1
10
-0.277142436186722
20
15.2109958839184
30
0
41
1
10
-0.285001470129544
20
15.2032301173288
30
0
41
1
10
-0.297781574311472
20
15.1875029750969
30
0
41
1
10
-0.302626773518853
20
15.1799265663384
30
0
41
1
10
-0.310060604035897
20
15.1664412681964
30
0
41
1
10
-0.312734553913799
20
15.1604407626018
30
0
41
1
10
-0.319279714209984
20
15.1434857839012
30
0
41
1
10
-0.321537832798242
20
15.1339462395638
30
0
41
1
10
-0.324437343072731
20
15.1163386422425
30
0
41
1
10
-0.324980944828582
20
15.1083205516147
30
0
41
1
10
-0.324980947162771
20
15.1007696686657
30
0
0
SPLINE
5
1B1
100
AcDbEntity
8
1
62
256
6
ByLayer
370
18
48
1
60
0
100
AcDbSpline
70
4
71
3
72
8
73
4
40
0
40
0
40
0
40
0
40
1
40
1
40
1
40
1
41
1
10
-0.249980947168893
20
15.2306734328598
30
0
41
1
10
-0.0534841279736327
20
15.3441209243171
30
0
41
1
10
0.144124364079005
20
15.4582102403979
30
0
41
1
10
0.342769052838378
20
15.5728978049262
30
0
0
SPLINE
5
1B2
100
AcDbEntity
8
1
62
256
6
ByLayer
370
18
48
1
60
0
100
AcDbSpline
70
4
71
3
72
26
73
22
40
0
40
0
40
0
40
0
40
0.0312499999999991
40
0.0312499999999991
40
0.0624999999999982
40
0.0624999999999982
40
0.0937499999999973
40
0.0937499999999973
40
0.124999999999996
40
0.124999999999996
40
0.1875
40
0.1875
40
0.250000000000004
40
0.250000000000004
40
0.375000000000003
40
0.375000000000003
40
0.500000000000003
40
0.500000000000003
40
0.750000000000001
40
0.750000000000001
40
1
40
1
40
1
40
1
41
1
10
0.342769052838378
20
15.5728978049261
30
0
41
1
10
0.349594124357793
20
15.5768382618051
30
0
41
1
10
0.356954877171063
20
15.5815885538066
30
0
41
1
10
0.372789901199951
20
15.5937177583002
30
0
41
1
10
0.381285818620313
20
15.6011915260059
30
0
41
1
10
0.397454220776638
20
15.6183542733495
30
0
41
1
10
0.40460987167404
20
15.6275380928635
30
0
41
1
10
0.415901574081119
20
15.6443416507406
30
0
41
1
10
0.42028878649171
20
15.652186781863
30
0
41
1
10
0.430951862660209
20
15.6737574524049
30
0
41
1
10
0.435119125430191
20
15.6860916729491
30
0
41
1
10
0.441074256374037
20
15.7083938363465
30
0
41
1
10
0.442799242142485
20
15.7184741707156
30
0
41
1
10
0.445882914634154
20
15.7469103630901
30
0
41
1
10
0.445142323119427
20
15.7632161318621
30
0
41
1
10
0.4410224923447
20
15.7929385564271
30
0
41
1
10
0.437545776439322
20
15.8063404779236
30
0
41
1
10
0.424260602356384
20
15.8435596603406
30
0
41
1
10
0.411612191613727
20
15.8644703135801
30
0
41
1
10
0.381069122415511
20
15.9004060928586
30
0
41
1
10
0.363218614943691
20
15.9152956348877
30
0
41
1
10
0.342769052838378
20
15.927102195074
30
0
0
SPLINE
5
1B3
100
AcDbEntity
8
1
62
256
6
ByLayer
370
18
48
1
60
0
100
AcDbSpline
70
4
71
3
72
8
73
4
40
0
40
0
40
0
40
0
40
1
40
1
40
1
40
1
41
1
10
0.342769052838378
20
15.927102195074
30
0
41
1
10
0.154967412090144
20
16.0355295229142
30
0
41
1
10
-0.0231141435525899
20
16.1383449570022
30
0
41
1
10
-0.191153296296079
20
16.2353624070731
30
0
0
SPLINE
5
1B4
100
AcDbEntity
8
1
62
256
6
ByLayer
370
18
48
1
60
0
100
AcDbSpline
70
4
71
3
72
8
73
4
40
0
40
0
40
0
40
0
40
1
40
1
40
1
40
1
41
1
10
-0.191153296296079
20
16.2353624070731
30
0
41
1
10
0.0391213082546642
20
16.4249211661691
30
0
41
1
10
0.269507094643529
20
16.6144006342371
30
0
41
1
10
0.500000000000028
20
16.8038037087754
30
0
0
SPLINE
5
1B5
100
AcDbEntity
8
1
62
256
6
ByLayer
370
18
48
1
60
0
100
AcDbSpline
70
4
71
3
72
8
73
4
40
0
40
0
40
0
40
0
40
1
40
1
40
1
40
1
41
1
10
-0.0469703231319727
20
10.1521183287043
30
0
41
1
10
-0.115112466683087
20
10.1914602136266
30
0
41
1
10
-0.182784534593111
20
10.2305307002511
30
0
41
1
10
-0.249980947161618
20
10.2693265671361
30
0
0
SPLINE
5
1B6
100
AcDbEntity
8
1
62
256
6
ByLayer
370
18
48
1
60
0
100
AcDbSpline
70
4
71
3
72
9
73
5
40
0
40
0
40
0
40
0
40
0.999292586041592
40
1
40
1
40
1
40
1
41
1
10
0.342769052838264
20
-18.9271021950738
30
0
41
1
10
-0.0434394769975199
20
-19.1500797937379
30
0
41
1
10
-0.237878022121777
20
-19.2623389401062
30
0
41
1
10
-0.237740711892035
20
-19.2622596640081
30
0
41
1
10
-0.237739845780011
20
-19.2622591639581
30
0
0
SPLINE
5
1B7
100
AcDbEntity
8
1
62
256
6
ByLayer
370
18
48
1
60
0
100
AcDbSpline
70
4
71
3
72
30
73
26
40
0
40
0
40
0
40
0
40
0.015624999999996
40
0.015624999999996
40
0.0312499999999921
40
0.0312499999999921
40
0.0390624999999921
40
0.0390624999999921
40
0.0468749999999921
40
0.0468749999999921
40
0.0624999999999934
40
0.0624999999999934
40
0.0937499999999934
40
0.0937499999999934
40
0.124999999999993
40
0.124999999999993
40
0.187499999999993
40
0.187499999999993
40
0.249999999999994
40
0.249999999999994
40
0.499999999999996
40
0.499999999999996
40
0.749999999999998
40
0.749999999999998
40
1
40
1
40
1
40
1
41
1
10
0.342769052844488
20
-18.5728978049296
30
0
41
1
10
0.347171951280075
20
-18.5754398195268
30
0
41
1
10
0.351960418968957
20
-18.578405995617
30
0
41
1
10
0.362777228869419
20
-18.5859371497907
30
0
41
1
10
0.368887800440802
20
-18.5905116721255
30
0
41
1
10
0.379817395547889
20
-18.6002003847112
30
0
41
1
10
0.383684111845866
20
-18.603873799216
30
0
41
1
10
0.391157562605258
20
-18.6115906793189
30
0
41
1
10
0.394657280740915
20
-18.6155242596522
30
0
41
1
10
0.403675823340734
20
-18.6263537691197
30
0
41
1
10
0.407992032601811
20
-18.6324622716739
30
0
41
1
10
0.418659317700474
20
-18.648735187959
30
0
41
1
10
0.422837359929787
20
-18.6569874846892
30
0
41
1
10
0.429873212522096
20
-18.6723064010642
30
0
41
1
10
0.432448702746342
20
-18.6790960893602
30
0
41
1
10
0.438742659264307
20
-18.697999306862
30
0
41
1
10
0.441072721492361
20
-18.7087665577518
30
0
41
1
10
0.444156752008126
20
-18.7287007453874
30
0
41
1
10
0.444833293181205
20
-18.7377933366809
30
0
41
1
10
0.445598279075085
20
-18.7805244811046
30
0
41
1
10
0.438596852656047
20
-18.8064686815959
30
0
41
1
10
0.41959181437565
20
-18.8517667571322
30
0
41
1
10
0.407057571212363
20
-18.8706572738758
30
0
41
1
10
0.377955530591606
20
-18.9029851967484
30
0
41
1
10
0.361336931577256
20
-18.9163820252856
30
0
41
1
10
0.342769052838293
20
-18.9271021950739
30
0
0
SPLINE
5
1B8
100
AcDbEntity
8
1
62
256
6
ByLayer
370
18
48
1
60
0
100
AcDbSpline
70
4
71
3
72
8
73
4
40
0
40
0
40
0
40
0
40
1
40
1
40
1
40
1
41
1
10
-0.249980947164119
20
-18.2306734328625
30
0
41
1
10
-0.0602000624355696
20
-18.3402434777476
30
0
41
1
10
0.137660453241665
20
-18.4544782997358
30
0
41
1
10
0.342769052844517
20
-18.5728978049296
30
0
0
SPLINE
5
1B9
100
AcDbEntity
8
1
62
256
6
ByLayer
370
18
48
1
60
0
100
AcDbSpline
70
4
71
3
72
22
73
18
40
0
40
0
40
0
40
0
40
0.500000000000006
40
0.500000000000006
40
0.625000000000008
40
0.625000000000008
40
0.75000000000001
40
0.75000000000001
40
0.812500000000011
40
0.812500000000011
40
0.843750000000004
40
0.843750000000004
40
0.874999999999997
40
0.874999999999997
40
0.937499999999998
40
0.937499999999998
40
1
40
1
40
1
40
1
41
1
10
-0.32498094716172
20
-18.1007696736902
30
0
41
1
10
-0.324980942713665
20
-18.1137518803148
30
0
41
1
10
-0.323786972692858
20
-18.1278012981292
30
0
41
1
10
-0.316461247037807
20
-18.1508365404435
30
0
41
1
10
-0.314676140574107
20
-18.1557309360371
30
0
41
1
10
-0.309877142831425
20
-18.1666369849615
30
0
41
1
10
-0.307015946514014
20
-18.1725080306411
30
0
41
1
10
-0.299937942812278
20
-18.1838699189831
30
0
41
1
10
-0.297061244389283
20
-18.1881873513923
30
0
41
1
10
-0.290809955665566
20
-18.1961373598804
30
0
41
1
10
-0.288344686571122
20
-18.1990897237153
30
0
41
1
10
-0.282576626494148
20
-18.2053705283388
30
0
41
1
10
-0.279276769685652
20
-18.2086541663266
30
0
41
1
10
-0.27023552933224
20
-18.2169304518466
30
0
41
1
10
-0.265307390124008
20
-18.2206340696715
30
0
41
1
10
-0.256901453626028
20
-18.2265288472598
30
0
41
1
10
-0.253317987424737
20
-18.2287467917696
30
0
41
1
10
-0.249980947164147
20
-18.2306734328625
30
0
0
SPLINE
5
1BA
100
AcDbEntity
8
1
62
256
6
ByLayer
370
18
48
1
60
0
100
AcDbSpline
70
4
71
3
72
12
73
8
40
0
40
0
40
0
40
0
40
0.499999999999999
40
0.499999999999999
40
0.75
40
0.75
40
1
40
1
40
1
40
1
41
1
10
-0.249980947161703
20
-17.769326567136
30
0
41
1
10
-0.272414825236695
20
-17.7822787726816
30
0
41
1
10
-0.289849679960611
20
-17.7996215327343
30
0
41
1
10
-0.309329969157915
20
-17.8313737108875
30
0
41
1
10
-0.31467252235413
20
-17.8429531170883
30
0
41
1
10
-0.322455514656241
20
-17.8686997670905
30
0
41
1
10
-0.32498094716172
20
-17.8827821226977
30
0
41
1
10
-0.32498094716172
20
-17.8992303777037
30
0
0
SPLINE
5
1BB
100
AcDbEntity
8
1
62
256
6
ByLayer
370
18
48
1
60
0
100
AcDbSpline
70
4
71
3
72
8
73
4
40
0
40
0
40
0
40
0
40
1
40
1
40
1
40
1
41
1
10
0.342769052838264
20
-17.4271021950738
30
0
41
1
10
0.122384349147353
20
-17.5543413630751
30
0
41
1
10
-0.0754822092164034
20
-17.66857967381
30
0
41
1
10
-0.249980947161731
20
-17.769326567136
30
0
0
SPLINE
5
1BC
100
AcDbEntity
8
1
62
256
6
ByLayer
370
18
48
1
60
0
100
AcDbSpline
70
4
71
3
72
28
73
24
40
0
40
0
40
0
40
0
40
0.0312500000000019
40
0.0312500000000019
40
0.0468749999999989
40
0.0468749999999989
40
0.0624999999999959
40
0.0624999999999959
40
0.093749999999993
40
0.093749999999993
40
0.12499999999999
40
0.12499999999999
40
0.187499999999991
40
0.187499999999991
40
0.249999999999992
40
0.249999999999992
40
0.374999999999992
40
0.374999999999992
40
0.499999999999991
40
0.499999999999991
40
0.749999999999995
40
0.749999999999995
40
1
40
1
40
1
40
1
41
1
10
0.342769052838264
20
-17.072897804926
30
0
41
1
10
0.350219788009241
20
-17.0771994888827
30
0
41
1
10
0.358549452454525
20
-17.0825539799038
30
0
41
1
10
0.37286421803546
20
-17.093979869987
30
0
41
1
10
0.377987963333538
20
-17.0984317564578
30
0
41
1
10
0.388166271881602
20
-17.1083280814276
30
0
41
1
10
0.39318354258549
20
-17.1137579495875
30
0
41
1
10
0.406502037973297
20
-17.1297408233558
30
0
41
1
10
0.412744887295219
20
-17.1393052009069
30
0
41
1
10
0.422483911889913
20
-17.1561710776414
30
0
41
1
10
0.42601649971698
20
-17.1635944235194
30
0
41
1
10
0.434672051565286
20
-17.1840851392541
30
0
41
1
10
0.437986803453384
20
-17.1957274100746
30
0
41
1
10
0.442636637049816
20
-17.2170226031547
30
0
41
1
10
0.443877476648453
20
-17.2266145363653
30
0
41
1
10
0.445780954070017
20
-17.2535938389764
30
0
41
1
10
0.444634637795815
20
-17.2691943605649
30
0
41
1
10
0.439866649629693
20
-17.2978762065491
30
0
41
1
10
0.436160069704812
20
-17.3109072275389
30
0
41
1
10
0.422428671235508
20
-17.3468944380383
30
0
41
1
10
0.409842691366492
20
-17.36691560185
30
0
41
1
10
0.37994559813302
20
-17.4013274297263
30
0
41
1
10
0.362582983642852
20
-17.4156626167901
30
0
41
1
10
0.342769052838293
20
-17.4271021950739
30
0
0
SPLINE
5
1BD
100
AcDbEntity
8
1
62
256
6
ByLayer
370
18
48
1
60
0
100
AcDbSpline
70
4
71
3
72
8
73
4
40
0
40
0
40
0
40
0
40
1
40
1
40
1
40
1
41
1
10
-0.249980947157042
20
-16.7306734328666
30
0
41
1
10
-0.0547247618711708
20
-16.8434046440023
30
0
41
1
10
0.142923239003096
20
-16.9575167705119
30
0
41
1
10
0.342769052838293
20
-17.072897804926
30
0
0
SPLINE
5
1BE
100
AcDbEntity
8
1
62
256
6
ByLayer
370
18
48
1
60
0
100
AcDbSpline
70
4
71
3
72
20
73
16
40
0
40
0
40
0
40
0
40
0.249999999999999
40
0.249999999999999
40
0.499999999999998
40
0.499999999999998
40
0.624999999999997
40
0.624999999999997
40
0.749999999999997
40
0.749999999999997
40
0.812499999999996
40
0.812499999999996
40
0.874999999999996
40
0.874999999999996
40
1
40
1
40
1
40
1
41
1
10
-0.32498094716172
20
-16.6007696742416
30
0
41
1
10
-0.324980944714127
20
-16.607837442378
30
0
41
1
10
-0.324500996960751
20
-16.6153798571387
30
0
41
1
10
-0.321956071445726
20
-16.6318825954064
30
0
41
1
10
-0.319966113323687
20
-16.6407981042995
30
0
41
1
10
-0.314369069028942
20
-16.6564624937185
30
0
41
1
10
-0.312057921716672
20
-16.662085122696
30
0
41
1
10
-0.305703740350054
20
-16.6746698177185
30
0
41
1
10
-0.301711034698172
20
-16.6816998750711
30
0
41
1
10
-0.292329218117686
20
-16.6943481376133
30
0
41
1
10
-0.288588938352319
20
-16.6989035673294
30
0
41
1
10
-0.280264486169756
20
-16.7077856175684
30
0
41
1
10
-0.275807648856812
20
-16.7119602336365
30
0
41
1
10
-0.263376019538555
20
-16.7224405493047
30
0
41
1
10
-0.256236858595742
20
-16.7270615807137
30
0
41
1
10
-0.249980947157098
20
-16.7306734328665
30
0
0
SPLINE
5
1BF
100
AcDbEntity
8
1
62
256
6
ByLayer
370
18
48
1
60
0
100
AcDbSpline
70
4
71
3
72
12
73
8
40
0
40
0
40
0
40
0
40
0.499999999999998
40
0.499999999999998
40
0.749999999999999
40
0.749999999999999
40
1
40
1
40
1
40
1
41
1
10
-0.249980947162498
20
-16.2693265671352
30
0
41
1
10
-0.27179039097669
20
-16.2819182553922
30
0
41
1
10
-0.289240949627953
20
-16.2989278931104
30
0
41
1
10
-0.308904019991473
20
-16.3305383497191
30
0
41
1
10
-0.314354285966402
20
-16.3421324331949
30
0
41
1
10
-0.322353048377494
20
-16.3681407231553
30
0
41
1
10
-0.324980947161691
20
-16.382518693589
30
0
41
1
10
-0.32498094716172
20
-16.3992303777035
30
0
0
SPLINE
5
1C0
100
AcDbEntity
8
1
62
256
6
ByLayer
370
18
48
1
60
0
100
AcDbSpline
70
4
71
3
72
8
73
4
40
0
40
0
40
0
40
0
40
1
40
1
40
1
40
1
41
1
10
0.342769052838264
20
-15.9271021950738
30
0
41
1
10
0.132896815745312
20
-16.0482719876549
30
0
41
1
10
-0.0648365548913432
20
-16.1624334024197
30
0
41
1
10
-0.249980947161731
20
-16.269326567136
30
0
0
SPLINE
5
1C1
100
AcDbEntity
8
1
62
256
6
ByLayer
370
18
48
1
60
0
100
AcDbSpline
70
4
71
3
72
26
73
22
40
0
40
0
40
0
40
0
40
0.0312499999999997
40
0.0312499999999997
40
0.0624999999999993
40
0.0624999999999993
40
0.093749999999999
40
0.093749999999999
40
0.124999999999999
40
0.124999999999999
40
0.187500000000004
40
0.187500000000004
40
0.250000000000009
40
0.250000000000009
40
0.37500000000001
40
0.37500000000001
40
0.500000000000012
40
0.500000000000012
40
0.750000000000006
40
0.750000000000006
40
1
40
1
40
1
40
1
41
1
10
0.342769052838264
20
-15.572897804926
30
0
41
1
10
0.349594124357708
20
-15.576838261805
30
0
41
1
10
0.356954877170978
20
-15.5815885538064
30
0
41
1
10
0.372789901199838
20
-15.5937177583001
30
0
41
1
10
0.381285818620199
20
-15.6011915260058
30
0
41
1
10
0.397454220776552
20
-15.6183542733494
30
0
41
1
10
0.404609871673955
20
-15.6275380928634
30
0
41
1
10
0.415901574081005
20
-15.6443416507404
30
0
41
1
10
0.420288786491597
20
-15.6521867818629
30
0
41
1
10
0.430951862660095
20
-15.6737574524047
30
0
41
1
10
0.435119125430106
20
-15.686091672949
30
0
41
1
10
0.441074256373923
20
-15.7083938363464
30
0
41
1
10
0.442799242142371
20
-15.7184741707154
30
0
41
1
10
0.445882914634069
20
-15.74691036309
30
0
41
1
10
0.445142323119342
20
-15.763216131862
30
0
41
1
10
0.441022492344615
20
-15.792938556427
30
0
41
1
10
0.437545776439236
20
-15.8063404779235
30
0
41
1
10
0.424260602356298
20
-15.8435596603404
30
0
41
1
10
0.411612191613614
20
-15.86447031358
30
0
41
1
10
0.381069122415426
20
-15.9004060928585
30
0
41
1
10
0.363218614943605
20
-15.9152956348875
30
0
41
1
10
0.342769052838293
20
-15.9271021950739
30
0
0
SPLINE
5
1C2
100
AcDbEntity
8
1
62
256
6
ByLayer
370
18
48
1
60
0
100
AcDbSpline
70
4
71
3
72
8
73
4
40
0
40
0
40
0
40
0
40
1
40
1
40
1
40
1
41
1
10
-0.249980947159685
20
-15.2306734328651
30
0
41
1
10
-0.0534841279674936
20
-15.3441209243206
30
0
41
1
10
0.144124364082046
20
-15.4582102403996
30
0
41
1
10
0.342769052838293
20
-15.572897804926
30
0
0
SPLINE
5
1C3
100
AcDbEntity
8
1
62
256
6
ByLayer
370
18
48
1
60
0
100
AcDbSpline
70
4
71
3
72
18
73
14
40
0
40
0
40
0
40
0
40
0.250000000000006
40
0.250000000000006
40
0.500000000000011
40
0.500000000000011
40
0.625000000000008
40
0.625000000000008
40
0.750000000000006
40
0.750000000000006
40
0.875000000000003
40
0.875000000000003
40
1
40
1
40
1
40
1
41
1
10
-0.324980947177011
20
-15.1007696733175
30
0
41
1
10
-0.324980944602714
20
-15.1083379719955
30
0
41
1
10
-0.324432712680647
20
-15.116420417677
30
0
41
1
10
-0.32149464679415
20
-15.1341539514462
30
0
41
1
10
-0.319182438023063
20
-15.1438135323921
30
0
41
1
10
-0.312597598822208
20
-15.1607560309804
30
0
41
1
10
-0.309874417347174
20
-15.1668188717233
30
0
41
1
10
-0.302439168977003
20
-15.1802249766799
30
0
41
1
10
-0.297509190612345
20
-15.1878765947346
30
0
41
1
10
-0.284807946299452
20
-15.203428403464
30
0
41
1
10
-0.27692257905025
20
-15.2111916961386
30
0
41
1
10
-0.262620965309225
20
-15.2228530278961
30
0
41
1
10
-0.256002024866234
20
-15.2271971620467
30
0
41
1
10
-0.249980947147122
20
-15.2306734328874
30
0
0
SPLINE
5
1C4
100
AcDbEntity
8
1
62
256
6
ByLayer
370
18
48
1
60
0
100
AcDbSpline
70
4
71
3
72
12
73
8
40
0
40
0
40
0
40
0
40
0.499999999999999
40
0.499999999999999
40
0.749999999999999
40
0.749999999999999
40
1
40
1
40
1
40
1
41
1
10
-0.249980947161703
20
-14.769326567136
30
0
41
1
10
-0.271516642800975
20
-14.7817602068105
30
0
41
1
10
-0.289005300634472
20
-14.7986536555467
30
0
41
1
10
-0.308758860239408
20
-14.8302537328972
30
0
41
1
10
-0.314253887073931
20
-14.8418692188385
30
0
41
1
10
-0.322334268365751
20
-14.8680173504828
30
0
41
1
10
-0.32498094716172
20
-14.8824182338688
30
0
41
1
10
-0.32498094716172
20
-14.8992303777036
30
0
0
SPLINE
5
1C5
100
AcDbEntity
8
1
62
256
6
ByLayer
370
18
48
1
60
0
100
AcDbSpline
70
4
71
3
72
8
73
4
40
0
40
0
40
0
40
0
40
1
40
1
40
1
40
1
41
1
10
0.342769052839685
20
-14.4271021950731
30
0
41
1
10
0.136951465371425
20
-14.5459310346018
30
0
41
1
10
-0.0607307434436279
20
-14.6600629110752
30
0
41
1
10
-0.249980947161703
20
-14.769326567136
30
0
0
SPLINE
5
1C6
100
AcDbEntity
8
1
62
256
6
ByLayer
370
18
48
1
60
0
100
AcDbSpline
70
4
71
3
72
24
73
20
40
0
40
0
40
0
40
0
40
0.0624999999999906
40
0.0624999999999906
40
0.0937499999999886
40
0.0937499999999886
40
0.124999999999987
40
0.124999999999987
40
0.187499999999983
40
0.187499999999983
40
0.249999999999979
40
0.249999999999979
40
0.374999999999983
40
0.374999999999983
40
0.499999999999987
40
0.499999999999987
40
0.749999999999994
40
0.749999999999994
40
1
40
1
40
1
40
1
41
1
10
0.342769052834598
20
-14.0728978049179
30
0
41
1
10
0.355492163966829
20
-14.0802434965545
30
0
41
1
10
0.370101104686597
20
-14.0905168173618
30
0
41
1
10
0.391579881066661
20
-14.1117885239882
30
0
41
1
10
0.398484982044153
20
-14.1197537295974
30
0
41
1
10
0.410274648123874
20
-14.135543180138
30
0
41
1
10
0.41515767161107
20
-14.1432678560081
30
0
41
1
10
0.427372229456552
20
-14.1652254088806
30
0
41
1
10
0.432321891039976
20
-14.1780120112318
30
0
41
1
10
0.439549508736377
20
-14.2014461443951
30
0
41
1
10
0.441681157637106
20
-14.2118967014104
30
0
41
1
10
0.445788200762735
20
-14.2412797940188
30
0
41
1
10
0.445442817617987
20
-14.2583164448053
30
0
41
1
10
0.441818702447648
20
-14.2892602049515
30
0
41
1
10
0.438463981017065
20
-14.3031082300083
30
0
41
1
10
0.425407582488589
20
-14.3414669139581
30
0
41
1
10
0.412753784859746
20
-14.3628334233235
30
0
41
1
10
0.381951448310957
20
-14.3996431149243
30
0
41
1
10
0.363680833357193
20
-14.4150287729627
30
0
41
1
10
0.342769052840225
20
-14.4271021950737
30
0
0
SPLINE
5
1C7
100
AcDbEntity
8
1
62
256
6
ByLayer
370
18
48
1
60
0
100
AcDbSpline
70
4
71
3
72
8
73
4
40
0
40
0
40
0
40
0
40
1
40
1
40
1
40
1
41
1
10
-0.249980947161731
20
-13.7306734328638
30
0
41
1
10
-0.0530000040733682
20
-13.8444004333811
30
0
41
1
10
0.144595422329132
20
-13.9584822060053
30
0
41
1
10
0.342769052838293
20
-14.072897804926
30
0
0
SPLINE
5
1C8
100
AcDbEntity
8
1
62
256
6
ByLayer
370
18
48
1
60
0
100
AcDbSpline
70
4
71
3
72
18
73
14
40
0
40
0
40
0
40
0
40
0.249999999999976
40
0.249999999999976
40
0.499999999999952
40
0.499999999999952
40
0.624999999999964
40
0.624999999999964
40
0.749999999999976
40
0.749999999999976
40
0.874999999999988
40
0.874999999999988
40
1
40
1
40
1
40
1
41
1
10
-0.324980947162288
20
-13.600769667036
30
0
41
1
10
-0.324980944779611
20
-13.6087580826515
30
0
41
1
10
-0.324375091817643
20
-13.6172515822332
30
0
41
1
10
-0.321101652115999
20
-13.6359691257659
30
0
41
1
10
-0.318480845447794
20
-13.6462848088004
30
0
41
1
10
-0.311140598526833
20
-13.6640271324653
30
0
41
1
10
-0.308065534855785
20
-13.67042906028
30
0
41
1
10
-0.299905142428827
20
-13.684183591263
30
0
41
1
10
-0.294738072321394
20
-13.6915917814672
30
0
41
1
10
-0.28230951572246
20
-13.7059884988997
30
0
41
1
10
-0.275307003668388
20
-13.7125990917556
30
0
41
1
10
-0.262137194402413
20
-13.7231417450231
30
0
41
1
10
-0.255819243409462
20
-13.727302690991
30
0
41
1
10
-0.249980947137743
20
-13.7306734329127
30
0
0
SPLINE
5
1C9
100
AcDbEntity
8
1
62
256
6
ByLayer
370
18
48
1
60
0
100
AcDbSpline
70
4
71
3
72
12
73
8
40
0
40
0
40
0
40
0
40
0.50000000000001
40
0.50000000000001
40
0.750000000000005
40
0.750000000000005
40
1
40
1
40
1
40
1
41
1
10
-0.249980947161731
20
-13.269326567136
30
0
41
1
10
-0.271365093900812
20
-13.2816727100122
30
0
41
1
10
-0.288886118499505
20
-13.2985023885229
30
0
41
1
10
-0.308718668188703
20
-13.3301698901521
30
0
41
1
10
-0.31422032107335
20
-13.3417949276563
30
0
41
1
10
-0.322302273623137
20
-13.3678797646459
30
0
41
1
10
-0.32498094716172
20
-13.3822418326897
30
0
41
1
10
-0.32498094716172
20
-13.3992303777037
30
0
0
SPLINE
5
1CA
100
AcDbEntity
8
1
62
256
6
ByLayer
370
18
48
1
60
0
100
AcDbSpline
70
4
71
3
72
8
73
4
40
0
40
0
40
0
40
0
40
1
40
1
40
1
40
1
41
1
10
0.342769052839401
20
-12.9271021950732
30
0
41
1
10
0.139093450172965
20
-13.0446943591001
30
0
41
1
10
-0.0585614418591547
20
-13.1588104642214
30
0
41
1
10
-0.249980947161731
20
-13.269326567136
30
0
0
SPLINE
5
1CB
100
AcDbEntity
8
1
62
256
6
ByLayer
370
18
48
1
60
0
100
AcDbSpline
70
4
71
3
72
22
73
18
40
0
40
0
40
0
40
0
40
0.0625000000000003
40
0.0625000000000003
40
0.125000000000001
40
0.125000000000001
40
0.187500000000001
40
0.187500000000001
40
0.250000000000001
40
0.250000000000001
40
0.375000000000002
40
0.375000000000002
40
0.500000000000002
40
0.500000000000002
40
0.750000000000001
40
0.750000000000001
40
1
40
1
40
1
40
1
41
1
10
0.342769052838293
20
-12.572897804926
30
0
41
1
10
0.354608181839751
20
-12.579733129242
30
0
41
1
10
0.3676417881058
20
-12.5887969509675
30
0
41
1
10
0.393933820836594
20
-12.6135796136961
30
0
41
1
10
0.406050000047912
20
-12.6287545713999
30
0
41
1
10
0.423576796837182
20
-12.657313373119
30
0
41
1
10
0.429373222380349
20
-12.67052387735
30
0
41
1
10
0.437772772863468
20
-12.6945624553112
30
0
41
1
10
0.440407220383491
20
-12.7055989538998
30
0
41
1
10
0.445588571768269
20
-12.7361193630081
30
0
41
1
10
0.445625738411877
20
-12.7535773835816
30
0
41
1
10
0.442516530023795
20
-12.785757088122
30
0
41
1
10
0.439280452881775
20
-12.8000626434372
30
0
41
1
10
0.426421000815225
20
-12.8396056103102
30
0
41
1
10
0.413679423890983
20
-12.8615037472975
30
0
41
1
10
0.382525012517618
20
-12.8991707316468
30
0
41
1
10
0.363925974973824
20
-12.9148872403835
30
0
41
1
10
0.342769052839458
20
-12.9271021950732
30
0
0
SPLINE
5
1CC
100
AcDbEntity
8
1
62
256
6
ByLayer
370
18
48
1
60
0
100
AcDbSpline
70
4
71
3
72
8
73
4
40
0
40
0
40
0
40
0
40
1
40
1
40
1
40
1
41
1
10
-0.249980947161731
20
-12.2306734328638
30
0
41
1
10
-0.0527632894172712
20
-12.3445371006516
30
0
41
1
10
0.144826582198107
20
-12.4586156662178
30
0
41
1
10
0.342769052838293
20
-12.572897804926
30
0
0
SPLINE
5
1CD
100
AcDbEntity
8
1
62
256
6
ByLayer
370
18
48
1
60
0
100
AcDbSpline
70
4
71
3
72
16
73
12
40
0
40
0
40
0
40
0
40
0.25
40
0.25
40
0.5
40
0.5
40
0.625
40
0.625
40
0.75
40
0.75
40
1
40
1
40
1
40
1
41
1
10
-0.324980947189715
20
-12.1007696222697
30
0
41
1
10
-0.324980947191193
20
-12.1091375518883
30
0
41
1
10
-0.324309016993112
20
-12.1181205982701
30
0
41
1
10
-0.320686052162728
20
-12.1377824738948
30
0
41
1
10
-0.317786456289241
20
-12.1486027991512
30
0
41
1
10
-0.30968169493292
20
-12.1671101461962
30
0
41
1
10
-0.306333788099494
20
-12.1736485913715
30
0
41
1
10
-0.297771572636037
20
-12.187299242956
30
0
41
1
10
-0.292433481716614
20
-12.1944924874515
30
0
41
1
10
-0.274589605548385
20
-12.214323171248
30
0
41
1
10
-0.261321720492362
20
-12.2241258343667
30
0
41
1
10
-0.249980947142376
20
-12.2306734329092
30
0
0
SPLINE
5
1CE
100
AcDbEntity
8
1
62
256
6
ByLayer
370
18
48
1
60
0
100
AcDbSpline
70
4
71
3
72
12
73
8
40
0
40
0
40
0
40
0
40
0.500000000000013
40
0.500000000000013
40
0.750000000000007
40
0.750000000000007
40
1
40
1
40
1
40
1
41
1
10
-0.249980947161703
20
-11.769326567136
30
0
41
1
10
-0.271180770286804
20
-11.781566290724
30
0
41
1
10
-0.28859849031673
20
-11.7981560037921
30
0
41
1
10
-0.308577748339132
20
-11.8298896356489
30
0
41
1
10
-0.314125680259338
20
-11.8415504008792
30
0
41
1
10
-0.322280802533015
20
-11.8677503986238
30
0
41
1
10
-0.324980952094307
20
-11.882334966346
30
0
41
1
10
-0.32498094716172
20
-11.899230421496
30
0
0
SPLINE
5
1CF
100
AcDbEntity
8
1
62
256
6
ByLayer
370
18
48
1
60
0
100
AcDbSpline
70
4
71
3
72
8
73
4
40
0
40
0
40
0
40
0
40
1
40
1
40
1
40
1
41
1
10
0.342769052838293
20
-11.4271021950739
30
0
41
1
10
0.140428826570826
20
-11.5439233791773
30
0
41
1
10
-0.0572098387456208
20
-11.6580301158
30
0
41
1
10
-0.249980947161703
20
-11.769326567136
30
0
0
SPLINE
5
1D0
100
AcDbEntity
8
1
62
256
6
ByLayer
370
18
48
1
60
0
100
AcDbSpline
70
4
71
3
72
22
73
18
40
0
40
0
40
0
40
0
40
0.0625000000000055
40
0.0625000000000055
40
0.125000000000011
40
0.125000000000011
40
0.187500000000016
40
0.187500000000016
40
0.250000000000022
40
0.250000000000022
40
0.375000000000019
40
0.375000000000019
40
0.500000000000016
40
0.500000000000016
40
0.750000000000008
40
0.750000000000008
40
1
40
1
40
1
40
1
41
1
10
0.342769052838293
20
-11.072897804926
30
0
41
1
10
0.354050595451156
20
-11.0794112065904
30
0
41
1
10
0.366209629257298
20
-11.0878490587058
30
0
41
1
10
0.390520771895638
20
-11.1100338146445
30
0
41
1
10
0.402179577389546
20
-11.1236871566761
30
0
41
1
10
0.420239075386917
20
-11.1510567178538
30
0
41
1
10
0.426716865430166
20
-11.1644252779557
30
0
41
1
10
0.436131893586378
20
-11.1889403979589
30
0
41
1
10
0.43912007213919
20
-11.2000710535235
30
0
41
1
10
0.445319628398238
20
-11.231641555031
30
0
41
1
10
0.445676858959644
20
-11.2496418556062
30
0
41
1
10
0.443105753875727
20
-11.2823802755192
30
0
41
1
10
0.440018994658601
20
-11.2971638179407
30
0
41
1
10
0.427264174779651
20
-11.3381142409963
30
0
41
1
10
0.414383428423463
20
-11.3604758779004
30
0
41
1
10
0.382981648139548
20
-11.3987889432569
30
0
41
1
10
0.364323351058204
20
-11.4146578151944
30
0
41
1
10
0.342769052838293
20
-11.4271021950739
30
0
0
SPLINE
5
1D1
100
AcDbEntity
8
1
62
256
6
ByLayer
370
18
48
1
60
0
100
AcDbSpline
70
4
71
3
72
8
73
4
40
0
40
0
40
0
40
0
40
1
40
1
40
1
40
1
41
1
10
-0.249980947161731
20
-10.7306734328638
30
0
41
1
10
-0.0526311005796742
20
-10.8446134199125
30
0
41
1
10
0.144956402685096
20
-10.9586906181109
30
0
41
1
10
0.342769052838293
20
-11.072897804926
30
0
0
SPLINE
5
1D2
100
AcDbEntity
8
1
62
256
6
ByLayer
370
18
48
1
60
0
100
AcDbSpline
70
4
71
3
72
14
73
10
40
0
40
0
40
0
40
0
40
0.25
40
0.25
40
0.5
40
0.5
40
0.75
40
0.75
40
1
40
1
40
1
40
1
41
1
10
-0.32498094716172
20
-10.6007696222962
30
0
41
1
10
-0.32498094716172
20
-10.6094638429982
30
0
41
1
10
-0.324257414918691
20
-10.6188504811584
30
0
41
1
10
-0.320279451864962
20
-10.6394830025955
30
0
41
1
10
-0.317087137316207
20
-10.6507433672038
30
0
41
1
10
-0.305544085308497
20
-10.6759015823237
30
0
41
1
10
-0.296574052598174
20
-10.6902248775749
30
0
41
1
10
-0.273553804333773
20
-10.7150959876526
30
0
41
1
10
-0.261125044145871
20
-10.7242393854776
30
0
41
1
10
-0.249980947157809
20
-10.7306734328728
30
0
0
SPLINE
5
1D3
100
AcDbEntity
8
1
62
256
6
ByLayer
370
18
48
1
60
0
100
AcDbSpline
70
4
71
3
72
12
73
8
40
0
40
0
40
0
40
0
40
0.5
40
0.5
40
0.75
40
0.75
40
1
40
1
40
1
40
1
41
1
10
-0.249980947163351
20
-10.269326567137
30
0
41
1
10
-0.271072889936477
20
-10.2815040059751
30
0
41
1
10
-0.288435995715759
20
-10.2979819796639
30
0
41
1
10
-0.308444760829587
20
-10.329637044846
30
0
41
1
10
-0.314074872656789
20
-10.3414150937224
30
0
41
1
10
-0.322278016727239
20
-10.3677137080054
30
0
41
1
10
-0.324980951859601
20
-10.382197579641
30
0
41
1
10
-0.32498094716172
20
-10.3992304190756
30
0
0
SPLINE
5
1D4
100
AcDbEntity
8
1
62
256
6
ByLayer
370
18
48
1
60
0
100
AcDbSpline
70
4
71
3
72
8
73
4
40
0
40
0
40
0
40
0
40
1
40
1
40
1
40
1
41
1
10
-0.0469703231316885
20
-10.1521183287039
30
0
41
1
10
-0.115112466683513
20
-10.1914602136267
30
0
41
1
10
-0.182784534594248
20
-10.2305307002516
30
0
41
1
10
-0.249980947163465
20
-10.269326567137
30
0
0
SPLINE
5
1D5
100
AcDbEntity
8
1
62
256
6
ByLayer
370
18
48
1
60
0
100
AcDbSpline
70
4
71
3
72
26
73
22
40
0
40
0
40
0
40
0
40
0.0625000000000011
40
0.0625000000000011
40
0.125000000000002
40
0.125000000000002
40
0.250000000000005
40
0.250000000000005
40
0.375000000000008
40
0.375000000000008
40
0.437500000000008
40
0.437500000000008
40
0.500000000000009
40
0.500000000000009
40
0.625000000000007
40
0.625000000000007
40
0.750000000000004
40
0.750000000000004
40
0.875000000000002
40
0.875000000000002
40
1
40
1
40
1
40
1
41
1
10
10.8702898960371
20
24.65
30
0
41
1
10
10.9228606751804
20
24.65
30
0
41
1
10
10.9759823977604
20
24.6525777346984
30
0
41
1
10
11.0810618482143
20
24.6628433080556
30
0
41
1
10
11.1329994133298
20
24.6704920948044
30
0
41
1
10
11.2870507764248
20
24.7007978134398
30
0
41
1
10
11.387420188329
20
24.7307432976635
30
0
41
1
10
11.583327565584
20
24.8108214549256
30
0
41
1
10
11.6765631210786
20
24.860121717301
30
0
41
1
10
11.8075285484112
20
24.9464644920668
30
0
41
1
10
11.8498095272323
20
24.9773734351432
30
0
41
1
10
11.9315692096401
20
25.043530901003
30
0
41
1
10
11.9712164575549
20
25.0789578525105
30
0
41
1
10
12.0841259604916
20
25.1903973032178
30
0
41
1
10
12.1518464808394
20
25.2718878465782
30
0
41
1
10
12.2703251912323
20
25.447239755012
30
0
41
1
10
12.3200606974537
20
25.5394263767106
30
0
41
1
10
12.4010283754612
20
25.7325815766774
30
0
41
1
10
12.4324025358346
20
25.8347424929505
30
0
41
1
10
12.4737502404865
20
26.0407332286744
30
0
41
1
10
12.4841117668221
20
26.1448188744898
30
0
41
1
10
12.4841117668221
20
26.25
30
0
0
SPLINE
5
1D6
100
AcDbEntity
8
1
62
256
6
ByLayer
370
18
48
1
60
0
100
AcDbSpline
70
4
71
3
72
8
73
4
40
0
40
0
40
0
40
0
40
1
40
1
40
1
40
1
41
1
10
11.2500000000001
20
39.5781934928886
30
0
41
1
10
11.2627064238695
20
39.4270079527501
30
0
41
1
10
11.276663151626
20
39.3004694540328
30
0
41
1
10
11.2920449221154
20
39.1985552505996
30
0
0
SPLINE
5
1D7
100
AcDbEntity
8
1
62
256
6
ByLayer
370
18
48
1
60
0
100
AcDbSpline
70
4
71
3
72
28
73
24
40
0
40
0
40
0
40
0
40
0.0624999999999979
40
0.0624999999999979
40
0.124999999999996
40
0.124999999999996
40
0.249999999999991
40
0.249999999999991
40
0.312499999999989
40
0.312499999999989
40
0.374999999999986
40
0.374999999999986
40
0.499999999999986
40
0.499999999999986
40
0.562499999999987
40
0.562499999999987
40
0.624999999999988
40
0.624999999999988
40
0.749999999999992
40
0.749999999999992
40
0.874999999999996
40
0.874999999999996
40
1
40
1
40
1
40
1
41
1
10
3.77000000000004
20
19.001223258084
30
0
41
1
10
3.77000000000004
20
18.9593135550038
30
0
41
1
10
3.76757746962411
20
18.917014150441
30
0
41
1
10
3.75797256330796
20
18.8334341882513
30
0
41
1
10
3.75081215734792
20
18.7920443147511
30
0
41
1
10
3.72238375597888
20
18.6690535222889
30
0
41
1
10
3.69423346054728
20
18.5886204216588
30
0
41
1
10
3.63757449449585
20
18.4704199130917
30
0
41
1
10
3.61619216269347
20
18.4313611210628
30
0
41
1
10
3.56936735729843
20
18.3557074926522
30
0
41
1
10
3.54384011220088
20
18.3189078848007
30
0
41
1
10
3.46092804975896
20
18.2115837831594
30
0
41
1
10
3.39728089556146
20
18.1441009875148
30
0
41
1
10
3.28819039973774
20
18.0494920901383
30
0
41
1
10
3.24965900546948
20
18.019211507436
30
0
41
1
10
3.16973274897737
20
17.9623392023905
30
0
41
1
10
3.12814097261005
20
17.9355706628324
30
0
41
1
10
2.99844300594506
20
17.8603054541237
30
0
41
1
10
2.90496241734033
20
17.8166067260285
30
0
41
1
10
2.70569887409945
20
17.7447958929058
30
0
41
1
10
2.60283814186135
20
17.7176443644393
30
0
41
1
10
2.39068895318948
20
17.6807672178766
30
0
41
1
10
2.28045545814311
20
17.6711067478127
30
0
41
1
10
2.17000000000004
20
17.6711067478127
30
0
0
SPLINE
5
1D8
100
AcDbEntity
8
1
62
256
6
ByLayer
370
18
48
1
60
0
100
AcDbSpline
70
4
71
3
72
8
73
4
40
0
40
0
40
0
40
0
40
1
40
1
40
1
40
1
41
1
10
16.7500000000001
20
39.5781934928888
30
0
41
1
10
16.7372935761306
20
39.4270079527502
30
0
41
1
10
16.7233368483741
20
39.3004694540329
30
0
41
1
10
16.7079550778847
20
39.1985552505996
30
0
0
SPLINE
5
1D9
100
AcDbEntity
8
1
62
256
6
ByLayer
370
18
48
1
60
0
100
AcDbSpline
70
4
71
3
72
18
73
14
40
0
40
0
40
0
40
0
40
0.125
40
0.125
40
0.25
40
0.25
40
0.5
40
0.5
40
0.625
40
0.625
40
0.750000000000001
40
0.750000000000001
40
1
40
1
40
1
40
1
41
1
10
16.6429331898151
20
7.6931836453987
30
0
41
1
10
16.6489588034294
20
7.69356940680791
30
0
41
1
10
16.654857687394
20
7.6872179071699
30
0
41
1
10
16.666406288335
20
7.66100780378514
30
0
41
1
10
16.6720912042486
20
7.6409643259197
30
0
41
1
10
16.6885122268198
20
7.56088269111953
30
0
41
1
10
16.6985057423512
20
7.48222240954757
30
0
41
1
10
16.7122454462063
20
7.32666378397258
30
0
41
1
10
16.7166259370814
20
7.26816609203459
30
0
41
1
10
16.7247520672563
20
7.14163090987813
30
0
41
1
10
16.7285310333523
20
7.07328074173967
30
0
41
1
10
16.7390849004989
20
6.85315692133068
30
0
41
1
10
16.7451180245943
20
6.68474725395421
30
0
41
1
10
16.75
20
6.50124166616681
30
0
0
SPLINE
5
1DA
100
AcDbEntity
8
1
62
256
6
ByLayer
370
18
48
1
60
0
100
AcDbSpline
70
4
71
3
72
28
73
24
40
0
40
0
40
0
40
0
40
0.125
40
0.125
40
0.1875
40
0.1875
40
0.25
40
0.25
40
0.375
40
0.375
40
0.499999999999999
40
0.499999999999999
40
0.624999999999998
40
0.624999999999998
40
0.687499999999998
40
0.687499999999998
40
0.749999999999997
40
0.749999999999997
40
0.874999999999997
40
0.874999999999997
40
0.937499999999999
40
0.937499999999999
40
1
40
1
40
1
40
1
41
1
10
11.25
20
26.25
30
0
41
1
10
11.25
20
26.144338833206
30
0
41
1
10
11.2396362765762
20
26.0404431375308
30
0
41
1
10
11.2091813829073
20
25.8871394099669
30
0
41
1
10
11.1965264021201
20
25.8364646155963
30
0
41
1
10
11.1660957781893
20
25.7359873367657
30
0
41
1
10
11.1482339685561
20
25.6860476410798
30
0
41
1
10
11.0880512922793
20
25.5407767407639
30
0
41
1
10
11.0389472658681
20
25.4489084737143
30
0
41
1
10
10.9229387923991
20
25.2750389896746
30
0
41
1
10
10.8554150994297
20
25.1927118252758
30
0
41
1
10
10.7079146699415
20
25.045134697376
30
0
41
1
10
10.6274342347922
20
24.9789073401988
30
0
41
1
10
10.4963802465372
20
24.8911754945698
30
0
41
1
10
10.4509695392025
20
24.8639310637408
30
0
41
1
10
10.3586735291325
20
24.814548458533
30
0
41
1
10
10.311546374511
20
24.7922387883819
30
0
41
1
10
10.1672722927261
20
24.7323456262754
30
0
41
1
10
10.0667024828369
20
24.7016231086484
30
0
41
1
10
9.91164416683694
20
24.6706582639661
30
0
41
1
10
9.85963904149014
20
24.6629222559577
30
0
41
1
10
9.75499546291783
20
24.6525832584708
30
0
41
1
10
9.70207234642913
20
24.6500000000001
30
0
41
1
10
9.65000000000003
20
24.6500000000001
30
0
0
SPLINE
5
1DB
100
AcDbEntity
8
1
62
256
6
ByLayer
370
18
48
1
60
0
100
AcDbSpline
70
4
71
3
72
26
73
22
40
0
40
0
40
0
40
0
40
0.124999999999997
40
0.124999999999997
40
0.187499999999995
40
0.187499999999995
40
0.249999999999993
40
0.249999999999993
40
0.374999999999991
40
0.374999999999991
40
0.499999999999989
40
0.499999999999989
40
0.624999999999987
40
0.624999999999987
40
0.687499999999988
40
0.687499999999988
40
0.749999999999989
40
0.749999999999989
40
0.874999999999994
40
0.874999999999994
40
1
40
1
40
1
40
1
41
1
10
2.17000000000002
20
20.2499996253656
30
0
41
1
10
2.27567277372538
20
20.2499996253656
30
0
41
1
10
2.37958023221833
20
20.2603655692919
30
0
41
1
10
2.5329017513092
20
20.2908274380176
30
0
41
1
10
2.58358250054329
20
20.3034853579026
30
0
41
1
10
2.68407171762479
20
20.3339232403399
30
0
41
1
10
2.73401435476163
20
20.3517884153201
30
0
41
1
10
2.8792892637583
20
20.4119796639536
30
0
41
1
10
2.9711595319387
20
20.461089959911
30
0
41
1
10
3.14503162031008
20
20.5771121818963
30
0
41
1
10
3.22735119603902
20
20.6446374158062
30
0
41
1
10
3.37491068937271
20
20.7921324022701
30
0
41
1
10
3.44113068900961
20
20.8726092470471
30
0
41
1
10
3.52885316612631
20
21.0036570158259
30
0
41
1
10
3.55608990920163
20
21.0490576291155
30
0
41
1
10
3.60546096755687
20
21.1413346304464
30
0
41
1
10
3.6277660844197
20
21.1884523437169
30
0
41
1
10
3.6876486736617
20
21.3326984985389
30
0
41
1
10
3.71837418111622
20
21.4332835266742
30
0
41
1
10
3.75964479091871
20
21.6399060782962
30
0
41
1
10
3.77000000000254
20
21.7443611349003
30
0
41
1
10
3.77000000000254
20
21.8499683295261
30
0
0
SPLINE
5
1DC
100
AcDbEntity
8
1
62
256
6
ByLayer
370
18
48
1
60
0
100
AcDbSpline
70
4
71
3
72
22
73
18
40
0
40
0
40
0
40
0
40
0.124999999999997
40
0.124999999999997
40
0.187499999999997
40
0.187499999999997
40
0.249999999999997
40
0.249999999999997
40
0.374999999999999
40
0.374999999999999
40
0.500000000000001
40
0.500000000000001
40
0.750000000000002
40
0.750000000000002
40
0.875000000000001
40
0.875000000000001
40
1
40
1
40
1
40
1
41
1
10
11.9952001538799
20
39.1985552505996
30
0
41
1
10
11.8986576955734
20
39.2451587634204
30
0
41
1
10
11.8246965821003
20
39.2999683046965
30
0
41
1
10
11.7378774962697
20
39.3957082451975
30
0
41
1
10
11.7129762516201
20
39.4299928020722
30
0
41
1
10
11.670682114869
20
39.5028063659756
30
0
41
1
10
11.6534474016714
20
39.5409909718764
30
0
41
1
10
11.6113710869873
20
39.6608672128576
30
0
41
1
10
11.5960734637661
20
39.7478741156919
30
0
41
1
10
11.5833501608465
20
39.9361871218474
30
0
41
1
10
11.5860906500529
20
40.0380051418983
30
0
41
1
10
11.6120998074336
20
40.3578954095109
30
0
41
1
10
11.6526877460016
20
40.5919911502611
30
0
41
1
10
11.7176797008656
20
40.9753726426745
30
0
41
1
10
11.7401287765499
20
41.1088240546559
30
0
41
1
10
11.780928831915
20
41.3861962096268
30
0
41
1
10
11.7991724647927
20
41.5294948356415
30
0
41
1
10
11.8123930488215
20
41.6777018864084
30
0
0
SPLINE
5
1DD
100
AcDbEntity
8
1
62
256
6
ByLayer
370
18
48
1
60
0
100
AcDbSpline
70
4
71
3
72
22
73
18
40
0
40
0
40
0
40
0
40
0.250000000000003
40
0.250000000000003
40
0.500000000000006
40
0.500000000000006
40
0.625000000000007
40
0.625000000000007
40
0.687500000000006
40
0.687500000000006
40
0.750000000000006
40
0.750000000000006
40
0.875000000000002
40
0.875000000000002
40
0.937500000000001
40
0.937500000000001
40
1
40
1
40
1
40
1
41
1
10
14.040171596303
20
41.6777018864084
30
0
41
1
10
14.1132578783224
20
41.3850948917821
30
0
41
1
10
14.2031983326782
20
41.1161121706563
30
0
41
1
10
14.3760738204952
20
40.615039492389
30
0
41
1
10
14.4597513089139
20
40.3830775192494
30
0
41
1
10
14.5515872393376
20
40.061130692594
30
0
41
1
10
14.5760490096885
20
39.9597249662771
30
0
41
1
10
14.598800983307
20
39.8166907047995
30
0
41
1
10
14.6040532730639
20
39.7705104129577
30
0
41
1
10
14.6088400570815
20
39.681159000611
30
0
41
1
10
14.6083541875277
20
39.6378203453613
30
0
41
1
10
14.5964297470252
20
39.513902324089
30
0
41
1
10
14.5748938538536
20
39.439353141183
30
0
41
1
10
14.5133708045496
20
39.3392876917005
30
0
41
1
10
14.4877309782403
20
39.307722156993
30
0
41
1
10
14.4252858550079
20
39.249539463016
30
0
41
1
10
14.3885752939212
20
39.2228955268184
30
0
41
1
10
14.3453388673927
20
39.1985552505996
30
0
0
SPLINE
5
1DE
100
AcDbEntity
8
1
62
256
6
ByLayer
370
18
48
1
60
0
100
AcDbSpline
70
4
71
3
72
10
73
6
40
0
40
0
40
0
40
0
40
0.5
40
0.5
40
1
40
1
40
1
40
1
41
1
10
12.7982616359124
20
46.5050395804412
30
0
41
1
10
12.9007183972382
20
46.5333628794682
30
0
41
1
10
13.0041556837244
20
46.5587580079352
30
0
41
1
10
13.2119105558207
20
46.6069194022122
30
0
41
1
10
13.3162581128898
20
46.6295961633897
30
0
41
1
10
13.4208747878793
20
46.6514692499619
30
0
0
SPLINE
5
1DF
100
AcDbEntity
8
1
62
256
6
ByLayer
370
18
48
1
60
0
100
AcDbSpline
70
4
71
3
72
10
73
6
40
0
40
0
40
0
40
0
40
0.5
40
0.5
40
1
40
1
40
1
40
1
41
1
10
13.4208747878793
20
46.6514692499619
30
0
41
1
10
13.4503850127168
20
46.6576392004282
30
0
41
1
10
13.4752781325261
20
46.6733227627807
30
0
41
1
10
13.5139445941626
20
46.7123014398028
30
0
41
1
10
13.5274704961218
20
46.7350266161392
30
0
41
1
10
13.5357814543499
20
46.7593914652917
30
0
0
SPLINE
5
1E0
100
AcDbEntity
8
1
62
256
6
ByLayer
370
18
48
1
60
0
100
AcDbSpline
70
4
71
3
72
8
73
4
40
0
40
0
40
0
40
0
40
1
40
1
40
1
40
1
41
1
10
13.5357814543472
20
46.7593914652924
30
0
41
1
10
13.5512502519442
20
46.8047406187441
30
0
41
1
10
13.5674330623666
20
46.8499044623432
30
0
41
1
10
13.5840461068824
20
46.8949566460201
30
0
0
SPLINE
5
1E1
100
AcDbEntity
8
1
62
256
6
ByLayer
370
18
48
1
60
0
100
AcDbSpline
70
4
71
3
72
10
73
6
40
0
40
0
40
0
40
0
40
0.5
40
0.5
40
1
40
1
40
1
40
1
41
1
10
13.5840461068824
20
46.8949566460201
30
0
41
1
10
13.5936823485915
20
46.9210887454686
30
0
41
1
10
13.6112815911898
20
46.9449897282019
30
0
41
1
10
13.6603050458056
20
46.979871681881
30
0
41
1
10
13.6922319406869
20
46.9905882925126
30
0
41
1
10
13.7249999999992
20
46.9905882925128
30
0
0
SPLINE
5
1E2
100
AcDbEntity
8
1
62
256
6
ByLayer
370
18
48
1
60
0
100
AcDbSpline
70
4
71
3
72
10
73
6
40
0
40
0
40
0
40
0
40
0.5
40
0.5
40
1
40
1
40
1
40
1
41
1
10
14.2750000000001
20
46.9905882925047
30
0
41
1
10
14.3076928409579
20
46.9905882925047
30
0
41
1
10
14.3392929936167
20
46.9801232760232
30
0
41
1
10
14.3888988387746
20
46.9448956076664
30
0
41
1
10
14.4063279015148
20
46.9210609486575
30
0
41
1
10
14.4159538931179
20
46.8949566460195
30
0
0
SPLINE
5
1E3
100
AcDbEntity
8
1
62
256
6
ByLayer
370
18
48
1
60
0
100
AcDbSpline
70
4
71
3
72
8
73
4
40
0
40
0
40
0
40
0
40
1
40
1
40
1
40
1
41
1
10
14.4159538931179
20
46.8949566460195
30
0
41
1
10
14.4325727629137
20
46.8498886650223
30
0
41
1
10
14.4487561448335
20
46.8047218656093
30
0
41
1
10
14.4642185456529
20
46.7593914652924
30
0
0
SPLINE
5
1E4
100
AcDbEntity
8
1
62
256
6
ByLayer
370
18
48
1
60
0
100
AcDbSpline
70
4
71
3
72
10
73
6
40
0
40
0
40
0
40
0
40
0.5
40
0.5
40
1
40
1
40
1
40
1
41
1
10
14.4642185456529
20
46.7593914652924
30
0
41
1
10
14.4725393818736
20
46.7349976572897
30
0
41
1
10
14.4861569991746
20
46.7122004682844
30
0
41
1
10
14.5246114936508
20
46.6734325860132
30
0
41
1
10
14.5495324620614
20
46.6576564546692
30
0
41
1
10
14.5791252121208
20
46.6514692499619
30
0
0
SPLINE
5
1E5
100
AcDbEntity
8
1
62
256
6
ByLayer
370
18
48
1
60
0
100
AcDbSpline
70
4
71
3
72
10
73
6
40
0
40
0
40
0
40
0
40
0.5
40
0.5
40
1
40
1
40
1
40
1
41
1
10
14.5791252121208
20
46.6514692499619
30
0
41
1
10
14.6837720320051
20
46.6295898607435
30
0
41
1
10
14.7882322843415
20
46.6068879658319
30
0
41
1
10
14.9960360019526
20
46.5587118923843
30
0
41
1
10
15.0994391096109
20
46.5333193380411
30
0
41
1
10
15.2017383640795
20
46.5050395804435
30
0
0
SPLINE
5
1E6
100
AcDbEntity
8
1
62
256
6
ByLayer
370
18
48
1
60
0
100
AcDbSpline
70
4
71
3
72
8
73
4
40
0
40
0
40
0
40
0
40
1
40
1
40
1
40
1
41
1
10
0.500000000000028
20
19.96672254916
30
0
41
1
10
0.261026764335526
20
19.7278945839621
30
0
41
1
10
0.0220535304974305
20
19.4890666169388
30
0
41
1
10
-0.216919701447154
20
19.2502386480231
30
0
0
LINE
5
77
100
AcDbEntity
8
1
62
256
6
ByLayer
370
18
48
1
60
0
100
AcDbLine
10
11.167091
20
35.532489
30
0
11
11.250003
21
35.684728
31
0
39
0
210
0
220
0
230
1
0
LINE
5
78
100
AcDbEntity
8
1
62
256
6
ByLayer
370
18
48
1
60
0
100
AcDbLine
10
16.921078
20
32.856927
30
0
11
16.749921
21
32.856927
31
0
39
0
210
0
220
0
230
1
0
LINE
5
79
100
AcDbEntity
8
1
62
256
6
ByLayer
370
18
48
1
60
0
100
AcDbLine
10
11.250079
20
32.856927
30
0
11
11.078922
21
32.856927
31
0
39
0
210
0
220
0
230
1
0
LINE
5
7A
100
AcDbEntity
8
1
62
256
6
ByLayer
370
18
48
1
60
0
100
AcDbLine
10
11.167091
20
35.532489
30
0
11
11.078922
21
32.856927
31
0
39
0
210
0
220
0
230
1
0
LINE
5
7B
100
AcDbEntity
8
1
62
256
6
ByLayer
370
18
48
1
60
0
100
AcDbLine
10
16.832909
20
35.532489
30
0
11
16.749997
21
35.684728
31
0
39
0
210
0
220
0
230
1
0
LINE
5
7C
100
AcDbEntity
8
1
62
256
6
ByLayer
370
18
48
1
60
0
100
AcDbLine
10
16.832909
20
35.532489
30
0
11
16.921078
21
32.856927
31
0
39
0
210
0
220
0
230
1
0
LINE
5
7D
100
AcDbEntity
8
1
62
256
6
ByLayer
370
18
48
1
60
0
100
AcDbLine
10
11.641251
20
47.611484
30
0
11
11.4
21
47.611484
31
0
39
0
210
0
220
0
230
1
0
LINE
5
7E
100
AcDbEntity
8
1
62
256
6
ByLayer
370
18
48
1
60
0
100
AcDbLine
10
11.4
20
49.039855
30
0
11
11.4
21
47.611484
31
0
39
0
210
0
220
0
230
1
0
LINE
5
7F
100
AcDbEntity
8
1
62
256
6
ByLayer
370
18
48
1
60
0
100
AcDbLine
10
11.167091
20
49.467511
30
0
11
11.4
21
49.039855
31
0
39
0
210
0
220
0
230
1
0
LINE
5
80
100
AcDbEntity
8
1
62
256
6
ByLayer
370
18
48
1
60
0
100
AcDbLine
10
11.167091
20
49.467511
30
0
11
11.078922
21
52.143073
31
0
39
0
210
0
220
0
230
1
0
LINE
5
81
100
AcDbEntity
8
1
62
256
6
ByLayer
370
18
48
1
60
0
100
AcDbLine
10
16.921078
20
52.143073
30
0
11
11.078922
21
52.143073
31
0
39
0
210
0
220
0
230
1
0
LINE
5
82
100
AcDbEntity
8
1
62
256
6
ByLayer
370
18
48
1
60
0
100
AcDbLine
10
16.832909
20
49.467511
30
0
11
16.921078
21
52.143073
31
0
39
0
210
0
220
0
230
1
0
LINE
5
83
100
AcDbEntity
8
1
62
256
6
ByLayer
370
18
48
1
60
0
100
AcDbLine
10
16.832909
20
49.467511
30
0
11
16.6
21
49.039855
31
0
39
0
210
0
220
0
230
1
0
LINE
5
84
100
AcDbEntity
8
1
62
256
6
ByLayer
370
18
48
1
60
0
100
AcDbLine
10
16.6
20
49.039855
30
0
11
16.6
21
47.611484
31
0
39
0
210
0
220
0
230
1
0
LINE
5
85
100
AcDbEntity
8
1
62
256
6
ByLayer
370
18
48
1
60
0
100
AcDbLine
10
16.358749
20
47.611484
30
0
11
16.6
21
47.611484
31
0
39
0
210
0
220
0
230
1
0
LINE
5
86
100
AcDbEntity
8
1
62
256
6
ByLayer
370
18
48
1
60
0
100
AcDbLine
10
14.649934
20
48.90992
30
0
11
16.341382
21
47.618066
31
0
39
0
210
0
220
0
230
1
0
LINE
5
87
100
AcDbEntity
8
1
62
256
6
ByLayer
370
18
48
1
60
0
100
AcDbLine
10
14.513888
20
49.306526
30
0
11
14.605665
21
48.995391
31
0
39
0
210
0
220
0
230
1
0
LINE
5
88
100
AcDbEntity
8
1
62
256
6
ByLayer
370
18
48
1
60
0
100
AcDbLine
10
13.98
20
50.988604
30
0
11
14.02
21
50.988604
31
0
39
0
210
0
220
0
230
1
0
LINE
5
89
100
AcDbEntity
8
1
62
256
6
ByLayer
370
18
48
1
60
0
100
AcDbLine
10
13.486112
20
49.306526
30
0
11
13.394335
21
48.995391
31
0
39
0
210
0
220
0
230
1
0
LINE
5
8A
100
AcDbEntity
8
1
62
256
6
ByLayer
370
18
48
1
60
0
100
AcDbLine
10
13.350066
20
48.90992
30
0
11
11.658618
21
47.618066
31
0
39
0
210
0
220
0
230
1
0
LINE
5
8B
100
AcDbEntity
8
1
62
256
6
ByLayer
370
18
48
1
60
0
100
AcDbLine
10
11.641251
20
47.611484
30
0
11
11.641251
21
46.18506
31
0
39
0
210
0
220
0
230
1
0
LINE
5
8C
100
AcDbEntity
8
1
62
256
6
ByLayer
370
18
48
1
60
0
100
AcDbLine
10
11.658616
20
47.618068
30
0
11
11.658616
21
46.189967
31
0
39
0
210
0
220
0
230
1
0
LINE
5
8D
100
AcDbEntity
8
1
62
256
6
ByLayer
370
18
48
1
60
0
100
AcDbLine
10
16.341384
20
47.618068
30
0
11
16.341384
21
46.189967
31
0
39
0
210
0
220
0
230
1
0
LINE
5
8E
100
AcDbEntity
8
1
62
256
6
ByLayer
370
18
48
1
60
0
100
AcDbLine
10
16.358749
20
47.611484
30
0
11
16.358749
21
46.18506
31
0
39
0
210
0
220
0
230
1
0
LINE
5
8F
100
AcDbEntity
8
1
62
256
6
ByLayer
370
18
48
1
60
0
100
AcDbLine
10
11.4
20
47.611484
30
0
11
11.4
21
46.118451
31
0
39
0
210
0
220
0
230
1
0
LINE
5
90
100
AcDbEntity
8
1
62
256
6
ByLayer
370
18
48
1
60
0
100
AcDbLine
10
16.6
20
47.611484
30
0
11
16.6
21
46.118451
31
0
39
0
210
0
220
0
230
1
0
LINE
5
91
100
AcDbEntity
8
1
62
256
6
ByLayer
370
18
48
1
60
0
100
AcDbLine
10
14.649934
20
48.90992
30
0
11
14.649934
21
46.636201
31
0
39
0
210
0
220
0
230
1
0
LINE
5
92
100
AcDbEntity
8
1
62
256
6
ByLayer
370
18
48
1
60
0
100
AcDbLine
10
13.350066
20
48.90992
30
0
11
13.350066
21
46.634799
31
0
39
0
210
0
220
0
230
1
0
LINE
5
93
100
AcDbEntity
8
1
62
256
6
ByLayer
370
18
48
1
60
0
100
AcDbLine
10
14.605665
20
48.995391
30
0
11
14.605665
21
46.645683
31
0
39
0
210
0
220
0
230
1
0
LINE
5
94
100
AcDbEntity
8
1
62
256
6
ByLayer
370
18
48
1
60
0
100
AcDbLine
10
13.394335
20
48.995391
30
0
11
13.394335
21
46.645074
31
0
39
0
210
0
220
0
230
1
0
LINE
5
95
100
AcDbEntity
8
1
62
256
6
ByLayer
370
18
48
1
60
0
100
AcDbLine
10
13.486112
20
46.686333
30
0
11
13.486112
21
49.306526
31
0
39
0
210
0
220
0
230
1
0
LINE
5
96
100
AcDbEntity
8
1
62
256
6
ByLayer
370
18
48
1
60
0
100
AcDbLine
10
14.513888
20
46.687396
30
0
11
14.513888
21
49.306526
31
0
39
0
210
0
220
0
230
1
0
LINE
5
97
100
AcDbEntity
8
1
62
256
6
ByLayer
370
18
48
1
60
0
100
AcDbLine
10
14.483085
20
49.482367
30
0
11
14.483085
21
46.726077
31
0
39
0
210
0
220
0
230
1
0
LINE
5
98
100
AcDbEntity
8
1
62
256
6
ByLayer
370
18
48
1
60
0
100
AcDbLine
10
13.516915
20
49.482367
30
0
11
13.516915
21
46.725423
31
0
39
0
210
0
220
0
230
1
0
LINE
5
99
100
AcDbEntity
8
1
62
256
6
ByLayer
370
18
48
1
60
0
100
AcDbLine
10
14.427733
20
50.170287
30
0
11
14.427733
21
46.861757
31
0
39
0
210
0
220
0
230
1
0
LINE
5
9A
100
AcDbEntity
8
1
62
256
6
ByLayer
370
18
48
1
60
0
100
AcDbLine
10
13.572267
20
50.170287
30
0
11
13.572267
21
46.861757
31
0
39
0
210
0
220
0
230
1
0
LINE
5
9B
100
AcDbEntity
8
1
62
256
6
ByLayer
370
18
48
1
60
0
100
AcDbLine
10
14.210736
20
46.99051
30
0
11
14.210736
21
50.94999
31
0
39
0
210
0
220
0
230
1
0
LINE
5
9C
100
AcDbEntity
8
1
62
256
6
ByLayer
370
18
48
1
60
0
100
AcDbLine
10
13.789264
20
46.99051
30
0
11
13.789264
21
50.94999
31
0
39
0
210
0
220
0
230
1
0
LINE
5
9D
100
AcDbEntity
8
1
62
256
6
ByLayer
370
18
48
1
60
0
100
AcDbLine
10
13.98
20
46.990472
30
0
11
13.98
21
50.988604
31
0
39
0
210
0
220
0
230
1
0
LINE
5
9E
100
AcDbEntity
8
1
62
256
6
ByLayer
370
18
48
1
60
0
100
AcDbLine
10
14.02
20
46.990472
30
0
11
14.02
21
50.988604
31
0
39
0
210
0
220
0
230
1
0
LINE
5
9F
100
AcDbEntity
8
1
62
256
6
ByLayer
370
18
48
1
60
0
100
AcDbLine
10
11.100747
20
32.431318
30
0
11
11.250059
21
32.431318
31
0
39
0
210
0
220
0
230
1
0
LINE
5
A0
100
AcDbEntity
8
1
62
256
6
ByLayer
370
18
48
1
60
0
100
AcDbLine
10
16.749941
20
32.431318
30
0
11
16.899253
21
32.431318
31
0
39
0
210
0
220
0
230
1
0
LINE
5
A1
100
AcDbEntity
8
1
62
256
6
ByLayer
370
18
48
1
60
0
100
AcDbLine
10
11.100747
20
32.431318
30
0
11
11.078922
21
32.856927
31
0
39
0
210
0
220
0
230
1
0
LINE
5
A2
100
AcDbEntity
8
1
62
256
6
ByLayer
370
18
48
1
60
0
100
AcDbLine
10
16.899253
20
32.431318
30
0
11
16.921078
21
32.856927
31
0
39
0
210
0
220
0
230
1
0
LINE
5
A3
100
AcDbEntity
8
1
62
256
6
ByLayer
370
18
48
1
60
0
100
AcDbLine
10
11.100747
20
52.568682
30
0
11
16.899253
21
52.568682
31
0
39
0
210
0
220
0
230
1
0
LINE
5
A4
100
AcDbEntity
8
1
62
256
6
ByLayer
370
18
48
1
60
0
100
AcDbLine
10
16.899253
20
52.568682
30
0
11
16.921078
21
52.143073
31
0
39
0
210
0
220
0
230
1
0
LINE
5
A5
100
AcDbEntity
8
1
62
256
6
ByLayer
370
18
48
1
60
0
100
AcDbLine
10
11.100747
20
52.568682
30
0
11
11.078922
21
52.143073
31
0
39
0
210
0
220
0
230
1
0
LINE
5
A6
100
AcDbEntity
8
1
62
256
6
ByLayer
370
18
48
1
60
0
100
AcDbLine
10
10.983803
20
30.423256
30
0
11
11.100747
21
32.431318
31
0
39
0
210
0
220
0
230
1
0
LINE
5
A7
100
AcDbEntity
8
1
62
256
6
ByLayer
370
18
48
1
60
0
100
AcDbLine
10
17.016197
20
30.423256
30
0
11
16.899253
21
32.431318
31
0
39
0
210
0
220
0
230
1
0
LINE
5
A8
100
AcDbEntity
8
1
62
256
6
ByLayer
370
18
48
1
60
0
100
AcDbLine
10
11.383126
20
55
30
0
11
16.616874
21
55
31
0
39
0
210
0
220
0
230
1
0
LINE
5
A9
100
AcDbEntity
8
1
62
256
6
ByLayer
370
18
48
1
60
0
100
AcDbLine
10
17.016197
20
54.576744
30
0
11
16.899253
21
52.568682
31
0
39
0
210
0
220
0
230
1
0
LINE
5
AA
100
AcDbEntity
8
1
62
256
6
ByLayer
370
18
48
1
60
0
100
AcDbLine
10
10.983803
20
54.576744
30
0
11
11.100747
21
52.568682
31
0
39
0
210
0
220
0
230
1
0
LINE
5
AB
100
AcDbEntity
8
1
62
256
6
ByLayer
370
18
48
1
60
0
100
AcDbLine
10
14.640246
20
34.195907
30
0
11
14.640246
21
34.715412
31
0
39
0
210
0
220
0
230
1
0
LINE
5
AC
100
AcDbEntity
8
1
62
256
6
ByLayer
370
18
48
1
60
0
100
AcDbLine
10
13.815085
20
34.044425
30
0
11
13.815085
21
34.838829
31
0
39
0
210
0
220
0
230
1
0
LINE
5
AD
100
AcDbEntity
8
SK1
62
256
6
ByLayer
370
18
48
1
60
0
100
AcDbLine
10
-6.824981
20
5.9325
30
0
11
-7.824981
21
5.664551
31
0
39
0
210
0
220
0
230
1
0
LINE
5
AF
100
AcDbEntity
8
SK1
62
256
6
ByLayer
370
18
48
1
60
0
100
AcDbLine
10
-6.824981
20
-5.9325
30
0
11
-6.824981
21
5.9325
31
0
39
0
210
0
220
0
230
1
0
LINE
5
B0
100
AcDbEntity
8
SK1
62
256
6
ByLayer
370
18
48
1
60
0
100
AcDbLine
10
-7.824981
20
-5.664551
30
0
11
-6.824981
21
-5.9325
31
0
39
0
210
0
220
0
230
1
0
LINE
5
B1
100
AcDbEntity
8
SK1
62
256
6
ByLayer
370
18
48
1
60
0
100
AcDbLine
10
-7.824981
20
-5.664551
30
0
11
-7.824981
21
5.664551
31
0
39
0
210
0
220
0
230
1
0
LINE
5
B2
100
AcDbEntity
8
SK1
62
256
6
ByLayer
370
18
48
1
60
0
100
AcDbLine
10
-6.824981
20
-5.9325
30
0
11
-0.325106
21
-5.9325
31
0
39
0
210
0
220
0
230
1
0
LINE
5
B3
100
AcDbEntity
8
SK1
62
256
6
ByLayer
370
18
48
1
60
0
100
AcDbLine
10
-0.325106
20
5.9325
30
0
11
-6.824981
21
5.9325
31
0
39
0
210
0
220
0
230
1
0
LINE
5
B4
100
AcDbEntity
8
1
62
256
6
ByLayer
370
18
48
1
60
0
100
AcDbLine
10
-0.04697
20
10.152118
30
0
11
0.5
21
10.61352
31
0
39
0
210
0
220
0
230
1
0
LINE
5
B5
100
AcDbEntity
8
1
62
256
6
ByLayer
370
18
48
1
60
0
100
AcDbLine
10
0.5
20
5.552168
30
0
11
0.5
21
10.61352
31
0
39
0
210
0
220
0
230
1
0
LINE
5
B6
100
AcDbEntity
8
1
62
256
6
ByLayer
370
18
48
1
60
0
100
AcDbLine
10
0.126149
20
5.552168
30
0
11
0.5
21
5.552168
31
0
39
0
210
0
220
0
230
1
0
LINE
5
B7
100
AcDbEntity
8
1
62
256
6
ByLayer
370
18
48
1
60
0
100
AcDbLine
10
-0.324981
20
6.10077
30
0
11
-0.324981
21
5.89923
31
0
39
0
210
0
220
0
230
1
0
LINE
5
B8
100
AcDbEntity
8
1
62
256
6
ByLayer
370
18
48
1
60
0
100
AcDbLine
10
-0.324981
20
7.60077
30
0
11
-0.324981
21
7.39923
31
0
39
0
210
0
220
0
230
1
0
LINE
5
B9
100
AcDbEntity
8
1
62
256
6
ByLayer
370
18
48
1
60
0
100
AcDbLine
10
-0.324981
20
9.10077
30
0
11
-0.324981
21
8.89923
31
0
39
0
210
0
220
0
230
1
0
LINE
5
BA
100
AcDbEntity
8
1
62
256
6
ByLayer
370
18
48
1
60
0
100
AcDbLine
10
1.5
20
10.61352
30
0
11
0.5
21
10.61352
31
0
39
0
210
0
220
0
230
1
0
LINE
5
BB
100
AcDbEntity
8
1
62
256
6
ByLayer
370
18
48
1
60
0
100
AcDbLine
10
1.5
20
5.552168
30
0
11
0.5
21
5.552168
31
0
39
0
210
0
220
0
230
1
0
LINE
5
BC
100
AcDbEntity
8
1
62
256
6
ByLayer
370
18
48
1
60
0
100
AcDbLine
10
0.126149
20
-5.552168
30
0
11
0.5
21
-5.552168
31
0
39
0
210
0
220
0
230
1
0
LINE
5
BD
100
AcDbEntity
8
1
62
256
6
ByLayer
370
18
48
1
60
0
100
AcDbLine
10
0.5
20
-10.61352
30
0
11
0.5
21
-5.552168
31
0
39
0
210
0
220
0
230
1
0
LINE
5
BE
100
AcDbEntity
8
1
62
256
6
ByLayer
370
18
48
1
60
0
100
AcDbLine
10
-0.04697
20
-10.152118
30
0
11
0.5
21
-10.61352
31
0
39
0
210
0
220
0
230
1
0
LINE
5
BF
100
AcDbEntity
8
1
62
256
6
ByLayer
370
18
48
1
60
0
100
AcDbLine
10
-0.324981
20
-8.89923
30
0
11
-0.324981
21
-9.10077
31
0
39
0
210
0
220
0
230
1
0
LINE
5
C0
100
AcDbEntity
8
1
62
256
6
ByLayer
370
18
48
1
60
0
100
AcDbLine
10
-0.324981
20
-7.39923
30
0
11
-0.324981
21
-7.60077
31
0
39
0
210
0
220
0
230
1
0
LINE
5
C1
100
AcDbEntity
8
1
62
256
6
ByLayer
370
18
48
1
60
0
100
AcDbLine
10
-0.324981
20
-5.89923
30
0
11
-0.324981
21
-6.10077
31
0
39
0
210
0
220
0
230
1
0
LINE
5
C2
100
AcDbEntity
8
1
62
256
6
ByLayer
370
18
48
1
60
0
100
AcDbLine
10
13.02495
20
-5.552168
30
0
11
0.5
21
-5.552168
31
0
39
0
210
0
220
0
230
1
0
LINE
5
C3
100
AcDbEntity
8
1
62
256
6
ByLayer
370
18
48
1
60
0
100
AcDbLine
10
13.621819
20
-10.61352
30
0
11
0.5
21
-10.61352
31
0
39
0
210
0
220
0
230
1
0
LINE
5
C4
100
AcDbEntity
8
1
62
256
6
ByLayer
370
18
48
1
60
0
100
AcDbLine
10
-0.249981
20
-4.730673
30
0
11
0.342769
21
-5.072898
31
0
39
0
210
0
220
0
230
1
0
LINE
5
C5
100
AcDbEntity
8
1
62
256
6
ByLayer
370
18
48
1
60
0
100
AcDbLine
10
-0.324981
20
-4.39923
30
0
11
-0.324981
21
-4.60077
31
0
39
0
210
0
220
0
230
1
0
LINE
5
C6
100
AcDbEntity
8
1
62
256
6
ByLayer
370
18
48
1
60
0
100
AcDbLine
10
0.342769
20
-3.927102
30
0
11
-0.249981
21
-4.269327
31
0
39
0
210
0
220
0
230
1
0
LINE
5
C7
100
AcDbEntity
8
1
62
256
6
ByLayer
370
18
48
1
60
0
100
AcDbLine
10
-0.249981
20
-3.230673
30
0
11
0.342769
21
-3.572898
31
0
39
0
210
0
220
0
230
1
0
LINE
5
C8
100
AcDbEntity
8
1
62
256
6
ByLayer
370
18
48
1
60
0
100
AcDbLine
10
-0.324981
20
-2.89923
30
0
11
-0.324981
21
-3.10077
31
0
39
0
210
0
220
0
230
1
0
LINE
5
C9
100
AcDbEntity
8
1
62
256
6
ByLayer
370
18
48
1
60
0
100
AcDbLine
10
0.342769
20
-2.427102
30
0
11
-0.249981
21
-2.769327
31
0
39
0
210
0
220
0
230
1
0
LINE
5
CA
100
AcDbEntity
8
1
62
256
6
ByLayer
370
18
48
1
60
0
100
AcDbLine
10
-0.249981
20
-1.730673
30
0
11
0.342769
21
-2.072898
31
0
39
0
210
0
220
0
230
1
0
LINE
5
CB
100
AcDbEntity
8
1
62
256
6
ByLayer
370
18
48
1
60
0
100
AcDbLine
10
-0.324981
20
-1.39923
30
0
11
-0.324981
21
-1.60077
31
0
39
0
210
0
220
0
230
1
0
LINE
5
CC
100
AcDbEntity
8
1
62
256
6
ByLayer
370
18
48
1
60
0
100
AcDbLine
10
0.342769
20
-0.927102
30
0
11
-0.249981
21
-1.269327
31
0
39
0
210
0
220
0
230
1
0
LINE
5
CD
100
AcDbEntity
8
1
62
256
6
ByLayer
370
18
48
1
60
0
100
AcDbLine
10
-0.249981
20
-0.230673
30
0
11
0.342769
21
-0.572898
31
0
39
0
210
0
220
0
230
1
0
LINE
5
CE
100
AcDbEntity
8
1
62
256
6
ByLayer
370
18
48
1
60
0
100
AcDbLine
10
-0.324981
20
0.10077
30
0
11
-0.324981
21
-0.10077
31
0
39
0
210
0
220
0
230
1
0
LINE
5
CF
100
AcDbEntity
8
1
62
256
6
ByLayer
370
18
48
1
60
0
100
AcDbLine
10
-0.249981
20
0.230673
30
0
11
0.342769
21
0.572898
31
0
39
0
210
0
220
0
230
1
0
LINE
5
D0
100
AcDbEntity
8
1
62
256
6
ByLayer
370
18
48
1
60
0
100
AcDbLine
10
0.342769
20
0.927102
30
0
11
-0.249981
21
1.269327
31
0
39
0
210
0
220
0
230
1
0
LINE
5
D1
100
AcDbEntity
8
1
62
256
6
ByLayer
370
18
48
1
60
0
100
AcDbLine
10
-0.324981
20
1.60077
30
0
11
-0.324981
21
1.39923
31
0
39
0
210
0
220
0
230
1
0
LINE
5
D2
100
AcDbEntity
8
1
62
256
6
ByLayer
370
18
48
1
60
0
100
AcDbLine
10
-0.249981
20
1.730673
30
0
11
0.342769
21
2.072898
31
0
39
0
210
0
220
0
230
1
0
LINE
5
D3
100
AcDbEntity
8
1
62
256
6
ByLayer
370
18
48
1
60
0
100
AcDbLine
10
0.342769
20
2.427102
30
0
11
-0.249981
21
2.769327
31
0
39
0
210
0
220
0
230
1
0
LINE
5
D4
100
AcDbEntity
8
1
62
256
6
ByLayer
370
18
48
1
60
0
100
AcDbLine
10
-0.324981
20
3.10077
30
0
11
-0.324981
21
2.89923
31
0
39
0
210
0
220
0
230
1
0
LINE
5
D5
100
AcDbEntity
8
1
62
256
6
ByLayer
370
18
48
1
60
0
100
AcDbLine
10
-0.249981
20
3.230673
30
0
11
0.342769
21
3.572898
31
0
39
0
210
0
220
0
230
1
0
LINE
5
D6
100
AcDbEntity
8
1
62
256
6
ByLayer
370
18
48
1
60
0
100
AcDbLine
10
0.342769
20
3.927102
30
0
11
-0.249981
21
4.269327
31
0
39
0
210
0
220
0
230
1
0
LINE
5
D7
100
AcDbEntity
8
1
62
256
6
ByLayer
370
18
48
1
60
0
100
AcDbLine
10
-0.324981
20
4.60077
30
0
11
-0.324981
21
4.39923
31
0
39
0
210
0
220
0
230
1
0
LINE
5
D8
100
AcDbEntity
8
1
62
256
6
ByLayer
370
18
48
1
60
0
100
AcDbLine
10
-0.249981
20
4.730673
30
0
11
0.342769
21
5.072898
31
0
39
0
210
0
220
0
230
1
0
LINE
5
D9
100
AcDbEntity
8
1
62
256
6
ByLayer
370
18
48
1
60
0
100
AcDbLine
10
0.342769
20
5.427102
30
0
11
0.126149
21
5.552168
31
0
39
0
210
0
220
0
230
1
0
LINE
5
DA
100
AcDbEntity
8
1
62
256
6
ByLayer
370
18
48
1
60
0
100
AcDbLine
10
0.5
20
-5.552168
30
0
11
0.5
21
5.552168
31
0
39
0
210
0
220
0
230
1
0
LINE
5
DB
100
AcDbEntity
8
1
62
256
6
ByLayer
370
18
48
1
60
0
100
AcDbLine
10
0.342769
20
-5.427102
30
0
11
0.126149
21
-5.552168
31
0
39
0
210
0
220
0
230
1
0
LINE
5
DC
100
AcDbEntity
8
1
62
256
6
ByLayer
370
18
48
1
60
0
100
AcDbLine
10
13.564405
20
10.977085
30
0
11
2.955337
21
10.977085
31
0
39
0
210
0
220
0
230
1
0
LINE
5
DD
100
AcDbEntity
8
1
62
256
6
ByLayer
370
18
48
1
60
0
100
AcDbLine
10
13.02495
20
8
30
0
11
1.5
21
8
31
0
39
0
210
0
220
0
230
1
0
LINE
5
DE
100
AcDbEntity
8
1
62
256
6
ByLayer
370
18
48
1
60
0
100
AcDbLine
10
2.17
20
9.86505
30
0
11
1.5
21
9.86505
31
0
39
0
210
0
220
0
230
1
0
LINE
5
DF
100
AcDbEntity
8
1
62
256
6
ByLayer
370
18
48
1
60
0
100
AcDbLine
10
1.5
20
8
30
0
11
1.5
21
9.86505
31
0
39
0
210
0
220
0
230
1
0
LINE
5
E0
100
AcDbEntity
8
1
62
256
6
ByLayer
370
18
48
1
60
0
100
AcDbLine
10
16.75
20
-12.25
30
0
11
16.75
21
3.885159
31
0
39
0
210
0
220
0
230
1
0
LINE
5
E1
100
AcDbEntity
8
1
62
256
6
ByLayer
370
18
48
1
60
0
100
AcDbLine
10
15.602851
20
-13.397149
30
0
11
16.75
21
-12.25
31
0
39
0
210
0
220
0
230
1
0
LINE
5
E2
100
AcDbEntity
8
1
62
256
6
ByLayer
370
18
48
1
60
0
100
AcDbLine
10
14.812329
20
-14.187671
30
0
11
14.997058
21
-14.002942
31
0
39
0
210
0
220
0
230
1
0
LINE
5
E3
100
AcDbEntity
8
1
62
256
6
ByLayer
370
18
48
1
60
0
100
AcDbLine
10
13.02495
20
-5.552168
30
0
11
13.02495
21
8
31
0
39
0
210
0
220
0
230
1
0
LINE
5
E4
100
AcDbEntity
8
1
62
256
6
ByLayer
370
18
48
1
60
0
100
AcDbLine
10
1.5
20
8
30
0
11
1.5
21
5.552168
31
0
39
0
210
0
220
0
230
1
0
LINE
5
E5
100
AcDbEntity
8
1
62
256
6
ByLayer
370
18
48
1
60
0
100
AcDbLine
10
2.17
20
17.009172
30
0
11
2.17
21
9.86505
31
0
39
0
210
0
220
0
230
1
0
LINE
5
E6
100
AcDbEntity
8
1
62
256
6
ByLayer
370
18
48
1
60
0
100
AcDbLine
10
2.17
20
17.009172
30
0
11
1.5
21
17.009172
31
0
39
0
210
0
220
0
230
1
0
LINE
5
E7
100
AcDbEntity
8
1
62
256
6
ByLayer
370
18
48
1
60
0
100
AcDbLine
10
1.5
20
9.86505
30
0
11
1.5
21
17.009172
31
0
39
0
210
0
220
0
230
1
0
LINE
5
E8
100
AcDbEntity
8
1
62
256
6
ByLayer
370
18
48
1
60
0
100
AcDbLine
10
14.995907
20
15.231054
30
0
11
2.97307
21
15.231054
31
0
39
0
210
0
220
0
230
1
0
LINE
5
E9
100
AcDbEntity
8
1
62
256
6
ByLayer
370
18
48
1
60
0
100
AcDbLine
10
0.5
20
10.61352
30
0
11
0.5
21
16.803804
31
0
39
0
210
0
220
0
230
1
0
LINE
5
EA
100
AcDbEntity
8
1
62
256
6
ByLayer
370
18
48
1
60
0
100
AcDbLine
10
-0.324981
20
10.60077
30
0
11
-0.324981
21
10.39923
31
0
39
0
210
0
220
0
230
1
0
LINE
5
EB
100
AcDbEntity
8
1
62
256
6
ByLayer
370
18
48
1
60
0
100
AcDbLine
10
-0.324981
20
12.10077
30
0
11
-0.324981
21
11.89923
31
0
39
0
210
0
220
0
230
1
0
LINE
5
EC
100
AcDbEntity
8
1
62
256
6
ByLayer
370
18
48
1
60
0
100
AcDbLine
10
-0.324981
20
13.60077
30
0
11
-0.324981
21
13.39923
31
0
39
0
210
0
220
0
230
1
0
LINE
5
ED
100
AcDbEntity
8
1
62
256
6
ByLayer
370
18
48
1
60
0
100
AcDbLine
10
-0.324981
20
15.10077
30
0
11
-0.324981
21
14.89923
31
0
39
0
210
0
220
0
230
1
0
LINE
5
EE
100
AcDbEntity
8
1
62
256
6
ByLayer
370
18
48
1
60
0
100
AcDbLine
10
1.5
20
16.803804
30
0
11
0.5
21
16.803804
31
0
39
0
210
0
220
0
230
1
0
LINE
5
EF
100
AcDbEntity
8
1
62
256
6
ByLayer
370
18
48
1
60
0
100
AcDbLine
10
0.5
20
-20
30
0
11
9
21
-20
31
0
39
0
210
0
220
0
230
1
0
LINE
5
F0
100
AcDbEntity
8
1
62
256
6
ByLayer
370
18
48
1
60
0
100
AcDbLine
10
14.812329
20
-14.187671
30
0
11
9
21
-20
31
0
39
0
210
0
220
0
230
1
0
LINE
5
F1
100
AcDbEntity
8
1
62
256
6
ByLayer
370
18
48
1
60
0
100
AcDbLine
10
0.5
20
-20
30
0
11
0.5
21
-10.61352
31
0
39
0
210
0
220
0
230
1
0
LINE
5
F2
100
AcDbEntity
8
1
62
256
6
ByLayer
370
18
48
1
60
0
100
AcDbLine
10
-0.237406
20
-19.262594
30
0
11
0.5
21
-20
31
0
39
0
210
0
220
0
230
1
0
LINE
5
F3
100
AcDbEntity
8
1
62
256
6
ByLayer
370
18
48
1
60
0
100
AcDbLine
10
-0.324981
20
-17.89923
30
0
11
-0.324981
21
-18.10077
31
0
39
0
210
0
220
0
230
1
0
LINE
5
F4
100
AcDbEntity
8
1
62
256
6
ByLayer
370
18
48
1
60
0
100
AcDbLine
10
-0.324981
20
-16.39923
30
0
11
-0.324981
21
-16.60077
31
0
39
0
210
0
220
0
230
1
0
LINE
5
F5
100
AcDbEntity
8
1
62
256
6
ByLayer
370
18
48
1
60
0
100
AcDbLine
10
-0.324981
20
-14.89923
30
0
11
-0.324981
21
-15.10077
31
0
39
0
210
0
220
0
230
1
0
LINE
5
F6
100
AcDbEntity
8
1
62
256
6
ByLayer
370
18
48
1
60
0
100
AcDbLine
10
-0.324981
20
-13.39923
30
0
11
-0.324981
21
-13.60077
31
0
39
0
210
0
220
0
230
1
0
LINE
5
F7
100
AcDbEntity
8
1
62
256
6
ByLayer
370
18
48
1
60
0
100
AcDbLine
10
-0.324981
20
-11.89923
30
0
11
-0.324981
21
-12.10077
31
0
39
0
210
0
220
0
230
1
0
LINE
5
F8
100
AcDbEntity
8
1
62
256
6
ByLayer
370
18
48
1
60
0
100
AcDbLine
10
-0.324981
20
-10.39923
30
0
11
-0.324981
21
-10.60077
31
0
39
0
210
0
220
0
230
1
0
LINE
5
F9
100
AcDbEntity
8
1
62
256
6
ByLayer
370
18
48
1
60
0
100
AcDbLine
10
14.997047
20
-14.002953
30
0
11
15.602851
21
-13.397149
31
0
39
0
210
0
220
0
230
1
0
LINE
5
FA
100
AcDbEntity
8
1
62
256
6
ByLayer
370
18
48
1
60
0
100
AcDbLine
10
3.77
20
19.094017
30
0
11
3.77
21
17.907257
31
0
39
0
210
0
220
0
230
1
0
LINE
5
FB
100
AcDbEntity
8
1
62
256
6
ByLayer
370
18
48
1
60
0
100
AcDbLine
10
15.483472
20
19.094017
30
0
11
3.77
21
19.094017
31
0
39
0
210
0
220
0
230
1
0
LINE
5
FC
100
AcDbEntity
8
1
62
256
6
ByLayer
370
18
48
1
60
0
100
AcDbLine
10
15.515888
20
33.344105
30
0
11
15.515888
21
21.915378
31
0
39
0
210
0
220
0
230
1
0
LINE
5
FD
100
AcDbEntity
8
1
62
256
6
ByLayer
370
18
48
1
60
0
100
AcDbLine
10
3.77
20
21.915378
30
0
11
15.515888
21
21.915378
31
0
39
0
210
0
220
0
230
1
0
LINE
5
FE
100
AcDbEntity
8
1
62
256
6
ByLayer
370
18
48
1
60
0
100
AcDbLine
10
3.77
20
22.199274
30
0
11
3.77
21
21.915378
31
0
39
0
210
0
220
0
230
1
0
LINE
5
FF
100
AcDbEntity
8
1
62
256
6
ByLayer
370
18
48
1
60
0
100
AcDbLine
10
7.27
20
24.65
30
0
11
3.77
21
22.199274
31
0
39
0
210
0
220
0
230
1
0
LINE
5
100
100
AcDbEntity
8
1
62
256
6
ByLayer
370
18
48
1
60
0
100
AcDbLine
10
10.87029
20
24.65
30
0
11
7.27
21
24.65
31
0
39
0
210
0
220
0
230
1
0
LINE
5
101
100
AcDbEntity
8
1
62
256
6
ByLayer
370
18
48
1
60
0
100
AcDbLine
10
12.484112
20
33.344105
30
0
11
12.484112
21
26.25
31
0
39
0
210
0
220
0
230
1
0
LINE
5
102
100
AcDbEntity
8
1
62
256
6
ByLayer
370
18
48
1
60
0
100
AcDbLine
10
12.484112
20
33.344105
30
0
11
15.515888
21
33.344105
31
0
39
0
210
0
220
0
230
1
0
LINE
5
103
100
AcDbEntity
8
1
62
256
6
ByLayer
370
18
48
1
60
0
100
AcDbLine
10
12.484112
20
26.25
30
0
11
11.25
21
26.25
31
0
39
0
210
0
220
0
230
1
0
LINE
5
104
100
AcDbEntity
8
1
62
256
6
ByLayer
370
18
48
1
60
0
100
AcDbLine
10
11.25
20
26.25
30
0
11
11.25
21
39.578193
31
0
39
0
210
0
220
0
230
1
0
LINE
5
105
100
AcDbEntity
8
1
62
256
6
ByLayer
370
18
48
1
60
0
100
AcDbLine
10
16.642933
20
7.693184
30
0
11
16.473274
21
7.693184
31
0
39
0
210
0
220
0
230
1
0
LINE
5
106
100
AcDbEntity
8
1
62
256
6
ByLayer
370
18
48
1
60
0
100
AcDbLine
10
0.5
20
16.803737
30
0
11
0.5
21
17.462705
31
0
39
0
210
0
220
0
230
1
0
LINE
5
107
100
AcDbEntity
8
1
62
256
6
ByLayer
370
18
48
1
60
0
100
AcDbLine
10
0.5
20
17.462705
30
0
11
1.5
21
17.462705
31
0
39
0
210
0
220
0
230
1
0
LINE
5
108
100
AcDbEntity
8
1
62
256
6
ByLayer
370
18
48
1
60
0
100
AcDbLine
10
1.5
20
17.671107
30
0
11
1.5
21
17.462705
31
0
39
0
210
0
220
0
230
1
0
LINE
5
109
100
AcDbEntity
8
1
62
256
6
ByLayer
370
18
48
1
60
0
100
AcDbLine
10
1.5
20
17.671107
30
0
11
2.17
21
17.671107
31
0
39
0
210
0
220
0
230
1
0
LINE
5
10A
100
AcDbEntity
8
1
62
256
6
ByLayer
370
18
48
1
60
0
100
AcDbLine
10
3.77
20
19.094021
30
0
11
3.77
21
21.915378
31
0
39
0
210
0
220
0
230
1
0
LINE
5
10B
100
AcDbEntity
8
1
62
256
6
ByLayer
370
18
48
1
60
0
100
AcDbLine
10
16.75
20
6.501242
30
0
11
16.75
21
39.578193
31
0
39
0
210
0
220
0
230
1
0
LINE
5
10C
100
AcDbEntity
8
1
62
256
6
ByLayer
370
18
48
1
60
0
100
AcDbLine
10
16.340286
20
37.400288
30
0
11
11.659714
21
37.400288
31
0
39
0
210
0
220
0
230
1
0
LINE
5
10D
100
AcDbEntity
8
1
62
256
6
ByLayer
370
18
48
1
60
0
100
AcDbLine
10
2.17
20
20.25
30
0
11
2.17
21
17.671107
31
0
39
0
210
0
220
0
230
1
0
LINE
5
10E
100
AcDbEntity
8
1
62
256
6
ByLayer
370
18
48
1
60
0
100
AcDbLine
10
1.5
20
17.671107
30
0
11
1.5
21
20.25
31
0
39
0
210
0
220
0
230
1
0
LINE
5
10F
100
AcDbEntity
8
1
62
256
6
ByLayer
370
18
48
1
60
0
100
AcDbLine
10
2.17
20
20.25
30
0
11
1.5
21
20.25
31
0
39
0
210
0
220
0
230
1
0
LINE
5
110
100
AcDbEntity
8
1
62
256
6
ByLayer
370
18
48
1
60
0
100
AcDbLine
10
0.5
20
17.462705
30
0
11
0.5
21
20
31
0
39
0
210
0
220
0
230
1
0
LINE
5
111
100
AcDbEntity
8
1
62
256
6
ByLayer
370
18
48
1
60
0
100
AcDbLine
10
1.5
20
20
30
0
11
0.5
21
20
31
0
39
0
210
0
220
0
230
1
0
LINE
5
112
100
AcDbEntity
8
1
62
256
6
ByLayer
370
18
48
1
60
0
100
AcDbLine
10
11.9952
20
39.198555
30
0
11
11.292045
21
39.198555
31
0
39
0
210
0
220
0
230
1
0
LINE
5
113
100
AcDbEntity
8
1
62
256
6
ByLayer
370
18
48
1
60
0
100
AcDbLine
10
16.707955
20
39.198555
30
0
11
14.345339
21
39.198555
31
0
39
0
210
0
220
0
230
1
0
LINE
5
114
100
AcDbEntity
8
1
62
256
6
ByLayer
370
18
48
1
60
0
100
AcDbLine
10
16.75
20
3.885159
30
0
11
16.75
21
6.501242
31
0
39
0
210
0
220
0
230
1
0
LINE
5
115
100
AcDbEntity
8
1
62
256
6
ByLayer
370
18
48
1
60
0
100
AcDbLine
10
11.25
20
41.677702
30
0
11
11.25
21
39.578193
31
0
39
0
210
0
220
0
230
1
0
LINE
5
116
100
AcDbEntity
8
1
62
256
6
ByLayer
370
18
48
1
60
0
100
AcDbLine
10
11.812393
20
41.677702
30
0
11
11.25
21
41.677702
31
0
39
0
210
0
220
0
230
1
0
LINE
5
117
100
AcDbEntity
8
1
62
256
6
ByLayer
370
18
48
1
60
0
100
AcDbLine
10
16.75
20
39.578193
30
0
11
16.75
21
41.677702
31
0
39
0
210
0
220
0
230
1
0
LINE
5
118
100
AcDbEntity
8
1
62
256
6
ByLayer
370
18
48
1
60
0
100
AcDbLine
10
16.75
20
41.677702
30
0
11
14.040172
21
41.677702
31
0
39
0
210
0
220
0
230
1
0
LINE
5
119
100
AcDbEntity
8
1
62
256
6
ByLayer
370
18
48
1
60
0
100
AcDbLine
10
11.25
20
46.077036
30
0
11
12.798262
21
46.50504
31
0
39
0
210
0
220
0
230
1
0
LINE
5
11A
100
AcDbEntity
8
1
62
256
6
ByLayer
370
18
48
1
60
0
100
AcDbLine
10
13.725
20
46.990588
30
0
11
14.275
21
46.990588
31
0
39
0
210
0
220
0
230
1
0
LINE
5
11B
100
AcDbEntity
8
1
62
256
6
ByLayer
370
18
48
1
60
0
100
AcDbLine
10
15.201738
20
46.50504
30
0
11
16.75
21
46.077036
31
0
39
0
210
0
220
0
230
1
0
LINE
5
11C
100
AcDbEntity
8
1
62
256
6
ByLayer
370
18
48
1
60
0
100
AcDbLine
10
16.75
20
41.677702
30
0
11
16.75
21
46.077036
31
0
39
0
210
0
220
0
230
1
0
LINE
5
11D
100
AcDbEntity
8
1
62
256
6
ByLayer
370
18
48
1
60
0
100
AcDbLine
10
11.25
20
46.077036
30
0
11
11.25
21
41.677702
31
0
39
0
210
0
220
0
230
1
0
LINE
5
11E
100
AcDbEntity
8
1
62
256
6
ByLayer
370
18
48
1
60
0
100
AcDbLine
10
-0.249981
20
16.269327
30
0
11
-0.224687
21
16.254723
31
0
39
0
210
0
220
0
230
1
0
LINE
5
11F
100
AcDbEntity
8
1
62
256
6
ByLayer
370
18
48
1
60
0
100
AcDbLine
10
-0.324981
20
16.39923
30
0
11
-0.324981
21
16.60077
31
0
39
0
210
0
220
0
230
1
0
LINE
5
120
100
AcDbEntity
8
1
62
256
6
ByLayer
370
18
48
1
60
0
100
AcDbLine
10
0.342769
20
17.072898
30
0
11
-0.249981
21
16.730673
31
0
39
0
210
0
220
0
230
1
0
LINE
5
121
100
AcDbEntity
8
1
62
256
6
ByLayer
370
18
48
1
60
0
100
AcDbLine
10
-0.249981
20
17.769327
30
0
11
0.342769
21
17.427102
31
0
39
0
210
0
220
0
230
1
0
LINE
5
122
100
AcDbEntity
8
1
62
256
6
ByLayer
370
18
48
1
60
0
100
AcDbLine
10
-0.324981
20
17.89923
30
0
11
-0.324981
21
18.10077
31
0
39
0
210
0
220
0
230
1
0
LINE
5
123
100
AcDbEntity
8
1
62
256
6
ByLayer
370
18
48
1
60
0
100
AcDbLine
10
0.342769
20
18.572898
30
0
11
-0.249981
21
18.230673
31
0
39
0
210
0
220
0
230
1
0
LINE
5
124
100
AcDbEntity
8
1
62
256
6
ByLayer
370
18
48
1
60
0
100
AcDbLine
10
-0.21692
20
19.250239
30
0
11
0.342769
21
18.927102
31
0
39
0
210
0
220
0
230
1
0
LINE
5
125
100
AcDbEntity
8
1
62
256
6
ByLayer
370
18
48
1
60
0
100
AcDbLine
10
16.599972
20
47.961527
30
0
11
16.75
21
47.961973
31
0
39
0
210
0
220
0
230
1
0
LINE
5
126
100
AcDbEntity
8
1
62
256
6
ByLayer
370
18
48
1
60
0
100
AcDbLine
10
16.75
20
46.07706
30
0
11
16.75
21
47.961973
31
0
39
0
210
0
220
0
230
1
0
LINE
5
127
100
AcDbEntity
8
1
62
256
6
ByLayer
370
18
48
1
60
0
100
AcDbLine
10
16.75
20
47.961973
30
0
11
16.75
21
49.315285
31
0
39
0
210
0
220
0
230
1
0
LINE
5
128
100
AcDbEntity
8
1
62
256
6
ByLayer
370
18
48
1
60
0
100
AcDbLine
10
11.25
20
47.961973
30
0
11
11.400028
21
47.961527
31
0
39
0
210
0
220
0
230
1
0
LINE
5
129
100
AcDbEntity
8
1
62
256
6
ByLayer
370
18
48
1
60
0
100
AcDbLine
10
11.25
20
49.315285
30
0
11
11.25
21
47.961973
31
0
39
0
210
0
220
0
230
1
0
LINE
5
12A
100
AcDbEntity
8
1
62
256
6
ByLayer
370
18
48
1
60
0
100
AcDbLine
10
11.25
20
47.961973
30
0
11
11.25
21
46.07706
31
0
39
0
210
0
220
0
230
1
0
LINE
5
12B
100
AcDbEntity
8
SK4
62
256
6
ByLayer
370
13
48
0.05
60
0
100
AcDbLine
10
-9.324981
20
0
30
0
11
18.675019
21
0
31
0
39
0
210
0
220
0
230
1
0
LINE
5
12D
100
AcDbEntity
8
4
62
256
6
ByLayer
370
13
48
0.05
60
0
100
AcDbLine
10
-1.824981
20
0
30
0
11
20.175019
21
0
31
0
39
0
210
0
220
0
230
1
0
LINE
5
12F
100
AcDbEntity
8
80
62
256
6
ByLayer
370
18
48
1
60
0
100
AcDbLine
10
0
20
0
30
0
11
-9.92945
21
0
31
0
39
0
210
0
220
0
230
1
0
LINE
5
130
100
AcDbEntity
8
81
62
256
6
ByLayer
370
18
48
1
60
0
100
AcDbLine
10
14
20
55
30
0
11
14
21
61.5006
31
0
39
0
210
0
220
0
230
1
0
MTEXT
5
1E7
100
AcDbEntity
8
SK6
62
256
6
ByLayer
370
18
48
1
60
0
100
AcDbMText
10
-21.587865
20
-42.332413
30
0
210
0
220
0
230
1
1
\W0.7569;SL70-R123K30A-HP-M
40
3.175
41
0
44
1.084337
50
0
71
7
72
5
7
iso_b_vert
0
DIMENSION
5
1F9
100
AcDbEntity
8
2
62
256
6
ByLayer
370
13
48
1
60
0
100
AcDbDimension
2
DimnDraft3D1
10
-28.990079
20
-55
30
0
11
-28.990079
21
-27.5
31
0
70
32
71
5
72
1
41
1
210
0
220
0
230
1
3
Standard
100
AcDbAlignedDimension
13
-1.5875
23
0
33
0
14
-15.5875
24
-55
34
0
50
90
100
AcDbRotatedDimension
1001
ACAD
1000
DSTYLE
1002
{
1070
    74
1070
     0
1070
   279
1070
     0
1070
   172
1070
     1
1070
   173
1070
     1
1070
   340
1005
1E8
1070
   271
1070
     1
1070
   272
1070
     2
1070
    77
1070
     1
1070
    73
1070
     0
1070
   171
1070
     3
1070
   274
1070
     4
1070
   177
1070
     7
1070
   176
1070
     7
1070
   178
1070
     7
1070
    78
1070
     8
1070
    48
1040
-0.005
1070
    41
1041
3.175
1070
   147
1041
1.75006
1070
    42
1041
1.5875
1070
    44
1041
3.175
1070
   140
1041
3.50012
1070
   343
1005
0
1070
   344
1005
0
1002
}
0
DIMENSION
5
208
100
AcDbEntity
8
SK2
62
256
6
ByLayer
370
13
48
1
60
0
100
AcDbDimension
2
DimnDraft3D2
10
19.583119
20
-55
30
0
11
19.583119
21
-36.200294
31
0
70
32
71
5
72
1
41
1
210
0
220
0
230
1
3
Standard
100
AcDbAlignedDimension
13
-5.6825
23
-24.65
33
0
14
-12.4125
24
-55
34
0
50
90
100
AcDbRotatedDimension
1001
ACAD
1000
DSTYLE
1002
{
1070
    74
1070
     0
1070
   279
1070
     0
1070
   172
1070
     1
1070
   173
1070
     1
1070
   340
1005
1E8
1070
   271
1070
     2
1070
   272
1070
     2
1070
    77
1070
     1
1070
    73
1070
     0
1070
   171
1070
     3
1070
   274
1070
     4
1070
   177
1070
     7
1070
   176
1070
     7
1070
   178
1070
     7
1070
    78
1070
     8
1070
    48
1040
-0.005
1070
    41
1041
3.175
1070
   147
1041
1.75006
1070
    42
1041
1.5875
1070
    44
1041
3.175
1070
   140
1041
3.50012
1070
   343
1005
209
1070
   344
1005
209
1002
}
0
DIMENSION
5
21D
100
AcDbEntity
8
2
62
256
6
ByLayer
370
13
48
1
60
0
100
AcDbDimension
2
DimnDraft3D3
10
0
20
70.593814
30
0
11
7
21
70.593814
31
0
70
32
71
5
72
1
41
1
210
0
220
0
230
1
3
Standard
100
AcDbAlignedDimension
13
14
23
56.5875
33
0
14
0
24
1.5875
34
0
50
0
100
AcDbRotatedDimension
1001
ACAD
1000
DSTYLE
1002
{
1070
   279
1070
     0
1070
   172
1070
     1
1070
   173
1070
     1
1070
   340
1005
1E8
1070
   271
1070
     2
1070
   272
1070
     2
1070
    77
1070
     1
1070
    73
1070
     0
1070
   171
1070
     3
1070
   274
1070
     4
1070
   177
1070
     7
1070
   176
1070
     7
1070
   178
1070
     7
1070
    78
1070
     8
1070
    48
1040
-0.005
1070
    41
1041
3.175
1070
   147
1041
1.75006
1070
    42
1041
1.5875
1070
    44
1041
3.175
1070
   140
1041
3.50012
1070
   343
1005
0
1070
   344
1005
0
1002
}
0
DIMENSION
5
22B
100
AcDbEntity
8
SK2
62
256
6
ByLayer
370
13
48
1
60
0
100
AcDbDimension
2
DimnDraft3D4
10
20.678211
20
-20
30
0
11
20.678211
21
0
31
0
70
32
71
5
72
1
41
1
210
0
220
0
230
1
3
Standard
100
AcDbAlignedDimension
13
1.0875
23
20
33
0
14
1.0875
24
-20
34
0
50
90
100
AcDbRotatedDimension
1001
ACAD
1000
DSTYLE
1002
{
1070
    74
1070
     0
1070
   279
1070
     0
1070
   172
1070
     1
1070
   173
1070
     1
1070
   340
1005
1E8
1070
   271
1070
     1
1070
   272
1070
     2
1070
    77
1070
     1
1070
    73
1070
     0
1070
   171
1070
     3
1070
   274
1070
     4
1070
   177
1070
     7
1070
   176
1070
     7
1070
   178
1070
     7
1070
    78
1070
     8
1070
    48
1040
-0.005
1070
    41
1041
3.175
1070
   147
1041
1.75006
1070
    42
1041
1.5875
1070
    44
1041
3.175
1070
   140
1041
3.50012
1070
   343
1005
0
1070
   344
1005
0
1002
}
0
ENDSEC
0
SECTION
2
OBJECTS
0
DICTIONARY
5
296
330
0
100
AcDbDictionary
280
0
281
1
3
ACAD_GROUP
350
297
3
ACAD_MLINESTYLE
350
298
0
DICTIONARY
5
297
330
0
100
AcDbDictionary
280
0
281
1
0
DICTIONARY
5
298
330
0
100
AcDbDictionary
280
0
281
1
3
Standard
350
18
0
MLINESTYLE
5
18
330
298
100
AcDbMlineStyle
2
Standard
70
0
3

62
256
51
90
52
90
71
2
49
-0.5
62
256
6
ByLayer
49
0.5
62
256
6
ByLayer
0
RASTERVARIABLES
5
284
330

100
AcDbRasterVariables
90
0
70
1
71
1
72
1
0
ENDSEC
0
EOF
