0
SECTION
2
HEADER
9
$ACADVER
1
AC1015
9
$DWGCODEPAGE
3
ANSI_1252
9
$HANDSEED
5
27c
9
$ANGBASE
50
0
9
$ANGDIR
70
0
9
$ATTMODE
70
1
9
$AUNITS
70
0
9
$AUPREC
70
0
9
$CECOLOR
62
256
9
$CELTSCALE
40
1
9
$CELTYPE
6
ByLayer
9
$CELWEIGHT
370
18
9
$CLAYER
8
0
9
$CMLJUST
70
0
9
$CMLSCALE
40
1
9
$CMLSTYLE
2
Standard
9
$DIMSTYLE
2
Standard
9
$TEXTSIZE
40
0.2
9
$TEXTSTYLE
7
Standard
9
$LUNITS
70
2
9
$LUPREC
70
4
9
$EXTNAMES
290
1
9
$INSUNITS
70
4
9
$LTSCALE
40
1
9
$LWDISPLAY
290
1
9
$PDMODE
70
0
9
$PDSIZE
40
0
9
$PLINEGEN
70
0
0
ENDSEC
0
SECTION
2
CLASSES
0
CLASS
1
RASTERVARIABLES
2
AcDbRasterVariables
3
ISM
90
0
280
0
281
0
0
ENDSEC
0
SECTION
2
TABLES
0
TABLE
2
VPORT
5
272
100
AcDbSymbolTable
0
VPORT
5
1
100
AcDbSymbolTableRecord
100
AcDbViewportTableRecord
2
*Active
70
0
10
0
20
0
11
1
21
1
12
-1
22
1
13
0
23
0
14
0.5
24
0.5
15
10
25
10
16
0
26
0
36
1
17
0
27
0
37
0
0
ENDTAB
0
TABLE
2
LTYPE
5
273
100
AcDbSymbolTable
0
LTYPE
5
14
100
AcDbSymbolTableRecord
100
AcDbLinetypeTableRecord
70
0
2
ByBlock
3

72
65
73
0
40
0
0
LTYPE
5
15
100
AcDbSymbolTableRecord
100
AcDbLinetypeTableRecord
70
0
2
ByLayer
3

72
65
73
0
40
0
0
LTYPE
5
16
100
AcDbSymbolTableRecord
100
AcDbLinetypeTableRecord
70
0
2
CONTINUOUS
3
Solid line
72
65
73
0
40
0
0
LTYPE
5
6A
100
AcDbSymbolTableRecord
100
AcDbLinetypeTableRecord
70
0
2
CENTER
3
____ _ ____ _ ____ _ ____
72
65
73
4
40
47.5
49
22
74
0
49
-8.5
74
0
49
8.5
74
0
49
-8.5
74
0
0
LTYPE
5
6B
100
AcDbSymbolTableRecord
100
AcDbLinetypeTableRecord
70
0
2
DASHED
3
__ __ __ __ __ __ __ __ __
72
65
73
2
40
25.72
49
12.86
74
0
49
-12.86
74
0
0
ENDTAB
0
TABLE
2
LAYER
5
274
100
AcDbSymbolTable
0
LAYER
5
10
100
AcDbSymbolTableRecord
100
AcDbLayerTableRecord
2
0
70
0
62
7
6
CONTINUOUS
290
1
370
-3
390
0
0
LAYER
5
6D
100
AcDbSymbolTableRecord
100
AcDbLayerTableRecord
2
81
70
0
62
-3
6
CONTINUOUS
290
1
370
-3
390
0
0
LAYER
5
6F
100
AcDbSymbolTableRecord
100
AcDbLayerTableRecord
2
80
70
0
62
-6
6
CONTINUOUS
290
1
370
-3
390
0
0
LAYER
5
71
100
AcDbSymbolTableRecord
100
AcDbLayerTableRecord
2
1
70
0
62
4
6
CONTINUOUS
290
1
370
-3
390
0
0
LAYER
5
120
100
AcDbSymbolTableRecord
100
AcDbLayerTableRecord
2
4
70
0
62
-2
6
CENTER
290
1
370
-3
390
0
0
LAYER
5
1C6
100
AcDbSymbolTableRecord
100
AcDbLayerTableRecord
2
2
70
0
62
7
6
CONTINUOUS
290
1
370
-3
390
0
0
LAYER
5
25e
100
AcDbSymbolTableRecord
100
AcDbLayerTableRecord
2
SK1
70
0
62
4
6
CONTINUOUS
290
1
370
-3
390
0
0
LAYER
5
25f
100
AcDbSymbolTableRecord
100
AcDbLayerTableRecord
2
SK4
70
0
62
2
6
CENTER
290
1
370
-3
390
0
0
LAYER
5
260
100
AcDbSymbolTableRecord
100
AcDbLayerTableRecord
2
SK6
70
0
62
5
6
CONTINUOUS
290
1
370
-3
390
0
0
LAYER
5
261
100
AcDbSymbolTableRecord
100
AcDbLayerTableRecord
2
SK2
70
0
62
7
6
CONTINUOUS
290
1
370
-3
390
0
0
ENDTAB
0
TABLE
2
STYLE
5
275
100
AcDbSymbolTable
0
STYLE
5
11
100
AcDbSymbolTableRecord
100
AcDbTextStyleTableRecord
2
Standard
3
txt
70
0
71
0
40
0
41
1
42
0
50
0
0
STYLE
5
1C1
100
AcDbSymbolTableRecord
100
AcDbTextStyleTableRecord
2
iso_b_vert
3
simplex.shx
70
0
71
0
40
0
41
1
42
0
50
0
0
STYLE
5
1C2
100
AcDbSymbolTableRecord
100
AcDbTextStyleTableRecord
2
DWGDirectTextStyle
3
simplex
70
0
71
0
40
0
41
1
42
0
50
0
0
ENDTAB
0
TABLE
2
DIMSTYLE
5
276
100
AcDbSymbolTable
100
AcDbDimStyleTable
0
DIMSTYLE
105
27
100
AcDbSymbolTableRecord
100
AcDbDimStyleTableRecord
2
Standard
70
0
3
<>
41
0.18
42
0.0625
44
0.18
140
0.18
147
0.09
73
0
74
0
77
1
271
2
275
0
278
52
280
0
340
11
0
ENDTAB
0
TABLE
2
VIEW
5
277
100
AcDbSymbolTable
0
ENDTAB
0
TABLE
2
UCS
5
278
100
AcDbSymbolTable
0
ENDTAB
0
TABLE
2
APPID
5
279
100
AcDbSymbolTable
0
APPID
5
12
100
AcDbSymbolTableRecord
100
AcDbRegAppTableRecord
2
ACAD
70
0
0
ENDTAB
0
TABLE
2
BLOCK_RECORD
5
27a
100
AcDbSymbolTable
0
BLOCK_RECORD
5
1F
100
AcDbSymbolTableRecord
100
AcDbBlockTableRecord
2
*Model_Space
340
0
70
0
0
BLOCK_RECORD
5
1B
100
AcDbSymbolTableRecord
100
AcDbBlockTableRecord
2
*Paper_Space
340
0
70
0
0
BLOCK_RECORD
5
23
100
AcDbSymbolTableRecord
100
AcDbBlockTableRecord
2
*Paper_Space0
340
0
70
0
0
BLOCK_RECORD
5
1C4
100
AcDbSymbolTableRecord
100
AcDbBlockTableRecord
2
DimnDraft3D1
340
0
70
0
0
BLOCK_RECORD
5
1D3
100
AcDbSymbolTableRecord
100
AcDbBlockTableRecord
2
_CLOSED
340
0
70
0
0
BLOCK_RECORD
5
1DA
100
AcDbSymbolTableRecord
100
AcDbBlockTableRecord
2
DimnDraft3D2
340
0
70
0
0
BLOCK_RECORD
5
1E9
100
AcDbSymbolTableRecord
100
AcDbBlockTableRecord
2
DimnDraft3D3
340
0
70
0
0
BLOCK_RECORD
5
1F7
100
AcDbSymbolTableRecord
100
AcDbBlockTableRecord
2
DimnDraft3D4
340
0
70
0
0
ENDTAB
0
ENDSEC
0
SECTION
2
BLOCKS
0
BLOCK
5
20
100
AcDbEntity
8
0
100
AcDbBlockBegin
2
*Model_Space
70
0
10
0
20
0
30
0
3
*Model_Space
0
ENDBLK
5
21
100
AcDbEntity
8
0
100
AcDbBlockEnd
0
BLOCK
5
1C
100
AcDbEntity
8
0
100
AcDbBlockBegin
2
*Paper_Space
70
0
10
0
20
0
30
0
3
*Paper_Space
0
ENDBLK
5
1D
100
AcDbEntity
8
0
100
AcDbBlockEnd
0
BLOCK
5
24
100
AcDbEntity
8
0
100
AcDbBlockBegin
2
*Paper_Space0
70
0
10
0
20
0
30
0
3
*Paper_Space0
0
ENDBLK
5
25
100
AcDbEntity
8
0
100
AcDbBlockEnd
0
BLOCK
5
1D0
100
AcDbEntity
8
0
100
AcDbBlockBegin
2
DimnDraft3D1
70
0
10
0
20
0
30
0
3
DimnDraft3D1
0
MTEXT
5
1C5
100
AcDbEntity
8
2
62
256
6
ByLayer
370
18
48
1
60
0
100
AcDbMText
10
2.769541
20
51.901275
30
0
210
0
220
0
230
1
1
\W0.5144;12
40
3.50012
41
0
44
1.084337
50
0
71
7
72
5
7
iso_b_vert
0
LINE
5
1C7
100
AcDbEntity
8
2
62
256
6
ByLayer
370
13
48
1
60
0
100
AcDbLine
10
11.974999
20
34.5625
30
0
11
11.974999
21
54.201245
31
0
39
0
210
0
220
0
230
1
0
LINE
5
1C8
100
AcDbEntity
8
2
62
256
6
ByLayer
370
13
48
1
60
0
100
AcDbLine
10
0
20
1.5875
30
0
11
0
21
54.201245
31
0
39
0
210
0
220
0
230
1
0
LINE
5
1C9
100
AcDbEntity
8
2
62
256
6
ByLayer
370
13
48
1
60
0
100
AcDbLine
10
11.974999
20
51.026245
30
0
11
0
21
51.026245
31
0
39
0
210
0
220
0
230
1
0
LINE
5
1CA
100
AcDbEntity
8
2
62
256
6
ByLayer
370
13
48
1
60
0
100
AcDbLine
10
11.974999
20
51.026245
30
0
11
8.800001
21
50.608248
31
0
39
0
210
0
220
0
230
1
0
LINE
5
1CB
100
AcDbEntity
8
2
62
256
6
ByLayer
370
13
48
1
60
0
100
AcDbLine
10
11.974999
20
51.026245
30
0
11
8.799998
21
51.444241
31
0
39
0
210
0
220
0
230
1
0
LINE
5
1CC
100
AcDbEntity
8
2
62
256
6
ByLayer
370
13
48
1
60
0
100
AcDbLine
10
8.800001
20
50.608248
30
0
11
8.799998
21
51.444241
31
0
39
0
210
0
220
0
230
1
0
LINE
5
1CD
100
AcDbEntity
8
2
62
256
6
ByLayer
370
13
48
1
60
0
100
AcDbLine
10
0
20
51.026245
30
0
11
3.174998
21
51.444241
31
0
39
0
210
0
220
0
230
1
0
LINE
5
1CE
100
AcDbEntity
8
2
62
256
6
ByLayer
370
13
48
1
60
0
100
AcDbLine
10
0
20
51.026245
30
0
11
3.175002
21
50.608248
31
0
39
0
210
0
220
0
230
1
0
LINE
5
1CF
100
AcDbEntity
8
2
62
256
6
ByLayer
370
13
48
1
60
0
100
AcDbLine
10
3.174998
20
51.444241
30
0
11
3.175002
21
50.608248
31
0
39
0
210
0
220
0
230
1
0
ENDBLK
5
1D1
100
AcDbEntity
8
0
100
AcDbBlockEnd
0
BLOCK
5
1D4
100
AcDbEntity
8
0
100
AcDbBlockBegin
2
_CLOSED
70
0
10
0
20
0
30
0
3
_CLOSED
0
LINE
5
1D6
100
AcDbEntity
8
0
62
256
6
ByLayer
370
-2
48
1
60
0
100
AcDbLine
10
-1
20
0.166667
30
0
11
0
21
0
31
0
39
0
210
0
220
0
230
1
0
LINE
5
1D7
100
AcDbEntity
8
0
62
256
6
ByLayer
370
-2
48
1
60
0
100
AcDbLine
10
0
20
0
30
0
11
-1
21
-0.166667
31
0
39
0
210
0
220
0
230
1
0
LINE
5
1D8
100
AcDbEntity
8
0
62
256
6
ByLayer
370
-2
48
1
60
0
100
AcDbLine
10
-1
20
0.166667
30
0
11
-1
21
-0.166667
31
0
39
0
210
0
220
0
230
1
0
LINE
5
1D9
100
AcDbEntity
8
0
62
256
6
ByLayer
370
-2
48
1
60
0
100
AcDbLine
10
0
20
0
30
0
11
-1
21
0
31
0
39
0
210
0
220
0
230
1
0
ENDBLK
5
1D5
100
AcDbEntity
8
0
100
AcDbBlockEnd
0
BLOCK
5
1E6
100
AcDbEntity
8
0
100
AcDbBlockBegin
2
DimnDraft3D2
70
0
10
0
20
0
30
0
3
DimnDraft3D2
0
MTEXT
5
1DB
100
AcDbEntity
8
SK2
62
256
6
ByLayer
370
18
48
1
60
0
100
AcDbMText
10
-7.376848
20
31.585402
30
0
210
0
220
0
230
1
1
\W0.6676;15.75
40
3.50012
41
0
44
1.084337
50
270
71
7
72
5
7
iso_b_vert
0
LINE
5
1DD
100
AcDbEntity
8
SK2
62
256
6
ByLayer
370
13
48
1
60
0
100
AcDbLine
10
13.412499
20
36
30
0
11
-11.426878
21
36
31
0
39
0
210
0
220
0
230
1
0
LINE
5
1DE
100
AcDbEntity
8
SK2
62
256
6
ByLayer
370
13
48
1
60
0
100
AcDbLine
10
4.6825
20
20.25
30
0
11
-11.426878
21
20.25
31
0
39
0
210
0
220
0
230
1
0
LINE
5
1DF
100
AcDbEntity
8
SK2
62
256
6
ByLayer
370
13
48
1
60
0
100
AcDbLine
10
-8.251878
20
36
30
0
11
-8.251878
21
20.25
31
0
39
0
210
0
220
0
230
1
0
LINE
5
1E0
100
AcDbEntity
8
SK2
62
256
6
ByLayer
370
13
48
1
60
0
100
AcDbLine
10
-8.251878
20
36
30
0
11
-7.833882
21
32.825002
31
0
39
0
210
0
220
0
230
1
0
LINE
5
1E1
100
AcDbEntity
8
SK2
62
256
6
ByLayer
370
13
48
1
60
0
100
AcDbLine
10
-8.251878
20
36
30
0
11
-8.669875
21
32.824998
31
0
39
0
210
0
220
0
230
1
0
LINE
5
1E2
100
AcDbEntity
8
SK2
62
256
6
ByLayer
370
13
48
1
60
0
100
AcDbLine
10
-7.833882
20
32.825002
30
0
11
-8.669875
21
32.824998
31
0
39
0
210
0
220
0
230
1
0
LINE
5
1E3
100
AcDbEntity
8
SK2
62
256
6
ByLayer
370
13
48
1
60
0
100
AcDbLine
10
-8.251878
20
20.25
30
0
11
-8.669875
21
23.424998
31
0
39
0
210
0
220
0
230
1
0
LINE
5
1E4
100
AcDbEntity
8
SK2
62
256
6
ByLayer
370
13
48
1
60
0
100
AcDbLine
10
-8.251878
20
20.25
30
0
11
-7.833882
21
23.425002
31
0
39
0
210
0
220
0
230
1
0
LINE
5
1E5
100
AcDbEntity
8
SK2
62
256
6
ByLayer
370
13
48
1
60
0
100
AcDbLine
10
-8.669875
20
23.424998
30
0
11
-7.833882
21
23.425002
31
0
39
0
210
0
220
0
230
1
0
ENDBLK
5
1E7
100
AcDbEntity
8
0
100
AcDbBlockEnd
0
BLOCK
5
1F4
100
AcDbEntity
8
0
100
AcDbBlockBegin
2
DimnDraft3D3
70
0
10
0
20
0
30
0
3
DimnDraft3D3
0
MTEXT
5
1EA
100
AcDbEntity
8
SK2
62
256
6
ByLayer
370
18
48
1
60
0
100
AcDbMText
10
-14.48414
20
-3.004932
30
0
210
0
220
0
230
1
1
\W0.7183;40
40
3.50012
41
0
44
1.084337
50
270
71
7
72
5
7
iso_b_vert
0
LINE
5
1EB
100
AcDbEntity
8
SK2
62
256
6
ByLayer
370
13
48
1
60
0
100
AcDbLine
10
-1.0875
20
19.987257
30
0
11
-18.53417
21
19.987257
31
0
39
0
210
0
220
0
230
1
0
LINE
5
1EC
100
AcDbEntity
8
SK2
62
256
6
ByLayer
370
13
48
1
60
0
100
AcDbLine
10
-1.0875
20
-20
30
0
11
-18.53417
21
-20
31
0
39
0
210
0
220
0
230
1
0
LINE
5
1ED
100
AcDbEntity
8
SK2
62
256
6
ByLayer
370
13
48
1
60
0
100
AcDbLine
10
-15.35917
20
19.987257
30
0
11
-15.35917
21
-20
31
0
39
0
210
0
220
0
230
1
0
LINE
5
1EE
100
AcDbEntity
8
SK2
62
256
6
ByLayer
370
13
48
1
60
0
100
AcDbLine
10
-15.35917
20
19.987257
30
0
11
-14.941174
21
16.812258
31
0
39
0
210
0
220
0
230
1
0
LINE
5
1EF
100
AcDbEntity
8
SK2
62
256
6
ByLayer
370
13
48
1
60
0
100
AcDbLine
10
-15.35917
20
19.987257
30
0
11
-15.777167
21
16.812255
31
0
39
0
210
0
220
0
230
1
0
LINE
5
1F0
100
AcDbEntity
8
SK2
62
256
6
ByLayer
370
13
48
1
60
0
100
AcDbLine
10
-14.941174
20
16.812258
30
0
11
-15.777167
21
16.812255
31
0
39
0
210
0
220
0
230
1
0
LINE
5
1F1
100
AcDbEntity
8
SK2
62
256
6
ByLayer
370
13
48
1
60
0
100
AcDbLine
10
-15.35917
20
-20
30
0
11
-15.777167
21
-16.825002
31
0
39
0
210
0
220
0
230
1
0
LINE
5
1F2
100
AcDbEntity
8
SK2
62
256
6
ByLayer
370
13
48
1
60
0
100
AcDbLine
10
-15.35917
20
-20
30
0
11
-14.941174
21
-16.824998
31
0
39
0
210
0
220
0
230
1
0
LINE
5
1F3
100
AcDbEntity
8
SK2
62
256
6
ByLayer
370
13
48
1
60
0
100
AcDbLine
10
-15.777167
20
-16.825002
30
0
11
-14.941174
21
-16.824998
31
0
39
0
210
0
220
0
230
1
0
ENDBLK
5
1F5
100
AcDbEntity
8
0
100
AcDbBlockEnd
0
BLOCK
5
202
100
AcDbEntity
8
0
100
AcDbBlockBegin
2
DimnDraft3D4
70
0
10
0
20
0
30
0
3
DimnDraft3D4
0
MTEXT
5
1F8
100
AcDbEntity
8
2
62
256
6
ByLayer
370
18
48
1
60
0
100
AcDbMText
10
34.153059
20
19.169777
30
0
210
0
220
0
230
1
1
\W0.6562;36
40
3.50012
41
0
44
1.084337
50
270
71
7
72
5
7
iso_b_vert
0
LINE
5
1F9
100
AcDbEntity
8
2
62
256
6
ByLayer
370
13
48
1
60
0
100
AcDbLine
10
1.5875
20
0
30
0
11
36.453029
21
0
31
0
39
0
210
0
220
0
230
1
0
LINE
5
1FA
100
AcDbEntity
8
2
62
256
6
ByLayer
370
13
48
1
60
0
100
AcDbLine
10
16.587499
20
36
30
0
11
36.453029
21
36
31
0
39
0
210
0
220
0
230
1
0
LINE
5
1FB
100
AcDbEntity
8
2
62
256
6
ByLayer
370
13
48
1
60
0
100
AcDbLine
10
33.278029
20
0
30
0
11
33.278029
21
36
31
0
39
0
210
0
220
0
230
1
0
LINE
5
1FC
100
AcDbEntity
8
2
62
256
6
ByLayer
370
13
48
1
60
0
100
AcDbLine
10
33.278029
20
0
30
0
11
32.860032
21
3.174998
31
0
39
0
210
0
220
0
230
1
0
LINE
5
1FD
100
AcDbEntity
8
2
62
256
6
ByLayer
370
13
48
1
60
0
100
AcDbLine
10
33.278029
20
0
30
0
11
33.696025
21
3.175002
31
0
39
0
210
0
220
0
230
1
0
LINE
5
1FE
100
AcDbEntity
8
2
62
256
6
ByLayer
370
13
48
1
60
0
100
AcDbLine
10
32.860032
20
3.174998
30
0
11
33.696025
21
3.175002
31
0
39
0
210
0
220
0
230
1
0
LINE
5
1FF
100
AcDbEntity
8
2
62
256
6
ByLayer
370
13
48
1
60
0
100
AcDbLine
10
33.278029
20
36
30
0
11
33.696025
21
32.825002
31
0
39
0
210
0
220
0
230
1
0
LINE
5
200
100
AcDbEntity
8
2
62
256
6
ByLayer
370
13
48
1
60
0
100
AcDbLine
10
33.278029
20
36
30
0
11
32.860032
21
32.824998
31
0
39
0
210
0
220
0
230
1
0
LINE
5
201
100
AcDbEntity
8
2
62
256
6
ByLayer
370
13
48
1
60
0
100
AcDbLine
10
33.696025
20
32.825002
30
0
11
32.860032
21
32.824998
31
0
39
0
210
0
220
0
230
1
0
ENDBLK
5
203
100
AcDbEntity
8
0
100
AcDbBlockEnd
0
ENDSEC
0
SECTION
2
ENTITIES
0
ARC
5
123
100
AcDbEntity
8
1
62
256
6
ByLayer
370
18
48
1
60
0
100
AcDbCircle
39
0
10
-0.240519
20
-5.25
30
0
40
0.204499999999985
210
0
220
0
230
-1
100
AcDbArc
50
120
51
240
0
ARC
5
124
100
AcDbEntity
8
1
62
256
6
ByLayer
370
18
48
1
60
0
100
AcDbCircle
39
0
10
0.174981
20
-4.60077
30
0
40
0.150000000000432
210
0
220
0
230
-1
100
AcDbArc
50
300
51
0
0
ARC
5
125
100
AcDbEntity
8
1
62
256
6
ByLayer
370
18
48
1
60
0
100
AcDbCircle
39
0
10
0.174981
20
-4.39923
30
0
40
0.149999999999975
210
0
220
0
230
-1
100
AcDbArc
50
0
51
60
0
ARC
5
126
100
AcDbEntity
8
1
62
256
6
ByLayer
370
18
48
1
60
0
100
AcDbCircle
39
0
10
-0.240519
20
-3.75
30
0
40
0.204500000000031
210
0
220
0
230
-1
100
AcDbArc
50
120
51
240
0
ARC
5
127
100
AcDbEntity
8
1
62
256
6
ByLayer
370
18
48
1
60
0
100
AcDbCircle
39
0
10
0.174981
20
-3.10077
30
0
40
0.149999999999716
210
0
220
0
230
-1
100
AcDbArc
50
300
51
0
0
ARC
5
128
100
AcDbEntity
8
1
62
256
6
ByLayer
370
18
48
1
60
0
100
AcDbCircle
39
0
10
0.174981
20
-2.89923
30
0
40
0.150000000000161
210
0
220
0
230
-1
100
AcDbArc
50
0
51
60
0
ARC
5
129
100
AcDbEntity
8
1
62
256
6
ByLayer
370
18
48
1
60
0
100
AcDbCircle
39
0
10
-0.240519
20
-2.25
30
0
40
0.204499999999992
210
0
220
0
230
-1
100
AcDbArc
50
120
51
240
0
ARC
5
12A
100
AcDbEntity
8
1
62
256
6
ByLayer
370
18
48
1
60
0
100
AcDbCircle
39
0
10
0.174981
20
-1.60077
30
0
40
0.150000000000721
210
0
220
0
230
-1
100
AcDbArc
50
300
51
0
0
ARC
5
12B
100
AcDbEntity
8
1
62
256
6
ByLayer
370
18
48
1
60
0
100
AcDbCircle
39
0
10
0.174981
20
-1.39923
30
0
40
0.150000000000171
210
0
220
0
230
-1
100
AcDbArc
50
0
51
60
0
ARC
5
12C
100
AcDbEntity
8
1
62
256
6
ByLayer
370
18
48
1
60
0
100
AcDbCircle
39
0
10
-0.240519
20
-0.75
30
0
40
0.20450000000002
210
0
220
0
230
-1
100
AcDbArc
50
120
51
240
0
ARC
5
12D
100
AcDbEntity
8
1
62
256
6
ByLayer
370
18
48
1
60
0
100
AcDbCircle
39
0
10
0.174981
20
-0.10077
30
0
40
0.149999999999972
210
0
220
0
230
-1
100
AcDbArc
50
300
51
0
0
ARC
5
12E
100
AcDbEntity
8
1
62
256
6
ByLayer
370
18
48
1
60
0
100
AcDbCircle
39
0
10
0.174981
20
0.10077
30
0
40
0.150000000000044
210
0
220
0
230
-1
100
AcDbArc
50
0
51
60
0
ARC
5
12F
100
AcDbEntity
8
1
62
256
6
ByLayer
370
18
48
1
60
0
100
AcDbCircle
39
0
10
-0.240519
20
0.75
30
0
40
0.2045
210
0
220
0
230
-1
100
AcDbArc
50
120
51
240
0
ARC
5
130
100
AcDbEntity
8
1
62
256
6
ByLayer
370
18
48
1
60
0
100
AcDbCircle
39
0
10
0.174981
20
1.39923
30
0
40
0.149999999999985
210
0
220
0
230
-1
100
AcDbArc
50
300
51
0
0
ARC
5
131
100
AcDbEntity
8
1
62
256
6
ByLayer
370
18
48
1
60
0
100
AcDbCircle
39
0
10
0.174981
20
1.60077
30
0
40
0.150000000000564
210
0
220
0
230
-1
100
AcDbArc
50
0
51
60
0
ARC
5
132
100
AcDbEntity
8
1
62
256
6
ByLayer
370
18
48
1
60
0
100
AcDbCircle
39
0
10
-0.240519
20
2.25
30
0
40
0.20450000000004
210
0
220
0
230
-1
100
AcDbArc
50
120
51
240
0
ARC
5
133
100
AcDbEntity
8
1
62
256
6
ByLayer
370
18
48
1
60
0
100
AcDbCircle
39
0
10
0.174981
20
2.89923
30
0
40
0.149999999999876
210
0
220
0
230
-1
100
AcDbArc
50
300
51
0
0
ARC
5
134
100
AcDbEntity
8
1
62
256
6
ByLayer
370
18
48
1
60
0
100
AcDbCircle
39
0
10
0.174981
20
3.10077
30
0
40
0.150000000000323
210
0
220
0
230
-1
100
AcDbArc
50
0
51
60
0
ARC
5
135
100
AcDbEntity
8
1
62
256
6
ByLayer
370
18
48
1
60
0
100
AcDbCircle
39
0
10
-0.240519
20
3.75
30
0
40
0.204499999999985
210
0
220
0
230
-1
100
AcDbArc
50
120
51
240
0
ARC
5
136
100
AcDbEntity
8
1
62
256
6
ByLayer
370
18
48
1
60
0
100
AcDbCircle
39
0
10
0.174981
20
4.39923
30
0
40
0.150000000000485
210
0
220
0
230
-1
100
AcDbArc
50
300
51
0
0
ARC
5
137
100
AcDbEntity
8
1
62
256
6
ByLayer
370
18
48
1
60
0
100
AcDbCircle
39
0
10
0.174981
20
4.60077
30
0
40
0.149999999999576
210
0
220
0
230
-1
100
AcDbArc
50
0
51
60
0
ARC
5
138
100
AcDbEntity
8
1
62
256
6
ByLayer
370
18
48
1
60
0
100
AcDbCircle
39
0
10
-0.240519
20
5.25
30
0
40
0.20449999999999
210
0
220
0
230
-1
100
AcDbArc
50
120
51
240
0
ARC
5
139
100
AcDbEntity
8
1
62
256
6
ByLayer
370
18
48
1
60
0
100
AcDbCircle
39
0
10
-0.240519
20
12.75
30
0
40
0.204499999999998
210
0
220
0
230
-1
100
AcDbArc
50
120
51
185.83275
0
ARC
5
13A
100
AcDbEntity
8
1
62
256
6
ByLayer
370
18
48
1
60
0
100
AcDbCircle
39
0
10
0.174981
20
13.60077
30
0
40
0.150000000000234
210
0
220
0
230
-1
100
AcDbArc
50
0
51
60
0
ARC
5
13B
100
AcDbEntity
8
1
62
256
6
ByLayer
370
18
48
1
60
0
100
AcDbCircle
39
0
10
-0.240519
20
14.25
30
0
40
0.204500000000012
210
0
220
0
230
-1
100
AcDbArc
50
120
51
240
0
ARC
5
13C
100
AcDbEntity
8
1
62
256
6
ByLayer
370
18
48
1
60
0
100
AcDbCircle
39
0
10
0.174981
20
14.89923
30
0
40
0.149999999999879
210
0
220
0
230
-1
100
AcDbArc
50
300
51
0
0
ARC
5
13D
100
AcDbEntity
8
1
62
256
6
ByLayer
370
18
48
1
60
0
100
AcDbCircle
39
0
10
0.174981
20
15.10077
30
0
40
0.150000000000161
210
0
220
0
230
-1
100
AcDbArc
50
0
51
60
0
ARC
5
13E
100
AcDbEntity
8
1
62
256
6
ByLayer
370
18
48
1
60
0
100
AcDbCircle
39
0
10
-0.240519
20
15.75
30
0
40
0.204499999999996
210
0
220
0
230
-1
100
AcDbArc
50
120
51
240
0
ARC
5
13F
100
AcDbEntity
8
1
62
256
6
ByLayer
370
18
48
1
60
0
100
AcDbCircle
39
0
10
0.174981
20
16.39923
30
0
40
0.150000000000012
210
0
220
0
230
-1
100
AcDbArc
50
300
51
0
0
ARC
5
140
100
AcDbEntity
8
1
62
256
6
ByLayer
370
18
48
1
60
0
100
AcDbCircle
39
0
10
0.174981
20
16.60077
30
0
40
0.150000000000009
210
0
220
0
230
-1
100
AcDbArc
50
0
51
60
0
ARC
5
141
100
AcDbEntity
8
1
62
256
6
ByLayer
370
18
48
1
60
0
100
AcDbCircle
39
0
10
-0.240519
20
17.25
30
0
40
0.204499999999995
210
0
220
0
230
-1
100
AcDbArc
50
120
51
240
0
ARC
5
142
100
AcDbEntity
8
1
62
256
6
ByLayer
370
18
48
1
60
0
100
AcDbCircle
39
0
10
0.174981
20
17.89923
30
0
40
0.149999999999901
210
0
220
0
230
-1
100
AcDbArc
50
300
51
0
0
ARC
5
143
100
AcDbEntity
8
1
62
256
6
ByLayer
370
18
48
1
60
0
100
AcDbCircle
39
0
10
0.174981
20
18.10077
30
0
40
0.14999999999988
210
0
220
0
230
-1
100
AcDbArc
50
0
51
60
0
ARC
5
144
100
AcDbEntity
8
1
62
256
6
ByLayer
370
18
48
1
60
0
100
AcDbCircle
39
0
10
-0.240519
20
18.75
30
0
40
0.204499999999989
210
0
220
0
230
-1
100
AcDbArc
50
120
51
240
0
ARC
5
145
100
AcDbEntity
8
1
62
256
6
ByLayer
370
18
48
1
60
0
100
AcDbCircle
39
0
10
-15
20
31.25
30
0
40
2.74999999999995
210
0
220
0
230
-1
100
AcDbArc
50
0
51
9.046483
0
ARC
5
146
100
AcDbEntity
8
1
62
256
6
ByLayer
370
18
48
1
60
0
100
AcDbCircle
39
0
10
-15
20
31.25
30
0
40
2.74999999999994
210
0
220
0
230
-1
100
AcDbArc
50
172.264841
51
180
0
ELLIPSE
5
147
100
AcDbEntity
8
1
62
256
6
ByLayer
370
18
48
1
60
0
100
AcDbEllipse
10
-142.1
20
-0.465675
30
0
11
160.000000026011
21
1.61702248839466E-13
31
0
210
0
220
0
230
-1
40
0.36397
41
-0.201442637894803
42
-0.0491875395025838
0
ELLIPSE
5
148
100
AcDbEntity
8
1
62
256
6
ByLayer
370
18
48
1
60
0
100
AcDbEllipse
10
-142.043083
20
24.004189
30
0
11
0.00309043791621777
21
439.517930628548
31
0
210
0
220
0
230
-1
40
0.363906
41
1.61569253928374
42
1.61997329259577
0
ELLIPSE
5
149
100
AcDbEntity
8
1
62
256
6
ByLayer
370
18
48
1
60
0
100
AcDbEllipse
10
-142.1
20
1.662681
30
0
11
160.000000022444
21
1.61702248835861E-13
31
0
210
0
220
0
230
-1
40
0.36397
41
-0.188104815909866
42
-0.0449075485034576
0
ELLIPSE
5
14A
100
AcDbEntity
8
1
62
256
6
ByLayer
370
18
48
1
60
0
100
AcDbEllipse
10
-142.100002
20
55.023854
30
0
11
-1.39913530724964E-14
21
228.503682490704
31
0
210
0
220
0
230
-1
40
0.700208
41
1.72589126611682
42
1.75329658710909
0
ELLIPSE
5
14B
100
AcDbEntity
8
1
62
256
6
ByLayer
370
18
48
1
60
0
100
AcDbEllipse
10
14.394828
20
25.894875
30
0
11
-1.33371845712304E-17
21
0.21781994727695
31
0
210
0
220
0
230
-1
40
0.688642
41
1.91986217719141
42
2.96705972838891
0
ELLIPSE
5
14C
100
AcDbEntity
8
1
62
256
6
ByLayer
370
18
48
1
60
0
100
AcDbEllipse
10
14.725
20
25.938439
30
0
11
-1.33371845712064E-17
21
0.217819947276558
31
0
210
0
220
0
230
-1
40
0.688642
41
-1.22173047639485
42
0
0
ELLIPSE
5
14D
100
AcDbEntity
8
1
62
256
6
ByLayer
370
18
48
1
60
0
100
AcDbEllipse
10
15.275
20
25.938439
30
0
11
-1.33371845712029E-17
21
0.217819947276501
31
0
210
0
220
0
230
-1
40
0.688642
41
0
42
1.22173047639292
0
ELLIPSE
5
14E
100
AcDbEntity
8
1
62
256
6
ByLayer
370
18
48
1
60
0
100
AcDbEllipse
10
15.605172
20
25.894875
30
0
11
-1.33371845712157E-17
21
0.217819947276709
31
0
210
0
220
0
230
-1
40
0.688642
41
-2.96705972839177
42
-1.9198621771958
0
POINT
5
6C
100
AcDbEntity
8
81
62
256
6
ByLayer
370
18
48
1
60
0
100
AcDbPoint
10
14.999999
20
36
30
0
39
0
210
0
220
0
230
1
50
360
0
POINT
5
6E
100
AcDbEntity
8
80
62
256
6
ByLayer
370
18
48
1
60
0
100
AcDbPoint
10
0
20
0
30
0
39
0
210
0
220
0
230
1
50
360
0
SPLINE
5
14F
100
AcDbEntity
8
1
62
256
6
ByLayer
370
18
48
1
60
0
100
AcDbSpline
70
4
71
3
72
8
73
4
40
0
40
0
40
0
40
0
40
1
40
1
40
1
40
1
41
1
10
0.342769052838293
20
9.92710219507396
30
6E-16
41
1
10
0.200228104510074
20
10.0093982499618
30
6E-16
41
1
10
0.0693189021618821
20
10.0849787131769
30
6E-16
41
1
10
-0.0469703231317169
20
10.152118328704
30
6E-16
0
SPLINE
5
150
100
AcDbEntity
8
1
62
256
6
ByLayer
370
18
48
1
60
0
100
AcDbSpline
70
4
71
3
72
8
73
4
40
0
40
0
40
0
40
0
40
1
40
1
40
1
40
1
41
1
10
0.126148905032608
20
5.55216789572145
30
3E-16
41
1
10
0.0001260536854772
20
5.62492722287075
30
3E-16
41
1
10
-0.12529012920433
20
5.69733628982291
30
3E-16
41
1
10
-0.249980947161589
20
5.76932656713603
30
3E-16
0
SPLINE
5
151
100
AcDbEntity
8
1
62
256
6
ByLayer
370
18
48
1
60
0
100
AcDbSpline
70
4
71
3
72
10
73
6
40
0
40
0
40
0
40
0
40
0.5
40
0.5
40
1
40
1
40
1
40
1
41
1
10
-0.324980947161663
20
5.89923037770376
30
3E-16
41
1
10
-0.324980947161663
20
5.86925980150139
30
3E-16
41
1
10
-0.315419205835042
20
5.84050503820618
30
3E-16
41
1
10
-0.287575493106857
20
5.79678996467396
30
3E-16
41
1
10
-0.269423016056436
20
5.78055145084602
30
3E-16
41
1
10
-0.249980947161618
20
5.76932656713601
30
3E-16
0
SPLINE
5
152
100
AcDbEntity
8
1
62
256
6
ByLayer
370
18
48
1
60
0
100
AcDbSpline
70
4
71
3
72
10
73
6
40
0
40
0
40
0
40
0
40
0.5
40
0.5
40
1
40
1
40
1
40
1
41
1
10
-0.249980947145929
20
6.230673432873
30
4E-16
41
1
10
-0.269234515401479
20
6.21955738006093
30
4E-16
41
1
10
-0.287688787578446
20
6.20322110820433
30
4E-16
41
1
10
-0.315929494072151
20
6.15850064844349
30
4E-16
41
1
10
-0.324980948253909
20
6.1296437035873
30
4E-16
41
1
10
-0.324980947161663
20
6.10076961662213
30
4E-16
0
SPLINE
5
153
100
AcDbEntity
8
1
62
256
6
ByLayer
370
18
48
1
60
0
100
AcDbSpline
70
4
71
3
72
8
73
4
40
0
40
0
40
0
40
0
40
1
40
1
40
1
40
1
41
1
10
-0.249980947146696
20
6.23067343287258
30
4E-16
41
1
10
-0.0532711848677252
20
6.34424386707659
30
4E-16
41
1
10
0.144388484035289
20
6.45836273012566
30
4E-16
41
1
10
0.342769052838406
20
6.57289780492613
30
4E-16
0
SPLINE
5
154
100
AcDbEntity
8
1
62
256
6
ByLayer
370
18
48
1
60
0
100
AcDbSpline
70
4
71
3
72
18
73
14
40
0
40
0
40
0
40
0
40
0.250000000000005
40
0.250000000000005
40
0.375
40
0.375
40
0.499999999999996
40
0.499999999999996
40
0.624999999999991
40
0.624999999999991
40
0.749999999999987
40
0.749999999999987
40
1
40
1
40
1
40
1
41
1
10
0.3427690528396
20
6.5728978049188
30
4E-16
41
1
10
0.37051617486398
20
6.58891761328834
30
4E-16
41
1
10
0.397304263168081
20
6.61292107367947
30
4E-16
41
1
10
0.427082213961171
20
6.6639626071601
30
4E-16
41
1
10
0.434847677150429
20
6.68304467639763
30
4E-16
41
1
10
0.444309985772264
20
6.72324396816327
30
4E-16
41
1
10
0.445902786308636
20
6.74421266615269
30
4E-16
41
1
10
0.443167734048558
20
6.78390402942156
30
4E-16
41
1
10
0.438899250785965
20
6.80281184633537
30
4E-16
41
1
10
0.426634180123557
20
6.83663113439576
30
4E-16
41
1
10
0.41850002887648
20
6.85202075388705
30
4E-16
41
1
10
0.390915617439674
20
6.89234455229763
30
4E-16
41
1
10
0.367775810429777
20
6.91266453684949
30
4E-16
41
1
10
0.342769052828373
20
6.92710219508027
30
4E-16
0
SPLINE
5
155
100
AcDbEntity
8
1
62
256
6
ByLayer
370
18
48
1
60
0
100
AcDbSpline
70
4
71
3
72
8
73
4
40
0
40
0
40
0
40
0
40
1
40
1
40
1
40
1
41
1
10
0.342769052828515
20
6.92710219507958
30
4E-16
41
1
10
0.141559860418653
20
7.04327037648085
30
4E-16
41
1
10
-0.0563906484611323
20
7.1575571560688
30
4E-16
41
1
10
-0.249980947161618
20
7.26932656713603
30
4E-16
0
SPLINE
5
156
100
AcDbEntity
8
1
62
256
6
ByLayer
370
18
48
1
60
0
100
AcDbSpline
70
4
71
3
72
12
73
8
40
0
40
0
40
0
40
0
40
0.25
40
0.25
40
0.5
40
0.5
40
1
40
1
40
1
40
1
41
1
10
-0.324980947162771
20
7.39923037770146
30
4E-16
41
1
10
-0.324980947162516
20
7.38337656881114
30
4E-16
41
1
10
-0.32245017502882
20
7.36837825087491
30
4E-16
41
1
10
-0.314111652323163
20
7.34142316553383
30
4E-16
41
1
10
-0.30833004644191
20
7.32935309266961
30
4E-16
41
1
10
-0.287609542802215
20
7.2968874814463
30
4E-16
41
1
10
-0.269931108945116
20
7.28084479841209
30
4E-16
41
1
10
-0.249980947161618
20
7.26932656713603
30
4E-16
0
SPLINE
5
157
100
AcDbEntity
8
1
62
256
6
ByLayer
370
18
48
1
60
0
100
AcDbSpline
70
4
71
3
72
12
73
8
40
0
40
0
40
0
40
0
40
0.500000000000011
40
0.500000000000011
40
0.750000000000006
40
0.750000000000006
40
1
40
1
40
1
40
1
41
1
10
-0.249980947161902
20
7.73067343286493
30
5E-16
41
1
10
-0.269428563484638
20
7.71944534634596
30
5E-16
41
1
10
-0.289027213350778
20
7.70196479549361
30
5E-16
41
1
10
-0.310299563005799
20
7.66691813462694
30
5E-16
41
1
10
-0.315984024048419
20
7.65375960229318
30
4E-16
41
1
10
-0.323277453009013
20
7.62718840396892
30
4E-16
41
1
10
-0.324980945990262
20
7.61363337892908
30
4E-16
41
1
10
-0.324980947161663
20
7.6007696359556
30
4E-16
0
SPLINE
5
158
100
AcDbEntity
8
1
62
256
6
ByLayer
370
18
48
1
60
0
100
AcDbSpline
70
4
71
3
72
8
73
4
40
0
40
0
40
0
40
0
40
1
40
1
40
1
40
1
41
1
10
-0.249980947161618
20
7.73067343286397
30
5E-16
41
1
10
-0.0525430838767136
20
7.84466423637974
30
5E-16
41
1
10
0.145053884700019
20
7.95874689937855
30
5E-16
41
1
10
0.342769052838378
20
8.07289780492613
30
5E-16
0
SPLINE
5
159
100
AcDbEntity
8
1
62
256
6
ByLayer
370
18
48
1
60
0
100
AcDbSpline
70
4
71
3
72
20
73
16
40
0
40
0
40
0
40
0
40
0.124999999999999
40
0.124999999999999
40
0.249999999999999
40
0.249999999999999
40
0.374999999999998
40
0.374999999999998
40
0.499999999999997
40
0.499999999999997
40
0.624999999999997
40
0.624999999999997
40
0.749999999999996
40
0.749999999999996
40
1
40
1
40
1
40
1
41
1
10
0.342769052838435
20
8.07289780491811
30
5E-16
41
1
10
0.358290615089004
20
8.08185918306131
30
5E-16
41
1
10
0.373838138625644
20
8.09359410898168
30
5E-16
41
1
10
0.402119346185202
20
8.12302706362925
30
5E-16
41
1
10
0.414979115462927
20
8.14096905861419
30
5E-16
41
1
10
0.434475039796155
20
8.18140601517865
30
5E-16
41
1
10
0.440646550975288
20
8.20301661880879
30
5E-16
41
1
10
0.446015077143556
20
8.24453761833377
30
5E-16
41
1
10
0.445322795783625
20
8.26441135715504
30
5E-16
41
1
10
0.439548636887935
20
8.30039330325044
30
5E-16
41
1
10
0.434430031151948
20
8.31690993994488
30
5E-16
41
1
10
0.421601145184098
20
8.34637262788601
30
5E-16
41
1
10
0.413798396995389
20
8.35961292548546
30
5E-16
41
1
10
0.387321015930667
20
8.39543497451481
30
5E-16
41
1
10
0.366346493830264
20
8.41348975317052
30
5E-16
41
1
10
0.342769052838463
20
8.42710219507396
30
5E-16
0
SPLINE
5
15A
100
AcDbEntity
8
1
62
256
6
ByLayer
370
18
48
1
60
0
100
AcDbSpline
70
4
71
3
72
8
73
4
40
0
40
0
40
0
40
0
40
1
40
1
40
1
40
1
41
1
10
0.342769052838406
20
8.42710219507387
30
5E-16
41
1
10
0.136066482638881
20
8.54644197962077
30
5E-16
41
1
10
-0.062536339194196
20
8.66110537226791
30
5E-16
41
1
10
-0.249980947161618
20
8.76932656713603
30
5E-16
0
SPLINE
5
15B
100
AcDbEntity
8
1
62
256
6
ByLayer
370
18
48
1
60
0
100
AcDbSpline
70
4
71
3
72
10
73
6
40
0
40
0
40
0
40
0
40
0.5
40
0.5
40
1
40
1
40
1
40
1
41
1
10
-0.324980947161663
20
8.89923037769213
30
5E-16
41
1
10
-0.324980947159133
20
8.86655939031905
30
5E-16
41
1
10
-0.315263434968273
20
8.84048127116361
30
5E-16
41
1
10
-0.28847932032798
20
8.79799425177492
30
5E-16
41
1
10
-0.270660197182252
20
8.78126573770183
30
5E-16
41
1
10
-0.249980947161731
20
8.76932656713586
30
5E-16
0
SPLINE
5
15C
100
AcDbEntity
8
1
62
256
6
ByLayer
370
18
48
1
60
0
100
AcDbSpline
70
4
71
3
72
14
73
10
40
0
40
0
40
0
40
0
40
0.25
40
0.25
40
0.5
40
0.5
40
0.75
40
0.75
40
1
40
1
40
1
40
1
41
1
10
-0.249980947160822
20
9.2306734328665
30
5E-16
41
1
10
-0.260241272716485
20
9.22474963114513
30
5E-16
41
1
10
-0.270767047507007
20
9.21706258250782
30
5E-16
41
1
10
-0.290770647258739
20
9.19716347565611
30
5E-16
41
1
10
-0.299853855844844
20
9.18510873124038
30
5E-16
41
1
10
-0.313590467168439
20
9.15987740168251
30
5E-16
41
1
10
-0.318240301743799
20
9.14694914492082
30
5E-16
41
1
10
-0.323902502009474
20
9.12263652621149
30
5E-16
41
1
10
-0.324980945071047
20
9.11142211520291
30
5E-16
41
1
10
-0.324980947161691
20
9.10076965173496
30
5E-16
0
SPLINE
5
15D
100
AcDbEntity
8
1
62
256
6
ByLayer
370
18
48
1
60
0
100
AcDbSpline
70
4
71
3
72
8
73
4
40
0
40
0
40
0
40
0
40
1
40
1
40
1
40
1
41
1
10
-0.249980947161106
20
9.23067343286425
30
5E-16
41
1
10
-0.0525671006112987
20
9.34465037031154
30
6E-16
41
1
10
0.145035952120651
20
9.45873654599902
30
6E-16
41
1
10
0.342769052838406
20
9.57289780492613
30
6E-16
0
SPLINE
5
15E
100
AcDbEntity
8
1
62
256
6
ByLayer
370
18
48
1
60
0
100
AcDbSpline
70
4
71
3
72
18
73
14
40
0
40
0
40
0
40
0
40
0.124999999999999
40
0.124999999999999
40
0.249999999999998
40
0.249999999999998
40
0.374999999999997
40
0.374999999999997
40
0.499999999999995
40
0.499999999999995
40
0.749999999999998
40
0.749999999999998
40
1
40
1
40
1
40
1
41
1
10
0.342769052837553
20
9.57289780492215
30
6E-16
41
1
10
0.361640838610839
20
9.58379343551815
30
6E-16
41
1
10
0.381439342173763
20
9.59945009000205
30
6E-16
41
1
10
0.415184179619246
20
9.64038295372811
30
6E-16
41
1
10
0.42815936956157
20
9.66519621148885
30
6E-16
41
1
10
0.442729156219059
20
9.71112011964263
30
6E-16
41
1
10
0.445110751439898
20
9.73214038252721
30
6E-16
41
1
10
0.444922258683846
20
9.76990121888295
30
6E-16
41
1
10
0.442343518703297
20
9.78660264648192
30
6E-16
41
1
10
0.43022490456508
20
9.8327188903755
30
6E-16
41
1
10
0.416675589726793
20
9.85712844651383
30
6E-16
41
1
10
0.383953813160275
20
9.89810165114676
30
6E-16
41
1
10
0.364468803313656
20
9.91457383829601
30
6E-16
41
1
10
0.342769052838548
20
9.92710219507416
30
6E-16
0
SPLINE
5
15F
100
AcDbEntity
8
1
62
256
6
ByLayer
370
18
48
1
60
0
100
AcDbSpline
70
4
71
3
72
22
73
18
40
0
40
0
40
0
40
0
40
0.250000000000005
40
0.250000000000005
40
0.312500000000004
40
0.312500000000004
40
0.375000000000004
40
0.375000000000004
40
0.500000000000002
40
0.500000000000002
40
0.625000000000001
40
0.625000000000001
40
0.687500000000001
40
0.687500000000001
40
0.750000000000001
40
0.750000000000001
40
1
40
1
40
1
40
1
41
1
10
14.6646320277006
20
11.1862065205925
30
1.6E-15
41
1
10
14.5722747398071
20
10.9235488884395
30
1.6E-15
41
1
10
14.4866228096402
20
10.6079658365403
30
1.5E-15
41
1
10
14.3890046105995
20
10.1483503132237
30
1.5E-15
41
1
10
14.3699610336927
20
10.0531181263575
30
1.5E-15
41
1
10
14.3328940894784
20
9.85584430611306
30
1.5E-15
41
1
10
14.3149421075735
20
9.7541374373709
30
1.5E-15
41
1
10
14.2634303287835
20
9.44316435644717
30
1.5E-15
41
1
10
14.2319699059785
20
9.2268372567512
30
1.4E-15
41
1
10
14.1749762067823
20
8.77637091201439
30
1.4E-15
41
1
10
14.1494416833681
20
8.54223365620388
30
1.4E-15
41
1
10
14.1159200143716
20
8.17713017833529
30
1.4E-15
41
1
10
14.1055378263642
20
8.0528928180353
30
1.4E-15
41
1
10
14.0867344644021
20
7.80368919993094
30
1.3E-15
41
1
10
14.078266214147
20
7.67825405107934
30
1.3E-15
41
1
10
14.0405452039299
20
7.04699338143411
30
1.3E-15
41
1
10
14.0249499599571
20
6.52912457134255
30
1.3E-15
41
1
10
14.0249499599571
20
5.99774441293897
30
1.2E-15
0
SPLINE
5
160
100
AcDbEntity
8
1
62
256
6
ByLayer
370
18
48
1
60
0
100
AcDbSpline
70
4
71
3
72
8
73
4
40
0
40
0
40
0
40
0
40
1
40
1
40
1
40
1
41
1
10
15.2428795794648
20
13.5529770982767
30
1.8E-15
41
1
10
15.1951296584422
20
13.1834698413754
30
1.7E-15
41
1
10
15.1401440388805
20
12.8505803151548
30
1.7E-15
41
1
10
15.0776629969024
20
12.552523314475
30
1.7E-15
0
SPLINE
5
161
100
AcDbEntity
8
1
62
256
6
ByLayer
370
18
48
1
60
0
100
AcDbSpline
70
4
71
3
72
8
73
4
40
0
40
0
40
0
40
0
40
1
40
1
40
1
40
1
41
1
10
17.75
20
19.85381347604
30
5E-16
41
1
10
17.7339821486572
20
19.7685876324482
30
5E-16
41
1
10
17.7164726638518
20
19.7259987976877
30
5E-16
41
1
10
17.6973697901801
20
19.7259987976877
30
-1.3E-15
0
SPLINE
5
162
100
AcDbEntity
8
1
62
256
6
ByLayer
370
18
48
1
60
0
100
AcDbSpline
70
4
71
3
72
10
73
6
40
0
40
0
40
0
40
0
40
0.5
40
0.5
40
1
40
1
40
1
40
1
41
1
10
14.6218185035542
20
-10.6135198841349
30
2E-16
41
1
10
14.9141881672159
20
-11.5188255311082
30
2E-16
41
1
10
15.1934736153048
20
-12.3619907675904
30
2E-16
41
1
10
15.720656863634
20
-13.9249568200607
30
1E-16
41
1
10
15.9685630155446
20
-14.6447592370014
30
1E-16
41
1
10
16.198127340823
20
-15.301872659177
30
1E-16
0
SPLINE
5
163
100
AcDbEntity
8
1
62
256
6
ByLayer
370
18
48
1
60
0
100
AcDbSpline
70
4
71
3
72
21
73
17
40
0
40
0
40
0
40
0
40
0.249999999999999
40
0.249999999999999
40
0.312499999999999
40
0.312499999999999
40
0.374999999999998
40
0.374999999999998
40
0.499999999999998
40
0.624999999999998
40
0.624999999999998
40
0.687499999999999
40
0.687499999999999
40
0.749999999999999
40
0.749999999999999
40
1
40
1
40
1
40
1
41
1
10
14.0249499599571
20
-5.55216789572151
30
5E-16
41
1
10
14.0249499599571
20
-6.06218779709835
30
5E-16
41
1
10
14.0393344911708
20
-6.56097282383752
30
5E-16
41
1
10
14.0743584446395
20
-7.17092173402298
30
4E-16
41
1
10
14.0822262367163
20
-7.29222469934467
30
4E-16
41
1
10
14.0997078666975
20
-7.53342848244395
30
4E-16
41
1
10
14.1093108902966
20
-7.65307611118791
30
4E-16
41
1
10
14.1402859374704
20
-8.00482509358139
30
4E-16
41
1
10
14.1875782448835
20
-8.45803717243155
30
4E-16
41
1
10
14.2461694645393
20
-8.88057632115863
30
3E-16
41
1
10
14.2942739410013
20
-9.18576437062023
30
3E-16
41
1
10
14.3110540560512
20
-9.28578393538487
30
3E-16
41
1
10
14.3455350542212
20
-9.47923116637446
30
3E-16
41
1
10
14.3632763142477
20
-9.57294893311112
30
3E-16
41
1
10
14.4543563594699
20
-10.0268754850744
30
3E-16
41
1
10
14.5347064371956
20
-10.3437824407688
30
3E-16
41
1
10
14.6218185035542
20
-10.613519884135
30
2E-16
0
SPLINE
5
164
100
AcDbEntity
8
1
62
256
6
ByLayer
370
18
48
1
60
0
100
AcDbSpline
70
2053
71
3
72
122
73
118
40
0
40
0
40
0
40
0
40
0.0312499999999993
40
0.0312499999999993
40
0.046874999999999
40
0.046874999999999
40
0.0624999999999987
40
0.0624999999999987
40
0.093749999999998
40
0.093749999999998
40
0.109374999999998
40
0.109374999999998
40
0.124999999999997
40
0.124999999999997
40
0.156249999999997
40
0.156249999999997
40
0.164062499999997
40
0.164062499999997
40
0.171874999999996
40
0.171874999999996
40
0.187499999999996
40
0.203124999999996
40
0.203124999999996
40
0.210937499999995
40
0.210937499999995
40
0.218749999999995
40
0.218749999999995
40
0.249999999999994
40
0.249999999999994
40
0.265624999999994
40
0.265624999999994
40
0.273437499999994
40
0.273437499999994
40
0.281249999999993
40
0.281249999999993
40
0.312499999999992
40
0.312499999999992
40
0.328124999999992
40
0.328124999999992
40
0.343749999999992
40
0.343749999999992
40
0.374999999999991
40
0.374999999999991
40
0.40624999999999
40
0.40624999999999
40
0.42187499999999
40
0.42187499999999
40
0.437499999999989
40
0.437499999999989
40
0.468749999999989
40
0.468749999999989
40
0.476562499999989
40
0.476562499999989
40
0.484374999999989
40
0.484374999999989
40
0.499999999999989
40
0.499999999999989
40
0.531249999999988
40
0.531249999999988
40
0.539062499999988
40
0.539062499999988
40
0.546874999999988
40
0.546874999999988
40
0.562499999999988
40
0.578124999999988
40
0.578124999999988
40
0.585937499999988
40
0.585937499999988
40
0.593749999999988
40
0.593749999999988
40
0.624999999999988
40
0.624999999999988
40
0.640624999999988
40
0.640624999999988
40
0.648437499999989
40
0.648437499999989
40
0.656249999999989
40
0.656249999999989
40
0.687499999999989
40
0.687499999999989
40
0.695312499999989
40
0.695312499999989
40
0.70312499999999
40
0.70312499999999
40
0.71874999999999
40
0.71874999999999
40
0.749999999999991
40
0.749999999999991
40
0.757812499999992
40
0.757812499999992
40
0.765624999999992
40
0.765624999999992
40
0.781249999999993
40
0.796874999999993
40
0.796874999999993
40
0.812499999999994
40
0.812499999999994
40
0.843749999999995
40
0.843749999999995
40
0.859374999999995
40
0.859374999999995
40
0.874999999999996
40
0.874999999999996
40
0.906249999999997
40
0.906249999999997
40
0.914062499999997
40
0.914062499999997
40
0.921874999999998
40
0.921874999999998
40
0.937499999999998
40
0.953124999999999
40
0.953124999999999
40
0.960937499999999
40
0.960937499999999
40
0.968749999999999
40
0.968749999999999
40
1
40
1
40
1
40
1
41
1
10
16.1846391559787
20
-14.117292087564
30
1E-16
41
1
10
16.2501135503801
20
-14.117292087564
30
1E-16
41
1
10
16.312651315968
20
-14.0739990623568
30
1E-16
41
1
10
16.4023754998139
20
-13.9464781433606
30
2E-16
41
1
10
16.4316010401348
20
-13.8934650024055
30
2E-16
41
1
10
16.4887183206181
20
-13.7659078805667
30
2E-16
41
1
10
16.5166997155359
20
-13.6909595635336
30
2E-16
41
1
10
16.5969741713526
20
-13.4381306525455
30
2E-16
41
1
10
16.6461857374339
20
-13.2316236460994
30
2E-16
41
1
10
16.7142563402239
20
-12.8652844646802
30
2E-16
41
1
10
16.7360233581687
20
-12.7334017286791
30
2E-16
41
1
10
16.7775174193702
20
-12.4510243523968
30
3E-16
41
1
10
16.7969813601246
20
-12.3023900219837
30
3E-16
41
1
10
16.8518463978785
20
-11.8348496605951
30
3E-16
41
1
10
16.8837525093239
20
-11.494510970602
30
3E-16
41
1
10
16.918333192884
20
-11.0324388646317
30
4E-16
41
1
10
16.9249978883619
20
-10.9379251968546
30
4E-16
41
1
10
16.9377120529423
20
-10.7463770069302
30
4E-16
41
1
10
16.9437507552803
20
-10.6495413022564
30
4E-16
41
1
10
16.960952155511
20
-10.355910343939
30
4E-16
41
1
10
16.981453629308
20
-9.95608705195821
30
4E-16
41
1
10
16.9973758218844
20
-9.53990426291003
30
5E-16
41
1
10
17.0076432264936
20
-9.22155438817677
30
5E-16
41
1
10
17.0107860224646
20
-9.11440045465872
30
5E-16
41
1
10
17.0165114216139
20
-8.89798158748013
30
5E-16
41
1
10
17.0190996093122
20
-8.78841107229181
30
5E-16
41
1
10
17.0305227117045
20
-8.24037338012099
30
5E-16
41
1
10
17.034936536815
20
-7.79983202571592
30
6E-16
41
1
10
17.0348333174752
20
-7.13594567685692
30
6E-16
41
1
10
17.0336665920303
20
-6.91413407902886
30
6E-16
41
1
10
17.0301568099002
20
-6.58061941365776
30
6E-16
41
1
10
17.0286889191947
20
-6.46917608511606
30
6E-16
41
1
10
17.0251911980835
20
-6.24849279762904
30
7E-16
41
1
10
17.0231590973777
20
-6.13895490854827
30
7E-16
41
1
10
17.0115920733409
20
-5.59521511332775
30
7E-16
41
1
10
16.9978931417551
20
-5.17274816440221
30
7E-16
41
1
10
16.9701895280949
20
-4.55791319437796
30
8E-16
41
1
10
16.9596813765779
20
-4.3550758120727
30
8E-16
41
1
10
16.9364956482161
20
-3.96334767314355
30
8E-16
41
1
10
16.9238153307058
20
-3.77401921324139
30
8E-16
41
1
10
16.8824131261508
20
-3.22515670947342
30
8E-16
41
1
10
16.8503702513542
20
-2.88455920682449
30
9E-16
41
1
10
16.7759713749472
20
-2.2559016973064
30
9E-16
41
1
10
16.7348167515344
20
-1.97813231355491
30
9E-16
41
1
10
16.6666979516688
20
-1.61432803360211
30
9E-16
41
1
10
16.6429179267762
20
-1.50190540723287
30
9E-16
41
1
10
16.5930467520041
20
-1.29510694497108
30
9E-16
41
1
10
16.5668737353037
20
-1.200618144385
30
9E-16
41
1
10
16.4863911207591
20
-0.950441331478231
30
1E-15
41
1
10
16.4296341936255
20
-0.825370277953112
30
1E-15
41
1
10
16.3544937600284
20
-0.720469626021583
30
1E-15
41
1
10
16.3392550305671
20
-0.702084325246631
30
1E-15
41
1
10
16.3083443670171
20
-0.670578999153747
30
1E-15
41
1
10
16.2926296144966
20
-0.657434468475486
30
1E-15
41
1
10
16.2451656765392
20
-0.626281171566006
30
1E-15
41
1
10
16.2131579535528
20
-0.616496866474762
30
1E-15
41
1
10
16.1160545607723
20
-0.619033432276353
30
9E-16
41
1
10
16.0498758273292
20
-0.662945626459077
30
9E-16
41
1
10
15.9654376228165
20
-0.771708464311871
30
9E-16
41
1
10
15.9484178275082
20
-0.796258645642865
30
9E-16
41
1
10
15.9145013048516
20
-0.850437206126742
30
9E-16
41
1
10
15.8975995489282
20
-0.880053935076916
30
9E-16
41
1
10
15.8470734165297
20
-0.97634793777911
30
9E-16
41
1
10
15.7801809022699
20
-1.12455502151855
30
9E-16
41
1
10
15.7143906118196
20
-1.31180449751753
30
9E-16
41
1
10
15.6655434474765
20
-1.4670859210384
30
9E-16
41
1
10
15.6493439510078
20
-1.52132482634599
30
9E-16
41
1
10
15.6171282403087
20
-1.63484886535733
30
9E-16
41
1
10
15.6010686138331
20
-1.69430927785177
30
9E-16
41
1
10
15.5219824180136
20
-2.00175322824563
30
8E-16
41
1
10
15.4623971732752
20
-2.28011581207517
30
8E-16
41
1
10
15.3791907809078
20
-2.74510790116938
30
8E-16
41
1
10
15.3524909287068
20
-2.90807026394847
30
8E-16
41
1
10
15.3141473263703
20
-3.16484481685012
30
7E-16
41
1
10
15.3016177093581
20
-3.25275100751918
30
7E-16
41
1
10
15.2773826607345
20
-3.43112360900219
30
7E-16
41
1
10
15.2656662601002
20
-3.52163682264387
30
7E-16
41
1
10
15.2090973365806
20
-3.98072887253735
30
7E-16
41
1
10
15.1702333363499
20
-4.36869847448361
30
7E-16
41
1
10
15.1302669268961
20
-4.87971179763107
30
6E-16
41
1
10
15.1227075615786
20
-4.98322876825543
30
6E-16
41
1
10
15.1084860699571
20
-5.1929445456943
30
6E-16
41
1
10
15.1018098612226
20
-5.29942044468032
30
6E-16
41
1
10
15.0833633862488
20
-5.61961975483865
30
6E-16
41
1
10
15.0731142513237
20
-5.83479845712182
30
6E-16
41
1
10
15.0484486789118
20
-6.4853376722439
30
5E-16
41
1
10
15.0400670996532
20
-6.92565283555237
30
5E-16
41
1
10
15.0401548381065
20
-7.48461244271778
30
5E-16
41
1
10
15.0407087284595
20
-7.59689230120924
30
5E-16
41
1
10
15.042868646516
20
-7.81974413061991
30
4E-16
41
1
10
15.044473517843
20
-7.93063903854687
30
4E-16
41
1
10
15.0508318176207
20
-8.261758202435
30
4E-16
41
1
10
15.063420324445
20
-8.69908299651593
30
4E-16
41
1
10
15.084045337136
20
-9.12817904965422
30
4E-16
41
1
10
15.1086877821248
20
-9.55309412914914
30
3E-16
41
1
10
15.1231107040036
20
-9.76445216991962
30
3E-16
41
1
10
15.1714718287561
20
-10.3794608082834
30
3E-16
41
1
10
15.2105546015113
20
-10.7672887363138
30
3E-16
41
1
10
15.2785323756873
20
-11.3165192899726
30
2E-16
41
1
10
15.302828577307
20
-11.4945860744497
30
2E-16
41
1
10
15.3542359293453
20
-11.8375133665219
30
2E-16
41
1
10
15.3810575302527
20
-12.0005365127275
30
2E-16
41
1
10
15.4645544962725
20
-12.4651992870348
30
2E-16
41
1
10
15.5242343729026
20
-12.742661197342
30
2E-16
41
1
10
15.6032647849534
20
-13.0485195338857
30
2E-16
41
1
10
15.6193387838385
20
-13.1077725065138
30
2E-16
41
1
10
15.6516429064565
20
-13.2210758829522
30
1E-16
41
1
10
15.6678811425163
20
-13.2751768002736
30
1E-16
41
1
10
15.7168279676036
20
-13.4299753344421
30
1E-16
41
1
10
15.7827071587752
20
-13.6163976429998
30
1E-16
41
1
10
15.8495979930223
20
-13.7635421251409
30
1E-16
41
1
10
15.9000879357746
20
-13.8589968142573
30
1E-16
41
1
10
15.9169717807901
20
-13.8883267430108
30
1E-16
41
1
10
15.9508404924099
20
-13.9419257552099
30
1E-16
41
1
10
15.9678590468609
20
-13.9662307127233
30
1E-16
41
1
10
16.0525112355639
20
-14.073996445942
30
1E-16
41
1
10
16.1191647615772
20
-14.117292087564
30
1E-16
41
1
10
16.1846391559786
20
-14.117292087564
30
1E-16
0
SPLINE
5
165
100
AcDbEntity
8
1
62
256
6
ByLayer
370
18
48
1
60
0
100
AcDbSpline
70
4
71
3
72
8
73
4
40
0
40
0
40
0
40
0
40
1
40
1
40
1
40
1
41
1
10
0.342769052838293
20
-9.92710219507393
30
-6E-16
41
1
10
0.200228104510074
20
-10.0093982499618
30
-6E-16
41
1
10
0.0693189021619389
20
-10.0849787131769
30
-6E-16
41
1
10
-0.0469703231316601
20
-10.152118328704
30
-6E-16
0
SPLINE
5
166
100
AcDbEntity
8
1
62
256
6
ByLayer
370
18
48
1
60
0
100
AcDbSpline
70
4
71
3
72
18
73
14
40
0
40
0
40
0
40
0
40
0.124999999999994
40
0.124999999999994
40
0.249999999999987
40
0.249999999999987
40
0.374999999999981
40
0.374999999999981
40
0.499999999999974
40
0.499999999999974
40
0.749999999999987
40
0.749999999999987
40
1
40
1
40
1
40
1
41
1
10
0.342769052837298
20
-9.57289780492204
30
-6E-16
41
1
10
0.361640838610583
20
-9.58379343551798
30
-6E-16
41
1
10
0.381439342173508
20
-9.59945009000185
30
-6E-16
41
1
10
0.415184179619075
20
-9.64038295372788
30
-6E-16
41
1
10
0.428159369561456
20
-9.66519621148862
30
-6E-16
41
1
10
0.442729156219002
20
-9.71112011964243
30
-6E-16
41
1
10
0.44511075143987
20
-9.73214038252704
30
-6E-16
41
1
10
0.444922258683846
20
-9.76990121888281
30
-6E-16
41
1
10
0.442343518703297
20
-9.78660264648181
30
-6E-16
41
1
10
0.43022490456508
20
-9.83271889037542
30
-6E-16
41
1
10
0.416675589726822
20
-9.85712844651377
30
-6E-16
41
1
10
0.383953813160275
20
-9.8981016511467
30
-6E-16
41
1
10
0.364468803313656
20
-9.91457383829598
30
-6E-16
41
1
10
0.342769052838548
20
-9.92710219507416
30
-6E-16
0
SPLINE
5
167
100
AcDbEntity
8
1
62
256
6
ByLayer
370
18
48
1
60
0
100
AcDbSpline
70
4
71
3
72
8
73
4
40
0
40
0
40
0
40
0
40
1
40
1
40
1
40
1
41
1
10
-0.249980947161618
20
-9.23067343286397
30
-6E-16
41
1
10
-0.0525671006117534
20
-9.34465037031131
30
-6E-16
41
1
10
0.14503595212031
20
-9.45873654599885
30
-6E-16
41
1
10
0.34276905283815
20
-9.57289780492599
30
-6E-16
0
SPLINE
5
168
100
AcDbEntity
8
1
62
256
6
ByLayer
370
18
48
1
60
0
100
AcDbSpline
70
4
71
3
72
14
73
10
40
0
40
0
40
0
40
0
40
0.25
40
0.25
40
0.5
40
0.5
40
0.75
40
0.75
40
1
40
1
40
1
40
1
41
1
10
-0.324980947166523
20
-9.1007696222826
30
-6E-16
41
1
10
-0.324980947167489
20
-9.11136059578072
30
-6E-16
41
1
10
-0.323881994656631
20
-9.1227497724874
30
-6E-16
41
1
10
-0.318229425941411
20
-9.14697051270775
30
-6E-16
41
1
10
-0.313571777695841
20
-9.15991639605673
30
-6E-16
41
1
10
-0.299850214227632
20
-9.18511074688462
30
-6E-16
41
1
10
-0.290682009752601
20
-9.19725898448246
30
-6E-16
41
1
10
-0.270776707340446
20
-9.21704560963474
30
-6E-16
41
1
10
-0.260190127137889
20
-9.2247791600609
30
-6E-16
41
1
10
-0.249980947161561
20
-9.23067343286823
30
-6E-16
0
SPLINE
5
169
100
AcDbEntity
8
1
62
256
6
ByLayer
370
18
48
1
60
0
100
AcDbSpline
70
4
71
3
72
12
73
8
40
0
40
0
40
0
40
0
40
0.5
40
0.5
40
0.75
40
0.75
40
1
40
1
40
1
40
1
41
1
10
-0.249980947162044
20
-8.76932656713541
30
-6E-16
41
1
10
-0.270615280502199
20
-8.7812398050439
30
-6E-16
41
1
10
-0.288241975822444
20
-8.79767842436172
30
-6E-16
41
1
10
-0.308533155975596
20
-8.82977519444759
30
-6E-16
41
1
10
-0.314157514601163
20
-8.84158242706908
30
-6E-16
41
1
10
-0.322383592609185
20
-8.86815203714812
30
-6E-16
41
1
10
-0.324980951330019
20
-8.8828817534698
30
-6E-16
41
1
10
-0.32498094717954
20
-8.89923041578467
30
-6E-16
0
SPLINE
5
16A
100
AcDbEntity
8
1
62
256
6
ByLayer
370
18
48
1
60
0
100
AcDbSpline
70
4
71
3
72
8
73
4
40
0
40
0
40
0
40
0
40
1
40
1
40
1
40
1
41
1
10
0.342769052838378
20
-8.42710219507387
30
-5E-16
41
1
10
0.136066482638853
20
-8.54644197962077
30
-5E-16
41
1
10
-0.0625363391942244
20
-8.66110537226791
30
-5E-16
41
1
10
-0.249980947161646
20
-8.76932656713603
30
-6E-16
0
SPLINE
5
16B
100
AcDbEntity
8
1
62
256
6
ByLayer
370
18
48
1
60
0
100
AcDbSpline
70
4
71
3
72
20
73
16
40
0
40
0
40
0
40
0
40
0.124999999999999
40
0.124999999999999
40
0.249999999999999
40
0.249999999999999
40
0.374999999999998
40
0.374999999999998
40
0.499999999999997
40
0.499999999999997
40
0.624999999999997
40
0.624999999999997
40
0.749999999999996
40
0.749999999999996
40
1
40
1
40
1
40
1
41
1
10
0.342769052838435
20
-8.07289780491811
30
-5E-16
41
1
10
0.358290615088975
20
-8.08185918306131
30
-5E-16
41
1
10
0.373838138625644
20
-8.09359410898168
30
-5E-16
41
1
10
0.402119346185202
20
-8.12302706362925
30
-5E-16
41
1
10
0.414979115462899
20
-8.14096905861419
30
-5E-16
41
1
10
0.434475039796126
20
-8.18140601517868
30
-5E-16
41
1
10
0.440646550975288
20
-8.20301661880882
30
-5E-16
41
1
10
0.446015077143528
20
-8.24453761833379
30
-5E-16
41
1
10
0.445322795783596
20
-8.26441135715504
30
-5E-16
41
1
10
0.439548636887906
20
-8.30039330325047
30
-5E-16
41
1
10
0.434430031151948
20
-8.31690993994488
30
-5E-16
41
1
10
0.42160114518407
20
-8.34637262788604
30
-5E-16
41
1
10
0.413798396995361
20
-8.35961292548549
30
-5E-16
41
1
10
0.387321015930638
20
-8.39543497451481
30
-5E-16
41
1
10
0.366346493830235
20
-8.41348975317055
30
-5E-16
41
1
10
0.342769052838435
20
-8.42710219507396
30
-5E-16
0
SPLINE
5
16C
100
AcDbEntity
8
1
62
256
6
ByLayer
370
18
48
1
60
0
100
AcDbSpline
70
4
71
3
72
8
73
4
40
0
40
0
40
0
40
0
40
1
40
1
40
1
40
1
41
1
10
-0.249980947161646
20
-7.73067343286397
30
-5E-16
41
1
10
-0.0525430838767136
20
-7.84466423637974
30
-5E-16
41
1
10
0.145053884699991
20
-7.95874689937855
30
-5E-16
41
1
10
0.342769052838378
20
-8.07289780492613
30
-5E-16
0
SPLINE
5
16D
100
AcDbEntity
8
1
62
256
6
ByLayer
370
18
48
1
60
0
100
AcDbSpline
70
4
71
3
72
12
73
8
40
0
40
0
40
0
40
0
40
0.25
40
0.25
40
0.5
40
0.5
40
1
40
1
40
1
40
1
41
1
10
-0.324980947161748
20
-7.60076962228359
30
-5E-16
41
1
10
-0.324980947162828
20
-7.61355284176679
30
-5E-16
41
1
10
-0.323278187877406
20
-7.62715829572269
30
-5E-16
41
1
10
-0.316025131018847
20
-7.65363711598729
30
-5E-16
41
1
10
-0.310349374009093
20
-7.66682045254663
30
-5E-16
41
1
10
-0.289065322062783
20
-7.70193309425636
30
-5E-16
41
1
10
-0.269481467385646
20
-7.71941480226343
30
-5E-16
41
1
10
-0.249980947161703
20
-7.73067343286408
30
-5E-16
0
SPLINE
5
16E
100
AcDbEntity
8
1
62
256
6
ByLayer
370
18
48
1
60
0
100
AcDbSpline
70
4
71
3
72
10
73
6
40
0
40
0
40
0
40
0
40
0.5
40
0.5
40
1
40
1
40
1
40
1
41
1
10
-0.249980947160822
20
-7.26932656713495
30
-5E-16
41
1
10
-0.269751198502661
20
-7.28074092706888
30
-5E-16
41
1
10
-0.287597432473291
20
-7.29691751772722
30
-5E-16
41
1
10
-0.315082489289722
20
-7.33988434183055
30
-5E-16
41
1
10
-0.324980951001948
20
-7.36724914248339
30
-5E-16
41
1
10
-0.324980947161691
20
-7.39923039571551
30
-5E-16
0
SPLINE
5
16F
100
AcDbEntity
8
1
62
256
6
ByLayer
370
18
48
1
60
0
100
AcDbSpline
70
4
71
3
72
8
73
4
40
0
40
0
40
0
40
0
40
1
40
1
40
1
40
1
41
1
10
0.342769052838406
20
-6.92710219507387
30
-4E-16
41
1
10
0.141559860425445
20
-7.04327037647693
30
-4E-16
41
1
10
-0.0563906484573522
20
-7.15755715606664
30
-4E-16
41
1
10
-0.249980947160708
20
-7.26932656713552
30
-5E-16
0
SPLINE
5
170
100
AcDbEntity
8
1
62
256
6
ByLayer
370
18
48
1
60
0
100
AcDbSpline
70
4
71
3
72
18
73
14
40
0
40
0
40
0
40
0
40
0.24999999999999
40
0.24999999999999
40
0.374999999999987
40
0.374999999999987
40
0.499999999999983
40
0.499999999999983
40
0.62499999999998
40
0.62499999999998
40
0.749999999999977
40
0.749999999999977
40
1
40
1
40
1
40
1
41
1
10
0.3427690528396
20
-6.5728978049188
30
-4E-16
41
1
10
0.370516174863042
20
-6.5889176132878
30
-4E-16
41
1
10
0.397304263166234
20
-6.61292107367791
30
-4E-16
41
1
10
0.427082213959039
20
-6.6639626071557
30
-4E-16
41
1
10
0.434847677148497
20
-6.68304467639223
30
-4E-16
41
1
10
0.44430998577127
20
-6.72324396815637
30
-4E-16
41
1
10
0.445902786308352
20
-6.74421266614499
30
-4E-16
41
1
10
0.443167734049922
20
-6.78390402941309
30
-4E-16
41
1
10
0.438899250788211
20
-6.80281184632679
30
-4E-16
41
1
10
0.426634180127536
20
-6.83663113438712
30
-4E-16
41
1
10
0.418500028881311
20
-6.85202075387858
30
-4E-16
41
1
10
0.390915617446865
20
-6.89234455228993
30
-4E-16
41
1
10
0.367775810438474
20
-6.91266453684253
30
-4E-16
41
1
10
0.342769052838577
20
-6.92710219507438
30
-4E-16
0
SPLINE
5
171
100
AcDbEntity
8
1
62
256
6
ByLayer
370
18
48
1
60
0
100
AcDbSpline
70
4
71
3
72
8
73
4
40
0
40
0
40
0
40
0
40
1
40
1
40
1
40
1
41
1
10
-0.249980947161618
20
-6.23067343286397
30
-4E-16
41
1
10
-0.0532711848777296
20
-6.34424386707082
30
-4E-16
41
1
10
0.144388484030259
20
-6.45836273012276
30
-4E-16
41
1
10
0.342769052838378
20
-6.57289780492613
30
-4E-16
0
SPLINE
5
172
100
AcDbEntity
8
1
62
256
6
ByLayer
370
18
48
1
60
0
100
AcDbSpline
70
4
71
3
72
10
73
6
40
0
40
0
40
0
40
0
40
0.5
40
0.5
40
1
40
1
40
1
40
1
41
1
10
-0.324980947161691
20
-6.10076962229394
30
-4E-16
41
1
10
-0.324980947162146
20
-6.1293181614333
30
-4E-16
41
1
10
-0.315985815631052
20
-6.1583528548168
30
-4E-16
41
1
10
-0.28782135250151
20
-6.20306940001996
30
-4E-16
41
1
10
-0.269396502462769
20
-6.21946385678442
30
-4E-16
41
1
10
-0.249980947161618
20
-6.23067343286397
30
-4E-16
0
SPLINE
5
173
100
AcDbEntity
8
1
62
256
6
ByLayer
370
18
48
1
60
0
100
AcDbSpline
70
4
71
3
72
10
73
6
40
0
40
0
40
0
40
0
40
0.5
40
0.5
40
1
40
1
40
1
40
1
41
1
10
-0.249980947153773
20
-5.76932656713146
30
-4E-16
41
1
10
-0.269366121239102
20
-5.78051860260632
30
-4E-16
41
1
10
-0.287539160403298
20
-5.79673177250353
30
-4E-16
41
1
10
-0.315459367716613
20
-5.84056924240508
30
-4E-16
41
1
10
-0.324980949734424
20
-5.86903298127552
30
-4E-16
41
1
10
-0.324980947161691
20
-5.89923039048333
30
-4E-16
0
SPLINE
5
174
100
AcDbEntity
8
1
62
256
6
ByLayer
370
18
48
1
60
0
100
AcDbSpline
70
4
71
3
72
8
73
4
40
0
40
0
40
0
40
0
40
1
40
1
40
1
40
1
41
1
10
0.126148905032579
20
-5.55216789572145
30
-3E-16
41
1
10
0.0001260536879784
20
-5.6249272228693
30
-3E-16
41
1
10
-0.125290129199328
20
-5.69733628982002
30
-4E-16
41
1
10
-0.249980947154114
20
-5.76932656713169
30
-4E-16
0
SPLINE
5
175
100
AcDbEntity
8
1
62
256
6
ByLayer
370
18
48
1
60
0
100
AcDbSpline
70
4
71
3
72
8
73
4
40
0
40
0
40
0
40
0
40
1
40
1
40
1
40
1
41
1
10
-0.307585830222194
20
10.6708834225703
30
6E-16
41
1
10
-0.0391158624052252
20
10.7888274546264
30
7E-16
41
1
10
0.230091512887185
20
10.9065741013451
30
7E-16
41
1
10
0.5
20
11.0241330781555
30
7E-16
0
SPLINE
5
176
100
AcDbEntity
8
1
62
256
6
ByLayer
370
18
48
1
60
0
100
AcDbSpline
70
4
71
3
72
12
73
8
40
0
40
0
40
0
40
0
40
0.25
40
0.25
40
0.5
40
0.5
40
1
40
1
40
1
40
1
41
1
10
-0.324980947161663
20
10.3992304247253
30
6E-16
41
1
10
-0.324980952459384
20
10.3823305354232
30
6E-16
41
1
10
-0.322295376061874
20
10.3677586564465
30
6E-16
41
1
10
-0.314036931423686
20
10.3413041881
30
6E-16
41
1
10
-0.308453879337804
20
10.3296663321161
30
6E-16
41
1
10
-0.288570845374721
20
10.2981657683055
30
6E-16
41
1
10
-0.271239852493807
20
10.2816004018522
30
6E-16
41
1
10
-0.249980947161674
20
10.2693265671361
30
6E-16
0
SPLINE
5
177
100
AcDbEntity
8
1
62
256
6
ByLayer
370
18
48
1
60
0
100
AcDbSpline
70
4
71
3
72
10
73
6
40
0
40
0
40
0
40
0
40
0.5
40
0.5
40
1
40
1
40
1
40
1
41
1
10
-0.307585830222194
20
10.6708834225703
30
6E-16
41
1
10
-0.31516968893618
20
10.6565402163258
30
6E-16
41
1
10
-0.319178426559972
20
10.6437212285783
30
6E-16
41
1
10
-0.324104157548362
20
10.6207701640638
30
6E-16
41
1
10
-0.324980947164619
20
10.6103701632389
30
6E-16
41
1
10
-0.324980947164391
20
10.6007696222925
30
6E-16
0
SPLINE
5
178
100
AcDbEntity
8
1
62
256
6
ByLayer
370
18
48
1
60
0
100
AcDbSpline
70
4
71
3
72
8
73
4
40
0
40
0
40
0
40
0
40
1
40
1
40
1
40
1
41
1
10
-0.0469703231320864
20
10.1521183287042
30
6E-16
41
1
10
-0.115112466683172
20
10.1914602136266
30
6E-16
41
1
10
-0.182784534593168
20
10.2305307002511
30
6E-16
41
1
10
-0.249980947161674
20
10.2693265671361
30
6E-16
0
SPLINE
5
179
100
AcDbEntity
8
1
62
256
6
ByLayer
370
18
48
1
60
0
100
AcDbSpline
70
4
71
3
72
9
73
5
40
0
40
0
40
0
40
0
40
0.999292586068838
40
1
40
1
40
1
40
1
41
1
10
0.342769052838321
20
-18.9271021950739
30
6E-16
41
1
10
-0.0434394769974915
20
-19.1500797937379
30
-3E-16
41
1
10
-0.237878022116433
20
-19.2623389401032
30
-1E-16
41
1
10
-0.237740711892017
20
-19.2622596640082
30
-1E-16
41
1
10
-0.237739845780013
20
-19.2622591639582
30
-1E-16
0
SPLINE
5
17A
100
AcDbEntity
8
1
62
256
6
ByLayer
370
18
48
1
60
0
100
AcDbSpline
70
4
71
3
72
30
73
26
40
0
40
0
40
0
40
0
40
0.0156250000000015
40
0.0156250000000015
40
0.031250000000003
40
0.031250000000003
40
0.0390625000000038
40
0.0390625000000038
40
0.0468750000000045
40
0.0468750000000045
40
0.0625000000000037
40
0.0625000000000037
40
0.0937500000000047
40
0.0937500000000047
40
0.125000000000006
40
0.125000000000006
40
0.187500000000005
40
0.187500000000005
40
0.250000000000005
40
0.250000000000005
40
0.500000000000003
40
0.500000000000003
40
0.750000000000002
40
0.750000000000002
40
1
40
1
40
1
40
1
41
1
10
0.342769052838918
20
-18.5728978049264
30
7E-16
41
1
10
0.347167502251665
20
-18.5754372508789
30
7E-16
41
1
10
0.351875120665568
20
-18.5783512126861
30
7E-16
41
1
10
0.362671227193715
20
-18.5858588219595
30
7E-16
41
1
10
0.368814280270101
20
-18.5904593107085
30
7E-16
41
1
10
0.379627793601287
20
-18.6000261023588
30
7E-16
41
1
10
0.383511766452983
20
-18.6037060390869
30
7E-16
41
1
10
0.390961208089948
20
-18.6113782229599
30
7E-16
41
1
10
0.394507492301244
20
-18.6153519282935
30
7E-16
41
1
10
0.403582700687821
20
-18.6262273553663
30
7E-16
41
1
10
0.407894619160516
20
-18.6323252833215
30
7E-16
41
1
10
0.418527130305535
20
-18.6485108333634
30
7E-16
41
1
10
0.422796334706419
20
-18.6569108028848
30
7E-16
41
1
10
0.429807600862887
20
-18.6721510970434
30
7E-16
41
1
10
0.432383254294166
20
-18.6789156994861
30
7E-16
41
1
10
0.438726775719544
20
-18.6979198030968
30
7E-16
41
1
10
0.44106248894505
20
-18.7087145299365
30
7E-16
41
1
10
0.444153638995942
20
-18.7286665726084
30
7E-16
41
1
10
0.444830429903533
20
-18.737753257668
30
7E-16
41
1
10
0.44560511407002
20
-18.7804286283794
30
7E-16
41
1
10
0.43860157287898
20
-18.8064633623191
30
7E-16
41
1
10
0.419572318932779
20
-18.8518072882015
30
6E-16
41
1
10
0.40702803445248
20
-18.8706971769129
30
6E-16
41
1
10
0.377925283253518
20
-18.9030116901286
30
6E-16
41
1
10
0.361322164334183
20
-18.9163905511575
30
6E-16
41
1
10
0.342769052838321
20
-18.9271021950739
30
6E-16
0
SPLINE
5
17B
100
AcDbEntity
8
1
62
256
6
ByLayer
370
18
48
1
60
0
100
AcDbSpline
70
4
71
3
72
8
73
4
40
0
40
0
40
0
40
0
40
1
40
1
40
1
40
1
41
1
10
-0.249980947153062
20
-18.2306734328689
30
6E-16
41
1
10
-0.0602000624296011
20
-18.3402434777511
30
6E-16
41
1
10
0.137660453242091
20
-18.4544782997361
30
7E-16
41
1
10
0.342769052838975
20
-18.5728978049265
30
7E-16
0
SPLINE
5
17C
100
AcDbEntity
8
1
62
256
6
ByLayer
370
18
48
1
60
0
100
AcDbSpline
70
4
71
3
72
22
73
18
40
0
40
0
40
0
40
0
40
0.500000000000001
40
0.500000000000001
40
0.624999999999998
40
0.624999999999998
40
0.749999999999995
40
0.749999999999995
40
0.812499999999994
40
0.812499999999994
40
0.843749999999994
40
0.843749999999994
40
0.874999999999993
40
0.874999999999993
40
0.937499999999996
40
0.937499999999996
40
1
40
1
40
1
40
1
41
1
10
-0.324980947161691
20
-18.100769622297
30
6E-16
41
1
10
-0.324980947161635
20
-18.1137645701681
30
6E-16
41
1
10
-0.323790232667534
20
-18.127795787582
30
6E-16
41
1
10
-0.316456212597757
20
-18.1508511841353
30
6E-16
41
1
10
-0.314665848060542
20
-18.1557683798999
30
6E-16
41
1
10
-0.309773138084921
20
-18.1668589568608
30
6E-16
41
1
10
-0.306795089164126
20
-18.1729203790449
30
6E-16
41
1
10
-0.299630108719896
20
-18.1843325414389
30
6E-16
41
1
10
-0.296829760965835
20
-18.1885135208742
30
6E-16
41
1
10
-0.290508860929492
20
-18.1965027536107
30
6E-16
41
1
10
-0.288014005065151
20
-18.1994699588222
30
6E-16
41
1
10
-0.282216873918628
20
-18.2057395447594
30
6E-16
41
1
10
-0.278956866190157
20
-18.2089600755049
30
6E-16
41
1
10
-0.27003916471935
20
-18.217082127591
30
6E-16
41
1
10
-0.265162280718528
20
-18.2207404105641
30
6E-16
41
1
10
-0.256862623384052
20
-18.226551393864
30
6E-16
41
1
10
-0.253301245368533
20
-18.2287564578123
30
6E-16
41
1
10
-0.24998094713547
20
-18.2306734328899
30
6E-16
0
SPLINE
5
17D
100
AcDbEntity
8
1
62
256
6
ByLayer
370
18
48
1
60
0
100
AcDbSpline
70
4
71
3
72
12
73
8
40
0
40
0
40
0
40
0
40
0.500000000000001
40
0.500000000000001
40
0.75
40
0.75
40
1
40
1
40
1
40
1
41
1
10
-0.24998094716193
20
-17.7693265671358
30
7E-16
41
1
10
-0.272339062802388
20
-17.7822350312194
30
7E-16
41
1
10
-0.289810128017109
20
-17.7995759070863
30
7E-16
41
1
10
-0.309303101855704
20
-17.8313205306206
30
7E-16
41
1
10
-0.314652005939621
20
-17.8429003158476
30
7E-16
41
1
10
-0.322447939387985
20
-17.8686596935014
30
7E-16
41
1
10
-0.324980952990444
20
-17.8827530371263
30
7E-16
41
1
10
-0.324980947161691
20
-17.8992304307651
30
7E-16
0
SPLINE
5
17E
100
AcDbEntity
8
1
62
256
6
ByLayer
370
18
48
1
60
0
100
AcDbSpline
70
4
71
3
72
8
73
4
40
0
40
0
40
0
40
0
40
1
40
1
40
1
40
1
41
1
10
0.342769052838293
20
-17.4271021950739
30
-1E-15
41
1
10
0.122384349147381
20
-17.5543413630751
30
7E-16
41
1
10
-0.0754822092163749
20
-17.6685796738101
30
7E-16
41
1
10
-0.249980947161703
20
-17.7693265671361
30
7E-16
0
SPLINE
5
17F
100
AcDbEntity
8
1
62
256
6
ByLayer
370
18
48
1
60
0
100
AcDbSpline
70
4
71
3
72
28
73
24
40
0
40
0
40
0
40
0
40
0.0312500000000024
40
0.0312500000000024
40
0.0468750000000057
40
0.0468750000000057
40
0.0625000000000089
40
0.0625000000000089
40
0.0937500000000076
40
0.0937500000000076
40
0.125000000000006
40
0.125000000000006
40
0.187500000000004
40
0.187500000000004
40
0.250000000000001
40
0.250000000000001
40
0.375000000000001
40
0.375000000000001
40
0.500000000000001
40
0.500000000000001
40
0.75
40
0.75
40
1
40
1
40
1
40
1
41
1
10
0.342769052838293
20
-17.0728978049261
30
-1E-15
41
1
10
0.350206936616758
20
-17.0771920691278
30
-1E-15
41
1
10
0.358571932189221
20
-17.0825653327078
30
-1E-15
41
1
10
0.372953938923672
20
-17.0940548141777
30
-1E-15
41
1
10
0.378013585313966
20
-17.0984544665137
30
-1E-15
41
1
10
0.388205972626508
20
-17.1083688985293
30
-1E-15
41
1
10
0.393200410493563
20
-17.1137805792627
30
-1E-15
41
1
10
0.406381099255242
20
-17.1295909396921
30
-1E-15
41
1
10
0.412727408348473
20
-17.1392834418557
30
-1E-15
41
1
10
0.422411814130328
20
-17.1560377876783
30
-1E-15
41
1
10
0.425966873736456
20
-17.1634850415312
30
-1E-15
41
1
10
0.434670816387069
20
-17.1840661545953
30
-1E-15
41
1
10
0.437925786550949
20
-17.1955130499529
30
-1E-15
41
1
10
0.442587127582698
20
-17.2167323068184
30
-1E-15
41
1
10
0.443855167364347
20
-17.2264080669222
30
-1E-15
41
1
10
0.445788857049024
20
-17.2534894966539
30
-1E-15
41
1
10
0.444643705650208
20
-17.2690365243094
30
-1E-15
41
1
10
0.439935247747769
20
-17.2975651590053
30
-1E-15
41
1
10
0.436292329551378
20
-17.3104672435727
30
-1E-15
41
1
10
0.422720633383506
20
-17.3463103718602
30
-1E-15
41
1
10
0.410194426489824
20
-17.366433743811
30
-1E-15
41
1
10
0.38017798836168
20
-17.401135471846
30
-1E-15
41
1
10
0.36271767026355
20
-17.4155848554358
30
-1E-15
41
1
10
0.342769052839742
20
-17.4271021950754
30
-1E-15
0
SPLINE
5
180
100
AcDbEntity
8
1
62
256
6
ByLayer
370
18
48
1
60
0
100
AcDbSpline
70
4
71
3
72
8
73
4
40
0
40
0
40
0
40
0
40
1
40
1
40
1
40
1
41
1
10
-0.249980947147009
20
-16.7306734328724
30
-1E-15
41
1
10
-0.0547247618644064
20
-16.8434046440063
30
-1E-15
41
1
10
0.142923239006564
20
-16.9575167705139
30
-1E-15
41
1
10
0.342769052838321
20
-17.0728978049261
30
-1E-15
0
SPLINE
5
181
100
AcDbEntity
8
1
62
256
6
ByLayer
370
18
48
1
60
0
100
AcDbSpline
70
4
71
3
72
20
73
16
40
0
40
0
40
0
40
0
40
0.250000000000026
40
0.250000000000026
40
0.500000000000053
40
0.500000000000053
40
0.625000000000043
40
0.625000000000043
40
0.750000000000032
40
0.750000000000032
40
0.812500000000024
40
0.812500000000024
40
0.875000000000016
40
0.875000000000016
40
1
40
1
40
1
40
1
41
1
10
-0.324980947161691
20
-16.6007696222963
30
-1E-15
41
1
10
-0.324980947161691
20
-16.6077926024406
30
-1E-15
41
1
10
-0.324508430481103
20
-16.6152370205378
30
-1E-15
41
1
10
-0.322027063648363
20
-16.6315139470718
30
-1E-15
41
1
10
-0.320098499848996
20
-16.6402724574493
30
-1E-15
41
1
10
-0.314650888329396
20
-16.6557441805481
30
-1E-15
41
1
10
-0.312389893821575
20
-16.6613419914095
30
-1E-15
41
1
10
-0.306066521241462
20
-16.6740280879527
30
-1E-15
41
1
10
-0.302120714695491
20
-16.6810556618046
30
-1E-15
41
1
10
-0.292796401938091
20
-16.693759464607
30
-1E-15
41
1
10
-0.28902570587536
20
-16.6983973374441
30
-1E-15
41
1
10
-0.280702356619713
20
-16.7073546181317
30
-1E-15
41
1
10
-0.276147527968647
20
-16.7116572439069
30
-1E-15
41
1
10
-0.263453828301209
20
-16.72240644278
30
-1E-15
41
1
10
-0.256322128647042
20
-16.727012350083
30
-1E-15
41
1
10
-0.249980947088631
20
-16.7306734329565
30
-1E-15
0
SPLINE
5
182
100
AcDbEntity
8
1
62
256
6
ByLayer
370
18
48
1
60
0
100
AcDbSpline
70
4
71
3
72
12
73
8
40
0
40
0
40
0
40
0
40
0.5
40
0.5
40
0.75
40
0.75
40
1
40
1
40
1
40
1
41
1
10
-0.249980947163891
20
-16.2693265671349
30
-1E-15
41
1
10
-0.271836749342242
20
-16.2819450204062
30
-1E-15
41
1
10
-0.289342822595785
20
-16.2990387035943
30
-1E-15
41
1
10
-0.308987256996829
20
-16.3306989144713
30
-1E-15
41
1
10
-0.314415529009409
20
-16.3422929033941
30
-1E-15
41
1
10
-0.322365964867515
20
-16.3682217474267
30
-1E-15
41
1
10
-0.324980953032252
20
-16.3824644289998
30
-1E-15
41
1
10
-0.32498094716297
20
-16.3992304302145
30
-1E-15
0
SPLINE
5
183
100
AcDbEntity
8
1
62
256
6
ByLayer
370
18
48
1
60
0
100
AcDbSpline
70
4
71
3
72
8
73
4
40
0
40
0
40
0
40
0
40
1
40
1
40
1
40
1
41
1
10
0.342769052838293
20
-15.9271021950739
30
-1E-15
41
1
10
0.132896815745056
20
-16.0482719876551
30
-1E-15
41
1
10
-0.0648365548918264
20
-16.1624334024201
30
-1E-15
41
1
10
-0.249980947162413
20
-16.2693265671365
30
-1E-15
0
SPLINE
5
184
100
AcDbEntity
8
1
62
256
6
ByLayer
370
18
48
1
60
0
100
AcDbSpline
70
4
71
3
72
26
73
22
40
0
40
0
40
0
40
0
40
0.0312500000000016
40
0.0312500000000016
40
0.0625000000000032
40
0.0625000000000032
40
0.0937500000000048
40
0.0937500000000048
40
0.125000000000006
40
0.125000000000006
40
0.187500000000009
40
0.187500000000009
40
0.250000000000013
40
0.250000000000013
40
0.375000000000007
40
0.375000000000007
40
0.500000000000001
40
0.500000000000001
40
0.75
40
0.75
40
1
40
1
40
1
40
1
41
1
10
0.342769052838065
20
-15.5728978049256
30
-9E-16
41
1
10
0.349658626564917
20
-15.5768755021714
30
-9E-16
41
1
10
0.357054214042478
20
-15.5816583524367
30
-9E-16
41
1
10
0.372854265808911
20
-15.5937734161251
30
-9E-16
41
1
10
0.381369439996888
20
-15.6012675810393
30
-9E-16
41
1
10
0.39757847477847
20
-15.6184990418573
30
-9E-16
41
1
10
0.404673911850267
20
-15.6276244385518
30
-9E-16
41
1
10
0.415950680134245
20
-15.6444237719878
30
-9E-16
41
1
10
0.420319156649356
20
-15.6522429135921
30
-9E-16
41
1
10
0.430971119280457
20
-15.6738070772208
30
-9E-16
41
1
10
0.435121025195741
20
-15.6860991452694
30
-9E-16
41
1
10
0.441071512504664
20
-15.7083832028805
30
-9E-16
41
1
10
0.442799364492089
20
-15.7184710950264
30
-9E-16
41
1
10
0.445885810759222
20
-15.7469454841076
30
-9E-16
41
1
10
0.445145245767094
20
-15.7631547883942
30
-9E-16
41
1
10
0.441040197708105
20
-15.7928508780579
30
-9E-16
41
1
10
0.437571112556156
20
-15.8062525419917
30
-9E-16
41
1
10
0.4242987962987
20
-15.8434863988606
30
-9E-16
41
1
10
0.411628225743613
20
-15.8644401252005
30
-9E-16
41
1
10
0.381135438144469
20
-15.9003393610858
30
-1E-15
41
1
10
0.363282913998404
20
-15.915258511811
30
-1E-15
41
1
10
0.342769052838321
20
-15.9271021950739
30
-1E-15
0
SPLINE
5
185
100
AcDbEntity
8
1
62
256
6
ByLayer
370
18
48
1
60
0
100
AcDbSpline
70
4
71
3
72
8
73
4
40
0
40
0
40
0
40
0
40
1
40
1
40
1
40
1
41
1
10
-0.249980947161703
20
-15.230673432864
30
-9E-16
41
1
10
-0.0534841279688294
20
-15.3441209243199
30
-9E-16
41
1
10
0.144124364081392
20
-15.4582102403992
30
-9E-16
41
1
10
0.342769052838349
20
-15.5728978049261
30
-9E-16
0
SPLINE
5
186
100
AcDbEntity
8
1
62
256
6
ByLayer
370
18
48
1
60
0
100
AcDbSpline
70
4
71
3
72
18
73
14
40
0
40
0
40
0
40
0
40
0.25
40
0.25
40
0.5
40
0.5
40
0.625
40
0.625
40
0.75
40
0.75
40
0.875
40
0.875
40
1
40
1
40
1
40
1
41
1
10
-0.324980947161691
20
-15.1007696222977
30
-9E-16
41
1
10
-0.324980947161635
20
-15.1082941114741
30
-9E-16
41
1
10
-0.324441957114658
20
-15.1162911079423
30
-9E-16
41
1
10
-0.321550482991682
20
-15.1338888188355
30
-9E-16
41
1
10
-0.31927079142892
20
-15.1435063672613
30
-9E-16
41
1
10
-0.312745124131311
20
-15.1604146445622
30
-9E-16
41
1
10
-0.310078859438562
20
-15.1664065852526
30
-9E-16
41
1
10
-0.302622686742069
20
-15.1799355437814
30
-9E-16
41
1
10
-0.297768447016949
20
-15.1875179949386
30
-9E-16
41
1
10
-0.285027989960696
20
-15.2031986154964
30
-9E-16
41
1
10
-0.277139260873042
20
-15.2109990862185
30
-9E-16
41
1
10
-0.262708925211484
20
-15.222796904673
30
-9E-16
41
1
10
-0.256080358541595
20
-15.2271519360618
30
-9E-16
41
1
10
-0.249980947161731
20
-15.2306734328639
30
-9E-16
0
SPLINE
5
187
100
AcDbEntity
8
1
62
256
6
ByLayer
370
18
48
1
60
0
100
AcDbSpline
70
4
71
3
72
12
73
8
40
0
40
0
40
0
40
0
40
0.499999999999991
40
0.499999999999991
40
0.749999999999995
40
0.749999999999995
40
1
40
1
40
1
40
1
41
1
10
-0.249980947162612
20
-14.7693265671366
30
-9E-16
41
1
10
-0.271562213436681
20
-14.7817865170296
30
-9E-16
41
1
10
-0.289062021678291
20
-14.7987091471998
30
-9E-16
41
1
10
-0.308820207120022
20
-14.8303696136213
30
-9E-16
41
1
10
-0.314293818783284
20
-14.8419819431622
30
-9E-16
41
1
10
-0.322326055776472
20
-14.8680073345431
30
-9E-16
41
1
10
-0.324980953078608
20
-14.8823248266566
30
-9E-16
41
1
10
-0.324980947161691
20
-14.8992304302034
30
-9E-16
0
SPLINE
5
188
100
AcDbEntity
8
1
62
256
6
ByLayer
370
18
48
1
60
0
100
AcDbSpline
70
4
71
3
72
8
73
4
40
0
40
0
40
0
40
0
40
1
40
1
40
1
40
1
41
1
10
0.342769052838321
20
-14.4271021950739
30
-9E-16
41
1
10
0.136951465370231
20
-14.5459310346026
30
-9E-16
41
1
10
-0.0607307434446795
20
-14.6600629110759
30
-9E-16
41
1
10
-0.249980947162641
20
-14.7693265671366
30
-9E-16
0
SPLINE
5
189
100
AcDbEntity
8
1
62
256
6
ByLayer
370
18
48
1
60
0
100
AcDbSpline
70
4
71
3
72
26
73
22
40
0
40
0
40
0
40
0
40
0.03125
40
0.03125
40
0.0624999999999999
40
0.0624999999999999
40
0.0937499999999999
40
0.0937499999999999
40
0.125
40
0.125
40
0.187500000000003
40
0.187500000000003
40
0.250000000000007
40
0.250000000000007
40
0.375000000000003
40
0.375000000000003
40
0.499999999999998
40
0.499999999999998
40
0.749999999999999
40
0.749999999999999
40
1
40
1
40
1
40
1
41
1
10
0.342769052838037
20
-14.0728978049255
30
-8E-16
41
1
10
0.349163183035131
20
-14.076589457716
30
-8E-16
41
1
10
0.355806340845334
20
-14.0808639329711
30
-8E-16
41
1
10
0.369951692236725
20
-14.0914271151666
30
-8E-16
41
1
10
0.377335228951097
20
-14.0976719176083
30
-8E-16
41
1
10
0.391696083491269
20
-14.111913012437
30
-8E-16
41
1
10
0.398580693575781
20
-14.1198706871901
30
-8E-16
41
1
10
0.410347036284946
20
-14.1356515135061
30
-8E-16
41
1
10
0.415274527124012
20
-14.143462657443
30
-8E-16
41
1
10
0.427406861200154
20
-14.1653187052008
30
-8E-16
41
1
10
0.432392312388856
20
-14.17820161606
30
-8E-16
41
1
10
0.439592085941257
20
-14.2016235268117
30
-8E-16
41
1
10
0.441746412495263
20
-14.2122376957319
30
-8E-16
41
1
10
0.445808850299443
20
-14.2416863575413
30
-8E-16
41
1
10
0.445437297634811
20
-14.2585484111065
30
-8E-16
41
1
10
0.441757786342748
20
-14.2895921017433
30
-8E-16
41
1
10
0.438337078457266
20
-14.3035898211542
30
-8E-16
41
1
10
0.42513767631516
20
-14.3420357247486
30
-9E-16
41
1
10
0.412428901491666
20
-14.3633001017369
30
-9E-16
41
1
10
0.381716985588071
20
-14.3998434279666
30
-9E-16
41
1
10
0.363646108731189
20
-14.4150488212343
30
-9E-16
41
1
10
0.342769052838321
20
-14.4271021950739
30
-9E-16
0
SPLINE
5
18A
100
AcDbEntity
8
1
62
256
6
ByLayer
370
18
48
1
60
0
100
AcDbSpline
70
4
71
3
72
8
73
4
40
0
40
0
40
0
40
0
40
1
40
1
40
1
40
1
41
1
10
-0.249980947161703
20
-13.7306734328639
30
-9E-16
41
1
10
-0.0530000040733398
20
-13.8444004333812
30
-9E-16
41
1
10
0.144595422329161
20
-13.9584822060053
30
-8E-16
41
1
10
0.342769052838293
20
-14.0728978049261
30
-8E-16
0
SPLINE
5
18B
100
AcDbEntity
8
1
62
256
6
ByLayer
370
18
48
1
60
0
100
AcDbSpline
70
4
71
3
72
18
73
14
40
0
40
0
40
0
40
0
40
0.249999999999983
40
0.249999999999983
40
0.499999999999966
40
0.499999999999966
40
0.624999999999975
40
0.624999999999975
40
0.749999999999983
40
0.749999999999983
40
0.874999999999992
40
0.874999999999992
40
1
40
1
40
1
40
1
41
1
10
-0.324980947161691
20
-13.6007696222971
30
-9E-16
41
1
10
-0.324980947161663
20
-13.6087360428642
30
-9E-16
41
1
10
-0.324380563208678
20
-13.6172211141395
30
-9E-16
41
1
10
-0.321095417331236
20
-13.6360039587584
30
-9E-16
41
1
10
-0.318482211111956
20
-13.6462754700694
30
-9E-16
41
1
10
-0.311155427711356
20
-13.6639942977106
30
-9E-16
41
1
10
-0.308070357817684
20
-13.6704211793461
30
-9E-16
41
1
10
-0.299897897557855
20
-13.6841955543076
30
-9E-16
41
1
10
-0.294692867950545
20
-13.6916501604626
30
-9E-16
41
1
10
-0.282273290892931
20
-13.7060244044822
30
-9E-16
41
1
10
-0.275330109135695
20
-13.7125800747283
30
-9E-16
41
1
10
-0.26212534052712
20
-13.723151754517
30
-9E-16
41
1
10
-0.255839174851559
20
-13.727291183535
30
-9E-16
41
1
10
-0.249980947158946
20
-13.73067343287
30
-9E-16
0
SPLINE
5
18C
100
AcDbEntity
8
1
62
256
6
ByLayer
370
18
48
1
60
0
100
AcDbSpline
70
4
71
3
72
12
73
8
40
0
40
0
40
0
40
0
40
0.500000000000009
40
0.500000000000009
40
0.750000000000004
40
0.750000000000004
40
1
40
1
40
1
40
1
41
1
10
-0.249980947162527
20
-13.2693265671366
30
-8E-16
41
1
10
-0.271385328435315
20
-13.2816843924264
30
-8E-16
41
1
10
-0.288842234769817
20
-13.2984367477412
30
-8E-16
41
1
10
-0.308729368113518
20
-13.3301847619334
30
-8E-16
41
1
10
-0.314236549108898
20
-13.3418324974388
30
-8E-16
41
1
10
-0.322314560478077
20
-13.3679342801878
30
-8E-16
41
1
10
-0.324980953005223
20
-13.3822947958059
30
-8E-16
41
1
10
-0.324980947161691
20
-13.3992304294602
30
-8E-16
0
SPLINE
5
18D
100
AcDbEntity
8
1
62
256
6
ByLayer
370
18
48
1
60
0
100
AcDbSpline
70
4
71
3
72
8
73
4
40
0
40
0
40
0
40
0
40
1
40
1
40
1
40
1
41
1
10
0.342769052838321
20
-12.9271021950739
30
-8E-16
41
1
10
0.139100439383583
20
-13.0446903238775
30
-8E-16
41
1
10
-0.0585547956085861
20
-13.1588066270069
30
-8E-16
41
1
10
-0.249980947162527
20
-13.2693265671366
30
-8E-16
0
SPLINE
5
18E
100
AcDbEntity
8
1
62
256
6
ByLayer
370
18
48
1
60
0
100
AcDbSpline
70
4
71
3
72
22
73
18
40
0
40
0
40
0
40
0
40
0.0625000000000003
40
0.0625000000000003
40
0.125000000000001
40
0.125000000000001
40
0.187500000000001
40
0.187500000000001
40
0.250000000000001
40
0.250000000000001
40
0.375000000000002
40
0.375000000000002
40
0.500000000000002
40
0.500000000000002
40
0.750000000000001
40
0.750000000000001
40
1
40
1
40
1
40
1
41
1
10
0.342769052838293
20
-12.572897804926
30
-7E-16
41
1
10
0.354777071636988
20
-12.5798306378119
30
-7E-16
41
1
10
0.367858567133141
20
-12.5889781496023
30
-7E-16
41
1
10
0.393997156862298
20
-12.6136626984588
30
-7E-16
41
1
10
0.406195167527983
20
-12.6289339282319
30
-7E-16
41
1
10
0.423814047612581
20
-12.6577583954892
30
-7E-16
41
1
10
0.429539400008906
20
-12.6709243664441
30
-7E-16
41
1
10
0.437873150331058
20
-12.6949272511166
30
-8E-16
41
1
10
0.44045662504729
20
-12.7058017149437
30
-8E-16
41
1
10
0.445636994024881
20
-12.7365848990197
30
-8E-16
41
1
10
0.445604779052104
20
-12.7539405353293
30
-8E-16
41
1
10
0.442502522190438
20
-12.7857541749142
30
-8E-16
41
1
10
0.43927978971783
20
-12.8001002650958
30
-8E-16
41
1
10
0.426271998538255
20
-12.8399920080559
30
-8E-16
41
1
10
0.413406953296175
20
-12.8619056025335
30
-8E-16
41
1
10
0.382298706453525
20
-12.8993707462118
30
-8E-16
41
1
10
0.363953144526562
20
-12.9148715540352
30
-8E-16
41
1
10
0.342769052838321
20
-12.9271021950739
30
-8E-16
0
SPLINE
5
18F
100
AcDbEntity
8
1
62
256
6
ByLayer
370
18
48
1
60
0
100
AcDbSpline
70
4
71
3
72
8
73
4
40
0
40
0
40
0
40
0
40
1
40
1
40
1
40
1
41
1
10
-0.249980947161703
20
-12.2306734328639
30
-8E-16
41
1
10
-0.0527633529478067
20
-12.3445370639722
30
-8E-16
41
1
10
0.144827338146769
20
-12.4586161026651
30
-8E-16
41
1
10
0.342769052838321
20
-12.5728978049261
30
-7E-16
0
SPLINE
5
190
100
AcDbEntity
8
1
62
256
6
ByLayer
370
18
48
1
60
0
100
AcDbSpline
70
4
71
3
72
16
73
12
40
0
40
0
40
0
40
0
40
0.250000000000005
40
0.250000000000005
40
0.500000000000009
40
0.500000000000009
40
0.750000000000014
40
0.750000000000014
40
0.875000000000007
40
0.875000000000007
40
1
40
1
40
1
40
1
41
1
10
-0.324980947161691
20
-12.1007696222963
30
-8E-16
41
1
10
-0.324980947161691
20
-12.1090872172147
30
-8E-16
41
1
10
-0.324316590915885
20
-12.1180742237417
30
-8E-16
41
1
10
-0.320683650746957
20
-12.1378007699237
30
-8E-16
41
1
10
-0.31780537522215
20
-12.1485427367425
30
-8E-16
41
1
10
-0.307021471346531
20
-12.1732015744147
30
-8E-16
41
1
10
-0.298451760721747
20
-12.1877785931645
30
-8E-16
41
1
10
-0.28064633515848
20
-12.2076046656232
30
-8E-16
41
1
10
-0.274138254460809
20
-12.2135996015465
30
-8E-16
41
1
10
-0.261700115006931
20
-12.2234177439152
30
-8E-16
41
1
10
-0.255686173524879
20
-12.2273795188972
30
-8E-16
41
1
10
-0.249980947155251
20
-12.2306734328768
30
-8E-16
0
SPLINE
5
191
100
AcDbEntity
8
1
62
256
6
ByLayer
370
18
48
1
60
0
100
AcDbSpline
70
4
71
3
72
12
73
8
40
0
40
0
40
0
40
0
40
0.5
40
0.5
40
0.75
40
0.75
40
1
40
1
40
1
40
1
41
1
10
-0.2499809471623
20
-11.7693265671364
30
-7E-16
41
1
10
-0.271252824098241
20
-11.7816078910117
30
-7E-16
41
1
10
-0.288661605340053
20
-11.7982211292841
30
-7E-16
41
1
10
-0.308635985286372
20
-11.8299998146439
30
-7E-16
41
1
10
-0.314204674629593
20
-11.8417437291621
30
-7E-16
41
1
10
-0.322319259758274
20
-11.8679352871653
30
-7E-16
41
1
10
-0.324980952823722
20
-11.8823312976886
30
-7E-16
41
1
10
-0.324980947161691
20
-11.899230427961
30
-7E-16
0
SPLINE
5
192
100
AcDbEntity
8
1
62
256
6
ByLayer
370
18
48
1
60
0
100
AcDbSpline
70
4
71
3
72
8
73
4
40
0
40
0
40
0
40
0
40
1
40
1
40
1
40
1
41
1
10
0.342769052838321
20
-11.4271021950739
30
-7E-16
41
1
10
0.140428826570627
20
-11.5439233791775
30
-7E-16
41
1
10
-0.0572098387460187
20
-11.6580301158003
30
-7E-16
41
1
10
-0.249980947162328
20
-11.7693265671365
30
-7E-16
0
SPLINE
5
193
100
AcDbEntity
8
1
62
256
6
ByLayer
370
18
48
1
60
0
100
AcDbSpline
70
4
71
3
72
22
73
18
40
0
40
0
40
0
40
0
40
0.0625000000000008
40
0.0625000000000008
40
0.125000000000002
40
0.125000000000002
40
0.187500000000002
40
0.187500000000002
40
0.250000000000003
40
0.250000000000003
40
0.374999999999999
40
0.374999999999999
40
0.499999999999994
40
0.499999999999994
40
0.749999999999997
40
0.749999999999997
40
1
40
1
40
1
40
1
41
1
10
0.342769052837553
20
-11.0728978049241
30
-7E-16
41
1
10
0.354119980417067
20
-11.0794512660175
30
-7E-16
41
1
10
0.366299118699487
20
-11.0879284546441
30
-7E-16
41
1
10
0.390462219891248
20
-11.1099826530882
30
-7E-16
41
1
10
0.402256683875322
20
-11.1237856514917
30
-7E-16
41
1
10
0.420301363564988
20
-11.1511696210034
30
-7E-16
41
1
10
0.42675409203207
20
-11.1645033920013
30
-7E-16
41
1
10
0.436170151059571
20
-11.1890589828802
30
-7E-16
41
1
10
0.439166907523912
20
-11.2002674274341
30
-7E-16
41
1
10
0.445316308356638
20
-11.2317098410877
30
-7E-16
41
1
10
0.445677139135739
20
-11.2499197686165
30
-7E-16
41
1
10
0.44306175459667
20
-11.2826542612033
30
-7E-16
41
1
10
0.439972246306723
20
-11.2973448408818
30
-7E-16
41
1
10
0.427239164513963
20
-11.3381322373897
30
-7E-16
41
1
10
0.414191281173743
20
-11.3607744050672
30
-7E-16
41
1
10
0.38274493170124
20
-11.3990127883594
30
-7E-16
41
1
10
0.364177155521531
20
-11.4147422212269
30
-7E-16
41
1
10
0.342769052838321
20
-11.4271021950739
30
-7E-16
0
SPLINE
5
194
100
AcDbEntity
8
1
62
256
6
ByLayer
370
18
48
1
60
0
100
AcDbSpline
70
4
71
3
72
8
73
4
40
0
40
0
40
0
40
0
40
1
40
1
40
1
40
1
41
1
10
-0.249980947161703
20
-10.7306734328639
30
-7E-16
41
1
10
-0.0526311005797311
20
-10.8446134199125
30
-7E-16
41
1
10
0.144956402684983
20
-10.9586906181109
30
-7E-16
41
1
10
0.342769052838094
20
-11.072897804926
30
-7E-16
0
SPLINE
5
195
100
AcDbEntity
8
1
62
256
6
ByLayer
370
18
48
1
60
0
100
AcDbSpline
70
4
71
3
72
14
73
10
40
0
40
0
40
0
40
0
40
0.25
40
0.25
40
0.5
40
0.5
40
0.75
40
0.75
40
1
40
1
40
1
40
1
41
1
10
-0.324980947161691
20
-10.6007696222948
30
-7E-16
41
1
10
-0.324980947161777
20
-10.6094716182477
30
-7E-16
41
1
10
-0.324268771107626
20
-10.6187488372158
30
-7E-16
41
1
10
-0.320311567264611
20
-10.6393587063504
30
-7E-16
41
1
10
-0.317072101415874
20
-10.6507683101509
30
-7E-16
41
1
10
-0.30558872199208
20
-10.6758121039871
30
-7E-16
41
1
10
-0.296479647805739
20
-10.6903185612463
30
-7E-16
41
1
10
-0.273716732582159
20
-10.7149282461609
30
-7E-16
41
1
10
-0.261124127315298
20
-10.7242399148047
30
-7E-16
41
1
10
-0.249980947161021
20
-10.7306734328662
30
-7E-16
0
SPLINE
5
196
100
AcDbEntity
8
1
62
256
6
ByLayer
370
18
48
1
60
0
100
AcDbSpline
70
4
71
3
72
12
73
8
40
0
40
0
40
0
40
0
40
0.500000000000002
40
0.500000000000002
40
0.750000000000001
40
0.750000000000001
40
1
40
1
40
1
40
1
41
1
10
-0.249980947162101
20
-10.2693265671363
30
-6E-16
41
1
10
-0.271126314916785
20
-10.2815348509017
30
-6E-16
41
1
10
-0.288501148953884
20
-10.2980519996747
30
-6E-16
41
1
10
-0.308497323778028
20
-10.3297368364634
30
-7E-16
41
1
10
-0.314134955366313
20
-10.3415577123894
30
-7E-16
41
1
10
-0.322314839321734
20
-10.3678823547224
30
-7E-16
41
1
10
-0.32498095265629
20
-10.3823371606104
30
-7E-16
41
1
10
-0.324980947161691
20
-10.3992304264919
30
-7E-16
0
SPLINE
5
197
100
AcDbEntity
8
1
62
256
6
ByLayer
370
18
48
1
60
0
100
AcDbSpline
70
4
71
3
72
8
73
4
40
0
40
0
40
0
40
0
40
1
40
1
40
1
40
1
41
1
10
-0.0469703231316601
20
-10.152118328704
30
-6E-16
41
1
10
-0.115112466683058
20
-10.1914602136265
30
-6E-16
41
1
10
-0.182784534593338
20
-10.2305307002512
30
-6E-16
41
1
10
-0.249980947162157
20
-10.2693265671363
30
-6E-16
0
SPLINE
5
198
100
AcDbEntity
8
1
62
256
6
ByLayer
370
18
48
1
60
0
100
AcDbSpline
70
4
71
3
72
8
73
4
40
0
40
0
40
0
40
0
40
1
40
1
40
1
40
1
41
1
10
0.475019000000032
20
12.3285032417903
30
8E-16
41
1
10
0.483345182483532
20
12.3322623479899
30
8E-16
41
1
10
0.49167218296202
20
12.3360212422646
30
8E-16
41
1
10
0.499999999999972
20
12.3397799248884
30
8E-16
0
SPLINE
5
199
100
AcDbEntity
8
1
62
256
6
ByLayer
370
18
48
1
60
0
100
AcDbSpline
70
4
71
3
72
8
73
4
40
0
40
0
40
0
40
0
40
1
40
1
40
1
40
1
41
1
10
0.47501900000006
20
19.9698742646212
30
0
41
1
10
0.483345979224822
20
19.9782173173421
30
0
41
1
10
0.491672979233584
20
19.986560349721
30
0
41
1
10
0.5
20
19.9949033617832
30
0
0
SPLINE
5
19A
100
AcDbEntity
8
1
62
256
6
ByLayer
370
18
48
1
60
0
100
AcDbSpline
70
4
71
3
72
8
73
4
40
0
40
0
40
0
40
0
40
1
40
1
40
1
40
1
41
1
10
0.443960311783968
20
12.7292176960221
30
0
41
1
10
0.454314047995552
20
12.7188871558054
30
0
41
1
10
0.464667687607658
20
12.7085565206403
30
0
41
1
10
0.475021229877939
20
12.6982257898028
30
0
0
SPLINE
5
19B
100
AcDbEntity
8
1
62
256
6
ByLayer
370
18
48
1
60
0
100
AcDbSpline
70
4
71
3
72
10
73
6
40
0
40
0
40
0
40
0
40
0.003926888016499
40
0.003926888016499
40
1
40
1
40
1
40
1
41
1
10
-0.301511388434591
20
10.6813304721012
30
6E-16
41
1
10
-0.301458780042111
20
10.6814130871768
30
6E-16
41
1
10
-0.301406109679419
20
10.6814956271741
30
6E-16
41
1
10
-0.287977637389218
20
10.7024957609341
30
6E-16
41
1
10
-0.270578566127341
20
10.7187813920095
30
6E-16
41
1
10
-0.249980947161674
20
10.7306734328639
30
6E-16
0
SPLINE
5
19C
100
AcDbEntity
8
1
62
256
6
ByLayer
370
18
48
1
60
0
100
AcDbSpline
70
4
71
3
72
8
73
4
40
0
40
0
40
0
40
0
40
1
40
1
40
1
40
1
41
1
10
0.342769052838349
20
11.0728978049261
30
-2E-16
41
1
10
0.162021488610378
20
10.9685431500637
30
-2E-16
41
1
10
-0.0364057636580242
20
10.853981122552
30
-2E-16
41
1
10
-0.249980947161674
20
10.7306734328639
30
6E-16
0
SPLINE
5
19D
100
AcDbEntity
8
1
62
256
6
ByLayer
370
18
48
1
60
0
100
AcDbSpline
70
4
71
3
72
22
73
18
40
0
40
0
40
0
40
0
40
0.0625
40
0.0625
40
0.125
40
0.125
40
0.1875
40
0.1875
40
0.25
40
0.25
40
0.374999999999999
40
0.374999999999999
40
0.499999999999999
40
0.499999999999999
40
0.749999999999999
40
0.749999999999999
40
1
40
1
40
1
40
1
41
1
10
0.342769052838349
20
11.4271021950739
30
-2E-16
41
1
10
0.354215053820326
20
11.4204938433258
30
-2E-16
41
1
10
0.366893726871467
20
11.4117434180256
30
-2E-16
41
1
10
0.392727340805351
20
11.3877103067521
30
-2E-16
41
1
10
0.404916732334982
20
11.37273797937
30
-2E-16
41
1
10
0.422432040887173
20
11.3448623918256
30
-2E-16
41
1
10
0.428234858749647
20
11.3320747188443
30
-2E-16
41
1
10
0.436764242472577
20
11.308832888827
30
-2E-16
41
1
10
0.439526777815359
20
11.2981598006277
30
-2E-16
41
1
10
0.445216435016931
20
11.2682207496375
30
-2E-16
41
1
10
0.445631765261737
20
11.2511289458252
30
-2E-16
41
1
10
0.443346529475093
20
11.2194465380435
30
-2E-16
41
1
10
0.440485028187965
20
11.2049333406493
30
-2E-16
41
1
10
0.42843112720044
20
11.1645723543624
30
-2E-16
41
1
10
0.415936175801903
20
11.1419111288284
30
-2E-16
41
1
10
0.384473797819339
20
11.1025842528852
30
-2E-16
41
1
10
0.365417239154823
20
11.0859737413926
30
-2E-16
41
1
10
0.342769052838349
20
11.0728978049261
30
-2E-16
0
SPLINE
5
19E
100
AcDbEntity
8
1
62
256
6
ByLayer
370
18
48
1
60
0
100
AcDbSpline
70
4
71
3
72
8
73
4
40
0
40
0
40
0
40
0
40
1
40
1
40
1
40
1
41
1
10
-0.249980947161674
20
11.7693265671361
30
-2E-16
41
1
10
-0.0507119722254288
20
11.6542785708155
30
-2E-16
41
1
10
0.14701748100498
20
11.5401194177662
30
-2E-16
41
1
10
0.342769052838349
20
11.4271021950739
30
-2E-16
0
SPLINE
5
19F
100
AcDbEntity
8
1
62
256
6
ByLayer
370
18
48
1
60
0
100
AcDbSpline
70
4
71
3
72
18
73
14
40
0
40
0
40
0
40
0
40
0.125000000000002
40
0.125000000000002
40
0.250000000000004
40
0.250000000000004
40
0.375000000000006
40
0.375000000000006
40
0.500000000000008
40
0.500000000000008
40
0.750000000000004
40
0.750000000000004
40
1
40
1
40
1
40
1
41
1
10
-0.249980947161646
20
11.7693265671361
30
-2E-16
41
1
10
-0.255717707367666
20
11.7726386871853
30
-2E-16
41
1
10
-0.261641387533899
20
11.7765383275924
30
-2E-16
41
1
10
-0.274140717237799
20
11.7863999248797
30
-2E-16
41
1
10
-0.280560255167217
20
11.7923173336126
30
-2E-16
41
1
10
-0.292333829460205
20
11.8053917380504
30
-2E-16
41
1
10
-0.297659534178393
20
11.8125349736847
30
-2E-16
41
1
10
-0.306313030892625
20
11.8263056728821
30
-2E-16
41
1
10
-0.309672740735067
20
11.8328688968048
30
-2E-16
41
1
10
-0.317809827175665
20
11.8514515890427
30
-2E-16
41
1
10
-0.320694402247255
20
11.8622345583492
30
-2E-16
41
1
10
-0.324328445752855
20
11.8820133423246
30
-2E-16
41
1
10
-0.324980947161663
20
11.8909456023826
30
-2E-16
41
1
10
-0.324980947161663
20
11.8992303777037
30
-2E-16
0
SPLINE
5
1A0
100
AcDbEntity
8
1
62
256
6
ByLayer
370
18
48
1
60
0
100
AcDbSpline
70
4
71
3
72
12
73
8
40
0
40
0
40
0
40
0
40
0.249999999999999
40
0.249999999999999
40
0.499999999999999
40
0.499999999999999
40
1
40
1
40
1
40
1
41
1
10
-0.324980947162175
20
12.1007696222967
30
-2E-16
41
1
10
-0.324980947162118
20
12.1185616157486
30
-2E-16
41
1
10
-0.322061566753575
20
12.1333290677116
30
-2E-16
41
1
10
-0.313584882298471
20
12.1597761923532
30
-2E-16
41
1
10
-0.307901951666082
20
12.1713776549401
30
-2E-16
41
1
10
-0.287823408236335
20
12.2026545074747
30
-2E-16
41
1
10
-0.270462211592786
20
12.2188485693318
30
-2E-16
41
1
10
-0.249980947161959
20
12.2306734328643
30
-2E-16
0
SPLINE
5
1A1
100
AcDbEntity
8
1
62
256
6
ByLayer
370
18
48
1
60
0
100
AcDbSpline
70
4
71
3
72
8
73
4
40
0
40
0
40
0
40
0
40
1
40
1
40
1
40
1
41
1
10
0.342769052838349
20
12.5728978049261
30
-1E-16
41
1
10
0.213935248274225
20
12.4985155731802
30
-1E-16
41
1
10
0.012571809623438
20
12.3822583376703
30
-1E-16
41
1
10
-0.249980947161646
20
12.2306734328639
30
-2E-16
0
SPLINE
5
1A2
100
AcDbEntity
8
1
62
256
6
ByLayer
370
18
48
1
60
0
100
AcDbSpline
70
4
71
3
72
12
73
8
40
0
40
0
40
0
40
0
40
0.5
40
0.5
40
0.75
40
0.75
40
1
40
1
40
1
40
1
41
1
10
0.443960311783968
20
12.7292176960221
30
0
41
1
10
0.443339579897696
20
12.7231412534608
30
0
41
1
10
0.441512072003974
20
12.7000202730715
30
-1E-16
41
1
10
0.4222268604519
20
12.6547555677923
30
1E-16
41
1
10
0.41297206063544
20
12.6379710405539
30
1E-16
41
1
10
0.385640987238674
20
12.6042942972676
30
-1E-16
41
1
10
0.367680194187585
20
12.5872802590899
30
-1E-16
41
1
10
0.342769052838349
20
12.5728978049261
30
-1E-16
0
SPLINE
5
1A3
100
AcDbEntity
8
1
62
256
6
ByLayer
370
18
48
1
60
0
100
AcDbSpline
70
4
71
3
72
56
73
52
40
0
40
0
40
0
40
0
40
0.0625000000000003
40
0.0625000000000003
40
0.125000000000001
40
0.125000000000001
40
0.187500000000001
40
0.187500000000001
40
0.218750000000001
40
0.218750000000001
40
0.250000000000001
40
0.250000000000001
40
0.312500000000001
40
0.312500000000001
40
0.375000000000001
40
0.375000000000001
40
0.406250000000001
40
0.406250000000001
40
0.437500000000001
40
0.437500000000001
40
0.468750000000001
40
0.468750000000001
40
0.484375000000001
40
0.484375000000001
40
0.500000000000002
40
0.500000000000002
40
0.515625000000002
40
0.515625000000002
40
0.531250000000003
40
0.531250000000003
40
0.562500000000003
40
0.562500000000003
40
0.593750000000003
40
0.593750000000003
40
0.625000000000003
40
0.625000000000003
40
0.687500000000002
40
0.687500000000002
40
0.718750000000002
40
0.718750000000002
40
0.750000000000001
40
0.750000000000001
40
0.812500000000001
40
0.812500000000001
40
0.843750000000001
40
0.843750000000001
40
0.875
40
0.875
40
0.9375
40
0.9375
40
1
40
1
40
1
40
1
41
1
10
14.7361752221465
20
19.7259987976877
30
-1.4E-15
41
1
10
14.6275656131194
20
19.7259987976877
30
3E-16
41
1
10
14.5498010834342
20
19.7327556260568
30
3E-16
41
1
10
14.4456098802031
20
19.7675482282699
30
3E-16
41
1
10
14.4217668725941
20
19.7947618103299
30
3E-16
41
1
10
14.4171845056876
20
19.870465138996
30
3E-16
41
1
10
14.4364599163359
20
19.9174670177934
30
3E-16
41
1
10
14.4891225590292
20
20.0007038146958
30
3E-16
41
1
10
14.510809738258
20
20.0306851084616
30
3E-16
41
1
10
14.5612841951628
20
20.0943458051131
30
3E-16
41
1
10
14.5898350719086
20
20.1277492427906
30
3E-16
41
1
10
14.6843111327655
20
20.2322294302458
30
4E-16
41
1
10
14.7588691544625
20
20.3075971605463
30
4E-16
41
1
10
14.9301403446967
20
20.4673616153145
30
4E-16
41
1
10
15.0272218531847
20
20.5522318711335
30
4E-16
41
1
10
15.1895384574942
20
20.6790714799339
30
4E-16
41
1
10
15.2466072748465
20
20.721386636044
30
4E-16
41
1
10
15.368844224182
20
20.804559815677
30
4E-16
41
1
10
15.4341449588345
20
20.8455419478282
30
4E-16
41
1
10
15.5743054011127
20
20.9210893990898
30
5E-16
41
1
10
15.6502822203047
20
20.9562868885531
30
5E-16
41
1
10
15.7729143564228
20
20.9968280161624
30
5E-16
41
1
10
15.8153016490463
20
21.0083133471888
30
5E-16
41
1
10
15.9042229559144
20
21.0254628648251
30
5E-16
41
1
10
15.949522375297
20
21.0308237816587
30
5E-16
41
1
10
16.0410257234822
20
21.0339444531406
30
5E-16
41
1
10
16.0877778696851
20
21.0315777470325
30
5E-16
41
1
10
16.1775947730123
20
21.019545898021
30
5E-16
41
1
10
16.2215254054529
20
21.009892495992
30
5E-16
41
1
10
16.3481994452127
20
20.9726829047282
30
5E-16
41
1
10
16.4235007060605
20
20.9382128661375
30
5E-16
41
1
10
16.5631131325827
20
20.8609085877444
30
5E-16
41
1
10
16.6255053503471
20
20.8190319206765
30
5E-16
41
1
10
16.7416874102955
20
20.7331219399357
30
5E-16
41
1
10
16.7954371729747
20
20.6889192848319
30
5E-16
41
1
10
16.9464386925425
20
20.5562748845615
30
5E-16
41
1
10
17.0317609783706
20
20.4697924770597
30
5E-16
41
1
10
17.1433242317384
20
20.3468507077386
30
5E-16
41
1
10
17.1776453780455
20
20.3069596407523
30
5E-16
41
1
10
17.240586873547
20
20.229732487466
30
5E-16
41
1
10
17.2693293429813
20
20.1922137045396
30
5E-16
41
1
10
17.3452991344777
20
20.0855111890579
30
5E-16
41
1
10
17.3824801963235
20
20.0222814111943
30
5E-16
41
1
10
17.4150569729895
20
19.9399502426719
30
5E-16
41
1
10
17.4220045492307
20
19.914595536956
30
5E-16
41
1
10
17.4268627426827
20
19.8682381094033
30
5E-16
41
1
10
17.4246894826753
20
19.8471186628029
30
5E-16
41
1
10
17.4025104795103
20
19.7920077666213
30
5E-16
41
1
10
17.3674259983648
20
19.7657968323132
30
5E-16
41
1
10
17.2449514326889
20
19.7324338759777
30
5E-16
41
1
10
17.1604624377576
20
19.7259987976877
30
5E-16
41
1
10
17.0479914413743
20
19.7259987976877
30
-1.3E-15
0
SPLINE
5
1A4
100
AcDbEntity
8
1
62
256
6
ByLayer
370
18
48
1
60
0
100
AcDbSpline
70
4
71
3
72
8
73
4
40
0
40
0
40
0
40
0
40
1
40
1
40
1
40
1
41
1
10
-0.324981000000008
20
13.4961047448851
30
0
41
1
10
-0.179277421195167
20
13.350849618716
30
0
41
1
10
-0.0335898330822602
20
13.2055787610823
30
0
41
1
10
0.112080085574746
20
13.0602905324226
30
0
0
SPLINE
5
1A5
100
AcDbEntity
8
1
62
256
6
ByLayer
370
18
48
1
60
0
100
AcDbSpline
70
4
71
3
72
8
73
4
40
0
40
0
40
0
40
0
40
1
40
1
40
1
40
1
41
1
10
-0.230860982997086
20
19.2582876506788
30
1E-16
41
1
10
0.0127483919615088
20
19.5012880353568
30
1E-16
41
1
10
0.256368854471788
20
19.7442775204482
30
1E-16
41
1
10
0.5
20
19.987256500832
30
-1E-16
0
SPLINE
5
1A6
100
AcDbEntity
8
1
62
256
6
ByLayer
370
18
48
1
60
0
100
AcDbSpline
70
4
71
3
72
24
73
20
40
0
40
0
40
0
40
0
40
0.062500000000005
40
0.062500000000005
40
0.0937500000000066
40
0.0937500000000066
40
0.125000000000008
40
0.125000000000008
40
0.15625000000001
40
0.15625000000001
40
0.187500000000011
40
0.187500000000011
40
0.250000000000012
40
0.250000000000012
40
0.375000000000011
40
0.375000000000011
40
0.50000000000001
40
0.50000000000001
40
1
40
1
40
1
40
1
41
1
10
-0.249980947155109
20
13.2693265671289
30
-1E-16
41
1
10
-0.253661355979432
20
13.2714514521541
30
-1E-16
41
1
10
-0.25768972000975
20
13.2739404985637
30
-1E-16
41
1
10
-0.265219049200851
20
13.2793693803944
30
-1E-16
41
1
10
-0.268015317224609
20
13.2814895933794
30
-1E-16
41
1
10
-0.274571951439924
20
13.2869810205868
30
-1E-16
41
1
10
-0.278625032937356
20
13.2906521862225
30
-1E-16
41
1
10
-0.286427647909193
20
13.2986771426781
30
-1E-16
41
1
10
-0.289726266413368
20
13.3025359254272
30
-1E-16
41
1
10
-0.294762329424827
20
13.308849373868
30
-1E-16
41
1
10
-0.296717304207334
20
13.311543599606
30
-1E-16
41
1
10
-0.30175019964102
20
13.3188288643755
30
-1E-16
41
1
10
-0.304115756815833
20
13.3228029029897
30
-1E-16
41
1
10
-0.310113827178043
20
13.3336031229936
30
-1E-16
41
1
10
-0.312611324500096
20
13.3393182395887
30
-1E-16
41
1
10
-0.316708630229869
20
13.3497849642466
30
-1E-16
41
1
10
-0.318208744511423
20
13.3544421014841
30
-1E-16
41
1
10
-0.324269189163033
20
13.3760768309733
30
-1E-16
41
1
10
-0.324980947498432
20
13.3884364156722
30
-1E-16
41
1
10
-0.324980947161663
20
13.3992303823838
30
-1E-16
0
SPLINE
5
1A7
100
AcDbEntity
8
1
62
256
6
ByLayer
370
18
48
1
60
0
100
AcDbSpline
70
4
71
3
72
10
73
6
40
0
40
0
40
0
40
0
40
0.5
40
0.5
40
1
40
1
40
1
40
1
41
1
10
-0.249980947161674
20
13.2693265671361
30
-1E-16
41
1
10
-0.149240311148731
20
13.2111639338157
30
-1E-16
41
1
10
-0.0661117058624541
20
13.1631696111763
30
-1E-16
41
1
10
0.0572196607241722
20
13.091964213478
30
0
41
1
10
0.097410580497467
20
13.0687599751279
30
0
41
1
10
0.112080085574718
20
13.0602905324226
30
0
0
SPLINE
5
1A8
100
AcDbEntity
8
1
62
256
6
ByLayer
370
18
48
1
60
0
100
AcDbSpline
70
4
71
3
72
8
73
4
40
0
40
0
40
0
40
0
40
1
40
1
40
1
40
1
41
1
10
16.858713166702
20
27.8461536952212
30
-1E-16
41
1
10
16.8529071966462
20
27.8466604656949
30
-1E-16
41
1
10
16.8471014936615
20
27.8471672361686
30
-1E-16
41
1
10
16.8413837265611
20
27.8476740066423
30
-2E-16
0
SPLINE
5
1A9
100
AcDbEntity
8
1
62
256
6
ByLayer
370
18
48
1
60
0
100
AcDbSpline
70
4
71
3
72
11
73
7
40
0
40
0
40
0
40
0
40
0.208541300105405
40
0.500000001010185
40
0.791458694248442
40
1
40
1
40
1
40
1
41
1
10
15.6499332743084
20
28.0579588284321
30
0
41
1
10
15.6466101414372
20
28.0593558275459
30
0
41
1
10
15.6386425760767
20
28.0627052818649
30
0
41
1
10
15.6264617449096
20
28.0678251157294
30
0
41
1
10
15.6149515318242
20
28.072944949637
30
0
41
1
10
15.60839778268
20
28.0762944039667
30
0
41
1
10
15.6056643278662
20
28.0776914031284
30
0
0
SPLINE
5
1AA
100
AcDbEntity
8
1
62
256
6
ByLayer
370
18
48
1
60
0
100
AcDbSpline
70
4
71
1
72
4
73
2
40
0
40
0
40
1
40
1
41
1
10
15.4830847930317
20
28.1901186661058
30
0
41
1
10
15.5138870093572
20
28.1495226524495
30
0
0
SPLINE
5
1AB
100
AcDbEntity
8
1
62
256
6
ByLayer
370
18
48
1
60
0
100
AcDbSpline
70
4
71
1
72
4
73
2
40
0
40
0
40
1
40
1
41
1
10
15.4277319650278
20
28.3489454429873
30
-1E-16
41
1
10
15.4830847930927
20
28.1901186661412
30
0
0
SPLINE
5
1AC
100
AcDbEntity
8
1
62
256
6
ByLayer
370
18
48
1
60
0
100
AcDbSpline
70
4
71
3
72
17
73
13
40
0
40
0
40
0
40
0
40
0.100689034089568
40
0.194663819921975
40
0.28196701252946
40
0.362651929914029
40
0.436786254922818
40
0.504457415011555
40
0.642476142624095
40
0.769856688785868
40
0.88831998673654
40
1
40
1
40
1
40
1
41
1
10
15.4277319650606
20
28.3489454427958
30
-1E-16
41
1
10
15.42509668293
20
28.3571593351806
30
-1E-16
41
1
10
15.4200018472235
20
28.3730393928504
30
-1E-16
41
1
10
15.4094600774421
20
28.3954473489476
30
0
41
1
10
15.3976171826454
20
28.415762574705
30
0
41
1
10
15.3846795279749
20
28.4339490448005
30
0
41
1
10
15.3710807825607
20
28.4500261665942
30
0
41
1
10
15.3518856644204
20
28.4692241620314
30
0
41
1
10
15.3252107854033
20
28.4899657069796
30
0
41
1
10
15.2888372043418
20
28.5094636205105
30
0
41
1
10
15.2506136967472
20
28.5232090466446
30
0
41
1
10
15.223764128133
20
28.5270717821554
30
0
41
1
10
15.2107350282947
20
28.5289462244358
30
0
0
SPLINE
5
1AD
100
AcDbEntity
8
1
62
256
6
ByLayer
370
18
48
1
60
0
100
AcDbSpline
70
4
71
3
72
11
73
7
40
0
40
0
40
0
40
0
40
0.208503882699662
40
0.500000000007537
40
0.791496297687244
40
1
40
1
40
1
40
1
41
1
10
15.2107350283671
20
28.5289462244808
30
0
41
1
10
15.1975102871449
20
28.5295662920425
30
0
41
1
10
15.1657968699865
20
28.5310532369227
30
0
41
1
10
15.1154816935558
20
28.5334036062219
30
0
41
1
10
15.0651102666285
20
28.5357539749873
30
0
41
1
10
15.0332749886509
20
28.5372409198672
30
0
41
1
10
15.0199994420057
20
28.5378609868924
30
0
0
SPLINE
5
1AE
100
AcDbEntity
8
1
62
256
6
ByLayer
370
18
48
1
60
0
100
AcDbSpline
70
4
71
1
72
4
73
2
40
0
40
0
40
1
40
1
41
1
10
14.7892638542783
20
28.5289462246265
30
0
41
1
10
14.9799994406389
20
28.5378609870413
30
0
0
SPLINE
5
1AF
100
AcDbEntity
8
1
62
256
6
ByLayer
370
18
48
1
60
0
100
AcDbSpline
70
4
71
2
72
10
73
7
40
0
40
0
40
0
40
0.5
40
0.5
40
0.75
40
0.75
40
1
40
1
40
1
41
1
10
14.5722669175847
20
28.348945442956
30
0
41
1
10
14.592141351111
20
28.4169715734478
30
0
41
1
10
14.6435444743128
20
28.4642407077396
30
0
41
1
10
14.6718746642102
20
28.490292501237
30
0
41
1
10
14.7076676445986
20
28.506930841546
30
0
41
1
10
14.7461783477791
20
28.5248325132734
30
0
41
1
10
14.7892638543507
20
28.528946224586
30
0
0
SPLINE
5
1B0
100
AcDbEntity
8
1
62
256
6
ByLayer
370
18
48
1
60
0
100
AcDbSpline
70
4
71
3
72
11
73
7
40
0
40
0
40
0
40
0
40
0.208536154208159
40
0.500000000002575
40
0.791463924847054
40
1
40
1
40
1
40
1
41
1
10
14.5722669176207
20
28.3489454428153
30
0
41
1
10
14.568967430746
20
28.337898526491
30
0
41
1
10
14.5610563639882
20
28.3114117132899
30
0
41
1
10
14.5470405374202
20
28.2695320502044
30
0
41
1
10
14.5318184176465
20
28.2276523912934
30
0
41
1
10
14.5213007258847
20
28.2011655780925
30
0
41
1
10
14.5169140895653
20
28.190118665956
30
0
0
SPLINE
5
1B1
100
AcDbEntity
8
1
62
256
6
ByLayer
370
18
48
1
60
0
100
AcDbSpline
70
4
71
3
72
11
73
7
40
0
40
0
40
0
40
0
40
0.20922445878086
40
0.499999998464144
40
0.790774720618355
40
1
40
1
40
1
40
1
41
1
10
14.5169140894997
20
28.1901186659157
30
0
41
1
10
14.5154537641764
20
28.1872459569721
30
0
41
1
10
14.5119639109172
20
28.1803808204781
30
-1E-16
41
1
10
14.504414556415
20
28.1698206702122
30
-1E-16
41
1
10
14.4953843353212
20
28.159260507851
30
-1E-16
41
1
10
14.4888472995728
20
28.1523953721267
30
-1E-16
41
1
10
14.4861118733196
20
28.1495226522557
30
-1E-16
0
SPLINE
5
1B2
100
AcDbEntity
8
1
62
256
6
ByLayer
370
18
48
1
60
0
100
AcDbSpline
70
4
71
1
72
4
73
2
40
0
40
0
40
1
40
1
41
1
10
14.3500656083024
20
28.0579588286097
30
-1E-16
41
1
10
14.3943345549443
20
28.0776914033065
30
-1E-16
0
SPLINE
5
1B3
100
AcDbEntity
8
1
62
256
6
ByLayer
370
18
48
1
60
0
100
AcDbSpline
70
4
71
1
72
4
73
2
40
0
40
0
40
1
40
1
41
1
10
13.1412857866101
20
27.8461536948976
30
-2E-16
41
1
10
13.158650414121
20
27.8476740066186
30
-2E-16
0
SPLINE
5
1B4
100
AcDbEntity
8
1
62
256
6
ByLayer
370
18
48
1
60
0
100
AcDbSpline
70
4
71
2
72
6
73
3
40
0
40
0
40
0
40
1
40
1
40
1
41
1
10
12.8915516908727
20
30.4475761600458
30
0
41
1
10
12.8999241065482
20
30.4186280271188
30
0
41
1
10
12.8999994413627
20
30.3885423218758
30
0
0
SPLINE
5
1B5
100
AcDbEntity
8
1
62
256
6
ByLayer
370
18
48
1
60
0
100
AcDbSpline
70
4
71
3
72
8
73
4
40
0
40
0
40
0
40
0
40
1
40
1
40
1
40
1
41
1
10
17.1084471917714
20
30.4475761600462
30
0
41
1
10
17.1028531266446
20
30.4284234488602
30
0
41
1
10
17.0999994415245
20
30.4084799101395
30
0
41
1
10
17.0999994412834
20
30.3885423218758
30
0
0
SPLINE
5
1B6
100
AcDbEntity
8
1
62
256
6
ByLayer
370
18
48
1
60
0
100
AcDbSpline
70
4
71
5
72
12
73
6
40
0
40
0
40
0
40
0
40
0
40
0
40
1
40
1
40
1
40
1
40
1
40
1
41
1
10
11.9749994439427
20
32.9749951730158
30
0
41
1
10
11.9750004854727
20
32.6582206872458
30
0
41
1
10
12.0164635014727
20
32.3414454977158
30
0
41
1
10
12.0994031847127
20
32.0319097628958
30
0
41
1
10
12.2218824045127
20
31.7368427479158
30
0
41
1
10
12.3802684148427
20
31.4625072848558
30
0
0
SPLINE
5
1B7
100
AcDbEntity
8
1
62
256
6
ByLayer
370
18
48
1
60
0
100
AcDbSpline
70
4
71
3
72
8
73
4
40
0
40
0
40
0
40
0
40
1
40
1
40
1
40
1
41
1
10
12.4846027542715
20
31.2947009816123
30
0
41
1
10
12.4480219886425
20
31.3494835469446
30
0
41
1
10
12.4132315262298
20
31.4054610863007
30
0
41
1
10
12.3803055168008
20
31.4625141973461
30
0
0
SPLINE
5
1B8
100
AcDbEntity
8
1
62
256
6
ByLayer
370
18
48
1
60
0
100
AcDbSpline
70
4
71
2
72
6
73
3
40
0
40
0
40
0
40
1
40
1
40
1
41
1
10
17.5153995594327
20
31.2946986896458
30
0
41
1
10
17.5575621176819
20
31.3578622459113
30
0
41
1
10
17.6176485857227
20
31.4636947554758
30
0
0
SPLINE
5
1B9
100
AcDbEntity
8
1
62
256
6
ByLayer
370
18
48
1
60
0
100
AcDbSpline
70
4
71
5
72
12
73
6
40
0
40
0
40
0
40
0
40
0
40
0
40
1
40
1
40
1
40
1
40
1
40
1
41
1
10
18.0249994387027
20
32.9749951730158
30
0
41
1
10
18.0249983971726
20
32.6582206872458
30
0
41
1
10
17.9835353811727
20
32.3414454977158
30
0
41
1
10
17.9005956979327
20
32.0319097628958
30
0
41
1
10
17.7781164781327
20
31.7368427479158
30
0
41
1
10
17.6197304678026
20
31.4625072848558
30
0
0
SPLINE
5
1BA
100
AcDbEntity
8
1
62
256
6
ByLayer
370
18
48
1
60
0
100
AcDbSpline
70
4
71
3
72
14
73
10
40
0
40
0
40
0
40
0
40
0.25
40
0.25
40
0.5
40
0.5
40
0.75
40
0.75
40
1
40
1
40
1
40
1
41
1
10
14.9999994548558
20
36.0000000270663
30
0
41
1
10
15.3959710271755
20
36.0000000253069
30
0
41
1
10
15.7917868012456
20
35.9212673711571
30
0
41
1
10
16.5234468626603
20
35.6182038482992
30
0
41
1
10
16.859003273019
20
35.3939922221438
30
0
41
1
10
17.4189916403086
20
34.834003853629
30
0
41
1
10
17.6432032657333
20
34.4984474427762
30
0
41
1
10
17.9462667869977
20
33.7667873806809
30
0
41
1
10
18.0249994402852
20
33.3709716064245
30
0
41
1
10
18.0249994411782
20
32.9750000340858
30
0
0
SPLINE
5
1BB
100
AcDbEntity
8
1
62
256
6
ByLayer
370
18
48
1
60
0
100
AcDbSpline
70
4
71
2
72
13
73
10
40
0
40
0
40
0
40
0.125
40
0.25
40
0.375
40
0.5
40
0.625
40
0.75
40
0.875
40
1
40
1
40
1
41
1
10
14.9999994277895
20
36.0000000136558
30
0
41
1
10
14.7018640841011
20
35.9998582807879
30
0
41
1
10
14.1181032194173
20
35.8839169900726
30
0
41
1
10
13.5676187713815
20
35.6560146577919
30
0
41
1
10
13.0721294480451
20
35.3250098382989
30
0
41
1
10
12.650673810136
20
34.9037035978535
30
0
41
1
10
12.3194931666364
20
34.4083316114396
30
0
41
1
10
12.0913953492975
20
33.8579279694068
30
0
41
1
10
11.9751414400837
20
33.2736777801974
30
0
41
1
10
11.9749994481827
20
32.9750000340858
30
0
0
SPLINE
5
1BC
100
AcDbEntity
8
1
62
256
6
ByLayer
370
18
48
1
60
0
100
AcDbSpline
70
4
71
3
72
15
73
11
40
0
40
0
40
0
40
0
40
0.09924848859971
40
0.206019831265794
40
0.32012866856771
40
0.4414494315308
40
0.569942335952459
40
0.705683547505785
40
0.848898924957248
40
1
40
1
40
1
40
1
41
1
10
17.5153998252021
20
31.2946983865495
30
0
41
1
10
17.4982333531837
20
31.2686297112175
30
0
41
1
10
17.4625992219385
20
31.214516402602
30
0
41
1
10
17.4098904918272
20
31.1287224161234
30
0
41
1
10
17.3560888950942
20
31.035503442918
30
0
41
1
10
17.3022553547059
20
30.9344813865952
30
0
41
1
10
17.2492505276307
20
30.8253912397202
30
0
41
1
10
17.1982791935389
20
30.7077976500294
30
0
41
1
10
17.1498602245162
20
30.581424575103
30
0
41
1
10
17.1224924241174
20
30.4929832274302
30
0
41
1
10
17.1084418876055
20
30.4475777375286
30
0
0
SPLINE
5
1BD
100
AcDbEntity
8
1
62
256
6
ByLayer
370
18
48
1
60
0
100
AcDbSpline
70
4
71
2
72
8
73
5
40
0
40
0
40
0
40
0.5
40
0.5
40
1
40
1
40
1
41
1
10
12.4845990574427
20
31.2946983865458
30
0
41
1
10
12.6227073959364
20
31.0878910510222
30
0
41
1
10
12.7208721182887
20
30.8864608866191
30
0
41
1
10
12.8264340364881
20
30.6698519661428
30
0
41
1
10
12.891525108876
20
30.4475683819468
30
0
0
SPLINE
5
1BE
100
AcDbEntity
8
1
62
256
6
ByLayer
370
18
48
1
60
0
100
AcDbSpline
70
4
71
5
72
12
73
6
40
0
40
0
40
0
40
0
40
0
40
0
40
1
40
1
40
1
40
1
40
1
40
1
41
1
10
18.0249994387027
20
13.2250048816958
30
0
41
1
10
18.0249986132904
20
13.4760485826137
30
0
41
1
10
17.9989573520754
20
13.7270927255323
30
0
41
1
10
17.9468683419649
20
13.9745336366342
30
0
41
1
10
17.8694941747384
20
14.2147719390256
30
0
41
1
10
17.7682872551604
20
14.4445112590552
30
0
0
SPLINE
5
1BF
100
AcDbEntity
8
1
62
256
6
ByLayer
370
18
48
1
60
0
100
AcDbSpline
70
4
71
2
72
8
73
5
40
0
40
0
40
0
40
0.0736448854744134
40
0.536822442737207
40
1
40
1
40
1
41
1
10
17.7571351410078
20
11.9804097959107
30
0
41
1
10
17.776591996755
20
12.0235261589179
30
0
41
1
10
17.9086035333479
20
12.3420720853048
30
0
41
1
10
18.0248574425617
20
12.9263222745142
30
0
41
1
10
18.0249994344627
20
13.2250000206258
30
0
0
LINE
5
70
100
AcDbEntity
8
1
62
256
6
ByLayer
370
18
48
1
60
0
100
AcDbLine
10
-0.249981
20
-3.230673
30
0
11
0.342769
21
-3.572898
31
0
39
0
210
0
220
0
230
1
0
LINE
5
72
100
AcDbEntity
8
1
62
256
6
ByLayer
370
18
48
1
60
0
100
AcDbLine
10
-0.04697
20
10.152118
30
0
11
0.5
21
10.61352
31
0
39
0
210
0
220
0
230
1
0
LINE
5
73
100
AcDbEntity
8
1
62
256
6
ByLayer
370
18
48
1
60
0
100
AcDbLine
10
0.5
20
5.552168
30
0
11
0.5
21
10.61352
31
0
39
0
210
0
220
0
230
1
0
LINE
5
74
100
AcDbEntity
8
1
62
256
6
ByLayer
370
18
48
1
60
0
100
AcDbLine
10
0.126149
20
5.552168
30
0
11
0.5
21
5.552168
31
0
39
0
210
0
220
0
230
1
0
LINE
5
75
100
AcDbEntity
8
1
62
256
6
ByLayer
370
18
48
1
60
0
100
AcDbLine
10
-0.324981
20
6.10077
30
0
11
-0.324981
21
5.89923
31
0
39
0
210
0
220
0
230
1
0
LINE
5
76
100
AcDbEntity
8
1
62
256
6
ByLayer
370
18
48
1
60
0
100
AcDbLine
10
-0.324981
20
7.60077
30
0
11
-0.324981
21
7.39923
31
0
39
0
210
0
220
0
230
1
0
LINE
5
77
100
AcDbEntity
8
1
62
256
6
ByLayer
370
18
48
1
60
0
100
AcDbLine
10
-0.324981
20
9.10077
30
0
11
-0.324981
21
8.89923
31
0
39
0
210
0
220
0
230
1
0
LINE
5
78
100
AcDbEntity
8
1
62
256
6
ByLayer
370
18
48
1
60
0
100
AcDbLine
10
1.5
20
10.61352
30
0
11
0.5
21
10.61352
31
0
39
0
210
0
220
0
230
1
0
LINE
5
79
100
AcDbEntity
8
1
62
256
6
ByLayer
370
18
48
1
60
0
100
AcDbLine
10
1.5
20
5.552168
30
0
11
0.5
21
5.552168
31
0
39
0
210
0
220
0
230
1
0
LINE
5
7A
100
AcDbEntity
8
1
62
256
6
ByLayer
370
18
48
1
60
0
100
AcDbLine
10
1.5
20
10.26694
30
0
11
6.27
21
10.26694
31
0
39
0
210
0
220
0
230
1
0
LINE
5
7B
100
AcDbEntity
8
1
62
256
6
ByLayer
370
18
48
1
60
0
100
AcDbLine
10
6.27
20
10.26694
30
0
11
6.27
21
11.186207
31
0
39
0
210
0
220
0
230
1
0
LINE
5
7C
100
AcDbEntity
8
1
62
256
6
ByLayer
370
18
48
1
60
0
100
AcDbLine
10
14.664632
20
11.186207
30
0
11
6.27
21
11.186207
31
0
39
0
210
0
220
0
230
1
0
LINE
5
7D
100
AcDbEntity
8
1
62
256
6
ByLayer
370
18
48
1
60
0
100
AcDbLine
10
14.02495
20
5.997744
30
0
11
1.5
21
5.997744
31
0
39
0
210
0
220
0
230
1
0
LINE
5
7E
100
AcDbEntity
8
1
62
256
6
ByLayer
370
18
48
1
60
0
100
AcDbLine
10
1.5
20
5.997744
30
0
11
1.5
21
10.26694
31
0
39
0
210
0
220
0
230
1
0
LINE
5
7F
100
AcDbEntity
8
1
62
256
6
ByLayer
370
18
48
1
60
0
100
AcDbLine
10
15.979499
20
19.725999
30
0
11
17.69737
21
19.725999
31
0
39
0
210
0
220
0
230
1
0
LINE
5
80
100
AcDbEntity
8
1
62
256
6
ByLayer
370
18
48
1
60
0
100
AcDbLine
10
17.75
20
19.853813
30
0
11
17.75
21
-13.75
31
0
39
0
210
0
220
0
230
1
0
LINE
5
81
100
AcDbEntity
8
1
62
256
6
ByLayer
370
18
48
1
60
0
100
AcDbLine
10
16.198127
20
-15.301873
30
0
11
17.75
21
-13.75
31
0
39
0
210
0
220
0
230
1
0
LINE
5
82
100
AcDbEntity
8
1
62
256
6
ByLayer
370
18
48
1
60
0
100
AcDbLine
10
14.02495
20
-5.552168
30
0
11
14.02495
21
5.997744
31
0
39
0
210
0
220
0
230
1
0
LINE
5
83
100
AcDbEntity
8
1
62
256
6
ByLayer
370
18
48
1
60
0
100
AcDbLine
10
-0.249981
20
-4.730673
30
0
11
0.342769
21
-5.072898
31
0
39
0
210
0
220
0
230
1
0
LINE
5
84
100
AcDbEntity
8
1
62
256
6
ByLayer
370
18
48
1
60
0
100
AcDbLine
10
-0.324981
20
-4.39923
30
0
11
-0.324981
21
-4.60077
31
0
39
0
210
0
220
0
230
1
0
LINE
5
85
100
AcDbEntity
8
1
62
256
6
ByLayer
370
18
48
1
60
0
100
AcDbLine
10
0.342769
20
-3.927102
30
0
11
-0.249981
21
-4.269327
31
0
39
0
210
0
220
0
230
1
0
LINE
5
86
100
AcDbEntity
8
1
62
256
6
ByLayer
370
18
48
1
60
0
100
AcDbLine
10
-0.324981
20
-2.89923
30
0
11
-0.324981
21
-3.10077
31
0
39
0
210
0
220
0
230
1
0
LINE
5
87
100
AcDbEntity
8
1
62
256
6
ByLayer
370
18
48
1
60
0
100
AcDbLine
10
0.342769
20
-2.427102
30
0
11
-0.249981
21
-2.769327
31
0
39
0
210
0
220
0
230
1
0
LINE
5
88
100
AcDbEntity
8
1
62
256
6
ByLayer
370
18
48
1
60
0
100
AcDbLine
10
-0.249981
20
-1.730673
30
0
11
0.342769
21
-2.072898
31
0
39
0
210
0
220
0
230
1
0
LINE
5
89
100
AcDbEntity
8
1
62
256
6
ByLayer
370
18
48
1
60
0
100
AcDbLine
10
-0.324981
20
-1.39923
30
0
11
-0.324981
21
-1.60077
31
0
39
0
210
0
220
0
230
1
0
LINE
5
8A
100
AcDbEntity
8
1
62
256
6
ByLayer
370
18
48
1
60
0
100
AcDbLine
10
0.342769
20
-0.927102
30
0
11
-0.249981
21
-1.269327
31
0
39
0
210
0
220
0
230
1
0
LINE
5
8B
100
AcDbEntity
8
1
62
256
6
ByLayer
370
18
48
1
60
0
100
AcDbLine
10
-0.249981
20
-0.230673
30
0
11
0.342769
21
-0.572898
31
0
39
0
210
0
220
0
230
1
0
LINE
5
8C
100
AcDbEntity
8
1
62
256
6
ByLayer
370
18
48
1
60
0
100
AcDbLine
10
-0.324981
20
0.10077
30
0
11
-0.324981
21
-0.10077
31
0
39
0
210
0
220
0
230
1
0
LINE
5
8D
100
AcDbEntity
8
1
62
256
6
ByLayer
370
18
48
1
60
0
100
AcDbLine
10
-0.249981
20
0.230673
30
0
11
0.342769
21
0.572898
31
0
39
0
210
0
220
0
230
1
0
LINE
5
8E
100
AcDbEntity
8
1
62
256
6
ByLayer
370
18
48
1
60
0
100
AcDbLine
10
0.342769
20
0.927102
30
0
11
-0.249981
21
1.269327
31
0
39
0
210
0
220
0
230
1
0
LINE
5
8F
100
AcDbEntity
8
1
62
256
6
ByLayer
370
18
48
1
60
0
100
AcDbLine
10
-0.324981
20
1.60077
30
0
11
-0.324981
21
1.39923
31
0
39
0
210
0
220
0
230
1
0
LINE
5
90
100
AcDbEntity
8
1
62
256
6
ByLayer
370
18
48
1
60
0
100
AcDbLine
10
-0.249981
20
1.730673
30
0
11
0.342769
21
2.072898
31
0
39
0
210
0
220
0
230
1
0
LINE
5
91
100
AcDbEntity
8
1
62
256
6
ByLayer
370
18
48
1
60
0
100
AcDbLine
10
0.342769
20
2.427102
30
0
11
-0.249981
21
2.769327
31
0
39
0
210
0
220
0
230
1
0
LINE
5
92
100
AcDbEntity
8
1
62
256
6
ByLayer
370
18
48
1
60
0
100
AcDbLine
10
-0.324981
20
3.10077
30
0
11
-0.324981
21
2.89923
31
0
39
0
210
0
220
0
230
1
0
LINE
5
93
100
AcDbEntity
8
1
62
256
6
ByLayer
370
18
48
1
60
0
100
AcDbLine
10
-0.249981
20
3.230673
30
0
11
0.342769
21
3.572898
31
0
39
0
210
0
220
0
230
1
0
LINE
5
94
100
AcDbEntity
8
1
62
256
6
ByLayer
370
18
48
1
60
0
100
AcDbLine
10
0.342769
20
3.927102
30
0
11
-0.249981
21
4.269327
31
0
39
0
210
0
220
0
230
1
0
LINE
5
95
100
AcDbEntity
8
1
62
256
6
ByLayer
370
18
48
1
60
0
100
AcDbLine
10
-0.324981
20
4.60077
30
0
11
-0.324981
21
4.39923
31
0
39
0
210
0
220
0
230
1
0
LINE
5
96
100
AcDbEntity
8
1
62
256
6
ByLayer
370
18
48
1
60
0
100
AcDbLine
10
-0.249981
20
4.730673
30
0
11
0.342769
21
5.072898
31
0
39
0
210
0
220
0
230
1
0
LINE
5
97
100
AcDbEntity
8
1
62
256
6
ByLayer
370
18
48
1
60
0
100
AcDbLine
10
0.342769
20
5.427102
30
0
11
0.126149
21
5.552168
31
0
39
0
210
0
220
0
230
1
0
LINE
5
98
100
AcDbEntity
8
1
62
256
6
ByLayer
370
18
48
1
60
0
100
AcDbLine
10
0.5
20
-5.552168
30
0
11
0.5
21
5.552168
31
0
39
0
210
0
220
0
230
1
0
LINE
5
99
100
AcDbEntity
8
1
62
256
6
ByLayer
370
18
48
1
60
0
100
AcDbLine
10
0.126149
20
-5.552168
30
0
11
0.5
21
-5.552168
31
0
39
0
210
0
220
0
230
1
0
LINE
5
9A
100
AcDbEntity
8
1
62
256
6
ByLayer
370
18
48
1
60
0
100
AcDbLine
10
0.342769
20
-5.427102
30
0
11
0.126149
21
-5.552168
31
0
39
0
210
0
220
0
230
1
0
LINE
5
9B
100
AcDbEntity
8
1
62
256
6
ByLayer
370
18
48
1
60
0
100
AcDbLine
10
0.5
20
-10.61352
30
0
11
0.5
21
-5.552168
31
0
39
0
210
0
220
0
230
1
0
LINE
5
9C
100
AcDbEntity
8
1
62
256
6
ByLayer
370
18
48
1
60
0
100
AcDbLine
10
-0.04697
20
-10.152118
30
0
11
0.5
21
-10.61352
31
0
39
0
210
0
220
0
230
1
0
LINE
5
9D
100
AcDbEntity
8
1
62
256
6
ByLayer
370
18
48
1
60
0
100
AcDbLine
10
-0.324981
20
-8.89923
30
0
11
-0.324981
21
-9.10077
31
0
39
0
210
0
220
0
230
1
0
LINE
5
9E
100
AcDbEntity
8
1
62
256
6
ByLayer
370
18
48
1
60
0
100
AcDbLine
10
-0.324981
20
-7.39923
30
0
11
-0.324981
21
-7.60077
31
0
39
0
210
0
220
0
230
1
0
LINE
5
9F
100
AcDbEntity
8
1
62
256
6
ByLayer
370
18
48
1
60
0
100
AcDbLine
10
-0.324981
20
-5.89923
30
0
11
-0.324981
21
-6.10077
31
0
39
0
210
0
220
0
230
1
0
LINE
5
A0
100
AcDbEntity
8
1
62
256
6
ByLayer
370
18
48
1
60
0
100
AcDbLine
10
14.02495
20
-5.552168
30
0
11
0.5
21
-5.552168
31
0
39
0
210
0
220
0
230
1
0
LINE
5
A1
100
AcDbEntity
8
1
62
256
6
ByLayer
370
18
48
1
60
0
100
AcDbLine
10
1.5
20
5.997744
30
0
11
1.5
21
5.552168
31
0
39
0
210
0
220
0
230
1
0
LINE
5
A2
100
AcDbEntity
8
1
62
256
6
ByLayer
370
18
48
1
60
0
100
AcDbLine
10
14.621819
20
-10.61352
30
0
11
0.5
21
-10.61352
31
0
39
0
210
0
220
0
230
1
0
LINE
5
A3
100
AcDbEntity
8
1
62
256
6
ByLayer
370
18
48
1
60
0
100
AcDbLine
10
6.27
20
11.132881
30
0
11
1.5
21
11.132881
31
0
39
0
210
0
220
0
230
1
0
LINE
5
A4
100
AcDbEntity
8
1
62
256
6
ByLayer
370
18
48
1
60
0
100
AcDbLine
10
1.5
20
10.26694
30
0
11
1.5
21
11.132881
31
0
39
0
210
0
220
0
230
1
0
LINE
5
A5
100
AcDbEntity
8
1
62
256
6
ByLayer
370
18
48
1
60
0
100
AcDbLine
10
0.5
20
10.61352
30
0
11
0.5
21
11.024133
31
0
39
0
210
0
220
0
230
1
0
LINE
5
A6
100
AcDbEntity
8
1
62
256
6
ByLayer
370
18
48
1
60
0
100
AcDbLine
10
1.5
20
11.024133
30
0
11
0.5
21
11.024133
31
0
39
0
210
0
220
0
230
1
0
LINE
5
A7
100
AcDbEntity
8
1
62
256
6
ByLayer
370
18
48
1
60
0
100
AcDbLine
10
-0.324981
20
10.60077
30
0
11
-0.324981
21
10.39923
31
0
39
0
210
0
220
0
230
1
0
LINE
5
A8
100
AcDbEntity
8
1
62
256
6
ByLayer
370
18
48
1
60
0
100
AcDbLine
10
-0.237236
20
-19.262764
30
0
11
0.5
21
-20
31
0
39
0
210
0
220
0
230
1
0
LINE
5
A9
100
AcDbEntity
8
1
62
256
6
ByLayer
370
18
48
1
60
0
100
AcDbLine
10
-0.324981
20
-17.89923
30
0
11
-0.324981
21
-18.10077
31
0
39
0
210
0
220
0
230
1
0
LINE
5
AA
100
AcDbEntity
8
1
62
256
6
ByLayer
370
18
48
1
60
0
100
AcDbLine
10
-0.324981
20
-16.39923
30
0
11
-0.324981
21
-16.60077
31
0
39
0
210
0
220
0
230
1
0
LINE
5
AB
100
AcDbEntity
8
1
62
256
6
ByLayer
370
18
48
1
60
0
100
AcDbLine
10
-0.324981
20
-14.89923
30
0
11
-0.324981
21
-15.10077
31
0
39
0
210
0
220
0
230
1
0
LINE
5
AC
100
AcDbEntity
8
1
62
256
6
ByLayer
370
18
48
1
60
0
100
AcDbLine
10
-0.324981
20
-13.39923
30
0
11
-0.324981
21
-13.60077
31
0
39
0
210
0
220
0
230
1
0
LINE
5
AD
100
AcDbEntity
8
1
62
256
6
ByLayer
370
18
48
1
60
0
100
AcDbLine
10
-0.324981
20
-11.89923
30
0
11
-0.324981
21
-12.10077
31
0
39
0
210
0
220
0
230
1
0
LINE
5
AE
100
AcDbEntity
8
1
62
256
6
ByLayer
370
18
48
1
60
0
100
AcDbLine
10
-0.324981
20
-10.39923
30
0
11
-0.324981
21
-10.60077
31
0
39
0
210
0
220
0
230
1
0
LINE
5
AF
100
AcDbEntity
8
1
62
256
6
ByLayer
370
18
48
1
60
0
100
AcDbLine
10
0.5
20
-20
30
0
11
0.5
21
-10.61352
31
0
39
0
210
0
220
0
230
1
0
LINE
5
B0
100
AcDbEntity
8
1
62
256
6
ByLayer
370
18
48
1
60
0
100
AcDbLine
10
16.198127
20
-15.301873
30
0
11
11.5
21
-20
31
0
39
0
210
0
220
0
230
1
0
LINE
5
B1
100
AcDbEntity
8
1
62
256
6
ByLayer
370
18
48
1
60
0
100
AcDbLine
10
0.5
20
-20
30
0
11
11.5
21
-20
31
0
39
0
210
0
220
0
230
1
0
LINE
5
B2
100
AcDbEntity
8
1
62
256
6
ByLayer
370
18
48
1
60
0
100
AcDbLine
10
6.27
20
12.552523
30
0
11
15.077663
21
12.552523
31
0
39
0
210
0
220
0
230
1
0
LINE
5
B3
100
AcDbEntity
8
1
62
256
6
ByLayer
370
18
48
1
60
0
100
AcDbLine
10
6.27
20
13.552977
30
0
11
15.24288
21
13.552977
31
0
39
0
210
0
220
0
230
1
0
LINE
5
B4
100
AcDbEntity
8
1
62
256
6
ByLayer
370
18
48
1
60
0
100
AcDbLine
10
6.27
20
13.552977
30
0
11
6.27
21
12.552523
31
0
39
0
210
0
220
0
230
1
0
LINE
5
B5
100
AcDbEntity
8
1
62
256
6
ByLayer
370
18
48
1
60
0
100
AcDbLine
10
0.475019
20
12.328503
30
0
11
0.475019
21
11.013147
31
0
39
0
210
0
220
0
230
1
0
LINE
5
B6
100
AcDbEntity
8
1
62
256
6
ByLayer
370
18
48
1
60
0
100
AcDbLine
10
1.5
20
12.33978
30
0
11
0.5
21
12.33978
31
0
39
0
210
0
220
0
230
1
0
LINE
5
B7
100
AcDbEntity
8
1
62
256
6
ByLayer
370
18
48
1
60
0
100
AcDbLine
10
1.5
20
12.33978
30
0
11
1.5
21
12.452442
31
0
39
0
210
0
220
0
230
1
0
LINE
5
B8
100
AcDbEntity
8
1
62
256
6
ByLayer
370
18
48
1
60
0
100
AcDbLine
10
6.27
20
12.452442
30
0
11
1.5
21
12.452442
31
0
39
0
210
0
220
0
230
1
0
LINE
5
B9
100
AcDbEntity
8
1
62
256
6
ByLayer
370
18
48
1
60
0
100
AcDbLine
10
17.368357
20
4.277004
30
0
11
17.738692
21
4.277004
31
0
39
0
210
0
220
0
230
1
0
LINE
5
BA
100
AcDbEntity
8
1
62
256
6
ByLayer
370
18
48
1
60
0
100
AcDbLine
10
6.27
20
12.552523
30
0
11
6.27
21
12.452442
31
0
39
0
210
0
220
0
230
1
0
LINE
5
BB
100
AcDbEntity
8
1
62
256
6
ByLayer
370
18
48
1
60
0
100
AcDbLine
10
6.27
20
19.727812
30
0
11
1.5
21
19.727812
31
0
39
0
210
0
220
0
230
1
0
LINE
5
BC
100
AcDbEntity
8
1
62
256
6
ByLayer
370
18
48
1
60
0
100
AcDbLine
10
1.5
20
12.452442
30
0
11
1.5
21
19.727812
31
0
39
0
210
0
220
0
230
1
0
LINE
5
BD
100
AcDbEntity
8
1
62
256
6
ByLayer
370
18
48
1
60
0
100
AcDbLine
10
0.5
20
12.33978
30
0
11
0.5
21
19.994903
31
0
39
0
210
0
220
0
230
1
0
LINE
5
BE
100
AcDbEntity
8
1
62
256
6
ByLayer
370
18
48
1
60
0
100
AcDbLine
10
0.475019
20
19.969874
30
0
11
0.475019
21
12.328503
31
0
39
0
210
0
220
0
230
1
0
LINE
5
BF
100
AcDbEntity
8
1
62
256
6
ByLayer
370
18
48
1
60
0
100
AcDbLine
10
1.5
20
19.994903
30
0
11
0.5
21
19.994903
31
0
39
0
210
0
220
0
230
1
0
LINE
5
C0
100
AcDbEntity
8
1
62
256
6
ByLayer
370
18
48
1
60
0
100
AcDbLine
10
15.979499
20
19.725999
30
0
11
6.27
21
19.725999
31
0
39
0
210
0
220
0
230
1
0
LINE
5
C1
100
AcDbEntity
8
1
62
256
6
ByLayer
370
18
48
1
60
0
100
AcDbLine
10
6.27
20
19.725999
30
0
11
6.27
21
13.552977
31
0
39
0
210
0
220
0
230
1
0
LINE
5
C2
100
AcDbEntity
8
1
62
256
6
ByLayer
370
18
48
1
60
0
100
AcDbLine
10
-0.324981
20
12.10077
30
0
11
-0.324981
21
11.89923
31
0
39
0
210
0
220
0
230
1
0
LINE
5
C3
100
AcDbEntity
8
1
62
256
6
ByLayer
370
18
48
1
60
0
100
AcDbLine
10
1.5
20
19.847095
30
0
11
6.27
21
19.847095
31
0
39
0
210
0
220
0
230
1
0
LINE
5
C4
100
AcDbEntity
8
1
62
256
6
ByLayer
370
18
48
1
60
0
100
AcDbLine
10
6.27
20
19.847095
30
0
11
6.27
21
20.25
31
0
39
0
210
0
220
0
230
1
0
LINE
5
C5
100
AcDbEntity
8
1
62
256
6
ByLayer
370
18
48
1
60
0
100
AcDbLine
10
6.27
20
20.25
30
0
11
12.25
21
20.25
31
0
39
0
210
0
220
0
230
1
0
LINE
5
C6
100
AcDbEntity
8
1
62
256
6
ByLayer
370
18
48
1
60
0
100
AcDbLine
10
12.25
20
20.25
30
0
11
12.25
21
21.858117
31
0
39
0
210
0
220
0
230
1
0
LINE
5
C7
100
AcDbEntity
8
1
62
256
6
ByLayer
370
18
48
1
60
0
100
AcDbLine
10
12.25
20
21.858117
30
0
11
17.75
21
21.858117
31
0
39
0
210
0
220
0
230
1
0
LINE
5
C8
100
AcDbEntity
8
1
62
256
6
ByLayer
370
18
48
1
60
0
100
AcDbLine
10
17.75
20
21.858117
30
0
11
17.75
21
19.853813
31
0
39
0
210
0
220
0
230
1
0
LINE
5
C9
100
AcDbEntity
8
1
62
256
6
ByLayer
370
18
48
1
60
0
100
AcDbLine
10
1.5
20
19.847095
30
0
11
1.5
21
19.727812
31
0
39
0
210
0
220
0
230
1
0
LINE
5
CA
100
AcDbEntity
8
1
62
256
6
ByLayer
370
18
48
1
60
0
100
AcDbLine
10
6.27
20
19.725999
30
0
11
6.27
21
19.727812
31
0
39
0
210
0
220
0
230
1
0
LINE
5
CB
100
AcDbEntity
8
1
62
256
6
ByLayer
370
18
48
1
60
0
100
AcDbLine
10
6.27
20
20.245371
30
0
11
1.5
21
20.245371
31
0
39
0
210
0
220
0
230
1
0
LINE
5
CC
100
AcDbEntity
8
1
62
256
6
ByLayer
370
18
48
1
60
0
100
AcDbLine
10
1.5
20
19.847095
30
0
11
1.5
21
20.245371
31
0
39
0
210
0
220
0
230
1
0
LINE
5
CD
100
AcDbEntity
8
1
62
256
6
ByLayer
370
18
48
1
60
0
100
AcDbLine
10
12.25
20
25.124511
30
0
11
14.420875
21
25.680364
31
0
39
0
210
0
220
0
230
1
0
LINE
5
CE
100
AcDbEntity
8
1
62
256
6
ByLayer
370
18
48
1
60
0
100
AcDbLine
10
14.535781
20
25.820376
30
0
11
14.584046
21
26.012938
31
0
39
0
210
0
220
0
230
1
0
LINE
5
CF
100
AcDbEntity
8
1
62
256
6
ByLayer
370
18
48
1
60
0
100
AcDbLine
10
15.275
20
26.156259
30
0
11
14.725
21
26.156259
31
0
39
0
210
0
220
0
230
1
0
LINE
5
D0
100
AcDbEntity
8
1
62
256
6
ByLayer
370
18
48
1
60
0
100
AcDbLine
10
15.415954
20
26.012938
30
0
11
15.464219
21
25.820376
31
0
39
0
210
0
220
0
230
1
0
LINE
5
D1
100
AcDbEntity
8
1
62
256
6
ByLayer
370
18
48
1
60
0
100
AcDbLine
10
15.579125
20
25.680364
30
0
11
17.75
21
25.124511
31
0
39
0
210
0
220
0
230
1
0
LINE
5
D2
100
AcDbEntity
8
1
62
256
6
ByLayer
370
18
48
1
60
0
100
AcDbLine
10
12.25
20
21.858117
30
0
11
12.25
21
25.124511
31
0
39
0
210
0
220
0
230
1
0
LINE
5
D3
100
AcDbEntity
8
1
62
256
6
ByLayer
370
18
48
1
60
0
100
AcDbLine
10
17.75
20
25.124511
30
0
11
17.75
21
21.858117
31
0
39
0
210
0
220
0
230
1
0
LINE
5
D4
100
AcDbEntity
8
1
62
256
6
ByLayer
370
18
48
1
60
0
100
AcDbLine
10
0.342769
20
12.927102
30
0
11
0.11208
21
13.060291
31
0
39
0
210
0
220
0
230
1
0
LINE
5
D5
100
AcDbEntity
8
1
62
256
6
ByLayer
370
18
48
1
60
0
100
AcDbLine
10
-0.324981
20
13.60077
30
0
11
-0.324981
21
13.496105
31
0
39
0
210
0
220
0
230
1
0
LINE
5
D6
100
AcDbEntity
8
1
62
256
6
ByLayer
370
18
48
1
60
0
100
AcDbLine
10
-0.249981
20
13.730673
30
0
11
0.342769
21
14.072898
31
0
39
0
210
0
220
0
230
1
0
LINE
5
D7
100
AcDbEntity
8
1
62
256
6
ByLayer
370
18
48
1
60
0
100
AcDbLine
10
0.342769
20
14.427102
30
0
11
-0.249981
21
14.769327
31
0
39
0
210
0
220
0
230
1
0
LINE
5
D8
100
AcDbEntity
8
1
62
256
6
ByLayer
370
18
48
1
60
0
100
AcDbLine
10
-0.324981
20
15.10077
30
0
11
-0.324981
21
14.89923
31
0
39
0
210
0
220
0
230
1
0
LINE
5
D9
100
AcDbEntity
8
1
62
256
6
ByLayer
370
18
48
1
60
0
100
AcDbLine
10
-0.249981
20
15.230673
30
0
11
0.342769
21
15.572898
31
0
39
0
210
0
220
0
230
1
0
LINE
5
DA
100
AcDbEntity
8
1
62
256
6
ByLayer
370
18
48
1
60
0
100
AcDbLine
10
0.342769
20
15.927102
30
0
11
-0.249981
21
16.269327
31
0
39
0
210
0
220
0
230
1
0
LINE
5
DB
100
AcDbEntity
8
1
62
256
6
ByLayer
370
18
48
1
60
0
100
AcDbLine
10
-0.324981
20
16.60077
30
0
11
-0.324981
21
16.39923
31
0
39
0
210
0
220
0
230
1
0
LINE
5
DC
100
AcDbEntity
8
1
62
256
6
ByLayer
370
18
48
1
60
0
100
AcDbLine
10
-0.249981
20
16.730673
30
0
11
0.342769
21
17.072898
31
0
39
0
210
0
220
0
230
1
0
LINE
5
DD
100
AcDbEntity
8
1
62
256
6
ByLayer
370
18
48
1
60
0
100
AcDbLine
10
0.342769
20
17.427102
30
0
11
-0.249981
21
17.769327
31
0
39
0
210
0
220
0
230
1
0
LINE
5
DE
100
AcDbEntity
8
1
62
256
6
ByLayer
370
18
48
1
60
0
100
AcDbLine
10
-0.324981
20
18.10077
30
0
11
-0.324981
21
17.89923
31
0
39
0
210
0
220
0
230
1
0
LINE
5
DF
100
AcDbEntity
8
1
62
256
6
ByLayer
370
18
48
1
60
0
100
AcDbLine
10
-0.249981
20
18.230673
30
0
11
0.342769
21
18.572898
31
0
39
0
210
0
220
0
230
1
0
LINE
5
E0
100
AcDbEntity
8
1
62
256
6
ByLayer
370
18
48
1
60
0
100
AcDbLine
10
0.342769
20
18.927102
30
0
11
-0.230861
21
19.258288
31
0
39
0
210
0
220
0
230
1
0
LINE
5
E1
100
AcDbEntity
8
1
62
256
6
ByLayer
370
18
48
1
60
0
100
AcDbLine
10
-0.324981
20
13.496105
30
0
11
-0.324981
21
13.39923
31
0
39
0
210
0
220
0
230
1
0
LINE
5
E2
100
AcDbEntity
8
1
62
256
6
ByLayer
370
18
48
1
60
0
100
AcDbLine
10
12.25
20
28.561973
30
0
11
12.900007
21
28.560042
31
0
39
0
210
0
220
0
230
1
0
LINE
5
E3
100
AcDbEntity
8
1
62
256
6
ByLayer
370
18
48
1
60
0
100
AcDbLine
10
12.25
20
25.641325
30
0
11
12.900007
21
25.637463
31
0
39
0
210
0
220
0
230
1
0
LINE
5
E4
100
AcDbEntity
8
1
62
256
6
ByLayer
370
18
48
1
60
0
100
AcDbLine
10
12.25
20
28.561973
30
0
11
12.25
21
25.641325
31
0
39
0
210
0
220
0
230
1
0
LINE
5
E5
100
AcDbEntity
8
1
62
256
6
ByLayer
370
18
48
1
60
0
100
AcDbLine
10
12.25
20
31.25
30
0
11
12.25
21
28.561973
31
0
39
0
210
0
220
0
230
1
0
LINE
5
E6
100
AcDbEntity
8
1
62
256
6
ByLayer
370
18
48
1
60
0
100
AcDbLine
10
17.099993
20
28.560042
30
0
11
17.75
21
28.561973
31
0
39
0
210
0
220
0
230
1
0
LINE
5
E7
100
AcDbEntity
8
1
62
256
6
ByLayer
370
18
48
1
60
0
100
AcDbLine
10
17.75
20
28.561973
30
0
11
17.75
21
31.25
31
0
39
0
210
0
220
0
230
1
0
LINE
5
E8
100
AcDbEntity
8
1
62
256
6
ByLayer
370
18
48
1
60
0
100
AcDbLine
10
17.099993
20
25.637463
30
0
11
17.75
21
25.641325
31
0
39
0
210
0
220
0
230
1
0
LINE
5
E9
100
AcDbEntity
8
1
62
256
6
ByLayer
370
18
48
1
60
0
100
AcDbLine
10
17.75
20
25.641325
30
0
11
17.75
21
28.561973
31
0
39
0
210
0
220
0
230
1
0
LINE
5
EA
100
AcDbEntity
8
1
62
256
6
ByLayer
370
18
48
1
60
0
100
AcDbLine
10
17.75
20
25.55
30
0
11
17.099993
21
25.55
31
0
39
0
210
0
220
0
230
1
0
LINE
5
EB
100
AcDbEntity
8
1
62
256
6
ByLayer
370
18
48
1
60
0
100
AcDbLine
10
17.75
20
25.55
30
0
11
17.75
21
25.641325
31
0
39
0
210
0
220
0
230
1
0
LINE
5
EC
100
AcDbEntity
8
1
62
256
6
ByLayer
370
18
48
1
60
0
100
AcDbLine
10
12.900007
20
25.55
30
0
11
12.25
21
25.55
31
0
39
0
210
0
220
0
230
1
0
LINE
5
ED
100
AcDbEntity
8
1
62
256
6
ByLayer
370
18
48
1
60
0
100
AcDbLine
10
12.25
20
25.641325
30
0
11
12.25
21
25.55
31
0
39
0
210
0
220
0
230
1
0
LINE
5
EE
100
AcDbEntity
8
1
62
256
6
ByLayer
370
18
48
1
60
0
100
AcDbLine
10
12.25
20
25.55
30
0
11
12.25
21
25.124487
31
0
39
0
210
0
220
0
230
1
0
LINE
5
EF
100
AcDbEntity
8
1
62
256
6
ByLayer
370
18
48
1
60
0
100
AcDbLine
10
17.75
20
25.124487
30
0
11
17.75
21
25.55
31
0
39
0
210
0
220
0
230
1
0
LINE
5
F0
100
AcDbEntity
8
SK1
62
256
6
ByLayer
370
18
48
1
60
0
100
AcDbLine
10
-6.824981
20
5.9325
30
0
11
-7.824981
21
5.664551
31
0
39
0
210
0
220
0
230
1
0
LINE
5
F2
100
AcDbEntity
8
SK1
62
256
6
ByLayer
370
18
48
1
60
0
100
AcDbLine
10
-6.824981
20
-5.9325
30
0
11
-6.824981
21
5.9325
31
0
39
0
210
0
220
0
230
1
0
LINE
5
F3
100
AcDbEntity
8
SK1
62
256
6
ByLayer
370
18
48
1
60
0
100
AcDbLine
10
-7.824981
20
-5.664551
30
0
11
-6.824981
21
-5.9325
31
0
39
0
210
0
220
0
230
1
0
LINE
5
F4
100
AcDbEntity
8
SK1
62
256
6
ByLayer
370
18
48
1
60
0
100
AcDbLine
10
-7.824981
20
-5.664551
30
0
11
-7.824981
21
5.664551
31
0
39
0
210
0
220
0
230
1
0
LINE
5
F5
100
AcDbEntity
8
1
62
256
6
ByLayer
370
18
48
1
60
0
100
AcDbLine
10
17.099999
20
27.846355
30
0
11
16.858713
21
27.846355
31
0
39
0
210
0
220
0
230
1
0
LINE
5
F6
100
AcDbEntity
8
SK1
62
256
6
ByLayer
370
18
48
1
60
0
100
AcDbLine
10
-6.824981
20
-5.9325
30
0
11
-0.325106
21
-5.9325
31
0
39
0
210
0
220
0
230
1
0
LINE
5
F7
100
AcDbEntity
8
SK1
62
256
6
ByLayer
370
18
48
1
60
0
100
AcDbLine
10
-0.325106
20
5.9325
30
0
11
-6.824981
21
5.9325
31
0
39
0
210
0
220
0
230
1
0
LINE
5
F8
100
AcDbEntity
8
1
62
256
6
ByLayer
370
18
48
1
60
0
100
AcDbLine
10
17.099999
20
25.290888
30
0
11
17.099999
21
27.846355
31
0
39
0
210
0
220
0
230
1
0
LINE
5
F9
100
AcDbEntity
8
1
62
256
6
ByLayer
370
18
48
1
60
0
100
AcDbLine
10
16.858748
20
25.352643
30
0
11
16.858748
21
27.846154
31
0
39
0
210
0
220
0
230
1
0
LINE
5
FA
100
AcDbEntity
8
1
62
256
6
ByLayer
370
18
48
1
60
0
100
AcDbLine
10
16.841383
20
25.357021
30
0
11
16.841383
21
27.847874
31
0
39
0
210
0
220
0
230
1
0
LINE
5
FB
100
AcDbEntity
8
1
62
256
6
ByLayer
370
18
48
1
60
0
100
AcDbLine
10
12.899999
20
29.010331
30
0
11
14.999999
21
29.010331
31
0
39
0
210
0
220
0
230
1
0
LINE
5
FC
100
AcDbEntity
8
1
62
256
6
ByLayer
370
18
48
1
60
0
100
AcDbLine
10
17.099999
20
29.010331
30
0
11
14.999999
21
29.010331
31
0
39
0
210
0
220
0
230
1
0
LINE
5
FD
100
AcDbEntity
8
1
62
256
6
ByLayer
370
18
48
1
60
0
100
AcDbLine
10
17.099999
20
29.010331
30
0
11
17.099999
21
27.846355
31
0
39
0
210
0
220
0
230
1
0
LINE
5
FE
100
AcDbEntity
8
1
62
256
6
ByLayer
370
18
48
1
60
0
100
AcDbLine
10
16.841383
20
27.847874
30
0
11
15.649933
21
28.057959
31
0
39
0
210
0
220
0
230
1
0
LINE
5
FF
100
AcDbEntity
8
1
62
256
6
ByLayer
370
18
48
1
60
0
100
AcDbLine
10
15.605664
20
28.077691
30
0
11
15.513887
21
28.149523
31
0
39
0
210
0
220
0
230
1
0
LINE
5
100
100
AcDbEntity
8
1
62
256
6
ByLayer
370
18
48
1
60
0
100
AcDbLine
10
14.979999
20
28.537861
30
0
11
15.019999
21
28.537861
31
0
39
0
210
0
220
0
230
1
0
LINE
5
101
100
AcDbEntity
8
1
62
256
6
ByLayer
370
18
48
1
60
0
100
AcDbLine
10
14.394335
20
28.077691
30
0
11
14.486112
21
28.149523
31
0
39
0
210
0
220
0
230
1
0
LINE
5
102
100
AcDbEntity
8
1
62
256
6
ByLayer
370
18
48
1
60
0
100
AcDbLine
10
13.158615
20
27.847874
30
0
11
14.350066
21
28.057959
31
0
39
0
210
0
220
0
230
1
0
LINE
5
103
100
AcDbEntity
8
1
62
256
6
ByLayer
370
18
48
1
60
0
100
AcDbLine
10
12.899999
20
27.846355
30
0
11
13.141286
21
27.846355
31
0
39
0
210
0
220
0
230
1
0
LINE
5
104
100
AcDbEntity
8
1
62
256
6
ByLayer
370
18
48
1
60
0
100
AcDbLine
10
12.899999
20
29.010331
30
0
11
12.899999
21
27.846355
31
0
39
0
210
0
220
0
230
1
0
LINE
5
105
100
AcDbEntity
8
1
62
256
6
ByLayer
370
18
48
1
60
0
100
AcDbLine
10
13.158615
20
25.357021
30
0
11
13.158615
21
27.847874
31
0
39
0
210
0
220
0
230
1
0
LINE
5
106
100
AcDbEntity
8
1
62
256
6
ByLayer
370
18
48
1
60
0
100
AcDbLine
10
13.141251
20
25.352643
30
0
11
13.141251
21
27.846154
31
0
39
0
210
0
220
0
230
1
0
LINE
5
107
100
AcDbEntity
8
1
62
256
6
ByLayer
370
18
48
1
60
0
100
AcDbLine
10
12.899999
20
25.290888
30
0
11
12.899999
21
27.846355
31
0
39
0
210
0
220
0
230
1
0
LINE
5
108
100
AcDbEntity
8
1
62
256
6
ByLayer
370
18
48
1
60
0
100
AcDbLine
10
15.649933
20
25.66218
30
0
11
15.649933
21
28.057959
31
0
39
0
210
0
220
0
230
1
0
LINE
5
109
100
AcDbEntity
8
1
62
256
6
ByLayer
370
18
48
1
60
0
100
AcDbLine
10
14.350066
20
25.66218
30
0
11
14.350066
21
28.057959
31
0
39
0
210
0
220
0
230
1
0
LINE
5
10A
100
AcDbEntity
8
1
62
256
6
ByLayer
370
18
48
1
60
0
100
AcDbLine
10
15.605664
20
25.673466
30
0
11
15.605664
21
28.077691
31
0
39
0
210
0
220
0
230
1
0
LINE
5
10B
100
AcDbEntity
8
1
62
256
6
ByLayer
370
18
48
1
60
0
100
AcDbLine
10
14.394335
20
25.673466
30
0
11
14.394335
21
28.077691
31
0
39
0
210
0
220
0
230
1
0
LINE
5
10C
100
AcDbEntity
8
1
62
256
6
ByLayer
370
18
48
1
60
0
100
AcDbLine
10
15.513887
20
25.721965
30
0
11
15.513887
21
28.149523
31
0
39
0
210
0
220
0
230
1
0
LINE
5
10D
100
AcDbEntity
8
1
62
256
6
ByLayer
370
18
48
1
60
0
100
AcDbLine
10
14.486112
20
25.721965
30
0
11
14.486112
21
28.149523
31
0
39
0
210
0
220
0
230
1
0
LINE
5
10E
100
AcDbEntity
8
1
62
256
6
ByLayer
370
18
48
1
60
0
100
AcDbLine
10
15.483085
20
28.190119
30
0
11
15.483085
21
25.768256
31
0
39
0
210
0
220
0
230
1
0
LINE
5
10F
100
AcDbEntity
8
1
62
256
6
ByLayer
370
18
48
1
60
0
100
AcDbLine
10
14.516914
20
28.190119
30
0
11
14.516914
21
25.768256
31
0
39
0
210
0
220
0
230
1
0
LINE
5
110
100
AcDbEntity
8
1
62
256
6
ByLayer
370
18
48
1
60
0
100
AcDbLine
10
15.427732
20
25.965924
30
0
11
15.427732
21
28.348945
31
0
39
0
210
0
220
0
230
1
0
LINE
5
111
100
AcDbEntity
8
1
62
256
6
ByLayer
370
18
48
1
60
0
100
AcDbLine
10
14.572267
20
25.965924
30
0
11
14.572267
21
28.348945
31
0
39
0
210
0
220
0
230
1
0
LINE
5
112
100
AcDbEntity
8
1
62
256
6
ByLayer
370
18
48
1
60
0
100
AcDbLine
10
15.210735
20
26.156242
30
0
11
15.210735
21
28.528946
31
0
39
0
210
0
220
0
230
1
0
LINE
5
113
100
AcDbEntity
8
1
62
256
6
ByLayer
370
18
48
1
60
0
100
AcDbLine
10
14.789264
20
26.156242
30
0
11
14.789264
21
28.528946
31
0
39
0
210
0
220
0
230
1
0
LINE
5
114
100
AcDbEntity
8
1
62
256
6
ByLayer
370
18
48
1
60
0
100
AcDbLine
10
15.019999
20
26.156248
30
0
11
15.019999
21
28.537861
31
0
39
0
210
0
220
0
230
1
0
LINE
5
115
100
AcDbEntity
8
1
62
256
6
ByLayer
370
18
48
1
60
0
100
AcDbLine
10
14.979999
20
26.156248
30
0
11
14.979999
21
28.537861
31
0
39
0
210
0
220
0
230
1
0
LINE
5
116
100
AcDbEntity
8
1
62
256
6
ByLayer
370
18
48
1
60
0
100
AcDbLine
10
17.099999
20
29.540661
30
0
11
14.999999
21
29.540661
31
0
39
0
210
0
220
0
230
1
0
LINE
5
117
100
AcDbEntity
8
1
62
256
6
ByLayer
370
18
48
1
60
0
100
AcDbLine
10
14.999999
20
29.010331
30
0
11
14.999999
21
29.540661
31
0
39
0
210
0
220
0
230
1
0
LINE
5
118
100
AcDbEntity
8
1
62
256
6
ByLayer
370
18
48
1
60
0
100
AcDbLine
10
17.099999
20
29.010331
30
0
11
17.099999
21
29.540661
31
0
39
0
210
0
220
0
230
1
0
LINE
5
119
100
AcDbEntity
8
1
62
256
6
ByLayer
370
18
48
1
60
0
100
AcDbLine
10
12.899999
20
29.540661
30
0
11
14.999999
21
29.540661
31
0
39
0
210
0
220
0
230
1
0
LINE
5
11A
100
AcDbEntity
8
1
62
256
6
ByLayer
370
18
48
1
60
0
100
AcDbLine
10
12.899999
20
29.010331
30
0
11
12.899999
21
29.540661
31
0
39
0
210
0
220
0
230
1
0
LINE
5
11B
100
AcDbEntity
8
1
62
256
6
ByLayer
370
18
48
1
60
0
100
AcDbLine
10
12.899999
20
29.540661
30
0
11
12.899999
21
30.388543
31
0
39
0
210
0
220
0
230
1
0
LINE
5
11C
100
AcDbEntity
8
1
62
256
6
ByLayer
370
18
48
1
60
0
100
AcDbLine
10
17.099999
20
29.540661
30
0
11
17.099999
21
30.388543
31
0
39
0
210
0
220
0
230
1
0
LINE
5
11D
100
AcDbEntity
8
81
62
256
6
ByLayer
370
18
48
1
60
0
100
AcDbLine
10
14.999999
20
36
30
0
11
14.999999
21
41
31
0
39
0
210
0
220
0
230
1
0
LINE
5
11E
100
AcDbEntity
8
80
62
256
6
ByLayer
370
18
48
1
60
0
100
AcDbLine
10
0
20
0
30
0
11
-10
21
0
31
0
39
0
210
0
220
0
230
1
0
LINE
5
11F
100
AcDbEntity
8
4
62
256
6
ByLayer
370
13
48
0.05
60
0
100
AcDbLine
10
0
20
0
30
0
11
20.2943
21
0
31
0
39
0
210
0
220
0
230
1
0
LINE
5
121
100
AcDbEntity
8
SK4
62
256
6
ByLayer
370
13
48
0.05
60
0
100
AcDbLine
10
-10
20
0
30
0
11
20.2943
21
0
31
0
39
0
210
0
220
0
230
1
0
MTEXT
5
1C0
100
AcDbEntity
8
SK6
62
256
6
ByLayer
370
18
48
1
60
0
100
AcDbMText
10
-20.534483
20
-33.304227
30
0
210
0
220
0
230
1
1
\W0.7460;SL70-R123K15A-HP
40
3.175
41
0
44
1.084337
50
0
71
7
72
5
7
iso_b_vert
0
DIMENSION
5
1D2
100
AcDbEntity
8
2
62
256
6
ByLayer
370
13
48
1
60
0
100
AcDbDimension
2
DimnDraft3D1
10
0
20
51.026245
30
0
11
3.501803
21
51.026245
31
0
70
32
71
5
72
1
41
1
210
0
220
0
230
1
3
Standard
100
AcDbAlignedDimension
13
11.974999
23
34.5625
33
0
14
0
24
1.5875
34
0
50
0
100
AcDbRotatedDimension
1001
ACAD
1000
DSTYLE
1002
{
1070
   279
1070
     0
1070
   172
1070
     1
1070
   173
1070
     1
1070
   340
1005
1C1
1070
   271
1070
     1
1070
   272
1070
     2
1070
    77
1070
     1
1070
    73
1070
     0
1070
   171
1070
     3
1070
   274
1070
     4
1070
   177
1070
     7
1070
   176
1070
     7
1070
   178
1070
     7
1070
    78
1070
     8
1070
    48
1040
-0.005
1070
    41
1041
3.175
1070
   147
1041
1.75006
1070
    42
1041
1.5875
1070
    44
1041
3.175
1070
   140
1041
3.50012
1070
   343
1005
1D3
1070
   344
1005
1D3
1002
}
0
DIMENSION
5
1E8
100
AcDbEntity
8
SK2
62
256
6
ByLayer
370
13
48
1
60
0
100
AcDbDimension
2
DimnDraft3D2
10
8.251878
20
-20.25
30
0
11
8.251878
21
-27.597108
31
0
70
32
71
5
72
1
41
1
210
0
220
0
230
1
3
Standard
100
AcDbAlignedDimension
13
-13.412499
23
-36
33
0
14
-4.6825
24
-20.25
34
0
50
90
100
AcDbRotatedDimension
1001
ACAD
1000
DSTYLE
1002
{
1070
    74
1070
     0
1070
   279
1070
     0
1070
   172
1070
     1
1070
   173
1070
     1
1070
   340
1005
1C1
1070
   271
1070
     2
1070
   272
1070
     2
1070
    77
1070
     1
1070
    73
1070
     0
1070
   171
1070
     3
1070
   274
1070
     4
1070
   177
1070
     7
1070
   176
1070
     7
1070
   178
1070
     7
1070
    78
1070
     8
1070
    48
1040
-0.005
1070
    41
1041
3.175
1070
   147
1041
1.75006
1070
    42
1041
1.5875
1070
    44
1041
3.175
1070
   140
1041
3.50012
1070
   343
1005
0
1070
   344
1005
0
1002
}
0
DIMENSION
5
1F6
100
AcDbEntity
8
SK2
62
256
6
ByLayer
370
13
48
1
60
0
100
AcDbDimension
2
DimnDraft3D3
10
15.35917
20
20
30
0
11
15.35917
21
4.358925
31
0
70
32
71
5
72
1
41
1
210
0
220
0
230
1
3
Standard
100
AcDbAlignedDimension
13
1.0875
23
-19.987257
33
0
14
1.0875
24
20
34
0
50
90
100
AcDbRotatedDimension
1001
ACAD
1000
DSTYLE
1002
{
1070
    74
1070
     0
1070
   279
1070
     0
1070
   172
1070
     1
1070
   173
1070
     1
1070
   340
1005
1C1
1070
   271
1070
     1
1070
   272
1070
     2
1070
    77
1070
     1
1070
    73
1070
     0
1070
   171
1070
     3
1070
   274
1070
     4
1070
   177
1070
     7
1070
   176
1070
     7
1070
   178
1070
     7
1070
    78
1070
     8
1070
    48
1040
-0.005
1070
    41
1041
3.175
1070
   147
1041
1.75006
1070
    42
1041
1.5875
1070
    44
1041
3.175
1070
   140
1041
3.50012
1070
   343
1005
1D3
1070
   344
1005
1D3
1002
}
0
DIMENSION
5
204
100
AcDbEntity
8
2
62
256
6
ByLayer
370
13
48
1
60
0
100
AcDbDimension
2
DimnDraft3D4
10
-33.278029
20
-36
30
0
11
-33.278029
21
-18
31
0
70
32
71
5
72
1
41
1
210
0
220
0
230
1
3
Standard
100
AcDbAlignedDimension
13
-1.5875
23
0
33
0
14
-16.587499
24
-36
34
0
50
90
100
AcDbRotatedDimension
1001
ACAD
1000
DSTYLE
1002
{
1070
    74
1070
     0
1070
   279
1070
     0
1070
   172
1070
     1
1070
   173
1070
     1
1070
   340
1005
1C1
1070
   271
1070
     2
1070
   272
1070
     2
1070
    77
1070
     1
1070
    73
1070
     0
1070
   171
1070
     3
1070
   274
1070
     4
1070
   177
1070
     7
1070
   176
1070
     7
1070
   178
1070
     7
1070
    78
1070
     8
1070
    48
1040
-0.005
1070
    41
1041
3.175
1070
   147
1041
1.75006
1070
    42
1041
1.5875
1070
    44
1041
3.175
1070
   140
1041
3.50012
1070
   343
1005
0
1070
   344
1005
0
1002
}
0
ENDSEC
0
SECTION
2
OBJECTS
0
DICTIONARY
5
26f
330
0
100
AcDbDictionary
280
0
281
1
3
ACAD_GROUP
350
270
3
ACAD_MLINESTYLE
350
271
0
DICTIONARY
5
270
330
0
100
AcDbDictionary
280
0
281
1
0
DICTIONARY
5
271
330
0
100
AcDbDictionary
280
0
281
1
3
Standard
350
18
0
MLINESTYLE
5
18
330
271
100
AcDbMlineStyle
2
Standard
70
0
3

62
256
51
90
52
90
71
2
49
-0.5
62
256
6
ByLayer
49
0.5
62
256
6
ByLayer
0
RASTERVARIABLES
5
25d
330

100
AcDbRasterVariables
90
0
70
1
71
1
72
1
0
ENDSEC
0
EOF
