0
SECTION
2
HEADER
9
$ACADVER
1
AC1015
9
$DWGCODEPAGE
3
ANSI_1252
9
$HANDSEED
5
279
9
$ANGBASE
50
0
9
$ANGDIR
70
0
9
$ATTMODE
70
1
9
$AUNITS
70
0
9
$AUPREC
70
0
9
$CECOLOR
62
256
9
$CELTSCALE
40
1
9
$CELTYPE
6
ByLayer
9
$CELWEIGHT
370
18
9
$CLAYER
8
0
9
$CMLJUST
70
0
9
$CMLSCALE
40
1
9
$CMLSTYLE
2
Standard
9
$DIMSTYLE
2
Standard
9
$TEXTSIZE
40
0.2
9
$TEXTSTYLE
7
Standard
9
$LUNITS
70
2
9
$LUPREC
70
4
9
$EXTNAMES
290
1
9
$INSUNITS
70
4
9
$LTSCALE
40
1
9
$LWDISPLAY
290
1
9
$PDMODE
70
0
9
$PDSIZE
40
0
9
$PLINEGEN
70
0
0
ENDSEC
0
SECTION
2
CLASSES
0
CLASS
1
RASTERVARIABLES
2
AcDbRasterVariables
3
ISM
90
0
280
0
281
0
0
ENDSEC
0
SECTION
2
TABLES
0
TABLE
2
VPORT
5
26f
100
AcDbSymbolTable
0
VPORT
5
1
100
AcDbSymbolTableRecord
100
AcDbViewportTableRecord
2
*Active
70
0
10
0
20
0
11
1
21
1
12
-1
22
1
13
0
23
0
14
0.5
24
0.5
15
10
25
10
16
0
26
0
36
1
17
0
27
0
37
0
0
ENDTAB
0
TABLE
2
LTYPE
5
270
100
AcDbSymbolTable
0
LTYPE
5
14
100
AcDbSymbolTableRecord
100
AcDbLinetypeTableRecord
70
0
2
ByBlock
3

72
65
73
0
40
0
0
LTYPE
5
15
100
AcDbSymbolTableRecord
100
AcDbLinetypeTableRecord
70
0
2
ByLayer
3

72
65
73
0
40
0
0
LTYPE
5
16
100
AcDbSymbolTableRecord
100
AcDbLinetypeTableRecord
70
0
2
CONTINUOUS
3
Solid line
72
65
73
0
40
0
0
LTYPE
5
6A
100
AcDbSymbolTableRecord
100
AcDbLinetypeTableRecord
70
0
2
CENTER
3
____ _ ____ _ ____ _ ____
72
65
73
4
40
47.5
49
22
74
0
49
-8.5
74
0
49
8.5
74
0
49
-8.5
74
0
0
LTYPE
5
6B
100
AcDbSymbolTableRecord
100
AcDbLinetypeTableRecord
70
0
2
DASHED
3
__ __ __ __ __ __ __ __ __
72
65
73
2
40
25.72
49
12.86
74
0
49
-12.86
74
0
0
ENDTAB
0
TABLE
2
LAYER
5
271
100
AcDbSymbolTable
0
LAYER
5
10
100
AcDbSymbolTableRecord
100
AcDbLayerTableRecord
2
0
70
0
62
7
6
CONTINUOUS
290
1
370
-3
390
0
0
LAYER
5
6D
100
AcDbSymbolTableRecord
100
AcDbLayerTableRecord
2
1
70
0
62
4
6
CONTINUOUS
290
1
370
-3
390
0
0
LAYER
5
70
100
AcDbSymbolTableRecord
100
AcDbLayerTableRecord
2
80
70
0
62
-6
6
CONTINUOUS
290
1
370
-3
390
0
0
LAYER
5
72
100
AcDbSymbolTableRecord
100
AcDbLayerTableRecord
2
81
70
0
62
-3
6
CONTINUOUS
290
1
370
-3
390
0
0
LAYER
5
118
100
AcDbSymbolTableRecord
100
AcDbLayerTableRecord
2
4
70
0
62
-2
6
CENTER
290
1
370
-3
390
0
0
LAYER
5
1D9
100
AcDbSymbolTableRecord
100
AcDbLayerTableRecord
2
2
70
0
62
7
6
CONTINUOUS
290
1
370
-3
390
0
0
LAYER
5
25b
100
AcDbSymbolTableRecord
100
AcDbLayerTableRecord
2
SK1
70
0
62
4
6
CONTINUOUS
290
1
370
-3
390
0
0
LAYER
5
25c
100
AcDbSymbolTableRecord
100
AcDbLayerTableRecord
2
SK4
70
0
62
2
6
CENTER
290
1
370
-3
390
0
0
LAYER
5
25d
100
AcDbSymbolTableRecord
100
AcDbLayerTableRecord
2
SK6
70
0
62
5
6
CONTINUOUS
290
1
370
-3
390
0
0
LAYER
5
25e
100
AcDbSymbolTableRecord
100
AcDbLayerTableRecord
2
SK2
70
0
62
7
6
CONTINUOUS
290
1
370
-3
390
0
0
ENDTAB
0
TABLE
2
STYLE
5
272
100
AcDbSymbolTable
0
STYLE
5
11
100
AcDbSymbolTableRecord
100
AcDbTextStyleTableRecord
2
Standard
3
txt
70
0
71
0
40
0
41
1
42
0
50
0
0
STYLE
5
1C5
100
AcDbSymbolTableRecord
100
AcDbTextStyleTableRecord
2
iso_b_vert
3
simplex.shx
70
0
71
0
40
0
41
1
42
0
50
0
0
STYLE
5
1C6
100
AcDbSymbolTableRecord
100
AcDbTextStyleTableRecord
2
DWGDirectTextStyle
3
simplex
70
0
71
0
40
0
41
1
42
0
50
0
0
ENDTAB
0
TABLE
2
DIMSTYLE
5
273
100
AcDbSymbolTable
100
AcDbDimStyleTable
0
DIMSTYLE
105
27
100
AcDbSymbolTableRecord
100
AcDbDimStyleTableRecord
2
Standard
70
0
3
<>
41
0.18
42
0.0625
44
0.18
140
0.18
147
0.09
73
0
74
0
77
1
271
2
275
0
278
52
280
0
340
11
0
ENDTAB
0
TABLE
2
VIEW
5
274
100
AcDbSymbolTable
0
ENDTAB
0
TABLE
2
UCS
5
275
100
AcDbSymbolTable
0
ENDTAB
0
TABLE
2
APPID
5
276
100
AcDbSymbolTable
0
APPID
5
12
100
AcDbSymbolTableRecord
100
AcDbRegAppTableRecord
2
ACAD
70
0
0
ENDTAB
0
TABLE
2
BLOCK_RECORD
5
277
100
AcDbSymbolTable
0
BLOCK_RECORD
5
1F
100
AcDbSymbolTableRecord
100
AcDbBlockTableRecord
2
*Model_Space
340
0
70
0
0
BLOCK_RECORD
5
1B
100
AcDbSymbolTableRecord
100
AcDbBlockTableRecord
2
*Paper_Space
340
0
70
0
0
BLOCK_RECORD
5
23
100
AcDbSymbolTableRecord
100
AcDbBlockTableRecord
2
*Paper_Space0
340
0
70
0
0
BLOCK_RECORD
5
1C8
100
AcDbSymbolTableRecord
100
AcDbBlockTableRecord
2
DimnDraft3D11
340
0
70
0
0
BLOCK_RECORD
5
1D7
100
AcDbSymbolTableRecord
100
AcDbBlockTableRecord
2
DimnDraft3D2
340
0
70
0
0
BLOCK_RECORD
5
1E6
100
AcDbSymbolTableRecord
100
AcDbBlockTableRecord
2
DimnDraft3D3
340
0
70
0
0
BLOCK_RECORD
5
1F4
100
AcDbSymbolTableRecord
100
AcDbBlockTableRecord
2
DimnDraft3D4
340
0
70
0
0
ENDTAB
0
ENDSEC
0
SECTION
2
BLOCKS
0
BLOCK
5
20
100
AcDbEntity
8
0
100
AcDbBlockBegin
2
*Model_Space
70
0
10
0
20
0
30
0
3
*Model_Space
0
ENDBLK
5
21
100
AcDbEntity
8
0
100
AcDbBlockEnd
0
BLOCK
5
1C
100
AcDbEntity
8
0
100
AcDbBlockBegin
2
*Paper_Space
70
0
10
0
20
0
30
0
3
*Paper_Space
0
ENDBLK
5
1D
100
AcDbEntity
8
0
100
AcDbBlockEnd
0
BLOCK
5
24
100
AcDbEntity
8
0
100
AcDbBlockBegin
2
*Paper_Space0
70
0
10
0
20
0
30
0
3
*Paper_Space0
0
ENDBLK
5
25
100
AcDbEntity
8
0
100
AcDbBlockEnd
0
BLOCK
5
1C9
100
AcDbEntity
8
0
100
AcDbBlockBegin
2
DimnDraft3D11
70
0
10
0
20
0
30
0
3
DimnDraft3D11
0
LINE
5
1CB
100
AcDbEntity
8
SK2
62
256
6
ByLayer
370
25
48
1
60
0
100
AcDbLine
10
17.600884
20
56
30
0
11
37.926538
21
56
31
0
39
0
210
0
220
0
230
1
0
LINE
5
1CD
100
AcDbEntity
8
SK2
62
256
6
ByLayer
370
25
48
1
60
0
100
AcDbLine
10
12.482825
20
25.25
30
0
11
37.926538
21
25.25
31
0
39
0
210
0
220
0
230
1
0
LINE
5
1CE
100
AcDbEntity
8
SK2
62
256
6
ByLayer
370
25
48
1
60
0
100
AcDbLine
10
34.751538
20
56
30
0
11
34.751538
21
25.25
31
0
39
0
210
0
220
0
230
1
0
LINE
5
1CF
100
AcDbEntity
8
SK2
62
256
6
ByLayer
370
25
48
1
60
0
100
AcDbLine
10
34.751538
20
56
30
0
11
35.169535
21
52.825002
31
0
39
0
210
0
220
0
230
1
0
LINE
5
1D0
100
AcDbEntity
8
SK2
62
256
6
ByLayer
370
25
48
1
60
0
100
AcDbLine
10
34.751538
20
56
30
0
11
34.333542
21
52.824998
31
0
39
0
210
0
220
0
230
1
0
LINE
5
1D1
100
AcDbEntity
8
SK2
62
256
6
ByLayer
370
25
48
1
60
0
100
AcDbLine
10
35.169535
20
52.825002
30
0
11
34.333542
21
52.824998
31
0
39
0
210
0
220
0
230
1
0
LINE
5
1D2
100
AcDbEntity
8
SK2
62
256
6
ByLayer
370
25
48
1
60
0
100
AcDbLine
10
34.751538
20
25.25
30
0
11
34.333542
21
28.424998
31
0
39
0
210
0
220
0
230
1
0
LINE
5
1D3
100
AcDbEntity
8
SK2
62
256
6
ByLayer
370
25
48
1
60
0
100
AcDbLine
10
34.751538
20
25.25
30
0
11
35.169535
21
28.425002
31
0
39
0
210
0
220
0
230
1
0
LINE
5
1D4
100
AcDbEntity
8
SK2
62
256
6
ByLayer
370
25
48
1
60
0
100
AcDbLine
10
34.333542
20
28.424998
30
0
11
35.169535
21
28.425002
31
0
39
0
210
0
220
0
230
1
0
MTEXT
5
1D5
100
AcDbEntity
8
SK2
62
256
6
ByLayer
370
18
48
1
60
0
100
AcDbMText
10
35.626568
20
45.05081
30
0
210
0
220
0
230
1
1
\W0.7279;30.75
40
3.50012
41
0
44
1.084337
50
270
71
7
72
5
7
iso_b_vert
0
ENDBLK
5
1CA
100
AcDbEntity
8
0
100
AcDbBlockEnd
0
BLOCK
5
1E3
100
AcDbEntity
8
0
100
AcDbBlockBegin
2
DimnDraft3D2
70
0
10
0
20
0
30
0
3
DimnDraft3D2
0
MTEXT
5
1D8
100
AcDbEntity
8
2
62
256
6
ByLayer
370
18
48
1
60
0
100
AcDbMText
10
7.27443
20
84.331404
30
0
210
0
220
0
230
1
1
\W0.5144;16
40
3.50012
41
0
44
1.084337
50
0
71
7
72
5
7
iso_b_vert
0
LINE
5
1DA
100
AcDbEntity
8
2
62
256
6
ByLayer
370
13
48
1
60
0
100
AcDbLine
10
0
20
1.5875
30
0
11
0
21
86.631374
31
0
39
0
210
0
220
0
230
1
0
LINE
5
1DB
100
AcDbEntity
8
2
62
256
6
ByLayer
370
13
48
1
60
0
100
AcDbLine
10
16.013384
20
57.5875
30
0
11
16.013384
21
86.631374
31
0
39
0
210
0
220
0
230
1
0
LINE
5
1DC
100
AcDbEntity
8
2
62
256
6
ByLayer
370
13
48
1
60
0
100
AcDbLine
10
0
20
83.456374
30
0
11
16.013384
21
83.456374
31
0
39
0
210
0
220
0
230
1
0
LINE
5
1DD
100
AcDbEntity
8
2
62
256
6
ByLayer
370
13
48
1
60
0
100
AcDbLine
10
0
20
83.456374
30
0
11
3.174998
21
83.87437
31
0
39
0
210
0
220
0
230
1
0
LINE
5
1DE
100
AcDbEntity
8
2
62
256
6
ByLayer
370
13
48
1
60
0
100
AcDbLine
10
0
20
83.456374
30
0
11
3.175002
21
83.038377
31
0
39
0
210
0
220
0
230
1
0
LINE
5
1DF
100
AcDbEntity
8
2
62
256
6
ByLayer
370
13
48
1
60
0
100
AcDbLine
10
3.174998
20
83.87437
30
0
11
3.175002
21
83.038377
31
0
39
0
210
0
220
0
230
1
0
LINE
5
1E0
100
AcDbEntity
8
2
62
256
6
ByLayer
370
13
48
1
60
0
100
AcDbLine
10
16.013384
20
83.456374
30
0
11
12.838386
21
83.038377
31
0
39
0
210
0
220
0
230
1
0
LINE
5
1E1
100
AcDbEntity
8
2
62
256
6
ByLayer
370
13
48
1
60
0
100
AcDbLine
10
16.013384
20
83.456374
30
0
11
12.838383
21
83.87437
31
0
39
0
210
0
220
0
230
1
0
LINE
5
1E2
100
AcDbEntity
8
2
62
256
6
ByLayer
370
13
48
1
60
0
100
AcDbLine
10
12.838386
20
83.038377
30
0
11
12.838383
21
83.87437
31
0
39
0
210
0
220
0
230
1
0
ENDBLK
5
1E4
100
AcDbEntity
8
0
100
AcDbBlockEnd
0
BLOCK
5
1F1
100
AcDbEntity
8
0
100
AcDbBlockBegin
2
DimnDraft3D3
70
0
10
0
20
0
30
0
3
DimnDraft3D3
0
MTEXT
5
1E7
100
AcDbEntity
8
2
62
256
6
ByLayer
370
18
48
1
60
0
100
AcDbMText
10
-20.884329
20
32.210261
30
0
210
0
220
0
230
1
1
\W0.6562;56
40
3.50012
41
0
44
1.084337
50
270
71
7
72
5
7
iso_b_vert
0
LINE
5
1E8
100
AcDbEntity
8
2
62
256
6
ByLayer
370
13
48
1
60
0
100
AcDbLine
10
-1.5875
20
0
30
0
11
-24.934359
21
0
31
0
39
0
210
0
220
0
230
1
0
LINE
5
1E9
100
AcDbEntity
8
2
62
256
6
ByLayer
370
13
48
1
60
0
100
AcDbLine
10
14.425884
20
56
30
0
11
-24.934359
21
56
31
0
39
0
210
0
220
0
230
1
0
LINE
5
1EA
100
AcDbEntity
8
2
62
256
6
ByLayer
370
13
48
1
60
0
100
AcDbLine
10
-21.759359
20
0
30
0
11
-21.759359
21
56
31
0
39
0
210
0
220
0
230
1
0
LINE
5
1EB
100
AcDbEntity
8
2
62
256
6
ByLayer
370
13
48
1
60
0
100
AcDbLine
10
-21.759359
20
0
30
0
11
-22.177356
21
3.174998
31
0
39
0
210
0
220
0
230
1
0
LINE
5
1EC
100
AcDbEntity
8
2
62
256
6
ByLayer
370
13
48
1
60
0
100
AcDbLine
10
-21.759359
20
0
30
0
11
-21.341362
21
3.175002
31
0
39
0
210
0
220
0
230
1
0
LINE
5
1ED
100
AcDbEntity
8
2
62
256
6
ByLayer
370
13
48
1
60
0
100
AcDbLine
10
-22.177356
20
3.174998
30
0
11
-21.341362
21
3.175002
31
0
39
0
210
0
220
0
230
1
0
LINE
5
1EE
100
AcDbEntity
8
2
62
256
6
ByLayer
370
13
48
1
60
0
100
AcDbLine
10
-21.759359
20
56
30
0
11
-21.341362
21
52.825002
31
0
39
0
210
0
220
0
230
1
0
LINE
5
1EF
100
AcDbEntity
8
2
62
256
6
ByLayer
370
13
48
1
60
0
100
AcDbLine
10
-21.759359
20
56
30
0
11
-22.177356
21
52.824998
31
0
39
0
210
0
220
0
230
1
0
LINE
5
1F0
100
AcDbEntity
8
2
62
256
6
ByLayer
370
13
48
1
60
0
100
AcDbLine
10
-21.341362
20
52.825002
30
0
11
-22.177356
21
52.824998
31
0
39
0
210
0
220
0
230
1
0
ENDBLK
5
1F2
100
AcDbEntity
8
0
100
AcDbBlockEnd
0
BLOCK
5
1FF
100
AcDbEntity
8
0
100
AcDbBlockBegin
2
DimnDraft3D4
70
0
10
0
20
0
30
0
3
DimnDraft3D4
0
MTEXT
5
1F5
100
AcDbEntity
8
SK2
62
256
6
ByLayer
370
18
48
1
60
0
100
AcDbMText
10
37.719771
20
1.353994
30
0
210
0
220
0
230
1
1
\W0.7183;40
40
3.50012
41
0
44
1.084337
50
270
71
7
72
5
7
iso_b_vert
0
LINE
5
1F6
100
AcDbEntity
8
SK2
62
256
6
ByLayer
370
13
48
1
60
0
100
AcDbLine
10
9.6375
20
-20
30
0
11
40.019741
21
-20
31
0
39
0
210
0
220
0
230
1
0
LINE
5
1F7
100
AcDbEntity
8
SK2
62
256
6
ByLayer
370
13
48
1
60
0
100
AcDbLine
10
3.0875
20
20
30
0
11
40.019741
21
20
31
0
39
0
210
0
220
0
230
1
0
LINE
5
1F8
100
AcDbEntity
8
SK2
62
256
6
ByLayer
370
13
48
1
60
0
100
AcDbLine
10
36.844741
20
-20
30
0
11
36.844741
21
20
31
0
39
0
210
0
220
0
230
1
0
LINE
5
1F9
100
AcDbEntity
8
SK2
62
256
6
ByLayer
370
13
48
1
60
0
100
AcDbLine
10
36.844741
20
-20
30
0
11
36.426744
21
-16.825002
31
0
39
0
210
0
220
0
230
1
0
LINE
5
1FA
100
AcDbEntity
8
SK2
62
256
6
ByLayer
370
13
48
1
60
0
100
AcDbLine
10
36.844741
20
-20
30
0
11
37.262738
21
-16.824998
31
0
39
0
210
0
220
0
230
1
0
LINE
5
1FB
100
AcDbEntity
8
SK2
62
256
6
ByLayer
370
13
48
1
60
0
100
AcDbLine
10
36.426744
20
-16.825002
30
0
11
37.262738
21
-16.824998
31
0
39
0
210
0
220
0
230
1
0
LINE
5
1FC
100
AcDbEntity
8
SK2
62
256
6
ByLayer
370
13
48
1
60
0
100
AcDbLine
10
36.844741
20
20
30
0
11
37.262738
21
16.825002
31
0
39
0
210
0
220
0
230
1
0
LINE
5
1FD
100
AcDbEntity
8
SK2
62
256
6
ByLayer
370
13
48
1
60
0
100
AcDbLine
10
36.844741
20
20
30
0
11
36.426744
21
16.824998
31
0
39
0
210
0
220
0
230
1
0
LINE
5
1FE
100
AcDbEntity
8
SK2
62
256
6
ByLayer
370
13
48
1
60
0
100
AcDbLine
10
37.262738
20
16.825002
30
0
11
36.426744
21
16.824998
31
0
39
0
210
0
220
0
230
1
0
ENDBLK
5
200
100
AcDbEntity
8
0
100
AcDbBlockEnd
0
ENDSEC
0
SECTION
2
ENTITIES
0
ARC
5
11B
100
AcDbEntity
8
1
62
256
6
ByLayer
370
18
48
1
60
0
100
AcDbCircle
39
0
10
-14.667299
20
48.55644
30
0
40
0.100000000026211
210
0
220
0
230
-1
100
AcDbArc
50
280.000001
51
308.049181
0
ARC
5
11C
100
AcDbEntity
8
1
62
256
6
ByLayer
370
18
48
1
60
0
100
AcDbCircle
39
0
10
-13.332701
20
48.55644
30
0
40
0.100000000026211
210
0
220
0
230
-1
100
AcDbArc
50
231.950819
51
259.999999
0
ARC
5
11D
100
AcDbEntity
8
1
62
256
6
ByLayer
370
18
48
1
60
0
100
AcDbCircle
39
0
10
-12.40408
20
55.6
30
0
40
0.4
210
0
220
0
230
-1
100
AcDbArc
50
7.963445
51
89.628206
0
ARC
5
11E
100
AcDbEntity
8
1
62
256
6
ByLayer
370
18
48
1
60
0
100
AcDbCircle
39
0
10
-15.59592
20
55.6
30
0
40
0.4
210
0
220
0
230
-1
100
AcDbArc
50
90.371794
51
172.036555
0
ARC
5
11F
100
AcDbEntity
8
1
62
256
6
ByLayer
370
18
48
1
60
0
100
AcDbCircle
39
0
10
12.40408
20
31.4
30
0
40
0.4
210
0
220
0
230
1
100
AcDbArc
50
187.963445
51
239.321663
0
ARC
5
120
100
AcDbEntity
8
1
62
256
6
ByLayer
370
18
48
1
60
0
100
AcDbCircle
39
0
10
15.59592
20
31.4
30
0
40
0.4
210
0
220
0
230
1
100
AcDbArc
50
300.678337
51
352.036555
0
ARC
5
121
100
AcDbEntity
8
1
62
256
6
ByLayer
370
18
48
1
60
0
100
AcDbCircle
39
0
10
-0.240519
20
-5.25
30
0
40
0.204499999999988
210
0
220
0
230
-1
100
AcDbArc
50
120
51
240
0
ARC
5
122
100
AcDbEntity
8
SK1
62
256
6
ByLayer
370
18
48
1
60
0
100
AcDbCircle
39
0
10
0.174981
20
-4.60077
30
0
40
0.149999999999843
210
0
220
0
230
-1
100
AcDbArc
50
300
51
0
0
ARC
5
123
100
AcDbEntity
8
SK1
62
256
6
ByLayer
370
18
48
1
60
0
100
AcDbCircle
39
0
10
0.174981
20
-4.39923
30
0
40
0.150000000000217
210
0
220
0
230
-1
100
AcDbArc
50
0
51
60
0
ARC
5
124
100
AcDbEntity
8
1
62
256
6
ByLayer
370
18
48
1
60
0
100
AcDbCircle
39
0
10
-0.240519
20
-3.75
30
0
40
0.204500000000003
210
0
220
0
230
-1
100
AcDbArc
50
120
51
240
0
ARC
5
125
100
AcDbEntity
8
SK1
62
256
6
ByLayer
370
18
48
1
60
0
100
AcDbCircle
39
0
10
0.174981
20
-3.10077
30
0
40
0.14999999999964
210
0
220
0
230
-1
100
AcDbArc
50
300
51
0
0
ARC
5
126
100
AcDbEntity
8
SK1
62
256
6
ByLayer
370
18
48
1
60
0
100
AcDbCircle
39
0
10
0.174981
20
-2.89923
30
0
40
0.150000000000768
210
0
220
0
230
-1
100
AcDbArc
50
0
51
60
0
ARC
5
127
100
AcDbEntity
8
1
62
256
6
ByLayer
370
18
48
1
60
0
100
AcDbCircle
39
0
10
-0.240519
20
-2.25
30
0
40
0.204499999999997
210
0
220
0
230
-1
100
AcDbArc
50
120
51
240
0
ARC
5
128
100
AcDbEntity
8
SK1
62
256
6
ByLayer
370
18
48
1
60
0
100
AcDbCircle
39
0
10
0.174981
20
-1.60077
30
0
40
0.150000000000713
210
0
220
0
230
-1
100
AcDbArc
50
300
51
0
0
ARC
5
129
100
AcDbEntity
8
SK1
62
256
6
ByLayer
370
18
48
1
60
0
100
AcDbCircle
39
0
10
0.174981
20
-1.39923
30
0
40
0.150000000000799
210
0
220
0
230
-1
100
AcDbArc
50
0
51
60
0
ARC
5
12A
100
AcDbEntity
8
1
62
256
6
ByLayer
370
18
48
1
60
0
100
AcDbCircle
39
0
10
-0.240519
20
-0.75
30
0
40
0.204500000000015
210
0
220
0
230
-1
100
AcDbArc
50
120
51
240
0
ARC
5
12B
100
AcDbEntity
8
SK1
62
256
6
ByLayer
370
18
48
1
60
0
100
AcDbCircle
39
0
10
0.174981
20
-0.10077
30
0
40
0.150000000000333
210
0
220
0
230
-1
100
AcDbArc
50
300
51
0
0
ARC
5
12C
100
AcDbEntity
8
SK1
62
256
6
ByLayer
370
18
48
1
60
0
100
AcDbCircle
39
0
10
0.174981
20
0.10077
30
0
40
0.150000000000783
210
0
220
0
230
-1
100
AcDbArc
50
0
51
60
0
ARC
5
12D
100
AcDbEntity
8
1
62
256
6
ByLayer
370
18
48
1
60
0
100
AcDbCircle
39
0
10
-0.240519
20
0.75
30
0
40
0.204499999999974
210
0
220
0
230
-1
100
AcDbArc
50
120
51
240
0
ARC
5
12E
100
AcDbEntity
8
SK1
62
256
6
ByLayer
370
18
48
1
60
0
100
AcDbCircle
39
0
10
0.174981
20
1.39923
30
0
40
0.150000000000321
210
0
220
0
230
-1
100
AcDbArc
50
300
51
0
0
ARC
5
12F
100
AcDbEntity
8
SK1
62
256
6
ByLayer
370
18
48
1
60
0
100
AcDbCircle
39
0
10
0.174981
20
1.60077
30
0
40
0.150000000000789
210
0
220
0
230
-1
100
AcDbArc
50
0
51
60
0
ARC
5
130
100
AcDbEntity
8
1
62
256
6
ByLayer
370
18
48
1
60
0
100
AcDbCircle
39
0
10
-0.240519
20
2.25
30
0
40
0.204499999999988
210
0
220
0
230
-1
100
AcDbArc
50
120
51
240
0
ARC
5
131
100
AcDbEntity
8
SK1
62
256
6
ByLayer
370
18
48
1
60
0
100
AcDbCircle
39
0
10
0.174981
20
2.89923
30
0
40
0.149999999999603
210
0
220
0
230
-1
100
AcDbArc
50
300
51
0
0
ARC
5
132
100
AcDbEntity
8
SK1
62
256
6
ByLayer
370
18
48
1
60
0
100
AcDbCircle
39
0
10
0.174981
20
3.10077
30
0
40
0.150000000000321
210
0
220
0
230
-1
100
AcDbArc
50
0
51
60
0
ARC
5
133
100
AcDbEntity
8
1
62
256
6
ByLayer
370
18
48
1
60
0
100
AcDbCircle
39
0
10
-0.240519
20
3.75
30
0
40
0.204499999999996
210
0
220
0
230
-1
100
AcDbArc
50
120
51
240
0
ARC
5
134
100
AcDbEntity
8
SK1
62
256
6
ByLayer
370
18
48
1
60
0
100
AcDbCircle
39
0
10
0.174981
20
4.39923
30
0
40
0.150000000000425
210
0
220
0
230
-1
100
AcDbArc
50
300
51
0
0
ARC
5
135
100
AcDbEntity
8
SK1
62
256
6
ByLayer
370
18
48
1
60
0
100
AcDbCircle
39
0
10
0.174981
20
4.60077
30
0
40
0.149999999999661
210
0
220
0
230
-1
100
AcDbArc
50
0
51
60
0
ARC
5
136
100
AcDbEntity
8
1
62
256
6
ByLayer
370
18
48
1
60
0
100
AcDbCircle
39
0
10
-0.240519
20
5.25
30
0
40
0.20449999999999
210
0
220
0
230
-1
100
AcDbArc
50
120
51
240
0
ARC
5
137
100
AcDbEntity
8
SK1
62
256
6
ByLayer
370
18
48
1
60
0
100
AcDbCircle
39
0
10
0.174981
20
16.39923
30
0
40
0.150000000000178
210
0
220
0
230
-1
100
AcDbArc
50
300
51
0
0
ARC
5
138
100
AcDbEntity
8
SK1
62
256
6
ByLayer
370
18
48
1
60
0
100
AcDbCircle
39
0
10
0.174981
20
16.60077
30
0
40
0.150000000000012
210
0
220
0
230
-1
100
AcDbArc
50
0
51
60
0
ARC
5
139
100
AcDbEntity
8
1
62
256
6
ByLayer
370
18
48
1
60
0
100
AcDbCircle
39
0
10
-0.240519
20
17.25
30
0
40
0.204499999999996
210
0
220
0
230
-1
100
AcDbArc
50
120
51
240
0
ARC
5
13A
100
AcDbEntity
8
SK1
62
256
6
ByLayer
370
18
48
1
60
0
100
AcDbCircle
39
0
10
0.174981
20
17.89923
30
0
40
0.149999999999864
210
0
220
0
230
-1
100
AcDbArc
50
300
51
0
0
ARC
5
13B
100
AcDbEntity
8
SK1
62
256
6
ByLayer
370
18
48
1
60
0
100
AcDbCircle
39
0
10
0.174981
20
18.10077
30
0
40
0.149999999999901
210
0
220
0
230
-1
100
AcDbArc
50
0
51
60
0
ARC
5
13C
100
AcDbEntity
8
1
62
256
6
ByLayer
370
18
48
1
60
0
100
AcDbCircle
39
0
10
-0.240519
20
18.75
30
0
40
0.2045
210
0
220
0
230
-1
100
AcDbArc
50
120
51
240
0
ELLIPSE
5
13D
100
AcDbEntity
8
1
62
256
6
ByLayer
370
18
48
1
60
0
100
AcDbEllipse
10
12.641251
20
48.434518
30
0
11
0.0995413341038507
21
0.00956674136960423
31
0
210
0
220
0
230
-1
40
1
41
1.49207734863153
42
1.6666102760817
0
ELLIPSE
5
13E
100
AcDbEntity
8
1
62
256
6
ByLayer
370
18
48
1
60
0
100
AcDbEllipse
10
15.358749
20
48.434518
30
0
11
0.0995413341038507
21
-0.00956674136960416
31
0
210
0
220
0
230
-1
40
1
41
1.4749823775081
42
1.64951530495826
0
ELLIPSE
5
13F
100
AcDbEntity
8
1
62
256
6
ByLayer
370
18
48
1
60
0
100
AcDbEllipse
10
12.406444
20
55.596996
30
0
11
0.258440281666709
21
-0.311892621547632
31
0
210
0
220
0
230
1
40
0.987524
41
-2.40206048084669
42
-2.22516599645132
0
ELLIPSE
5
140
100
AcDbEntity
8
1
62
256
6
ByLayer
370
18
48
1
60
0
100
AcDbEllipse
10
15.593556
20
55.596996
30
0
11
0.258440281666709
21
0.311892621547632
31
0
210
0
220
0
230
1
40
0.987524
41
-0.916426657138471
42
-0.739532172742976
0
ELLIPSE
5
141
100
AcDbEntity
8
1
62
256
6
ByLayer
370
18
48
1
60
0
100
AcDbEllipse
10
12.406444
20
31.403004
30
0
11
-0.25844028166671
21
-0.311892621547632
31
0
210
0
220
0
230
1
40
0.987524
41
-0.916426657138408
42
-0.739532172742882
0
ELLIPSE
5
142
100
AcDbEntity
8
1
62
256
6
ByLayer
370
18
48
1
60
0
100
AcDbEllipse
10
15.593556
20
31.403004
30
0
11
-0.258440281666709
21
0.311892621547632
31
0
210
0
220
0
230
1
40
0.987524
41
-2.40206048084705
42
-2.22516599645139
0
ELLIPSE
5
143
100
AcDbEntity
8
1
62
256
6
ByLayer
370
18
48
1
60
0
100
AcDbEllipse
10
-358.643531
20
41.517955
30
0
11
374.493531305985
21
0.0022513407545599
31
0
210
0
220
0
230
-1
40
0.176446
41
0.0231192137882546
42
0.0257185142893916
0
ELLIPSE
5
144
100
AcDbEntity
8
1
62
256
6
ByLayer
370
18
48
1
60
0
100
AcDbEllipse
10
-359.15002
20
-6.222895
30
0
11
-2.73642948822979E-14
21
446.907609075935
31
0
210
0
220
0
230
-1
40
0.8391
41
1.5176005532729
42
1.54159280922807
0
ELLIPSE
5
145
100
AcDbEntity
8
1
62
256
6
ByLayer
370
18
48
1
60
0
100
AcDbEllipse
10
-359.150023
20
-3.111448
30
0
11
-2.73642949922798E-14
21
446.907610872136
31
0
210
0
220
0
230
-1
40
0.8391
41
1.52091896572835
42
1.54661753935575
0
ELLIPSE
5
146
100
AcDbEntity
8
1
62
256
6
ByLayer
370
18
48
1
60
0
100
AcDbEllipse
10
-359.149954
20
61.464833
30
0
11
-5.15720763040344E-14
21
842.263738760818
31
0
210
0
220
0
230
-1
40
0.445229
41
1.59649641063988
42
1.61916523152278
0
ELLIPSE
5
147
100
AcDbEntity
8
1
62
256
6
ByLayer
370
18
48
1
60
0
100
AcDbEllipse
10
387.150379
20
61.464833
30
0
11
-5.15721055343519E-14
21
842.264216143895
31
0
210
0
220
0
230
-1
40
0.445229
41
-1.61190526173864
42
-1.59649639611189
0
ELLIPSE
5
148
100
AcDbEntity
8
1
62
256
6
ByLayer
370
18
48
1
60
0
100
AcDbEllipse
10
386.635996
20
41.517923
30
0
11
374.485996379958
21
-0.00228457725904228
31
0
210
0
220
0
230
-1
40
0.176448
41
3.11587386490226
42
3.11847319156085
0
ELLIPSE
5
149
100
AcDbEntity
8
1
62
256
6
ByLayer
370
18
48
1
60
0
100
AcDbEllipse
10
14
20
37.276506
30
0
11
-4.92398513015828E-16
21
8.04174356075974
31
0
210
0
220
0
230
-1
40
0.186527
41
-0.834369536180496
42
0.834369536180488
0
POINT
5
6C
100
AcDbEntity
8
1
62
256
6
ByLayer
370
13
48
1
60
1
100
AcDbPoint
10
181.910574
20
199.310023
30
0
39
0
210
0
220
0
230
1
50
360
0
POINT
5
6E
100
AcDbEntity
8
1
62
256
6
ByLayer
370
13
48
1
60
1
100
AcDbPoint
10
197.910574
20
199.310023
30
0
39
0
210
0
220
0
230
1
50
360
0
POINT
5
6F
100
AcDbEntity
8
80
62
256
6
ByLayer
370
18
48
1
60
0
100
AcDbPoint
10
0
20
0
30
0
39
0
210
0
220
0
230
1
50
360
0
POINT
5
71
100
AcDbEntity
8
81
62
256
6
ByLayer
370
18
48
1
60
0
100
AcDbPoint
10
16.013384
20
56
30
0
39
0
210
0
220
0
230
1
50
360
0
SPLINE
5
14A
100
AcDbEntity
8
1
62
256
6
ByLayer
370
18
48
1
60
0
100
AcDbSpline
70
4
71
2
72
6
73
3
40
0
40
0
40
0
40
1
40
1
40
1
41
1
10
14.4830853518231
20
48.5901186384115
30
0
41
1
10
14.4932546708633
20
48.565819759419
30
0
41
1
10
14.5138875681491
20
48.5495226247505
30
0
0
SPLINE
5
14B
100
AcDbEntity
8
1
62
256
6
ByLayer
370
18
48
1
60
0
100
AcDbSpline
70
4
71
2
72
6
73
3
40
0
40
0
40
0
40
1
40
1
40
1
41
1
10
14.4277325237021
20
48.748945415452
30
0
41
1
10
14.4509847566721
20
48.6679467190156
30
0
41
1
10
14.4830853518301
20
48.5901186384125
30
0
0
SPLINE
5
14C
100
AcDbEntity
8
1
62
256
6
ByLayer
370
18
48
1
60
0
100
AcDbSpline
70
4
71
3
72
17
73
13
40
0
40
0
40
0
40
0
40
0.0993220401093651
40
0.192464810608027
40
0.279473698704619
40
0.360404466795481
40
0.435326506058281
40
0.504327396251932
40
0.642462477512279
40
0.769893028119699
40
0.888354161236971
40
1
40
1
40
1
40
1
41
1
10
14.4277325237381
20
48.74894541544
30
0
41
1
10
14.4251415014167
20
48.7570650488354
30
0
41
1
10
14.4201206558941
20
48.7727991568131
30
0
41
1
10
14.4097292588096
20
48.7950329040993
30
0
41
1
10
14.3979831886721
20
48.8152872768893
30
0
41
1
10
14.3850529459853
20
48.8335255248349
30
0
41
1
10
14.3713377828762
20
48.849763629035
30
0
41
1
10
14.3520099934965
20
48.86912493586
30
0
41
1
10
14.3252334020887
20
48.8899964028493
30
0
41
1
10
14.288846468175
20
48.9095135048889
30
0
41
1
10
14.2506156870536
20
48.9232553047825
30
0
41
1
10
14.2237638550211
20
48.9270870625708
30
0
41
1
10
14.2107355869721
20
48.92894619708
30
0
0
SPLINE
5
14D
100
AcDbEntity
8
1
62
256
6
ByLayer
370
18
48
1
60
0
100
AcDbSpline
70
4
71
3
72
11
73
7
40
0
40
0
40
0
40
0
40
0.250620932587855
40
0.500737930149929
40
0.750485813119446
40
1
40
1
40
1
40
1
41
1
10
14.2107355870581
20
48.92894619712
30
0
41
1
10
14.1948737148298
20
48.930325150106
30
0
41
1
10
14.1631818645687
20
48.933080283354
30
0
41
1
10
14.1154728957348
20
48.9357889168487
30
0
41
1
10
14.0677451000659
20
48.9375412336491
30
0
41
1
10
14.0359100666744
20
48.9377544174989
30
0
41
1
10
14.0200000006977
20
48.93786095953
30
0
0
SPLINE
5
14E
100
AcDbEntity
8
1
62
256
6
ByLayer
370
18
48
1
60
0
100
AcDbSpline
70
4
71
2
72
6
73
3
40
0
40
0
40
0
40
1
40
1
40
1
41
1
10
13.7892644129421
20
48.9289461971205
30
0
41
1
10
13.8844834459602
20
48.9378374892931
30
0
41
1
10
13.9799999993025
20
48.9378609595315
30
0
0
SPLINE
5
14F
100
AcDbEntity
8
1
62
256
6
ByLayer
370
18
48
1
60
0
100
AcDbSpline
70
4
71
2
72
10
73
7
40
0
40
0
40
0
40
0.5
40
0.5
40
0.75
40
0.75
40
1
40
1
40
1
41
1
10
13.5722674762621
20
48.7489454154435
30
0
41
1
10
13.5917621635151
20
48.8165392416659
30
0
41
1
10
13.6434857110099
20
48.864235482769
30
0
41
1
10
13.671666952926
20
48.8902224727208
30
0
41
1
10
13.7075223538963
20
48.9068593747304
30
0
41
1
10
13.7462418922268
20
48.9248252361523
30
0
41
1
10
13.7892644130281
20
48.928946197083
30
0
0
SPLINE
5
150
100
AcDbEntity
8
1
62
256
6
ByLayer
370
18
48
1
60
0
100
AcDbSpline
70
4
71
3
72
10
73
6
40
0
40
0
40
0
40
0
40
0.34729889677219
40
0.680627573372104
40
1
40
1
40
1
40
1
41
1
10
13.5722674762981
20
48.74894541545
30
0
41
1
10
13.5667211284517
20
48.7304137365198
30
0
41
1
10
13.5558515365502
20
48.694095821957
30
0
41
1
10
13.5373230401772
20
48.6411378240455
30
0
41
1
10
13.5236197764126
20
48.6068808694764
30
0
41
1
10
13.5169146481701
20
48.59011863841
30
0
0
SPLINE
5
151
100
AcDbEntity
8
1
62
256
6
ByLayer
370
18
48
1
60
0
100
AcDbSpline
70
4
71
3
72
11
73
7
40
0
40
0
40
0
40
0
40
0.285233185357498
40
0.546631799654011
40
0.784675352493501
40
1
40
1
40
1
40
1
41
1
10
13.5169146481771
20
48.59011863841
30
0
41
1
10
13.5149846236865
20
48.5859192206157
30
0
41
1
10
13.5112858508408
20
48.5778712955346
30
0
41
1
10
13.5037266797742
20
48.5669493044873
30
0
41
1
10
13.4955333753298
20
48.557471734549
30
0
41
1
10
13.4891460538497
20
48.552082304087
30
0
41
1
10
13.4861124318508
20
48.54952262475
30
0
0
SPLINE
5
152
100
AcDbEntity
8
1
62
256
6
ByLayer
370
18
48
1
60
0
100
AcDbSpline
70
4
71
3
72
12
73
8
40
0
40
0
40
0
40
0
40
0.499999999999999
40
0.499999999999999
40
0.749999999999999
40
0.749999999999999
40
1
40
1
40
1
40
1
41
1
10
15.8000000000001
20
41.0744126603889
30
0
41
1
10
15.7938351301902
20
40.7986412022661
30
0
41
1
10
15.7867097140219
20
40.5710339766219
30
0
41
1
10
15.7742646980165
20
40.2991833932128
30
0
41
1
10
15.7698179999724
20
40.2202115415745
30
0
41
1
10
15.7602829131135
20
40.0868818279804
30
0
41
1
10
15.7552486168821
20
40.0332546195075
30
0
41
1
10
15.749930587721
20
39.9926727066255
30
0
0
SPLINE
5
153
100
AcDbEntity
8
1
62
256
6
ByLayer
370
18
48
1
60
0
100
AcDbSpline
70
4
71
3
72
99
73
95
40
0
40
0
40
0
40
0
40
0.0312500000000004
40
0.0312500000000004
40
0.0468750000000005
40
0.0468750000000005
40
0.0625000000000006
40
0.0625000000000006
40
0.093750000000001
40
0.093750000000001
40
0.109375000000001
40
0.109375000000001
40
0.125000000000001
40
0.125000000000001
40
0.156250000000001
40
0.156250000000001
40
0.171875000000001
40
0.171875000000001
40
0.187500000000001
40
0.187500000000001
40
0.218750000000001
40
0.218750000000001
40
0.234375000000001
40
0.234375000000001
40
0.250000000000002
40
0.250000000000002
40
0.281250000000002
40
0.281250000000002
40
0.296875000000002
40
0.296875000000002
40
0.312500000000002
40
0.312500000000002
40
0.343750000000002
40
0.343750000000002
40
0.359375000000002
40
0.359375000000002
40
0.375000000000002
40
0.375000000000002
40
0.406250000000002
40
0.406250000000002
40
0.421875000000003
40
0.421875000000003
40
0.437500000000003
40
0.437500000000003
40
0.468750000000003
40
0.468750000000003
40
0.484375000000003
40
0.484375000000003
40
0.500000000000003
40
0.500000000000003
40
0.531250000000004
40
0.562500000000004
40
0.562500000000004
40
0.578125000000004
40
0.578125000000004
40
0.593750000000004
40
0.593750000000004
40
0.625000000000004
40
0.625000000000004
40
0.640625000000004
40
0.640625000000004
40
0.656250000000004
40
0.656250000000004
40
0.687500000000004
40
0.687500000000004
40
0.703125000000004
40
0.703125000000004
40
0.718750000000004
40
0.718750000000004
40
0.750000000000003
40
0.750000000000003
40
0.765625000000003
40
0.765625000000003
40
0.781250000000003
40
0.781250000000003
40
0.812500000000002
40
0.812500000000002
40
0.828125000000002
40
0.828125000000002
40
0.843750000000002
40
0.843750000000002
40
0.875000000000001
40
0.875000000000001
40
0.890625000000001
40
0.890625000000001
40
0.906250000000001
40
0.906250000000001
40
0.9375
40
0.9375
40
0.953125
40
0.953125
40
0.96875
40
0.96875
40
1
40
1
40
1
40
1
41
1
10
14.8890046272169
20
-13.1609953727871
30
0
41
1
10
14.8671288554462
20
-12.9786812215644
30
0
41
1
10
14.8459092838131
20
-12.7724821734958
30
0
41
1
10
14.8152761069179
20
-12.426014906295
30
0
41
1
10
14.8053197539766
20
-12.3048427052991
30
0
41
1
10
14.7861744673394
20
-12.0542344303136
30
0
41
1
10
14.776948394623
20
-11.9243850771059
30
0
41
1
10
14.7503397812484
20
-11.5213985954992
30
0
41
1
10
14.7340199524615
20
-11.234908794486
30
0
41
1
10
14.7119045838065
20
-10.777678708832
30
0
41
1
10
14.7049166282513
20
-10.6202418110503
30
0
41
1
10
14.6920106379416
20
-10.3016134043718
30
0
41
1
10
14.6860597353143
20
-10.1398092033475
30
0
41
1
10
14.6697188234288
20
-9.64707115724505
30
0
41
1
10
14.6608326738579
20
-9.30885759763828
30
0
41
1
10
14.6506774896549
20
-8.78669548350413
30
0
41
1
10
14.6478144299144
20
-8.60933917688945
30
0
41
1
10
14.64325743325
20
-8.25416609487962
30
0
41
1
10
14.6415582640401
20
-8.07647046020907
30
0
41
1
10
14.6381669015029
20
-7.54306428301973
30
0
41
1
10
14.6381727167491
20
-7.18703642586547
30
0
41
1
10
14.6416064835371
20
-6.65235433885144
30
0
41
1
10
14.6433282152495
20
-6.4736949159018
30
0
41
1
10
14.6479294537787
20
-6.1175363156101
30
0
41
1
10
14.650784154981
20
-5.94178193435886
30
0
41
1
10
14.6609437899338
20
-5.42128794320112
30
0
41
1
10
14.6698366444575
20
-5.08327643588873
30
0
41
1
10
14.6862395950462
20
-4.58970099807252
30
0
41
1
10
14.6922197958794
20
-4.42742644765247
30
0
41
1
10
14.7052096833205
20
-4.10750286447603
30
0
41
1
10
14.7121828217611
20
-3.95085766122338
30
0
41
1
10
14.7342457226202
20
-3.49561423810431
30
0
41
1
10
14.7505562496364
20
-3.20952824378426
30
0
41
1
10
14.7772247033835
20
-2.80620800721079
30
0
41
1
10
14.7864829695993
20
-2.67608941832242
30
0
41
1
10
14.8057230994089
20
-2.42469221786905
30
0
41
1
10
14.815722661599
20
-2.30329879821707
30
0
41
1
10
14.8462338416848
20
-1.95888432247017
30
0
41
1
10
14.8674186639008
20
-1.75320735548942
30
0
41
1
10
14.9002674330315
20
-1.47986700966948
30
0
41
1
10
14.9113968132471
20
-1.39464381519434
30
0
41
1
10
14.9339961254639
20
-1.23619377497616
30
0
41
1
10
14.9455184283524
20
-1.16268944907622
30
0
41
1
10
14.9800809233709
20
-0.963585092207836
30
0
41
1
10
15.0031447319444
20
-0.858731843854486
30
0
41
1
10
15.0376721958531
20
-0.742080353461859
30
0
41
1
10
15.0491705229531
20
-0.710000564861929
30
0
41
1
10
15.0721345384725
20
-0.659637981033711
30
0
41
1
10
15.0836274346558
20
-0.641329702106361
30
0
41
1
10
15.1178678336689
20
-0.607955027303603
30
0
41
1
10
15.1621253395106
20
-0.621104174018512
30
0
41
1
10
15.2037123938266
20
-0.745224682974907
30
0
41
1
10
15.2339269383326
20
-0.88151974258281
30
0
41
1
10
15.2437735151598
20
-0.93396386078328
30
0
41
1
10
15.2628323006853
20
-1.05146776974362
30
0
41
1
10
15.2720779117483
20
-1.11667398559666
30
0
41
1
10
15.2990062729456
20
-1.33137845775542
30
0
41
1
10
15.3158837443991
20
-1.4998410463057
30
0
41
1
10
15.3396962787938
20
-1.79159103244228
30
0
41
1
10
15.3473945721509
20
-1.89565733014521
30
0
41
1
10
15.3620420281218
20
-2.11327846411595
30
0
41
1
10
15.3690266728494
20
-2.22722361264124
30
0
41
1
10
15.3890272795024
20
-2.58416674366555
30
0
41
1
10
15.4010953400683
20
-2.84217815080817
30
0
41
1
10
15.4174474878919
20
-3.25980974176537
30
0
41
1
10
15.422626337219
20
-3.40483853122794
30
0
41
1
10
15.4322777078151
20
-3.70143784539374
30
0
41
1
10
15.4367538487003
20
-3.85294660854382
30
0
41
1
10
15.4491997416238
20
-4.31686816873236
30
0
41
1
10
15.4561940921285
20
-4.63861847773828
30
0
41
1
10
15.4648559386476
20
-5.14010037344798
30
0
41
1
10
15.467440979454
20
-5.31076770107907
30
0
41
1
10
15.4719766403624
20
-5.65712764548616
30
0
41
1
10
15.4739074856211
20
-5.83119133099939
30
0
41
1
10
15.4787395408387
20
-6.35595693013167
30
0
41
1
10
15.4806882680372
20
-6.70921772760707
30
0
41
1
10
15.4817493188532
20
-7.24422773775501
30
0
41
1
10
15.4817906475554
20
-7.42342146404971
30
0
41
1
10
15.4812311916223
20
-7.78357160894146
30
0
41
1
10
15.4806297783923
20
-7.96343442765488
30
0
41
1
10
15.4778931268646
20
-8.49663547471539
30
0
41
1
10
15.4748305193218
20
-8.84599500161403
30
0
41
1
10
15.4683307307777
20
-9.36096950475601
30
0
41
1
10
15.4658445197164
20
-9.53110984168384
30
0
41
1
10
15.4601997884592
20
-9.86828378332538
30
0
41
1
10
15.4570324509862
20
-10.0355553614634
30
0
41
1
10
15.4466529037236
20
-10.523764514041
30
0
41
1
10
15.4385256670092
20
-10.8341882225208
30
0
41
1
10
15.4244057791849
20
-11.2776967621853
30
0
41
1
10
15.4193759639473
20
-11.4218276617322
30
0
41
1
10
15.4086287754709
20
-11.7025415971413
30
0
41
1
10
15.4028829290862
20
-11.8397053509543
30
0
41
1
10
15.3847958843033
20
-12.2338412159914
30
0
41
1
10
15.3716078979087
20
-12.4741955295884
30
0
41
1
10
15.3572036429811
20
-12.6927963570188
30
0
0
SPLINE
5
154
100
AcDbEntity
8
1
62
256
6
ByLayer
370
18
48
1
60
0
100
AcDbSpline
70
4
71
3
72
8
73
4
40
0
40
0
40
0
40
0
40
1
40
1
40
1
40
1
41
1
10
14.8257022471909
20
-13.2242977528089
30
0
41
1
10
14.7112086487586
20
-12.4198188647003
30
0
41
1
10
14.5898826222041
20
-11.5495878256697
30
0
41
1
10
14.4630731051334
20
-10.6135198841349
30
0
0
SPLINE
5
155
100
AcDbEntity
8
1
62
256
6
ByLayer
370
18
48
1
60
0
100
AcDbSpline
70
4
71
3
72
21
73
17
40
0
40
0
40
0
40
0
40
0.250000000000007
40
0.250000000000007
40
0.312500000000008
40
0.312500000000008
40
0.375000000000008
40
0.375000000000008
40
0.500000000000007
40
0.625000000000007
40
0.625000000000007
40
0.687500000000006
40
0.687500000000006
40
0.750000000000005
40
0.750000000000005
40
1
40
1
40
1
40
1
41
1
10
14.4630731051334
20
-10.613519884135
30
0
41
1
10
14.4262686981798
20
-10.3418413362445
30
0
41
1
10
14.3924186770425
20
-10.0226945160716
30
0
41
1
10
14.354146763124
20
-9.56618371443116
30
0
41
1
10
14.346697353569
20
-9.47195972679609
30
0
41
1
10
14.3322296459872
20
-9.27753708985685
30
0
41
1
10
14.3252068546292
20
-9.17721736070888
30
0
41
1
10
14.3051031884092
20
-8.87151848348029
30
0
41
1
10
14.2806537353497
20
-8.44863633097668
30
0
41
1
10
14.2609721106955
20
-7.99590795062139
30
0
41
1
10
14.2480962012822
20
-7.64490547812852
30
0
41
1
10
14.2441077741157
20
-7.52559453798372
30
0
41
1
10
14.2368467289577
20
-7.28503592244596
30
0
41
1
10
14.2335802994128
20
-7.16409012669797
30
0
41
1
10
14.2190447972493
20
-6.5561014913433
30
0
41
1
10
14.2130940518894
20
-6.05943340173965
30
0
41
1
10
14.2130940518894
20
-5.55216789572154
30
0
0
SPLINE
5
156
100
AcDbEntity
8
1
62
256
6
ByLayer
370
18
48
1
60
0
100
AcDbSpline
70
4
71
3
72
18
73
14
40
0
40
0
40
0
40
0
40
0.25
40
0.25
40
0.374999999999999
40
0.374999999999999
40
0.499999999999999
40
0.499999999999999
40
0.75
40
0.75
40
0.875
40
0.875
40
1
40
1
40
1
40
1
41
1
10
14.4622783659254
20
10.9570102745443
30
0
41
1
10
14.4327249007794
20
10.7353201016292
30
0
41
1
10
14.4049462483203
20
10.4851183614368
30
0
41
1
10
14.3660972072777
20
10.068739941997
30
0
41
1
10
14.3536203499839
20
9.92305490447657
30
0
41
1
10
14.3296766130983
20
9.61763393791941
30
0
41
1
10
14.3181557568649
20
9.45700242012381
30
0
41
1
10
14.2858059995393
20
8.96200453582119
30
0
41
1
10
14.267068278851
20
8.61396559183913
30
0
41
1
10
14.2433582379709
20
8.06538032996266
30
0
41
1
10
14.2361916084963
20
7.87806884219441
30
0
41
1
10
14.2234088212252
20
7.49428051243399
30
0
41
1
10
14.2178133145738
20
7.29822483322008
30
0
41
1
10
14.2130940518894
20
7.09999999999937
30
0
0
SPLINE
5
157
100
AcDbEntity
8
1
62
256
6
ByLayer
370
18
48
1
60
0
100
AcDbSpline
70
4
71
3
72
10
73
6
40
0
40
0
40
0
40
0
40
0.5
40
0.5
40
1
40
1
40
1
40
1
41
1
10
15.2138173274521
20
16.3364190703744
30
0
41
1
10
15.1076008054068
20
15.6078358123454
30
0
41
1
10
14.9906614394999
20
14.7945924780845
30
0
41
1
10
14.7389524028264
20
13.0013930893991
30
0
41
1
10
14.6041767456982
20
12.0214362629293
30
0
41
1
10
14.4622783659254
20
10.9570102745443
30
0
0
SPLINE
5
158
100
AcDbEntity
8
1
62
256
6
ByLayer
370
18
48
1
60
0
100
AcDbSpline
70
4
71
3
72
12
73
8
40
0
40
0
40
0
40
0
40
0.500000000000001
40
0.500000000000001
40
0.750000000000001
40
0.750000000000001
40
1
40
1
40
1
40
1
41
1
10
15.3195393955109
20
17.5394898531557
30
0
41
1
10
15.3049935551996
20
17.2846519430911
30
0
41
1
10
15.2889468830078
20
17.0552518732361
30
0
41
1
10
15.2623080238489
20
16.7507837648781
30
0
41
1
10
15.2530754836478
20
16.6568706106389
30
0
41
1
10
15.2339619833034
20
16.4849206924711
30
0
41
1
10
15.2240678557329
20
16.4067317029815
30
0
41
1
10
15.2138173274521
20
16.3364190703744
30
0
0
SPLINE
5
159
100
AcDbEntity
8
1
62
256
6
ByLayer
370
18
48
1
60
0
100
AcDbSpline
70
4
71
3
72
82
73
78
40
0
40
0
40
0
40
0
40
0.03125
40
0.03125
40
0.0625000000000001
40
0.0625000000000001
40
0.0937500000000001
40
0.0937500000000001
40
0.125
40
0.125
40
0.15625
40
0.15625
40
0.1875
40
0.1875
40
0.21875
40
0.21875
40
0.25
40
0.25
40
0.28125
40
0.28125
40
0.3125
40
0.3125
40
0.34375
40
0.34375
40
0.375
40
0.375
40
0.40625
40
0.40625
40
0.4375
40
0.4375
40
0.46875
40
0.46875
40
0.5
40
0.5
40
0.53125
40
0.53125
40
0.5625
40
0.5625
40
0.593750000000001
40
0.593750000000001
40
0.625000000000001
40
0.625000000000001
40
0.656250000000001
40
0.656250000000001
40
0.671875000000001
40
0.671875000000001
40
0.687500000000001
40
0.687500000000001
40
0.718750000000001
40
0.718750000000001
40
0.734375000000001
40
0.734375000000001
40
0.750000000000001
40
0.750000000000001
40
0.781250000000001
40
0.781250000000001
40
0.796875000000001
40
0.796875000000001
40
0.812500000000001
40
0.812500000000001
40
0.843750000000002
40
0.843750000000002
40
0.859375000000002
40
0.859375000000002
40
0.875000000000002
40
0.875000000000002
40
0.906250000000001
40
0.906250000000001
40
0.921875000000001
40
0.921875000000001
40
0.937500000000001
40
0.937500000000001
40
0.968750000000001
40
0.968750000000001
40
0.984375
40
0.984375
40
1
40
1
40
1
40
1
41
1
10
15.7403902530521
20
7.69318364539865
30
0
41
1
10
15.743839433676
20
7.69370186769103
30
0
41
1
10
15.7471639217532
20
7.68207526159219
30
0
41
1
10
15.7535610996388
20
7.63558855160565
30
0
41
1
10
15.7566370769735
20
7.60072876600807
30
0
41
1
10
15.7625532431699
20
7.50677811284123
30
0
41
1
10
15.7653115151242
20
7.44897487576117
30
0
41
1
10
15.7704645000291
20
7.31280839071025
30
0
41
1
10
15.7728608722135
20
7.234416118632
30
0
41
1
10
15.7773159799643
20
7.05610755834471
30
0
41
1
10
15.7793106652522
20
6.95876910613387
30
0
41
1
10
15.7828933659617
20
6.74841943275013
30
0
41
1
10
15.7844820687617
20
6.63533370551849
30
0
41
1
10
15.7872707501874
20
6.39307741915368
30
0
41
1
10
15.7884326297616
20
6.26727597906597
30
0
41
1
10
15.7903428091018
20
6.00671025848209
30
0
41
1
10
15.7910916420161
20
5.87177535250848
30
0
41
1
10
15.7921774866854
20
5.59322678006876
30
0
41
1
10
15.7925007969314
20
5.45330800383019
30
0
41
1
10
15.7927362683099
20
5.1722332159857
30
0
41
1
10
15.7926478557004
20
5.03081680622952
30
0
41
1
10
15.7920398733137
20
4.74775789160535
30
0
41
1
10
15.7915286517934
20
4.60967776980243
30
0
41
1
10
15.7900919990846
20
4.34014574337164
30
0
41
1
10
15.7891638639189
20
4.20838296601357
30
0
41
1
10
15.7868570404771
20
3.953089407855
30
0
41
1
10
15.7855067068268
20
3.83258875381841
30
0
41
1
10
15.7823919180577
20
3.60533282976539
30
0
41
1
10
15.7806216351159
20
3.49827969608668
30
0
41
1
10
15.7766310490516
20
3.29983233291702
30
0
41
1
10
15.7744569203189
20
3.21063836850371
30
0
41
1
10
15.7697253092255
20
3.05156101620642
30
0
41
1
10
15.7671581754723
20
2.98146785436228
30
0
41
1
10
15.7616276253274
20
2.86243357909615
30
0
41
1
10
15.7587246557715
20
2.81469343757601
30
0
41
1
10
15.7526279129753
20
2.74190989753117
30
0
41
1
10
15.7494206956382
20
2.7168158637482
30
0
41
1
10
15.7427442442227
20
2.69068452087797
30
0
41
1
10
15.7393438238568
20
2.6898137609061
30
0
41
1
10
15.7324224149894
20
2.71159796855122
30
0
41
1
10
15.7288853395826
20
2.73441307848654
30
0
41
1
10
15.7217668295843
20
2.80408822719539
30
0
41
1
10
15.7182542955804
20
2.85016692907135
30
0
41
1
10
15.7130715568821
20
2.9355660184257
30
0
41
1
10
15.711358458636
20
2.96676095164605
30
0
41
1
10
15.7079656901092
20
3.03468944943822
30
0
41
1
10
15.7062793199955
20
3.07158590170121
30
0
41
1
10
15.7013278894537
20
3.18970978788761
30
0
41
1
10
15.6981996300684
20
3.27748451643143
30
0
41
1
10
15.6937867063079
20
3.42223171765753
30
0
41
1
10
15.6923625522654
20
3.47267371474331
30
0
41
1
10
15.689614412092
20
3.57801129784679
30
0
41
1
10
15.6882850741863
20
3.63315349279861
30
0
41
1
10
15.6845007086154
20
3.80367447135399
30
0
41
1
10
15.6822653594592
20
3.9231511762051
30
0
41
1
10
15.6793565366641
20
4.1107770463953
30
0
41
1
10
15.6784612905428
20
4.17472855157641
30
0
41
1
10
15.6768257650038
20
4.30549549753829
30
0
41
1
10
15.6760826725688
20
4.37261734259289
30
0
41
1
10
15.6741215834203
20
4.57609042645123
30
0
41
1
10
15.6731747743665
20
4.71365423610459
30
0
41
1
10
15.6722910488257
20
4.92278130415752
30
0
41
1
10
15.6720862697305
20
4.99295644186657
30
0
41
1
10
15.6718601888304
20
5.13425416582669
30
0
41
1
10
15.6718394021903
20
5.20570808198863
30
0
41
1
10
15.6720592638714
20
5.41891196736705
30
0
41
1
10
15.6725756536465
20
5.55887057368673
30
0
41
1
10
15.6738807844575
20
5.76564364452625
30
0
41
1
10
15.674404645731
20
5.83403762595617
30
0
41
1
10
15.6756305799267
20
5.96974707310633
30
0
41
1
10
15.6763366089273
20
6.03737716379621
30
0
41
1
10
15.6786953528411
20
6.23598145680464
30
0
41
1
10
15.6805786798711
20
6.36236953167818
30
0
41
1
10
15.6838322078587
20
6.54320069390798
30
0
41
1
10
15.6849884979463
20
6.60201124887425
30
0
41
1
10
15.6874424224297
20
6.71664884835809
30
0
41
1
10
15.6887468118972
20
6.7727322273559
30
0
41
1
10
15.6901028363228
20
6.82652386267864
30
0
0
SPLINE
5
15A
100
AcDbEntity
8
1
62
256
6
ByLayer
370
18
48
1
60
0
100
AcDbSpline
70
4
71
3
72
12
73
8
40
0
40
0
40
0
40
0
40
0.250000000000001
40
0.250000000000001
40
0.500000000000002
40
0.500000000000002
40
1
40
1
40
1
40
1
41
1
10
15.4114197681513
20
20.7413422975641
30
0
41
1
10
15.410032272037
20
20.6054167043991
30
0
41
1
10
15.4084152413336
20
20.4702884817674
30
0
41
1
10
15.4047076539394
20
20.2016510299227
30
0
41
1
10
15.402611674504
20
20.0678369599767
30
0
41
1
10
15.3956140296833
20
19.6709230008297
30
0
41
1
10
15.3900732583059
20
19.4158257170205
30
0
41
1
10
15.3836433251272
20
19.1698835326319
30
0
0
SPLINE
5
15B
100
AcDbEntity
8
1
62
256
6
ByLayer
370
18
48
1
60
0
100
AcDbSpline
70
2053
71
3
72
119
73
115
40
0
40
0
40
0
40
0
40
0.031249999999999
40
0.031249999999999
40
0.0468749999999985
40
0.0468749999999985
40
0.062499999999998
40
0.062499999999998
40
0.0937499999999972
40
0.0937499999999972
40
0.101562499999997
40
0.101562499999997
40
0.109374999999997
40
0.109374999999997
40
0.124999999999996
40
0.124999999999996
40
0.156249999999995
40
0.156249999999995
40
0.164062499999995
40
0.164062499999995
40
0.171874999999995
40
0.171874999999995
40
0.187499999999994
40
0.203124999999994
40
0.203124999999994
40
0.210937499999994
40
0.210937499999994
40
0.218749999999994
40
0.218749999999994
40
0.249999999999994
40
0.249999999999994
40
0.265624999999993
40
0.265624999999993
40
0.273437499999993
40
0.273437499999993
40
0.281249999999993
40
0.281249999999993
40
0.312499999999992
40
0.312499999999992
40
0.328124999999992
40
0.328124999999992
40
0.343749999999992
40
0.343749999999992
40
0.374999999999992
40
0.374999999999992
40
0.390624999999992
40
0.390624999999992
40
0.406249999999992
40
0.421874999999991
40
0.421874999999991
40
0.437499999999991
40
0.437499999999991
40
0.468749999999991
40
0.468749999999991
40
0.484374999999991
40
0.484374999999991
40
0.499999999999991
40
0.499999999999991
40
0.531249999999991
40
0.531249999999991
40
0.539062499999991
40
0.539062499999991
40
0.546874999999991
40
0.546874999999991
40
0.562499999999991
40
0.578124999999991
40
0.578124999999991
40
0.585937499999992
40
0.585937499999992
40
0.593749999999992
40
0.593749999999992
40
0.624999999999992
40
0.624999999999992
40
0.640624999999993
40
0.640624999999993
40
0.648437499999993
40
0.648437499999993
40
0.656249999999993
40
0.656249999999993
40
0.687499999999994
40
0.687499999999994
40
0.695312499999994
40
0.695312499999994
40
0.703124999999994
40
0.703124999999994
40
0.718749999999994
40
0.718749999999994
40
0.749999999999994
40
0.749999999999994
40
0.757812499999994
40
0.757812499999994
40
0.765624999999994
40
0.765624999999994
40
0.781249999999995
40
0.796874999999995
40
0.796874999999995
40
0.812499999999995
40
0.812499999999995
40
0.843749999999996
40
0.843749999999996
40
0.859374999999997
40
0.859374999999997
40
0.874999999999997
40
0.874999999999997
40
0.906249999999998
40
0.906249999999998
40
0.921874999999998
40
0.921874999999998
40
0.937499999999998
40
0.953124999999999
40
0.953124999999999
40
0.968749999999999
40
0.968749999999999
40
1
40
1
40
1
40
1
41
1
10
15.4816943001056
20
7.36729208785468
30
0
41
1
10
15.4816943001056
20
6.92090248968105
30
0
41
1
10
15.4797569464211
20
6.48198808214906
30
0
41
1
10
15.473997857403
20
5.83437015897476
30
0
41
1
10
15.4715978695932
20
5.62030316299271
30
0
41
1
10
15.4657879213642
20
5.19586319070291
30
0
41
1
10
15.4623615624746
20
4.98494489138125
30
0
41
1
10
15.4507213365795
20
4.37148163823395
30
0
41
1
10
15.4411145264859
20
3.98357631645766
30
0
41
1
10
15.4265815419414
20
3.52479960784473
30
0
41
1
10
15.4235474003212
20
3.43436128022827
30
0
41
1
10
15.4172130737053
20
3.25616089047506
30
0
41
1
10
15.4139033564449
20
3.16816538845765
30
0
41
1
10
15.4036320796986
20
2.91019061159574
30
0
41
1
10
15.3963465704462
20
2.74651597691863
30
0
41
1
10
15.3731320204085
20
2.27964106635881
30
0
41
1
10
15.3558584829582
20
2.00036135322429
30
0
41
1
10
15.3316824678953
20
1.69218145399134
30
0
41
1
10
15.3267031828059
20
1.63246501334965
30
0
41
1
10
15.3165699173281
20
1.51833682896736
30
0
41
1
10
15.3114108106252
20
1.46383803706385
30
0
41
1
10
15.2956519208105
20
1.30789602480883
30
0
41
1
10
15.2738900172121
20
1.12008263540568
30
0
41
1
10
15.2505634582502
20
0.971882445197792
30
0
41
1
10
15.2324465048695
20
0.875789643480942
30
0
41
1
10
15.2263037287254
20
0.846272703141977
30
0
41
1
10
15.2138031157938
20
0.792356664140129
30
0
41
1
10
15.2074339489983
20
0.767934018312616
30
0
41
1
10
15.1753816022252
20
0.659983506035388
30
0
41
1
10
15.1488418712761
20
0.617350148277779
30
0
41
1
10
15.10765447998
20
0.617263145680255
30
0
41
1
10
15.0936954843669
20
0.627954376096653
30
0
41
1
10
15.0724058566788
20
0.660562235644591
30
0
41
1
10
15.0652500560446
20
0.674219792155839
30
0
41
1
10
15.0509817466715
20
0.706768462749949
30
0
41
1
10
15.0438493611594
20
0.725684996380465
30
0
41
1
10
15.0082021200649
20
0.833262378765937
30
0
41
1
10
14.9797246293021
20
0.960536957461358
30
0
41
1
10
14.9372585625206
20
1.21366517559676
30
0
41
1
10
14.9230706428808
20
1.30910709684565
30
0
41
1
10
14.8953431231262
20
1.51780498660881
30
0
41
1
10
14.8817779412023
20
1.63107790053996
30
0
41
1
10
14.8420319690982
20
1.997044087624
30
0
41
1
10
14.8167881854184
20
2.2756286126112
30
0
41
1
10
14.7812227505488
20
2.74751939376884
30
0
41
1
10
14.7699087319153
20
2.91189427554485
30
0
41
1
10
14.748518624456
20
3.25247517027768
30
0
41
1
10
14.7283211377401
20
3.60549011306549
30
0
41
1
10
14.7105995109075
20
3.98319038959951
30
0
41
1
10
14.6941938769444
20
4.37350200762731
30
0
41
1
10
14.6866254526937
20
4.57590228926534
30
0
41
1
10
14.6664602214312
20
5.18970196461709
30
0
41
1
10
14.6562228201458
20
5.61070914628465
30
0
41
1
10
14.6458094609588
20
6.25972268802178
30
0
41
1
10
14.6431635071794
20
6.47939718257734
30
0
41
1
10
14.6396222423466
20
6.92317561895723
30
0
41
1
10
14.6387471305042
20
7.14434904346774
30
0
41
1
10
14.638727695297
20
7.80579320244843
30
0
41
1
10
14.6421703713434
20
8.24400734947284
30
0
41
1
10
14.6508229332737
20
8.78827094244068
30
0
41
1
10
14.6527785402285
20
8.89723849451741
30
0
41
1
10
14.6571027984145
20
9.11326157415579
30
0
41
1
10
14.6594672505013
20
9.22018170353778
30
0
41
1
10
14.6671501102607
20
9.53773199481466
30
0
41
1
10
14.6789635539587
20
9.95258745625765
30
0
41
1
10
14.6937903100119
20
10.350648342328
30
0
41
1
10
14.7060200189576
20
10.6428241522686
30
0
41
1
10
14.7102818007244
20
10.7391525661173
30
0
41
1
10
14.7191757288812
20
10.9296466989152
30
0
41
1
10
14.7238209642953
20
11.0240515773031
30
0
41
1
10
14.7477414743252
20
11.4860915105852
30
0
41
1
10
14.7691546521119
20
11.8261034113168
30
0
41
1
10
14.8042535225076
20
12.2930481656413
30
0
41
1
10
14.8164534925953
20
12.4414654247268
30
0
41
1
10
14.8354817029625
20
12.6529367622826
30
0
41
1
10
14.8419562216868
20
12.7216514862761
30
0
41
1
10
14.855002165201
20
12.8538549034638
30
0
41
1
10
14.861589376937
20
12.917529271772
30
0
41
1
10
14.8948242108145
20
13.2239747184794
30
0
41
1
10
14.9223565573926
20
13.4313065240228
30
0
41
1
10
14.9577191112025
20
13.6430618645309
30
0
41
1
10
14.9648396809325
20
13.6830211802864
30
0
41
1
10
14.9791738556281
20
13.7580650970611
30
0
41
1
10
14.9863851783223
20
13.7931184221216
30
0
41
1
10
15.0079125776725
20
13.8898052032563
30
0
41
1
10
15.0222019687227
20
13.9434222409328
30
0
41
1
10
15.0648482431635
20
14.0725630702136
30
0
41
1
10
15.0929804971926
20
14.1166841410439
30
0
41
1
10
15.1277020610187
20
14.1174363512748
30
0
41
1
10
15.1346064164665
20
14.1148263901168
30
0
41
1
10
15.148224026159
20
14.1041962305199
30
0
41
1
10
15.1549539894052
20
14.0961782366427
30
0
41
1
10
15.1749125242182
20
14.0641388530508
30
0
41
1
10
15.2009074146374
20
14.0001622115859
30
0
41
1
10
15.2257128878398
20
13.894050453477
30
0
41
1
10
15.2499388327989
20
13.7664497582776
30
0
41
1
10
15.2618162729334
20
13.691415325816
30
0
41
1
10
15.2959161850011
20
13.4380177902526
30
0
41
1
10
15.3167904572759
20
13.2312103245815
30
0
41
1
10
15.3456364374158
20
12.8650200544723
30
0
41
1
10
15.3548398218499
20
12.7335384773679
30
0
41
1
10
15.3724402789364
20
12.4511838032041
30
0
41
1
10
15.3806922890249
20
12.302649014489
30
0
41
1
10
15.4039454337063
20
11.8357317654225
30
0
41
1
10
15.4174572361788
20
11.4962359023176
30
0
41
1
10
15.4350271929517
20
10.943932944943
30
0
41
1
10
15.4404397601594
20
10.7519704869535
30
0
41
1
10
15.4501673806328
20
10.3617656298142
30
0
41
1
10
15.4588641443677
20
9.96344693626523
30
0
41
1
10
15.465624729813
20
9.54919950222748
30
0
41
1
10
15.471443756925
20
9.12690600722763
30
0
41
1
10
15.4738880449053
20
8.91109901581186
30
0
41
1
10
15.4797570976316
20
8.25542540653436
30
0
41
1
10
15.4816943001056
20
7.81368168602833
30
0
41
1
10
15.4816943001056
20
7.36729208785468
30
0
0
SPLINE
5
15C
100
AcDbEntity
8
1
62
256
6
ByLayer
370
18
48
1
60
0
100
AcDbSpline
70
4
71
3
72
18
73
14
40
0
40
0
40
0
40
0
40
0.125
40
0.125
40
0.25
40
0.25
40
0.375
40
0.375
40
0.5
40
0.5
40
0.75
40
0.75
40
1
40
1
40
1
40
1
41
1
10
2.1700000000001
20
10.5219466619723
30
0
41
1
10
2.20787916818492
20
10.5219466619723
30
0
41
1
10
2.24441433038578
20
10.5299398810964
30
0
41
1
10
2.30777277594859
20
10.5547659210508
30
0
41
1
10
2.33514005760671
20
10.5713805453125
30
0
41
1
10
2.38215504060008
20
10.6072592799716
30
0
41
1
10
2.40234366475482
20
10.6269586868512
30
0
41
1
10
2.43715060847012
20
10.6669525451438
30
0
41
1
10
2.45198801586062
20
10.68746885244
30
0
41
1
10
2.49096754939219
20
10.7498635162828
30
0
41
1
10
2.50946817111696
20
10.7923633004173
30
0
41
1
10
2.53565909091336
20
10.8755170683929
30
0
41
1
10
2.54344995261795
20
10.9165849145319
30
0
41
1
10
2.54663568559673
20
10.957010274545
30
0
0
SPLINE
5
15D
100
AcDbEntity
8
SK1
62
256
6
ByLayer
370
18
48
1
60
0
100
AcDbSpline
70
4
71
3
72
8
73
4
40
0
40
0
40
0
40
0
40
1
40
1
40
1
40
1
41
1
10
0.342769052838293
20
9.92710219507396
30
0
41
1
10
0.200228104510074
20
10.0093982499618
30
0
41
1
10
0.0693189021619105
20
10.0849787131769
30
0
41
1
10
-0.0469703231316885
20
10.152118328704
30
0
0
SPLINE
5
15E
100
AcDbEntity
8
SK1
62
256
6
ByLayer
370
18
48
1
60
0
100
AcDbSpline
70
4
71
3
72
8
73
4
40
0
40
0
40
0
40
0
40
1
40
1
40
1
40
1
41
1
10
0.126148905032608
20
5.55216789572145
30
0
41
1
10
0.0001260536854772
20
5.62492722287075
30
0
41
1
10
-0.125290129204359
20
5.69733628982294
30
0
41
1
10
-0.249980947161618
20
5.76932656713603
30
0
0
SPLINE
5
15F
100
AcDbEntity
8
SK1
62
256
6
ByLayer
370
18
48
1
60
0
100
AcDbSpline
70
4
71
3
72
10
73
6
40
0
40
0
40
0
40
0
40
0.5
40
0.5
40
1
40
1
40
1
40
1
41
1
10
-0.324980947161663
20
5.89923037770376
30
0
41
1
10
-0.324980947161663
20
5.86925980150139
30
0
41
1
10
-0.31541920583507
20
5.84050503820618
30
0
41
1
10
-0.287575493106886
20
5.79678996467396
30
0
41
1
10
-0.269423016056436
20
5.78055145084605
30
0
41
1
10
-0.249980947161646
20
5.76932656713601
30
0
0
SPLINE
5
160
100
AcDbEntity
8
SK1
62
256
6
ByLayer
370
18
48
1
60
0
100
AcDbSpline
70
4
71
3
72
10
73
6
40
0
40
0
40
0
40
0
40
0.5
40
0.5
40
1
40
1
40
1
40
1
41
1
10
-0.249980947161703
20
6.23067343286391
30
0
41
1
10
-0.269221301634246
20
6.21956500902988
30
0
41
1
10
-0.287683543961578
20
6.20323581555743
30
0
41
1
10
-0.315955426925655
20
6.1584531740433
30
0
41
1
10
-0.324980948528605
20
6.12971339378615
30
0
41
1
10
-0.324980947161663
20
6.10076961521222
30
0
0
SPLINE
5
161
100
AcDbEntity
8
SK1
62
256
6
ByLayer
370
18
48
1
60
0
100
AcDbSpline
70
4
71
3
72
8
73
4
40
0
40
0
40
0
40
0
40
1
40
1
40
1
40
1
41
1
10
-0.249980947161618
20
6.23067343286397
30
0
41
1
10
-0.0532711848777012
20
6.34424386707082
30
0
41
1
10
0.144388484030259
20
6.45836273012276
30
0
41
1
10
0.342769052838406
20
6.57289780492613
30
0
0
SPLINE
5
162
100
AcDbEntity
8
1
62
256
6
ByLayer
370
18
48
1
60
0
100
AcDbSpline
70
4
71
3
72
18
73
14
40
0
40
0
40
0
40
0
40
0.249999999999983
40
0.249999999999983
40
0.374999999999982
40
0.374999999999982
40
0.49999999999998
40
0.49999999999998
40
0.624999999999979
40
0.624999999999979
40
0.749999999999977
40
0.749999999999977
40
1
40
1
40
1
40
1
41
1
10
0.342769052839571
20
6.57289780491911
30
0
41
1
10
0.370516593263915
20
6.58891785485204
30
0
41
1
10
0.397303986572183
20
6.61292698995092
30
0
41
1
10
0.427069711749226
20
6.6639379843231
30
0
41
1
10
0.434841942706129
20
6.68302567681894
30
0
41
1
10
0.444310147221273
20
6.72323929480854
30
0
41
1
10
0.445902567674096
20
6.7442018249715
30
0
41
1
10
0.443169313479899
20
6.78389511560462
30
0
41
1
10
0.438900918789187
20
6.8028052284138
30
0
41
1
10
0.426637846290532
20
6.83662304318065
30
0
41
1
10
0.418504222063262
20
6.85201367673574
30
0
41
1
10
0.390918604963161
20
6.89234207927842
30
0
41
1
10
0.367782685192367
20
6.91266056770314
30
0
41
1
10
0.342769052829709
20
6.92710219507944
30
0
0
SPLINE
5
163
100
AcDbEntity
8
SK1
62
256
6
ByLayer
370
18
48
1
60
0
100
AcDbSpline
70
4
71
3
72
8
73
4
40
0
40
0
40
0
40
0
40
1
40
1
40
1
40
1
41
1
10
0.342769052829794
20
6.92710219507885
30
0
41
1
10
0.141559860419505
20
7.04327037648034
30
0
41
1
10
-0.0563906484607344
20
7.15755715606858
30
0
41
1
10
-0.249980947161618
20
7.26932656713603
30
0
0
SPLINE
5
164
100
AcDbEntity
8
SK1
62
256
6
ByLayer
370
18
48
1
60
0
100
AcDbSpline
70
4
71
3
72
12
73
8
40
0
40
0
40
0
40
0
40
0.250000000000002
40
0.250000000000002
40
0.500000000000004
40
0.500000000000004
40
1
40
1
40
1
40
1
41
1
10
-0.324980947162771
20
7.39923037770149
30
0
41
1
10
-0.324980947162516
20
7.38337657086745
30
0
41
1
10
-0.322450175692978
20
7.36837825477235
30
0
41
1
10
-0.31411165491005
20
7.34142317214577
30
0
41
1
10
-0.308330050423791
20
7.32935310050169
30
0
41
1
10
-0.287609551001026
20
7.29688749110628
30
0
41
1
10
-0.269931169711441
20
7.28084483349556
30
0
41
1
10
-0.249980947161618
20
7.26932656713603
30
0
0
SPLINE
5
165
100
AcDbEntity
8
SK1
62
256
6
ByLayer
370
18
48
1
60
0
100
AcDbSpline
70
4
71
3
72
12
73
8
40
0
40
0
40
0
40
0
40
0.500000000000018
40
0.500000000000018
40
0.750000000000009
40
0.750000000000009
40
1
40
1
40
1
40
1
41
1
10
-0.249980947161959
20
7.73067343286519
30
0
41
1
10
-0.269423441542244
20
7.71944830350108
30
0
41
1
10
-0.289029564075861
20
7.70196041488734
30
0
41
1
10
-0.310297262082116
20
7.66692217929645
30
0
41
1
10
-0.315981866199223
20
7.65376622660901
30
0
41
1
10
-0.323277724085671
20
7.62718865316549
30
0
41
1
10
-0.324980946025562
20
7.61364114856781
30
0
41
1
10
-0.324980947161663
20
7.60076963553595
30
0
0
SPLINE
5
166
100
AcDbEntity
8
SK1
62
256
6
ByLayer
370
18
48
1
60
0
100
AcDbSpline
70
4
71
3
72
8
73
4
40
0
40
0
40
0
40
0
40
1
40
1
40
1
40
1
41
1
10
-0.249980947161618
20
7.73067343286397
30
0
41
1
10
-0.0525430838766852
20
7.84466423637974
30
0
41
1
10
0.145053884700019
20
7.95874689937855
30
0
41
1
10
0.342769052838406
20
8.07289780492613
30
0
0
SPLINE
5
167
100
AcDbEntity
8
1
62
256
6
ByLayer
370
18
48
1
60
0
100
AcDbSpline
70
4
71
3
72
20
73
16
40
0
40
0
40
0
40
0
40
0.124999999999996
40
0.124999999999996
40
0.249999999999991
40
0.249999999999991
40
0.374999999999987
40
0.374999999999987
40
0.499999999999983
40
0.499999999999983
40
0.624999999999978
40
0.624999999999978
40
0.749999999999974
40
0.749999999999974
40
1
40
1
40
1
40
1
41
1
10
0.342769052838463
20
8.07289780491899
30
0
41
1
10
0.358292509144548
20
8.08186027659571
30
0
41
1
10
0.373840112708223
20
8.0935961735581
30
0
41
1
10
0.402117274927349
20
8.12302489792023
30
0
41
1
10
0.414983786794949
20
8.14098160453818
30
0
41
1
10
0.434460540703299
20
8.18137308670541
30
0
41
1
10
0.440646639176208
20
8.2030162989677
30
0
41
1
10
0.44601531082543
20
8.24454042772553
30
0
41
1
10
0.445321800639732
20
8.26441983775575
30
0
41
1
10
0.439548347043996
20
8.300392829608
30
0
41
1
10
0.434428159406963
20
8.31691561693782
30
0
41
1
10
0.421597423724734
20
8.34637979558781
30
0
41
1
10
0.413807258685097
20
8.35960033832484
30
0
41
1
10
0.387312012959086
20
8.3954483504375
30
0
41
1
10
0.366333953146238
20
8.41349699353788
30
0
41
1
10
0.342769052838492
20
8.42710219507401
30
0
0
SPLINE
5
168
100
AcDbEntity
8
SK1
62
256
6
ByLayer
370
18
48
1
60
0
100
AcDbSpline
70
4
71
3
72
8
73
4
40
0
40
0
40
0
40
0
40
1
40
1
40
1
40
1
41
1
10
0.342769052838406
20
8.42710219507387
30
0
41
1
10
0.136066482638881
20
8.54644197962077
30
0
41
1
10
-0.062536339194196
20
8.66110537226791
30
0
41
1
10
-0.249980947161618
20
8.76932656713606
30
0
0
SPLINE
5
169
100
AcDbEntity
8
SK1
62
256
6
ByLayer
370
18
48
1
60
0
100
AcDbSpline
70
4
71
3
72
10
73
6
40
0
40
0
40
0
40
0
40
0.5
40
0.5
40
1
40
1
40
1
40
1
41
1
10
-0.324980947161663
20
8.89923037769213
30
0
41
1
10
-0.324980947159133
20
8.86655406122375
30
0
41
1
10
-0.315260525494267
20
8.84047279882148
30
0
41
1
10
-0.28846912336104
20
8.79798193556155
30
0
41
1
10
-0.270641110941739
20
8.78125471825555
30
0
41
1
10
-0.249980947161816
20
8.76932656713572
30
0
0
SPLINE
5
16A
100
AcDbEntity
8
SK1
62
256
6
ByLayer
370
18
48
1
60
0
100
AcDbSpline
70
4
71
3
72
14
73
10
40
0
40
0
40
0
40
0
40
0.25
40
0.25
40
0.5
40
0.5
40
0.75
40
0.75
40
1
40
1
40
1
40
1
41
1
10
-0.249980947161077
20
9.23067343286613
30
0
41
1
10
-0.260244164922426
20
9.22474796132903
30
0
41
1
10
-0.270778577522549
20
9.21705150636515
30
0
41
1
10
-0.290763328836391
20
9.19717036212276
30
0
41
1
10
-0.299849915215702
20
9.18511528382064
30
0
41
1
10
-0.313591135543021
20
9.15987685939754
30
0
41
1
10
-0.318241784056994
20
9.14694235130659
30
0
41
1
10
-0.323900489139646
20
9.12264559791507
30
0
41
1
10
-0.324980945088157
20
9.1114286884023
30
0
41
1
10
-0.324980947161663
20
9.10076965147607
30
0
0
SPLINE
5
16B
100
AcDbEntity
8
SK1
62
256
6
ByLayer
370
18
48
1
60
0
100
AcDbSpline
70
4
71
3
72
8
73
4
40
0
40
0
40
0
40
0
40
1
40
1
40
1
40
1
41
1
10
-0.249980947161333
20
9.23067343286414
30
0
41
1
10
-0.0525671006114692
20
9.34465037031146
30
0
41
1
10
0.145035952120594
20
9.45873654599899
30
0
41
1
10
0.342769052838435
20
9.57289780492613
30
0
0
SPLINE
5
16C
100
AcDbEntity
8
1
62
256
6
ByLayer
370
18
48
1
60
0
100
AcDbSpline
70
4
71
3
72
18
73
14
40
0
40
0
40
0
40
0
40
0.124999999999994
40
0.124999999999994
40
0.249999999999987
40
0.249999999999987
40
0.374999999999981
40
0.374999999999981
40
0.499999999999974
40
0.499999999999974
40
0.749999999999987
40
0.749999999999987
40
1
40
1
40
1
40
1
41
1
10
0.342769052837866
20
9.5728978049236
30
0
41
1
10
0.361659745428653
20
9.58380435137585
30
0
41
1
10
0.381427263361985
20
9.5994346114386
30
0
41
1
10
0.415201412962375
20
9.64040468492163
30
0
41
1
10
0.428156283129027
20
9.66518180396037
30
0
41
1
10
0.442739500660735
20
9.71115740671527
30
0
41
1
10
0.445111268805221
20
9.73216305181919
30
0
41
1
10
0.444921672841474
20
9.76989222185932
30
0
41
1
10
0.442344734563534
20
9.78660417650852
30
0
41
1
10
0.430207127453428
20
9.83277421407414
30
0
41
1
10
0.416682839154987
20
9.85712203954071
30
0
41
1
10
0.383930349616691
20
9.89812835961129
30
0
41
1
10
0.364451801694372
20
9.9145836541858
30
0
41
1
10
0.342769052838719
20
9.92710219507438
30
0
0
SPLINE
5
16D
100
AcDbEntity
8
SK1
62
256
6
ByLayer
370
18
48
1
60
0
100
AcDbSpline
70
4
71
3
72
8
73
4
40
0
40
0
40
0
40
0
40
1
40
1
40
1
40
1
41
1
10
0.342769052838264
20
-9.92710219507393
30
0
41
1
10
0.200228104510046
20
-10.0093982499618
30
0
41
1
10
0.0693189021619105
20
-10.0849787131769
30
0
41
1
10
-0.0469703231316885
20
-10.152118328704
30
0
0
SPLINE
5
16E
100
AcDbEntity
8
1
62
256
6
ByLayer
370
18
48
1
60
0
100
AcDbSpline
70
4
71
3
72
18
73
14
40
0
40
0
40
0
40
0
40
0.125000000000006
40
0.125000000000006
40
0.250000000000013
40
0.250000000000013
40
0.375000000000019
40
0.375000000000019
40
0.500000000000026
40
0.500000000000026
40
0.750000000000013
40
0.750000000000013
40
1
40
1
40
1
40
1
41
1
10
0.342769052837753
20
-9.57289780492357
30
0
41
1
10
0.36165974542854
20
-9.58380435137582
30
0
41
1
10
0.381427263361843
20
-9.59943461143854
30
0
41
1
10
0.415201412962233
20
-9.64040468492158
30
0
41
1
10
0.428156283128914
20
-9.66518180396031
30
0
41
1
10
0.44273950066065
20
-9.71115740671522
30
0
41
1
10
0.445111268805135
20
-9.73216305181913
30
0
41
1
10
0.444921672841417
20
-9.76989222185927
30
0
41
1
10
0.442344734563477
20
-9.78660417650846
30
0
41
1
10
0.430207127453372
20
-9.83277421407408
30
0
41
1
10
0.41668283915493
20
-9.85712203954068
30
0
41
1
10
0.383930349616634
20
-9.89812835961126
30
0
41
1
10
0.364451801694344
20
-9.91458365418578
30
0
41
1
10
0.34276905283869
20
-9.92710219507435
30
0
0
SPLINE
5
16F
100
AcDbEntity
8
SK1
62
256
6
ByLayer
370
18
48
1
60
0
100
AcDbSpline
70
4
71
3
72
8
73
4
40
0
40
0
40
0
40
0
40
1
40
1
40
1
40
1
41
1
10
-0.249980947161618
20
-9.23067343286397
30
0
41
1
10
-0.0525671006116681
20
-9.34465037031134
30
0
41
1
10
0.145035952120452
20
-9.45873654599893
30
0
41
1
10
0.342769052838321
20
-9.5728978049261
30
0
0
SPLINE
5
170
100
AcDbEntity
8
SK1
62
256
6
ByLayer
370
18
48
1
60
0
100
AcDbSpline
70
4
71
3
72
14
73
10
40
0
40
0
40
0
40
0
40
0.25
40
0.25
40
0.5
40
0.5
40
0.75
40
0.75
40
1
40
1
40
1
40
1
41
1
10
-0.324980947166523
20
-9.1007696222826
30
0
41
1
10
-0.324980947167489
20
-9.11136059578072
30
0
41
1
10
-0.323881994656631
20
-9.1227497724874
30
0
41
1
10
-0.318229425941382
20
-9.14697051270775
30
0
41
1
10
-0.313571777695841
20
-9.15991639605673
30
0
41
1
10
-0.299850214227632
20
-9.18511074688462
30
0
41
1
10
-0.290682009752601
20
-9.19725898448246
30
0
41
1
10
-0.270776707340446
20
-9.21704560963474
30
0
41
1
10
-0.260190127137889
20
-9.2247791600609
30
0
41
1
10
-0.249980947161561
20
-9.23067343286823
30
0
0
SPLINE
5
171
100
AcDbEntity
8
SK1
62
256
6
ByLayer
370
18
48
1
60
0
100
AcDbSpline
70
4
71
3
72
12
73
8
40
0
40
0
40
0
40
0
40
0.500000000000033
40
0.500000000000033
40
0.750000000000016
40
0.750000000000016
40
1
40
1
40
1
40
1
41
1
10
-0.249980947162186
20
-8.76932656713527
30
0
41
1
10
-0.270604914733156
20
-8.78123382036412
30
0
41
1
10
-0.288263389710124
20
-8.79770683350705
30
0
41
1
10
-0.308536328216064
20
-8.82978294689866
30
0
41
1
10
-0.314161023968097
20
-8.84158814262517
30
0
41
1
10
-0.322390682705617
20
-8.86818056431358
30
0
41
1
10
-0.324980951347356
20
-8.8828859838309
30
0
41
1
10
-0.324980947161691
20
-8.89923041611752
30
0
0
SPLINE
5
172
100
AcDbEntity
8
SK1
62
256
6
ByLayer
370
18
48
1
60
0
100
AcDbSpline
70
4
71
3
72
8
73
4
40
0
40
0
40
0
40
0
40
1
40
1
40
1
40
1
41
1
10
0.342769052838378
20
-8.42710219507387
30
0
41
1
10
0.136066482638853
20
-8.54644197962077
30
0
41
1
10
-0.0625363391942244
20
-8.66110537226791
30
0
41
1
10
-0.249980947161646
20
-8.76932656713603
30
0
0
SPLINE
5
173
100
AcDbEntity
8
1
62
256
6
ByLayer
370
18
48
1
60
0
100
AcDbSpline
70
4
71
3
72
20
73
16
40
0
40
0
40
0
40
0
40
0.125000000000004
40
0.125000000000004
40
0.250000000000007
40
0.250000000000007
40
0.375000000000011
40
0.375000000000011
40
0.500000000000015
40
0.500000000000015
40
0.625000000000018
40
0.625000000000018
40
0.750000000000022
40
0.750000000000022
40
1
40
1
40
1
40
1
41
1
10
0.342769052838463
20
-8.07289780491899
30
0
41
1
10
0.358292509144519
20
-8.08186027659573
30
0
41
1
10
0.373840112708194
20
-8.0935961735581
30
0
41
1
10
0.402117274927321
20
-8.12302489792023
30
0
41
1
10
0.414983786794949
20
-8.14098160453821
30
0
41
1
10
0.43446054070327
20
-8.18137308670541
30
0
41
1
10
0.440646639176208
20
-8.2030162989677
30
0
41
1
10
0.44601531082543
20
-8.24454042772555
30
0
41
1
10
0.445321800639732
20
-8.26441983775578
30
0
41
1
10
0.439548347043996
20
-8.300392829608
30
0
41
1
10
0.434428159406963
20
-8.31691561693785
30
0
41
1
10
0.421597423724705
20
-8.34637979558784
30
0
41
1
10
0.413807258685068
20
-8.35960033832484
30
0
41
1
10
0.387312012959057
20
-8.3954483504375
30
0
41
1
10
0.36633395314621
20
-8.4134969935379
30
0
41
1
10
0.342769052838463
20
-8.42710219507401
30
0
0
SPLINE
5
174
100
AcDbEntity
8
SK1
62
256
6
ByLayer
370
18
48
1
60
0
100
AcDbSpline
70
4
71
3
72
8
73
4
40
0
40
0
40
0
40
0
40
1
40
1
40
1
40
1
41
1
10
-0.249980947161618
20
-7.73067343286397
30
0
41
1
10
-0.0525430838767136
20
-7.84466423637974
30
0
41
1
10
0.145053884699991
20
-7.95874689937855
30
0
41
1
10
0.342769052838378
20
-8.07289780492613
30
0
0
SPLINE
5
175
100
AcDbEntity
8
SK1
62
256
6
ByLayer
370
18
48
1
60
0
100
AcDbSpline
70
4
71
3
72
12
73
8
40
0
40
0
40
0
40
0
40
0.25
40
0.25
40
0.5
40
0.5
40
1
40
1
40
1
40
1
41
1
10
-0.324980947161748
20
-7.60076962228359
30
0
41
1
10
-0.324980947162828
20
-7.61355284176679
30
0
41
1
10
-0.323278187877406
20
-7.62715829572269
30
0
41
1
10
-0.316025131018847
20
-7.65363711598729
30
0
41
1
10
-0.310349374009064
20
-7.66682045254663
30
0
41
1
10
-0.289065322062783
20
-7.70193309425636
30
0
41
1
10
-0.269481467385646
20
-7.71941480226343
30
0
41
1
10
-0.249980947161674
20
-7.73067343286405
30
0
0
SPLINE
5
176
100
AcDbEntity
8
SK1
62
256
6
ByLayer
370
18
48
1
60
0
100
AcDbSpline
70
4
71
3
72
10
73
6
40
0
40
0
40
0
40
0
40
0.5
40
0.5
40
1
40
1
40
1
40
1
41
1
10
-0.249980947159941
20
-7.2693265671343
30
0
41
1
10
-0.269739875690192
20
-7.28073438983972
30
0
41
1
10
-0.287604165308892
20
-7.29692770850383
30
0
41
1
10
-0.315076899640502
20
-7.3398759381873
30
0
41
1
10
-0.324980951061235
20
-7.36726670859454
30
0
41
1
10
-0.324980947161691
20
-7.39923039600365
30
0
0
SPLINE
5
177
100
AcDbEntity
8
SK1
62
256
6
ByLayer
370
18
48
1
60
0
100
AcDbSpline
70
4
71
3
72
8
73
4
40
0
40
0
40
0
40
0
40
1
40
1
40
1
40
1
41
1
10
0.342769052838378
20
-6.92710219507387
30
0
41
1
10
0.14155986042573
20
-7.04327037647676
30
0
41
1
10
-0.0563906484568122
20
-7.1575571560663
30
0
41
1
10
-0.249980947159884
20
-7.26932656713504
30
0
0
SPLINE
5
178
100
AcDbEntity
8
1
62
256
6
ByLayer
370
18
48
1
60
0
100
AcDbSpline
70
4
71
3
72
18
73
14
40
0
40
0
40
0
40
0
40
0.25
40
0.25
40
0.375000000000005
40
0.375000000000005
40
0.50000000000001
40
0.50000000000001
40
0.625000000000015
40
0.625000000000015
40
0.75000000000002
40
0.75000000000002
40
1
40
1
40
1
40
1
41
1
10
0.342769052839543
20
-6.57289780491914
30
0
41
1
10
0.370516593263062
20
-6.58891785485156
30
0
41
1
10
0.397303986570591
20
-6.61292698994956
30
0
41
1
10
0.427069711747379
20
-6.66393798431926
30
0
41
1
10
0.434841942704452
20
-6.68302567681425
30
0
41
1
10
0.444310147220421
20
-6.72323929480251
30
0
41
1
10
0.445902567673841
20
-6.74420182496479
30
0
41
1
10
0.443169313481093
20
-6.78389511559723
30
0
41
1
10
0.438900918791148
20
-6.8028052284063
30
0
41
1
10
0.426637846293971
20
-6.83662304317312
30
0
41
1
10
0.418504222067469
20
-6.85201367672838
30
0
41
1
10
0.390918604969414
20
-6.89234207927171
30
0
41
1
10
0.367782685199927
20
-6.91266056769709
30
0
41
1
10
0.342769052838577
20
-6.92710219507433
30
0
0
SPLINE
5
179
100
AcDbEntity
8
SK1
62
256
6
ByLayer
370
18
48
1
60
0
100
AcDbSpline
70
4
71
3
72
8
73
4
40
0
40
0
40
0
40
0
40
1
40
1
40
1
40
1
41
1
10
-0.249980947161618
20
-6.23067343286397
30
0
41
1
10
-0.0532711848777296
20
-6.34424386707082
30
0
41
1
10
0.144388484030259
20
-6.45836273012276
30
0
41
1
10
0.342769052838406
20
-6.57289780492613
30
0
0
SPLINE
5
17A
100
AcDbEntity
8
SK1
62
256
6
ByLayer
370
18
48
1
60
0
100
AcDbSpline
70
4
71
3
72
10
73
6
40
0
40
0
40
0
40
0
40
0.5
40
0.5
40
1
40
1
40
1
40
1
41
1
10
-0.324980947161691
20
-6.10076962229394
30
0
41
1
10
-0.324980947162118
20
-6.12931852219359
30
0
41
1
10
-0.315985583490715
20
-6.1583535544857
30
0
41
1
10
-0.287820516916696
20
-6.20307039555914
30
0
41
1
10
-0.269391712225257
20
-6.21946662242931
30
0
41
1
10
-0.249980947161618
20
-6.23067343286397
30
0
0
SPLINE
5
17B
100
AcDbEntity
8
SK1
62
256
6
ByLayer
370
18
48
1
60
0
100
AcDbSpline
70
4
71
3
72
10
73
6
40
0
40
0
40
0
40
0
40
0.5
40
0.5
40
1
40
1
40
1
40
1
41
1
10
-0.249980947161646
20
-5.76932656713603
30
0
41
1
10
-0.269347069078094
20
-5.78050760283764
30
0
41
1
10
-0.287503923385998
20
-5.79667268399612
30
0
41
1
10
-0.31550710425006
20
-5.84064795806293
30
0
41
1
10
-0.324980950420439
20
-5.86885663496986
30
0
41
1
10
-0.324980947161691
20
-5.89923039379707
30
0
0
SPLINE
5
17C
100
AcDbEntity
8
SK1
62
256
6
ByLayer
370
18
48
1
60
0
100
AcDbSpline
70
4
71
3
72
8
73
4
40
0
40
0
40
0
40
0
40
1
40
1
40
1
40
1
41
1
10
0.126148905032494
20
-5.55216789572151
30
0
41
1
10
0.000126053685392
20
-5.62492722287081
30
0
41
1
10
-0.125290129204387
20
-5.69733628982294
30
0
41
1
10
-0.249980947161618
20
-5.76932656713603
30
0
0
SPLINE
5
17D
100
AcDbEntity
8
1
62
256
6
ByLayer
370
18
48
1
60
0
100
AcDbSpline
70
4
71
3
72
17
73
13
40
0
40
0
40
0
40
0
40
0.25
40
0.25
40
0.374999999999999
40
0.374999999999999
40
0.499999999999998
40
0.624999999999997
40
0.624999999999997
40
0.749999999999996
40
0.749999999999996
40
1
40
1
40
1
40
1
41
1
10
2.17000000000002
20
17.0091721829587
30
0
41
1
10
2.29771776147064
20
17.0091721829587
30
0
41
1
10
2.42264180032848
20
17.021552667736
30
0
41
1
10
2.60602849892871
20
17.0578467048294
30
0
41
1
10
2.66689276060322
20
17.0730665254138
30
0
41
1
10
2.78492536557437
20
17.1089730282105
30
0
41
1
10
2.89911657685727
20
17.1501859994517
30
0
41
1
10
3.00595105483617
20
17.2015614992699
30
0
41
1
10
3.10911601028866
20
17.258006046177
30
0
41
1
10
3.1589490045165
20
17.288874074779
30
0
41
1
10
3.29933139719873
20
17.3866942299622
30
0
41
1
10
3.38220643188853
20
17.459438432783
30
0
41
1
10
3.45468625834064
20
17.5394898531558
30
0
0
SPLINE
5
17E
100
AcDbEntity
8
1
62
256
6
ByLayer
370
18
48
1
60
0
100
AcDbSpline
70
4
71
3
72
14
73
10
40
0
40
0
40
0
40
0
40
0.25
40
0.25
40
0.5
40
0.5
40
0.75
40
0.75
40
1
40
1
40
1
40
1
41
1
10
2.88684646059605
20
16.3364190703744
30
0
41
1
10
2.89110487991732
20
16.4096890581998
30
0
41
1
10
2.91675159604384
20
16.490071021557
30
0
41
1
10
2.99464885857535
20
16.6645058887589
30
0
41
1
10
3.04661571684224
20
16.75902140506
30
0
41
1
10
3.15928127680036
20
16.9606388482515
30
0
41
1
10
3.2197500530423
20
17.0673200961914
30
0
41
1
10
3.33949252432757
20
17.2934735585314
30
0
41
1
10
3.39889055908415
20
17.4129356104025
30
0
41
1
10
3.45468625834061
20
17.5394898531558
30
0
0
SPLINE
5
17F
100
AcDbEntity
8
1
62
256
6
ByLayer
370
18
48
1
60
0
100
AcDbSpline
70
4
71
3
72
12
73
8
40
0
40
0
40
0
40
0
40
0.25
40
0.25
40
0.5
40
0.5
40
1
40
1
40
1
40
1
41
1
10
2.54663568559306
20
10.9570102745444
30
0
41
1
10
2.5885022784469
20
11.4882764226813
30
0
41
1
10
2.62375712656441
20
11.999441346185
30
0
41
1
10
2.6883011882251
20
12.9813976105911
30
0
41
1
10
2.71731456116507
20
13.451402317486
30
0
41
1
10
2.79837718453649
20
14.7971467498875
30
0
41
1
10
2.84459831020754
20
15.6095011153582
30
0
41
1
10
2.8868464605961
20
16.3364190703745
30
0
0
SPLINE
5
180
100
AcDbEntity
8
SK1
62
256
6
ByLayer
370
18
48
1
60
0
100
AcDbSpline
70
4
71
3
72
12
73
8
40
0
40
0
40
0
40
0
40
0.249999999999999
40
0.249999999999999
40
0.499999999999998
40
0.499999999999998
40
1
40
1
40
1
40
1
41
1
10
-0.324980947161635
20
10.3992303777078
30
0
41
1
10
-0.324980947162118
20
10.382160386372
30
0
41
1
10
-0.322272682190061
20
10.36771321376
30
0
41
1
10
-0.314112329532719
20
10.3415186347891
30
0
41
1
10
-0.3085602667025
20
10.3298545571438
30
0
41
1
10
-0.288558618445961
20
10.2981073391071
30
0
41
1
10
-0.271062951512931
20
10.2814982680233
30
0
41
1
10
-0.249980947161646
20
10.2693265671361
30
0
0
SPLINE
5
181
100
AcDbEntity
8
SK1
62
256
6
ByLayer
370
18
48
1
60
0
100
AcDbSpline
70
4
71
3
72
14
73
10
40
0
40
0
40
0
40
0
40
0.25
40
0.25
40
0.5
40
0.5
40
0.75
40
0.75
40
1
40
1
40
1
40
1
41
1
10
-0.249980947161589
20
10.730673432864
30
0
41
1
10
-0.261170454548648
20
10.7242131677621
30
0
41
1
10
-0.273714893758125
20
10.7149334060329
30
0
41
1
10
-0.296507637462582
20
10.6902851252668
30
0
41
1
10
-0.305604265762241
20
10.6757872382091
30
0
41
1
10
-0.317090744544714
20
10.6507185917273
30
0
41
1
10
-0.320295416587868
20
10.6394071207653
30
0
41
1
10
-0.324248578481218
20
10.6188893781669
30
0
41
1
10
-0.324980944492779
20
10.6094813158657
30
0
41
1
10
-0.324980947161635
20
10.6007696682495
30
0
0
SPLINE
5
182
100
AcDbEntity
8
SK1
62
256
6
ByLayer
370
18
48
1
60
0
100
AcDbSpline
70
4
71
3
72
8
73
4
40
0
40
0
40
0
40
0
40
1
40
1
40
1
40
1
41
1
10
-0.249980947161618
20
10.7306734328639
30
0
41
1
10
-0.052631100579589
20
10.8446134199126
30
0
41
1
10
0.144956402685182
20
10.958690618111
30
0
41
1
10
0.342769052838378
20
11.0728978049261
30
0
0
SPLINE
5
183
100
AcDbEntity
8
1
62
256
6
ByLayer
370
18
48
1
60
0
100
AcDbSpline
70
4
71
3
72
22
73
18
40
0
40
0
40
0
40
0
40
0.0625000000000023
40
0.0625000000000023
40
0.125000000000004
40
0.125000000000004
40
0.187500000000007
40
0.187500000000007
40
0.250000000000009
40
0.250000000000009
40
0.375000000000004
40
0.375000000000004
40
0.499999999999998
40
0.499999999999998
40
0.749999999999999
40
0.749999999999999
40
1
40
1
40
1
40
1
41
1
10
0.342769052838349
20
11.0728978049261
30
0
41
1
10
0.354050595451241
20
11.0794112065905
30
0
41
1
10
0.366209629257355
20
11.0878490587058
30
0
41
1
10
0.390520771895751
20
11.1100338146446
30
0
41
1
10
0.402179577389632
20
11.1236871566761
30
0
41
1
10
0.420239075387002
20
11.1510567178538
30
0
41
1
10
0.426716865430251
20
11.1644252779558
30
0
41
1
10
0.436131893586463
20
11.188940397959
30
0
41
1
10
0.439120072139275
20
11.2000710535235
30
0
41
1
10
0.445319628398323
20
11.231641555031
30
0
41
1
10
0.445676858959729
20
11.2496418556063
30
0
41
1
10
0.443105753875813
20
11.2823802755193
30
0
41
1
10
0.440018994658686
20
11.2971638179408
30
0
41
1
10
0.427264174779736
20
11.3381142409964
30
0
41
1
10
0.414383428423548
20
11.3604758779005
30
0
41
1
10
0.382981648139633
20
11.398788943257
30
0
41
1
10
0.364323351058289
20
11.4146578151944
30
0
41
1
10
0.342769052838378
20
11.4271021950739
30
0
0
SPLINE
5
184
100
AcDbEntity
8
SK1
62
256
6
ByLayer
370
18
48
1
60
0
100
AcDbSpline
70
4
71
3
72
8
73
4
40
0
40
0
40
0
40
0
40
1
40
1
40
1
40
1
41
1
10
0.342769052838378
20
11.4271021950739
30
0
41
1
10
0.140428826570911
20
11.5439233791773
30
0
41
1
10
-0.0572098387455355
20
11.6580301158001
30
0
41
1
10
-0.249980947161646
20
11.7693265671361
30
0
0
SPLINE
5
185
100
AcDbEntity
8
SK1
62
256
6
ByLayer
370
18
48
1
60
0
100
AcDbSpline
70
4
71
3
72
12
73
8
40
0
40
0
40
0
40
0
40
0.250000000000006
40
0.250000000000006
40
0.500000000000012
40
0.500000000000012
40
1
40
1
40
1
40
1
41
1
10
-0.324980947161635
20
11.8992303777034
30
0
41
1
10
-0.324980947161606
20
11.882281072652
30
0
41
1
10
-0.322258331788362
20
11.8676586519617
30
0
41
1
10
-0.314110184966523
20
11.841520265274
30
0
41
1
10
-0.308588305166722
20
11.8299276392252
30
0
41
1
10
-0.288794763919782
20
11.7984256267748
30
0
41
1
10
-0.271268222819231
20
11.7816167814671
30
0
41
1
10
-0.24998094716176
20
11.7693265671359
30
0
0
SPLINE
5
186
100
AcDbEntity
8
SK1
62
256
6
ByLayer
370
18
48
1
60
0
100
AcDbSpline
70
4
71
3
72
18
73
14
40
0
40
0
40
0
40
0
40
0.125000000000004
40
0.125000000000004
40
0.250000000000008
40
0.250000000000008
40
0.375000000000013
40
0.375000000000013
40
0.500000000000017
40
0.500000000000017
40
0.750000000000009
40
0.750000000000009
40
1
40
1
40
1
40
1
41
1
10
-0.249980947105968
20
12.2306734328961
30
0
41
1
10
-0.255633945171468
20
12.2274096729445
30
0
41
1
10
-0.261545722398694
20
12.2235307522799
30
0
41
1
10
-0.274089073361125
20
12.2136471429456
30
0
41
1
10
-0.280558475671313
20
12.207688162703
30
0
41
1
10
-0.292389202618978
20
12.1945432345727
30
0
41
1
10
-0.297726742185972
20
12.1873734755297
30
0
41
1
10
-0.306407273047256
20
12.1735286661001
30
0
41
1
10
-0.309705607901094
20
12.1670655127171
30
0
41
1
10
-0.317845872191242
20
12.1484469794848
30
0
41
1
10
-0.320694136903256
20
12.1377750261149
30
0
41
1
10
-0.324336623178056
20
12.1179339928977
30
0
41
1
10
-0.324980944532342
20
12.1090654184484
30
0
41
1
10
-0.324980947161635
20
12.1007696698376
30
0
0
SPLINE
5
187
100
AcDbEntity
8
SK1
62
256
6
ByLayer
370
18
48
1
60
0
100
AcDbSpline
70
4
71
3
72
8
73
4
40
0
40
0
40
0
40
0
40
1
40
1
40
1
40
1
41
1
10
-0.249980947106678
20
12.2306734328957
30
0
41
1
10
-0.0527632893804935
20
12.3445371006728
30
0
41
1
10
0.144826582216581
20
12.4586156662285
30
0
41
1
10
0.342769052838349
20
12.5728978049261
30
0
0
SPLINE
5
188
100
AcDbEntity
8
1
62
256
6
ByLayer
370
18
48
1
60
0
100
AcDbSpline
70
4
71
3
72
22
73
18
40
0
40
0
40
0
40
0
40
0.0625000000000027
40
0.0625000000000027
40
0.125000000000005
40
0.125000000000005
40
0.187500000000008
40
0.187500000000008
40
0.250000000000011
40
0.250000000000011
40
0.37500000000001
40
0.37500000000001
40
0.500000000000009
40
0.500000000000009
40
0.750000000000004
40
0.750000000000004
40
1
40
1
40
1
40
1
41
1
10
0.342769052838349
20
12.5728978049261
30
0
41
1
10
0.35460818183941
20
12.5797331292418
30
0
41
1
10
0.367641788104038
20
12.5887969509659
30
0
41
1
10
0.39393382083739
20
12.6135796136967
30
0
41
1
10
0.406050000047856
20
12.6287545713996
30
0
41
1
10
0.42357679683775
20
12.6573133731199
30
0
41
1
10
0.429373222380718
20
12.6705238773507
30
0
41
1
10
0.437772772863894
20
12.6945624553124
30
0
41
1
10
0.440407220383804
20
12.705598953901
30
0
41
1
10
0.445588571768383
20
12.736119363009
30
0
41
1
10
0.445625738411934
20
12.7535773835824
30
0
41
1
10
0.442516530023767
20
12.7857570881226
30
0
41
1
10
0.439280452881746
20
12.8000626434377
30
0
41
1
10
0.42642100081514
20
12.8396056103106
30
0
41
1
10
0.413679423890926
20
12.8615037472977
30
0
41
1
10
0.382525012517618
20
12.8991707316469
30
0
41
1
10
0.363925974973853
20
12.9148872403836
30
0
41
1
10
0.342769052839543
20
12.9271021950732
30
0
0
SPLINE
5
189
100
AcDbEntity
8
SK1
62
256
6
ByLayer
370
18
48
1
60
0
100
AcDbSpline
70
4
71
3
72
8
73
4
40
0
40
0
40
0
40
0
40
1
40
1
40
1
40
1
41
1
10
0.342769052839486
20
12.9271021950733
30
0
41
1
10
0.13909345017305
20
13.0446943591001
30
0
41
1
10
-0.0585614418590694
20
13.1588104642215
30
0
41
1
10
-0.249980947161646
20
13.2693265671361
30
0
0
SPLINE
5
18A
100
AcDbEntity
8
SK1
62
256
6
ByLayer
370
18
48
1
60
0
100
AcDbSpline
70
4
71
3
72
12
73
8
40
0
40
0
40
0
40
0
40
0.25
40
0.25
40
0.5
40
0.5
40
1
40
1
40
1
40
1
41
1
10
-0.324980947161635
20
13.3992303777037
30
0
41
1
10
-0.324980947161635
20
13.382332687634
30
0
41
1
10
-0.322317549925145
20
13.3679129498827
30
0
41
1
10
-0.314174146943344
20
13.3416620797113
30
0
41
1
10
-0.308592611466139
20
13.32992807673
30
0
41
1
10
-0.288720362393804
20
13.2983200786429
30
0
41
1
10
-0.271353500686445
20
13.2816660166669
30
0
41
1
10
-0.249980947161646
20
13.2693265671361
30
0
0
SPLINE
5
18B
100
AcDbEntity
8
SK1
62
256
6
ByLayer
370
18
48
1
60
0
100
AcDbSpline
70
4
71
3
72
18
73
14
40
0
40
0
40
0
40
0
40
0.125000000000004
40
0.125000000000004
40
0.250000000000007
40
0.250000000000007
40
0.375000000000011
40
0.375000000000011
40
0.500000000000014
40
0.500000000000014
40
0.750000000000007
40
0.750000000000007
40
1
40
1
40
1
40
1
41
1
10
-0.249980947185264
20
13.7306734328503
30
0
41
1
10
-0.255879787461311
20
13.7272677358276
30
0
41
1
10
-0.262132384433102
20
13.723150251631
30
0
41
1
10
-0.275412231696293
20
13.712510163469
30
0
41
1
10
-0.282361551212887
20
13.7059304146114
30
0
41
1
10
-0.294715763793505
20
13.6916154260128
30
0
41
1
10
-0.299993431987844
20
13.6840478259869
30
0
41
1
10
-0.308106196543719
20
13.6703472663303
30
0
41
1
10
-0.311189532503988
20
13.6639225594934
30
0
41
1
10
-0.318524863889877
20
13.6461505958498
30
0
41
1
10
-0.321129814062118
20
13.6358528996718
30
0
41
1
10
-0.324389075210092
20
13.6171262393291
30
0
41
1
10
-0.324980944658819
20
13.6086863494071
30
0
41
1
10
-0.324980947161635
20
13.600769669718
30
0
0
SPLINE
5
18C
100
AcDbEntity
8
SK1
62
256
6
ByLayer
370
18
48
1
60
0
100
AcDbSpline
70
4
71
3
72
8
73
4
40
0
40
0
40
0
40
0
40
1
40
1
40
1
40
1
41
1
10
-0.249980947183303
20
13.7306734328514
30
0
41
1
10
-0.0530000040877781
20
13.8444004333729
30
0
41
1
10
0.14459542232197
20
13.9584822060012
30
0
41
1
10
0.342769052838378
20
14.0728978049261
30
0
0
SPLINE
5
18D
100
AcDbEntity
8
1
62
256
6
ByLayer
370
18
48
1
60
0
100
AcDbSpline
70
4
71
3
72
24
73
20
40
0
40
0
40
0
40
0
40
0.062500000000001
40
0.062500000000001
40
0.0937500000000025
40
0.0937500000000025
40
0.125000000000004
40
0.125000000000004
40
0.187500000000009
40
0.187500000000009
40
0.250000000000014
40
0.250000000000014
40
0.375000000000015
40
0.375000000000015
40
0.500000000000016
40
0.500000000000016
40
0.750000000000008
40
0.750000000000008
40
1
40
1
40
1
40
1
41
1
10
0.342769052834711
20
14.072897804918
30
0
41
1
10
0.355492163966915
20
14.0802434965545
30
0
41
1
10
0.370101104686682
20
14.0905168173619
30
0
41
1
10
0.391579881066718
20
14.1117885239882
30
0
41
1
10
0.398484982044238
20
14.1197537295974
30
0
41
1
10
0.410274648123931
20
14.1355431801381
30
0
41
1
10
0.415157671611155
20
14.1432678560081
30
0
41
1
10
0.427372229456637
20
14.1652254088806
30
0
41
1
10
0.432321891040033
20
14.1780120112318
30
0
41
1
10
0.439549508736462
20
14.2014461443951
30
0
41
1
10
0.441681157637191
20
14.2118967014105
30
0
41
1
10
0.44578820076282
20
14.2412797940188
30
0
41
1
10
0.445442817618073
20
14.2583164448053
30
0
41
1
10
0.441818702447733
20
14.2892602049515
30
0
41
1
10
0.438463981017151
20
14.3031082300083
30
0
41
1
10
0.425407582488674
20
14.3414669139582
30
0
41
1
10
0.412753784859831
20
14.3628334233235
30
0
41
1
10
0.381951448311042
20
14.3996431149244
30
0
41
1
10
0.363680833357279
20
14.4150287729628
30
0
41
1
10
0.342769052840311
20
14.4271021950737
30
0
0
SPLINE
5
18E
100
AcDbEntity
8
SK1
62
256
6
ByLayer
370
18
48
1
60
0
100
AcDbSpline
70
4
71
3
72
8
73
4
40
0
40
0
40
0
40
0
40
1
40
1
40
1
40
1
41
1
10
0.34276905283977
20
14.4271021950731
30
0
41
1
10
0.13695146537151
20
14.5459310346019
30
0
41
1
10
-0.0607307434435427
20
14.6600629110752
30
0
41
1
10
-0.249980947161646
20
14.7693265671361
30
0
0
SPLINE
5
18F
100
AcDbEntity
8
SK1
62
256
6
ByLayer
370
18
48
1
60
0
100
AcDbSpline
70
4
71
3
72
12
73
8
40
0
40
0
40
0
40
0
40
0.249999999999995
40
0.249999999999995
40
0.49999999999999
40
0.49999999999999
40
1
40
1
40
1
40
1
41
1
10
-0.324980947162885
20
14.8992303777025
30
0
41
1
10
-0.324980947162743
20
14.8822327202223
30
0
41
1
10
-0.322303765072348
20
14.8679024610084
30
0
41
1
10
-0.314253239814207
20
14.8418833678346
30
0
41
1
10
-0.30877923218921
20
14.8302966226743
30
0
41
1
10
-0.289069242120036
20
14.7987354246533
30
0
41
1
10
-0.271567465529529
20
14.781789549324
30
0
41
1
10
-0.249980947163237
20
14.7693265671343
30
0
0
SPLINE
5
190
100
AcDbEntity
8
SK1
62
256
6
ByLayer
370
18
48
1
60
0
100
AcDbSpline
70
4
71
3
72
18
73
14
40
0
40
0
40
0
40
0
40
0.125000000000008
40
0.125000000000008
40
0.250000000000017
40
0.250000000000017
40
0.375000000000025
40
0.375000000000025
40
0.500000000000034
40
0.500000000000034
40
0.750000000000017
40
0.750000000000017
40
1
40
1
40
1
40
1
41
1
10
-0.24998094716932
20
15.2306734328595
30
0
41
1
10
-0.256081154466187
20
15.227151476534
30
0
41
1
10
-0.26271744572216
20
15.2227905443193
30
0
41
1
10
-0.277142436186722
20
15.2109958839184
30
0
41
1
10
-0.285001470129544
20
15.2032301173287
30
0
41
1
10
-0.297781574311472
20
15.1875029750968
30
0
41
1
10
-0.302626773518853
20
15.1799265663383
30
0
41
1
10
-0.310060604035897
20
15.1664412681964
30
0
41
1
10
-0.312734553913799
20
15.1604407626017
30
0
41
1
10
-0.319279714209984
20
15.1434857839011
30
0
41
1
10
-0.321537832798242
20
15.1339462395638
30
0
41
1
10
-0.324437343072731
20
15.1163386422425
30
0
41
1
10
-0.324980944828582
20
15.1083205516147
30
0
41
1
10
-0.324980947162771
20
15.1007696686656
30
0
0
SPLINE
5
191
100
AcDbEntity
8
SK1
62
256
6
ByLayer
370
18
48
1
60
0
100
AcDbSpline
70
4
71
3
72
8
73
4
40
0
40
0
40
0
40
0
40
1
40
1
40
1
40
1
41
1
10
-0.249980947168893
20
15.2306734328598
30
0
41
1
10
-0.0534841279736327
20
15.344120924317
30
0
41
1
10
0.144124364079005
20
15.4582102403978
30
0
41
1
10
0.342769052838378
20
15.5728978049261
30
0
0
SPLINE
5
192
100
AcDbEntity
8
1
62
256
6
ByLayer
370
18
48
1
60
0
100
AcDbSpline
70
4
71
3
72
26
73
22
40
0
40
0
40
0
40
0
40
0.0312499999999991
40
0.0312499999999991
40
0.0624999999999982
40
0.0624999999999982
40
0.0937499999999973
40
0.0937499999999973
40
0.124999999999996
40
0.124999999999996
40
0.1875
40
0.1875
40
0.250000000000004
40
0.250000000000004
40
0.375000000000003
40
0.375000000000003
40
0.500000000000003
40
0.500000000000003
40
0.750000000000001
40
0.750000000000001
40
1
40
1
40
1
40
1
41
1
10
0.342769052838378
20
15.5728978049261
30
0
41
1
10
0.349594124357793
20
15.576838261805
30
0
41
1
10
0.356954877171063
20
15.5815885538065
30
0
41
1
10
0.372789901199951
20
15.5937177583002
30
0
41
1
10
0.381285818620313
20
15.6011915260059
30
0
41
1
10
0.397454220776638
20
15.6183542733494
30
0
41
1
10
0.40460987167404
20
15.6275380928634
30
0
41
1
10
0.415901574081119
20
15.6443416507405
30
0
41
1
10
0.42028878649171
20
15.652186781863
30
0
41
1
10
0.430951862660209
20
15.6737574524048
30
0
41
1
10
0.435119125430191
20
15.6860916729491
30
0
41
1
10
0.441074256374037
20
15.7083938363465
30
0
41
1
10
0.442799242142485
20
15.7184741707155
30
0
41
1
10
0.445882914634154
20
15.7469103630901
30
0
41
1
10
0.445142323119427
20
15.763216131862
30
0
41
1
10
0.4410224923447
20
15.7929385564271
30
0
41
1
10
0.437545776439322
20
15.8063404779236
30
0
41
1
10
0.424260602356384
20
15.8435596603405
30
0
41
1
10
0.411612191613727
20
15.8644703135801
30
0
41
1
10
0.381069122415511
20
15.9004060928585
30
0
41
1
10
0.363218614943691
20
15.9152956348876
30
0
41
1
10
0.342769052838378
20
15.9271021950739
30
0
0
SPLINE
5
193
100
AcDbEntity
8
SK1
62
256
6
ByLayer
370
18
48
1
60
0
100
AcDbSpline
70
4
71
3
72
8
73
4
40
0
40
0
40
0
40
0
40
1
40
1
40
1
40
1
41
1
10
0.342769052838378
20
15.9271021950739
30
0
41
1
10
0.154967412090173
20
16.0355295229142
30
0
41
1
10
-0.0231141435525899
20
16.1383449570022
30
0
41
1
10
-0.191153296296079
20
16.235362407073
30
0
0
SPLINE
5
194
100
AcDbEntity
8
SK1
62
256
6
ByLayer
370
18
48
1
60
0
100
AcDbSpline
70
4
71
3
72
8
73
4
40
0
40
0
40
0
40
0
40
1
40
1
40
1
40
1
41
1
10
-0.191153296296079
20
16.235362407073
30
0
41
1
10
0.0391213082546642
20
16.424921166169
30
0
41
1
10
0.269507094643529
20
16.614400634237
30
0
41
1
10
0.500000000000028
20
16.8038037087753
30
0
0
SPLINE
5
195
100
AcDbEntity
8
SK1
62
256
6
ByLayer
370
18
48
1
60
0
100
AcDbSpline
70
4
71
3
72
8
73
4
40
0
40
0
40
0
40
0
40
1
40
1
40
1
40
1
41
1
10
-0.0469703231319727
20
10.1521183287042
30
0
41
1
10
-0.115112466683087
20
10.1914602136266
30
0
41
1
10
-0.182784534593111
20
10.230530700251
30
0
41
1
10
-0.249980947161618
20
10.2693265671361
30
0
0
SPLINE
5
196
100
AcDbEntity
8
SK1
62
256
6
ByLayer
370
18
48
1
60
0
100
AcDbSpline
70
4
71
3
72
9
73
5
40
0
40
0
40
0
40
0
40
0.999292586041592
40
1
40
1
40
1
40
1
41
1
10
0.342769052838264
20
-18.9271021950739
30
0
41
1
10
-0.0434394769975199
20
-19.1500797937379
30
0
41
1
10
-0.237878022121777
20
-19.2623389401063
30
0
41
1
10
-0.237740711892035
20
-19.2622596640081
30
0
41
1
10
-0.237739845780011
20
-19.2622591639582
30
0
0
SPLINE
5
197
100
AcDbEntity
8
1
62
256
6
ByLayer
370
18
48
1
60
0
100
AcDbSpline
70
4
71
3
72
30
73
26
40
0
40
0
40
0
40
0
40
0.015624999999996
40
0.015624999999996
40
0.0312499999999921
40
0.0312499999999921
40
0.0390624999999921
40
0.0390624999999921
40
0.0468749999999921
40
0.0468749999999921
40
0.0624999999999934
40
0.0624999999999934
40
0.0937499999999934
40
0.0937499999999934
40
0.124999999999993
40
0.124999999999993
40
0.187499999999993
40
0.187499999999993
40
0.249999999999994
40
0.249999999999994
40
0.499999999999996
40
0.499999999999996
40
0.749999999999998
40
0.749999999999998
40
1
40
1
40
1
40
1
41
1
10
0.342769052844488
20
-18.5728978049296
30
0
41
1
10
0.347171951280075
20
-18.5754398195269
30
0
41
1
10
0.351960418968957
20
-18.5784059956171
30
0
41
1
10
0.362777228869419
20
-18.5859371497908
30
0
41
1
10
0.368887800440802
20
-18.5905116721255
30
0
41
1
10
0.379817395547889
20
-18.6002003847112
30
0
41
1
10
0.383684111845866
20
-18.6038737992161
30
0
41
1
10
0.391157562605258
20
-18.611590679319
30
0
41
1
10
0.394657280740915
20
-18.6155242596522
30
0
41
1
10
0.403675823340734
20
-18.6263537691197
30
0
41
1
10
0.407992032601811
20
-18.632462271674
30
0
41
1
10
0.418659317700474
20
-18.6487351879591
30
0
41
1
10
0.422837359929787
20
-18.6569874846892
30
0
41
1
10
0.429873212522096
20
-18.6723064010643
30
0
41
1
10
0.432448702746342
20
-18.6790960893603
30
0
41
1
10
0.438742659264307
20
-18.697999306862
30
0
41
1
10
0.441072721492361
20
-18.7087665577519
30
0
41
1
10
0.444156752008126
20
-18.7287007453874
30
0
41
1
10
0.444833293181205
20
-18.737793336681
30
0
41
1
10
0.445598279075085
20
-18.7805244811046
30
0
41
1
10
0.438596852656047
20
-18.8064686815959
30
0
41
1
10
0.41959181437565
20
-18.8517667571323
30
0
41
1
10
0.407057571212363
20
-18.8706572738759
30
0
41
1
10
0.377955530591606
20
-18.9029851967484
30
0
41
1
10
0.361336931577256
20
-18.9163820252857
30
0
41
1
10
0.342769052838293
20
-18.9271021950739
30
0
0
SPLINE
5
198
100
AcDbEntity
8
SK1
62
256
6
ByLayer
370
18
48
1
60
0
100
AcDbSpline
70
4
71
3
72
8
73
4
40
0
40
0
40
0
40
0
40
1
40
1
40
1
40
1
41
1
10
-0.249980947164119
20
-18.2306734328626
30
0
41
1
10
-0.0602000624355696
20
-18.3402434777476
30
0
41
1
10
0.137660453241665
20
-18.4544782997359
30
0
41
1
10
0.342769052844517
20
-18.5728978049297
30
0
0
SPLINE
5
199
100
AcDbEntity
8
SK1
62
256
6
ByLayer
370
18
48
1
60
0
100
AcDbSpline
70
4
71
3
72
22
73
18
40
0
40
0
40
0
40
0
40
0.500000000000006
40
0.500000000000006
40
0.625000000000008
40
0.625000000000008
40
0.75000000000001
40
0.75000000000001
40
0.812500000000011
40
0.812500000000011
40
0.843750000000004
40
0.843750000000004
40
0.874999999999997
40
0.874999999999997
40
0.937499999999998
40
0.937499999999998
40
1
40
1
40
1
40
1
41
1
10
-0.32498094716172
20
-18.1007696736903
30
0
41
1
10
-0.324980942713665
20
-18.1137518803149
30
0
41
1
10
-0.323786972692858
20
-18.1278012981292
30
0
41
1
10
-0.316461247037807
20
-18.1508365404436
30
0
41
1
10
-0.314676140574107
20
-18.1557309360371
30
0
41
1
10
-0.309877142831425
20
-18.1666369849616
30
0
41
1
10
-0.307015946514014
20
-18.1725080306412
30
0
41
1
10
-0.299937942812278
20
-18.1838699189831
30
0
41
1
10
-0.297061244389283
20
-18.1881873513923
30
0
41
1
10
-0.290809955665566
20
-18.1961373598805
30
0
41
1
10
-0.288344686571122
20
-18.1990897237154
30
0
41
1
10
-0.282576626494148
20
-18.2053705283389
30
0
41
1
10
-0.279276769685652
20
-18.2086541663267
30
0
41
1
10
-0.27023552933224
20
-18.2169304518466
30
0
41
1
10
-0.265307390124008
20
-18.2206340696716
30
0
41
1
10
-0.256901453626028
20
-18.2265288472598
30
0
41
1
10
-0.253317987424737
20
-18.2287467917697
30
0
41
1
10
-0.249980947164147
20
-18.2306734328625
30
0
0
SPLINE
5
19A
100
AcDbEntity
8
SK1
62
256
6
ByLayer
370
18
48
1
60
0
100
AcDbSpline
70
4
71
3
72
12
73
8
40
0
40
0
40
0
40
0
40
0.499999999999999
40
0.499999999999999
40
0.75
40
0.75
40
1
40
1
40
1
40
1
41
1
10
-0.249980947161703
20
-17.7693265671361
30
0
41
1
10
-0.272414825236695
20
-17.7822787726816
30
0
41
1
10
-0.289849679960611
20
-17.7996215327343
30
0
41
1
10
-0.309329969157915
20
-17.8313737108875
30
0
41
1
10
-0.31467252235413
20
-17.8429531170883
30
0
41
1
10
-0.322455514656241
20
-17.8686997670906
30
0
41
1
10
-0.32498094716172
20
-17.8827821226977
30
0
41
1
10
-0.32498094716172
20
-17.8992303777037
30
0
0
SPLINE
5
19B
100
AcDbEntity
8
SK1
62
256
6
ByLayer
370
18
48
1
60
0
100
AcDbSpline
70
4
71
3
72
8
73
4
40
0
40
0
40
0
40
0
40
1
40
1
40
1
40
1
41
1
10
0.342769052838264
20
-17.4271021950739
30
0
41
1
10
0.122384349147353
20
-17.5543413630751
30
0
41
1
10
-0.0754822092164034
20
-17.6685796738101
30
0
41
1
10
-0.249980947161731
20
-17.7693265671361
30
0
0
SPLINE
5
19C
100
AcDbEntity
8
1
62
256
6
ByLayer
370
18
48
1
60
0
100
AcDbSpline
70
4
71
3
72
28
73
24
40
0
40
0
40
0
40
0
40
0.0312500000000019
40
0.0312500000000019
40
0.0468749999999989
40
0.0468749999999989
40
0.0624999999999959
40
0.0624999999999959
40
0.093749999999993
40
0.093749999999993
40
0.12499999999999
40
0.12499999999999
40
0.187499999999991
40
0.187499999999991
40
0.249999999999992
40
0.249999999999992
40
0.374999999999992
40
0.374999999999992
40
0.499999999999991
40
0.499999999999991
40
0.749999999999995
40
0.749999999999995
40
1
40
1
40
1
40
1
41
1
10
0.342769052838264
20
-17.0728978049261
30
0
41
1
10
0.350219788009241
20
-17.0771994888827
30
0
41
1
10
0.358549452454525
20
-17.0825539799038
30
0
41
1
10
0.37286421803546
20
-17.093979869987
30
0
41
1
10
0.377987963333538
20
-17.0984317564579
30
0
41
1
10
0.388166271881602
20
-17.1083280814276
30
0
41
1
10
0.39318354258549
20
-17.1137579495875
30
0
41
1
10
0.406502037973297
20
-17.1297408233558
30
0
41
1
10
0.412744887295219
20
-17.1393052009069
30
0
41
1
10
0.422483911889913
20
-17.1561710776415
30
0
41
1
10
0.42601649971698
20
-17.1635944235195
30
0
41
1
10
0.434672051565286
20
-17.1840851392542
30
0
41
1
10
0.437986803453384
20
-17.1957274100747
30
0
41
1
10
0.442636637049816
20
-17.2170226031547
30
0
41
1
10
0.443877476648453
20
-17.2266145363653
30
0
41
1
10
0.445780954070017
20
-17.2535938389765
30
0
41
1
10
0.444634637795815
20
-17.269194360565
30
0
41
1
10
0.439866649629693
20
-17.2978762065492
30
0
41
1
10
0.436160069704812
20
-17.3109072275389
30
0
41
1
10
0.422428671235508
20
-17.3468944380384
30
0
41
1
10
0.409842691366492
20
-17.3669156018501
30
0
41
1
10
0.37994559813302
20
-17.4013274297263
30
0
41
1
10
0.362582983642852
20
-17.4156626167902
30
0
41
1
10
0.342769052838293
20
-17.4271021950739
30
0
0
SPLINE
5
19D
100
AcDbEntity
8
SK1
62
256
6
ByLayer
370
18
48
1
60
0
100
AcDbSpline
70
4
71
3
72
8
73
4
40
0
40
0
40
0
40
0
40
1
40
1
40
1
40
1
41
1
10
-0.249980947157042
20
-16.7306734328667
30
0
41
1
10
-0.0547247618711708
20
-16.8434046440024
30
0
41
1
10
0.142923239003096
20
-16.9575167705119
30
0
41
1
10
0.342769052838293
20
-17.0728978049261
30
0
0
SPLINE
5
19E
100
AcDbEntity
8
SK1
62
256
6
ByLayer
370
18
48
1
60
0
100
AcDbSpline
70
4
71
3
72
20
73
16
40
0
40
0
40
0
40
0
40
0.249999999999999
40
0.249999999999999
40
0.499999999999998
40
0.499999999999998
40
0.624999999999997
40
0.624999999999997
40
0.749999999999997
40
0.749999999999997
40
0.812499999999996
40
0.812499999999996
40
0.874999999999996
40
0.874999999999996
40
1
40
1
40
1
40
1
41
1
10
-0.32498094716172
20
-16.6007696742417
30
0
41
1
10
-0.324980944714127
20
-16.6078374423781
30
0
41
1
10
-0.324500996960751
20
-16.6153798571388
30
0
41
1
10
-0.321956071445726
20
-16.6318825954065
30
0
41
1
10
-0.319966113323687
20
-16.6407981042996
30
0
41
1
10
-0.314369069028942
20
-16.6564624937186
30
0
41
1
10
-0.312057921716672
20
-16.662085122696
30
0
41
1
10
-0.305703740350054
20
-16.6746698177185
30
0
41
1
10
-0.301711034698172
20
-16.6816998750711
30
0
41
1
10
-0.292329218117686
20
-16.6943481376134
30
0
41
1
10
-0.288588938352319
20
-16.6989035673295
30
0
41
1
10
-0.280264486169756
20
-16.7077856175684
30
0
41
1
10
-0.275807648856812
20
-16.7119602336366
30
0
41
1
10
-0.263376019538555
20
-16.7224405493047
30
0
41
1
10
-0.256236858595742
20
-16.7270615807138
30
0
41
1
10
-0.249980947157098
20
-16.7306734328666
30
0
0
SPLINE
5
19F
100
AcDbEntity
8
SK1
62
256
6
ByLayer
370
18
48
1
60
0
100
AcDbSpline
70
4
71
3
72
12
73
8
40
0
40
0
40
0
40
0
40
0.499999999999998
40
0.499999999999998
40
0.749999999999999
40
0.749999999999999
40
1
40
1
40
1
40
1
41
1
10
-0.249980947162498
20
-16.2693265671352
30
0
41
1
10
-0.27179039097669
20
-16.2819182553923
30
0
41
1
10
-0.289240949627953
20
-16.2989278931105
30
0
41
1
10
-0.308904019991473
20
-16.3305383497192
30
0
41
1
10
-0.314354285966402
20
-16.3421324331949
30
0
41
1
10
-0.322353048377494
20
-16.3681407231553
30
0
41
1
10
-0.324980947161691
20
-16.382518693589
30
0
41
1
10
-0.32498094716172
20
-16.3992303777035
30
0
0
SPLINE
5
1A0
100
AcDbEntity
8
SK1
62
256
6
ByLayer
370
18
48
1
60
0
100
AcDbSpline
70
4
71
3
72
8
73
4
40
0
40
0
40
0
40
0
40
1
40
1
40
1
40
1
41
1
10
0.342769052838264
20
-15.9271021950739
30
0
41
1
10
0.132896815745312
20
-16.0482719876549
30
0
41
1
10
-0.0648365548913432
20
-16.1624334024198
30
0
41
1
10
-0.249980947161731
20
-16.2693265671361
30
0
0
SPLINE
5
1A1
100
AcDbEntity
8
1
62
256
6
ByLayer
370
18
48
1
60
0
100
AcDbSpline
70
4
71
3
72
26
73
22
40
0
40
0
40
0
40
0
40
0.0312499999999997
40
0.0312499999999997
40
0.0624999999999993
40
0.0624999999999993
40
0.093749999999999
40
0.093749999999999
40
0.124999999999999
40
0.124999999999999
40
0.187500000000004
40
0.187500000000004
40
0.250000000000009
40
0.250000000000009
40
0.37500000000001
40
0.37500000000001
40
0.500000000000012
40
0.500000000000012
40
0.750000000000006
40
0.750000000000006
40
1
40
1
40
1
40
1
41
1
10
0.342769052838264
20
-15.5728978049261
30
0
41
1
10
0.349594124357708
20
-15.576838261805
30
0
41
1
10
0.356954877170978
20
-15.5815885538065
30
0
41
1
10
0.372789901199838
20
-15.5937177583002
30
0
41
1
10
0.381285818620199
20
-15.6011915260059
30
0
41
1
10
0.397454220776552
20
-15.6183542733494
30
0
41
1
10
0.404609871673955
20
-15.6275380928634
30
0
41
1
10
0.415901574081005
20
-15.6443416507405
30
0
41
1
10
0.420288786491597
20
-15.6521867818629
30
0
41
1
10
0.430951862660095
20
-15.6737574524048
30
0
41
1
10
0.435119125430106
20
-15.6860916729491
30
0
41
1
10
0.441074256373923
20
-15.7083938363465
30
0
41
1
10
0.442799242142371
20
-15.7184741707155
30
0
41
1
10
0.445882914634069
20
-15.7469103630901
30
0
41
1
10
0.445142323119342
20
-15.763216131862
30
0
41
1
10
0.441022492344615
20
-15.7929385564271
30
0
41
1
10
0.437545776439236
20
-15.8063404779236
30
0
41
1
10
0.424260602356298
20
-15.8435596603405
30
0
41
1
10
0.411612191613614
20
-15.8644703135801
30
0
41
1
10
0.381069122415426
20
-15.9004060928585
30
0
41
1
10
0.363218614943605
20
-15.9152956348876
30
0
41
1
10
0.342769052838293
20
-15.9271021950739
30
0
0
SPLINE
5
1A2
100
AcDbEntity
8
SK1
62
256
6
ByLayer
370
18
48
1
60
0
100
AcDbSpline
70
4
71
3
72
8
73
4
40
0
40
0
40
0
40
0
40
1
40
1
40
1
40
1
41
1
10
-0.249980947159685
20
-15.2306734328651
30
0
41
1
10
-0.0534841279674936
20
-15.3441209243206
30
0
41
1
10
0.144124364082046
20
-15.4582102403996
30
0
41
1
10
0.342769052838293
20
-15.5728978049261
30
0
0
SPLINE
5
1A3
100
AcDbEntity
8
SK1
62
256
6
ByLayer
370
18
48
1
60
0
100
AcDbSpline
70
4
71
3
72
18
73
14
40
0
40
0
40
0
40
0
40
0.250000000000006
40
0.250000000000006
40
0.500000000000011
40
0.500000000000011
40
0.625000000000008
40
0.625000000000008
40
0.750000000000006
40
0.750000000000006
40
0.875000000000003
40
0.875000000000003
40
1
40
1
40
1
40
1
41
1
10
-0.324980947177011
20
-15.1007696733176
30
0
41
1
10
-0.324980944602714
20
-15.1083379719955
30
0
41
1
10
-0.324432712680647
20
-15.116420417677
30
0
41
1
10
-0.32149464679415
20
-15.1341539514463
30
0
41
1
10
-0.319182438023063
20
-15.1438135323922
30
0
41
1
10
-0.312597598822208
20
-15.1607560309805
30
0
41
1
10
-0.309874417347174
20
-15.1668188717233
30
0
41
1
10
-0.302439168977003
20
-15.1802249766799
30
0
41
1
10
-0.297509190612345
20
-15.1878765947346
30
0
41
1
10
-0.284807946299452
20
-15.2034284034641
30
0
41
1
10
-0.27692257905025
20
-15.2111916961387
30
0
41
1
10
-0.262620965309225
20
-15.2228530278961
30
0
41
1
10
-0.256002024866234
20
-15.2271971620468
30
0
41
1
10
-0.249980947147122
20
-15.2306734328874
30
0
0
SPLINE
5
1A4
100
AcDbEntity
8
SK1
62
256
6
ByLayer
370
18
48
1
60
0
100
AcDbSpline
70
4
71
3
72
12
73
8
40
0
40
0
40
0
40
0
40
0.499999999999999
40
0.499999999999999
40
0.749999999999999
40
0.749999999999999
40
1
40
1
40
1
40
1
41
1
10
-0.249980947161703
20
-14.7693265671361
30
0
41
1
10
-0.271516642800975
20
-14.7817602068106
30
0
41
1
10
-0.289005300634472
20
-14.7986536555468
30
0
41
1
10
-0.308758860239408
20
-14.8302537328973
30
0
41
1
10
-0.314253887073931
20
-14.8418692188385
30
0
41
1
10
-0.322334268365751
20
-14.8680173504829
30
0
41
1
10
-0.32498094716172
20
-14.8824182338689
30
0
41
1
10
-0.32498094716172
20
-14.8992303777037
30
0
0
SPLINE
5
1A5
100
AcDbEntity
8
SK1
62
256
6
ByLayer
370
18
48
1
60
0
100
AcDbSpline
70
4
71
3
72
8
73
4
40
0
40
0
40
0
40
0
40
1
40
1
40
1
40
1
41
1
10
0.342769052839685
20
-14.4271021950731
30
0
41
1
10
0.136951465371425
20
-14.5459310346019
30
0
41
1
10
-0.0607307434436279
20
-14.6600629110752
30
0
41
1
10
-0.249980947161703
20
-14.7693265671361
30
0
0
SPLINE
5
1A6
100
AcDbEntity
8
1
62
256
6
ByLayer
370
18
48
1
60
0
100
AcDbSpline
70
4
71
3
72
24
73
20
40
0
40
0
40
0
40
0
40
0.0624999999999906
40
0.0624999999999906
40
0.0937499999999886
40
0.0937499999999886
40
0.124999999999987
40
0.124999999999987
40
0.187499999999983
40
0.187499999999983
40
0.249999999999979
40
0.249999999999979
40
0.374999999999983
40
0.374999999999983
40
0.499999999999987
40
0.499999999999987
40
0.749999999999994
40
0.749999999999994
40
1
40
1
40
1
40
1
41
1
10
0.342769052834598
20
-14.072897804918
30
0
41
1
10
0.355492163966829
20
-14.0802434965545
30
0
41
1
10
0.370101104686597
20
-14.0905168173619
30
0
41
1
10
0.391579881066661
20
-14.1117885239882
30
0
41
1
10
0.398484982044153
20
-14.1197537295974
30
0
41
1
10
0.410274648123874
20
-14.1355431801381
30
0
41
1
10
0.41515767161107
20
-14.1432678560082
30
0
41
1
10
0.427372229456552
20
-14.1652254088806
30
0
41
1
10
0.432321891039976
20
-14.1780120112319
30
0
41
1
10
0.439549508736377
20
-14.2014461443951
30
0
41
1
10
0.441681157637106
20
-14.2118967014105
30
0
41
1
10
0.445788200762735
20
-14.2412797940188
30
0
41
1
10
0.445442817617987
20
-14.2583164448053
30
0
41
1
10
0.441818702447648
20
-14.2892602049515
30
0
41
1
10
0.438463981017065
20
-14.3031082300083
30
0
41
1
10
0.425407582488589
20
-14.3414669139582
30
0
41
1
10
0.412753784859746
20
-14.3628334233235
30
0
41
1
10
0.381951448310957
20
-14.3996431149244
30
0
41
1
10
0.363680833357193
20
-14.4150287729628
30
0
41
1
10
0.342769052840225
20
-14.4271021950737
30
0
0
SPLINE
5
1A7
100
AcDbEntity
8
SK1
62
256
6
ByLayer
370
18
48
1
60
0
100
AcDbSpline
70
4
71
3
72
8
73
4
40
0
40
0
40
0
40
0
40
1
40
1
40
1
40
1
41
1
10
-0.249980947161731
20
-13.7306734328639
30
0
41
1
10
-0.0530000040733682
20
-13.8444004333812
30
0
41
1
10
0.144595422329132
20
-13.9584822060053
30
0
41
1
10
0.342769052838293
20
-14.0728978049261
30
0
0
SPLINE
5
1A8
100
AcDbEntity
8
SK1
62
256
6
ByLayer
370
18
48
1
60
0
100
AcDbSpline
70
4
71
3
72
18
73
14
40
0
40
0
40
0
40
0
40
0.249999999999976
40
0.249999999999976
40
0.499999999999952
40
0.499999999999952
40
0.624999999999964
40
0.624999999999964
40
0.749999999999976
40
0.749999999999976
40
0.874999999999988
40
0.874999999999988
40
1
40
1
40
1
40
1
41
1
10
-0.324980947162288
20
-13.6007696670361
30
0
41
1
10
-0.324980944779611
20
-13.6087580826515
30
0
41
1
10
-0.324375091817643
20
-13.6172515822333
30
0
41
1
10
-0.321101652115999
20
-13.6359691257659
30
0
41
1
10
-0.318480845447794
20
-13.6462848088004
30
0
41
1
10
-0.311140598526833
20
-13.6640271324653
30
0
41
1
10
-0.308065534855785
20
-13.67042906028
30
0
41
1
10
-0.299905142428827
20
-13.684183591263
30
0
41
1
10
-0.294738072321394
20
-13.6915917814673
30
0
41
1
10
-0.28230951572246
20
-13.7059884988997
30
0
41
1
10
-0.275307003668388
20
-13.7125990917557
30
0
41
1
10
-0.262137194402413
20
-13.7231417450231
30
0
41
1
10
-0.255819243409462
20
-13.727302690991
30
0
41
1
10
-0.249980947137743
20
-13.7306734329128
30
0
0
SPLINE
5
1A9
100
AcDbEntity
8
SK1
62
256
6
ByLayer
370
18
48
1
60
0
100
AcDbSpline
70
4
71
3
72
12
73
8
40
0
40
0
40
0
40
0
40
0.50000000000001
40
0.50000000000001
40
0.750000000000005
40
0.750000000000005
40
1
40
1
40
1
40
1
41
1
10
-0.249980947161731
20
-13.2693265671361
30
0
41
1
10
-0.271365093900812
20
-13.2816727100123
30
0
41
1
10
-0.288886118499505
20
-13.298502388523
30
0
41
1
10
-0.308718668188703
20
-13.3301698901522
30
0
41
1
10
-0.31422032107335
20
-13.3417949276563
30
0
41
1
10
-0.322302273623137
20
-13.3678797646459
30
0
41
1
10
-0.32498094716172
20
-13.3822418326897
30
0
41
1
10
-0.32498094716172
20
-13.3992303777037
30
0
0
SPLINE
5
1AA
100
AcDbEntity
8
SK1
62
256
6
ByLayer
370
18
48
1
60
0
100
AcDbSpline
70
4
71
3
72
8
73
4
40
0
40
0
40
0
40
0
40
1
40
1
40
1
40
1
41
1
10
0.342769052839401
20
-12.9271021950733
30
0
41
1
10
0.139093450172965
20
-13.0446943591001
30
0
41
1
10
-0.0585614418591547
20
-13.1588104642215
30
0
41
1
10
-0.249980947161731
20
-13.2693265671361
30
0
0
SPLINE
5
1AB
100
AcDbEntity
8
1
62
256
6
ByLayer
370
18
48
1
60
0
100
AcDbSpline
70
4
71
3
72
22
73
18
40
0
40
0
40
0
40
0
40
0.0625000000000003
40
0.0625000000000003
40
0.125000000000001
40
0.125000000000001
40
0.187500000000001
40
0.187500000000001
40
0.250000000000001
40
0.250000000000001
40
0.375000000000002
40
0.375000000000002
40
0.500000000000002
40
0.500000000000002
40
0.750000000000001
40
0.750000000000001
40
1
40
1
40
1
40
1
41
1
10
0.342769052838293
20
-12.5728978049261
30
0
41
1
10
0.354608181839751
20
-12.579733129242
30
0
41
1
10
0.3676417881058
20
-12.5887969509676
30
0
41
1
10
0.393933820836594
20
-12.6135796136962
30
0
41
1
10
0.406050000047912
20
-12.6287545713999
30
0
41
1
10
0.423576796837182
20
-12.6573133731191
30
0
41
1
10
0.429373222380349
20
-12.6705238773501
30
0
41
1
10
0.437772772863468
20
-12.6945624553113
30
0
41
1
10
0.440407220383491
20
-12.7055989538999
30
0
41
1
10
0.445588571768269
20
-12.7361193630082
30
0
41
1
10
0.445625738411877
20
-12.7535773835817
30
0
41
1
10
0.442516530023795
20
-12.7857570881221
30
0
41
1
10
0.439280452881775
20
-12.8000626434373
30
0
41
1
10
0.426421000815225
20
-12.8396056103103
30
0
41
1
10
0.413679423890983
20
-12.8615037472975
30
0
41
1
10
0.382525012517618
20
-12.8991707316468
30
0
41
1
10
0.363925974973824
20
-12.9148872403836
30
0
41
1
10
0.342769052839458
20
-12.9271021950732
30
0
0
SPLINE
5
1AC
100
AcDbEntity
8
SK1
62
256
6
ByLayer
370
18
48
1
60
0
100
AcDbSpline
70
4
71
3
72
8
73
4
40
0
40
0
40
0
40
0
40
1
40
1
40
1
40
1
41
1
10
-0.249980947161731
20
-12.2306734328639
30
0
41
1
10
-0.0527632894172712
20
-12.3445371006516
30
0
41
1
10
0.144826582198107
20
-12.4586156662179
30
0
41
1
10
0.342769052838293
20
-12.5728978049261
30
0
0
SPLINE
5
1AD
100
AcDbEntity
8
SK1
62
256
6
ByLayer
370
18
48
1
60
0
100
AcDbSpline
70
4
71
3
72
16
73
12
40
0
40
0
40
0
40
0
40
0.25
40
0.25
40
0.5
40
0.5
40
0.625
40
0.625
40
0.75
40
0.75
40
1
40
1
40
1
40
1
41
1
10
-0.324980947189715
20
-12.1007696222698
30
0
41
1
10
-0.324980947191193
20
-12.1091375518884
30
0
41
1
10
-0.324309016993112
20
-12.1181205982701
30
0
41
1
10
-0.320686052162728
20
-12.1377824738949
30
0
41
1
10
-0.317786456289241
20
-12.1486027991513
30
0
41
1
10
-0.30968169493292
20
-12.1671101461963
30
0
41
1
10
-0.306333788099494
20
-12.1736485913715
30
0
41
1
10
-0.297771572636037
20
-12.187299242956
30
0
41
1
10
-0.292433481716614
20
-12.1944924874515
30
0
41
1
10
-0.274589605548385
20
-12.214323171248
30
0
41
1
10
-0.261321720492362
20
-12.2241258343668
30
0
41
1
10
-0.249980947142376
20
-12.2306734329092
30
0
0
SPLINE
5
1AE
100
AcDbEntity
8
SK1
62
256
6
ByLayer
370
18
48
1
60
0
100
AcDbSpline
70
4
71
3
72
12
73
8
40
0
40
0
40
0
40
0
40
0.500000000000013
40
0.500000000000013
40
0.750000000000007
40
0.750000000000007
40
1
40
1
40
1
40
1
41
1
10
-0.249980947161703
20
-11.7693265671361
30
0
41
1
10
-0.271180770286804
20
-11.7815662907241
30
0
41
1
10
-0.28859849031673
20
-11.7981560037921
30
0
41
1
10
-0.308577748339132
20
-11.829889635649
30
0
41
1
10
-0.314125680259338
20
-11.8415504008793
30
0
41
1
10
-0.322280802533015
20
-11.8677503986238
30
0
41
1
10
-0.324980952094307
20
-11.8823349663461
30
0
41
1
10
-0.32498094716172
20
-11.899230421496
30
0
0
SPLINE
5
1AF
100
AcDbEntity
8
SK1
62
256
6
ByLayer
370
18
48
1
60
0
100
AcDbSpline
70
4
71
3
72
8
73
4
40
0
40
0
40
0
40
0
40
1
40
1
40
1
40
1
41
1
10
0.342769052838293
20
-11.4271021950739
30
0
41
1
10
0.140428826570826
20
-11.5439233791773
30
0
41
1
10
-0.0572098387456208
20
-11.6580301158001
30
0
41
1
10
-0.249980947161703
20
-11.7693265671361
30
0
0
SPLINE
5
1B0
100
AcDbEntity
8
1
62
256
6
ByLayer
370
18
48
1
60
0
100
AcDbSpline
70
4
71
3
72
22
73
18
40
0
40
0
40
0
40
0
40
0.0625000000000055
40
0.0625000000000055
40
0.125000000000011
40
0.125000000000011
40
0.187500000000016
40
0.187500000000016
40
0.250000000000022
40
0.250000000000022
40
0.375000000000019
40
0.375000000000019
40
0.500000000000016
40
0.500000000000016
40
0.750000000000008
40
0.750000000000008
40
1
40
1
40
1
40
1
41
1
10
0.342769052838293
20
-11.0728978049261
30
0
41
1
10
0.354050595451156
20
-11.0794112065905
30
0
41
1
10
0.366209629257298
20
-11.0878490587059
30
0
41
1
10
0.390520771895638
20
-11.1100338146446
30
0
41
1
10
0.402179577389546
20
-11.1236871566761
30
0
41
1
10
0.420239075386917
20
-11.1510567178538
30
0
41
1
10
0.426716865430166
20
-11.1644252779558
30
0
41
1
10
0.436131893586378
20
-11.188940397959
30
0
41
1
10
0.43912007213919
20
-11.2000710535235
30
0
41
1
10
0.445319628398238
20
-11.231641555031
30
0
41
1
10
0.445676858959644
20
-11.2496418556063
30
0
41
1
10
0.443105753875727
20
-11.2823802755193
30
0
41
1
10
0.440018994658601
20
-11.2971638179407
30
0
41
1
10
0.427264174779651
20
-11.3381142409963
30
0
41
1
10
0.414383428423463
20
-11.3604758779005
30
0
41
1
10
0.382981648139548
20
-11.398788943257
30
0
41
1
10
0.364323351058204
20
-11.4146578151945
30
0
41
1
10
0.342769052838293
20
-11.4271021950739
30
0
0
SPLINE
5
1B1
100
AcDbEntity
8
SK1
62
256
6
ByLayer
370
18
48
1
60
0
100
AcDbSpline
70
4
71
3
72
8
73
4
40
0
40
0
40
0
40
0
40
1
40
1
40
1
40
1
41
1
10
-0.249980947161731
20
-10.7306734328639
30
0
41
1
10
-0.0526311005796742
20
-10.8446134199126
30
0
41
1
10
0.144956402685096
20
-10.958690618111
30
0
41
1
10
0.342769052838293
20
-11.0728978049261
30
0
0
SPLINE
5
1B2
100
AcDbEntity
8
SK1
62
256
6
ByLayer
370
18
48
1
60
0
100
AcDbSpline
70
4
71
3
72
14
73
10
40
0
40
0
40
0
40
0
40
0.25
40
0.25
40
0.5
40
0.5
40
0.75
40
0.75
40
1
40
1
40
1
40
1
41
1
10
-0.32498094716172
20
-10.6007696222963
30
0
41
1
10
-0.32498094716172
20
-10.6094638429982
30
0
41
1
10
-0.324257414918691
20
-10.6188504811585
30
0
41
1
10
-0.320279451864962
20
-10.6394830025956
30
0
41
1
10
-0.317087137316207
20
-10.6507433672038
30
0
41
1
10
-0.305544085308497
20
-10.6759015823237
30
0
41
1
10
-0.296574052598174
20
-10.690224877575
30
0
41
1
10
-0.273553804333773
20
-10.7150959876526
30
0
41
1
10
-0.261125044145871
20
-10.7242393854777
30
0
41
1
10
-0.249980947157809
20
-10.7306734328728
30
0
0
SPLINE
5
1B3
100
AcDbEntity
8
SK1
62
256
6
ByLayer
370
18
48
1
60
0
100
AcDbSpline
70
4
71
3
72
12
73
8
40
0
40
0
40
0
40
0
40
0.5
40
0.5
40
0.75
40
0.75
40
1
40
1
40
1
40
1
41
1
10
-0.249980947163351
20
-10.269326567137
30
0
41
1
10
-0.271072889936477
20
-10.2815040059752
30
0
41
1
10
-0.288435995715759
20
-10.2979819796639
30
0
41
1
10
-0.308444760829587
20
-10.3296370448461
30
0
41
1
10
-0.314074872656789
20
-10.3414150937225
30
0
41
1
10
-0.322278016727239
20
-10.3677137080055
30
0
41
1
10
-0.324980951859601
20
-10.3821975796411
30
0
41
1
10
-0.32498094716172
20
-10.3992304190757
30
0
0
SPLINE
5
1B4
100
AcDbEntity
8
SK1
62
256
6
ByLayer
370
18
48
1
60
0
100
AcDbSpline
70
4
71
3
72
8
73
4
40
0
40
0
40
0
40
0
40
1
40
1
40
1
40
1
41
1
10
-0.0469703231316885
20
-10.152118328704
30
0
41
1
10
-0.115112466683513
20
-10.1914602136268
30
0
41
1
10
-0.182784534594248
20
-10.2305307002517
30
0
41
1
10
-0.249980947163465
20
-10.2693265671371
30
0
0
SPLINE
5
1B5
100
AcDbEntity
8
1
62
256
6
ByLayer
370
18
48
1
60
0
100
AcDbSpline
70
4
71
3
72
28
73
24
40
0
40
0
40
0
40
0
40
0.0625000000000013
40
0.0625000000000013
40
0.125000000000003
40
0.125000000000003
40
0.250000000000005
40
0.250000000000005
40
0.312500000000007
40
0.312500000000007
40
0.375000000000009
40
0.375000000000009
40
0.500000000000009
40
0.500000000000009
40
0.562500000000009
40
0.562500000000009
40
0.625000000000009
40
0.625000000000009
40
0.750000000000006
40
0.750000000000006
40
0.875000000000003
40
0.875000000000003
40
1
40
1
40
1
40
1
41
1
10
3.77000000000004
20
19.0012232580839
30
0
41
1
10
3.77000000000004
20
18.9593135550037
30
0
41
1
10
3.76757746962411
20
18.917014150441
30
0
41
1
10
3.75797256330796
20
18.8334341882512
30
0
41
1
10
3.75081215734792
20
18.792044314751
30
0
41
1
10
3.72238375597888
20
18.6690535222888
30
0
41
1
10
3.69423346054728
20
18.5886204216588
30
0
41
1
10
3.63757449449585
20
18.4704199130916
30
0
41
1
10
3.61619216269347
20
18.4313611210627
30
0
41
1
10
3.56936735729843
20
18.3557074926521
30
0
41
1
10
3.54384011220088
20
18.3189078848007
30
0
41
1
10
3.46092804975896
20
18.2115837831594
30
0
41
1
10
3.39728089556146
20
18.1441009875148
30
0
41
1
10
3.28819039973774
20
18.0494920901383
30
0
41
1
10
3.24965900546948
20
18.019211507436
30
0
41
1
10
3.16973274897737
20
17.9623392023905
30
0
41
1
10
3.12814097261005
20
17.9355706628324
30
0
41
1
10
2.99844300594506
20
17.8603054541236
30
0
41
1
10
2.90496241734033
20
17.8166067260285
30
0
41
1
10
2.70569887409945
20
17.7447958929058
30
0
41
1
10
2.60283814186133
20
17.7176443644392
30
0
41
1
10
2.39068895318948
20
17.6807672178765
30
0
41
1
10
2.28045545814311
20
17.6711067478126
30
0
41
1
10
2.17000000000004
20
17.6711067478126
30
0
0
SPLINE
5
1B6
100
AcDbEntity
8
1
62
256
6
ByLayer
370
18
48
1
60
0
100
AcDbSpline
70
4
71
3
72
26
73
22
40
0
40
0
40
0
40
0
40
0.124999999999997
40
0.124999999999997
40
0.187499999999995
40
0.187499999999995
40
0.249999999999993
40
0.249999999999993
40
0.374999999999991
40
0.374999999999991
40
0.499999999999989
40
0.499999999999989
40
0.624999999999987
40
0.624999999999987
40
0.687499999999988
40
0.687499999999988
40
0.749999999999989
40
0.749999999999989
40
0.874999999999994
40
0.874999999999994
40
1
40
1
40
1
40
1
41
1
10
2.17000000000002
20
20.2499996253655
30
0
41
1
10
2.27567277372538
20
20.2499996253655
30
0
41
1
10
2.37958023221833
20
20.2603655692918
30
0
41
1
10
2.5329017513092
20
20.2908274380175
30
0
41
1
10
2.58358250054329
20
20.3034853579025
30
0
41
1
10
2.68407171762479
20
20.3339232403399
30
0
41
1
10
2.73401435476163
20
20.35178841532
30
0
41
1
10
2.8792892637583
20
20.4119796639535
30
0
41
1
10
2.9711595319387
20
20.4610899599109
30
0
41
1
10
3.14503162031008
20
20.5771121818962
30
0
41
1
10
3.22735119603902
20
20.6446374158062
30
0
41
1
10
3.37491068937271
20
20.7921324022701
30
0
41
1
10
3.44113068900961
20
20.872609247047
30
0
41
1
10
3.52885316612631
20
21.0036570158258
30
0
41
1
10
3.55608990920163
20
21.0490576291154
30
0
41
1
10
3.60546096755687
20
21.1413346304463
30
0
41
1
10
3.6277660844197
20
21.1884523437168
30
0
41
1
10
3.6876486736617
20
21.3326984985389
30
0
41
1
10
3.71837418111622
20
21.4332835266741
30
0
41
1
10
3.75964479091871
20
21.6399060782961
30
0
41
1
10
3.77000000000254
20
21.7443611349002
30
0
41
1
10
3.77000000000254
20
21.8499683295261
30
0
0
SPLINE
5
1B7
100
AcDbEntity
8
1
62
256
6
ByLayer
370
18
48
1
60
0
100
AcDbSpline
70
4
71
3
72
28
73
24
40
0
40
0
40
0
40
0
40
0.124999999999999
40
0.124999999999999
40
0.249999999999998
40
0.249999999999998
40
0.374999999999997
40
0.374999999999997
40
0.437499999999998
40
0.437499999999998
40
0.499999999999999
40
0.499999999999999
40
0.624999999999999
40
0.624999999999999
40
0.687499999999999
40
0.687499999999999
40
0.749999999999999
40
0.749999999999999
40
0.874999999999999
40
0.874999999999999
40
0.9375
40
0.9375
40
1
40
1
40
1
40
1
41
1
10
12.4668202986809
20
26.85
30
0
41
1
10
12.4686632154496
20
26.7493667732167
30
0
41
1
10
12.4610722872329
20
26.6500259933411
30
0
41
1
10
12.4274713350748
20
26.4538678695112
30
0
41
1
10
12.4013063051634
20
26.3566233326411
30
0
41
1
10
12.3296766174727
20
26.1666957252112
30
0
41
1
10
12.2850745442945
20
26.0760605657668
30
0
41
1
10
12.2049072493695
20
25.9466418473835
30
0
41
1
10
12.1759596478556
20
25.9045984072212
30
0
41
1
10
12.113408206444
20
25.822805219122
30
0
41
1
10
12.0795778673558
20
25.7828251518975
30
0
41
1
10
11.9724872854719
20
25.668576609303
30
0
41
1
10
11.8939556071701
20
25.6000040910835
30
0
41
1
10
11.7652263411224
20
25.5087742293888
30
0
41
1
10
11.7204820767202
20
25.4803157794814
30
0
41
1
10
11.6271134568572
20
25.4275264216769
30
0
41
1
10
11.5784946741931
20
25.4032551168145
30
0
41
1
10
11.4305766684453
20
25.3387296419595
30
0
41
1
10
11.3280053252435
20
25.3059315153282
30
0
41
1
10
11.1680407204116
20
25.2724977093401
30
0
41
1
10
11.1133345102254
20
25.26398159915
30
0
41
1
10
11.0042679317441
20
25.2527670001049
30
0
41
1
10
10.9497762386486
20
25.25
30
0
41
1
10
10.8953250682307
20
25.25
30
0
0
SPLINE
5
1B8
100
AcDbEntity
8
1
62
256
6
ByLayer
370
18
48
1
60
0
100
AcDbSpline
70
4
71
3
72
28
73
24
40
0
40
0
40
0
40
0
40
0.0624999999999998
40
0.0624999999999998
40
0.125
40
0.125
40
0.25
40
0.25
40
0.375000000000001
40
0.375000000000001
40
0.437500000000001
40
0.437500000000001
40
0.500000000000002
40
0.500000000000002
40
0.625000000000004
40
0.625000000000004
40
0.687500000000004
40
0.687500000000004
40
0.750000000000003
40
0.750000000000003
40
0.875000000000002
40
0.875000000000002
40
1
40
1
40
1
40
1
41
1
10
10.6
20
25.25
30
0
41
1
10
10.6520863684513
20
25.25
30
0
41
1
10
10.704769034031
20
25.2525744892844
30
0
41
1
10
10.809045885728
20
25.2628501550147
30
0
41
1
10
10.8606513874722
20
25.2705148984145
30
0
41
1
10
11.0138974156832
20
25.3009556956052
30
0
41
1
10
11.1144453384957
20
25.331299445309
30
0
41
1
10
11.3091919159297
20
25.4118928386596
30
0
41
1
10
11.4011552203952
20
25.4611089215526
30
0
41
1
10
11.5312438912125
20
25.5478856256769
30
0
41
1
10
11.5732878785144
20
25.5789856558269
30
0
41
1
10
11.6546652946018
20
25.6456545869563
30
0
41
1
10
11.6938958044305
20
25.6811843510837
30
0
41
1
10
11.8049419410432
20
25.7921403083944
30
0
41
1
10
11.8710801103109
20
25.8726011943364
30
0
41
1
10
11.9584470812384
20
26.0030290468322
30
0
41
1
10
11.9857133620232
20
26.0483984532676
30
0
41
1
10
12.0353680632126
20
26.1411381767067
30
0
41
1
10
12.0577415686238
20
26.1884060398416
30
0
41
1
10
12.1176972941449
20
26.3328316334195
30
0
41
1
10
12.1481837305834
20
26.4325861144392
30
0
41
1
10
12.1895592952643
20
26.6392668456531
30
0
41
1
10
12.2000000000009
20
26.7443452913445
30
0
41
1
10
12.2000000000009
20
26.8499999999999
30
0
0
SPLINE
5
1B9
100
AcDbEntity
8
1
62
256
6
ByLayer
370
18
48
1
60
0
100
AcDbSpline
70
4
71
3
72
12
73
8
40
0
40
0
40
0
40
0
40
0.5
40
0.5
40
0.750000000000001
40
0.750000000000001
40
1
40
1
40
1
40
1
41
1
10
12.2000000000001
20
41.074412660389
30
0
41
1
10
12.2061648698099
20
40.7986412022662
30
0
41
1
10
12.2132902859781
20
40.571033976622
30
0
41
1
10
12.2257353019836
20
40.2991833932128
30
0
41
1
10
12.2301820000276
20
40.2202115415745
30
0
41
1
10
12.2397170868865
20
40.0868818279804
30
0
41
1
10
12.244751383118
20
40.0332546195075
30
0
41
1
10
12.2500694122791
20
39.9926727066255
30
0
0
SPLINE
5
1BA
100
AcDbEntity
8
1
62
256
6
ByLayer
370
18
48
1
60
0
100
AcDbSpline
70
4
71
3
72
65
73
61
40
0
40
0
40
0
40
0
40
0.0624999999999993
40
0.0624999999999993
40
0.124999999999999
40
0.124999999999999
40
0.187499999999998
40
0.187499999999998
40
0.249999999999997
40
0.249999999999997
40
0.281249999999996
40
0.281249999999996
40
0.312499999999996
40
0.312499999999996
40
0.343749999999995
40
0.343749999999995
40
0.374999999999994
40
0.374999999999994
40
0.390624999999994
40
0.390624999999994
40
0.406249999999994
40
0.406249999999994
40
0.437499999999993
40
0.437499999999993
40
0.468749999999992
40
0.468749999999992
40
0.484374999999992
40
0.484374999999992
40
0.499999999999992
40
0.515624999999992
40
0.515624999999992
40
0.531249999999992
40
0.531249999999992
40
0.546874999999991
40
0.546874999999991
40
0.562499999999991
40
0.562499999999991
40
0.593749999999991
40
0.593749999999991
40
0.624999999999992
40
0.624999999999992
40
0.640624999999992
40
0.640624999999992
40
0.656249999999993
40
0.656249999999993
40
0.687499999999993
40
0.687499999999993
40
0.718749999999994
40
0.718749999999994
40
0.749999999999995
40
0.749999999999995
40
0.781249999999995
40
0.781249999999995
40
0.812499999999996
40
0.812499999999996
40
0.874999999999997
40
0.874999999999997
40
0.937499999999999
40
0.937499999999999
40
1
40
1
40
1
40
1
41
1
10
15.1113098167748
20
42.6777018864083
30
0
41
1
10
15.1446696294387
20
42.4804202198706
30
0
41
1
10
15.1862790921768
20
42.2936060287496
30
0
41
1
10
15.2726884670992
20
41.9379984143009
30
0
41
1
10
15.3175310325112
20
41.7692181344657
30
0
41
1
10
15.3988506217415
20
41.4483756017417
30
0
41
1
10
15.435533709188
20
41.2959786816503
30
0
41
1
10
15.487716847238
20
41.0092662570939
30
0
41
1
10
15.5029434445403
20
40.877177069129
30
0
41
1
10
15.4978278011572
20
40.6958397318558
30
0
41
1
10
15.4913388789209
20
40.637914276262
30
0
41
1
10
15.4663283355906
20
40.5293469774518
30
0
41
1
10
15.4479027370413
20
40.4787666410611
30
0
41
1
10
15.3963667051598
20
40.384811781565
30
0
41
1
10
15.3632958666827
20
40.3414368672214
30
0
41
1
10
15.2781218925719
20
40.2617413801613
30
0
41
1
10
15.2269762250355
20
40.226388875448
30
0
41
1
10
15.1354085377945
20
40.1796761292696
30
0
41
1
10
15.1023816271671
20
40.1651420898633
30
0
41
1
10
15.030704427845
20
40.1380448065984
30
0
41
1
10
14.9920232760455
20
40.1255030257228
30
0
41
1
10
14.8697069720264
20
40.0914876115961
30
0
41
1
10
14.7790646252921
20
40.0732419965181
30
0
41
1
10
14.5764584907368
20
40.0440892974335
30
0
41
1
10
14.4689571036519
20
40.0337996144319
30
0
41
1
10
14.2988765508597
20
40.0234298242403
30
0
41
1
10
14.2401656683191
20
40.0208168909717
30
0
41
1
10
14.1218948077028
20
40.0173509501128
30
0
41
1
10
14.0035801004157
20
40.0156332286471
30
0
41
1
10
13.8851798221125
20
40.0172172463438
30
0
41
1
10
13.7667355948458
20
40.0205492381359
30
0
41
1
10
13.7079779091167
20
40.0230904227574
30
0
41
1
10
13.594074615353
20
40.0298866710194
30
0
41
1
10
13.5385090521026
20
40.0341525133105
30
0
41
1
10
13.4300886865145
20
40.0446175925452
30
0
41
1
10
13.3769606442349
20
40.0508686823764
30
0
41
1
10
13.2256707159287
20
40.0724162047793
30
0
41
1
10
13.1340617229858
20
40.0906043397866
30
0
41
1
10
12.9690255561032
20
40.136175823561
30
0
41
1
10
12.8978949791833
20
40.1629050927101
30
0
41
1
10
12.8053192880799
20
40.2098097324449
30
0
41
1
10
12.7767429934884
20
40.2266647833524
30
0
41
1
10
12.7249137077967
20
40.2621801177812
30
0
41
1
10
12.7015406571604
20
40.2808814399874
30
0
41
1
10
12.6381335260211
20
40.3398864822737
30
0
41
1
10
12.6047709139325
20
40.3830895828721
30
0
41
1
10
12.5525190989087
20
40.477656182705
30
0
41
1
10
12.5338154897311
20
40.528960600225
30
0
41
1
10
12.5088190158103
20
40.6369937886253
30
0
41
1
10
12.5023365900306
20
40.6940598241516
30
0
41
1
10
12.4987205494325
20
40.8142847705422
30
0
41
1
10
12.5016021599721
20
40.8774436843758
30
0
41
1
10
12.5147544541353
20
41.0099040582388
30
0
41
1
10
12.5250557825281
20
41.0791831285589
30
0
41
1
10
12.5638025790053
20
41.2928408921227
30
0
41
1
10
12.6001071297638
20
41.444113053075
30
0
41
1
10
12.6812856216248
20
41.7646956609225
30
0
41
1
10
12.7262990921658
20
41.9339934897643
30
0
41
1
10
12.8134381416144
20
42.2922830703058
30
0
41
1
10
12.855383443921
20
42.4807340825695
30
0
41
1
10
12.8886901832253
20
42.6777018864083
30
0
0
SPLINE
5
1BB
100
AcDbEntity
8
1
62
256
6
ByLayer
370
18
48
1
60
0
100
AcDbSpline
70
4
71
3
72
10
73
6
40
0
40
0
40
0
40
0
40
0.5
40
0.5
40
1
40
1
40
1
40
1
41
1
10
12.7982616359124
20
47.5050395804411
30
0
41
1
10
12.9007183972382
20
47.5333628794681
30
0
41
1
10
13.0041556837244
20
47.5587580079351
30
0
41
1
10
13.2119105558207
20
47.6069194022121
30
0
41
1
10
13.3162581128898
20
47.6295961633897
30
0
41
1
10
13.4208747878793
20
47.6514692499618
30
0
0
SPLINE
5
1BC
100
AcDbEntity
8
1
62
256
6
ByLayer
370
18
48
1
60
0
100
AcDbSpline
70
4
71
3
72
10
73
6
40
0
40
0
40
0
40
0
40
0.5
40
0.5
40
1
40
1
40
1
40
1
41
1
10
13.4208747878793
20
47.6514692499618
30
0
41
1
10
13.4503850127168
20
47.6576392004282
30
0
41
1
10
13.4752781325261
20
47.6733227627806
30
0
41
1
10
13.5139445941626
20
47.7123014398027
30
0
41
1
10
13.5274704961218
20
47.7350266161392
30
0
41
1
10
13.5357814543499
20
47.7593914652916
30
0
0
SPLINE
5
1BD
100
AcDbEntity
8
1
62
256
6
ByLayer
370
18
48
1
60
0
100
AcDbSpline
70
4
71
3
72
8
73
4
40
0
40
0
40
0
40
0
40
1
40
1
40
1
40
1
41
1
10
13.5357814543472
20
47.7593914652924
30
0
41
1
10
13.5512502519442
20
47.8047406187441
30
0
41
1
10
13.5674330623666
20
47.8499044623431
30
0
41
1
10
13.5840461068824
20
47.89495664602
30
0
0
SPLINE
5
1BE
100
AcDbEntity
8
1
62
256
6
ByLayer
370
18
48
1
60
0
100
AcDbSpline
70
4
71
3
72
10
73
6
40
0
40
0
40
0
40
0
40
0.5
40
0.5
40
1
40
1
40
1
40
1
41
1
10
13.5840461068824
20
47.89495664602
30
0
41
1
10
13.5936823485916
20
47.9210887454686
30
0
41
1
10
13.6112815911899
20
47.9449897282018
30
0
41
1
10
13.6603050458056
20
47.9798716818809
30
0
41
1
10
13.6922319406869
20
47.9905882925125
30
0
41
1
10
13.7249999999992
20
47.9905882925127
30
0
0
SPLINE
5
1BF
100
AcDbEntity
8
1
62
256
6
ByLayer
370
18
48
1
60
0
100
AcDbSpline
70
4
71
3
72
10
73
6
40
0
40
0
40
0
40
0
40
0.5
40
0.5
40
1
40
1
40
1
40
1
41
1
10
14.2750000000001
20
47.9905882925047
30
0
41
1
10
14.3076928409579
20
47.9905882925046
30
0
41
1
10
14.3392929936167
20
47.9801232760231
30
0
41
1
10
14.3888988387746
20
47.9448956076663
30
0
41
1
10
14.4063279015148
20
47.9210609486574
30
0
41
1
10
14.415953893118
20
47.8949566460194
30
0
0
SPLINE
5
1C0
100
AcDbEntity
8
1
62
256
6
ByLayer
370
18
48
1
60
0
100
AcDbSpline
70
4
71
3
72
8
73
4
40
0
40
0
40
0
40
0
40
1
40
1
40
1
40
1
41
1
10
14.415953893118
20
47.8949566460194
30
0
41
1
10
14.4325727629137
20
47.8498886650223
30
0
41
1
10
14.4487561448335
20
47.8047218656093
30
0
41
1
10
14.4642185456529
20
47.7593914652924
30
0
0
SPLINE
5
1C1
100
AcDbEntity
8
1
62
256
6
ByLayer
370
18
48
1
60
0
100
AcDbSpline
70
4
71
3
72
10
73
6
40
0
40
0
40
0
40
0
40
0.5
40
0.5
40
1
40
1
40
1
40
1
41
1
10
14.4642185456529
20
47.7593914652924
30
0
41
1
10
14.4725393818736
20
47.7349976572896
30
0
41
1
10
14.4861569991746
20
47.7122004682843
30
0
41
1
10
14.5246114936508
20
47.6734325860131
30
0
41
1
10
14.5495324620614
20
47.6576564546692
30
0
41
1
10
14.5791252121208
20
47.6514692499618
30
0
0
SPLINE
5
1C2
100
AcDbEntity
8
1
62
256
6
ByLayer
370
18
48
1
60
0
100
AcDbSpline
70
4
71
3
72
10
73
6
40
0
40
0
40
0
40
0
40
0.5
40
0.5
40
1
40
1
40
1
40
1
41
1
10
14.5791252121208
20
47.6514692499618
30
0
41
1
10
14.6836611334476
20
47.6296130472359
30
0
41
1
10
14.7879595355558
20
47.6069482648881
30
0
41
1
10
14.995724539001
20
47.5587870255308
30
0
41
1
10
15.099325362141
20
47.5333507825618
30
0
41
1
10
15.2017383640824
20
47.5050395804442
30
0
0
SPLINE
5
1C3
100
AcDbEntity
8
SK1
62
256
6
ByLayer
370
18
48
1
60
0
100
AcDbSpline
70
4
71
3
72
8
73
4
40
0
40
0
40
0
40
0
40
1
40
1
40
1
40
1
41
1
10
0.500000000000028
20
19.96672254916
30
0
41
1
10
0.261026764335526
20
19.727894583962
30
0
41
1
10
0.0220535304974305
20
19.4890666169387
30
0
41
1
10
-0.216919701447154
20
19.250238648023
30
0
0
INSERT
5
1D6
100
AcDbEntity
8
SK2
62
256
6
ByLayer
370
25
48
1
60
0
100
AcDbBlockReference
2
DimnDraft3D11
10
0
20
0
30
0
41
1
42
1
43
1
50
0
210
0
220
0
230
1
0
LINE
5
73
100
AcDbEntity
8
1
62
256
6
ByLayer
370
18
48
1
60
0
100
AcDbLine
10
12.4
20
48.334518
30
0
11
12.4
21
49.63
31
0
39
0
210
0
220
0
230
1
0
LINE
5
74
100
AcDbEntity
8
1
62
256
6
ByLayer
370
18
48
1
60
0
100
AcDbLine
10
12.658616
20
48.336037
30
0
11
13.350066
21
48.457959
31
0
39
0
210
0
220
0
230
1
0
LINE
5
75
100
AcDbEntity
8
1
62
256
6
ByLayer
370
18
48
1
60
0
100
AcDbLine
10
15.6
20
49.63
30
0
11
15.6
21
48.334518
31
0
39
0
210
0
220
0
230
1
0
LINE
5
76
100
AcDbEntity
8
1
62
256
6
ByLayer
370
18
48
1
60
0
100
AcDbLine
10
15.6
20
49.63
30
0
11
12.4
21
49.63
31
0
39
0
210
0
220
0
230
1
0
LINE
5
77
100
AcDbEntity
8
1
62
256
6
ByLayer
370
18
48
1
60
0
100
AcDbLine
10
12.658616
20
47.466306
30
0
11
12.658616
21
48.336037
31
0
39
0
210
0
220
0
230
1
0
LINE
5
78
100
AcDbEntity
8
1
62
256
6
ByLayer
370
18
48
1
60
0
100
AcDbLine
10
12.641251
20
47.461586
30
0
11
12.641251
21
48.334518
31
0
39
0
210
0
220
0
230
1
0
LINE
5
79
100
AcDbEntity
8
1
62
256
6
ByLayer
370
18
48
1
60
0
100
AcDbLine
10
15.341384
20
47.466306
30
0
11
15.341384
21
48.336037
31
0
39
0
210
0
220
0
230
1
0
LINE
5
7A
100
AcDbEntity
8
1
62
256
6
ByLayer
370
18
48
1
60
0
100
AcDbLine
10
15.358749
20
47.461586
30
0
11
15.358749
21
48.334518
31
0
39
0
210
0
220
0
230
1
0
LINE
5
7B
100
AcDbEntity
8
1
62
256
6
ByLayer
370
18
48
1
60
0
100
AcDbLine
10
12.4
20
47.394809
30
0
11
12.4
21
48.334518
31
0
39
0
210
0
220
0
230
1
0
LINE
5
7C
100
AcDbEntity
8
1
62
256
6
ByLayer
370
18
48
1
60
0
100
AcDbLine
10
12.4
20
48.334518
30
0
11
12.641251
21
48.334518
31
0
39
0
210
0
220
0
230
1
0
LINE
5
7D
100
AcDbEntity
8
1
62
256
6
ByLayer
370
18
48
1
60
0
100
AcDbLine
10
15.6
20
48.334518
30
0
11
15.358749
21
48.334518
31
0
39
0
210
0
220
0
230
1
0
LINE
5
7E
100
AcDbEntity
8
1
62
256
6
ByLayer
370
18
48
1
60
0
100
AcDbLine
10
15.341384
20
48.336037
30
0
11
14.649934
21
48.457959
31
0
39
0
210
0
220
0
230
1
0
LINE
5
7F
100
AcDbEntity
8
1
62
256
6
ByLayer
370
18
48
1
60
0
100
AcDbLine
10
14.605665
20
48.477691
30
0
11
14.513888
21
48.549523
31
0
39
0
210
0
220
0
230
1
0
LINE
5
80
100
AcDbEntity
8
1
62
256
6
ByLayer
370
18
48
1
60
0
100
AcDbLine
10
14.02
20
48.937861
30
0
11
13.98
21
48.937861
31
0
39
0
210
0
220
0
230
1
0
LINE
5
81
100
AcDbEntity
8
1
62
256
6
ByLayer
370
18
48
1
60
0
100
AcDbLine
10
13.394335
20
48.477691
30
0
11
13.486112
21
48.549523
31
0
39
0
210
0
220
0
230
1
0
LINE
5
82
100
AcDbEntity
8
1
62
256
6
ByLayer
370
18
48
1
60
0
100
AcDbLine
10
15.6
20
47.394809
30
0
11
15.6
21
48.334518
31
0
39
0
210
0
220
0
230
1
0
LINE
5
83
100
AcDbEntity
8
1
62
256
6
ByLayer
370
18
48
1
60
0
100
AcDbLine
10
13.350066
20
47.634783
30
0
11
13.350066
21
48.457959
31
0
39
0
210
0
220
0
230
1
0
LINE
5
84
100
AcDbEntity
8
1
62
256
6
ByLayer
370
18
48
1
60
0
100
AcDbLine
10
14.649934
20
47.635248
30
0
11
14.649934
21
48.457959
31
0
39
0
210
0
220
0
230
1
0
LINE
5
85
100
AcDbEntity
8
1
62
256
6
ByLayer
370
18
48
1
60
0
100
AcDbLine
10
14.605665
20
47.645328
30
0
11
14.605665
21
48.477691
31
0
39
0
210
0
220
0
230
1
0
LINE
5
86
100
AcDbEntity
8
1
62
256
6
ByLayer
370
18
48
1
60
0
100
AcDbLine
10
13.394335
20
47.645172
30
0
11
13.394335
21
48.477691
31
0
39
0
210
0
220
0
230
1
0
LINE
5
87
100
AcDbEntity
8
1
62
256
6
ByLayer
370
18
48
1
60
0
100
AcDbLine
10
13.486112
20
47.68637
30
0
11
13.486112
21
48.549523
31
0
39
0
210
0
220
0
230
1
0
LINE
5
88
100
AcDbEntity
8
1
62
256
6
ByLayer
370
18
48
1
60
0
100
AcDbLine
10
14.513888
20
47.687396
30
0
11
14.513888
21
48.549523
31
0
39
0
210
0
220
0
230
1
0
LINE
5
89
100
AcDbEntity
8
1
62
256
6
ByLayer
370
18
48
1
60
0
100
AcDbLine
10
13.516915
20
48.590119
30
0
11
13.516915
21
47.725514
31
0
39
0
210
0
220
0
230
1
0
LINE
5
8A
100
AcDbEntity
8
1
62
256
6
ByLayer
370
18
48
1
60
0
100
AcDbLine
10
14.483085
20
48.590119
30
0
11
14.483085
21
47.726151
31
0
39
0
210
0
220
0
230
1
0
LINE
5
8B
100
AcDbEntity
8
1
62
256
6
ByLayer
370
18
48
1
60
0
100
AcDbLine
10
13.572267
20
47.861792
30
0
11
13.572267
21
48.748945
31
0
39
0
210
0
220
0
230
1
0
LINE
5
8C
100
AcDbEntity
8
1
62
256
6
ByLayer
370
18
48
1
60
0
100
AcDbLine
10
14.427733
20
47.861792
30
0
11
14.427733
21
48.748945
31
0
39
0
210
0
220
0
230
1
0
LINE
5
8D
100
AcDbEntity
8
1
62
256
6
ByLayer
370
18
48
1
60
0
100
AcDbLine
10
13.789264
20
47.990587
30
0
11
13.789264
21
48.928946
31
0
39
0
210
0
220
0
230
1
0
LINE
5
8E
100
AcDbEntity
8
1
62
256
6
ByLayer
370
18
48
1
60
0
100
AcDbLine
10
14.210736
20
47.990587
30
0
11
14.210736
21
48.928946
31
0
39
0
210
0
220
0
230
1
0
LINE
5
8F
100
AcDbEntity
8
1
62
256
6
ByLayer
370
18
48
1
60
0
100
AcDbLine
10
13.98
20
47.990569
30
0
11
13.98
21
48.937861
31
0
39
0
210
0
220
0
230
1
0
LINE
5
90
100
AcDbEntity
8
1
62
256
6
ByLayer
370
18
48
1
60
0
100
AcDbLine
10
14.02
20
47.990569
30
0
11
14.02
21
48.937861
31
0
39
0
210
0
220
0
230
1
0
LINE
5
91
100
AcDbEntity
8
1
62
256
6
ByLayer
370
18
48
1
60
0
100
AcDbLine
10
15.995236
20
55.584336
30
0
11
15.83874
21
52
31
0
39
0
210
0
220
0
230
1
0
LINE
5
92
100
AcDbEntity
8
1
62
256
6
ByLayer
370
18
48
1
60
0
100
AcDbLine
10
12.16126
20
52
30
0
11
12.4
21
51.58649
31
0
39
0
210
0
220
0
230
1
0
LINE
5
93
100
AcDbEntity
8
1
62
256
6
ByLayer
370
18
48
1
60
0
100
AcDbLine
10
12.004764
20
55.584336
30
0
11
12.16126
21
52
31
0
39
0
210
0
220
0
230
1
0
LINE
5
94
100
AcDbEntity
8
1
62
256
6
ByLayer
370
18
48
1
60
0
100
AcDbLine
10
15.598515
20
56
30
0
11
12.401485
21
56
31
0
39
0
210
0
220
0
230
1
0
LINE
5
95
100
AcDbEntity
8
1
62
256
6
ByLayer
370
18
48
1
60
0
100
AcDbLine
10
15.83874
20
52
30
0
11
15.6
21
51.58649
31
0
39
0
210
0
220
0
230
1
0
LINE
5
96
100
AcDbEntity
8
1
62
256
6
ByLayer
370
18
48
1
60
0
100
AcDbLine
10
15.6
20
49.63
30
0
11
15.6
21
51.58649
31
0
39
0
210
0
220
0
230
1
0
LINE
5
97
100
AcDbEntity
8
1
62
256
6
ByLayer
370
18
48
1
60
0
100
AcDbLine
10
12.4
20
49.63
30
0
11
12.4
21
51.58649
31
0
39
0
210
0
220
0
230
1
0
LINE
5
98
100
AcDbEntity
8
1
62
256
6
ByLayer
370
18
48
1
60
0
100
AcDbLine
10
15.995236
20
31.415664
30
0
11
15.83874
21
35
31
0
39
0
210
0
220
0
230
1
0
LINE
5
99
100
AcDbEntity
8
1
62
256
6
ByLayer
370
18
48
1
60
0
100
AcDbLine
10
15.83874
20
35
30
0
11
15.799997
21
35.067105
31
0
39
0
210
0
220
0
230
1
0
LINE
5
9A
100
AcDbEntity
8
1
62
256
6
ByLayer
370
18
48
1
60
0
100
AcDbLine
10
12.16126
20
35
30
0
11
12.200003
21
35.067105
31
0
39
0
210
0
220
0
230
1
0
LINE
5
9B
100
AcDbEntity
8
1
62
256
6
ByLayer
370
18
48
1
60
0
100
AcDbLine
10
12.004764
20
31.415664
30
0
11
12.16126
21
35
31
0
39
0
210
0
220
0
230
1
0
LINE
5
9C
100
AcDbEntity
8
1
62
256
6
ByLayer
370
18
48
1
60
0
100
AcDbLine
10
15.8
20
-12.25
30
0
11
15.8
21
41.074413
31
0
39
0
210
0
220
0
230
1
0
LINE
5
9D
100
AcDbEntity
8
1
62
256
6
ByLayer
370
18
48
1
60
0
100
AcDbLine
10
15.357204
20
-12.692796
30
0
11
15.8
21
-12.25
31
0
39
0
210
0
220
0
230
1
0
LINE
5
9E
100
AcDbEntity
8
1
62
256
6
ByLayer
370
18
48
1
60
0
100
AcDbLine
10
14.825702
20
-13.224298
30
0
11
14.889005
21
-13.160995
31
0
39
0
210
0
220
0
230
1
0
LINE
5
9F
100
AcDbEntity
8
1
62
256
6
ByLayer
370
18
48
1
60
0
100
AcDbLine
10
14.213094
20
-5.552168
30
0
11
14.213094
21
7.1
31
0
39
0
210
0
220
0
230
1
0
LINE
5
A0
100
AcDbEntity
8
1
62
256
6
ByLayer
370
18
48
1
60
0
100
AcDbLine
10
14.462278
20
10.95701
30
0
11
2.546636
21
10.95701
31
0
39
0
210
0
220
0
230
1
0
LINE
5
A1
100
AcDbEntity
8
1
62
256
6
ByLayer
370
18
48
1
60
0
100
AcDbLine
10
14.213094
20
7.1
30
0
11
1.5
21
7.1
31
0
39
0
210
0
220
0
230
1
0
LINE
5
A2
100
AcDbEntity
8
1
62
256
6
ByLayer
370
18
48
1
60
0
100
AcDbLine
10
1.5
20
7.1
30
0
11
1.5
21
10.521947
31
0
39
0
210
0
220
0
230
1
0
LINE
5
A3
100
AcDbEntity
8
1
62
256
6
ByLayer
370
18
48
1
60
0
100
AcDbLine
10
2.17
20
10.521947
30
0
11
1.5
21
10.521947
31
0
39
0
210
0
220
0
230
1
0
LINE
5
A4
100
AcDbEntity
8
SK1
62
256
6
ByLayer
370
18
48
1
60
0
100
AcDbLine
10
-0.04697
20
10.152118
30
0
11
0.5
21
10.61352
31
0
39
0
210
0
220
0
230
1
0
LINE
5
A6
100
AcDbEntity
8
1
62
256
6
ByLayer
370
18
48
1
60
0
100
AcDbLine
10
0.5
20
5.552168
30
0
11
0.5
21
10.61352
31
0
39
0
210
0
220
0
230
1
0
LINE
5
A7
100
AcDbEntity
8
1
62
256
6
ByLayer
370
18
48
1
60
0
100
AcDbLine
10
0.126149
20
5.552168
30
0
11
0.5
21
5.552168
31
0
39
0
210
0
220
0
230
1
0
LINE
5
A8
100
AcDbEntity
8
SK1
62
256
6
ByLayer
370
18
48
1
60
0
100
AcDbLine
10
-0.324981
20
6.10077
30
0
11
-0.324981
21
5.89923
31
0
39
0
210
0
220
0
230
1
0
LINE
5
A9
100
AcDbEntity
8
SK1
62
256
6
ByLayer
370
18
48
1
60
0
100
AcDbLine
10
-0.324981
20
7.60077
30
0
11
-0.324981
21
7.39923
31
0
39
0
210
0
220
0
230
1
0
LINE
5
AA
100
AcDbEntity
8
SK1
62
256
6
ByLayer
370
18
48
1
60
0
100
AcDbLine
10
-0.324981
20
9.10077
30
0
11
-0.324981
21
8.89923
31
0
39
0
210
0
220
0
230
1
0
LINE
5
AB
100
AcDbEntity
8
1
62
256
6
ByLayer
370
18
48
1
60
0
100
AcDbLine
10
1.5
20
10.61352
30
0
11
0.5
21
10.61352
31
0
39
0
210
0
220
0
230
1
0
LINE
5
AC
100
AcDbEntity
8
1
62
256
6
ByLayer
370
18
48
1
60
0
100
AcDbLine
10
1.5
20
5.552168
30
0
11
0.5
21
5.552168
31
0
39
0
210
0
220
0
230
1
0
LINE
5
AD
100
AcDbEntity
8
SK1
62
256
6
ByLayer
370
18
48
1
60
0
100
AcDbLine
10
-0.249981
20
-4.730673
30
0
11
0.342769
21
-5.072898
31
0
39
0
210
0
220
0
230
1
0
LINE
5
AE
100
AcDbEntity
8
SK1
62
256
6
ByLayer
370
18
48
1
60
0
100
AcDbLine
10
-0.324981
20
-4.39923
30
0
11
-0.324981
21
-4.60077
31
0
39
0
210
0
220
0
230
1
0
LINE
5
AF
100
AcDbEntity
8
SK1
62
256
6
ByLayer
370
18
48
1
60
0
100
AcDbLine
10
0.342769
20
-3.927102
30
0
11
-0.249981
21
-4.269327
31
0
39
0
210
0
220
0
230
1
0
LINE
5
B0
100
AcDbEntity
8
SK1
62
256
6
ByLayer
370
18
48
1
60
0
100
AcDbLine
10
-0.249981
20
-3.230673
30
0
11
0.342769
21
-3.572898
31
0
39
0
210
0
220
0
230
1
0
LINE
5
B1
100
AcDbEntity
8
SK1
62
256
6
ByLayer
370
18
48
1
60
0
100
AcDbLine
10
-0.324981
20
-2.89923
30
0
11
-0.324981
21
-3.10077
31
0
39
0
210
0
220
0
230
1
0
LINE
5
B2
100
AcDbEntity
8
SK1
62
256
6
ByLayer
370
18
48
1
60
0
100
AcDbLine
10
0.342769
20
-2.427102
30
0
11
-0.249981
21
-2.769327
31
0
39
0
210
0
220
0
230
1
0
LINE
5
B3
100
AcDbEntity
8
SK1
62
256
6
ByLayer
370
18
48
1
60
0
100
AcDbLine
10
-0.249981
20
-1.730673
30
0
11
0.342769
21
-2.072898
31
0
39
0
210
0
220
0
230
1
0
LINE
5
B4
100
AcDbEntity
8
SK1
62
256
6
ByLayer
370
18
48
1
60
0
100
AcDbLine
10
-0.324981
20
-1.39923
30
0
11
-0.324981
21
-1.60077
31
0
39
0
210
0
220
0
230
1
0
LINE
5
B5
100
AcDbEntity
8
SK1
62
256
6
ByLayer
370
18
48
1
60
0
100
AcDbLine
10
0.342769
20
-0.927102
30
0
11
-0.249981
21
-1.269327
31
0
39
0
210
0
220
0
230
1
0
LINE
5
B6
100
AcDbEntity
8
SK1
62
256
6
ByLayer
370
18
48
1
60
0
100
AcDbLine
10
-0.249981
20
-0.230673
30
0
11
0.342769
21
-0.572898
31
0
39
0
210
0
220
0
230
1
0
LINE
5
B7
100
AcDbEntity
8
SK1
62
256
6
ByLayer
370
18
48
1
60
0
100
AcDbLine
10
-0.324981
20
0.10077
30
0
11
-0.324981
21
-0.10077
31
0
39
0
210
0
220
0
230
1
0
LINE
5
B8
100
AcDbEntity
8
SK1
62
256
6
ByLayer
370
18
48
1
60
0
100
AcDbLine
10
-0.249981
20
0.230673
30
0
11
0.342769
21
0.572898
31
0
39
0
210
0
220
0
230
1
0
LINE
5
B9
100
AcDbEntity
8
SK1
62
256
6
ByLayer
370
18
48
1
60
0
100
AcDbLine
10
0.342769
20
0.927102
30
0
11
-0.249981
21
1.269327
31
0
39
0
210
0
220
0
230
1
0
LINE
5
BA
100
AcDbEntity
8
SK1
62
256
6
ByLayer
370
18
48
1
60
0
100
AcDbLine
10
-0.324981
20
1.60077
30
0
11
-0.324981
21
1.39923
31
0
39
0
210
0
220
0
230
1
0
LINE
5
BB
100
AcDbEntity
8
SK1
62
256
6
ByLayer
370
18
48
1
60
0
100
AcDbLine
10
-0.249981
20
1.730673
30
0
11
0.342769
21
2.072898
31
0
39
0
210
0
220
0
230
1
0
LINE
5
BC
100
AcDbEntity
8
SK1
62
256
6
ByLayer
370
18
48
1
60
0
100
AcDbLine
10
0.342769
20
2.427102
30
0
11
-0.249981
21
2.769327
31
0
39
0
210
0
220
0
230
1
0
LINE
5
BD
100
AcDbEntity
8
SK1
62
256
6
ByLayer
370
18
48
1
60
0
100
AcDbLine
10
-0.324981
20
3.10077
30
0
11
-0.324981
21
2.89923
31
0
39
0
210
0
220
0
230
1
0
LINE
5
BE
100
AcDbEntity
8
SK1
62
256
6
ByLayer
370
18
48
1
60
0
100
AcDbLine
10
-0.249981
20
3.230673
30
0
11
0.342769
21
3.572898
31
0
39
0
210
0
220
0
230
1
0
LINE
5
BF
100
AcDbEntity
8
SK1
62
256
6
ByLayer
370
18
48
1
60
0
100
AcDbLine
10
0.342769
20
3.927102
30
0
11
-0.249981
21
4.269327
31
0
39
0
210
0
220
0
230
1
0
LINE
5
C0
100
AcDbEntity
8
SK1
62
256
6
ByLayer
370
18
48
1
60
0
100
AcDbLine
10
-0.324981
20
4.60077
30
0
11
-0.324981
21
4.39923
31
0
39
0
210
0
220
0
230
1
0
LINE
5
C1
100
AcDbEntity
8
SK1
62
256
6
ByLayer
370
18
48
1
60
0
100
AcDbLine
10
-0.249981
20
4.730673
30
0
11
0.342769
21
5.072898
31
0
39
0
210
0
220
0
230
1
0
LINE
5
C2
100
AcDbEntity
8
1
62
256
6
ByLayer
370
18
48
1
60
0
100
AcDbLine
10
0.342769
20
5.427102
30
0
11
0.126149
21
5.552168
31
0
39
0
210
0
220
0
230
1
0
LINE
5
C3
100
AcDbEntity
8
1
62
256
6
ByLayer
370
18
48
1
60
0
100
AcDbLine
10
0.5
20
-5.552168
30
0
11
0.5
21
5.552168
31
0
39
0
210
0
220
0
230
1
0
LINE
5
C4
100
AcDbEntity
8
1
62
256
6
ByLayer
370
18
48
1
60
0
100
AcDbLine
10
0.126149
20
-5.552168
30
0
11
0.5
21
-5.552168
31
0
39
0
210
0
220
0
230
1
0
LINE
5
C5
100
AcDbEntity
8
1
62
256
6
ByLayer
370
18
48
1
60
0
100
AcDbLine
10
0.342769
20
-5.427102
30
0
11
0.126149
21
-5.552168
31
0
39
0
210
0
220
0
230
1
0
LINE
5
C6
100
AcDbEntity
8
1
62
256
6
ByLayer
370
18
48
1
60
0
100
AcDbLine
10
0.5
20
-10.61352
30
0
11
0.5
21
-5.552168
31
0
39
0
210
0
220
0
230
1
0
LINE
5
C7
100
AcDbEntity
8
SK1
62
256
6
ByLayer
370
18
48
1
60
0
100
AcDbLine
10
-0.04697
20
-10.152118
30
0
11
0.5
21
-10.61352
31
0
39
0
210
0
220
0
230
1
0
LINE
5
C8
100
AcDbEntity
8
SK1
62
256
6
ByLayer
370
18
48
1
60
0
100
AcDbLine
10
-0.324981
20
-8.89923
30
0
11
-0.324981
21
-9.10077
31
0
39
0
210
0
220
0
230
1
0
LINE
5
C9
100
AcDbEntity
8
SK1
62
256
6
ByLayer
370
18
48
1
60
0
100
AcDbLine
10
-0.324981
20
-7.39923
30
0
11
-0.324981
21
-7.60077
31
0
39
0
210
0
220
0
230
1
0
LINE
5
CA
100
AcDbEntity
8
SK1
62
256
6
ByLayer
370
18
48
1
60
0
100
AcDbLine
10
-0.324981
20
-5.89923
30
0
11
-0.324981
21
-6.10077
31
0
39
0
210
0
220
0
230
1
0
LINE
5
CB
100
AcDbEntity
8
1
62
256
6
ByLayer
370
18
48
1
60
0
100
AcDbLine
10
14.213094
20
-5.552168
30
0
11
0.5
21
-5.552168
31
0
39
0
210
0
220
0
230
1
0
LINE
5
CC
100
AcDbEntity
8
1
62
256
6
ByLayer
370
18
48
1
60
0
100
AcDbLine
10
1.5
20
7.1
30
0
11
1.5
21
5.552168
31
0
39
0
210
0
220
0
230
1
0
LINE
5
CD
100
AcDbEntity
8
1
62
256
6
ByLayer
370
18
48
1
60
0
100
AcDbLine
10
14.463073
20
-10.61352
30
0
11
0.5
21
-10.61352
31
0
39
0
210
0
220
0
230
1
0
LINE
5
CE
100
AcDbEntity
8
1
62
256
6
ByLayer
370
18
48
1
60
0
100
AcDbLine
10
2.17
20
17.009172
30
0
11
2.17
21
10.521947
31
0
39
0
210
0
220
0
230
1
0
LINE
5
CF
100
AcDbEntity
8
1
62
256
6
ByLayer
370
18
48
1
60
0
100
AcDbLine
10
2.17
20
17.009172
30
0
11
1.5
21
17.009172
31
0
39
0
210
0
220
0
230
1
0
LINE
5
D0
100
AcDbEntity
8
1
62
256
6
ByLayer
370
18
48
1
60
0
100
AcDbLine
10
1.5
20
10.521947
30
0
11
1.5
21
17.009172
31
0
39
0
210
0
220
0
230
1
0
LINE
5
D1
100
AcDbEntity
8
1
62
256
6
ByLayer
370
18
48
1
60
0
100
AcDbLine
10
15.213817
20
16.336419
30
0
11
2.886846
21
16.336419
31
0
39
0
210
0
220
0
230
1
0
LINE
5
D2
100
AcDbEntity
8
1
62
256
6
ByLayer
370
18
48
1
60
0
100
AcDbLine
10
0.5
20
10.61352
30
0
11
0.5
21
16.803804
31
0
39
0
210
0
220
0
230
1
0
LINE
5
D3
100
AcDbEntity
8
SK1
62
256
6
ByLayer
370
18
48
1
60
0
100
AcDbLine
10
-0.324981
20
10.60077
30
0
11
-0.324981
21
10.39923
31
0
39
0
210
0
220
0
230
1
0
LINE
5
D4
100
AcDbEntity
8
SK1
62
256
6
ByLayer
370
18
48
1
60
0
100
AcDbLine
10
-0.324981
20
12.10077
30
0
11
-0.324981
21
11.89923
31
0
39
0
210
0
220
0
230
1
0
LINE
5
D5
100
AcDbEntity
8
SK1
62
256
6
ByLayer
370
18
48
1
60
0
100
AcDbLine
10
-0.324981
20
13.60077
30
0
11
-0.324981
21
13.39923
31
0
39
0
210
0
220
0
230
1
0
LINE
5
D6
100
AcDbEntity
8
SK1
62
256
6
ByLayer
370
18
48
1
60
0
100
AcDbLine
10
-0.324981
20
15.10077
30
0
11
-0.324981
21
14.89923
31
0
39
0
210
0
220
0
230
1
0
LINE
5
D7
100
AcDbEntity
8
1
62
256
6
ByLayer
370
18
48
1
60
0
100
AcDbLine
10
1.5
20
16.803804
30
0
11
0.5
21
16.803804
31
0
39
0
210
0
220
0
230
1
0
LINE
5
D8
100
AcDbEntity
8
SK1
62
256
6
ByLayer
370
18
48
1
60
0
100
AcDbLine
10
-0.237406
20
-19.262594
30
0
11
0.5
21
-20
31
0
39
0
210
0
220
0
230
1
0
LINE
5
D9
100
AcDbEntity
8
SK1
62
256
6
ByLayer
370
18
48
1
60
0
100
AcDbLine
10
-0.324981
20
-17.89923
30
0
11
-0.324981
21
-18.10077
31
0
39
0
210
0
220
0
230
1
0
LINE
5
DA
100
AcDbEntity
8
SK1
62
256
6
ByLayer
370
18
48
1
60
0
100
AcDbLine
10
-0.324981
20
-16.39923
30
0
11
-0.324981
21
-16.60077
31
0
39
0
210
0
220
0
230
1
0
LINE
5
DB
100
AcDbEntity
8
SK1
62
256
6
ByLayer
370
18
48
1
60
0
100
AcDbLine
10
-0.324981
20
-14.89923
30
0
11
-0.324981
21
-15.10077
31
0
39
0
210
0
220
0
230
1
0
LINE
5
DC
100
AcDbEntity
8
SK1
62
256
6
ByLayer
370
18
48
1
60
0
100
AcDbLine
10
-0.324981
20
-13.39923
30
0
11
-0.324981
21
-13.60077
31
0
39
0
210
0
220
0
230
1
0
LINE
5
DD
100
AcDbEntity
8
SK1
62
256
6
ByLayer
370
18
48
1
60
0
100
AcDbLine
10
-0.324981
20
-11.89923
30
0
11
-0.324981
21
-12.10077
31
0
39
0
210
0
220
0
230
1
0
LINE
5
DE
100
AcDbEntity
8
SK1
62
256
6
ByLayer
370
18
48
1
60
0
100
AcDbLine
10
-0.324981
20
-10.39923
30
0
11
-0.324981
21
-10.60077
31
0
39
0
210
0
220
0
230
1
0
LINE
5
DF
100
AcDbEntity
8
1
62
256
6
ByLayer
370
18
48
1
60
0
100
AcDbLine
10
0.5
20
-20
30
0
11
0.5
21
-10.61352
31
0
39
0
210
0
220
0
230
1
0
LINE
5
E0
100
AcDbEntity
8
1
62
256
6
ByLayer
370
18
48
1
60
0
100
AcDbLine
10
8.05
20
-20
30
0
11
14.825702
21
-13.224298
31
0
39
0
210
0
220
0
230
1
0
LINE
5
E1
100
AcDbEntity
8
1
62
256
6
ByLayer
370
18
48
1
60
0
100
AcDbLine
10
0.5
20
-20
30
0
11
8.05
21
-20
31
0
39
0
210
0
220
0
230
1
0
LINE
5
E2
100
AcDbEntity
8
1
62
256
6
ByLayer
370
18
48
1
60
0
100
AcDbLine
10
14.889001
20
-13.160999
30
0
11
15.357204
21
-12.692796
31
0
39
0
210
0
220
0
230
1
0
LINE
5
E3
100
AcDbEntity
8
1
62
256
6
ByLayer
370
18
48
1
60
0
100
AcDbLine
10
15.319539
20
17.53949
30
0
11
3.454686
21
17.53949
31
0
39
0
210
0
220
0
230
1
0
LINE
5
E4
100
AcDbEntity
8
1
62
256
6
ByLayer
370
18
48
1
60
0
100
AcDbLine
10
3.77
20
19.169884
30
0
11
15.383643
21
19.169884
31
0
39
0
210
0
220
0
230
1
0
LINE
5
E5
100
AcDbEntity
8
1
62
256
6
ByLayer
370
18
48
1
60
0
100
AcDbLine
10
3.77
20
20.741342
30
0
11
3.77
21
19.169884
31
0
39
0
210
0
220
0
230
1
0
LINE
5
E6
100
AcDbEntity
8
1
62
256
6
ByLayer
370
18
48
1
60
0
100
AcDbLine
10
3.77
20
20.741342
30
0
11
15.41142
21
20.741342
31
0
39
0
210
0
220
0
230
1
0
LINE
5
E7
100
AcDbEntity
8
1
62
256
6
ByLayer
370
18
48
1
60
0
100
AcDbLine
10
15.74039
20
7.693184
30
0
11
15.668124
21
7.693184
31
0
39
0
210
0
220
0
230
1
0
LINE
5
E8
100
AcDbEntity
8
1
62
256
6
ByLayer
370
18
48
1
60
0
100
AcDbLine
10
0.5
20
16.803737
30
0
11
0.5
21
17.462705
31
0
39
0
210
0
220
0
230
1
0
LINE
5
E9
100
AcDbEntity
8
1
62
256
6
ByLayer
370
18
48
1
60
0
100
AcDbLine
10
0.5
20
17.462705
30
0
11
1.5
21
17.462705
31
0
39
0
210
0
220
0
230
1
0
LINE
5
EA
100
AcDbEntity
8
1
62
256
6
ByLayer
370
18
48
1
60
0
100
AcDbLine
10
1.5
20
17.671107
30
0
11
1.5
21
17.462705
31
0
39
0
210
0
220
0
230
1
0
LINE
5
EB
100
AcDbEntity
8
1
62
256
6
ByLayer
370
18
48
1
60
0
100
AcDbLine
10
1.5
20
17.671107
30
0
11
2.17
21
17.671107
31
0
39
0
210
0
220
0
230
1
0
LINE
5
EC
100
AcDbEntity
8
1
62
256
6
ByLayer
370
18
48
1
60
0
100
AcDbLine
10
3.77
20
19.001223
30
0
11
3.77
21
19.169884
31
0
39
0
210
0
220
0
230
1
0
LINE
5
ED
100
AcDbEntity
8
1
62
256
6
ByLayer
370
18
48
1
60
0
100
AcDbLine
10
2.17
20
20.25
30
0
11
2.17
21
17.671107
31
0
39
0
210
0
220
0
230
1
0
LINE
5
EE
100
AcDbEntity
8
1
62
256
6
ByLayer
370
18
48
1
60
0
100
AcDbLine
10
15.726164
20
39.820967
30
0
11
12.273836
21
39.820967
31
0
39
0
210
0
220
0
230
1
0
LINE
5
EF
100
AcDbEntity
8
1
62
256
6
ByLayer
370
18
48
1
60
0
100
AcDbLine
10
3.77
20
22.799274
30
0
11
7.27
21
25.25
31
0
39
0
210
0
220
0
230
1
0
LINE
5
F0
100
AcDbEntity
8
1
62
256
6
ByLayer
370
18
48
1
60
0
100
AcDbLine
10
7.27
20
25.25
30
0
11
10.895325
21
25.25
31
0
39
0
210
0
220
0
230
1
0
LINE
5
F1
100
AcDbEntity
8
1
62
256
6
ByLayer
370
18
48
1
60
0
100
AcDbLine
10
3.77
20
20.741342
30
0
11
3.77
21
22.799274
31
0
39
0
210
0
220
0
230
1
0
LINE
5
F2
100
AcDbEntity
8
1
62
256
6
ByLayer
370
18
48
1
60
0
100
AcDbLine
10
2.17
20
20.25
30
0
11
1.5
21
20.25
31
0
39
0
210
0
220
0
230
1
0
LINE
5
F3
100
AcDbEntity
8
1
62
256
6
ByLayer
370
18
48
1
60
0
100
AcDbLine
10
1.5
20
17.671107
30
0
11
1.5
21
20.25
31
0
39
0
210
0
220
0
230
1
0
LINE
5
F4
100
AcDbEntity
8
1
62
256
6
ByLayer
370
18
48
1
60
0
100
AcDbLine
10
1.5
20
20
30
0
11
0.5
21
20
31
0
39
0
210
0
220
0
230
1
0
LINE
5
F5
100
AcDbEntity
8
1
62
256
6
ByLayer
370
18
48
1
60
0
100
AcDbLine
10
0.5
20
17.462705
30
0
11
0.5
21
20
31
0
39
0
210
0
220
0
230
1
0
LINE
5
F6
100
AcDbEntity
8
1
62
256
6
ByLayer
370
18
48
1
60
0
100
AcDbLine
10
12.46682
20
26.85
30
0
11
12.2
21
26.85
31
0
39
0
210
0
220
0
230
1
0
LINE
5
F7
100
AcDbEntity
8
1
62
256
6
ByLayer
370
18
48
1
60
0
100
AcDbLine
10
12.2
20
26.85
30
0
11
12.2
21
41.074413
31
0
39
0
210
0
220
0
230
1
0
LINE
5
F8
100
AcDbEntity
8
1
62
256
6
ByLayer
370
18
48
1
60
0
100
AcDbLine
10
15.749931
20
39.992673
30
0
11
12.250069
21
39.992673
31
0
39
0
210
0
220
0
230
1
0
LINE
5
F9
100
AcDbEntity
8
1
62
256
6
ByLayer
370
18
48
1
60
0
100
AcDbLine
10
15.8
20
41.074413
30
0
11
15.8
21
42.677702
31
0
39
0
210
0
220
0
230
1
0
LINE
5
FA
100
AcDbEntity
8
1
62
256
6
ByLayer
370
18
48
1
60
0
100
AcDbLine
10
12.2
20
42.677702
30
0
11
12.2
21
41.074413
31
0
39
0
210
0
220
0
230
1
0
LINE
5
FB
100
AcDbEntity
8
1
62
256
6
ByLayer
370
18
48
1
60
0
100
AcDbLine
10
12.88869
20
42.677702
30
0
11
12.2
21
42.677702
31
0
39
0
210
0
220
0
230
1
0
LINE
5
FC
100
AcDbEntity
8
1
62
256
6
ByLayer
370
18
48
1
60
0
100
AcDbLine
10
15.8
20
42.677702
30
0
11
15.11131
21
42.677702
31
0
39
0
210
0
220
0
230
1
0
LINE
5
FD
100
AcDbEntity
8
1
62
256
6
ByLayer
370
18
48
1
60
0
100
AcDbLine
10
12.2
20
47.339655
30
0
11
12.798262
21
47.50504
31
0
39
0
210
0
220
0
230
1
0
LINE
5
FE
100
AcDbEntity
8
1
62
256
6
ByLayer
370
18
48
1
60
0
100
AcDbLine
10
13.725
20
47.990588
30
0
11
14.275
21
47.990588
31
0
39
0
210
0
220
0
230
1
0
LINE
5
FF
100
AcDbEntity
8
1
62
256
6
ByLayer
370
18
48
1
60
0
100
AcDbLine
10
15.201738
20
47.50504
30
0
11
15.8
21
47.339655
31
0
39
0
210
0
220
0
230
1
0
LINE
5
100
100
AcDbEntity
8
1
62
256
6
ByLayer
370
18
48
1
60
0
100
AcDbLine
10
15.8
20
42.677702
30
0
11
15.8
21
47.339655
31
0
39
0
210
0
220
0
230
1
0
LINE
5
101
100
AcDbEntity
8
1
62
256
6
ByLayer
370
18
48
1
60
0
100
AcDbLine
10
12.2
20
47.339655
30
0
11
12.2
21
42.677702
31
0
39
0
210
0
220
0
230
1
0
LINE
5
102
100
AcDbEntity
8
SK1
62
256
6
ByLayer
370
18
48
1
60
0
100
AcDbLine
10
-0.249981
20
16.269327
30
0
11
-0.226428
21
16.255728
31
0
39
0
210
0
220
0
230
1
0
LINE
5
103
100
AcDbEntity
8
SK1
62
256
6
ByLayer
370
18
48
1
60
0
100
AcDbLine
10
-0.324981
20
16.39923
30
0
11
-0.324981
21
16.60077
31
0
39
0
210
0
220
0
230
1
0
LINE
5
104
100
AcDbEntity
8
SK1
62
256
6
ByLayer
370
18
48
1
60
0
100
AcDbLine
10
0.342769
20
17.072898
30
0
11
-0.249981
21
16.730673
31
0
39
0
210
0
220
0
230
1
0
LINE
5
105
100
AcDbEntity
8
SK1
62
256
6
ByLayer
370
18
48
1
60
0
100
AcDbLine
10
-0.249981
20
17.769327
30
0
11
0.342769
21
17.427102
31
0
39
0
210
0
220
0
230
1
0
LINE
5
106
100
AcDbEntity
8
SK1
62
256
6
ByLayer
370
18
48
1
60
0
100
AcDbLine
10
-0.324981
20
17.89923
30
0
11
-0.324981
21
18.10077
31
0
39
0
210
0
220
0
230
1
0
LINE
5
107
100
AcDbEntity
8
SK1
62
256
6
ByLayer
370
18
48
1
60
0
100
AcDbLine
10
0.342769
20
18.572898
30
0
11
-0.249981
21
18.230673
31
0
39
0
210
0
220
0
230
1
0
LINE
5
108
100
AcDbEntity
8
SK1
62
256
6
ByLayer
370
18
48
1
60
0
100
AcDbLine
10
-0.21692
20
19.250239
30
0
11
0.342769
21
18.927102
31
0
39
0
210
0
220
0
230
1
0
LINE
5
109
100
AcDbEntity
8
1
62
256
6
ByLayer
370
18
48
1
60
0
100
AcDbLine
10
15.8
20
48.95915
30
0
11
15.8
21
51.932847
31
0
39
0
210
0
220
0
230
1
0
LINE
5
10A
100
AcDbEntity
8
1
62
256
6
ByLayer
370
18
48
1
60
0
100
AcDbLine
10
15.599986
20
48.958556
30
0
11
15.8
21
48.95915
31
0
39
0
210
0
220
0
230
1
0
LINE
5
10B
100
AcDbEntity
8
1
62
256
6
ByLayer
370
18
48
1
60
0
100
AcDbLine
10
12.2
20
48.95915
30
0
11
12.400014
21
48.958556
31
0
39
0
210
0
220
0
230
1
0
LINE
5
10C
100
AcDbEntity
8
1
62
256
6
ByLayer
370
18
48
1
60
0
100
AcDbLine
10
12.2
20
48.95915
30
0
11
12.2
21
47.339685
31
0
39
0
210
0
220
0
230
1
0
LINE
5
10D
100
AcDbEntity
8
1
62
256
6
ByLayer
370
18
48
1
60
0
100
AcDbLine
10
12.2
20
51.932847
30
0
11
12.2
21
48.95915
31
0
39
0
210
0
220
0
230
1
0
LINE
5
10E
100
AcDbEntity
8
1
62
256
6
ByLayer
370
18
48
1
60
0
100
AcDbLine
10
15.8
20
47.339685
30
0
11
15.8
21
48.95915
31
0
39
0
210
0
220
0
230
1
0
LINE
5
10F
100
AcDbEntity
8
SK1
62
256
6
ByLayer
370
18
48
1
60
0
100
AcDbLine
10
-6.824981
20
5.9325
30
0
11
-7.824981
21
5.664551
31
0
39
0
210
0
220
0
230
1
0
LINE
5
110
100
AcDbEntity
8
SK1
62
256
6
ByLayer
370
18
48
1
60
0
100
AcDbLine
10
-6.824981
20
-5.9325
30
0
11
-6.824981
21
5.9325
31
0
39
0
210
0
220
0
230
1
0
LINE
5
111
100
AcDbEntity
8
SK1
62
256
6
ByLayer
370
18
48
1
60
0
100
AcDbLine
10
-7.824981
20
-5.664551
30
0
11
-6.824981
21
-5.9325
31
0
39
0
210
0
220
0
230
1
0
LINE
5
112
100
AcDbEntity
8
SK1
62
256
6
ByLayer
370
18
48
1
60
0
100
AcDbLine
10
-7.824981
20
-5.664551
30
0
11
-7.824981
21
5.664551
31
0
39
0
210
0
220
0
230
1
0
LINE
5
113
100
AcDbEntity
8
SK1
62
256
6
ByLayer
370
18
48
1
60
0
100
AcDbLine
10
-6.824981
20
-5.9325
30
0
11
-0.325106
21
-5.9325
31
0
39
0
210
0
220
0
230
1
0
LINE
5
114
100
AcDbEntity
8
SK1
62
256
6
ByLayer
370
18
48
1
60
0
100
AcDbLine
10
-0.325106
20
5.9325
30
0
11
-6.824981
21
5.9325
31
0
39
0
210
0
220
0
230
1
0
LINE
5
115
100
AcDbEntity
8
SK4
62
256
6
ByLayer
370
13
48
0.05
60
0
100
AcDbLine
10
-13.324981
20
0
30
0
11
16.675019
21
0
31
0
39
0
210
0
220
0
230
1
0
LINE
5
117
100
AcDbEntity
8
4
62
256
6
ByLayer
370
13
48
0.05
60
0
100
AcDbLine
10
-0.824981
20
0
30
0
11
18.175019
21
0
31
0
39
0
210
0
220
0
230
1
0
LINE
5
119
100
AcDbEntity
8
80
62
256
6
ByLayer
370
18
48
1
60
0
100
AcDbLine
10
0
20
0
30
0
11
-9
21
0
31
0
39
0
210
0
220
0
230
1
0
LINE
5
11A
100
AcDbEntity
8
81
62
256
6
ByLayer
370
18
48
1
60
0
100
AcDbLine
10
16.013384
20
56
30
0
11
16.013384
21
60.45316
31
0
39
0
210
0
220
0
230
1
0
MTEXT
5
1C4
100
AcDbEntity
8
SK6
62
256
6
ByLayer
370
18
48
1
60
0
100
AcDbMText
10
-10.719616
20
-40.236419
30
0
210
0
220
0
230
1
1
\W0.7597;SL70-R123H30A-HP
40
3.175
41
0
44
1.084337
50
0
71
7
72
5
7
iso_b_vert
0
DIMENSION
5
1E5
100
AcDbEntity
8
2
62
256
6
ByLayer
370
13
48
1
60
0
100
AcDbDimension
2
DimnDraft3D2
10
16.013384
20
83.456374
30
0
11
8.006692
21
83.456374
31
0
70
32
71
5
72
1
41
1
210
0
220
0
230
1
3
Standard
100
AcDbAlignedDimension
13
0
23
1.5875
33
0
14
16.013384
24
57.5875
34
0
50
0
100
AcDbRotatedDimension
1001
ACAD
1000
DSTYLE
1002
{
1070
   279
1070
     0
1070
   172
1070
     1
1070
   173
1070
     1
1070
   340
1005
1C5
1070
   271
1070
     1
1070
   272
1070
     2
1070
    77
1070
     1
1070
    73
1070
     0
1070
   171
1070
     3
1070
   274
1070
     4
1070
   177
1070
     7
1070
   176
1070
     7
1070
   178
1070
     7
1070
    78
1070
     8
1070
    48
1040
-0.005
1070
    41
1041
3.175
1070
   147
1041
1.75006
1070
    42
1041
1.5875
1070
    44
1041
3.175
1070
   140
1041
3.50012
1070
   343
1005
0
1070
   344
1005
0
1002
}
0
DIMENSION
5
1F3
100
AcDbEntity
8
2
62
256
6
ByLayer
370
13
48
1
60
0
100
AcDbDimension
2
DimnDraft3D3
10
21.759359
20
-56
30
0
11
21.759359
21
-31.040484
31
0
70
32
71
5
72
1
41
1
210
0
220
0
230
1
3
Standard
100
AcDbAlignedDimension
13
1.5875
23
0
33
0
14
-14.425884
24
-56
34
0
50
90
100
AcDbRotatedDimension
1001
ACAD
1000
DSTYLE
1002
{
1070
    74
1070
     0
1070
   279
1070
     0
1070
   172
1070
     1
1070
   173
1070
     1
1070
   340
1005
1C5
1070
   271
1070
     1
1070
   272
1070
     2
1070
    77
1070
     1
1070
    73
1070
     0
1070
   171
1070
     3
1070
   274
1070
     4
1070
   177
1070
     7
1070
   176
1070
     7
1070
   178
1070
     7
1070
    78
1070
     8
1070
    48
1040
-0.005
1070
    41
1041
3.175
1070
   147
1041
1.75006
1070
    42
1041
1.5875
1070
    44
1041
3.175
1070
   140
1041
3.50012
1070
   343
1005
0
1070
   344
1005
0
1002
}
0
DIMENSION
5
201
100
AcDbEntity
8
SK2
62
256
6
ByLayer
370
13
48
1
60
0
100
AcDbDimension
2
DimnDraft3D4
10
-36.844741
20
-20
30
0
11
-36.844741
21
0
31
0
70
32
71
5
72
1
41
1
210
0
220
0
230
1
3
Standard
100
AcDbAlignedDimension
13
-9.6375
23
20
33
0
14
-3.0875
24
-20
34
0
50
90
100
AcDbRotatedDimension
1001
ACAD
1000
DSTYLE
1002
{
1070
    74
1070
     0
1070
   279
1070
     0
1070
   172
1070
     1
1070
   173
1070
     1
1070
   340
1005
1C5
1070
   271
1070
     1
1070
   272
1070
     2
1070
    77
1070
     1
1070
    73
1070
     0
1070
   171
1070
     3
1070
   274
1070
     4
1070
   177
1070
     7
1070
   176
1070
     7
1070
   178
1070
     7
1070
    78
1070
     8
1070
    48
1040
-0.005
1070
    41
1041
3.175
1070
   147
1041
1.75006
1070
    42
1041
1.5875
1070
    44
1041
3.175
1070
   140
1041
3.50012
1070
   343
1005
0
1070
   344
1005
0
1002
}
0
ENDSEC
0
SECTION
2
OBJECTS
0
DICTIONARY
5
26c
330
0
100
AcDbDictionary
280
0
281
1
3
ACAD_GROUP
350
26d
3
ACAD_MLINESTYLE
350
26e
0
DICTIONARY
5
26d
330
0
100
AcDbDictionary
280
0
281
1
0
DICTIONARY
5
26e
330
0
100
AcDbDictionary
280
0
281
1
3
Standard
350
18
0
MLINESTYLE
5
18
330
26e
100
AcDbMlineStyle
2
Standard
70
0
3

62
256
51
90
52
90
71
2
49
-0.5
62
256
6
ByLayer
49
0.5
62
256
6
ByLayer
0
RASTERVARIABLES
5
25a
330

100
AcDbRasterVariables
90
0
70
1
71
1
72
1
0
ENDSEC
0
EOF
