0
SECTION
2
HEADER
9
$ACADVER
1
AC1015
9
$DWGCODEPAGE
3
ANSI_1252
9
$HANDSEED
5
282
9
$ANGBASE
50
0
9
$ANGDIR
70
0
9
$ATTMODE
70
1
9
$AUNITS
70
0
9
$AUPREC
70
0
9
$CECOLOR
62
256
9
$CELTSCALE
40
1
9
$CELTYPE
6
ByLayer
9
$CELWEIGHT
370
18
9
$CLAYER
8
0
9
$CMLJUST
70
0
9
$CMLSCALE
40
1
9
$CMLSTYLE
2
Standard
9
$DIMSTYLE
2
Standard
9
$TEXTSIZE
40
0.2
9
$TEXTSTYLE
7
Standard
9
$LUNITS
70
2
9
$LUPREC
70
4
9
$EXTNAMES
290
1
9
$INSUNITS
70
4
9
$LTSCALE
40
1
9
$LWDISPLAY
290
1
9
$PDMODE
70
0
9
$PDSIZE
40
0
9
$PLINEGEN
70
0
0
ENDSEC
0
SECTION
2
CLASSES
0
CLASS
1
RASTERVARIABLES
2
AcDbRasterVariables
3
ISM
90
0
280
0
281
0
0
ENDSEC
0
SECTION
2
TABLES
0
TABLE
2
VPORT
5
278
100
AcDbSymbolTable
0
VPORT
5
1
100
AcDbSymbolTableRecord
100
AcDbViewportTableRecord
2
*Active
70
0
10
0
20
0
11
1
21
1
12
-1
22
1
13
0
23
0
14
0.5
24
0.5
15
10
25
10
16
0
26
0
36
1
17
0
27
0
37
0
0
ENDTAB
0
TABLE
2
LTYPE
5
279
100
AcDbSymbolTable
0
LTYPE
5
14
100
AcDbSymbolTableRecord
100
AcDbLinetypeTableRecord
70
0
2
ByBlock
3

72
65
73
0
40
0
0
LTYPE
5
15
100
AcDbSymbolTableRecord
100
AcDbLinetypeTableRecord
70
0
2
ByLayer
3

72
65
73
0
40
0
0
LTYPE
5
16
100
AcDbSymbolTableRecord
100
AcDbLinetypeTableRecord
70
0
2
CONTINUOUS
3
Solid line
72
65
73
0
40
0
0
LTYPE
5
6A
100
AcDbSymbolTableRecord
100
AcDbLinetypeTableRecord
70
0
2
CENTER
3
____ _ ____ _ ____ _ ____
72
65
73
4
40
47.5
49
22
74
0
49
-8.5
74
0
49
8.5
74
0
49
-8.5
74
0
0
LTYPE
5
6B
100
AcDbSymbolTableRecord
100
AcDbLinetypeTableRecord
70
0
2
DASHED
3
__ __ __ __ __ __ __ __ __
72
65
73
2
40
25.72
49
12.86
74
0
49
-12.86
74
0
0
ENDTAB
0
TABLE
2
LAYER
5
27a
100
AcDbSymbolTable
0
LAYER
5
10
100
AcDbSymbolTableRecord
100
AcDbLayerTableRecord
2
0
70
0
62
7
6
CONTINUOUS
290
1
370
-3
390
0
0
LAYER
5
6D
100
AcDbSymbolTableRecord
100
AcDbLayerTableRecord
2
80
70
0
62
-6
6
CONTINUOUS
290
1
370
-3
390
0
0
LAYER
5
6F
100
AcDbSymbolTableRecord
100
AcDbLayerTableRecord
2
81
70
0
62
-3
6
CONTINUOUS
290
1
370
-3
390
0
0
LAYER
5
71
100
AcDbSymbolTableRecord
100
AcDbLayerTableRecord
2
1
70
0
62
4
6
CONTINUOUS
290
1
370
-3
390
0
0
LAYER
5
11F
100
AcDbSymbolTableRecord
100
AcDbLayerTableRecord
2
4
70
0
62
-2
6
CENTER
290
1
370
-3
390
0
0
LAYER
5
1E5
100
AcDbSymbolTableRecord
100
AcDbLayerTableRecord
2
2
70
0
62
7
6
CONTINUOUS
290
1
370
-3
390
0
0
LAYER
5
265
100
AcDbSymbolTableRecord
100
AcDbLayerTableRecord
2
SK1
70
0
62
4
6
CONTINUOUS
290
1
370
-3
390
0
0
LAYER
5
266
100
AcDbSymbolTableRecord
100
AcDbLayerTableRecord
2
SK6
70
0
62
5
6
CONTINUOUS
290
1
370
-3
390
0
0
LAYER
5
267
100
AcDbSymbolTableRecord
100
AcDbLayerTableRecord
2
SK2
70
0
62
7
6
CONTINUOUS
290
1
370
-3
390
0
0
ENDTAB
0
TABLE
2
STYLE
5
27b
100
AcDbSymbolTable
0
STYLE
5
11
100
AcDbSymbolTableRecord
100
AcDbTextStyleTableRecord
2
Standard
3
txt
70
0
71
0
40
0
41
1
42
0
50
0
0
STYLE
5
1D5
100
AcDbSymbolTableRecord
100
AcDbTextStyleTableRecord
2
iso_b_vert
3
simplex.shx
70
0
71
0
40
0
41
1
42
0
50
0
0
STYLE
5
1D6
100
AcDbSymbolTableRecord
100
AcDbTextStyleTableRecord
2
DWGDirectTextStyle
3
simplex
70
0
71
0
40
0
41
1
42
0
50
0
0
ENDTAB
0
TABLE
2
DIMSTYLE
5
27c
100
AcDbSymbolTable
100
AcDbDimStyleTable
0
DIMSTYLE
105
27
100
AcDbSymbolTableRecord
100
AcDbDimStyleTableRecord
2
Standard
70
0
3
<>
41
0.18
42
0.0625
44
0.18
140
0.18
147
0.09
73
0
74
0
77
1
271
2
275
0
278
52
280
0
340
11
0
ENDTAB
0
TABLE
2
VIEW
5
27d
100
AcDbSymbolTable
0
ENDTAB
0
TABLE
2
UCS
5
27e
100
AcDbSymbolTable
0
ENDTAB
0
TABLE
2
APPID
5
27f
100
AcDbSymbolTable
0
APPID
5
12
100
AcDbSymbolTableRecord
100
AcDbRegAppTableRecord
2
ACAD
70
0
0
ENDTAB
0
TABLE
2
BLOCK_RECORD
5
280
100
AcDbSymbolTable
0
BLOCK_RECORD
5
1F
100
AcDbSymbolTableRecord
100
AcDbBlockTableRecord
2
*Model_Space
340
0
70
0
0
BLOCK_RECORD
5
1B
100
AcDbSymbolTableRecord
100
AcDbBlockTableRecord
2
*Paper_Space
340
0
70
0
0
BLOCK_RECORD
5
23
100
AcDbSymbolTableRecord
100
AcDbBlockTableRecord
2
*Paper_Space0
340
0
70
0
0
BLOCK_RECORD
5
1D8
100
AcDbSymbolTableRecord
100
AcDbBlockTableRecord
2
DimnDraft3D1
340
0
70
0
0
BLOCK_RECORD
5
1E3
100
AcDbSymbolTableRecord
100
AcDbBlockTableRecord
2
DimnDraft3D2
340
0
70
0
0
BLOCK_RECORD
5
1EE
100
AcDbSymbolTableRecord
100
AcDbBlockTableRecord
2
DimnDraft3D3
340
0
70
0
0
BLOCK_RECORD
5
1F8
100
AcDbSymbolTableRecord
100
AcDbBlockTableRecord
2
DimnDraft3D4
340
0
70
0
0
BLOCK_RECORD
5
202
100
AcDbSymbolTableRecord
100
AcDbBlockTableRecord
2
DimnDraft3D5
340
0
70
0
0
ENDTAB
0
ENDSEC
0
SECTION
2
BLOCKS
0
BLOCK
5
20
100
AcDbEntity
8
0
100
AcDbBlockBegin
2
*Model_Space
70
0
10
0
20
0
30
0
3
*Model_Space
0
ENDBLK
5
21
100
AcDbEntity
8
0
100
AcDbBlockEnd
0
BLOCK
5
1C
100
AcDbEntity
8
0
100
AcDbBlockBegin
2
*Paper_Space
70
0
10
0
20
0
30
0
3
*Paper_Space
0
ENDBLK
5
1D
100
AcDbEntity
8
0
100
AcDbBlockEnd
0
BLOCK
5
24
100
AcDbEntity
8
0
100
AcDbBlockBegin
2
*Paper_Space0
70
0
10
0
20
0
30
0
3
*Paper_Space0
0
ENDBLK
5
25
100
AcDbEntity
8
0
100
AcDbBlockEnd
0
BLOCK
5
1E0
100
AcDbEntity
8
0
100
AcDbBlockBegin
2
DimnDraft3D1
70
0
10
0
20
0
30
0
3
DimnDraft3D1
0
MTEXT
5
1D9
100
AcDbEntity
8
SK2
62
256
6
ByLayer
370
13
48
1
60
0
100
AcDbMText
10
8.280276
20
-105.273432
30
0
210
0
220
0
230
1
1
\W0.5144;18
40
3.5
41
0
44
1.084337
50
0
71
7
72
5
7
iso_b_vert
0
LINE
5
1DB
100
AcDbEntity
8
SK2
62
256
6
ByLayer
370
13
48
1
60
0
100
AcDbLine
10
0
20
0
30
0
11
0
21
-108.148432
31
0
39
0
210
0
220
0
230
1
0
LINE
5
1DC
100
AcDbEntity
8
SK2
62
256
6
ByLayer
370
13
48
1
60
0
100
AcDbLine
10
18.025025
20
-76.975
30
0
11
18.025025
21
-108.148432
31
0
39
0
210
0
220
0
230
1
0
LINE
5
1DD
100
AcDbEntity
8
SK2
62
256
6
ByLayer
370
13
48
1
60
0
100
AcDbLine
10
0
20
-106.148432
30
0
11
18.025025
21
-106.148432
31
0
39
0
210
0
220
0
230
1
0
SOLID
5
1DE
100
AcDbEntity
8
SK2
62
256
6
ByLayer
370
13
48
1
60
0
100
AcDbTrace
10
0
20
-106.148432
30
0
11
3.499998
21
-105.687648
31
0
12
3.500002
22
-106.609216
32
0
13
0
23
-106.148432
33
0
39
0
210
0
220
0
230
1
0
SOLID
5
1DF
100
AcDbEntity
8
SK2
62
256
6
ByLayer
370
13
48
1
60
0
100
AcDbTrace
10
18.025025
20
-106.148432
30
0
11
14.525027
21
-106.609216
31
0
12
14.525024
22
-105.687648
32
0
13
18.025025
23
-106.148432
33
0
39
0
210
0
220
0
230
1
0
ENDBLK
5
1E1
100
AcDbEntity
8
0
100
AcDbBlockEnd
0
BLOCK
5
1EB
100
AcDbEntity
8
0
100
AcDbBlockBegin
2
DimnDraft3D2
70
0
10
0
20
0
30
0
3
DimnDraft3D2
0
MTEXT
5
1E4
100
AcDbEntity
8
2
62
256
6
ByLayer
370
13
48
1
60
0
100
AcDbMText
10
44.432258
20
-41.232237
30
0
210
0
220
0
230
1
1
\W0.6139;81
40
3.5
41
0
44
1.084337
50
90
71
7
72
5
7
iso_b_vert
0
LINE
5
1E6
100
AcDbEntity
8
2
62
256
6
ByLayer
370
13
48
1
60
0
100
AcDbLine
10
0
20
0
30
0
11
47.307258
21
0
31
0
39
0
210
0
220
0
230
1
0
LINE
5
1E7
100
AcDbEntity
8
2
62
256
6
ByLayer
370
13
48
1
60
0
100
AcDbLine
10
14.000025
20
-81
30
0
11
47.307258
21
-81
31
0
39
0
210
0
220
0
230
1
0
LINE
5
1E8
100
AcDbEntity
8
2
62
256
6
ByLayer
370
13
48
1
60
0
100
AcDbLine
10
45.307258
20
0
30
0
11
45.307258
21
-81
31
0
39
0
210
0
220
0
230
1
0
SOLID
5
1E9
100
AcDbEntity
8
2
62
256
6
ByLayer
370
13
48
1
60
0
100
AcDbTrace
10
45.307258
20
0
30
0
11
45.768042
21
-3.499998
31
0
12
44.846475
22
-3.500002
32
0
13
45.307258
23
0
33
0
39
0
210
0
220
0
230
1
0
SOLID
5
1EA
100
AcDbEntity
8
2
62
256
6
ByLayer
370
13
48
1
60
0
100
AcDbTrace
10
45.307258
20
-81
30
0
11
44.846475
21
-77.500002
31
0
12
45.768042
22
-77.499998
32
0
13
45.307258
23
-81
33
0
39
0
210
0
220
0
230
1
0
ENDBLK
5
1EC
100
AcDbEntity
8
0
100
AcDbBlockEnd
0
BLOCK
5
1F5
100
AcDbEntity
8
0
100
AcDbBlockBegin
2
DimnDraft3D3
70
0
10
0
20
0
30
0
3
DimnDraft3D3
0
MTEXT
5
1EF
100
AcDbEntity
8
SK2
62
256
6
ByLayer
370
13
48
1
60
0
100
AcDbMText
10
-21.96488
20
-57.888542
30
0
210
0
220
0
230
1
1
\W1.4078;51
40
3.5
41
0
44
1.084337
50
90
71
7
72
5
7
iso_b_vert
0
LINE
5
1F0
100
AcDbEntity
8
SK2
62
256
6
ByLayer
370
13
48
1
60
0
100
AcDbLine
10
7.27
20
-29.25
30
0
11
-23.08988
21
-29.25
31
0
39
0
210
0
220
0
230
1
0
LINE
5
1F1
100
AcDbEntity
8
SK2
62
256
6
ByLayer
370
13
48
1
60
0
100
AcDbLine
10
14.000025
20
-81
30
0
11
-23.08988
21
-81
31
0
39
0
210
0
220
0
230
1
0
LINE
5
1F2
100
AcDbEntity
8
SK2
62
256
6
ByLayer
370
13
48
1
60
0
100
AcDbLine
10
-21.08988
20
-29.25
30
0
11
-21.08988
21
-81
31
0
39
0
210
0
220
0
230
1
0
SOLID
5
1F3
100
AcDbEntity
8
SK2
62
256
6
ByLayer
370
13
48
1
60
0
100
AcDbTrace
10
-21.08988
20
-29.25
30
0
11
-20.629096
21
-32.749998
31
0
12
-21.550663
22
-32.750002
32
0
13
-21.08988
23
-29.25
33
0
39
0
210
0
220
0
230
1
0
SOLID
5
1F4
100
AcDbEntity
8
SK2
62
256
6
ByLayer
370
13
48
1
60
0
100
AcDbTrace
10
-21.08988
20
-81
30
0
11
-21.550663
21
-77.500002
31
0
12
-20.629096
22
-77.499998
32
0
13
-21.08988
23
-81
33
0
39
0
210
0
220
0
230
1
0
ENDBLK
5
1F6
100
AcDbEntity
8
0
100
AcDbBlockEnd
0
BLOCK
5
1FF
100
AcDbEntity
8
0
100
AcDbBlockBegin
2
DimnDraft3D4
70
0
10
0
20
0
30
0
3
DimnDraft3D4
0
MTEXT
5
1F9
100
AcDbEntity
8
2
62
256
6
ByLayer
370
13
48
1
60
0
100
AcDbMText
10
6.083565
20
-95.281508
30
0
210
0
220
0
230
1
1
\W0.5613;14
40
3.5
41
0
44
1.084337
50
0
71
7
72
5
7
iso_b_vert
0
LINE
5
1FA
100
AcDbEntity
8
2
62
256
6
ByLayer
370
13
48
1
60
0
100
AcDbLine
10
0
20
0
30
0
11
0
21
-98.156508
31
0
39
0
210
0
220
0
230
1
0
LINE
5
1FB
100
AcDbEntity
8
2
62
256
6
ByLayer
370
13
48
1
60
0
100
AcDbLine
10
14.000025
20
-86.0014
30
0
11
14.000025
21
-98.156508
31
0
39
0
210
0
220
0
230
1
0
LINE
5
1FC
100
AcDbEntity
8
2
62
256
6
ByLayer
370
13
48
1
60
0
100
AcDbLine
10
0
20
-96.156508
30
0
11
14.000025
21
-96.156508
31
0
39
0
210
0
220
0
230
1
0
SOLID
5
1FD
100
AcDbEntity
8
2
62
256
6
ByLayer
370
13
48
1
60
0
100
AcDbTrace
10
0
20
-96.156508
30
0
11
3.499998
21
-95.695724
31
0
12
3.500002
22
-96.617292
32
0
13
0
23
-96.156508
33
0
39
0
210
0
220
0
230
1
0
SOLID
5
1FE
100
AcDbEntity
8
2
62
256
6
ByLayer
370
13
48
1
60
0
100
AcDbTrace
10
14.000025
20
-96.156508
30
0
11
10.500027
21
-96.617292
31
0
12
10.500023
22
-95.695724
32
0
13
14.000025
23
-96.156508
33
0
39
0
210
0
220
0
230
1
0
ENDBLK
5
200
100
AcDbEntity
8
0
100
AcDbBlockEnd
0
BLOCK
5
209
100
AcDbEntity
8
0
100
AcDbBlockBegin
2
DimnDraft3D5
70
0
10
0
20
0
30
0
3
DimnDraft3D5
0
MTEXT
5
203
100
AcDbEntity
8
SK2
62
256
6
ByLayer
370
13
48
1
60
0
100
AcDbMText
10
-29.228492
20
-7.816646
30
0
210
0
220
0
230
1
1
\W0.7183;40
40
3.5
41
0
44
1.084337
50
90
71
7
72
5
7
iso_b_vert
0
LINE
5
204
100
AcDbEntity
8
SK2
62
256
6
ByLayer
370
13
48
1
60
0
100
AcDbLine
10
0.5
20
20
30
0
11
-30.353492
21
20
31
0
39
0
210
0
220
0
230
1
0
LINE
5
205
100
AcDbEntity
8
SK2
62
256
6
ByLayer
370
13
48
1
60
0
100
AcDbLine
10
0.5
20
-20
30
0
11
-30.353492
21
-20
31
0
39
0
210
0
220
0
230
1
0
LINE
5
206
100
AcDbEntity
8
SK2
62
256
6
ByLayer
370
13
48
1
60
0
100
AcDbLine
10
-28.353492
20
20
30
0
11
-28.353492
21
-20
31
0
39
0
210
0
220
0
230
1
0
SOLID
5
207
100
AcDbEntity
8
SK2
62
256
6
ByLayer
370
13
48
1
60
0
100
AcDbTrace
10
-28.353492
20
20
30
0
11
-27.892709
21
16.500002
31
0
12
-28.814276
22
16.499998
32
0
13
-28.353492
23
20
33
0
39
0
210
0
220
0
230
1
0
SOLID
5
208
100
AcDbEntity
8
SK2
62
256
6
ByLayer
370
13
48
1
60
0
100
AcDbTrace
10
-28.353492
20
-20
30
0
11
-28.814276
21
-16.500002
31
0
12
-27.892709
22
-16.499998
32
0
13
-28.353492
23
-20
33
0
39
0
210
0
220
0
230
1
0
ENDBLK
5
20A
100
AcDbEntity
8
0
100
AcDbBlockEnd
0
ENDSEC
0
SECTION
2
ENTITIES
0
ARC
5
122
100
AcDbEntity
8
1
62
256
6
ByLayer
370
18
48
1
60
0
100
AcDbCircle
39
0
10
-2.17
20
-21.85
30
0
40
1.6
210
0
220
0
230
-1
100
AcDbArc
50
90
51
180
0
ARC
5
123
100
AcDbEntity
8
1
62
256
6
ByLayer
370
18
48
1
60
0
100
AcDbCircle
39
0
10
0.174981
20
-2.89923
30
0
40
0.150000000000281
210
0
220
0
230
-1
100
AcDbArc
50
0
51
60
0
ARC
5
124
100
AcDbEntity
8
1
62
256
6
ByLayer
370
18
48
1
60
0
100
AcDbCircle
39
0
10
-0.240519
20
5.25
30
0
40
0.204500000000004
210
0
220
0
230
-1
100
AcDbArc
50
120
51
240
0
ARC
5
125
100
AcDbEntity
8
1
62
256
6
ByLayer
370
18
48
1
60
0
100
AcDbCircle
39
0
10
0.174981
20
4.60077
30
0
40
0.150000000000702
210
0
220
0
230
-1
100
AcDbArc
50
0
51
60
0
ARC
5
126
100
AcDbEntity
8
1
62
256
6
ByLayer
370
18
48
1
60
0
100
AcDbCircle
39
0
10
0.174981
20
4.39923
30
0
40
0.150000000000664
210
0
220
0
230
-1
100
AcDbArc
50
300
51
0
0
ARC
5
127
100
AcDbEntity
8
1
62
256
6
ByLayer
370
18
48
1
60
0
100
AcDbCircle
39
0
10
-0.240519
20
3.75
30
0
40
0.204500000000003
210
0
220
0
230
-1
100
AcDbArc
50
120
51
240
0
ARC
5
128
100
AcDbEntity
8
1
62
256
6
ByLayer
370
18
48
1
60
0
100
AcDbCircle
39
0
10
0.174981
20
3.10077
30
0
40
0.14999999999964
210
0
220
0
230
-1
100
AcDbArc
50
0
51
60
0
ARC
5
129
100
AcDbEntity
8
1
62
256
6
ByLayer
370
18
48
1
60
0
100
AcDbCircle
39
0
10
0.174981
20
2.89923
30
0
40
0.150000000000321
210
0
220
0
230
-1
100
AcDbArc
50
300
51
0
0
ARC
5
12A
100
AcDbEntity
8
1
62
256
6
ByLayer
370
18
48
1
60
0
100
AcDbCircle
39
0
10
-0.240519
20
2.25
30
0
40
0.204499999999982
210
0
220
0
230
-1
100
AcDbArc
50
120
51
240
0
ARC
5
12B
100
AcDbEntity
8
1
62
256
6
ByLayer
370
18
48
1
60
0
100
AcDbCircle
39
0
10
0.174981
20
1.60077
30
0
40
0.150000000000207
210
0
220
0
230
-1
100
AcDbArc
50
0
51
60
0
ARC
5
12C
100
AcDbEntity
8
1
62
256
6
ByLayer
370
18
48
1
60
0
100
AcDbCircle
39
0
10
0.174981
20
1.39923
30
0
40
0.150000000000352
210
0
220
0
230
-1
100
AcDbArc
50
300
51
0
0
ARC
5
12D
100
AcDbEntity
8
1
62
256
6
ByLayer
370
18
48
1
60
0
100
AcDbCircle
39
0
10
-0.240519
20
0.75
30
0
40
0.204500000000052
210
0
220
0
230
-1
100
AcDbArc
50
120
51
240
0
ARC
5
12E
100
AcDbEntity
8
1
62
256
6
ByLayer
370
18
48
1
60
0
100
AcDbCircle
39
0
10
0.174981
20
0.10077
30
0
40
0.14999999999963
210
0
220
0
230
-1
100
AcDbArc
50
0
51
60
0
ARC
5
12F
100
AcDbEntity
8
1
62
256
6
ByLayer
370
18
48
1
60
0
100
AcDbCircle
39
0
10
0.174981
20
-0.10077
30
0
40
0.150000000000434
210
0
220
0
230
-1
100
AcDbArc
50
300
51
0
0
ARC
5
130
100
AcDbEntity
8
1
62
256
6
ByLayer
370
18
48
1
60
0
100
AcDbCircle
39
0
10
-0.240519
20
-0.75
30
0
40
0.204500000000011
210
0
220
0
230
-1
100
AcDbArc
50
120
51
240
0
ARC
5
131
100
AcDbEntity
8
1
62
256
6
ByLayer
370
18
48
1
60
0
100
AcDbCircle
39
0
10
0.174981
20
-1.39923
30
0
40
0.150000000000321
210
0
220
0
230
-1
100
AcDbArc
50
0
51
60
0
ARC
5
132
100
AcDbEntity
8
1
62
256
6
ByLayer
370
18
48
1
60
0
100
AcDbCircle
39
0
10
0.174981
20
-1.60077
30
0
40
0.149999999999924
210
0
220
0
230
-1
100
AcDbArc
50
300
51
0
0
ARC
5
133
100
AcDbEntity
8
1
62
256
6
ByLayer
370
18
48
1
60
0
100
AcDbCircle
39
0
10
-0.240519
20
-5.25
30
0
40
0.204499999999994
210
0
220
0
230
-1
100
AcDbArc
50
120
51
240
0
ARC
5
134
100
AcDbEntity
8
1
62
256
6
ByLayer
370
18
48
1
60
0
100
AcDbCircle
39
0
10
0.174981
20
-4.60077
30
0
40
0.150000000000384
210
0
220
0
230
-1
100
AcDbArc
50
300
51
0
0
ARC
5
135
100
AcDbEntity
8
1
62
256
6
ByLayer
370
18
48
1
60
0
100
AcDbCircle
39
0
10
-0.240519
20
-2.25
30
0
40
0.204500000000043
210
0
220
0
230
-1
100
AcDbArc
50
120
51
240
0
ARC
5
136
100
AcDbEntity
8
1
62
256
6
ByLayer
370
18
48
1
60
0
100
AcDbCircle
39
0
10
0.174981
20
-4.39923
30
0
40
0.149999999999688
210
0
220
0
230
-1
100
AcDbArc
50
0
51
60
0
ARC
5
137
100
AcDbEntity
8
1
62
256
6
ByLayer
370
18
48
1
60
0
100
AcDbCircle
39
0
10
-0.240519
20
-3.75
30
0
40
0.204499999999992
210
0
220
0
230
-1
100
AcDbArc
50
120
51
240
0
ARC
5
138
100
AcDbEntity
8
1
62
256
6
ByLayer
370
18
48
1
60
0
100
AcDbCircle
39
0
10
0.174981
20
-3.10077
30
0
40
0.150000000000768
210
0
220
0
230
-1
100
AcDbArc
50
300
51
0
0
ARC
5
139
100
AcDbEntity
8
1
62
256
6
ByLayer
370
18
48
1
60
0
100
AcDbCircle
39
0
10
-0.240519
20
-18.75
30
0
40
0.204500000000022
210
0
220
0
230
-1
100
AcDbArc
50
120
51
240
0
ARC
5
13A
100
AcDbEntity
8
1
62
256
6
ByLayer
370
18
48
1
60
0
100
AcDbCircle
39
0
10
0.174981
20
-18.10077
30
0
40
0.150000000000494
210
0
220
0
230
-1
100
AcDbArc
50
300
51
0
0
ARC
5
13B
100
AcDbEntity
8
1
62
256
6
ByLayer
370
18
48
1
60
0
100
AcDbCircle
39
0
10
0.174981
20
-17.89923
30
0
40
0.150000000000438
210
0
220
0
230
-1
100
AcDbArc
50
0
51
60
0
ARC
5
13C
100
AcDbEntity
8
1
62
256
6
ByLayer
370
18
48
1
60
0
100
AcDbCircle
39
0
10
-0.240519
20
-17.25
30
0
40
0.204499999999997
210
0
220
0
230
-1
100
AcDbArc
50
120
51
240
0
ARC
5
13D
100
AcDbEntity
8
1
62
256
6
ByLayer
370
18
48
1
60
0
100
AcDbCircle
39
0
10
0.174981
20
-16.60077
30
0
40
0.15
210
0
220
0
230
-1
100
AcDbArc
50
300
51
0
0
ELLIPSE
5
13E
100
AcDbEntity
8
1
62
256
6
ByLayer
370
18
48
1
60
0
100
AcDbEllipse
10
14
20
-56.845749
30
0
11
-0.866025403784439
21
1.06054021204601E-16
31
0
210
0
220
0
230
1
40
0.325568
41
1.85882947459897
42
2.90602702579555
0
ELLIPSE
5
13F
100
AcDbEntity
8
1
62
256
6
ByLayer
370
18
48
1
60
0
100
AcDbEllipse
10
14
20
-56.845749
30
0
11
-0.866025403784439
21
1.06054021204601E-16
31
0
210
0
220
0
230
1
40
0.325568
41
0.811631923402382
42
1.85882947459897
0
ELLIPSE
5
140
100
AcDbEntity
8
1
62
256
6
ByLayer
370
18
48
1
60
0
100
AcDbEllipse
10
14
20
-56.845749
30
0
11
-0.866025403784439
21
1.06054021204601E-16
31
0
210
0
220
0
230
1
40
0.325568
41
-0.235565627794219
42
0.811631923402382
0
ELLIPSE
5
141
100
AcDbEntity
8
1
62
256
6
ByLayer
370
18
48
1
60
0
100
AcDbEllipse
10
14
20
-56.845749
30
0
11
-0.866025403784439
21
1.06054021204601E-16
31
0
210
0
220
0
230
1
40
0.325568
41
-1.28276317899082
42
-0.235565627794219
0
ELLIPSE
5
142
100
AcDbEntity
8
1
62
256
6
ByLayer
370
18
48
1
60
0
100
AcDbEllipse
10
14
20
-56.845749
30
0
11
-0.866025403784439
21
1.06054021204601E-16
31
0
210
0
220
0
230
1
40
0.325568
41
-2.32996073018744
42
-1.28276317899082
0
ELLIPSE
5
143
100
AcDbEntity
8
1
62
256
6
ByLayer
370
18
48
1
60
0
100
AcDbEllipse
10
14
20
-56.845749
30
0
11
-0.866025403784439
21
1.06054021204601E-16
31
0
210
0
220
0
230
1
40
0.325568
41
2.90602702579555
42
-2.32996073018744
0
ELLIPSE
5
144
100
AcDbEntity
8
1
62
256
6
ByLayer
370
18
48
1
60
0
100
AcDbEllipse
10
14
20
-56.845749
30
0
11
-1.2
21
1.46952762458685E-16
31
0
210
0
220
0
230
1
40
0.325568
41
0
42
6.28318530717959
0
ELLIPSE
5
145
100
AcDbEntity
8
1
62
256
6
ByLayer
370
18
48
1
60
0
100
AcDbEllipse
10
-112.300002
20
-66.344109
30
0
11
-130.000001555171
21
-1.47302961522562E-13
31
0
210
0
220
0
230
-1
40
0.445229
41
3.01641144399765
42
3.05169067788896
0
ELLIPSE
5
146
100
AcDbEntity
8
1
62
256
6
ByLayer
370
18
48
1
60
0
100
AcDbEllipse
10
13.144828
20
-68.712799
30
0
11
-0.150000000000954
21
-1.69964953570771E-16
31
0
210
0
220
0
230
-1
40
0.839575
41
1.74532925199707
42
2.79252680318685
0
ELLIPSE
5
147
100
AcDbEntity
8
1
62
256
6
ByLayer
370
18
48
1
60
0
100
AcDbEllipse
10
13.475
20
-68.737986
30
0
11
-0.149999999998676
21
-1.6996495356819E-16
31
0
210
0
220
0
230
-1
40
0.839575
41
-1.5707963267949
42
-0.349065850390702
0
ELLIPSE
5
148
100
AcDbEntity
8
1
62
256
6
ByLayer
370
18
48
1
60
0
100
AcDbEllipse
10
14.525
20
-68.737986
30
0
11
-0.149999999998712
21
-1.69964953568231E-16
31
0
210
0
220
0
230
-1
40
0.839575
41
-2.79252680319894
42
-1.5707963267949
0
ELLIPSE
5
149
100
AcDbEntity
8
1
62
256
6
ByLayer
370
18
48
1
60
0
100
AcDbEllipse
10
14.855172
20
-68.712799
30
0
11
-0.150000000001517
21
-1.69964953571409E-16
31
0
210
0
220
0
230
-1
40
0.839575
41
0.349065850405422
42
1.39626340159135
0
ELLIPSE
5
14A
100
AcDbEntity
8
1
62
256
6
ByLayer
370
18
48
1
60
0
100
AcDbEllipse
10
13.175102
20
-59.843457
30
0
11
-0.223145022292069
21
6.0504214881866
31
0
210
0
220
0
230
-1
40
0.247699
41
2.95423665564972
42
-2.93596642185361
0
ELLIPSE
5
14B
100
AcDbEntity
8
1
62
256
6
ByLayer
370
18
48
1
60
0
100
AcDbEllipse
10
13.295549
20
-63.632184
30
0
11
-1.50116067938821
21
0.0381746852422791
31
0
210
0
220
0
230
-1
40
0.574205
41
0.0775171648566382
42
2.97555828269029
0
ELLIPSE
5
14C
100
AcDbEntity
8
1
62
256
6
ByLayer
370
18
48
1
60
0
100
AcDbEllipse
10
140.300002
20
-66.344109
30
0
11
-130.000001602229
21
-1.47302961575883E-13
31
0
210
0
220
0
230
-1
40
0.445229
41
0.0899019756850058
42
0.125181209569787
0
ELLIPSE
5
14D
100
AcDbEntity
8
1
62
256
6
ByLayer
370
18
48
1
60
0
100
AcDbEllipse
10
15.420622
20
-62.263726
30
0
11
-1.50110406334884
21
0.066444783763546
31
0
210
0
220
0
230
-1
40
0.658678
41
0
42
6.28318530717959
0
ELLIPSE
5
14E
100
AcDbEntity
8
1
62
256
6
ByLayer
370
18
48
1
60
0
100
AcDbEllipse
10
-112.3
20
5.561555
30
0
11
2.94891266240108E-14
21
-160.536630305546
31
0
210
0
220
0
230
-1
40
0.809784
41
-1.48089435054378
42
-1.39684343903192
0
ELLIPSE
5
14F
100
AcDbEntity
8
1
62
256
6
ByLayer
370
18
48
1
60
0
100
AcDbEllipse
10
13.029887
20
-60.697529
30
0
11
-1.49813538022933
21
-0.196374199006751
31
0
210
0
220
0
230
-1
40
0.757239
41
0
42
6.28318530717959
0
ELLIPSE
5
150
100
AcDbEntity
8
1
62
256
6
ByLayer
370
18
48
1
60
0
100
AcDbEllipse
10
14
20
-56.845749
30
0
11
1.25
21
0
31
0
210
0
220
0
230
1
40
0.325568
41
0
42
6.28318530717959
0
ELLIPSE
5
151
100
AcDbEntity
8
1
62
256
6
ByLayer
370
18
48
1
60
0
100
AcDbEllipse
10
140.300005
20
-63.986052
30
0
11
-130.000005460938
21
3.35992042569319E-07
31
0
210
0
220
0
230
-1
40
0.344328
41
0.144018079853013
42
0.173952883182159
0
ELLIPSE
5
152
100
AcDbEntity
8
1
62
256
6
ByLayer
370
18
48
1
60
0
100
AcDbEllipse
10
-112.300005
20
-63.986051
30
0
11
-130.000004888887
21
-3.00878423143336E-07
31
0
210
0
220
0
230
-1
40
0.344328
41
2.96763976993289
42
2.99757457332873
0
ELLIPSE
5
153
100
AcDbEntity
8
1
62
256
6
ByLayer
370
18
48
1
60
0
100
AcDbEllipse
10
-112.3
20
2.383524
30
0
11
2.94891266083938E-14
21
-160.536630220528
31
0
210
0
220
0
230
-1
40
0.809784
41
-1.48089435049862
42
-1.39684343894147
0
POINT
5
6C
100
AcDbEntity
8
80
62
256
6
ByLayer
370
18
48
1
60
0
100
AcDbPoint
10
0
20
0
30
0
39
0
210
0
220
0
230
1
50
360
0
POINT
5
6E
100
AcDbEntity
8
81
62
256
6
ByLayer
370
18
48
1
60
0
100
AcDbPoint
10
14
20
-81
30
0
39
0
210
0
220
0
230
1
50
360
0
SPLINE
5
154
100
AcDbEntity
8
1
62
256
6
ByLayer
370
18
48
1
60
0
100
AcDbSpline
70
4
71
5
72
12
73
6
40
0
40
0
40
0
40
0
40
0
40
0
40
1
40
1
40
1
40
1
40
1
40
1
41
1
10
13.5392897360626
20
-71.7186236833905
30
0
41
1
10
13.5771037864676
20
-71.7236829194005
30
0
41
1
10
13.6152837066826
20
-71.7273294372205
30
0
41
1
10
13.6532875523126
20
-71.7301590718505
30
0
41
1
10
13.6917102124756
20
-71.7313553043305
30
0
41
1
10
13.7300253224226
20
-71.7313553041805
30
0
0
SPLINE
5
155
100
AcDbEntity
8
1
62
256
6
ByLayer
370
18
48
1
60
0
100
AcDbSpline
70
4
71
3
72
18
73
14
40
0
40
0
40
0
40
0
40
0.10373946459286
40
0.199808779020836
40
0.288080736335977
40
0.368515733443449
40
0.44113551424573
40
0.506008928281287
40
0.624127612812567
40
0.730981224247415
40
0.827902228243972
40
0.91674348216654
40
1
40
1
40
1
40
1
41
1
10
13.3222927993826
20
-71.4615555093705
30
-1E-16
41
1
10
13.3248066343021
20
-71.472808180334
30
-1E-16
41
1
10
13.3296484395677
20
-71.494481537284
30
-1E-16
41
1
10
13.3396153654513
20
-71.5251533923954
30
-1E-16
41
1
10
13.3506975282113
20
-71.5529203864596
30
-1E-16
41
1
10
13.3626613192166
20
-71.5777391797724
30
-1E-16
41
1
10
13.3750705517065
20
-71.5996276617826
30
-1E-16
41
1
10
13.3915400344516
20
-71.6244727552064
30
-1E-16
41
1
10
13.4134391982234
20
-71.6510270850489
30
-1E-16
41
1
10
13.4425931598689
20
-71.6775135104878
30
-1E-16
41
1
10
13.4735488427875
20
-71.6976780795705
30
-1E-16
41
1
10
13.5056609749288
20
-71.7121608105207
30
0
41
1
10
13.5283253087927
20
-71.716516507899
30
0
41
1
10
13.5392897361486
20
-71.7186236833305
30
0
0
SPLINE
5
156
100
AcDbEntity
8
1
62
256
6
ByLayer
370
18
48
1
60
0
100
AcDbSpline
70
4
71
9
72
20
73
10
40
0
40
0
40
0
40
0
40
0
40
0
40
0
40
0
40
0
40
0
40
1
40
1
40
1
40
1
40
1
40
1
40
1
40
1
40
1
40
1
41
1
10
17.1810455991991
20
-50.5588826155616
30
0
41
1
10
17.5427867498038
20
-51.0254888940968
30
0
41
1
10
17.8275284432904
20
-51.5517897214401
30
0
41
1
10
18.0240125942998
20
-52.1232634495938
30
0
41
1
10
18.1241764527221
20
-52.72291131662
30
0
41
1
10
18.1238066453803
20
-53.3321011015528
30
0
41
1
10
18.022913983552
20
-53.9316267986513
30
0
41
1
10
17.8257350336904
20
-54.5028612916508
30
0
41
1
10
17.5403537143954
20
-55.0288156373001
30
0
41
1
10
17.1780457373657
20
-55.4949818940043
30
0
0
SPLINE
5
157
100
AcDbEntity
8
1
62
256
6
ByLayer
370
18
48
1
60
0
100
AcDbSpline
70
4
71
8
72
18
73
9
40
0
40
0
40
0
40
0
40
0
40
0
40
0
40
0
40
0
40
1
40
1
40
1
40
1
40
1
40
1
40
1
40
1
40
1
41
1
10
10.9000253231206
20
-72.4637383515405
30
0
41
1
10
10.9000253231206
20
-72.5888361387605
30
0
41
1
10
10.9000253231206
20
-72.7215779552105
30
0
41
1
10
10.9000253231206
20
-72.8608523594205
30
0
41
1
10
10.9000253231206
20
-73.0054528161105
30
0
41
1
10
10.9000253231206
20
-73.1540984481705
30
0
41
1
10
10.9000253231206
20
-73.3054577380305
30
0
41
1
10
10.9000253231206
20
-73.4581738576705
30
0
41
1
10
10.9000253231206
20
-73.6108899772405
30
0
0
SPLINE
5
158
100
AcDbEntity
8
1
62
256
6
ByLayer
370
18
48
1
60
0
100
AcDbSpline
70
4
71
5
72
12
73
6
40
0
40
0
40
0
40
0
40
0
40
0
40
1
40
1
40
1
40
1
40
1
40
1
41
1
10
13.3222927994186
20
-71.4615555093805
30
-1E-16
41
1
10
13.3131253462256
20
-71.4158965315405
30
-1E-16
41
1
10
13.3028762934376
20
-71.3703646931305
30
-1E-16
41
1
10
13.2920536745826
20
-71.3249844832605
30
-1E-16
41
1
10
13.2799532068036
20
-71.2797548063605
30
-1E-16
41
1
10
13.2669399712906
20
-71.2347269968705
30
-1E-16
0
SPLINE
5
159
100
AcDbEntity
8
1
62
256
6
ByLayer
370
18
48
1
60
0
100
AcDbSpline
70
4
71
2
72
6
73
3
40
0
40
0
40
0
40
1
40
1
40
1
41
1
10
13.2669399712976
20
-71.2347269968576
30
-1E-16
41
1
10
13.2567915172187
20
-71.2000203688442
30
-1E-16
41
1
10
13.2361377549736
20
-71.1767497869495
30
-1E-16
0
SPLINE
5
15A
100
AcDbEntity
8
1
62
256
6
ByLayer
370
18
48
1
60
0
100
AcDbSpline
70
4
71
9
72
20
73
10
40
0
40
0
40
0
40
0
40
0
40
0
40
0
40
0
40
0
40
0
40
1
40
1
40
1
40
1
40
1
40
1
40
1
40
1
40
1
40
1
41
1
10
14.0000250755497
20
-81.0000000000005
30
0
41
1
10
12.9960960595651
20
-80.9999996922009
30
0
41
1
10
11.9921603488095
20
-80.7182968474217
30
0
41
1
10
11.0785862674042
20
-80.1548828693011
30
0
41
1
10
10.3456414539317
20
-79.3435807895348
30
0
41
1
10
9.8686155860099
20
-78.3519373481858
30
0
41
1
10
9.69214874584665
20
-77.2729324274272
30
0
41
1
10
9.82214479581214
20
-76.2074844913866
30
0
41
1
10
10.2286253461865
20
-75.2472726754998
30
0
41
1
10
10.8552071739517
20
-74.4628807486283
30
0
0
SPLINE
5
15B
100
AcDbEntity
8
1
62
256
6
ByLayer
370
18
48
1
60
0
100
AcDbSpline
70
4
71
3
72
12
73
8
40
0
40
0
40
0
40
0
40
0.147996116890132
40
0.3219512244827
40
0.521908954896785
40
0.747911058510323
40
1
40
1
40
1
40
1
41
1
10
10.8551293204467
20
-74.4628185635112
30
0
41
1
10
10.859243821756
20
-74.4573393632199
30
0
41
1
10
10.8681945210209
20
-74.4454198934388
30
0
41
1
10
10.8799864599765
20
-74.4242507145144
30
0
41
1
10
10.8904846539571
20
-74.3985090980336
30
0
41
1
10
10.8983859629242
20
-74.367947712317
30
0
41
1
10
10.8994593468076
20
-74.3458036356394
30
0
41
1
10
10.9000253231206
20
-74.3341274561605
30
0
0
SPLINE
5
15C
100
AcDbEntity
8
1
62
256
6
ByLayer
370
18
48
1
60
0
100
AcDbSpline
70
4
71
9
72
20
73
10
40
0
40
0
40
0
40
0
40
0
40
0
40
0
40
0
40
0
40
0
40
1
40
1
40
1
40
1
40
1
40
1
40
1
40
1
40
1
40
1
41
1
10
14.0000255706916
20
-81.0000000000005
30
0
41
1
10
15.0039545977688
20
-80.9999996922009
30
0
41
1
10
16.0078903196172
20
-80.7182968411964
30
0
41
1
10
16.92146440912
20
-80.1548828506251
30
0
41
1
10
17.6544092247036
20
-79.3435807536776
30
0
41
1
10
18.1314350865853
20
-78.3519372934011
30
0
41
1
10
18.3079019120936
20
-77.2729323558938
30
0
41
1
10
18.1779058403745
20
-76.2074844089795
30
0
41
1
10
17.7714252641241
20
-75.2472725906225
30
0
41
1
10
17.14484340998
20
-74.4628806706255
30
0
0
SPLINE
5
15D
100
AcDbEntity
8
1
62
256
6
ByLayer
370
18
48
1
60
0
100
AcDbSpline
70
4
71
2
72
6
73
3
40
0
40
0
40
0
40
1
40
1
40
1
41
1
10
17.1449212635149
20
-74.4628184855283
30
0
41
1
10
17.1002190013583
20
-74.4065303801892
30
0
41
1
10
17.1000253231206
20
-74.3341274561605
30
0
0
SPLINE
5
15E
100
AcDbEntity
8
1
62
256
6
ByLayer
370
18
48
1
60
0
100
AcDbSpline
70
4
71
11
72
24
73
12
40
0
40
0
40
0
40
0
40
0
40
0
40
0
40
0
40
0
40
0
40
0
40
0
40
1
40
1
40
1
40
1
40
1
40
1
40
1
40
1
40
1
40
1
40
1
40
1
41
1
10
16.8087741894706
20
-70.5675054957105
30
1E-16
41
1
10
16.8071875265106
20
-70.5675054957105
30
1E-16
41
1
10
16.8056008635606
20
-70.5675450447605
30
1E-16
41
1
10
16.8040147376506
20
-70.5676241428505
30
1E-16
41
1
10
16.8024296857906
20
-70.5677427732505
30
1E-16
41
1
10
16.8008462447306
20
-70.5679009024905
30
1E-16
41
1
10
16.7992649506106
20
-70.5680984803905
30
1E-16
41
1
10
16.7976863387106
20
-70.5683354400705
30
1E-16
41
1
10
16.7961109431406
20
-70.5686116979905
30
1E-16
41
1
10
16.7945392965406
20
-70.5689271540005
30
1E-16
41
1
10
16.7929719298106
20
-70.5692816913905
30
1E-16
41
1
10
16.7914093718406
20
-70.5696751769805
30
1E-16
0
SPLINE
5
15F
100
AcDbEntity
8
1
62
256
6
ByLayer
370
18
48
1
60
0
100
AcDbSpline
70
4
71
11
72
24
73
12
40
0
40
0
40
0
40
0
40
0
40
0
40
0
40
0
40
0
40
0
40
0
40
0
40
1
40
1
40
1
40
1
40
1
40
1
40
1
40
1
40
1
40
1
40
1
40
1
41
1
10
14.8999591569196
20
-71.0459828823505
30
-1E-16
41
1
10
14.8955763098906
20
-71.0470865771605
30
-1E-16
41
1
10
14.8912312960226
20
-71.0484966995105
30
-1E-16
41
1
10
14.8869357863366
20
-71.0502103103605
30
-1E-16
41
1
10
14.8827013259226
20
-71.0522234507405
30
-1E-16
41
1
10
14.8785392839926
20
-71.0545311542605
30
-1E-16
41
1
10
14.8744608046476
20
-71.0571274655205
30
-1E-16
41
1
10
14.8704767587696
20
-71.0600054642605
30
-1E-16
41
1
10
14.8665976974176
20
-71.0631572949805
30
-1E-16
41
1
10
14.8628338071026
20
-71.0665742019405
30
-1E-16
41
1
10
14.8591948673016
20
-71.0702465691905
30
-1E-16
41
1
10
14.8556902105166
20
-71.0741639651305
30
-1E-16
0
SPLINE
5
160
100
AcDbEntity
8
1
62
256
6
ByLayer
370
18
48
1
60
0
100
AcDbSpline
70
4
71
2
72
10
73
7
40
0
40
0
40
0
40
0.5
40
0.5
40
0.75
40
0.75
40
1
40
1
40
1
41
1
10
14.6777578468586
20
-71.4615555093683
30
-1E-16
41
1
10
14.6593609436359
20
-71.5527325897197
30
-1E-16
41
1
10
14.6116799104336
20
-71.6191689906529
30
-1E-16
41
1
10
14.5839803524319
20
-71.6577641891518
30
-1E-16
41
1
10
14.5486783966362
20
-71.6829431154564
30
-1E-16
41
1
10
14.5076324048564
20
-71.7122189439148
30
0
41
1
10
14.4607609100926
20
-71.7186236833295
30
0
0
SPLINE
5
161
100
AcDbEntity
8
1
62
256
6
ByLayer
370
18
48
1
60
0
100
AcDbSpline
70
4
71
5
72
12
73
6
40
0
40
0
40
0
40
0
40
0
40
0
40
1
40
1
40
1
40
1
40
1
40
1
41
1
10
14.4607609101786
20
-71.7186236833905
30
0
41
1
10
14.4229468597736
20
-71.7236829194005
30
0
41
1
10
14.3847669395586
20
-71.7273294372205
30
0
41
1
10
14.3467630939286
20
-71.7301590718505
30
0
41
1
10
14.3083404337656
20
-71.7313553043305
30
0
41
1
10
14.2700253238186
20
-71.7313553041805
30
0
0
SPLINE
5
162
100
AcDbEntity
8
1
62
256
6
ByLayer
370
18
48
1
60
0
100
AcDbSpline
70
4
71
8
72
18
73
9
40
0
40
0
40
0
40
0
40
0
40
0
40
0
40
0
40
0
40
1
40
1
40
1
40
1
40
1
40
1
40
1
40
1
40
1
41
1
10
17.1000253231206
20
-72.4637383515405
30
0
41
1
10
17.1000253231206
20
-72.5888361387605
30
0
41
1
10
17.1000253231206
20
-72.7215779552105
30
0
41
1
10
17.1000253231206
20
-72.8608523594205
30
0
41
1
10
17.1000253231206
20
-73.0054528161105
30
0
41
1
10
17.1000253231206
20
-73.1540984481705
30
0
41
1
10
17.1000253231206
20
-73.3054577380305
30
0
41
1
10
17.1000253231206
20
-73.4581738576705
30
0
41
1
10
17.1000253231206
20
-73.6108899772405
30
0
0
SPLINE
5
163
100
AcDbEntity
8
1
62
256
6
ByLayer
370
18
48
1
60
0
100
AcDbSpline
70
4
71
9
72
20
73
10
40
0
40
0
40
0
40
0
40
0
40
0
40
0
40
0
40
0
40
0
40
1
40
1
40
1
40
1
40
1
40
1
40
1
40
1
40
1
40
1
41
1
10
10.81891871946
20
-50.5589939726683
30
0
41
1
10
10.4572131002963
20
-51.0255881502281
30
0
41
1
10
10.1725008550239
20
-51.5518678454649
30
0
41
1
10
9.97603776836226
20
-52.1233133282526
30
0
41
1
10
9.87588488135106
20
-52.7229283921661
30
0
41
1
10
9.87625465280959
20
-53.3320838084558
30
0
41
1
10
9.97713627353323
20
-53.9315767208014
30
0
41
1
10
10.1742940963161
20
-54.5027830038407
30
0
41
1
10
10.459645915668
20
-55.0287162673497
30
0
41
1
10
10.8219183234914
20
-55.4948704842447
30
0
0
SPLINE
5
164
100
AcDbEntity
8
1
62
256
6
ByLayer
370
18
48
1
60
0
100
AcDbSpline
70
4
71
5
72
12
73
6
40
0
40
0
40
0
40
0
40
0
40
0
40
1
40
1
40
1
40
1
40
1
40
1
41
1
10
14.6777578468226
20
-71.4615555093805
30
-1E-16
41
1
10
14.6869253000156
20
-71.4158965315405
30
-1E-16
41
1
10
14.6971743528036
20
-71.3703646931305
30
-1E-16
41
1
10
14.7079969716586
20
-71.3249844832605
30
-1E-16
41
1
10
14.7200974394376
20
-71.2797548063605
30
-1E-16
41
1
10
14.7331106749506
20
-71.2347269968705
30
-1E-16
0
SPLINE
5
165
100
AcDbEntity
8
1
62
256
6
ByLayer
370
18
48
1
60
0
100
AcDbSpline
70
4
71
3
72
9
73
5
40
0
40
0
40
0
40
0
40
0.55514375078231
40
1
40
1
40
1
40
1
41
1
10
14.7331087005273
20
-71.2347269968605
30
-1E-16
41
1
10
14.736949211257
20
-71.2233271695249
30
-1E-16
41
1
10
14.7438672585632
20
-71.2027922588472
30
-1E-16
41
1
10
14.7577418412237
20
-71.1847679938653
30
-1E-16
41
1
10
14.7639140360255
20
-71.1767497869505
30
-1E-16
0
SPLINE
5
166
100
AcDbEntity
8
1
62
256
6
ByLayer
370
18
48
1
60
0
100
AcDbSpline
70
4
71
11
72
24
73
12
40
0
40
0
40
0
40
0
40
0
40
0
40
0
40
0
40
0
40
0
40
0
40
0
40
1
40
1
40
1
40
1
40
1
40
1
40
1
40
1
40
1
40
1
40
1
40
1
41
1
10
13.1000914893216
20
-71.0459828823505
30
-1E-16
41
1
10
13.1044743363506
20
-71.0470865771605
30
-1E-16
41
1
10
13.1088193502186
20
-71.0484966995105
30
-1E-16
41
1
10
13.1131148599046
20
-71.0502103103605
30
-1E-16
41
1
10
13.1173493203186
20
-71.0522234507405
30
-1E-16
41
1
10
13.1215113622486
20
-71.0545311542605
30
-1E-16
41
1
10
13.1255898415936
20
-71.0571274655205
30
-1E-16
41
1
10
13.1295738874716
20
-71.0600054642605
30
-1E-16
41
1
10
13.1334529488236
20
-71.0631572949805
30
-1E-16
41
1
10
13.1372168391386
20
-71.0665742019405
30
-1E-16
41
1
10
13.1408557789396
20
-71.0702465691905
30
-1E-16
41
1
10
13.1443604357246
20
-71.0741639651305
30
-1E-16
0
SPLINE
5
167
100
AcDbEntity
8
1
62
256
6
ByLayer
370
18
48
1
60
0
100
AcDbSpline
70
4
71
11
72
24
73
12
40
0
40
0
40
0
40
0
40
0
40
0
40
0
40
0
40
0
40
0
40
0
40
0
40
1
40
1
40
1
40
1
40
1
40
1
40
1
40
1
40
1
40
1
40
1
40
1
41
1
10
11.1912764567706
20
-70.5675054957105
30
1E-16
41
1
10
11.1928631197306
20
-70.5675054957105
30
1E-16
41
1
10
11.1944497826806
20
-70.5675450447605
30
1E-16
41
1
10
11.1960359085906
20
-70.5676241428505
30
1E-16
41
1
10
11.1976209604506
20
-70.5677427732505
30
1E-16
41
1
10
11.1992044015106
20
-70.5679009024905
30
1E-16
41
1
10
11.2007856956306
20
-70.5680984803905
30
1E-16
41
1
10
11.2023643075306
20
-70.5683354400705
30
1E-16
41
1
10
11.2039397031006
20
-70.5686116979905
30
1E-16
41
1
10
11.2055113497006
20
-70.5689271540005
30
1E-16
41
1
10
11.2070787164306
20
-70.5692816913905
30
1E-16
41
1
10
11.2086412744006
20
-70.5696751769805
30
1E-16
0
SPLINE
5
168
100
AcDbEntity
8
1
62
256
6
ByLayer
370
18
48
1
60
0
100
AcDbSpline
70
4
71
3
72
14
73
10
40
0
40
0
40
0
40
0
40
0.25
40
0.25
40
0.5
40
0.5
40
0.75
40
0.75
40
1
40
1
40
1
40
1
41
1
10
14.246009432077
20
-57.1160840667626
30
-1E-16
41
1
10
14.1775080721776
20
-57.0915028056251
30
-1E-16
41
1
10
14.1073488846465
20
-57.0698938352438
30
-1E-16
41
1
10
13.9667131227355
20
-57.0368579211962
30
-1E-16
41
1
10
13.8960015160385
20
-57.0253885581588
30
-1E-16
41
1
10
13.7536557738109
20
-57.0142790650534
30
-1E-16
41
1
10
13.6815161831241
20
-57.0147565960174
30
-1E-16
41
1
10
13.5409177482354
20
-57.0259692480462
30
-1E-16
41
1
10
13.471963365327
20
-57.0364924624993
30
-1E-16
41
1
10
13.40390149934
20
-57.0502788338801
30
-1E-16
0
SPLINE
5
169
100
AcDbEntity
8
1
62
256
6
ByLayer
370
18
48
1
60
0
100
AcDbSpline
70
4
71
3
72
12
73
8
40
0
40
0
40
0
40
0
40
0.500000000000003
40
0.500000000000003
40
0.750000000000001
40
0.750000000000001
40
1
40
1
40
1
40
1
41
1
10
14.842108170479
20
-56.9115541053123
30
-1E-16
41
1
10
14.7447773590948
20
-56.9063536993462
30
-1E-16
41
1
10
14.6459872242951
20
-56.9155968322456
30
-1E-16
41
1
10
14.493945409348
20
-56.9676320532978
30
-1E-16
41
1
10
14.4433190176474
20
-56.9910475500973
30
-1E-16
41
1
10
14.3438685789142
20
-57.0472407998515
30
-1E-16
41
1
10
14.2947353557704
20
-57.0800435144126
30
-1E-16
41
1
10
14.2460094320767
20
-57.1160840667605
30
-1E-16
0
SPLINE
5
16A
100
AcDbEntity
8
1
62
256
6
ByLayer
370
18
48
1
60
0
100
AcDbSpline
70
4
71
3
72
12
73
8
40
0
40
0
40
0
40
0
40
0.499999999999999
40
0.499999999999999
40
0.75
40
0.75
40
1
40
1
40
1
40
1
41
1
10
13.4039014993402
20
-57.050278833876
30
-1E-16
41
1
10
13.3637331967586
20
-56.9675425971286
30
-1E-16
41
1
10
13.3229626332517
20
-56.8980873706314
30
-1E-16
41
1
10
13.2602151687953
20
-56.8290027914092
30
-1E-16
41
1
10
13.2393217210625
20
-56.8120882089241
30
-1E-16
41
1
10
13.1982786509586
20
-56.789057086878
30
-1E-16
41
1
10
13.178001431998
20
-56.782719212542
30
-1E-16
41
1
10
13.1578923050046
20
-56.7799436395495
30
-1E-16
0
SPLINE
5
16B
100
AcDbEntity
8
1
62
256
6
ByLayer
370
18
48
1
60
0
100
AcDbSpline
70
4
71
3
72
12
73
8
40
0
40
0
40
0
40
0
40
0.389010328650394
40
0.389010328650394
40
0.694505164325197
40
0.694505164325197
40
1
40
1
40
1
40
1
41
1
10
14.640140238311
20
-56.6535785518342
30
-1E-16
41
1
10
14.6660321341783
20
-56.6648001357303
30
-1E-16
41
1
10
14.6922357433519
20
-56.6835806693663
30
-1E-16
41
1
10
14.739785306688
20
-56.7357316519011
30
-1E-16
41
1
10
14.7606787544208
20
-56.7647359568647
30
-1E-16
41
1
10
14.8017218245247
20
-56.8319078563955
30
-1E-16
41
1
10
14.8219990434853
20
-56.8701345435016
30
-1E-16
41
1
10
14.8421081704787
20
-56.9115541053148
30
-1E-16
0
SPLINE
5
16C
100
AcDbEntity
8
1
62
256
6
ByLayer
370
18
48
1
60
0
100
AcDbSpline
70
4
71
3
72
8
73
4
40
0
40
0
40
0
40
0
40
1
40
1
40
1
40
1
41
1
10
13.1578923050042
20
-56.7799436395476
30
-1E-16
41
1
10
13.234941071358
20
-56.7229538508148
30
-1E-16
41
1
10
13.3129043346218
20
-56.674387669597
30
-1E-16
41
1
10
13.3923336053888
20
-56.6393251663964
30
-1E-16
0
SPLINE
5
16D
100
AcDbEntity
8
1
62
256
6
ByLayer
370
18
48
1
60
0
100
AcDbSpline
70
4
71
3
72
8
73
4
40
0
40
0
40
0
40
0
40
1
40
1
40
1
40
1
41
1
10
0.342769052837639
20
9.92710219507342
30
-6E-16
41
1
10
0.200228104509421
20
10.0093982499612
30
-6E-16
41
1
10
0.0693189021612852
20
10.0849787131763
30
-6E-16
41
1
10
-0.0469703231323138
20
10.1521183287035
30
-6E-16
0
SPLINE
5
16E
100
AcDbEntity
8
1
62
256
6
ByLayer
370
18
48
1
60
0
100
AcDbSpline
70
4
71
3
72
16
73
12
40
0
40
0
40
0
40
0
40
0.25
40
0.25
40
0.5
40
0.5
40
0.625
40
0.625
40
0.75
40
0.75
40
1
40
1
40
1
40
1
41
1
10
-0.32498094719034
20
12.1007696222693
30
-7E-16
41
1
10
-0.324980947191818
20
12.1091375518879
30
-7E-16
41
1
10
-0.324309016993737
20
12.1181205982696
30
-7E-16
41
1
10
-0.320686052163353
20
12.1377824738944
30
-7E-16
41
1
10
-0.317786456289866
20
12.1486027991508
30
-7E-16
41
1
10
-0.309681694933545
20
12.1671101461958
30
-7E-16
41
1
10
-0.306333788100119
20
12.173648591371
30
-7E-16
41
1
10
-0.297771572636662
20
12.1872992429555
30
-7E-16
41
1
10
-0.292433481717239
20
12.194492487451
30
-7E-16
41
1
10
-0.274589605549011
20
12.2143231712475
30
-7E-16
41
1
10
-0.261321720492987
20
12.2241258343662
30
-7E-16
41
1
10
-0.249980947143001
20
12.2306734329087
30
-7E-16
0
SPLINE
5
16F
100
AcDbEntity
8
1
62
256
6
ByLayer
370
18
48
1
60
0
100
AcDbSpline
70
4
71
3
72
8
73
4
40
0
40
0
40
0
40
0
40
1
40
1
40
1
40
1
41
1
10
-0.0469703231326548
20
-10.1521183287047
30
6E-16
41
1
10
-0.115112466683769
20
-10.1914602136271
30
6E-16
41
1
10
-0.182784534593793
20
-10.2305307002516
30
6E-16
41
1
10
-0.2499809471623
20
-10.2693265671366
30
6E-16
0
SPLINE
5
170
100
AcDbEntity
8
1
62
256
6
ByLayer
370
18
48
1
60
0
100
AcDbSpline
70
4
71
3
72
8
73
4
40
0
40
0
40
0
40
0
40
1
40
1
40
1
40
1
41
1
10
0.126148905031954
20
-5.55216789572196
30
3E-16
41
1
10
0.0001260536848235
20
-5.62492722287126
30
3E-16
41
1
10
-0.125290129205013
20
-5.69733628982345
30
3E-16
41
1
10
-0.249980947162271
20
-5.76932656713655
30
4E-16
0
SPLINE
5
171
100
AcDbEntity
8
1
62
256
6
ByLayer
370
18
48
1
60
0
100
AcDbSpline
70
4
71
3
72
8
73
4
40
0
40
0
40
0
40
0
40
1
40
1
40
1
40
1
41
1
10
0.12614890503184
20
5.552167895721
30
-3E-16
41
1
10
0.0001260536847383
20
5.6249272228703
30
-3E-16
41
1
10
-0.125290129205041
20
5.69733628982243
30
-3E-16
41
1
10
-0.249980947162271
20
5.76932656713552
30
-4E-16
0
SPLINE
5
172
100
AcDbEntity
8
1
62
256
6
ByLayer
370
18
48
1
60
0
100
AcDbSpline
70
4
71
3
72
10
73
6
40
0
40
0
40
0
40
0
40
0.5
40
0.5
40
1
40
1
40
1
40
1
41
1
10
-0.2499809471623
20
5.76932656713552
30
-4E-16
41
1
10
-0.269347069078748
20
5.78050760283713
30
-4E-16
41
1
10
-0.287503923386652
20
5.79667268399561
30
-4E-16
41
1
10
-0.315507104250713
20
5.84064795806242
30
-4E-16
41
1
10
-0.324980950421093
20
5.86885663496935
30
-4E-16
41
1
10
-0.324980947162345
20
5.89923039379656
30
-4E-16
0
SPLINE
5
173
100
AcDbEntity
8
1
62
256
6
ByLayer
370
18
48
1
60
0
100
AcDbSpline
70
4
71
3
72
10
73
6
40
0
40
0
40
0
40
0
40
0.5
40
0.5
40
1
40
1
40
1
40
1
41
1
10
-0.324980947162345
20
6.10076962229343
30
-4E-16
41
1
10
-0.324980947162771
20
6.12931852219307
30
-4E-16
41
1
10
-0.315985583491369
20
6.15835355448519
30
-4E-16
41
1
10
-0.28782051691735
20
6.20307039555863
30
-4E-16
41
1
10
-0.269391712225911
20
6.2194666224288
30
-4E-16
41
1
10
-0.249980947162271
20
6.23067343286345
30
-4E-16
0
SPLINE
5
174
100
AcDbEntity
8
1
62
256
6
ByLayer
370
18
48
1
60
0
100
AcDbSpline
70
4
71
3
72
8
73
4
40
0
40
0
40
0
40
0
40
1
40
1
40
1
40
1
41
1
10
-0.249980947162271
20
6.23067343286345
30
-4E-16
41
1
10
-0.0532711848783833
20
6.3442438670703
30
-4E-16
41
1
10
0.144388484029605
20
6.45836273012225
30
-4E-16
41
1
10
0.342769052837753
20
6.57289780492562
30
-4E-16
0
SPLINE
5
175
100
AcDbEntity
8
1
62
256
6
ByLayer
370
18
48
1
60
0
100
AcDbSpline
70
4
71
3
72
18
73
14
40
0
40
0
40
0
40
0
40
0.25
40
0.25
40
0.375000000000005
40
0.375000000000005
40
0.50000000000001
40
0.50000000000001
40
0.625000000000015
40
0.625000000000015
40
0.75000000000002
40
0.75000000000002
40
1
40
1
40
1
40
1
41
1
10
0.342769052838889
20
6.57289780491863
30
-4E-16
41
1
10
0.370516593262408
20
6.58891785485105
30
-4E-16
41
1
10
0.397303986569938
20
6.61292698994905
30
-4E-16
41
1
10
0.427069711746725
20
6.66393798431875
30
-4E-16
41
1
10
0.434841942703798
20
6.68302567681374
30
-4E-16
41
1
10
0.444310147219767
20
6.723239294802
30
-4E-16
41
1
10
0.445902567673187
20
6.74420182496428
30
-4E-16
41
1
10
0.443169313480439
20
6.78389511559675
30
-4E-16
41
1
10
0.438900918790495
20
6.80280522840579
30
-4E-16
41
1
10
0.426637846293318
20
6.83662304317261
30
-4E-16
41
1
10
0.418504222066815
20
6.85201367672786
30
-4E-16
41
1
10
0.390918604968761
20
6.8923420792712
30
-4E-16
41
1
10
0.367782685199273
20
6.91266056769658
30
-4E-16
41
1
10
0.342769052837923
20
6.92710219507382
30
-4E-16
0
SPLINE
5
176
100
AcDbEntity
8
1
62
256
6
ByLayer
370
18
48
1
60
0
100
AcDbSpline
70
4
71
3
72
8
73
4
40
0
40
0
40
0
40
0
40
1
40
1
40
1
40
1
41
1
10
0.342769052837724
20
6.92710219507336
30
-4E-16
41
1
10
0.141559860425076
20
7.04327037647624
30
-4E-16
41
1
10
-0.0563906484574659
20
7.15755715606579
30
-4E-16
41
1
10
-0.249980947160537
20
7.26932656713453
30
-4E-16
0
SPLINE
5
177
100
AcDbEntity
8
1
62
256
6
ByLayer
370
18
48
1
60
0
100
AcDbSpline
70
4
71
3
72
10
73
6
40
0
40
0
40
0
40
0
40
0.5
40
0.5
40
1
40
1
40
1
40
1
41
1
10
-0.249980947160594
20
7.26932656713379
30
-4E-16
41
1
10
-0.269739875690846
20
7.28073438983921
30
-4E-16
41
1
10
-0.287604165309546
20
7.29692770850332
30
-4E-16
41
1
10
-0.315076899641156
20
7.33987593818679
30
-4E-16
41
1
10
-0.324980951061889
20
7.36726670859403
30
-5E-16
41
1
10
-0.324980947162345
20
7.39923039600313
30
-5E-16
0
SPLINE
5
178
100
AcDbEntity
8
1
62
256
6
ByLayer
370
18
48
1
60
0
100
AcDbSpline
70
4
71
3
72
12
73
8
40
0
40
0
40
0
40
0
40
0.25
40
0.25
40
0.5
40
0.5
40
1
40
1
40
1
40
1
41
1
10
-0.324980947162402
20
7.60076962228308
30
-5E-16
41
1
10
-0.324980947163482
20
7.61355284176628
30
-5E-16
41
1
10
-0.32327818787806
20
7.62715829572218
30
-5E-16
41
1
10
-0.316025131019501
20
7.65363711598678
30
-5E-16
41
1
10
-0.310349374009718
20
7.66682045254612
30
-5E-16
41
1
10
-0.289065322063436
20
7.70193309425585
30
-5E-16
41
1
10
-0.269481467386299
20
7.71941480226292
30
-5E-16
41
1
10
-0.249980947162328
20
7.73067343286357
30
-5E-16
0
SPLINE
5
179
100
AcDbEntity
8
1
62
256
6
ByLayer
370
18
48
1
60
0
100
AcDbSpline
70
4
71
3
72
8
73
4
40
0
40
0
40
0
40
0
40
1
40
1
40
1
40
1
41
1
10
-0.249980947162271
20
7.73067343286345
30
-5E-16
41
1
10
-0.0525430838773673
20
7.84466423637923
30
-5E-16
41
1
10
0.145053884699337
20
7.95874689937804
30
-5E-16
41
1
10
0.342769052837724
20
8.07289780492562
30
-5E-16
0
SPLINE
5
17A
100
AcDbEntity
8
1
62
256
6
ByLayer
370
18
48
1
60
0
100
AcDbSpline
70
4
71
3
72
20
73
16
40
0
40
0
40
0
40
0
40
0.125000000000004
40
0.125000000000004
40
0.250000000000007
40
0.250000000000007
40
0.375000000000011
40
0.375000000000011
40
0.500000000000015
40
0.500000000000015
40
0.625000000000018
40
0.625000000000018
40
0.750000000000022
40
0.750000000000022
40
1
40
1
40
1
40
1
41
1
10
0.342769052837809
20
8.07289780491848
30
-5E-16
41
1
10
0.358292509143865
20
8.08186027659522
30
-5E-16
41
1
10
0.373840112707541
20
8.09359617355759
30
-5E-16
41
1
10
0.402117274926667
20
8.12302489791975
30
-5E-16
41
1
10
0.414983786794295
20
8.1409816045377
30
-5E-16
41
1
10
0.434460540702617
20
8.18137308670489
30
-5E-16
41
1
10
0.440646639175554
20
8.20301629896719
30
-5E-16
41
1
10
0.446015310824777
20
8.24454042772504
30
-5E-16
41
1
10
0.445321800639078
20
8.26441983775527
30
-5E-16
41
1
10
0.439548347043342
20
8.30039282960752
30
-5E-16
41
1
10
0.434428159406309
20
8.31691561693734
30
-5E-16
41
1
10
0.421597423724052
20
8.34637979558732
30
-5E-16
41
1
10
0.413807258684415
20
8.35960033832433
30
-5E-16
41
1
10
0.387312012958404
20
8.39544835043702
30
-5E-16
41
1
10
0.366333953145556
20
8.41349699353739
30
-5E-16
41
1
10
0.342769052837809
20
8.4271021950735
30
-5E-16
0
SPLINE
5
17B
100
AcDbEntity
8
1
62
256
6
ByLayer
370
18
48
1
60
0
100
AcDbSpline
70
4
71
3
72
8
73
4
40
0
40
0
40
0
40
0
40
1
40
1
40
1
40
1
41
1
10
0.342769052837724
20
8.42710219507336
30
-5E-16
41
1
10
0.136066482638199
20
8.54644197962025
30
-5E-16
41
1
10
-0.0625363391948781
20
8.6611053722674
30
-5E-16
41
1
10
-0.2499809471623
20
8.76932656713552
30
-5E-16
0
SPLINE
5
17C
100
AcDbEntity
8
1
62
256
6
ByLayer
370
18
48
1
60
0
100
AcDbSpline
70
4
71
3
72
12
73
8
40
0
40
0
40
0
40
0
40
0.500000000000033
40
0.500000000000033
40
0.750000000000016
40
0.750000000000016
40
1
40
1
40
1
40
1
41
1
10
-0.24998094716284
20
8.76932656713475
30
-5E-16
41
1
10
-0.270604914733809
20
8.78123382036361
30
-5E-16
41
1
10
-0.288263389710778
20
8.79770683350654
30
-5E-16
41
1
10
-0.308536328216718
20
8.82978294689815
30
-5E-16
41
1
10
-0.314161023968751
20
8.84158814262466
30
-5E-16
41
1
10
-0.322390682706271
20
8.86818056431306
30
-5E-16
41
1
10
-0.32498095134801
20
8.88288598383039
30
-5E-16
41
1
10
-0.324980947162345
20
8.89923041611701
30
-5E-16
0
SPLINE
5
17D
100
AcDbEntity
8
1
62
256
6
ByLayer
370
18
48
1
60
0
100
AcDbSpline
70
4
71
3
72
14
73
10
40
0
40
0
40
0
40
0
40
0.25
40
0.25
40
0.5
40
0.5
40
0.75
40
0.75
40
1
40
1
40
1
40
1
41
1
10
-0.324980947167177
20
9.10076962228209
30
-6E-16
41
1
10
-0.324980947168143
20
9.11136059578021
30
-6E-16
41
1
10
-0.323881994657285
20
9.12274977248688
30
-6E-16
41
1
10
-0.318229425942036
20
9.14697051270724
30
-6E-16
41
1
10
-0.313571777696495
20
9.15991639605622
30
-6E-16
41
1
10
-0.299850214228286
20
9.18511074688411
30
-6E-16
41
1
10
-0.290682009753254
20
9.19725898448195
30
-6E-16
41
1
10
-0.270776707341099
20
9.21704560963423
30
-6E-16
41
1
10
-0.260190127138543
20
9.22477916006039
30
-6E-16
41
1
10
-0.249980947162214
20
9.23067343286772
30
-6E-16
0
SPLINE
5
17E
100
AcDbEntity
8
1
62
256
6
ByLayer
370
18
48
1
60
0
100
AcDbSpline
70
4
71
3
72
8
73
4
40
0
40
0
40
0
40
0
40
1
40
1
40
1
40
1
41
1
10
-0.249980947162271
20
9.23067343286345
30
-6E-16
41
1
10
-0.0525671006123218
20
9.34465037031083
30
-6E-16
41
1
10
0.145035952119798
20
9.45873654599842
30
-6E-16
41
1
10
0.342769052837696
20
9.57289780492559
30
-6E-16
0
SPLINE
5
17F
100
AcDbEntity
8
1
62
256
6
ByLayer
370
18
48
1
60
0
100
AcDbSpline
70
4
71
3
72
18
73
14
40
0
40
0
40
0
40
0
40
0.125000000000006
40
0.125000000000006
40
0.250000000000013
40
0.250000000000013
40
0.375000000000019
40
0.375000000000019
40
0.500000000000026
40
0.500000000000026
40
0.750000000000013
40
0.750000000000013
40
1
40
1
40
1
40
1
41
1
10
0.342769052837127
20
9.57289780492306
30
-6E-16
41
1
10
0.361659745427915
20
9.58380435137531
30
-6E-16
41
1
10
0.381427263361218
20
9.59943461143803
30
-6E-16
41
1
10
0.415201412961608
20
9.64040468492107
30
-6E-16
41
1
10
0.428156283128288
20
9.6651818039598
30
-6E-16
41
1
10
0.442739500660025
20
9.7111574067147
30
-6E-16
41
1
10
0.44511126880451
20
9.73216305181862
30
-6E-16
41
1
10
0.444921672840792
20
9.76989222185875
30
-6E-16
41
1
10
0.442344734562852
20
9.78660417650795
30
-6E-16
41
1
10
0.430207127452746
20
9.83277421407357
30
-6E-16
41
1
10
0.416682839154305
20
9.85712203954017
30
-6E-16
41
1
10
0.383930349616009
20
9.89812835961075
30
-6E-16
41
1
10
0.364451801693718
20
9.91458365418526
30
-6E-16
41
1
10
0.342769052838065
20
9.92710219507387
30
-6E-16
0
SPLINE
5
180
100
AcDbEntity
8
1
62
256
6
ByLayer
370
18
48
1
60
0
100
AcDbSpline
70
4
71
3
72
14
73
10
40
0
40
0
40
0
40
0
40
0.499999999999998
40
0.499999999999998
40
0.624999999999998
40
0.624999999999998
40
0.749999999999999
40
0.749999999999999
40
1
40
1
40
1
40
1
41
1
10
11.6458499218373
20
-57.5616908390566
30
0
41
1
10
11.5790592788778
20
-57.7202725993287
30
0
41
1
10
11.5187330275067
20
-57.9303144941314
30
0
41
1
10
11.4502426052074
20
-58.2554427373677
30
0
41
1
10
11.436894071228
20
-58.3236385644391
30
0
41
1
10
11.4108810353008
20
-58.4664948955915
30
0
41
1
10
11.3981874088947
20
-58.5413475667518
30
0
41
1
10
11.3613767887114
20
-58.7742150975008
30
0
41
1
10
11.3385233313774
20
-58.9403886404692
30
1E-16
41
1
10
11.3172423834412
20
-59.1175627105785
30
1E-16
0
SPLINE
5
181
100
AcDbEntity
8
1
62
256
6
ByLayer
370
18
48
1
60
0
100
AcDbSpline
70
4
71
3
72
14
73
10
40
0
40
0
40
0
40
0
40
0.500000000000001
40
0.500000000000001
40
0.625000000000001
40
0.625000000000001
40
0.75
40
0.75
40
1
40
1
40
1
40
1
41
1
10
16.6827576165575
20
-59.1175627105785
30
1E-16
41
1
10
16.6401930465355
20
-58.7631923067858
30
0
41
1
10
16.5919070896231
20
-58.4566144317872
30
0
41
1
10
16.5235223624081
20
-58.130646269561
30
0
41
1
10
16.5094397544358
20
-58.0683539483855
30
0
41
1
10
16.4804230742629
20
-57.9496640576585
30
0
41
1
10
16.4654517071086
20
-57.8931435966566
30
0
41
1
10
16.4195150679556
20
-57.7337593540523
30
0
41
1
10
16.3875477888534
20
-57.6409873919259
30
0
41
1
10
16.3541500781614
20
-57.5616908390567
30
0
0
SPLINE
5
182
100
AcDbEntity
8
1
62
256
6
ByLayer
370
18
48
1
60
0
100
AcDbSpline
70
2053
71
3
72
111
73
107
40
0
40
0
40
0
40
0
40
0.03125
40
0.03125
40
0.046875
40
0.046875
40
0.0546874999999999
40
0.0546874999999999
40
0.0624999999999999
40
0.0624999999999999
40
0.0937500000000001
40
0.0937500000000001
40
0.1015625
40
0.1015625
40
0.109375
40
0.109375
40
0.125
40
0.125
40
0.156250000000001
40
0.156250000000001
40
0.164062500000001
40
0.164062500000001
40
0.171875000000001
40
0.171875000000001
40
0.1875
40
0.203125
40
0.203125
40
0.21875
40
0.21875
40
0.25
40
0.25
40
0.265625
40
0.265625
40
0.28125
40
0.28125
40
0.3125
40
0.3125
40
0.328125
40
0.328125
40
0.34375
40
0.34375
40
0.375
40
0.375
40
0.390625
40
0.390625
40
0.40625
40
0.40625
40
0.421875
40
0.421875
40
0.4375
40
0.4375
40
0.46875
40
0.46875
40
0.484375
40
0.484375
40
0.5
40
0.5
40
0.53125
40
0.53125
40
0.5390625
40
0.5390625
40
0.546875
40
0.546875
40
0.5625
40
0.578125
40
0.578125
40
0.5859375
40
0.5859375
40
0.59375
40
0.59375
40
0.625000000000001
40
0.625000000000001
40
0.640625000000001
40
0.640625000000001
40
0.656250000000001
40
0.656250000000001
40
0.687500000000001
40
0.687500000000001
40
0.703125000000001
40
0.703125000000001
40
0.718750000000001
40
0.718750000000001
40
0.750000000000001
40
0.750000000000001
40
0.781250000000001
40
0.781250000000001
40
0.796875000000001
40
0.796875000000001
40
0.812500000000001
40
0.812500000000001
40
0.843750000000001
40
0.843750000000001
40
0.859375000000001
40
0.859375000000001
40
0.875000000000001
40
0.875000000000001
40
0.906250000000001
40
0.906250000000001
40
0.921875000000001
40
0.921875000000001
40
0.937500000000001
40
0.953125000000001
40
0.953125000000001
40
0.96875
40
0.96875
40
1
40
1
40
1
40
1
41
1
10
16.6337286134531
20
-7.36729208785524
30
5E-16
41
1
10
16.6337286134531
20
-6.91750491438125
30
4E-16
41
1
10
16.6280148763
20
-6.47536861015195
30
4E-16
41
1
10
16.6110300366166
20
-5.82316658696547
30
4E-16
41
1
10
16.6039516890227
20
-5.60761360522645
30
3E-16
41
1
10
16.5910974292054
20
-5.28712110721946
30
3E-16
41
1
10
16.5864256093063
20
-5.18049181535272
30
3E-16
41
1
10
16.5763710081053
20
-4.96958054235742
30
3E-16
41
1
10
16.5710005672049
20
-4.86550628833496
30
3E-16
41
1
10
16.5424312611886
20
-4.35190188945984
30
3E-16
41
1
10
16.514143141982
20
-3.96247757873036
30
2E-16
41
1
10
16.4713424562164
20
-3.50230880752753
30
2E-16
41
1
10
16.462406365401
20
-3.41161773466288
30
2E-16
41
1
10
16.4437495288908
20
-3.23296505820926
30
2E-16
41
1
10
16.4340032737205
20
-3.14480291608231
30
2E-16
41
1
10
16.4038449214643
20
-2.88712030878983
30
2E-16
41
1
10
16.3824560658747
20
-2.72371831229549
30
2E-16
41
1
10
16.3143078420943
20
-2.25790013991224
30
1E-16
41
1
10
16.2636063122687
20
-1.97964242341033
30
1E-16
41
1
10
16.1926465564388
20
-1.6731693257085
30
1E-16
41
1
10
16.1780723749569
20
-1.61398872456269
30
1E-16
41
1
10
16.1484620340196
20
-1.50109283673797
30
1E-16
41
1
10
16.1333868865188
20
-1.44720277061961
30
1E-16
41
1
10
16.0873394151052
20
-1.29306826042495
30
1E-16
41
1
10
16.0237521089785
20
-1.10761566269019
30
1E-16
41
1
10
15.9555950185258
20
-0.961697199518511
30
1E-16
41
1
10
15.8850155547403
20
-0.83581499865619
30
1E-16
41
1
10
15.8483175893464
20
-0.78273509111483
30
0
41
1
10
15.7364663363911
20
-0.656868642271917
30
0
41
1
10
15.6592476191926
20
-0.616060272031916
30
0
41
1
10
15.5393386415289
20
-0.617950046377274
30
0
41
1
10
15.498688057291
20
-0.629170887618187
30
0
41
1
10
15.4159967147364
20
-0.673453969227552
30
0
41
1
10
15.3745149500652
20
-0.706244426883728
30
0
41
1
10
15.2502282809442
20
-0.835144067139339
30
1E-16
41
1
10
15.1673510232494
20
-0.961611507463147
30
1E-16
41
1
10
15.0435359984768
20
-1.21287302191706
30
1E-16
41
1
10
15.0021572508157
20
-1.30752648455515
30
1E-16
41
1
10
14.9213018182948
20
-1.51420783250015
30
1E-16
41
1
10
14.8816894303608
20
-1.62640671230875
30
1E-16
41
1
10
14.7654662382592
20
-1.98909109199852
30
1E-16
41
1
10
14.6914324230269
20
-2.26540108696003
30
1E-16
41
1
10
14.5868172471423
20
-2.73432417679797
30
2E-16
41
1
10
14.5534444163762
20
-2.89798461286657
30
2E-16
41
1
10
14.4902999698437
20
-3.23719903786278
30
2E-16
41
1
10
14.4604421684969
20
-3.41313725264419
30
2E-16
41
1
10
14.4043083693961
20
-3.77764972375718
30
2E-16
41
1
10
14.3780319365046
20
-3.96622327948265
30
2E-16
41
1
10
14.329310188702
20
-4.35635167637534
30
3E-16
41
1
10
14.3067657035906
20
-4.5590799084344
30
3E-16
41
1
10
14.2465725690178
20
-5.17514584228073
30
3E-16
41
1
10
14.2159548505207
20
-5.59805395427384
30
3E-16
41
1
10
14.1847676853141
20
-6.25058080556821
30
4E-16
41
1
10
14.1768418389271
20
-6.47113842831908
30
4E-16
41
1
10
14.1661861254609
20
-6.91860209064544
30
4E-16
41
1
10
14.1635498904217
20
-7.14164647795613
30
4E-16
41
1
10
14.1634693845996
20
-7.80831474791552
30
5E-16
41
1
10
14.1737916996788
20
-8.24971085073327
30
5E-16
41
1
10
14.1997037678537
20
-8.797582595427
30
5E-16
41
1
10
14.2055608192109
20
-8.90727277009827
30
5E-16
41
1
10
14.2184959423224
20
-9.12449169029384
30
6E-16
41
1
10
14.2255656710282
20
-9.23196359820955
30
6E-16
41
1
10
14.2485257684535
20
-9.55104018360746
30
6E-16
41
1
10
14.283799571912
20
-9.96758871161225
30
6E-16
41
1
10
14.3279836997824
20
-10.3667364186279
30
6E-16
41
1
10
14.3643893956867
20
-10.659521449306
30
7E-16
41
1
10
14.3770700414486
20
-10.7560185442559
30
7E-16
41
1
10
14.4035197962601
20
-10.9467839947998
30
7E-16
41
1
10
14.4172921350715
20
-11.0410389110762
30
7E-16
41
1
10
14.4880587742581
20
-11.501575728996
30
7E-16
41
1
10
14.5512864486041
20
-11.8402271507391
30
7E-16
41
1
10
14.6547371680761
20
-12.3050752426675
30
8E-16
41
1
10
14.6906669851698
20
-12.452783425305
30
8E-16
41
1
10
14.7653275910052
20
-12.7333293781793
30
8E-16
41
1
10
14.8035193960515
20
-12.8641251968468
30
8E-16
41
1
10
14.9200576439387
20
-13.2281381737011
30
8E-16
41
1
10
15.0004702755465
20
-13.4337226171488
30
8E-16
41
1
10
15.1243897013254
20
-13.6860777691787
30
8E-16
41
1
10
15.1664044588117
20
-13.7609320730257
30
8E-16
41
1
10
15.2497468703582
20
-13.8886233249359
30
9E-16
41
1
10
15.291259733638
20
-13.941910943371
30
9E-16
41
1
10
15.4152219519759
20
-14.0707231385188
30
9E-16
41
1
10
15.4971275862882
20
-14.115502546852
30
9E-16
41
1
10
15.658903471697
20
-14.1189774179197
30
9E-16
41
1
10
15.7362110386715
20
-14.0776542447897
30
9E-16
41
1
10
15.8471841261296
20
-13.9532959062878
30
9E-16
41
1
10
15.8833412755747
20
-13.9013726323703
30
9E-16
41
1
10
15.9540247820617
20
-13.7760531054713
30
8E-16
41
1
10
15.9886923821302
20
-13.70220129391
30
8E-16
41
1
10
16.0882304425197
20
-13.4524141667725
30
8E-16
41
1
10
16.1492693922586
20
-13.247870638417
30
8E-16
41
1
10
16.2337275924205
20
-12.8844167125135
30
8E-16
41
1
10
16.2606902179443
20
-12.7537610126574
30
8E-16
41
1
10
16.3123045052274
20
-12.4726720976886
30
8E-16
41
1
10
16.3365376940581
20
-12.3245085237784
30
8E-16
41
1
10
16.404817004327
20
-11.8584666833788
30
7E-16
41
1
10
16.4445288522906
20
-11.5189889643758
30
7E-16
41
1
10
16.4962069750265
20
-10.9657005284777
30
7E-16
41
1
10
16.5121466565492
20
-10.7730949294763
30
7E-16
41
1
10
16.5408016707029
20
-10.3812617314262
30
6E-16
41
1
10
16.5664224526965
20
-9.98108092598105
30
6E-16
41
1
10
16.5863456173916
20
-9.56450786887152
30
6E-16
41
1
10
16.6034975701648
20
-9.13964905924024
30
6E-16
41
1
10
16.6107040517464
20
-8.92244869123724
30
5E-16
41
1
10
16.6280146832374
20
-8.26211310569724
30
5E-16
41
1
10
16.6337286134531
20
-7.81707926132921
30
5E-16
41
1
10
16.6337286134531
20
-7.36729208785524
30
5E-16
0
SPLINE
5
183
100
AcDbEntity
8
1
62
256
6
ByLayer
370
18
48
1
60
0
100
AcDbSpline
70
4
71
3
72
116
73
112
40
0
40
0
40
0
40
0
40
0.0312499999999997
40
0.0312499999999997
40
0.0468749999999995
40
0.0468749999999995
40
0.0624999999999994
40
0.0624999999999994
40
0.0937499999999994
40
0.0937499999999994
40
0.109375
40
0.109375
40
0.1171875
40
0.1171875
40
0.125
40
0.125
40
0.156249999999999
40
0.156249999999999
40
0.171874999999999
40
0.171874999999999
40
0.179687499999999
40
0.179687499999999
40
0.187499999999999
40
0.187499999999999
40
0.218749999999998
40
0.218749999999998
40
0.234374999999998
40
0.234374999999998
40
0.249999999999998
40
0.249999999999998
40
0.281249999999998
40
0.281249999999998
40
0.289062499999998
40
0.289062499999998
40
0.296874999999998
40
0.296874999999998
40
0.312499999999998
40
0.312499999999998
40
0.343749999999998
40
0.343749999999998
40
0.359374999999998
40
0.359374999999998
40
0.374999999999998
40
0.374999999999998
40
0.406249999999998
40
0.406249999999998
40
0.414062499999998
40
0.414062499999998
40
0.421874999999998
40
0.421874999999998
40
0.437499999999998
40
0.437499999999998
40
0.468749999999998
40
0.468749999999998
40
0.484374999999998
40
0.484374999999998
40
0.499999999999998
40
0.499999999999998
40
0.531249999999998
40
0.531249999999998
40
0.562499999999998
40
0.562499999999998
40
0.578124999999998
40
0.578124999999998
40
0.593749999999998
40
0.593749999999998
40
0.624999999999999
40
0.624999999999999
40
0.640624999999999
40
0.640624999999999
40
0.648437499999999
40
0.648437499999999
40
0.656249999999999
40
0.656249999999999
40
0.687499999999999
40
0.687499999999999
40
0.703124999999999
40
0.703124999999999
40
0.710937499999999
40
0.710937499999999
40
0.718749999999999
40
0.718749999999999
40
0.749999999999999
40
0.749999999999999
40
0.765624999999999
40
0.765624999999999
40
0.781249999999999
40
0.781249999999999
40
0.796874999999999
40
0.796874999999999
40
0.8125
40
0.8125
40
0.84375
40
0.84375
40
0.859375
40
0.859375
40
0.875
40
0.875
40
0.90625
40
0.90625
40
0.921875
40
0.921875
40
0.9375
40
0.9375
40
0.96875
40
0.96875
40
0.984375
40
0.984375
40
0.9921875
40
0.9921875
40
1
40
1
40
1
40
1
41
1
10
15.3883781417152
20
14.0366218582836
30
-9E-16
41
1
10
15.3142031523708
20
13.9760817883587
30
-9E-16
41
1
10
15.2399778812908
20
13.8825663351305
30
-9E-16
41
1
10
15.1288761413822
20
13.6936710353435
30
-8E-16
41
1
10
15.0918837150542
20
13.6225562949429
30
-8E-16
41
1
10
15.0180633191958
20
13.4635974733358
30
-8E-16
41
1
10
14.981225736121
20
13.3756178212156
30
-8E-16
41
1
10
14.8732389509382
20
13.0915528819129
30
-8E-16
41
1
10
14.8038624531382
20
12.8740418868449
30
-8E-16
41
1
10
14.7043435840984
20
12.5058067641892
30
-8E-16
41
1
10
14.6719330498505
20
12.376027469849
30
-8E-16
41
1
10
14.6245888679044
20
12.1704600320153
30
-7E-16
41
1
10
14.608984229678
20
12.0999432328294
30
-7E-16
41
1
10
14.5784912978932
20
11.9564564312805
30
-7E-16
41
1
10
14.5635835732727
20
11.8834162182575
30
-7E-16
41
1
10
14.4907524639072
20
11.5118220868586
30
-7E-16
41
1
10
14.4379146628734
20
11.1942365088918
30
-7E-16
41
1
10
14.3675040050023
20
10.6873261115761
30
-7E-16
41
1
10
14.3455152352198
20
10.5132387235241
30
-6E-16
41
1
10
14.3149159223563
20
10.2441469020907
30
-6E-16
41
1
10
14.3051072525789
20
10.1530238050634
30
-6E-16
41
1
10
14.2865049208469
20
9.96998488177175
30
-6E-16
41
1
10
14.2776844274958
20
9.87784547286643
30
-6E-16
41
1
10
14.2359797494927
20
9.41409087000318
30
-6E-16
41
1
10
14.2102442946001
20
9.03337333991598
30
-6E-16
41
1
10
14.1835164278629
20
8.4476728622993
30
-5E-16
41
1
10
14.1765949686375
20
8.24998839014188
30
-5E-16
41
1
10
14.1669150755025
20
7.84953207588686
30
-5E-16
41
1
10
14.1642296716874
20
7.64963745799884
30
-5E-16
41
1
10
14.1624756958976
20
7.05225508671373
30
-4E-16
41
1
10
14.1696586076866
20
6.65645607773939
30
-4E-16
41
1
10
14.1890113622179
20
6.16478540833356
30
-4E-16
41
1
10
14.1934035326092
20
6.06660629100645
30
-4E-16
41
1
10
14.2032414018289
20
5.87056286881244
30
-4E-16
41
1
10
14.208701170254
20
5.77250074507162
30
-4E-16
41
1
10
14.2265014305439
20
5.48158737914599
30
-3E-16
41
1
10
14.2402880991535
20
5.29127534373438
30
-3E-16
41
1
10
14.2871227367445
20
4.73088677047758
30
-3E-16
41
1
10
14.325612604068
20
4.37127830670019
30
-3E-16
41
1
10
14.3937583013343
20
3.85297622175344
30
-2E-16
41
1
10
14.4183109538207
20
3.68327910325624
30
-2E-16
41
1
10
14.4698751386566
20
3.35737607473467
30
-2E-16
41
1
10
14.496974457688
20
3.2003992309659
30
-2E-16
41
1
10
14.5819489487698
20
2.74692834145679
30
-2E-16
41
1
10
14.6434752470086
20
2.46775967929958
30
-2E-16
41
1
10
14.7259852028616
20
2.14825076966636
30
-1E-16
41
1
10
14.7427913237796
20
2.08576557686356
30
-1E-16
41
1
10
14.7766377960382
20
1.96493719971562
30
-1E-16
41
1
10
14.793714126091
20
1.90644773908412
30
-1E-16
41
1
10
14.8453729590732
20
1.73665033877231
30
-1E-16
41
1
10
14.8803841356678
20
1.6310024805299
30
-1E-16
41
1
10
14.9869445751196
20
1.33630054296657
30
-1E-16
41
1
10
15.0600050347598
20
1.16931326016905
30
-1E-16
41
1
10
15.1721825549523
20
0.9645477812943
30
-1E-16
41
1
10
15.2095998638463
20
0.904733654279937
30
-1E-16
41
1
10
15.2840371611621
20
0.802111867889124
30
0
41
1
10
15.3211197289925
20
0.759190711917086
30
0
41
1
10
15.4318921624303
20
0.655317307605571
30
0
41
1
10
15.5051292648022
20
0.619055282269443
30
0
41
1
10
15.6499958234591
20
0.615653471491697
30
0
41
1
10
15.7195564728593
20
0.64854054480378
30
0
41
1
10
15.819871929311
20
0.747879198558167
30
0
41
1
10
15.8526378450601
20
0.789375715165164
30
0
41
1
10
15.916854209372
20
0.889400980476665
30
-1E-16
41
1
10
15.948363362678
20
0.948057916383988
30
-1E-16
41
1
10
16.0405731194785
20
1.14975984571859
30
-1E-16
41
1
10
16.0976299563065
20
1.31525209457678
30
-1E-16
41
1
10
16.1773502591368
20
1.60851469361205
30
-1E-16
41
1
10
16.2029413968244
20
1.7138165881353
30
-1E-16
41
1
10
16.2399104973655
20
1.88329243404439
30
-1E-16
41
1
10
16.2519970120835
20
1.9417075973316
30
-1E-16
41
1
10
16.2757032807843
20
2.06245242645494
30
-1E-16
41
1
10
16.2873516783755
20
2.12494914207829
30
-1E-16
41
1
10
16.3440125449029
20
2.44499980044793
30
-1E-16
41
1
10
16.3843261761263
20
2.72476219955763
30
-2E-16
41
1
10
16.43821646719
20
3.17891906501552
30
-2E-16
41
1
10
16.4550758373451
20
3.33609056391671
30
-2E-16
41
1
10
16.4787648444599
20
3.58069687658241
30
-2E-16
41
1
10
16.4863940983247
20
3.66370928556611
30
-2E-16
41
1
10
16.5011227771012
20
3.83274360806845
30
-2E-16
41
1
10
16.5082254024816
20
3.91883504928501
30
-2E-16
41
1
10
16.542084366709
20
4.35247031993583
30
-3E-16
41
1
10
16.5642317927365
20
4.71281834234057
30
-3E-16
41
1
10
16.5907820607822
20
5.27298535047237
30
-3E-16
41
1
10
16.5985114274825
20
5.46300112886752
30
-3E-16
41
1
10
16.6117479297965
20
5.84976861374574
30
-4E-16
41
1
10
16.617261983918
20
6.0471667945159
30
-4E-16
41
1
10
16.6259066447769
20
6.44269709319042
30
-4E-16
41
1
10
16.6290651470599
20
6.64142158540085
30
-4E-16
41
1
10
16.6330944898829
20
7.04078116474
30
-4E-16
41
1
10
16.6339641726456
20
7.24193598174043
30
-4E-16
41
1
10
16.6330937635508
20
7.84483571714682
30
-5E-16
41
1
10
16.627945768543
20
8.24065765445292
30
-5E-16
41
1
10
16.6134797932171
20
8.8255591312662
30
-5E-16
41
1
10
16.6075245448937
20
9.0190453967339
30
-6E-16
41
1
10
16.5932537049752
20
9.40300565519158
30
-6E-16
41
1
10
16.5848855558908
20
9.59442859619708
30
-6E-16
41
1
10
16.5564519987518
20
10.1552117504328
30
-6E-16
41
1
10
16.5331380758034
20
10.5116324608487
30
-6E-16
41
1
10
16.4912472119363
20
11.0208507257229
30
-7E-16
41
1
10
16.4761225318821
20
11.186329591647
30
-7E-16
41
1
10
16.4433887195394
20
11.5085874849043
30
-7E-16
41
1
10
16.4257193004703
20
11.6657079185551
30
-7E-16
41
1
10
16.3698112547445
20
12.1147907341523
30
-7E-16
41
1
10
16.3284185846282
20
12.3877336544165
30
-8E-16
41
1
10
16.2595618784179
20
12.7583046482671
30
-8E-16
41
1
10
16.2354760986547
20
12.8753173343107
30
-8E-16
41
1
10
16.1975176134795
20
13.0408324722084
30
-8E-16
41
1
10
16.1845394089837
20
13.0943991146487
30
-8E-16
41
1
10
16.1582053271661
20
13.1971597660211
30
-8E-16
41
1
10
16.1448223456642
20
13.2464809452488
30
-8E-16
41
1
10
16.1312206955955
20
13.2937793044033
30
-8E-16
0
SPLINE
5
184
100
AcDbEntity
8
1
62
256
6
ByLayer
370
18
48
1
60
0
100
AcDbSpline
70
4
71
3
72
28
73
24
40
0
40
0
40
0
40
0
40
0.125000000000001
40
0.125000000000001
40
0.187500000000001
40
0.187500000000001
40
0.250000000000002
40
0.250000000000002
40
0.375000000000002
40
0.375000000000002
40
0.500000000000003
40
0.500000000000003
40
0.625000000000004
40
0.625000000000004
40
0.687500000000004
40
0.687500000000004
40
0.750000000000004
40
0.750000000000004
40
0.875000000000002
40
0.875000000000002
40
0.937500000000001
40
0.937500000000001
40
1
40
1
40
1
40
1
41
1
10
10.8249999999993
20
-30.8500000000005
30
1E-16
41
1
10
10.8249999999993
20
-30.7442997874776
30
1E-16
41
1
10
10.8146286964861
20
-30.6403679928568
30
1E-16
41
1
10
10.7841528162944
20
-30.4870141349621
30
1E-16
41
1
10
10.7714892096069
20
-30.4363233077967
30
1E-16
41
1
10
10.7410380646432
20
-30.3358153370084
30
1E-16
41
1
10
10.7231654707106
20
-30.2858646546601
30
1E-16
41
1
10
10.6629511420412
20
-30.1405703875121
30
1E-16
41
1
10
10.6138236058473
20
-30.0486916573502
30
1E-16
41
1
10
10.4977651750732
20
-29.8748103377909
30
1E-16
41
1
10
10.4302245555749
20
-29.7924951583443
30
0
41
1
10
10.2827057050084
20
-29.644951718362
30
0
41
1
10
10.2022181418512
20
-29.5787416743512
30
0
41
1
10
10.0711567193629
20
-29.4910364011134
30
0
41
1
10
10.0257580948641
20
-29.463809531288
30
0
41
1
10
9.93348468242252
20
-29.4144558534092
30
0
41
1
10
9.88636904510045
20
-29.3921588640492
30
0
41
1
10
9.74212987404289
20
-29.3322991535452
30
0
41
1
10
9.64156206413753
20
-29.3015892686607
30
0
41
1
10
9.48658729570002
20
-29.270649809802
30
0
41
1
10
9.43461927769815
20
-29.2629211934596
30
0
41
1
10
9.33006891789194
20
-29.2525896262245
30
0
41
1
10
9.27704949366242
20
-29.2500000000005
30
0
41
1
10
9.22499999999934
20
-29.2500000000005
30
0
0
SPLINE
5
185
100
AcDbEntity
8
1
62
256
6
ByLayer
370
18
48
1
60
0
100
AcDbSpline
70
4
71
3
72
12
73
8
40
0
40
0
40
0
40
0
40
0.250000000000001
40
0.250000000000001
40
0.500000000000001
40
0.500000000000001
40
1
40
1
40
1
40
1
41
1
10
-0.324980947162317
20
-16.3992303777042
30
1E-15
41
1
10
-0.324980947162317
20
-16.3824490524561
30
1E-15
41
1
10
-0.322353063383957
20
-16.3681078840151
30
1E-15
41
1
10
-0.314291634353282
20
-16.3419618637768
30
1E-15
41
1
10
-0.308805749580074
20
-16.3303458305291
30
1E-15
41
1
10
-0.289084674083995
20
-16.298746678383
30
1E-15
41
1
10
-0.27170552398627
20
-16.2818692574139
30
1E-15
41
1
10
-0.2499809471623
20
-16.2693265671366
30
1E-15
0
SPLINE
5
186
100
AcDbEntity
8
1
62
256
6
ByLayer
370
18
48
1
60
0
100
AcDbSpline
70
4
71
3
72
8
73
4
40
0
40
0
40
0
40
0
40
1
40
1
40
1
40
1
41
1
10
0.342769052837696
20
-15.9271021950744
30
1E-15
41
1
10
0.132896815744715
20
-16.0482719876555
30
1E-15
41
1
10
-0.0648365548919401
20
-16.1624334024203
30
1E-15
41
1
10
-0.249980947162328
20
-16.2693265671366
30
1E-15
0
SPLINE
5
187
100
AcDbEntity
8
1
62
256
6
ByLayer
370
18
48
1
60
0
100
AcDbSpline
70
4
71
3
72
26
73
22
40
0
40
0
40
0
40
0
40
0.0312499999999991
40
0.0312499999999991
40
0.0624999999999982
40
0.0624999999999982
40
0.0937499999999973
40
0.0937499999999973
40
0.124999999999996
40
0.124999999999996
40
0.1875
40
0.1875
40
0.250000000000004
40
0.250000000000004
40
0.375000000000003
40
0.375000000000003
40
0.500000000000003
40
0.500000000000003
40
0.750000000000001
40
0.750000000000001
40
1
40
1
40
1
40
1
41
1
10
0.342769052837696
20
-15.5728978049266
30
1E-15
41
1
10
0.349594124357111
20
-15.5768382618056
30
1E-15
41
1
10
0.356954877170381
20
-15.581588553807
30
1E-15
41
1
10
0.372789901199269
20
-15.5937177583007
30
1E-15
41
1
10
0.381285818619631
20
-15.6011915260064
30
1E-15
41
1
10
0.397454220775955
20
-15.61835427335
30
1E-15
41
1
10
0.404609871673358
20
-15.6275380928639
30
1E-15
41
1
10
0.415901574080436
20
-15.644341650741
30
1E-15
41
1
10
0.420288786491028
20
-15.6521867818635
30
1E-15
41
1
10
0.430951862659526
20
-15.6737574524053
30
1E-15
41
1
10
0.435119125429509
20
-15.6860916729496
30
1E-15
41
1
10
0.441074256373355
20
-15.708393836347
30
1E-15
41
1
10
0.442799242141803
20
-15.718474170716
30
1E-15
41
1
10
0.445882914633472
20
-15.7469103630906
30
1E-15
41
1
10
0.445142323118745
20
-15.7632161318625
30
1E-15
41
1
10
0.441022492344018
20
-15.7929385564276
30
1E-15
41
1
10
0.43754577643864
20
-15.8063404779241
30
1E-15
41
1
10
0.424260602355702
20
-15.843559660341
30
1E-15
41
1
10
0.411612191613045
20
-15.8644703135806
30
1E-15
41
1
10
0.381069122414829
20
-15.900406092859
30
1E-15
41
1
10
0.363218614943008
20
-15.9152956348881
30
1E-15
41
1
10
0.342769052837696
20
-15.9271021950744
30
1E-15
0
SPLINE
5
188
100
AcDbEntity
8
1
62
256
6
ByLayer
370
18
48
1
60
0
100
AcDbSpline
70
4
71
3
72
8
73
4
40
0
40
0
40
0
40
0
40
1
40
1
40
1
40
1
41
1
10
-0.249980947169576
20
-15.2306734328603
30
9E-16
41
1
10
-0.0534841279743148
20
-15.3441209243176
30
9E-16
41
1
10
0.144124364078323
20
-15.4582102403983
30
9E-16
41
1
10
0.342769052837696
20
-15.5728978049266
30
1E-15
0
SPLINE
5
189
100
AcDbEntity
8
1
62
256
6
ByLayer
370
18
48
1
60
0
100
AcDbSpline
70
4
71
3
72
18
73
14
40
0
40
0
40
0
40
0
40
0.125000000000008
40
0.125000000000008
40
0.250000000000017
40
0.250000000000017
40
0.375000000000025
40
0.375000000000025
40
0.500000000000034
40
0.500000000000034
40
0.750000000000017
40
0.750000000000017
40
1
40
1
40
1
40
1
41
1
10
-0.249980947170002
20
-15.23067343286
30
9E-16
41
1
10
-0.25608115446687
20
-15.2271514765345
30
9E-16
41
1
10
-0.262717445722842
20
-15.2227905443198
30
9E-16
41
1
10
-0.277142436187404
20
-15.2109958839189
30
9E-16
41
1
10
-0.285001470130226
20
-15.2032301173292
30
9E-16
41
1
10
-0.297781574312154
20
-15.1875029750974
30
9E-16
41
1
10
-0.302626773519535
20
-15.1799265663388
30
9E-16
41
1
10
-0.310060604036579
20
-15.1664412681969
30
9E-16
41
1
10
-0.312734553914481
20
-15.1604407626022
30
9E-16
41
1
10
-0.319279714210666
20
-15.1434857839016
30
9E-16
41
1
10
-0.321537832798924
20
-15.1339462395643
30
9E-16
41
1
10
-0.324437343073413
20
-15.116338642243
30
9E-16
41
1
10
-0.324980944829264
20
-15.1083205516152
30
9E-16
41
1
10
-0.324980947163453
20
-15.1007696686661
30
9E-16
0
SPLINE
5
18A
100
AcDbEntity
8
1
62
256
6
ByLayer
370
18
48
1
60
0
100
AcDbSpline
70
4
71
3
72
12
73
8
40
0
40
0
40
0
40
0
40
0.249999999999995
40
0.249999999999995
40
0.49999999999999
40
0.49999999999999
40
1
40
1
40
1
40
1
41
1
10
-0.324980947163567
20
-14.899230377703
30
9E-16
41
1
10
-0.324980947163425
20
-14.8822327202228
30
9E-16
41
1
10
-0.32230376507303
20
-14.8679024610089
30
9E-16
41
1
10
-0.314253239814889
20
-14.8418833678352
30
9E-16
41
1
10
-0.308779232189892
20
-14.8302966226748
30
9E-16
41
1
10
-0.289069242120718
20
-14.7987354246538
30
9E-16
41
1
10
-0.271567465530211
20
-14.7817895493245
30
9E-16
41
1
10
-0.24998094716392
20
-14.7693265671348
30
9E-16
0
SPLINE
5
18B
100
AcDbEntity
8
1
62
256
6
ByLayer
370
18
48
1
60
0
100
AcDbSpline
70
4
71
3
72
8
73
4
40
0
40
0
40
0
40
0
40
1
40
1
40
1
40
1
41
1
10
0.342769052839088
20
-14.4271021950736
30
9E-16
41
1
10
0.136951465370828
20
-14.5459310346024
30
9E-16
41
1
10
-0.0607307434442248
20
-14.6600629110758
30
9E-16
41
1
10
-0.249980947162328
20
-14.7693265671366
30
9E-16
0
SPLINE
5
18C
100
AcDbEntity
8
1
62
256
6
ByLayer
370
18
48
1
60
0
100
AcDbSpline
70
4
71
3
72
24
73
20
40
0
40
0
40
0
40
0
40
0.062500000000001
40
0.062500000000001
40
0.0937500000000025
40
0.0937500000000025
40
0.125000000000004
40
0.125000000000004
40
0.187500000000009
40
0.187500000000009
40
0.250000000000014
40
0.250000000000014
40
0.375000000000015
40
0.375000000000015
40
0.500000000000016
40
0.500000000000016
40
0.750000000000008
40
0.750000000000008
40
1
40
1
40
1
40
1
41
1
10
0.342769052834029
20
-14.0728978049185
30
9E-16
41
1
10
0.355492163966233
20
-14.080243496555
30
9E-16
41
1
10
0.370101104686
20
-14.0905168173624
30
9E-16
41
1
10
0.391579881066036
20
-14.1117885239887
30
9E-16
41
1
10
0.398484982043556
20
-14.1197537295979
30
9E-16
41
1
10
0.410274648123249
20
-14.1355431801386
30
9E-16
41
1
10
0.415157671610473
20
-14.1432678560087
30
9E-16
41
1
10
0.427372229455955
20
-14.1652254088811
30
9E-16
41
1
10
0.432321891039351
20
-14.1780120112323
30
9E-16
41
1
10
0.43954950873578
20
-14.2014461443956
30
9E-16
41
1
10
0.441681157636509
20
-14.211896701411
30
9E-16
41
1
10
0.445788200762138
20
-14.2412797940193
30
9E-16
41
1
10
0.445442817617391
20
-14.2583164448058
30
9E-16
41
1
10
0.441818702447051
20
-14.289260204952
30
9E-16
41
1
10
0.438463981016469
20
-14.3031082300088
30
9E-16
41
1
10
0.425407582487992
20
-14.3414669139587
30
9E-16
41
1
10
0.412753784859149
20
-14.362833423324
30
9E-16
41
1
10
0.38195144831036
20
-14.3996431149249
30
9E-16
41
1
10
0.363680833356597
20
-14.4150287729633
30
9E-16
41
1
10
0.342769052839628
20
-14.4271021950742
30
9E-16
0
SPLINE
5
18D
100
AcDbEntity
8
1
62
256
6
ByLayer
370
18
48
1
60
0
100
AcDbSpline
70
4
71
3
72
8
73
4
40
0
40
0
40
0
40
0
40
1
40
1
40
1
40
1
41
1
10
-0.249980947183985
20
-13.7306734328519
30
8E-16
41
1
10
-0.0530000040884602
20
-13.8444004333734
30
8E-16
41
1
10
0.144595422321288
20
-13.9584822060017
30
9E-16
41
1
10
0.342769052837696
20
-14.0728978049266
30
9E-16
0
SPLINE
5
18E
100
AcDbEntity
8
1
62
256
6
ByLayer
370
18
48
1
60
0
100
AcDbSpline
70
4
71
3
72
18
73
14
40
0
40
0
40
0
40
0
40
0.125000000000004
40
0.125000000000004
40
0.250000000000007
40
0.250000000000007
40
0.375000000000011
40
0.375000000000011
40
0.500000000000014
40
0.500000000000014
40
0.750000000000007
40
0.750000000000007
40
1
40
1
40
1
40
1
41
1
10
-0.249980947185946
20
-13.7306734328508
30
8E-16
41
1
10
-0.255879787461993
20
-13.7272677358281
30
8E-16
41
1
10
-0.262132384433784
20
-13.7231502516315
30
8E-16
41
1
10
-0.275412231696976
20
-13.7125101634695
30
8E-16
41
1
10
-0.282361551213569
20
-13.7059304146119
30
8E-16
41
1
10
-0.294715763794187
20
-13.6916154260133
30
8E-16
41
1
10
-0.299993431988526
20
-13.6840478259875
30
8E-16
41
1
10
-0.308106196544401
20
-13.6703472663308
30
8E-16
41
1
10
-0.31118953250467
20
-13.6639225594939
30
8E-16
41
1
10
-0.318524863890559
20
-13.6461505958503
30
8E-16
41
1
10
-0.3211298140628
20
-13.6358528996723
30
8E-16
41
1
10
-0.324389075210774
20
-13.6171262393296
30
8E-16
41
1
10
-0.324980944659501
20
-13.6086863494076
30
8E-16
41
1
10
-0.324980947162317
20
-13.6007696697185
30
8E-16
0
SPLINE
5
18F
100
AcDbEntity
8
1
62
256
6
ByLayer
370
18
48
1
60
0
100
AcDbSpline
70
4
71
3
72
12
73
8
40
0
40
0
40
0
40
0
40
0.25
40
0.25
40
0.5
40
0.5
40
1
40
1
40
1
40
1
41
1
10
-0.324980947162317
20
-13.3992303777042
30
8E-16
41
1
10
-0.324980947162317
20
-13.3823326876345
30
8E-16
41
1
10
-0.322317549925828
20
-13.3679129498832
30
8E-16
41
1
10
-0.314174146944026
20
-13.3416620797118
30
8E-16
41
1
10
-0.308592611466821
20
-13.3299280767305
30
8E-16
41
1
10
-0.288720362394486
20
-13.2983200786434
30
8E-16
41
1
10
-0.271353500687127
20
-13.2816660166674
30
8E-16
41
1
10
-0.249980947162328
20
-13.2693265671366
30
8E-16
0
SPLINE
5
190
100
AcDbEntity
8
1
62
256
6
ByLayer
370
18
48
1
60
0
100
AcDbSpline
70
4
71
3
72
8
73
4
40
0
40
0
40
0
40
0
40
1
40
1
40
1
40
1
41
1
10
0.342769052838804
20
-12.9271021950738
30
8E-16
41
1
10
0.139093450172368
20
-13.0446943591006
30
8E-16
41
1
10
-0.0585614418597515
20
-13.158810464222
30
8E-16
41
1
10
-0.249980947162328
20
-13.2693265671366
30
8E-16
0
SPLINE
5
191
100
AcDbEntity
8
1
62
256
6
ByLayer
370
18
48
1
60
0
100
AcDbSpline
70
4
71
3
72
22
73
18
40
0
40
0
40
0
40
0
40
0.0625000000000027
40
0.0625000000000027
40
0.125000000000005
40
0.125000000000005
40
0.187500000000008
40
0.187500000000008
40
0.250000000000011
40
0.250000000000011
40
0.37500000000001
40
0.37500000000001
40
0.500000000000009
40
0.500000000000009
40
0.750000000000004
40
0.750000000000004
40
1
40
1
40
1
40
1
41
1
10
0.342769052837667
20
-12.5728978049266
30
8E-16
41
1
10
0.354608181838728
20
-12.5797331292423
30
8E-16
41
1
10
0.367641788103356
20
-12.5887969509664
30
8E-16
41
1
10
0.393933820836708
20
-12.6135796136972
30
8E-16
41
1
10
0.406050000047173
20
-12.6287545714001
30
8E-16
41
1
10
0.423576796837068
20
-12.6573133731205
30
8E-16
41
1
10
0.429373222380036
20
-12.6705238773512
30
8E-16
41
1
10
0.437772772863212
20
-12.6945624553129
30
8E-16
41
1
10
0.440407220383122
20
-12.7055989539014
30
8E-16
41
1
10
0.445588571767701
20
-12.7361193630095
30
8E-16
41
1
10
0.445625738411252
20
-12.753577383583
30
8E-16
41
1
10
0.442516530023084
20
-12.7857570881231
30
8E-16
41
1
10
0.439280452881064
20
-12.8000626434383
30
8E-16
41
1
10
0.426421000814457
20
-12.8396056103111
30
8E-16
41
1
10
0.413679423890244
20
-12.8615037472982
30
8E-16
41
1
10
0.382525012516936
20
-12.8991707316474
30
8E-16
41
1
10
0.363925974973171
20
-12.9148872403841
30
8E-16
41
1
10
0.342769052838861
20
-12.9271021950738
30
8E-16
0
SPLINE
5
192
100
AcDbEntity
8
1
62
256
6
ByLayer
370
18
48
1
60
0
100
AcDbSpline
70
4
71
3
72
8
73
4
40
0
40
0
40
0
40
0
40
1
40
1
40
1
40
1
41
1
10
-0.24998094710736
20
-12.2306734328962
30
7E-16
41
1
10
-0.0527632893811756
20
-12.3445371006733
30
8E-16
41
1
10
0.144826582215899
20
-12.458615666229
30
8E-16
41
1
10
0.342769052837667
20
-12.5728978049266
30
8E-16
0
SPLINE
5
193
100
AcDbEntity
8
1
62
256
6
ByLayer
370
18
48
1
60
0
100
AcDbSpline
70
4
71
3
72
18
73
14
40
0
40
0
40
0
40
0
40
0.125000000000004
40
0.125000000000004
40
0.250000000000008
40
0.250000000000008
40
0.375000000000013
40
0.375000000000013
40
0.500000000000017
40
0.500000000000017
40
0.750000000000009
40
0.750000000000009
40
1
40
1
40
1
40
1
41
1
10
-0.24998094710665
20
-12.2306734328966
30
7E-16
41
1
10
-0.25563394517215
20
-12.227409672945
30
7E-16
41
1
10
-0.261545722399376
20
-12.2235307522804
30
7E-16
41
1
10
-0.274089073361807
20
-12.2136471429461
30
7E-16
41
1
10
-0.280558475671995
20
-12.2076881627035
30
7E-16
41
1
10
-0.29238920261966
20
-12.1945432345732
30
7E-16
41
1
10
-0.297726742186654
20
-12.1873734755303
30
7E-16
41
1
10
-0.306407273047938
20
-12.1735286661006
30
7E-16
41
1
10
-0.309705607901776
20
-12.1670655127176
30
7E-16
41
1
10
-0.317845872191924
20
-12.1484469794853
30
7E-16
41
1
10
-0.320694136903938
20
-12.1377750261154
30
7E-16
41
1
10
-0.324336623178738
20
-12.1179339928982
30
7E-16
41
1
10
-0.324980944533024
20
-12.1090654184489
30
7E-16
41
1
10
-0.324980947162317
20
-12.1007696698381
30
7E-16
0
SPLINE
5
194
100
AcDbEntity
8
1
62
256
6
ByLayer
370
18
48
1
60
0
100
AcDbSpline
70
4
71
3
72
12
73
8
40
0
40
0
40
0
40
0
40
0.250000000000006
40
0.250000000000006
40
0.500000000000012
40
0.500000000000012
40
1
40
1
40
1
40
1
41
1
10
-0.324980947162317
20
-11.8992303777039
30
7E-16
41
1
10
-0.324980947162288
20
-11.8822810726525
30
7E-16
41
1
10
-0.322258331789044
20
-11.8676586519622
30
7E-16
41
1
10
-0.314110184967205
20
-11.8415202652745
30
7E-16
41
1
10
-0.308588305167404
20
-11.8299276392257
30
7E-16
41
1
10
-0.288794763920464
20
-11.7984256267753
30
7E-16
41
1
10
-0.271268222819913
20
-11.7816167814676
30
7E-16
41
1
10
-0.249980947162442
20
-11.7693265671364
30
7E-16
0
SPLINE
5
195
100
AcDbEntity
8
1
62
256
6
ByLayer
370
18
48
1
60
0
100
AcDbSpline
70
4
71
3
72
8
73
4
40
0
40
0
40
0
40
0
40
1
40
1
40
1
40
1
41
1
10
0.342769052837696
20
-11.4271021950744
30
7E-16
41
1
10
0.140428826570229
20
-11.5439233791778
30
7E-16
41
1
10
-0.0572098387462177
20
-11.6580301158006
30
7E-16
41
1
10
-0.249980947162328
20
-11.7693265671366
30
7E-16
0
SPLINE
5
196
100
AcDbEntity
8
1
62
256
6
ByLayer
370
18
48
1
60
0
100
AcDbSpline
70
4
71
3
72
22
73
18
40
0
40
0
40
0
40
0
40
0.0625000000000023
40
0.0625000000000023
40
0.125000000000004
40
0.125000000000004
40
0.187500000000007
40
0.187500000000007
40
0.250000000000009
40
0.250000000000009
40
0.375000000000004
40
0.375000000000004
40
0.499999999999998
40
0.499999999999998
40
0.749999999999999
40
0.749999999999999
40
1
40
1
40
1
40
1
41
1
10
0.342769052837667
20
-11.0728978049266
30
7E-16
41
1
10
0.354050595450559
20
-11.079411206591
30
7E-16
41
1
10
0.366209629256673
20
-11.0878490587064
30
7E-16
41
1
10
0.390520771895069
20
-11.1100338146451
30
7E-16
41
1
10
0.402179577388949
20
-11.1236871566767
30
7E-16
41
1
10
0.42023907538632
20
-11.1510567178543
30
7E-16
41
1
10
0.426716865429569
20
-11.1644252779563
30
7E-16
41
1
10
0.436131893585781
20
-11.1889403979595
30
7E-16
41
1
10
0.439120072138593
20
-11.2000710535241
30
7E-16
41
1
10
0.445319628397641
20
-11.2316415550315
30
7E-16
41
1
10
0.445676858959047
20
-11.2496418556068
30
7E-16
41
1
10
0.44310575387513
20
-11.2823802755198
30
7E-16
41
1
10
0.440018994658004
20
-11.2971638179413
30
7E-16
41
1
10
0.427264174779054
20
-11.3381142409968
30
7E-16
41
1
10
0.414383428422866
20
-11.360475877901
30
7E-16
41
1
10
0.382981648138951
20
-11.3987889432575
30
7E-16
41
1
10
0.364323351057607
20
-11.4146578151949
30
7E-16
41
1
10
0.342769052837696
20
-11.4271021950744
30
7E-16
0
SPLINE
5
197
100
AcDbEntity
8
1
62
256
6
ByLayer
370
18
48
1
60
0
100
AcDbSpline
70
4
71
3
72
8
73
4
40
0
40
0
40
0
40
0
40
1
40
1
40
1
40
1
41
1
10
-0.2499809471623
20
-10.7306734328644
30
7E-16
41
1
10
-0.0526311005802711
20
-10.8446134199131
30
7E-16
41
1
10
0.1449564026845
20
-10.9586906181116
30
7E-16
41
1
10
0.342769052837696
20
-11.0728978049266
30
7E-16
0
SPLINE
5
198
100
AcDbEntity
8
1
62
256
6
ByLayer
370
18
48
1
60
0
100
AcDbSpline
70
4
71
3
72
14
73
10
40
0
40
0
40
0
40
0
40
0.25
40
0.25
40
0.5
40
0.5
40
0.75
40
0.75
40
1
40
1
40
1
40
1
41
1
10
-0.249980947162271
20
-10.7306734328646
30
7E-16
41
1
10
-0.26117045454933
20
-10.7242131677626
30
7E-16
41
1
10
-0.273714893758807
20
-10.7149334060334
30
7E-16
41
1
10
-0.296507637463264
20
-10.6902851252673
30
7E-16
41
1
10
-0.305604265762923
20
-10.6757872382096
30
7E-16
41
1
10
-0.317090744545396
20
-10.6507185917278
30
7E-16
41
1
10
-0.32029541658855
20
-10.6394071207658
30
7E-16
41
1
10
-0.3242485784819
20
-10.6188893781675
30
7E-16
41
1
10
-0.324980944493461
20
-10.6094813158662
30
6E-16
41
1
10
-0.324980947162317
20
-10.60076966825
30
6E-16
0
SPLINE
5
199
100
AcDbEntity
8
1
62
256
6
ByLayer
370
18
48
1
60
0
100
AcDbSpline
70
4
71
3
72
12
73
8
40
0
40
0
40
0
40
0
40
0.249999999999999
40
0.249999999999999
40
0.499999999999998
40
0.499999999999998
40
1
40
1
40
1
40
1
41
1
10
-0.324980947162317
20
-10.3992303777083
30
6E-16
41
1
10
-0.3249809471628
20
-10.3821603863725
30
6E-16
41
1
10
-0.322272682190743
20
-10.3677132137605
30
6E-16
41
1
10
-0.314112329533401
20
-10.3415186347896
30
6E-16
41
1
10
-0.308560266703182
20
-10.3298545571443
30
6E-16
41
1
10
-0.288558618446643
20
-10.2981073391076
30
6E-16
41
1
10
-0.271062951513613
20
-10.2814982680238
30
6E-16
41
1
10
-0.249980947162328
20
-10.2693265671366
30
6E-16
0
SPLINE
5
19A
100
AcDbEntity
8
1
62
256
6
ByLayer
370
18
48
1
60
0
100
AcDbSpline
70
4
71
3
72
8
73
4
40
0
40
0
40
0
40
0
40
1
40
1
40
1
40
1
41
1
10
0.34276905283761
20
-9.92710219507447
30
6E-16
41
1
10
0.200228104509392
20
-10.0093982499623
30
6E-16
41
1
10
0.0693189021612284
20
-10.0849787131774
30
6E-16
41
1
10
-0.0469703231323706
20
-10.1521183287045
30
6E-16
0
SPLINE
5
19B
100
AcDbEntity
8
1
62
256
6
ByLayer
370
18
48
1
60
0
100
AcDbSpline
70
4
71
3
72
18
73
14
40
0
40
0
40
0
40
0
40
0.124999999999994
40
0.124999999999994
40
0.249999999999987
40
0.249999999999987
40
0.374999999999981
40
0.374999999999981
40
0.499999999999974
40
0.499999999999974
40
0.749999999999987
40
0.749999999999987
40
1
40
1
40
1
40
1
41
1
10
0.342769052837184
20
-9.57289780492411
30
6E-16
41
1
10
0.361659745427971
20
-9.58380435137636
30
6E-16
41
1
10
0.381427263361303
20
-9.59943461143908
30
6E-16
41
1
10
0.415201412961693
20
-9.64040468492215
30
6E-16
41
1
10
0.428156283128345
20
-9.66518180396088
30
6E-16
41
1
10
0.442739500660053
20
-9.71115740671578
30
6E-16
41
1
10
0.445111268804538
20
-9.7321630518197
30
6E-16
41
1
10
0.444921672840792
20
-9.76989222185983
30
6E-16
41
1
10
0.442344734562852
20
-9.78660417650903
30
6E-16
41
1
10
0.430207127452746
20
-9.83277421407465
30
6E-16
41
1
10
0.416682839154305
20
-9.85712203954122
30
6E-16
41
1
10
0.383930349616009
20
-9.8981283596118
30
6E-16
41
1
10
0.36445180169369
20
-9.91458365418632
30
6E-16
41
1
10
0.342769052838037
20
-9.92710219507489
30
6E-16
0
SPLINE
5
19C
100
AcDbEntity
8
1
62
256
6
ByLayer
370
18
48
1
60
0
100
AcDbSpline
70
4
71
3
72
8
73
4
40
0
40
0
40
0
40
0
40
1
40
1
40
1
40
1
41
1
10
-0.249980947161987
20
-9.23067343286462
30
6E-16
41
1
10
-0.0525671006121229
20
-9.34465037031197
30
6E-16
41
1
10
0.14503595211994
20
-9.4587365459995
30
6E-16
41
1
10
0.342769052837753
20
-9.57289780492664
30
6E-16
0
SPLINE
5
19D
100
AcDbEntity
8
1
62
256
6
ByLayer
370
18
48
1
60
0
100
AcDbSpline
70
4
71
3
72
14
73
10
40
0
40
0
40
0
40
0
40
0.25
40
0.25
40
0.5
40
0.5
40
0.75
40
0.75
40
1
40
1
40
1
40
1
41
1
10
-0.249980947161731
20
-9.23067343286664
30
6E-16
41
1
10
-0.26024416492308
20
-9.22474796132951
30
6E-16
41
1
10
-0.270778577523203
20
-9.21705150636566
30
6E-16
41
1
10
-0.290763328837045
20
-9.19717036212327
30
6E-16
41
1
10
-0.299849915216356
20
-9.18511528382115
30
6E-16
41
1
10
-0.313591135543675
20
-9.15987685939805
30
6E-16
41
1
10
-0.318241784057648
20
-9.1469423513071
30
6E-16
41
1
10
-0.3239004891403
20
-9.12264559791558
30
6E-16
41
1
10
-0.324980945088811
20
-9.11142868840281
30
6E-16
41
1
10
-0.324980947162317
20
-9.10076965147658
30
6E-16
0
SPLINE
5
19E
100
AcDbEntity
8
1
62
256
6
ByLayer
370
18
48
1
60
0
100
AcDbSpline
70
4
71
3
72
10
73
6
40
0
40
0
40
0
40
0
40
0.5
40
0.5
40
1
40
1
40
1
40
1
41
1
10
-0.324980947162317
20
-8.89923037769265
30
5E-16
41
1
10
-0.324980947159787
20
-8.86655406122426
30
5E-16
41
1
10
-0.315260525494921
20
-8.84047279882199
30
5E-16
41
1
10
-0.288469123361693
20
-8.79798193556206
30
5E-16
41
1
10
-0.270641110942393
20
-8.78125471825607
30
5E-16
41
1
10
-0.24998094716247
20
-8.76932656713623
30
5E-16
0
SPLINE
5
19F
100
AcDbEntity
8
1
62
256
6
ByLayer
370
18
48
1
60
0
100
AcDbSpline
70
4
71
3
72
8
73
4
40
0
40
0
40
0
40
0
40
1
40
1
40
1
40
1
41
1
10
0.342769052837753
20
-8.42710219507438
30
5E-16
41
1
10
0.136066482638228
20
-8.54644197962128
30
5E-16
41
1
10
-0.0625363391948497
20
-8.66110537226842
30
5E-16
41
1
10
-0.249980947162271
20
-8.76932656713657
30
5E-16
0
SPLINE
5
1A0
100
AcDbEntity
8
1
62
256
6
ByLayer
370
18
48
1
60
0
100
AcDbSpline
70
4
71
3
72
20
73
16
40
0
40
0
40
0
40
0
40
0.124999999999996
40
0.124999999999996
40
0.249999999999992
40
0.249999999999992
40
0.374999999999987
40
0.374999999999987
40
0.499999999999983
40
0.499999999999983
40
0.624999999999979
40
0.624999999999979
40
0.749999999999974
40
0.749999999999974
40
1
40
1
40
1
40
1
41
1
10
0.342769052837809
20
-8.07289780491951
30
5E-16
41
1
10
0.358292509143894
20
-8.08186027659622
30
5E-16
41
1
10
0.373840112707569
20
-8.09359617355861
30
5E-16
41
1
10
0.402117274926695
20
-8.12302489792074
30
5E-16
41
1
10
0.414983786794295
20
-8.14098160453869
30
5E-16
41
1
10
0.434460540702645
20
-8.18137308670592
30
5E-16
41
1
10
0.440646639175554
20
-8.20301629896821
30
5E-16
41
1
10
0.446015310824777
20
-8.24454042772604
30
5E-16
41
1
10
0.445321800639078
20
-8.26441983775626
30
5E-16
41
1
10
0.439548347043342
20
-8.30039282960851
30
5E-16
41
1
10
0.434428159406309
20
-8.31691561693833
30
5E-16
41
1
10
0.42159742372408
20
-8.34637979558832
30
5E-16
41
1
10
0.413807258684443
20
-8.35960033832532
30
5E-16
41
1
10
0.387312012958432
20
-8.39544835043802
30
5E-16
41
1
10
0.366333953145585
20
-8.41349699353839
30
5E-16
41
1
10
0.342769052837838
20
-8.42710219507453
30
5E-16
0
SPLINE
5
1A1
100
AcDbEntity
8
1
62
256
6
ByLayer
370
18
48
1
60
0
100
AcDbSpline
70
4
71
3
72
8
73
4
40
0
40
0
40
0
40
0
40
1
40
1
40
1
40
1
41
1
10
-0.249980947162271
20
-7.73067343286448
30
5E-16
41
1
10
-0.0525430838773389
20
-7.84466423638025
30
5E-16
41
1
10
0.145053884699365
20
-7.95874689937907
30
5E-16
41
1
10
0.342769052837753
20
-8.07289780492664
30
5E-16
0
SPLINE
5
1A2
100
AcDbEntity
8
1
62
256
6
ByLayer
370
18
48
1
60
0
100
AcDbSpline
70
4
71
3
72
12
73
8
40
0
40
0
40
0
40
0
40
0.500000000000018
40
0.500000000000018
40
0.750000000000009
40
0.750000000000009
40
1
40
1
40
1
40
1
41
1
10
-0.249980947162612
20
-7.7306734328657
30
5E-16
41
1
10
-0.269423441542898
20
-7.71944830350159
30
5E-16
41
1
10
-0.289029564076515
20
-7.70196041488782
30
5E-16
41
1
10
-0.31029726208277
20
-7.66692217929696
30
5E-16
41
1
10
-0.315981866199877
20
-7.65376622660952
30
5E-16
41
1
10
-0.323277724086324
20
-7.627188653166
30
5E-16
41
1
10
-0.324980946026216
20
-7.61364114856832
30
5E-16
41
1
10
-0.324980947162317
20
-7.60076963553647
30
5E-16
0
SPLINE
5
1A3
100
AcDbEntity
8
1
62
256
6
ByLayer
370
18
48
1
60
0
100
AcDbSpline
70
4
71
3
72
12
73
8
40
0
40
0
40
0
40
0
40
0.250000000000002
40
0.250000000000002
40
0.500000000000004
40
0.500000000000004
40
1
40
1
40
1
40
1
41
1
10
-0.324980947163425
20
-7.399230377702
30
5E-16
41
1
10
-0.324980947163169
20
-7.38337657086797
30
5E-16
41
1
10
-0.322450175693632
20
-7.36837825477286
30
5E-16
41
1
10
-0.314111654910704
20
-7.34142317214628
30
4E-16
41
1
10
-0.308330050424445
20
-7.3293531005022
30
4E-16
41
1
10
-0.28760955100168
20
-7.29688749110679
30
4E-16
41
1
10
-0.269931169712095
20
-7.28084483349608
30
4E-16
41
1
10
-0.249980947162271
20
-7.26932656713655
30
4E-16
0
SPLINE
5
1A4
100
AcDbEntity
8
1
62
256
6
ByLayer
370
18
48
1
60
0
100
AcDbSpline
70
4
71
3
72
8
73
4
40
0
40
0
40
0
40
0
40
1
40
1
40
1
40
1
41
1
10
0.342769052829141
20
-6.92710219507936
30
4E-16
41
1
10
0.141559860418852
20
-7.04327037648085
30
4E-16
41
1
10
-0.0563906484613881
20
-7.15755715606909
30
4E-16
41
1
10
-0.249980947162271
20
-7.26932656713655
30
4E-16
0
SPLINE
5
1A5
100
AcDbEntity
8
1
62
256
6
ByLayer
370
18
48
1
60
0
100
AcDbSpline
70
4
71
3
72
18
73
14
40
0
40
0
40
0
40
0
40
0.249999999999983
40
0.249999999999983
40
0.374999999999982
40
0.374999999999982
40
0.49999999999998
40
0.49999999999998
40
0.624999999999979
40
0.624999999999979
40
0.749999999999977
40
0.749999999999977
40
1
40
1
40
1
40
1
41
1
10
0.342769052838918
20
-6.57289780491962
30
4E-16
41
1
10
0.370516593263261
20
-6.58891785485255
30
4E-16
41
1
10
0.397303986571529
20
-6.61292698995143
30
4E-16
41
1
10
0.427069711748572
20
-6.66393798432361
30
4E-16
41
1
10
0.434841942705475
20
-6.68302567681945
30
4E-16
41
1
10
0.44431014722062
20
-6.72323929480905
30
4E-16
41
1
10
0.445902567673443
20
-6.74420182497201
30
4E-16
41
1
10
0.443169313479245
20
-6.78389511560513
30
4E-16
41
1
10
0.438900918788533
20
-6.80280522841429
30
4E-16
41
1
10
0.426637846289879
20
-6.83662304318116
30
4E-16
41
1
10
0.418504222062609
20
-6.85201367673625
30
4E-16
41
1
10
0.390918604962508
20
-6.89234207927893
30
4E-16
41
1
10
0.367782685191713
20
-6.91266056770365
30
4E-16
41
1
10
0.342769052829056
20
-6.92710219507995
30
4E-16
0
SPLINE
5
1A6
100
AcDbEntity
8
1
62
256
6
ByLayer
370
18
48
1
60
0
100
AcDbSpline
70
4
71
3
72
8
73
4
40
0
40
0
40
0
40
0
40
1
40
1
40
1
40
1
41
1
10
-0.249980947162271
20
-6.23067343286448
30
4E-16
41
1
10
-0.0532711848783549
20
-6.34424386707133
30
4E-16
41
1
10
0.144388484029605
20
-6.45836273012327
30
4E-16
41
1
10
0.342769052837753
20
-6.57289780492664
30
4E-16
0
SPLINE
5
1A7
100
AcDbEntity
8
1
62
256
6
ByLayer
370
18
48
1
60
0
100
AcDbSpline
70
4
71
3
72
10
73
6
40
0
40
0
40
0
40
0
40
0.5
40
0.5
40
1
40
1
40
1
40
1
41
1
10
-0.249980947162356
20
-6.23067343286442
30
4E-16
41
1
10
-0.2692213016349
20
-6.21956500903039
30
4E-16
41
1
10
-0.287683543962231
20
-6.20323581555795
30
4E-16
41
1
10
-0.315955426926308
20
-6.15845317404381
30
4E-16
41
1
10
-0.324980948529259
20
-6.12971339378666
30
4E-16
41
1
10
-0.324980947162317
20
-6.10076961521273
30
4E-16
0
SPLINE
5
1A8
100
AcDbEntity
8
1
62
256
6
ByLayer
370
18
48
1
60
0
100
AcDbSpline
70
4
71
3
72
10
73
6
40
0
40
0
40
0
40
0
40
0.5
40
0.5
40
1
40
1
40
1
40
1
41
1
10
-0.324980947162317
20
-5.89923037770427
30
4E-16
41
1
10
-0.324980947162317
20
-5.8692598015019
30
4E-16
41
1
10
-0.315419205835724
20
-5.84050503820669
30
4E-16
41
1
10
-0.287575493107539
20
-5.79678996467447
30
4E-16
41
1
10
-0.26942301605709
20
-5.78055145084653
30
4E-16
41
1
10
-0.2499809471623
20
-5.76932656713652
30
4E-16
0
SPLINE
5
1A9
100
AcDbEntity
8
1
62
256
6
ByLayer
370
18
48
1
60
0
100
AcDbSpline
70
4
71
3
72
8
73
4
40
0
40
0
40
0
40
0
40
1
40
1
40
1
40
1
41
1
10
0.499999999999346
20
-19.9275844679401
30
-1E-16
41
1
10
0.269189935618726
20
-19.6970895228471
30
-1E-16
41
1
10
0.0383798781588212
20
-19.4665945708429
30
-1E-16
41
1
10
-0.192430172135147
20
-19.2360996116826
30
-2E-16
0
SPLINE
5
1AA
100
AcDbEntity
8
1
62
256
6
ByLayer
370
18
48
1
60
0
100
AcDbSpline
70
4
71
3
72
20
73
16
40
0
40
0
40
0
40
0
40
0.249999999999997
40
0.249999999999997
40
0.312499999999996
40
0.312499999999996
40
0.374999999999995
40
0.374999999999995
40
0.499999999999996
40
0.499999999999996
40
0.624999999999996
40
0.624999999999996
40
0.749999999999997
40
0.749999999999997
40
1
40
1
40
1
40
1
41
1
10
15.7380802730181
20
-22.0000000000005
30
1.3E-15
41
1
10
15.7380802730181
20
-21.5058002242118
30
1.3E-15
41
1
10
15.7277203374395
20
-21.0218583920438
30
1.3E-15
41
1
10
15.7019914272406
20
-20.4292923054872
30
1.3E-15
41
1
10
15.6961957019621
20
-20.3114057465908
30
1.2E-15
41
1
10
15.6832639638899
20
-20.0769090312488
30
1.2E-15
41
1
10
15.6761019781919
20
-19.9599619164659
30
1.2E-15
41
1
10
15.6528277234695
20
-19.6154281355451
30
1.2E-15
41
1
10
15.6348937597333
20
-19.3930740750037
30
1.2E-15
41
1
10
15.5941599928222
20
-18.9625693628342
30
1.2E-15
41
1
10
15.5713602282151
20
-18.7544199238122
30
1.1E-15
41
1
10
15.5206221841516
20
-18.3524801262793
30
1.1E-15
41
1
10
15.4924978391414
20
-18.1577506874801
30
1.1E-15
41
1
10
15.4018704742295
20
-17.6087845990256
30
1.1E-15
41
1
10
15.3328940749979
20
-17.2856280767086
30
1.1E-15
41
1
10
15.2543121035909
20
-17.0055729085719
30
1E-15
0
SPLINE
5
1AB
100
AcDbEntity
8
1
62
256
6
ByLayer
370
18
48
1
60
0
100
AcDbSpline
70
4
71
3
72
10
73
6
40
0
40
0
40
0
40
0
40
0.5
40
0.5
40
1
40
1
40
1
40
1
41
1
10
15.2543121035909
20
-17.0055729085719
30
1E-15
41
1
10
14.9638620257705
20
-15.9704494073059
30
1E-15
41
1
10
14.6575302585002
20
-14.8752258396231
30
9E-16
41
1
10
14.0225728796276
20
-12.5659892345606
30
8E-16
41
1
10
13.6939298085291
20
-11.3519756853059
30
7E-16
41
1
10
13.3587843818897
20
-10.0776031811767
30
6E-16
0
SPLINE
5
1AC
100
AcDbEntity
8
1
62
256
6
ByLayer
370
18
48
1
60
0
100
AcDbSpline
70
4
71
3
72
28
73
24
40
0
40
0
40
0
40
0
40
0.0156249999999996
40
0.0156249999999996
40
0.0312499999999992
40
0.0312499999999992
40
0.0624999999999988
40
0.0624999999999988
40
0.0937499999999984
40
0.0937499999999984
40
0.124999999999998
40
0.124999999999998
40
0.187499999999997
40
0.187499999999997
40
0.249999999999996
40
0.249999999999996
40
0.374999999999997
40
0.374999999999997
40
0.499999999999997
40
0.499999999999997
40
0.749999999999998
40
0.749999999999998
40
1
40
1
40
1
40
1
41
1
10
2.16999999999933
20
-10.4406831828321
30
6E-16
41
1
10
2.21526986142294
20
-10.4406831828321
30
6E-16
41
1
10
2.25932917238706
20
-10.4475215137299
30
6E-16
41
1
10
2.34246357051069
20
-10.4714236438507
30
6E-16
41
1
10
2.38035965976462
20
-10.4878997709933
30
6E-16
41
1
10
2.48702096669371
20
-10.5459490061464
30
6E-16
41
1
10
2.54502934103473
20
-10.5933076944016
30
6E-16
41
1
10
2.64990424321354
20
-10.6947375103654
30
7E-16
41
1
10
2.69517921584375
20
-10.7480411082561
30
7E-16
41
1
10
2.77777453228595
20
-10.8567359602219
30
7E-16
41
1
10
2.81503512181752
20
-10.9123021475368
30
7E-16
41
1
10
2.91897258089932
20
-11.0812169643622
30
7E-16
41
1
10
2.97812220876568
20
-11.1971493834195
30
7E-16
41
1
10
3.08392106368205
20
-11.4292793703361
30
7E-16
41
1
10
3.13045628044094
20
-11.5455922005293
30
7E-16
41
1
10
3.25766322900759
20
-11.8944147199258
30
7E-16
41
1
10
3.32614088265436
20
-12.126782143175
30
7E-16
41
1
10
3.44429187044818
20
-12.5893361595993
30
8E-16
41
1
10
3.49362138542205
20
-12.819566376737
30
8E-16
41
1
10
3.62063797117767
20
-13.5059792337191
30
8E-16
41
1
10
3.67767891896571
20
-13.9584471607732
30
9E-16
41
1
10
3.75245545153032
20
-14.8424770588224
30
9E-16
41
1
10
3.76999999999902
20
-15.2750124792196
30
9E-16
41
1
10
3.76999999999936
20
-15.6980404857368
30
1E-15
0
SPLINE
5
1AD
100
AcDbEntity
8
1
62
256
6
ByLayer
370
18
48
1
60
0
100
AcDbSpline
70
4
71
3
72
14
73
10
40
0
40
0
40
0
40
0
40
0.25
40
0.25
40
0.5
40
0.5
40
0.75
40
0.75
40
1
40
1
40
1
40
1
41
1
10
13.3587843818897
20
-10.0776031811768
30
6E-16
41
1
10
13.3049637276556
20
-9.87295303094837
30
6E-16
41
1
10
13.2547039495301
20
-9.65672718889724
30
6E-16
41
1
10
13.1615035054177
20
-9.20171343863535
30
6E-16
41
1
10
13.1185617972838
20
-8.96292536779086
30
5E-16
41
1
10
13.040561472029
20
-8.46215763399684
30
5E-16
41
1
10
13.0053954451368
20
-8.19878881453002
30
5E-16
41
1
10
12.9452158370146
20
-7.66007478968672
30
5E-16
41
1
10
12.9199792078878
20
-7.38365678262232
30
5E-16
41
1
10
12.8998402554884
20
-7.09999999999985
30
4E-16
0
SPLINE
5
1AE
100
AcDbEntity
8
1
62
256
6
ByLayer
370
18
48
1
60
0
100
AcDbSpline
70
4
71
3
72
28
73
24
40
0
40
0
40
0
40
0
40
0.125
40
0.125
40
0.25
40
0.25
40
0.3125
40
0.3125
40
0.375
40
0.375
40
0.5
40
0.5
40
0.625
40
0.625
40
0.75
40
0.75
40
0.8125
40
0.8125
40
0.875
40
0.875
40
0.9375
40
0.9375
40
1
40
1
40
1
40
1
41
1
10
10.6377078715628
20
-29.2500000000005
30
-1.8E-15
41
1
10
10.7426533450071
20
-29.2500000000005
30
-1.8E-15
41
1
10
10.8479226606577
20
-29.2600118795319
30
-1.8E-15
41
1
10
11.0564167495424
20
-29.3005542961719
30
-1.8E-15
41
1
10
11.1571512785259
20
-29.3305139758812
30
-1.8E-15
41
1
10
11.303139928753
20
-29.3895569328957
30
-1.8E-15
41
1
10
11.3509445227343
20
-29.4116053138603
30
-1.8E-15
41
1
10
11.4447885165623
20
-29.4605709605159
30
-1.7E-15
41
1
10
11.4908727757414
20
-29.487557319075
30
-1.7E-15
41
1
10
11.6234178845546
20
-29.5741106346266
30
-1.7E-15
41
1
10
11.7052823833614
20
-29.6397178595032
30
-1.7E-15
41
1
10
11.8559964382899
20
-29.7867631727648
30
-1.7E-15
41
1
10
11.9250615682044
20
-29.8688903399459
30
-1.7E-15
41
1
10
12.0437813691897
20
-30.0423469155847
30
-1.7E-15
41
1
10
12.0943268614232
20
-30.1343644073583
30
-1.7E-15
41
1
10
12.156507316554
20
-30.2805741798411
30
-1.7E-15
41
1
10
12.17491408409
20
-30.3306979284409
30
-1.7E-15
41
1
10
12.2063859855029
20
-30.4318678396034
30
-1.7E-15
41
1
10
12.2195564405638
20
-30.4831409759492
30
-1.7E-15
41
1
10
12.2407383443014
20
-30.587071125072
30
-1.7E-15
41
1
10
12.2487426186552
20
-30.639877732632
30
-1.7E-15
41
1
10
12.2593040996837
20
-30.7449932617836
30
-1.7E-15
41
1
10
12.2619197269806
20
-30.7975145368685
30
-1.7E-15
41
1
10
12.2619197269806
20
-30.8500000000005
30
-1.7E-15
0
SPLINE
5
1AF
100
AcDbEntity
8
1
62
256
6
ByLayer
370
18
48
1
60
0
100
AcDbSpline
70
4
71
3
72
24
73
20
40
0
40
0
40
0
40
0
40
0.125
40
0.125
40
0.25
40
0.25
40
0.375
40
0.375
40
0.5
40
0.5
40
0.625
40
0.625
40
0.75
40
0.75
40
0.875
40
0.875
40
0.9375
40
0.9375
40
1
40
1
40
1
40
1
41
1
10
11.8005934837306
20
-63.5273727083806
30
3E-16
41
1
10
11.7900552463688
20
-63.5927240885293
30
3E-16
41
1
10
11.7932913307694
20
-63.6631645816513
30
3E-16
41
1
10
11.8199698279573
20
-63.813968920438
30
4E-16
41
1
10
11.8434984073279
20
-63.8943334844645
30
4E-16
41
1
10
11.9070030182988
20
-64.0649243818552
30
4E-16
41
1
10
11.9466520269824
20
-64.1541496037231
30
4E-16
41
1
10
12.0375413130448
20
-64.3380624667057
30
4E-16
41
1
10
12.0889245256352
20
-64.4330772313681
30
4E-16
41
1
10
12.2018369005834
20
-64.6289312917672
30
4E-16
41
1
10
12.2633610986176
20
-64.7297774838682
30
4E-16
41
1
10
12.3962279991129
20
-64.9369072455428
30
4E-16
41
1
10
12.4674709004116
20
-65.0430858828599
30
4E-16
41
1
10
12.6188660952223
20
-65.2564160384044
30
4E-16
41
1
10
12.6990181008582
20
-65.3641052435306
30
0
41
1
10
12.8310765145892
20
-65.5240771409187
30
0
41
1
10
12.8770891488109
20
-65.5771302953525
30
0
41
1
10
12.9761367446321
20
-65.6810290012108
30
0
41
1
10
13.028629941465
20
-65.7316948658273
30
0
41
1
10
13.0875442805087
20
-65.7777018864088
30
0
0
SPLINE
5
1B0
100
AcDbEntity
8
1
62
256
6
ByLayer
370
18
48
1
60
0
100
AcDbSpline
70
4
71
3
72
24
73
20
40
0
40
0
40
0
40
0
40
0.0625000000000036
40
0.0625000000000036
40
0.125000000000007
40
0.125000000000007
40
0.250000000000006
40
0.250000000000006
40
0.375000000000005
40
0.375000000000005
40
0.500000000000004
40
0.500000000000004
40
0.625000000000003
40
0.625000000000003
40
0.750000000000002
40
0.750000000000002
40
0.875000000000001
40
0.875000000000001
40
1
40
1
40
1
40
1
41
1
10
13.6734896996916
20
-65.7777018864088
30
0
41
1
10
13.730508354821
20
-65.7306304079608
30
0
41
1
10
13.7795803739517
20
-65.6795648643937
30
0
41
1
10
13.8715258003704
20
-65.5752214204327
30
0
41
1
10
13.9140573293803
20
-65.5217434567462
30
0
41
1
10
14.0357341112703
20
-65.3600947799219
30
0
41
1
10
14.109346979896
20
-65.2502828950549
30
4E-16
41
1
10
14.2457705864986
20
-65.0352372969864
30
4E-16
41
1
10
14.3085136310544
20
-64.9296693393739
30
4E-16
41
1
10
14.4247970029704
20
-64.7234189228062
30
4E-16
41
1
10
14.4782814742645
20
-64.6227133763373
30
4E-16
41
1
10
14.5754469876197
20
-64.4265949173112
30
4E-16
41
1
10
14.6191488278771
20
-64.3311220809686
30
4E-16
41
1
10
14.6946824872598
20
-64.1460040237625
30
4E-16
41
1
10
14.7258980693947
20
-64.0578587950825
30
4E-16
41
1
10
14.7728734508049
20
-63.890451522337
30
4E-16
41
1
10
14.7886669878177
20
-63.8111884832682
30
4E-16
41
1
10
14.800607523001
20
-63.6617512219051
30
3E-16
41
1
10
14.7966286833516
20
-63.5914323067446
30
3E-16
41
1
10
14.7796881707195
20
-63.5273727083806
30
3E-16
0
SPLINE
5
1B1
100
AcDbEntity
8
1
62
256
6
ByLayer
370
18
48
1
60
0
100
AcDbSpline
70
4
71
3
72
8
73
4
40
0
40
0
40
0
40
0
40
1
40
1
40
1
40
1
41
1
10
-0.32498100000069
20
-16.4314008169771
30
1E-15
41
1
10
-0.050143913750702
20
-16.6609383700205
30
1E-15
41
1
10
0.224852057199286
20
-16.8903609384224
30
1E-15
41
1
10
0.499999999999346
20
-17.1196735250027
30
1E-15
0
SPLINE
5
1B2
100
AcDbEntity
8
1
62
256
6
ByLayer
370
18
48
1
60
0
100
AcDbSpline
70
4
71
3
72
28
73
24
40
0
40
0
40
0
40
0
40
0.0625000000000007
40
0.0625000000000007
40
0.125000000000001
40
0.125000000000001
40
0.25
40
0.25
40
0.312500000000001
40
0.312500000000001
40
0.375000000000002
40
0.375000000000002
40
0.500000000000001
40
0.500000000000001
40
0.562500000000001
40
0.562500000000001
40
0.625000000000001
40
0.625000000000001
40
0.750000000000001
40
0.750000000000001
40
0.875
40
0.875
40
1
40
1
40
1
40
1
41
1
10
3.76999999999936
20
-19.3041826059488
30
1.2E-15
41
1
10
3.76999999999936
20
-19.2616731689441
30
1.2E-15
41
1
10
3.76757700118429
20
-19.2187677565014
30
1.2E-15
41
1
10
3.75796946038804
20
-19.1339877911789
30
1.2E-15
41
1
10
3.75080708739614
20
-19.092004258233
30
1.2E-15
41
1
10
3.72237134231202
20
-18.9672510917694
30
1.2E-15
41
1
10
3.69421423497343
20
-18.8856677082111
30
1.2E-15
41
1
10
3.63754375186971
20
-18.7657801351545
30
1.1E-15
41
1
10
3.61615690014881
20
-18.7261635637383
30
1.1E-15
41
1
10
3.56932272275191
20
-18.6494306448039
30
1.1E-15
41
1
10
3.54379074318342
20
-18.6121067594416
30
1.1E-15
41
1
10
3.46086478880324
20
-18.5032556002657
30
1.1E-15
41
1
10
3.39720875964332
20
-18.434815320585
30
1.1E-15
41
1
10
3.28810752050953
20
-18.3388677463937
30
1.1E-15
41
1
10
3.24957415342669
20
-18.3081602966274
30
1.1E-15
41
1
10
3.16964451115874
20
-18.2504866263675
30
1.1E-15
41
1
10
3.12805158003795
20
-18.2233413694233
30
1.1E-15
41
1
10
2.99835203863816
20
-18.147018170902
30
1.1E-15
41
1
10
2.90486875215237
20
-18.1027055218964
30
1.1E-15
41
1
10
2.70562589196516
20
-18.0298945408957
30
1.1E-15
41
1
10
2.60277700334001
20
-18.0023651212054
30
1.1E-15
41
1
10
2.39065459511477
20
-17.9649751314488
30
1.1E-15
41
1
10
2.28043733383919
20
-17.9551807963975
30
1.1E-15
41
1
10
2.16999999999936
20
-17.9551807963975
30
1.1E-15
0
SPLINE
5
1B3
100
AcDbEntity
8
1
62
256
6
ByLayer
370
18
48
1
60
0
100
AcDbSpline
70
4
71
3
72
25
73
21
40
0
40
0
40
0
40
0
40
0.124999999999998
40
0.124999999999998
40
0.249999999999997
40
0.249999999999997
40
0.374999999999995
40
0.374999999999995
40
0.437499999999995
40
0.437499999999995
40
0.499999999999995
40
0.562499999999995
40
0.562499999999995
40
0.624999999999995
40
0.624999999999995
40
0.749999999999997
40
0.749999999999997
40
0.874999999999998
40
0.874999999999998
40
1
40
1
40
1
40
1
41
1
10
2.16999999999933
20
-17.3279626006065
30
1.1E-15
41
1
10
2.27947633516516
20
-17.3279626006065
30
1.1E-15
41
1
10
2.38689316175609
20
-17.3372222496463
30
1.1E-15
41
1
10
2.59780975316784
20
-17.3733528447615
30
1.1E-15
41
1
10
2.70238484820288
20
-17.4007333324906
30
1.1E-15
41
1
10
2.89914631465749
20
-17.4710114745762
30
1.1E-15
41
1
10
2.99205036817207
20
-17.5138257166833
30
1.1E-15
41
1
10
3.12334791830867
20
-17.5893405278011
30
1.1E-15
41
1
10
3.16569743466192
20
-17.6164091368178
30
1.1E-15
41
1
10
3.24592494967314
20
-17.6731143558506
30
1.1E-15
41
1
10
3.32217417409811
20
-17.7326563337549
30
1.1E-15
41
1
10
3.39071766346166
20
-17.797692961138
30
1.1E-15
41
1
10
3.45542017042572
20
-17.865468438452
30
1.1E-15
41
1
10
3.48596281537411
20
-17.9008933732016
30
1.1E-15
41
1
10
3.57022203602054
20
-18.0093622333704
30
1.1E-15
41
1
10
3.61710500279068
20
-18.0849483070449
30
1.1E-15
41
1
10
3.69307456930514
20
-18.2423914308229
30
1.1E-15
41
1
10
3.72216545475376
20
-18.3248953344656
30
1.1E-15
41
1
10
3.76041910124496
20
-18.4903051390682
30
1.1E-15
41
1
10
3.76999999999936
20
-18.5737866653698
30
1.1E-15
41
1
10
3.76999999999936
20
-18.6580476610593
30
1.1E-15
0
SPLINE
5
1B4
100
AcDbEntity
8
1
62
256
6
ByLayer
370
18
48
1
60
0
100
AcDbSpline
70
4
71
3
72
8
73
4
40
0
40
0
40
0
40
0
40
1
40
1
40
1
40
1
41
1
10
15.1562542990776
20
14.2687457009212
30
-9E-16
41
1
10
14.6957631363343
20
13.1872304017737
30
-8E-16
41
1
10
14.1878692405245
20
11.9684560091009
30
-7E-16
41
1
10
13.6433539138194
20
10.6135198841344
30
-6E-16
0
SPLINE
5
1B5
100
AcDbEntity
8
1
62
256
6
ByLayer
370
18
48
1
60
0
100
AcDbSpline
70
4
71
3
72
9
73
5
40
0
40
0
40
0
40
0
40
0.999292586041592
40
1
40
1
40
1
40
1
41
1
10
0.342769052837639
20
18.9271021950734
30
6E-16
41
1
10
-0.0434394769981452
20
19.1500797937374
30
-3E-16
41
1
10
-0.237878022122373
20
19.2623389401057
30
-1E-16
41
1
10
-0.23774071189266
20
19.2622596640076
30
-1E-16
41
1
10
-0.237739845780636
20
19.2622591639577
30
-1E-16
0
SPLINE
5
1B6
100
AcDbEntity
8
1
62
256
6
ByLayer
370
18
48
1
60
0
100
AcDbSpline
70
4
71
3
72
30
73
26
40
0
40
0
40
0
40
0
40
0.015624999999996
40
0.015624999999996
40
0.0312499999999921
40
0.0312499999999921
40
0.0390624999999921
40
0.0390624999999921
40
0.0468749999999921
40
0.0468749999999921
40
0.0624999999999934
40
0.0624999999999934
40
0.0937499999999934
40
0.0937499999999934
40
0.124999999999993
40
0.124999999999993
40
0.187499999999993
40
0.187499999999993
40
0.249999999999994
40
0.249999999999994
40
0.499999999999996
40
0.499999999999996
40
0.749999999999998
40
0.749999999999998
40
1
40
1
40
1
40
1
41
1
10
0.342769052843863
20
18.5728978049291
30
6E-16
41
1
10
0.347171951279449
20
18.5754398195264
30
6E-16
41
1
10
0.351960418968332
20
18.5784059956166
30
6E-16
41
1
10
0.362777228868794
20
18.5859371497903
30
6E-16
41
1
10
0.368887800440177
20
18.590511672125
30
6E-16
41
1
10
0.379817395547264
20
18.6002003847107
30
6E-16
41
1
10
0.383684111845241
20
18.6038737992156
30
6E-16
41
1
10
0.391157562604633
20
18.6115906793185
30
6E-16
41
1
10
0.39465728074029
20
18.6155242596517
30
6E-16
41
1
10
0.403675823340109
20
18.6263537691192
30
6E-16
41
1
10
0.407992032601186
20
18.6324622716735
30
6E-16
41
1
10
0.418659317699848
20
18.6487351879586
30
6E-16
41
1
10
0.422837359929161
20
18.6569874846888
30
6E-16
41
1
10
0.429873212521471
20
18.6723064010638
30
6E-16
41
1
10
0.432448702745717
20
18.6790960893597
30
6E-16
41
1
10
0.438742659263681
20
18.6979993068615
30
6E-16
41
1
10
0.441072721491736
20
18.7087665577514
30
6E-16
41
1
10
0.444156752007501
20
18.7287007453869
30
6E-16
41
1
10
0.444833293180579
20
18.7377933366805
30
6E-16
41
1
10
0.44559827907446
20
18.7805244811041
30
6E-16
41
1
10
0.438596852655422
20
18.8064686815954
30
6E-16
41
1
10
0.419591814375025
20
18.8517667571317
30
6E-16
41
1
10
0.407057571211738
20
18.8706572738753
30
6E-16
41
1
10
0.377955530590981
20
18.9029851967479
30
6E-16
41
1
10
0.361336931576631
20
18.9163820252852
30
6E-16
41
1
10
0.342769052837667
20
18.9271021950734
30
6E-16
0
SPLINE
5
1B7
100
AcDbEntity
8
1
62
256
6
ByLayer
370
18
48
1
60
0
100
AcDbSpline
70
4
71
3
72
8
73
4
40
0
40
0
40
0
40
0
40
1
40
1
40
1
40
1
41
1
10
-0.249980947164744
20
18.2306734328621
30
7E-16
41
1
10
-0.0602000624361949
20
18.3402434777471
30
7E-16
41
1
10
0.13766045324104
20
18.4544782997354
30
6E-16
41
1
10
0.342769052843892
20
18.5728978049292
30
6E-16
0
SPLINE
5
1B8
100
AcDbEntity
8
1
62
256
6
ByLayer
370
18
48
1
60
0
100
AcDbSpline
70
4
71
3
72
22
73
18
40
0
40
0
40
0
40
0
40
0.500000000000006
40
0.500000000000006
40
0.625000000000008
40
0.625000000000008
40
0.750000000000009
40
0.750000000000009
40
0.81250000000001
40
0.81250000000001
40
0.843750000000003
40
0.843750000000003
40
0.874999999999996
40
0.874999999999996
40
0.937499999999998
40
0.937499999999998
40
1
40
1
40
1
40
1
41
1
10
-0.324980947162345
20
18.1007696736897
30
7E-16
41
1
10
-0.324980942714291
20
18.1137518803144
30
7E-16
41
1
10
-0.323786972693483
20
18.1278012981287
30
7E-16
41
1
10
-0.316461247038433
20
18.1508365404431
30
7E-16
41
1
10
-0.314676140574733
20
18.1557309360366
30
7E-16
41
1
10
-0.30987714283205
20
18.1666369849611
30
7E-16
41
1
10
-0.307015946514639
20
18.1725080306407
30
7E-16
41
1
10
-0.299937942812903
20
18.1838699189826
30
7E-16
41
1
10
-0.297061244389909
20
18.1881873513918
30
7E-16
41
1
10
-0.290809955666191
20
18.19613735988
30
7E-16
41
1
10
-0.288344686571747
20
18.1990897237148
30
7E-16
41
1
10
-0.282576626494773
20
18.2053705283384
30
7E-16
41
1
10
-0.279276769686277
20
18.2086541663262
30
7E-16
41
1
10
-0.270235529332865
20
18.2169304518461
30
7E-16
41
1
10
-0.265307390124633
20
18.220634069671
30
7E-16
41
1
10
-0.256901453626654
20
18.2265288472593
30
7E-16
41
1
10
-0.253317987425362
20
18.2287467917692
30
7E-16
41
1
10
-0.249980947164772
20
18.230673432862
30
7E-16
0
SPLINE
5
1B9
100
AcDbEntity
8
1
62
256
6
ByLayer
370
18
48
1
60
0
100
AcDbSpline
70
4
71
3
72
12
73
8
40
0
40
0
40
0
40
0
40
0.499999999999999
40
0.499999999999999
40
0.75
40
0.75
40
1
40
1
40
1
40
1
41
1
10
-0.249980947162328
20
17.7693265671356
30
7E-16
41
1
10
-0.27241482523732
20
17.7822787726811
30
7E-16
41
1
10
-0.289849679961236
20
17.7996215327338
30
7E-16
41
1
10
-0.30932996915854
20
17.831373710887
30
7E-16
41
1
10
-0.314672522354755
20
17.8429531170878
30
7E-16
41
1
10
-0.322455514656866
20
17.8686997670901
30
7E-16
41
1
10
-0.324980947162345
20
17.8827821226972
30
7E-16
41
1
10
-0.324980947162345
20
17.8992303777032
30
7E-16
0
SPLINE
5
1BA
100
AcDbEntity
8
1
62
256
6
ByLayer
370
18
48
1
60
0
100
AcDbSpline
70
4
71
3
72
8
73
4
40
0
40
0
40
0
40
0
40
1
40
1
40
1
40
1
41
1
10
0.342769052837639
20
17.4271021950734
30
-1.1E-15
41
1
10
0.122384349146728
20
17.5543413630746
30
7E-16
41
1
10
-0.0754822092170286
20
17.6685796738096
30
7E-16
41
1
10
-0.249980947162356
20
17.7693265671356
30
7E-16
0
SPLINE
5
1BB
100
AcDbEntity
8
1
62
256
6
ByLayer
370
18
48
1
60
0
100
AcDbSpline
70
4
71
3
72
28
73
24
40
0
40
0
40
0
40
0
40
0.0312500000000019
40
0.0312500000000019
40
0.0468749999999989
40
0.0468749999999989
40
0.0624999999999959
40
0.0624999999999959
40
0.093749999999993
40
0.093749999999993
40
0.12499999999999
40
0.12499999999999
40
0.187499999999991
40
0.187499999999991
40
0.249999999999992
40
0.249999999999992
40
0.374999999999992
40
0.374999999999992
40
0.499999999999991
40
0.499999999999991
40
0.749999999999995
40
0.749999999999995
40
1
40
1
40
1
40
1
41
1
10
0.342769052837639
20
17.0728978049256
30
-1E-15
41
1
10
0.350219788008616
20
17.0771994888822
30
-1E-15
41
1
10
0.3585494524539
20
17.0825539799033
30
-1E-15
41
1
10
0.372864218034834
20
17.0939798699865
30
-1E-15
41
1
10
0.377987963332913
20
17.0984317564574
30
-1E-15
41
1
10
0.388166271880976
20
17.1083280814271
30
-1E-15
41
1
10
0.393183542584865
20
17.113757949587
30
-1E-15
41
1
10
0.406502037972672
20
17.1297408233553
30
-1E-15
41
1
10
0.412744887294593
20
17.1393052009064
30
-1E-15
41
1
10
0.422483911889287
20
17.1561710776409
30
-1.1E-15
41
1
10
0.426016499716354
20
17.163594423519
30
-1.1E-15
41
1
10
0.434672051564661
20
17.1840851392537
30
-1.1E-15
41
1
10
0.437986803452759
20
17.1957274100742
30
-1.1E-15
41
1
10
0.44263663704919
20
17.2170226031542
30
-1.1E-15
41
1
10
0.443877476647828
20
17.2266145363648
30
-1.1E-15
41
1
10
0.445780954069392
20
17.2535938389759
30
-1.1E-15
41
1
10
0.44463463779519
20
17.2691943605645
30
-1.1E-15
41
1
10
0.439866649629067
20
17.2978762065486
30
-1.1E-15
41
1
10
0.436160069704187
20
17.3109072275384
30
-1.1E-15
41
1
10
0.422428671234883
20
17.3468944380379
30
-1.1E-15
41
1
10
0.409842691365867
20
17.3669156018496
30
-1.1E-15
41
1
10
0.379945598132394
20
17.4013274297258
30
-1.1E-15
41
1
10
0.362582983642227
20
17.4156626167897
30
-1.1E-15
41
1
10
0.342769052837667
20
17.4271021950734
30
-1.1E-15
0
SPLINE
5
1BC
100
AcDbEntity
8
1
62
256
6
ByLayer
370
18
48
1
60
0
100
AcDbSpline
70
4
71
3
72
8
73
4
40
0
40
0
40
0
40
0
40
1
40
1
40
1
40
1
41
1
10
-0.249980947157667
20
16.7306734328662
30
-1E-15
41
1
10
-0.0547247618717961
20
16.8434046440019
30
-1E-15
41
1
10
0.142923239002471
20
16.9575167705114
30
-1E-15
41
1
10
0.342769052837667
20
17.0728978049256
30
-1E-15
0
SPLINE
5
1BD
100
AcDbEntity
8
1
62
256
6
ByLayer
370
18
48
1
60
0
100
AcDbSpline
70
4
71
3
72
20
73
16
40
0
40
0
40
0
40
0
40
0.249999999999999
40
0.249999999999999
40
0.499999999999998
40
0.499999999999998
40
0.624999999999997
40
0.624999999999997
40
0.749999999999997
40
0.749999999999997
40
0.812499999999996
40
0.812499999999996
40
0.874999999999996
40
0.874999999999996
40
1
40
1
40
1
40
1
41
1
10
-0.324980947162345
20
16.6007696742412
30
-1E-15
41
1
10
-0.324980944714753
20
16.6078374423776
30
-1E-15
41
1
10
-0.324500996961376
20
16.6153798571383
30
-1E-15
41
1
10
-0.321956071446351
20
16.631882595406
30
-1E-15
41
1
10
-0.319966113324313
20
16.6407981042991
30
-1E-15
41
1
10
-0.314369069029567
20
16.6564624937181
30
-1E-15
41
1
10
-0.312057921717297
20
16.6620851226955
30
-1E-15
41
1
10
-0.30570374035068
20
16.674669817718
30
-1E-15
41
1
10
-0.301711034698798
20
16.6816998750706
30
-1E-15
41
1
10
-0.292329218118311
20
16.6943481376128
30
-1E-15
41
1
10
-0.288588938352945
20
16.698903567329
30
-1E-15
41
1
10
-0.280264486170381
20
16.7077856175679
30
-1E-15
41
1
10
-0.275807648857438
20
16.711960233636
30
-1E-15
41
1
10
-0.26337601953918
20
16.7224405493042
30
-1E-15
41
1
10
-0.256236858596367
20
16.7270615807132
30
-1E-15
41
1
10
-0.249980947157724
20
16.7306734328661
30
-1E-15
0
SPLINE
5
1BE
100
AcDbEntity
8
1
62
256
6
ByLayer
370
18
48
1
60
0
100
AcDbSpline
70
4
71
3
72
12
73
8
40
0
40
0
40
0
40
0
40
0.499999999999998
40
0.499999999999998
40
0.749999999999999
40
0.749999999999999
40
1
40
1
40
1
40
1
41
1
10
-0.249980947163124
20
16.2693265671347
30
-1E-15
41
1
10
-0.271790390977316
20
16.2819182553918
30
-1E-15
41
1
10
-0.289240949628578
20
16.29892789311
30
-1E-15
41
1
10
-0.308904019992099
20
16.3305383497187
30
-1E-15
41
1
10
-0.314354285967028
20
16.3421324331944
30
-1E-15
41
1
10
-0.322353048378119
20
16.3681407231548
30
-1E-15
41
1
10
-0.324980947162317
20
16.3825186935885
30
-1E-15
41
1
10
-0.324980947162345
20
16.399230377703
30
-1E-15
0
SPLINE
5
1BF
100
AcDbEntity
8
1
62
256
6
ByLayer
370
18
48
1
60
0
100
AcDbSpline
70
4
71
3
72
8
73
4
40
0
40
0
40
0
40
0
40
1
40
1
40
1
40
1
41
1
10
0.342769052837639
20
15.9271021950734
30
-1E-15
41
1
10
0.132896815744687
20
16.0482719876544
30
-1E-15
41
1
10
-0.0648365548919685
20
16.1624334024193
30
-1E-15
41
1
10
-0.249980947162356
20
16.2693265671356
30
-1E-15
0
SPLINE
5
1C0
100
AcDbEntity
8
1
62
256
6
ByLayer
370
18
48
1
60
0
100
AcDbSpline
70
4
71
3
72
26
73
22
40
0
40
0
40
0
40
0
40
0.0312499999999997
40
0.0312499999999997
40
0.0624999999999993
40
0.0624999999999993
40
0.093749999999999
40
0.093749999999999
40
0.124999999999999
40
0.124999999999999
40
0.187500000000004
40
0.187500000000004
40
0.250000000000009
40
0.250000000000009
40
0.37500000000001
40
0.37500000000001
40
0.500000000000012
40
0.500000000000012
40
0.750000000000006
40
0.750000000000006
40
1
40
1
40
1
40
1
41
1
10
0.342769052837639
20
15.5728978049256
30
-1E-15
41
1
10
0.349594124357083
20
15.5768382618045
30
-1E-15
41
1
10
0.356954877170352
20
15.581588553806
30
-1E-15
41
1
10
0.372789901199212
20
15.5937177582997
30
-1E-15
41
1
10
0.381285818619574
20
15.6011915260053
30
-1E-15
41
1
10
0.397454220775927
20
15.6183542733489
30
-1E-15
41
1
10
0.40460987167333
20
15.6275380928629
30
-1E-15
41
1
10
0.415901574080379
20
15.64434165074
30
-1E-15
41
1
10
0.420288786490971
20
15.6521867818624
30
-1E-15
41
1
10
0.43095186265947
20
15.6737574524043
30
-1E-15
41
1
10
0.43511912542948
20
15.6860916729485
30
-1E-15
41
1
10
0.441074256373298
20
15.708393836346
30
-1E-15
41
1
10
0.442799242141746
20
15.718474170715
30
-1E-15
41
1
10
0.445882914633444
20
15.7469103630896
30
-1E-15
41
1
10
0.445142323118716
20
15.7632161318615
30
-1E-15
41
1
10
0.44102249234399
20
15.7929385564266
30
-1E-15
41
1
10
0.437545776438611
20
15.806340477923
30
-1E-15
41
1
10
0.424260602355673
20
15.84355966034
30
-1E-15
41
1
10
0.411612191612989
20
15.8644703135796
30
-1E-15
41
1
10
0.3810691224148
20
15.900406092858
30
-1E-15
41
1
10
0.36321861494298
20
15.9152956348871
30
-1E-15
41
1
10
0.342769052837667
20
15.9271021950734
30
-1E-15
0
SPLINE
5
1C1
100
AcDbEntity
8
1
62
256
6
ByLayer
370
18
48
1
60
0
100
AcDbSpline
70
4
71
3
72
8
73
4
40
0
40
0
40
0
40
0
40
1
40
1
40
1
40
1
41
1
10
-0.24998094716031
20
15.2306734328646
30
-9E-16
41
1
10
-0.0534841279681189
20
15.3441209243201
30
-9E-16
41
1
10
0.144124364081421
20
15.4582102403991
30
-9E-16
41
1
10
0.342769052837667
20
15.5728978049256
30
-1E-15
0
SPLINE
5
1C2
100
AcDbEntity
8
1
62
256
6
ByLayer
370
18
48
1
60
0
100
AcDbSpline
70
4
71
3
72
18
73
14
40
0
40
0
40
0
40
0
40
0.250000000000006
40
0.250000000000006
40
0.500000000000011
40
0.500000000000011
40
0.625000000000008
40
0.625000000000008
40
0.750000000000006
40
0.750000000000006
40
0.875000000000003
40
0.875000000000003
40
1
40
1
40
1
40
1
41
1
10
-0.324980947177636
20
15.100769673317
30
-9E-16
41
1
10
-0.32498094460334
20
15.108337971995
30
-9E-16
41
1
10
-0.324432712681272
20
15.1164204176765
30
-9E-16
41
1
10
-0.321494646794776
20
15.1341539514458
30
-9E-16
41
1
10
-0.319182438023688
20
15.1438135323917
30
-9E-16
41
1
10
-0.312597598822833
20
15.16075603098
30
-9E-16
41
1
10
-0.3098744173478
20
15.1668188717228
30
-9E-16
41
1
10
-0.302439168977628
20
15.1802249766794
30
-9E-16
41
1
10
-0.29750919061297
20
15.1878765947341
30
-9E-16
41
1
10
-0.284807946300077
20
15.2034284034636
30
-9E-16
41
1
10
-0.276922579050876
20
15.2111916961381
30
-9E-16
41
1
10
-0.26262096530985
20
15.2228530278956
30
-9E-16
41
1
10
-0.256002024866859
20
15.2271971620463
30
-9E-16
41
1
10
-0.249980947147748
20
15.2306734328869
30
-9E-16
0
SPLINE
5
1C3
100
AcDbEntity
8
1
62
256
6
ByLayer
370
18
48
1
60
0
100
AcDbSpline
70
4
71
3
72
12
73
8
40
0
40
0
40
0
40
0
40
0.499999999999999
40
0.499999999999999
40
0.749999999999999
40
0.749999999999999
40
1
40
1
40
1
40
1
41
1
10
-0.249980947162328
20
14.7693265671356
30
-9E-16
41
1
10
-0.2715166428016
20
14.7817602068101
30
-9E-16
41
1
10
-0.289005300635097
20
14.7986536555463
30
-9E-16
41
1
10
-0.308758860240033
20
14.8302537328968
30
-9E-16
41
1
10
-0.314253887074557
20
14.841869218838
30
-9E-16
41
1
10
-0.322334268366376
20
14.8680173504824
30
-9E-16
41
1
10
-0.324980947162345
20
14.8824182338683
30
-9E-16
41
1
10
-0.324980947162345
20
14.8992303777032
30
-9E-16
0
SPLINE
5
1C4
100
AcDbEntity
8
1
62
256
6
ByLayer
370
18
48
1
60
0
100
AcDbSpline
70
4
71
3
72
8
73
4
40
0
40
0
40
0
40
0
40
1
40
1
40
1
40
1
41
1
10
0.34276905283906
20
14.4271021950726
30
-9E-16
41
1
10
0.136951465370799
20
14.5459310346014
30
-9E-16
41
1
10
-0.0607307434442532
20
14.6600629110747
30
-9E-16
41
1
10
-0.249980947162328
20
14.7693265671356
30
-9E-16
0
SPLINE
5
1C5
100
AcDbEntity
8
1
62
256
6
ByLayer
370
18
48
1
60
0
100
AcDbSpline
70
4
71
3
72
24
73
20
40
0
40
0
40
0
40
0
40
0.0624999999999906
40
0.0624999999999906
40
0.0937499999999886
40
0.0937499999999886
40
0.124999999999987
40
0.124999999999987
40
0.187499999999983
40
0.187499999999983
40
0.249999999999979
40
0.249999999999979
40
0.374999999999983
40
0.374999999999983
40
0.499999999999987
40
0.499999999999987
40
0.749999999999994
40
0.749999999999994
40
1
40
1
40
1
40
1
41
1
10
0.342769052833972
20
14.0728978049175
30
-9E-16
41
1
10
0.355492163966204
20
14.080243496554
30
-9E-16
41
1
10
0.370101104685972
20
14.0905168173614
30
-9E-16
41
1
10
0.391579881066036
20
14.1117885239877
30
-9E-16
41
1
10
0.398484982043527
20
14.1197537295969
30
-9E-16
41
1
10
0.410274648123249
20
14.1355431801376
30
-9E-16
41
1
10
0.415157671610444
20
14.1432678560077
30
-9E-16
41
1
10
0.427372229455926
20
14.1652254088801
30
-9E-16
41
1
10
0.432321891039351
20
14.1780120112314
30
-9E-16
41
1
10
0.439549508735752
20
14.2014461443946
30
-9E-16
41
1
10
0.441681157636481
20
14.21189670141
30
-9E-16
41
1
10
0.44578820076211
20
14.2412797940183
30
-9E-16
41
1
10
0.445442817617362
20
14.2583164448048
30
-9E-16
41
1
10
0.441818702447023
20
14.289260204951
30
-9E-16
41
1
10
0.43846398101644
20
14.3031082300078
30
-9E-16
41
1
10
0.425407582487964
20
14.3414669139577
30
-9E-16
41
1
10
0.41275378485912
20
14.362833423323
30
-9E-16
41
1
10
0.381951448310332
20
14.3996431149239
30
-9E-16
41
1
10
0.363680833356568
20
14.4150287729623
30
-9E-16
41
1
10
0.3427690528396
20
14.4271021950732
30
-9E-16
0
SPLINE
5
1C6
100
AcDbEntity
8
1
62
256
6
ByLayer
370
18
48
1
60
0
100
AcDbSpline
70
4
71
3
72
8
73
4
40
0
40
0
40
0
40
0
40
1
40
1
40
1
40
1
41
1
10
-0.249980947162356
20
13.7306734328634
30
-8E-16
41
1
10
-0.0530000040739935
20
13.8444004333807
30
-8E-16
41
1
10
0.144595422328507
20
13.9584822060048
30
-9E-16
41
1
10
0.342769052837667
20
14.0728978049256
30
-9E-16
0
SPLINE
5
1C7
100
AcDbEntity
8
1
62
256
6
ByLayer
370
18
48
1
60
0
100
AcDbSpline
70
4
71
3
72
18
73
14
40
0
40
0
40
0
40
0
40
0.249999999999976
40
0.249999999999976
40
0.499999999999952
40
0.499999999999952
40
0.624999999999964
40
0.624999999999964
40
0.749999999999976
40
0.749999999999976
40
0.874999999999988
40
0.874999999999988
40
1
40
1
40
1
40
1
41
1
10
-0.324980947162913
20
13.6007696670356
30
-8E-16
41
1
10
-0.324980944780236
20
13.608758082651
30
-8E-16
41
1
10
-0.324375091818268
20
13.6172515822328
30
-8E-16
41
1
10
-0.321101652116624
20
13.6359691257654
30
-8E-16
41
1
10
-0.31848084544842
20
13.6462848087999
30
-8E-16
41
1
10
-0.311140598527459
20
13.6640271324648
30
-8E-16
41
1
10
-0.308065534856411
20
13.6704290602795
30
-8E-16
41
1
10
-0.299905142429452
20
13.6841835912625
30
-8E-16
41
1
10
-0.294738072322019
20
13.6915917814668
30
-8E-16
41
1
10
-0.282309515723085
20
13.7059884988992
30
-8E-16
41
1
10
-0.275307003669013
20
13.7125990917552
30
-8E-16
41
1
10
-0.262137194403039
20
13.7231417450226
30
-8E-16
41
1
10
-0.255819243410087
20
13.7273026909905
30
-8E-16
41
1
10
-0.249980947138368
20
13.7306734329122
30
-8E-16
0
SPLINE
5
1C8
100
AcDbEntity
8
1
62
256
6
ByLayer
370
18
48
1
60
0
100
AcDbSpline
70
4
71
3
72
12
73
8
40
0
40
0
40
0
40
0
40
0.50000000000001
40
0.50000000000001
40
0.750000000000005
40
0.750000000000005
40
1
40
1
40
1
40
1
41
1
10
-0.249980947162356
20
13.2693265671356
30
-8E-16
41
1
10
-0.271365093901437
20
13.2816727100117
30
-8E-16
41
1
10
-0.28888611850013
20
13.2985023885225
30
-8E-16
41
1
10
-0.308718668189329
20
13.3301698901516
30
-8E-16
41
1
10
-0.314220321073975
20
13.3417949276558
30
-8E-16
41
1
10
-0.322302273623762
20
13.3678797646454
30
-8E-16
41
1
10
-0.324980947162345
20
13.3822418326893
30
-8E-16
41
1
10
-0.324980947162345
20
13.3992303777032
30
-8E-16
0
SPLINE
5
1C9
100
AcDbEntity
8
1
62
256
6
ByLayer
370
18
48
1
60
0
100
AcDbSpline
70
4
71
3
72
8
73
4
40
0
40
0
40
0
40
0
40
1
40
1
40
1
40
1
41
1
10
-0.0469703231323138
20
10.1521183287035
30
-6E-16
41
1
10
-0.115112466684138
20
10.1914602136263
30
-6E-16
41
1
10
-0.182784534594873
20
10.2305307002511
30
-6E-16
41
1
10
-0.24998094716409
20
10.2693265671366
30
-6E-16
0
SPLINE
5
1CA
100
AcDbEntity
8
1
62
256
6
ByLayer
370
18
48
1
60
0
100
AcDbSpline
70
4
71
3
72
12
73
8
40
0
40
0
40
0
40
0
40
0.5
40
0.5
40
0.75
40
0.75
40
1
40
1
40
1
40
1
41
1
10
-0.249980947163977
20
10.2693265671365
30
-6E-16
41
1
10
-0.271072889937102
20
10.2815040059747
30
-6E-16
41
1
10
-0.288435995716384
20
10.2979819796634
30
-6E-16
41
1
10
-0.308444760830213
20
10.3296370448455
30
-6E-16
41
1
10
-0.314074872657415
20
10.341415093722
30
-6E-16
41
1
10
-0.322278016727864
20
10.367713708005
30
-6E-16
41
1
10
-0.324980951860226
20
10.3821975796406
30
-6E-16
41
1
10
-0.324980947162345
20
10.3992304190752
30
-6E-16
0
SPLINE
5
1CB
100
AcDbEntity
8
1
62
256
6
ByLayer
370
18
48
1
60
0
100
AcDbSpline
70
4
71
3
72
8
73
4
40
0
40
0
40
0
40
0
40
1
40
1
40
1
40
1
41
1
10
0.342769052838776
20
12.9271021950728
30
-8E-16
41
1
10
0.139093450172339
20
13.0446943590996
30
-8E-16
41
1
10
-0.05856144185978
20
13.158810464221
30
-8E-16
41
1
10
-0.249980947162356
20
13.2693265671356
30
-8E-16
0
SPLINE
5
1CC
100
AcDbEntity
8
1
62
256
6
ByLayer
370
18
48
1
60
0
100
AcDbSpline
70
4
71
3
72
14
73
10
40
0
40
0
40
0
40
0
40
0.25
40
0.25
40
0.5
40
0.5
40
0.75
40
0.75
40
1
40
1
40
1
40
1
41
1
10
-0.324980947162345
20
10.6007696222958
30
-6E-16
41
1
10
-0.324980947162345
20
10.6094638429977
30
-6E-16
41
1
10
-0.324257414919316
20
10.618850481158
30
-7E-16
41
1
10
-0.320279451865588
20
10.6394830025951
30
-7E-16
41
1
10
-0.317087137316833
20
10.6507433672034
30
-7E-16
41
1
10
-0.305544085309123
20
10.6759015823232
30
-7E-16
41
1
10
-0.2965740525988
20
10.6902248775745
30
-7E-16
41
1
10
-0.273553804334398
20
10.7150959876521
30
-7E-16
41
1
10
-0.261125044146496
20
10.7242393854771
30
-7E-16
41
1
10
-0.249980947158434
20
10.7306734328723
30
-7E-16
0
SPLINE
5
1CD
100
AcDbEntity
8
1
62
256
6
ByLayer
370
18
48
1
60
0
100
AcDbSpline
70
4
71
3
72
8
73
4
40
0
40
0
40
0
40
0
40
1
40
1
40
1
40
1
41
1
10
-0.249980947162356
20
10.7306734328634
30
-7E-16
41
1
10
-0.0526311005802995
20
10.8446134199121
30
-7E-16
41
1
10
0.144956402684471
20
10.9586906181105
30
-7E-16
41
1
10
0.342769052837667
20
11.0728978049256
30
-7E-16
0
SPLINE
5
1CE
100
AcDbEntity
8
1
62
256
6
ByLayer
370
18
48
1
60
0
100
AcDbSpline
70
4
71
3
72
22
73
18
40
0
40
0
40
0
40
0
40
0.0625000000000055
40
0.0625000000000055
40
0.125000000000011
40
0.125000000000011
40
0.187500000000016
40
0.187500000000016
40
0.250000000000022
40
0.250000000000022
40
0.375000000000019
40
0.375000000000019
40
0.500000000000016
40
0.500000000000016
40
0.750000000000008
40
0.750000000000008
40
1
40
1
40
1
40
1
41
1
10
0.342769052837667
20
11.0728978049256
30
-7E-16
41
1
10
0.354050595450531
20
11.07941120659
30
-7E-16
41
1
10
0.366209629256673
20
11.0878490587054
30
-7E-16
41
1
10
0.390520771895012
20
11.110033814644
30
-7E-16
41
1
10
0.402179577388921
20
11.1236871566756
30
-7E-16
41
1
10
0.420239075386292
20
11.1510567178533
30
-7E-16
41
1
10
0.42671686542954
20
11.1644252779553
30
-7E-16
41
1
10
0.436131893585753
20
11.1889403979585
30
-7E-16
41
1
10
0.439120072138564
20
11.200071053523
30
-7E-16
41
1
10
0.445319628397613
20
11.2316415550305
30
-7E-16
41
1
10
0.445676858959018
20
11.2496418556058
30
-7E-16
41
1
10
0.443105753875102
20
11.2823802755188
30
-7E-16
41
1
10
0.440018994657976
20
11.2971638179402
30
-7E-16
41
1
10
0.427264174779026
20
11.3381142409958
30
-7E-16
41
1
10
0.414383428422838
20
11.3604758779
30
-7E-16
41
1
10
0.382981648138923
20
11.3987889432565
30
-7E-16
41
1
10
0.364323351057578
20
11.4146578151939
30
-7E-16
41
1
10
0.342769052837667
20
11.4271021950734
30
-7E-16
0
SPLINE
5
1CF
100
AcDbEntity
8
1
62
256
6
ByLayer
370
18
48
1
60
0
100
AcDbSpline
70
4
71
3
72
8
73
4
40
0
40
0
40
0
40
0
40
1
40
1
40
1
40
1
41
1
10
0.342769052837667
20
11.4271021950734
30
-7E-16
41
1
10
0.140428826570201
20
11.5439233791768
30
-7E-16
41
1
10
-0.0572098387462461
20
11.6580301157995
30
-7E-16
41
1
10
-0.249980947162328
20
11.7693265671356
30
-7E-16
0
SPLINE
5
1D0
100
AcDbEntity
8
1
62
256
6
ByLayer
370
18
48
1
60
0
100
AcDbSpline
70
4
71
3
72
12
73
8
40
0
40
0
40
0
40
0
40
0.500000000000013
40
0.500000000000013
40
0.750000000000007
40
0.750000000000007
40
1
40
1
40
1
40
1
41
1
10
-0.249980947162328
20
11.7693265671356
30
-7E-16
41
1
10
-0.27118077028743
20
11.7815662907236
30
-7E-16
41
1
10
-0.288598490317355
20
11.7981560037916
30
-7E-16
41
1
10
-0.308577748339758
20
11.8298896356484
30
-7E-16
41
1
10
-0.314125680259963
20
11.8415504008788
30
-7E-16
41
1
10
-0.322280802533641
20
11.8677503986233
30
-7E-16
41
1
10
-0.324980952094933
20
11.8823349663456
30
-7E-16
41
1
10
-0.324980947162345
20
11.8992304214955
30
-7E-16
0
SPLINE
5
1D1
100
AcDbEntity
8
1
62
256
6
ByLayer
370
18
48
1
60
0
100
AcDbSpline
70
4
71
3
72
22
73
18
40
0
40
0
40
0
40
0
40
0.0625000000000003
40
0.0625000000000003
40
0.125000000000001
40
0.125000000000001
40
0.187500000000001
40
0.187500000000001
40
0.250000000000001
40
0.250000000000001
40
0.375000000000002
40
0.375000000000002
40
0.500000000000002
40
0.500000000000002
40
0.750000000000001
40
0.750000000000001
40
1
40
1
40
1
40
1
41
1
10
0.342769052837667
20
12.5728978049256
30
-8E-16
41
1
10
0.354608181839126
20
12.5797331292415
30
-8E-16
41
1
10
0.367641788105175
20
12.588796950967
30
-8E-16
41
1
10
0.393933820835969
20
12.6135796136957
30
-8E-16
41
1
10
0.406050000047287
20
12.6287545713994
30
-8E-16
41
1
10
0.423576796836557
20
12.6573133731186
30
-8E-16
41
1
10
0.429373222379723
20
12.6705238773496
30
-8E-16
41
1
10
0.437772772862843
20
12.6945624553107
30
-8E-16
41
1
10
0.440407220382866
20
12.7055989538994
30
-8E-16
41
1
10
0.445588571767644
20
12.7361193630076
30
-8E-16
41
1
10
0.445625738411252
20
12.7535773835812
30
-8E-16
41
1
10
0.44251653002317
20
12.7857570881216
30
-8E-16
41
1
10
0.43928045288115
20
12.8000626434368
30
-8E-16
41
1
10
0.426421000814599
20
12.8396056103098
30
-8E-16
41
1
10
0.413679423890358
20
12.861503747297
30
-8E-16
41
1
10
0.382525012516993
20
12.8991707316463
30
-8E-16
41
1
10
0.363925974973199
20
12.9148872403831
30
-8E-16
41
1
10
0.342769052838833
20
12.9271021950727
30
-8E-16
0
SPLINE
5
1D2
100
AcDbEntity
8
1
62
256
6
ByLayer
370
18
48
1
60
0
100
AcDbSpline
70
4
71
3
72
8
73
4
40
0
40
0
40
0
40
0
40
1
40
1
40
1
40
1
41
1
10
-0.249980947162356
20
12.2306734328634
30
-7E-16
41
1
10
-0.0527632894178964
20
12.3445371006511
30
-8E-16
41
1
10
0.144826582197482
20
12.4586156662174
30
-8E-16
41
1
10
0.342769052837667
20
12.5728978049256
30
-8E-16
0
SPLINE
5
1D3
100
AcDbEntity
8
1
62
256
6
ByLayer
370
18
48
1
60
0
100
AcDbSpline
70
4
71
3
72
22
73
18
40
0
40
0
40
0
40
0
40
0.249999999999999
40
0.249999999999999
40
0.312499999999999
40
0.312499999999999
40
0.374999999999999
40
0.374999999999999
40
0.5
40
0.5
40
0.625
40
0.625
40
0.6875
40
0.6875
40
0.75
40
0.75
40
1
40
1
40
1
40
1
41
1
10
13.6433539138194
20
10.6135198841345
30
-6E-16
41
1
10
13.5354542622418
20
10.3450294879533
30
-6E-16
41
1
10
13.4356830192781
20
10.0294095431638
30
-6E-16
41
1
10
13.3223536730208
20
9.57656211938755
30
-6E-16
41
1
10
13.3002654892083
20
9.48303346729409
30
-6E-16
41
1
10
13.2573115957588
20
9.2898938466457
30
-6E-16
41
1
10
13.2364182851186
20
9.19009641727985
30
-6E-16
41
1
10
13.1765295997876
20
8.88570747386748
30
-5E-16
41
1
10
13.1400134345547
20
8.67486905837046
30
-5E-16
41
1
10
13.0739566565245
20
8.2375905334444
30
-5E-16
41
1
10
13.044415014318
20
8.01115141002828
30
-5E-16
41
1
10
13.0056768070967
20
7.65939712630581
30
-5E-16
41
1
10
12.9936668561639
20
7.53980083449429
30
-5E-16
41
1
10
12.971732498755
20
7.29790244185784
30
-4E-16
41
1
10
12.9618596722241
20
7.17624147153003
30
-4E-16
41
1
10
12.9179063813447
20
6.56444912345796
30
-4E-16
41
1
10
12.8998402554884
20
6.06402159540161
30
-4E-16
41
1
10
12.8998402554884
20
5.552167895721
30
-3E-16
0
LINE
5
70
100
AcDbEntity
8
1
62
256
6
ByLayer
370
18
48
1
60
1
100
AcDbLine
10
-183.400675
20
-212.771616
30
0
11
-183.400675
21
84.228384
31
0
39
0
210
0
220
0
230
1
0
LINE
5
72
100
AcDbEntity
8
1
62
256
6
ByLayer
370
18
48
1
60
1
100
AcDbLine
10
236.599325
20
84.228384
30
0
11
-183.400675
21
84.228384
31
0
39
0
210
0
220
0
230
1
0
LINE
5
73
100
AcDbEntity
8
1
62
256
6
ByLayer
370
18
48
1
60
1
100
AcDbLine
10
236.599325
20
84.228384
30
0
11
236.599325
21
-212.771616
31
0
39
0
210
0
220
0
230
1
0
LINE
5
74
100
AcDbEntity
8
1
62
256
6
ByLayer
370
18
48
1
60
1
100
AcDbLine
10
-183.400675
20
-212.771616
30
0
11
236.599325
21
-212.771616
31
0
39
0
210
0
220
0
230
1
0
LINE
5
75
100
AcDbEntity
8
1
62
256
6
ByLayer
370
18
48
1
60
0
100
AcDbLine
10
7.27
20
-29.25
30
0
11
3.77
21
-26.799274
31
0
39
0
210
0
220
0
230
1
0
LINE
5
76
100
AcDbEntity
8
1
62
256
6
ByLayer
370
18
48
1
60
0
100
AcDbLine
10
0.5
20
20
30
0
11
-0.237239
21
19.262761
31
0
39
0
210
0
220
0
230
1
0
LINE
5
77
100
AcDbEntity
8
1
62
256
6
ByLayer
370
18
48
1
60
0
100
AcDbLine
10
9.425
20
20
30
0
11
0.5
21
20
31
0
39
0
210
0
220
0
230
1
0
LINE
5
78
100
AcDbEntity
8
1
62
256
6
ByLayer
370
18
48
1
60
0
100
AcDbLine
10
1.5
20
-20.25
30
0
11
2.17
21
-20.25
31
0
39
0
210
0
220
0
230
1
0
LINE
5
79
100
AcDbEntity
8
1
62
256
6
ByLayer
370
18
48
1
60
0
100
AcDbLine
10
0.5
20
-20
30
0
11
1.5
21
-20
31
0
39
0
210
0
220
0
230
1
0
LINE
5
7A
100
AcDbEntity
8
1
62
256
6
ByLayer
370
18
48
1
60
0
100
AcDbLine
10
15.12662
20
-56.980271
30
0
11
15.408275
21
-56.730246
31
0
39
0
210
0
220
0
230
1
0
LINE
5
7B
100
AcDbEntity
8
SK1
62
256
6
ByLayer
370
18
48
1
60
0
100
AcDbLine
10
-0.325106
20
5.9325
30
0
11
-6.824981
21
5.9325
31
0
39
0
210
0
220
0
230
1
0
LINE
5
7D
100
AcDbEntity
8
SK1
62
256
6
ByLayer
370
18
48
1
60
0
100
AcDbLine
10
-6.824981
20
-5.9325
30
0
11
-0.325106
21
-5.9325
31
0
39
0
210
0
220
0
230
1
0
LINE
5
7E
100
AcDbEntity
8
SK1
62
256
6
ByLayer
370
18
48
1
60
0
100
AcDbLine
10
-6.824981
20
5.9325
30
0
11
-7.824981
21
5.664551
31
0
39
0
210
0
220
0
230
1
0
LINE
5
7F
100
AcDbEntity
8
SK1
62
256
6
ByLayer
370
18
48
1
60
0
100
AcDbLine
10
-7.824981
20
-5.664551
30
0
11
-6.824981
21
-5.9325
31
0
39
0
210
0
220
0
230
1
0
LINE
5
80
100
AcDbEntity
8
SK1
62
256
6
ByLayer
370
18
48
1
60
0
100
AcDbLine
10
-6.824981
20
-5.9325
30
0
11
-6.824981
21
5.9325
31
0
39
0
210
0
220
0
230
1
0
LINE
5
81
100
AcDbEntity
8
1
62
256
6
ByLayer
370
18
48
1
60
0
100
AcDbLine
10
14.270025
20
-71.731355
30
0
11
14.270025
21
-68.863903
31
0
39
0
210
0
220
0
230
1
0
LINE
5
82
100
AcDbEntity
8
1
62
256
6
ByLayer
370
18
48
1
60
0
100
AcDbLine
10
13.730025
20
-71.731355
30
0
11
14.000025
21
-71.731355
31
0
39
0
210
0
220
0
230
1
0
LINE
5
83
100
AcDbEntity
8
1
62
256
6
ByLayer
370
18
48
1
60
0
100
AcDbLine
10
13.730025
20
-71.731355
30
0
11
13.730025
21
-68.863903
31
0
39
0
210
0
220
0
230
1
0
LINE
5
84
100
AcDbEntity
8
1
62
256
6
ByLayer
370
18
48
1
60
0
100
AcDbLine
10
13.53929
20
-71.718624
30
0
11
13.53929
21
-68.863838
31
0
39
0
210
0
220
0
230
1
0
LINE
5
85
100
AcDbEntity
8
1
62
256
6
ByLayer
370
18
48
1
60
0
100
AcDbLine
10
13.266943
20
-68.639622
30
0
11
13.266943
21
-71.234732
31
0
39
0
210
0
220
0
230
1
0
LINE
5
86
100
AcDbEntity
8
1
62
256
6
ByLayer
370
18
48
1
60
0
100
AcDbLine
10
13.322293
20
-71.461556
30
0
11
13.322293
21
-68.753861
31
0
39
0
210
0
220
0
230
1
0
LINE
5
87
100
AcDbEntity
8
1
62
256
6
ByLayer
370
18
48
1
60
0
100
AcDbLine
10
10.900025
20
-73.61089
30
0
11
10.900025
21
-74.334128
31
0
39
0
210
0
220
0
230
1
0
LINE
5
88
100
AcDbEntity
8
1
62
256
6
ByLayer
370
18
48
1
60
0
100
AcDbLine
10
10.900025
20
-73.61089
30
0
11
17.100025
21
-73.61089
31
0
39
0
210
0
220
0
230
1
0
LINE
5
89
100
AcDbEntity
8
1
62
256
6
ByLayer
370
18
48
1
60
0
100
AcDbLine
10
10.900025
20
-70.567505
30
0
11
10.900025
21
-72.463738
31
0
39
0
210
0
220
0
230
1
0
LINE
5
8A
100
AcDbEntity
8
1
62
256
6
ByLayer
370
18
48
1
60
0
100
AcDbLine
10
10.900025
20
-72.463738
30
0
11
17.100025
21
-72.463738
31
0
39
0
210
0
220
0
230
1
0
LINE
5
8B
100
AcDbEntity
8
1
62
256
6
ByLayer
370
18
48
1
60
0
100
AcDbLine
10
11.191276
20
-70.567505
30
0
11
10.900025
21
-70.567505
31
0
39
0
210
0
220
0
230
1
0
LINE
5
8C
100
AcDbEntity
8
1
62
256
6
ByLayer
370
18
48
1
60
0
100
AcDbLine
10
16.791409
20
-70.569675
30
0
11
14.899959
21
-71.045983
31
0
39
0
210
0
220
0
230
1
0
LINE
5
8D
100
AcDbEntity
8
1
62
256
6
ByLayer
370
18
48
1
60
0
100
AcDbLine
10
14.85569
20
-71.074164
30
0
11
14.763908
21
-71.176756
31
0
39
0
210
0
220
0
230
1
0
LINE
5
8E
100
AcDbEntity
8
1
62
256
6
ByLayer
370
18
48
1
60
0
100
AcDbLine
10
14.270025
20
-71.731355
30
0
11
14.000025
21
-71.731355
31
0
39
0
210
0
220
0
230
1
0
LINE
5
8F
100
AcDbEntity
8
1
62
256
6
ByLayer
370
18
48
1
60
0
100
AcDbLine
10
17.100025
20
-68.252467
30
0
11
17.100025
21
-70.567505
31
0
39
0
210
0
220
0
230
1
0
LINE
5
90
100
AcDbEntity
8
1
62
256
6
ByLayer
370
18
48
1
60
0
100
AcDbLine
10
17.100025
20
-70.567505
30
0
11
17.100025
21
-72.463738
31
0
39
0
210
0
220
0
230
1
0
LINE
5
91
100
AcDbEntity
8
1
62
256
6
ByLayer
370
18
48
1
60
0
100
AcDbLine
10
17.100025
20
-73.61089
30
0
11
17.100025
21
-74.334128
31
0
39
0
210
0
220
0
230
1
0
LINE
5
92
100
AcDbEntity
8
1
62
256
6
ByLayer
370
18
48
1
60
0
100
AcDbLine
10
14.460761
20
-71.718624
30
0
11
14.460761
21
-68.863838
31
0
39
0
210
0
220
0
230
1
0
LINE
5
93
100
AcDbEntity
8
1
62
256
6
ByLayer
370
18
48
1
60
0
100
AcDbLine
10
14.677758
20
-71.461556
30
0
11
14.677758
21
-68.75376
31
0
39
0
210
0
220
0
230
1
0
LINE
5
94
100
AcDbEntity
8
1
62
256
6
ByLayer
370
18
48
1
60
0
100
AcDbLine
10
14.733108
20
-68.639525
30
0
11
14.733108
21
-71.234732
31
0
39
0
210
0
220
0
230
1
0
LINE
5
95
100
AcDbEntity
8
1
62
256
6
ByLayer
370
18
48
1
60
0
100
AcDbLine
10
14.85569
20
-71.074164
30
0
11
14.85569
21
-68.584801
31
0
39
0
210
0
220
0
230
1
0
LINE
5
96
100
AcDbEntity
8
1
62
256
6
ByLayer
370
18
48
1
60
0
100
AcDbLine
10
14.763907
20
-68.612823
30
0
11
14.763907
21
-71.176755
31
0
39
0
210
0
220
0
230
1
0
LINE
5
97
100
AcDbEntity
8
1
62
256
6
ByLayer
370
18
48
1
60
0
100
AcDbLine
10
14.899959
20
-71.045983
30
0
11
14.899959
21
-68.578277
31
0
39
0
210
0
220
0
230
1
0
LINE
5
98
100
AcDbEntity
8
1
62
256
6
ByLayer
370
18
48
1
60
0
100
AcDbLine
10
16.791409
20
-70.569675
30
0
11
16.791409
21
-68.298118
31
0
39
0
210
0
220
0
230
1
0
LINE
5
99
100
AcDbEntity
8
1
62
256
6
ByLayer
370
18
48
1
60
0
100
AcDbLine
10
16.808774
20
-70.567505
30
0
11
16.808774
21
-68.295615
31
0
39
0
210
0
220
0
230
1
0
LINE
5
9A
100
AcDbEntity
8
1
62
256
6
ByLayer
370
18
48
1
60
0
100
AcDbLine
10
16.808774
20
-70.567505
30
0
11
17.100025
21
-70.567505
31
0
39
0
210
0
220
0
230
1
0
LINE
5
9B
100
AcDbEntity
8
1
62
256
6
ByLayer
370
18
48
1
60
0
100
AcDbLine
10
13.236143
20
-68.612823
30
0
11
13.236143
21
-71.176755
31
0
39
0
210
0
220
0
230
1
0
LINE
5
9C
100
AcDbEntity
8
1
62
256
6
ByLayer
370
18
48
1
60
0
100
AcDbLine
10
13.14436
20
-71.074164
30
0
11
13.236143
21
-71.176756
31
0
39
0
210
0
220
0
230
1
0
LINE
5
9D
100
AcDbEntity
8
1
62
256
6
ByLayer
370
18
48
1
60
0
100
AcDbLine
10
13.14436
20
-71.074164
30
0
11
13.14436
21
-68.584801
31
0
39
0
210
0
220
0
230
1
0
LINE
5
9E
100
AcDbEntity
8
1
62
256
6
ByLayer
370
18
48
1
60
0
100
AcDbLine
10
11.208641
20
-70.569675
30
0
11
13.100091
21
-71.045983
31
0
39
0
210
0
220
0
230
1
0
LINE
5
9F
100
AcDbEntity
8
1
62
256
6
ByLayer
370
18
48
1
60
0
100
AcDbLine
10
13.100091
20
-71.045983
30
0
11
13.100091
21
-68.578277
31
0
39
0
210
0
220
0
230
1
0
LINE
5
A0
100
AcDbEntity
8
1
62
256
6
ByLayer
370
18
48
1
60
0
100
AcDbLine
10
11.208641
20
-70.569675
30
0
11
11.208641
21
-68.298118
31
0
39
0
210
0
220
0
230
1
0
LINE
5
A1
100
AcDbEntity
8
1
62
256
6
ByLayer
370
18
48
1
60
0
100
AcDbLine
10
10.900025
20
-68.252467
30
0
11
10.900025
21
-70.567505
31
0
39
0
210
0
220
0
230
1
0
LINE
5
A2
100
AcDbEntity
8
1
62
256
6
ByLayer
370
18
48
1
60
0
100
AcDbLine
10
11.191276
20
-70.567505
30
0
11
11.191276
21
-68.295615
31
0
39
0
210
0
220
0
230
1
0
LINE
5
A3
100
AcDbEntity
8
1
62
256
6
ByLayer
370
18
48
1
60
0
100
AcDbLine
10
13.403901
20
-56.641194
30
0
11
13.403901
21
-57.050279
31
0
39
0
210
0
220
0
230
1
0
LINE
5
A4
100
AcDbEntity
8
1
62
256
6
ByLayer
370
18
48
1
60
0
100
AcDbLine
10
14.246009
20
-56.575395
30
0
11
14.246009
21
-57.116084
31
0
39
0
210
0
220
0
230
1
0
LINE
5
A5
100
AcDbEntity
8
1
62
256
6
ByLayer
370
18
48
1
60
0
100
AcDbLine
10
1.5
20
-10.440683
30
0
11
1.5
21
-17.327963
31
0
39
0
210
0
220
0
230
1
0
LINE
5
A6
100
AcDbEntity
8
1
62
256
6
ByLayer
370
18
48
1
60
0
100
AcDbLine
10
1.5
20
-17.955181
30
0
11
1.5
21
-20.25
31
0
39
0
210
0
220
0
230
1
0
LINE
5
A7
100
AcDbEntity
8
1
62
256
6
ByLayer
370
18
48
1
60
0
100
AcDbLine
10
12.89984
20
5.552168
30
0
11
12.89984
21
-7.1
31
0
39
0
210
0
220
0
230
1
0
LINE
5
A8
100
AcDbEntity
8
1
62
256
6
ByLayer
370
18
48
1
60
0
100
AcDbLine
10
-0.324981
20
5.89923
30
0
11
-0.324981
21
6.10077
31
0
39
0
210
0
220
0
230
1
0
LINE
5
A9
100
AcDbEntity
8
1
62
256
6
ByLayer
370
18
48
1
60
0
100
AcDbLine
10
-0.324981
20
7.39923
30
0
11
-0.324981
21
7.60077
31
0
39
0
210
0
220
0
230
1
0
LINE
5
AA
100
AcDbEntity
8
1
62
256
6
ByLayer
370
18
48
1
60
0
100
AcDbLine
10
-0.324981
20
8.89923
30
0
11
-0.324981
21
9.10077
31
0
39
0
210
0
220
0
230
1
0
LINE
5
AB
100
AcDbEntity
8
1
62
256
6
ByLayer
370
18
48
1
60
0
100
AcDbLine
10
16.35415
20
-57.561691
30
0
11
11.64585
21
-57.561691
31
0
39
0
210
0
220
0
230
1
0
LINE
5
AC
100
AcDbEntity
8
1
62
256
6
ByLayer
370
18
48
1
60
0
100
AcDbLine
10
15.388388
20
14.036612
30
0
11
16.131221
21
13.293779
31
0
39
0
210
0
220
0
230
1
0
LINE
5
AD
100
AcDbEntity
8
1
62
256
6
ByLayer
370
18
48
1
60
0
100
AcDbLine
10
1.5
20
-7.1
30
0
11
1.5
21
-5.552168
31
0
39
0
210
0
220
0
230
1
0
LINE
5
AE
100
AcDbEntity
8
1
62
256
6
ByLayer
370
18
48
1
60
0
100
AcDbLine
10
10.825
20
-30.85
30
0
11
10.825
21
-61.147614
31
0
39
0
210
0
220
0
230
1
0
LINE
5
AF
100
AcDbEntity
8
1
62
256
6
ByLayer
370
18
48
1
60
0
100
AcDbLine
10
3.77
20
-22
30
0
11
3.77
21
-17.005573
31
0
39
0
210
0
220
0
230
1
0
LINE
5
B0
100
AcDbEntity
8
1
62
256
6
ByLayer
370
18
48
1
60
0
100
AcDbLine
10
1.5
20
-10.077603
30
0
11
1.5
21
-10.440683
31
0
39
0
210
0
220
0
230
1
0
LINE
5
B1
100
AcDbEntity
8
1
62
256
6
ByLayer
370
18
48
1
60
0
100
AcDbLine
10
12.89984
20
-7.1
30
0
11
1.5
21
-7.1
31
0
39
0
210
0
220
0
230
1
0
LINE
5
B2
100
AcDbEntity
8
1
62
256
6
ByLayer
370
18
48
1
60
0
100
AcDbLine
10
15.73808
20
-22.223631
30
0
11
3.77
21
-22.223631
31
0
39
0
210
0
220
0
230
1
0
LINE
5
B3
100
AcDbEntity
8
1
62
256
6
ByLayer
370
18
48
1
60
0
100
AcDbLine
10
10.825
20
-74.507026
30
0
11
10.825
21
-68.241516
31
0
39
0
210
0
220
0
230
1
0
LINE
5
B4
100
AcDbEntity
8
1
62
256
6
ByLayer
370
18
48
1
60
0
100
AcDbLine
10
-0.324981
20
-16.431401
30
0
11
-0.324981
21
-16.39923
31
0
39
0
210
0
220
0
230
1
0
LINE
5
B5
100
AcDbEntity
8
1
62
256
6
ByLayer
370
18
48
1
60
0
100
AcDbLine
10
-0.324981
20
-15.10077
30
0
11
-0.324981
21
-14.89923
31
0
39
0
210
0
220
0
230
1
0
LINE
5
B6
100
AcDbEntity
8
1
62
256
6
ByLayer
370
18
48
1
60
0
100
AcDbLine
10
-0.324981
20
-13.60077
30
0
11
-0.324981
21
-13.39923
31
0
39
0
210
0
220
0
230
1
0
LINE
5
B7
100
AcDbEntity
8
1
62
256
6
ByLayer
370
18
48
1
60
0
100
AcDbLine
10
-0.324981
20
-12.10077
30
0
11
-0.324981
21
-11.89923
31
0
39
0
210
0
220
0
230
1
0
LINE
5
B8
100
AcDbEntity
8
1
62
256
6
ByLayer
370
18
48
1
60
0
100
AcDbLine
10
-0.324981
20
-10.60077
30
0
11
-0.324981
21
-10.39923
31
0
39
0
210
0
220
0
230
1
0
LINE
5
B9
100
AcDbEntity
8
1
62
256
6
ByLayer
370
18
48
1
60
0
100
AcDbLine
10
-0.324981
20
-9.10077
30
0
11
-0.324981
21
-8.89923
31
0
39
0
210
0
220
0
230
1
0
LINE
5
BA
100
AcDbEntity
8
1
62
256
6
ByLayer
370
18
48
1
60
0
100
AcDbLine
10
-0.324981
20
-7.60077
30
0
11
-0.324981
21
-7.39923
31
0
39
0
210
0
220
0
230
1
0
LINE
5
BB
100
AcDbEntity
8
1
62
256
6
ByLayer
370
18
48
1
60
0
100
AcDbLine
10
-0.324981
20
-6.10077
30
0
11
-0.324981
21
-5.89923
31
0
39
0
210
0
220
0
230
1
0
LINE
5
BC
100
AcDbEntity
8
1
62
256
6
ByLayer
370
18
48
1
60
0
100
AcDbLine
10
0.342769
20
5.427102
30
0
11
0.126149
21
5.552168
31
0
39
0
210
0
220
0
230
1
0
LINE
5
BD
100
AcDbEntity
8
1
62
256
6
ByLayer
370
18
48
1
60
0
100
AcDbLine
10
-0.249981
20
4.730673
30
0
11
0.342769
21
5.072898
31
0
39
0
210
0
220
0
230
1
0
LINE
5
BE
100
AcDbEntity
8
1
62
256
6
ByLayer
370
18
48
1
60
0
100
AcDbLine
10
-0.324981
20
4.39923
30
0
11
-0.324981
21
4.60077
31
0
39
0
210
0
220
0
230
1
0
LINE
5
BF
100
AcDbEntity
8
1
62
256
6
ByLayer
370
18
48
1
60
0
100
AcDbLine
10
0.342769
20
3.927102
30
0
11
-0.249981
21
4.269327
31
0
39
0
210
0
220
0
230
1
0
LINE
5
C0
100
AcDbEntity
8
1
62
256
6
ByLayer
370
18
48
1
60
0
100
AcDbLine
10
-0.249981
20
3.230673
30
0
11
0.342769
21
3.572898
31
0
39
0
210
0
220
0
230
1
0
LINE
5
C1
100
AcDbEntity
8
1
62
256
6
ByLayer
370
18
48
1
60
0
100
AcDbLine
10
-0.324981
20
2.89923
30
0
11
-0.324981
21
3.10077
31
0
39
0
210
0
220
0
230
1
0
LINE
5
C2
100
AcDbEntity
8
1
62
256
6
ByLayer
370
18
48
1
60
0
100
AcDbLine
10
0.342769
20
2.427102
30
0
11
-0.249981
21
2.769327
31
0
39
0
210
0
220
0
230
1
0
LINE
5
C3
100
AcDbEntity
8
1
62
256
6
ByLayer
370
18
48
1
60
0
100
AcDbLine
10
-0.249981
20
1.730673
30
0
11
0.342769
21
2.072898
31
0
39
0
210
0
220
0
230
1
0
LINE
5
C4
100
AcDbEntity
8
1
62
256
6
ByLayer
370
18
48
1
60
0
100
AcDbLine
10
-0.324981
20
1.39923
30
0
11
-0.324981
21
1.60077
31
0
39
0
210
0
220
0
230
1
0
LINE
5
C5
100
AcDbEntity
8
1
62
256
6
ByLayer
370
18
48
1
60
0
100
AcDbLine
10
0.342769
20
0.927102
30
0
11
-0.249981
21
1.269327
31
0
39
0
210
0
220
0
230
1
0
LINE
5
C6
100
AcDbEntity
8
1
62
256
6
ByLayer
370
18
48
1
60
0
100
AcDbLine
10
-0.249981
20
0.230673
30
0
11
0.342769
21
0.572898
31
0
39
0
210
0
220
0
230
1
0
LINE
5
C7
100
AcDbEntity
8
1
62
256
6
ByLayer
370
18
48
1
60
0
100
AcDbLine
10
-0.324981
20
-0.10077
30
0
11
-0.324981
21
0.10077
31
0
39
0
210
0
220
0
230
1
0
LINE
5
C8
100
AcDbEntity
8
1
62
256
6
ByLayer
370
18
48
1
60
0
100
AcDbLine
10
-0.249981
20
-0.230673
30
0
11
0.342769
21
-0.572898
31
0
39
0
210
0
220
0
230
1
0
LINE
5
C9
100
AcDbEntity
8
1
62
256
6
ByLayer
370
18
48
1
60
0
100
AcDbLine
10
0.342769
20
-0.927102
30
0
11
-0.249981
21
-1.269327
31
0
39
0
210
0
220
0
230
1
0
LINE
5
CA
100
AcDbEntity
8
1
62
256
6
ByLayer
370
18
48
1
60
0
100
AcDbLine
10
-0.324981
20
-1.60077
30
0
11
-0.324981
21
-1.39923
31
0
39
0
210
0
220
0
230
1
0
LINE
5
CB
100
AcDbEntity
8
1
62
256
6
ByLayer
370
18
48
1
60
0
100
AcDbLine
10
-0.249981
20
-1.730673
30
0
11
0.342769
21
-2.072898
31
0
39
0
210
0
220
0
230
1
0
LINE
5
CC
100
AcDbEntity
8
1
62
256
6
ByLayer
370
18
48
1
60
0
100
AcDbLine
10
0.342769
20
-5.427102
30
0
11
0.126149
21
-5.552168
31
0
39
0
210
0
220
0
230
1
0
LINE
5
CD
100
AcDbEntity
8
1
62
256
6
ByLayer
370
18
48
1
60
0
100
AcDbLine
10
-0.249981
20
-4.730673
30
0
11
0.342769
21
-5.072898
31
0
39
0
210
0
220
0
230
1
0
LINE
5
CE
100
AcDbEntity
8
1
62
256
6
ByLayer
370
18
48
1
60
0
100
AcDbLine
10
-0.324981
20
-4.60077
30
0
11
-0.324981
21
-4.39923
31
0
39
0
210
0
220
0
230
1
0
LINE
5
CF
100
AcDbEntity
8
1
62
256
6
ByLayer
370
18
48
1
60
0
100
AcDbLine
10
0.342769
20
-3.927102
30
0
11
-0.249981
21
-4.269327
31
0
39
0
210
0
220
0
230
1
0
LINE
5
D0
100
AcDbEntity
8
1
62
256
6
ByLayer
370
18
48
1
60
0
100
AcDbLine
10
-0.249981
20
-3.230673
30
0
11
0.342769
21
-3.572898
31
0
39
0
210
0
220
0
230
1
0
LINE
5
D1
100
AcDbEntity
8
1
62
256
6
ByLayer
370
18
48
1
60
0
100
AcDbLine
10
0.342769
20
-2.427102
30
0
11
-0.249981
21
-2.769327
31
0
39
0
210
0
220
0
230
1
0
LINE
5
D2
100
AcDbEntity
8
1
62
256
6
ByLayer
370
18
48
1
60
0
100
AcDbLine
10
-0.324981
20
-3.10077
30
0
11
-0.324981
21
-2.89923
31
0
39
0
210
0
220
0
230
1
0
LINE
5
D3
100
AcDbEntity
8
1
62
256
6
ByLayer
370
18
48
1
60
0
100
AcDbLine
10
2.17
20
-20.25
30
0
11
2.17
21
-17.955181
31
0
39
0
210
0
220
0
230
1
0
LINE
5
D4
100
AcDbEntity
8
1
62
256
6
ByLayer
370
18
48
1
60
0
100
AcDbLine
10
2.17
20
-17.327963
30
0
11
2.17
21
-10.440683
31
0
39
0
210
0
220
0
230
1
0
LINE
5
D5
100
AcDbEntity
8
1
62
256
6
ByLayer
370
18
48
1
60
0
100
AcDbLine
10
-0.19243
20
-19.2361
30
0
11
0.342769
21
-18.927102
31
0
39
0
210
0
220
0
230
1
0
LINE
5
D6
100
AcDbEntity
8
1
62
256
6
ByLayer
370
18
48
1
60
0
100
AcDbLine
10
0.342769
20
-18.572898
30
0
11
-0.249981
21
-18.230673
31
0
39
0
210
0
220
0
230
1
0
LINE
5
D7
100
AcDbEntity
8
1
62
256
6
ByLayer
370
18
48
1
60
0
100
AcDbLine
10
-0.324981
20
-17.89923
30
0
11
-0.324981
21
-18.10077
31
0
39
0
210
0
220
0
230
1
0
LINE
5
D8
100
AcDbEntity
8
1
62
256
6
ByLayer
370
18
48
1
60
0
100
AcDbLine
10
-0.249981
20
-17.769327
30
0
11
0.342769
21
-17.427102
31
0
39
0
210
0
220
0
230
1
0
LINE
5
D9
100
AcDbEntity
8
1
62
256
6
ByLayer
370
18
48
1
60
0
100
AcDbLine
10
0.342769
20
-17.072898
30
0
11
-0.249981
21
-16.730673
31
0
39
0
210
0
220
0
230
1
0
LINE
5
DA
100
AcDbEntity
8
1
62
256
6
ByLayer
370
18
48
1
60
0
100
AcDbLine
10
-0.324981
20
-16.431401
30
0
11
-0.324981
21
-16.60077
31
0
39
0
210
0
220
0
230
1
0
LINE
5
DB
100
AcDbEntity
8
1
62
256
6
ByLayer
370
18
48
1
60
0
100
AcDbLine
10
3.77
20
-17.005573
30
0
11
3.77
21
-15.69804
31
0
39
0
210
0
220
0
230
1
0
LINE
5
DC
100
AcDbEntity
8
1
62
256
6
ByLayer
370
18
48
1
60
0
100
AcDbLine
10
2.17
20
-10.440683
30
0
11
1.5
21
-10.440683
31
0
39
0
210
0
220
0
230
1
0
LINE
5
DD
100
AcDbEntity
8
1
62
256
6
ByLayer
370
18
48
1
60
0
100
AcDbLine
10
1.5
20
-7.1
30
0
11
1.5
21
-10.077603
31
0
39
0
210
0
220
0
230
1
0
LINE
5
DE
100
AcDbEntity
8
1
62
256
6
ByLayer
370
18
48
1
60
0
100
AcDbLine
10
10.637708
20
-29.25
30
0
11
7.27
21
-29.25
31
0
39
0
210
0
220
0
230
1
0
LINE
5
DF
100
AcDbEntity
8
1
62
256
6
ByLayer
370
18
48
1
60
0
100
AcDbLine
10
12.26192
20
-56.23868
30
0
11
12.26192
21
-30.85
31
0
39
0
210
0
220
0
230
1
0
LINE
5
E0
100
AcDbEntity
8
1
62
256
6
ByLayer
370
18
48
1
60
0
100
AcDbLine
10
3.77
20
-26.799274
30
0
11
3.77
21
-25.401662
31
0
39
0
210
0
220
0
230
1
0
LINE
5
E1
100
AcDbEntity
8
1
62
256
6
ByLayer
370
18
48
1
60
0
100
AcDbLine
10
15.73808
20
-56.23868
30
0
11
15.73808
21
-25.401662
31
0
39
0
210
0
220
0
230
1
0
LINE
5
E2
100
AcDbEntity
8
1
62
256
6
ByLayer
370
18
48
1
60
0
100
AcDbLine
10
3.77
20
-25.401662
30
0
11
15.73808
21
-25.401662
31
0
39
0
210
0
220
0
230
1
0
LINE
5
E3
100
AcDbEntity
8
1
62
256
6
ByLayer
370
18
48
1
60
0
100
AcDbLine
10
15.73808
20
-22.223631
30
0
11
15.73808
21
-22
31
0
39
0
210
0
220
0
230
1
0
LINE
5
E4
100
AcDbEntity
8
1
62
256
6
ByLayer
370
18
48
1
60
0
100
AcDbLine
10
3.77
20
-22.223631
30
0
11
3.77
21
-22
31
0
39
0
210
0
220
0
230
1
0
LINE
5
E5
100
AcDbEntity
8
1
62
256
6
ByLayer
370
18
48
1
60
0
100
AcDbLine
10
15.73808
20
-22
30
0
11
3.77
21
-22
31
0
39
0
210
0
220
0
230
1
0
LINE
5
E6
100
AcDbEntity
8
1
62
256
6
ByLayer
370
18
48
1
60
0
100
AcDbLine
10
15.254312
20
-17.005573
30
0
11
3.77
21
-17.005573
31
0
39
0
210
0
220
0
230
1
0
LINE
5
E7
100
AcDbEntity
8
1
62
256
6
ByLayer
370
18
48
1
60
0
100
AcDbLine
10
13.358784
20
-10.077603
30
0
11
1.5
21
-10.077603
31
0
39
0
210
0
220
0
230
1
0
LINE
5
E8
100
AcDbEntity
8
1
62
256
6
ByLayer
370
18
48
1
60
0
100
AcDbLine
10
17.175
20
-68.241516
30
0
11
17.175
21
-74.507026
31
0
39
0
210
0
220
0
230
1
0
LINE
5
E9
100
AcDbEntity
8
1
62
256
6
ByLayer
370
18
48
1
60
0
100
AcDbLine
10
0.5
20
-17.119659
30
0
11
0.5
21
-17.743822
31
0
39
0
210
0
220
0
230
1
0
LINE
5
EA
100
AcDbEntity
8
1
62
256
6
ByLayer
370
18
48
1
60
0
100
AcDbLine
10
10.825
20
-65.777702
30
0
11
10.825
21
-63.527373
31
0
39
0
210
0
220
0
230
1
0
LINE
5
EB
100
AcDbEntity
8
1
62
256
6
ByLayer
370
18
48
1
60
0
100
AcDbLine
10
17.175
20
-61.147614
30
0
11
17.175
21
-63.527373
31
0
39
0
210
0
220
0
230
1
0
LINE
5
EC
100
AcDbEntity
8
1
62
256
6
ByLayer
370
18
48
1
60
0
100
AcDbLine
10
10.825
20
-63.527373
30
0
11
10.825
21
-61.147614
31
0
39
0
210
0
220
0
230
1
0
LINE
5
ED
100
AcDbEntity
8
1
62
256
6
ByLayer
370
18
48
1
60
0
100
AcDbLine
10
10.825
20
-68.241493
30
0
11
10.825
21
-65.777702
31
0
39
0
210
0
220
0
230
1
0
LINE
5
EE
100
AcDbEntity
8
1
62
256
6
ByLayer
370
18
48
1
60
0
100
AcDbLine
10
17.175
20
-65.777702
30
0
11
17.175
21
-68.241493
31
0
39
0
210
0
220
0
230
1
0
LINE
5
EF
100
AcDbEntity
8
1
62
256
6
ByLayer
370
18
48
1
60
0
100
AcDbLine
10
10.825
20
-68.241493
30
0
11
13.170875
21
-68.588776
31
0
39
0
210
0
220
0
230
1
0
LINE
5
F0
100
AcDbEntity
8
1
62
256
6
ByLayer
370
18
48
1
60
0
100
AcDbLine
10
13.285781
20
-68.669726
30
0
11
13.334046
21
-68.781059
31
0
39
0
210
0
220
0
230
1
0
LINE
5
F1
100
AcDbEntity
8
1
62
256
6
ByLayer
370
18
48
1
60
0
100
AcDbLine
10
13.475
20
-68.863923
30
0
11
14.525
21
-68.863923
31
0
39
0
210
0
220
0
230
1
0
LINE
5
F2
100
AcDbEntity
8
1
62
256
6
ByLayer
370
18
48
1
60
0
100
AcDbLine
10
14.665954
20
-68.781059
30
0
11
14.714219
21
-68.669726
31
0
39
0
210
0
220
0
230
1
0
LINE
5
F3
100
AcDbEntity
8
1
62
256
6
ByLayer
370
18
48
1
60
0
100
AcDbLine
10
17.175
20
-65.777702
30
0
11
13.67349
21
-65.777702
31
0
39
0
210
0
220
0
230
1
0
LINE
5
F4
100
AcDbEntity
8
1
62
256
6
ByLayer
370
18
48
1
60
0
100
AcDbLine
10
13.087544
20
-65.777702
30
0
11
10.825
21
-65.777702
31
0
39
0
210
0
220
0
230
1
0
LINE
5
F5
100
AcDbEntity
8
1
62
256
6
ByLayer
370
18
48
1
60
0
100
AcDbLine
10
17.175
20
-63.527373
30
0
11
14.779688
21
-63.527373
31
0
39
0
210
0
220
0
230
1
0
LINE
5
F6
100
AcDbEntity
8
1
62
256
6
ByLayer
370
18
48
1
60
0
100
AcDbLine
10
11.800593
20
-63.527373
30
0
11
10.825
21
-63.527373
31
0
39
0
210
0
220
0
230
1
0
LINE
5
F7
100
AcDbEntity
8
1
62
256
6
ByLayer
370
18
48
1
60
0
100
AcDbLine
10
15.156254
20
14.268746
30
0
11
15.388378
21
14.036622
31
0
39
0
210
0
220
0
230
1
0
LINE
5
F8
100
AcDbEntity
8
1
62
256
6
ByLayer
370
18
48
1
60
0
100
AcDbLine
10
16.131221
20
13.293779
30
0
11
17.175
21
12.25
31
0
39
0
210
0
220
0
230
1
0
LINE
5
F9
100
AcDbEntity
8
1
62
256
6
ByLayer
370
18
48
1
60
0
100
AcDbLine
10
17.175
20
12.25
30
0
11
17.175
21
-8.851572
31
0
39
0
210
0
220
0
230
1
0
LINE
5
FA
100
AcDbEntity
8
1
62
256
6
ByLayer
370
18
48
1
60
0
100
AcDbLine
10
17.175
20
-12.029603
30
0
11
17.175
21
-61.147614
31
0
39
0
210
0
220
0
230
1
0
LINE
5
FB
100
AcDbEntity
8
1
62
256
6
ByLayer
370
18
48
1
60
0
100
AcDbLine
10
17.175
20
-63.527373
30
0
11
17.175
21
-65.777702
31
0
39
0
210
0
220
0
230
1
0
LINE
5
FC
100
AcDbEntity
8
1
62
256
6
ByLayer
370
18
48
1
60
0
100
AcDbLine
10
14.829125
20
-68.588776
30
0
11
17.175
21
-68.241493
31
0
39
0
210
0
220
0
230
1
0
LINE
5
FD
100
AcDbEntity
8
1
62
256
6
ByLayer
370
18
48
1
60
0
100
AcDbLine
10
1.5
20
-17.119674
30
0
11
0.5
21
-17.119674
31
0
39
0
210
0
220
0
230
1
0
LINE
5
FE
100
AcDbEntity
8
1
62
256
6
ByLayer
370
18
48
1
60
0
100
AcDbLine
10
16.682758
20
-59.117563
30
0
11
11.317242
21
-59.117563
31
0
39
0
210
0
220
0
230
1
0
LINE
5
FF
100
AcDbEntity
8
1
62
256
6
ByLayer
370
18
48
1
60
0
100
AcDbLine
10
12.26192
20
-56.23868
30
0
11
15.73808
21
-56.23868
31
0
39
0
210
0
220
0
230
1
0
LINE
5
100
100
AcDbEntity
8
1
62
256
6
ByLayer
370
18
48
1
60
0
100
AcDbLine
10
17.175
20
-12.029603
30
0
11
17.175
21
-8.851594
31
0
39
0
210
0
220
0
230
1
0
LINE
5
101
100
AcDbEntity
8
1
62
256
6
ByLayer
370
18
48
1
60
0
100
AcDbLine
10
0.5
20
-17.743822
30
0
11
1.5
21
-17.743822
31
0
39
0
210
0
220
0
230
1
0
LINE
5
102
100
AcDbEntity
8
1
62
256
6
ByLayer
370
18
48
1
60
0
100
AcDbLine
10
1.5
20
-17.955181
30
0
11
1.5
21
-17.743822
31
0
39
0
210
0
220
0
230
1
0
LINE
5
103
100
AcDbEntity
8
1
62
256
6
ByLayer
370
18
48
1
60
0
100
AcDbLine
10
1.5
20
-17.955181
30
0
11
2.17
21
-17.955181
31
0
39
0
210
0
220
0
230
1
0
LINE
5
104
100
AcDbEntity
8
1
62
256
6
ByLayer
370
18
48
1
60
0
100
AcDbLine
10
3.77
20
-22.223637
30
0
11
3.77
21
-25.401662
31
0
39
0
210
0
220
0
230
1
0
LINE
5
105
100
AcDbEntity
8
1
62
256
6
ByLayer
370
18
48
1
60
0
100
AcDbLine
10
2.17
20
-17.327963
30
0
11
1.5
21
-17.327963
31
0
39
0
210
0
220
0
230
1
0
LINE
5
106
100
AcDbEntity
8
1
62
256
6
ByLayer
370
18
48
1
60
0
100
AcDbLine
10
12.26192
20
-30.85
30
0
11
10.825
21
-30.85
31
0
39
0
210
0
220
0
230
1
0
LINE
5
107
100
AcDbEntity
8
1
62
256
6
ByLayer
370
18
48
1
60
0
100
AcDbLine
10
15.156254
20
14.268746
30
0
11
9.425
21
20
31
0
39
0
210
0
220
0
230
1
0
LINE
5
108
100
AcDbEntity
8
1
62
256
6
ByLayer
370
18
48
1
60
0
100
AcDbLine
10
13.643354
20
10.61352
30
0
11
0.5
21
10.61352
31
0
39
0
210
0
220
0
230
1
0
LINE
5
109
100
AcDbEntity
8
1
62
256
6
ByLayer
370
18
48
1
60
0
100
AcDbLine
10
12.89984
20
5.552168
30
0
11
0.5
21
5.552168
31
0
39
0
210
0
220
0
230
1
0
LINE
5
10A
100
AcDbEntity
8
1
62
256
6
ByLayer
370
18
48
1
60
0
100
AcDbLine
10
1.5
20
-5.552168
30
0
11
0.5
21
-5.552168
31
0
39
0
210
0
220
0
230
1
0
LINE
5
10B
100
AcDbEntity
8
1
62
256
6
ByLayer
370
18
48
1
60
0
100
AcDbLine
10
1.5
20
-10.61352
30
0
11
0.5
21
-10.61352
31
0
39
0
210
0
220
0
230
1
0
LINE
5
10C
100
AcDbEntity
8
1
62
256
6
ByLayer
370
18
48
1
60
0
100
AcDbLine
10
-0.324981
20
17.89923
30
0
11
-0.324981
21
18.10077
31
0
39
0
210
0
220
0
230
1
0
LINE
5
10D
100
AcDbEntity
8
1
62
256
6
ByLayer
370
18
48
1
60
0
100
AcDbLine
10
-0.324981
20
16.39923
30
0
11
-0.324981
21
16.60077
31
0
39
0
210
0
220
0
230
1
0
LINE
5
10E
100
AcDbEntity
8
1
62
256
6
ByLayer
370
18
48
1
60
0
100
AcDbLine
10
-0.324981
20
14.89923
30
0
11
-0.324981
21
15.10077
31
0
39
0
210
0
220
0
230
1
0
LINE
5
10F
100
AcDbEntity
8
1
62
256
6
ByLayer
370
18
48
1
60
0
100
AcDbLine
10
-0.324981
20
13.39923
30
0
11
-0.324981
21
13.60077
31
0
39
0
210
0
220
0
230
1
0
LINE
5
110
100
AcDbEntity
8
1
62
256
6
ByLayer
370
18
48
1
60
0
100
AcDbLine
10
-0.324981
20
10.39923
30
0
11
-0.324981
21
10.60077
31
0
39
0
210
0
220
0
230
1
0
LINE
5
111
100
AcDbEntity
8
1
62
256
6
ByLayer
370
18
48
1
60
0
100
AcDbLine
10
-0.324981
20
11.89923
30
0
11
-0.324981
21
12.10077
31
0
39
0
210
0
220
0
230
1
0
LINE
5
112
100
AcDbEntity
8
1
62
256
6
ByLayer
370
18
48
1
60
0
100
AcDbLine
10
0.5
20
20
30
0
11
0.5
21
10.61352
31
0
39
0
210
0
220
0
230
1
0
LINE
5
113
100
AcDbEntity
8
1
62
256
6
ByLayer
370
18
48
1
60
0
100
AcDbLine
10
-0.04697
20
10.152118
30
0
11
0.5
21
10.61352
31
0
39
0
210
0
220
0
230
1
0
LINE
5
114
100
AcDbEntity
8
1
62
256
6
ByLayer
370
18
48
1
60
0
100
AcDbLine
10
0.5
20
10.61352
30
0
11
0.5
21
5.552168
31
0
39
0
210
0
220
0
230
1
0
LINE
5
115
100
AcDbEntity
8
1
62
256
6
ByLayer
370
18
48
1
60
0
100
AcDbLine
10
0.126149
20
5.552168
30
0
11
0.5
21
5.552168
31
0
39
0
210
0
220
0
230
1
0
LINE
5
116
100
AcDbEntity
8
1
62
256
6
ByLayer
370
18
48
1
60
0
100
AcDbLine
10
0.5
20
5.552168
30
0
11
0.5
21
-5.552168
31
0
39
0
210
0
220
0
230
1
0
LINE
5
117
100
AcDbEntity
8
1
62
256
6
ByLayer
370
18
48
1
60
0
100
AcDbLine
10
0.126149
20
-5.552168
30
0
11
0.5
21
-5.552168
31
0
39
0
210
0
220
0
230
1
0
LINE
5
118
100
AcDbEntity
8
1
62
256
6
ByLayer
370
18
48
1
60
0
100
AcDbLine
10
0.5
20
-5.552168
30
0
11
0.5
21
-10.61352
31
0
39
0
210
0
220
0
230
1
0
LINE
5
119
100
AcDbEntity
8
1
62
256
6
ByLayer
370
18
48
1
60
0
100
AcDbLine
10
-0.04697
20
-10.152118
30
0
11
0.5
21
-10.61352
31
0
39
0
210
0
220
0
230
1
0
LINE
5
11A
100
AcDbEntity
8
1
62
256
6
ByLayer
370
18
48
1
60
0
100
AcDbLine
10
0.5
20
-10.61352
30
0
11
0.5
21
-17.119674
31
0
39
0
210
0
220
0
230
1
0
LINE
5
11B
100
AcDbEntity
8
1
62
256
6
ByLayer
370
18
48
1
60
0
100
AcDbLine
10
0.5
20
-17.743822
30
0
11
0.5
21
-20
31
0
39
0
210
0
220
0
230
1
0
LINE
5
11C
100
AcDbEntity
8
SK1
62
256
6
ByLayer
370
18
48
1
60
0
100
AcDbLine
10
-7.824981
20
-5.664551
30
0
11
-7.824981
21
5.664551
31
0
39
0
210
0
220
0
230
1
0
LINE
5
11D
100
AcDbEntity
8
81
62
256
6
ByLayer
370
13
48
0.05
60
0
100
AcDbLine
10
-12.324981
20
0
30
0
11
20.388612
21
0
31
0
39
0
210
0
220
0
230
1
0
LINE
5
11E
100
AcDbEntity
8
4
62
256
6
ByLayer
370
13
48
0.05
60
0
100
AcDbLine
10
0.5
20
0
30
0
11
20.388612
21
0
31
0
39
0
210
0
220
0
230
1
0
LINE
5
120
100
AcDbEntity
8
80
62
256
6
ByLayer
370
18
48
1
60
0
100
AcDbLine
10
0
20
0
30
0
11
-12.324981
21
0
31
0
39
0
210
0
220
0
230
1
0
LINE
5
121
100
AcDbEntity
8
81
62
256
6
ByLayer
370
18
48
1
60
0
100
AcDbLine
10
14.000025
20
-81
30
0
11
14.000025
21
-86.0014
31
0
39
0
210
0
220
0
230
1
0
MTEXT
5
1D4
100
AcDbEntity
8
SK6
62
256
6
ByLayer
370
13
48
1
60
0
100
AcDbMText
10
-7.972029
20
-120.404061
30
0
210
0
220
0
230
1
1
\W0.7677;SL70-L123L50A-HP
40
3.5
41
0
44
1.084337
50
0
71
7
72
5
7
iso_b_vert
0
DIMENSION
5
1E2
100
AcDbEntity
8
SK2
62
256
6
ByLayer
370
13
48
1
60
0
100
AcDbDimension
2
DimnDraft3D1
10
18.025025
20
-106.148432
30
0
11
7.405276
21
-106.148432
31
0
70
32
71
5
72
1
41
1
210
0
220
0
230
1
3
Standard
100
AcDbAlignedDimension
13
0
23
0
33
0
14
18.025025
24
-76.975
34
0
50
0
100
AcDbRotatedDimension
1001
ACAD
1000
DSTYLE
1002
{
1070
   279
1070
     0
1070
   172
1070
     1
1070
   173
1070
     1
1070
   340
1005
1D5
1070
   271
1070
     1
1070
   272
1070
     2
1070
    77
1070
     1
1070
    73
1070
     0
1070
   171
1070
     3
1070
   274
1070
     4
1070
   177
1070
     7
1070
   176
1070
     7
1070
   178
1070
     7
1070
    78
1070
     8
1070
    48
1040
-0.005
1070
    41
1041
3.5
1070
   147
1041
1.75
1070
    42
1041
0.0
1070
    44
1041
2.0
1070
   140
1041
3.5
1070
   343
1005
0
1070
   344
1005
0
1002
}
0
DIMENSION
5
1ED
100
AcDbEntity
8
2
62
256
6
ByLayer
370
13
48
1
60
0
100
AcDbDimension
2
DimnDraft3D2
10
45.307258
20
-81
30
0
11
45.307258
21
-42.107237
31
0
70
32
71
5
72
1
41
1
210
0
220
0
230
1
3
Standard
100
AcDbAlignedDimension
13
0
23
0
33
0
14
14.000025
24
-81
34
0
50
90
100
AcDbRotatedDimension
1001
ACAD
1000
DSTYLE
1002
{
1070
    74
1070
     0
1070
   279
1070
     0
1070
   172
1070
     1
1070
   173
1070
     1
1070
   340
1005
1D5
1070
   271
1070
     2
1070
   272
1070
     2
1070
    77
1070
     1
1070
    73
1070
     0
1070
   171
1070
     3
1070
   274
1070
     4
1070
   177
1070
     7
1070
   176
1070
     7
1070
   178
1070
     7
1070
    78
1070
     8
1070
    48
1040
-0.005
1070
    41
1041
3.5
1070
   147
1041
1.75
1070
    42
1041
0.0
1070
    44
1041
2.0
1070
   140
1041
3.5
1070
   343
1005
0
1070
   344
1005
0
1002
}
0
DIMENSION
5
1F7
100
AcDbEntity
8
SK2
62
256
6
ByLayer
370
13
48
1
60
0
100
AcDbDimension
2
DimnDraft3D3
10
-21.08988
20
-81
30
0
11
-21.08988
21
-58.763542
31
0
70
32
71
5
72
1
41
1
210
0
220
0
230
1
3
Standard
100
AcDbAlignedDimension
13
7.27
23
-29.25
33
0
14
14.000025
24
-81
34
0
50
90
100
AcDbRotatedDimension
1001
ACAD
1000
DSTYLE
1002
{
1070
    74
1070
     0
1070
   279
1070
     0
1070
   172
1070
     1
1070
   173
1070
     1
1070
   340
1005
1D5
1070
   271
1070
     1
1070
   272
1070
     2
1070
    77
1070
     1
1070
    73
1070
     0
1070
   171
1070
     3
1070
   274
1070
     4
1070
   177
1070
     7
1070
   176
1070
     7
1070
   178
1070
     7
1070
    78
1070
     8
1070
    48
1040
-0.005
1070
    41
1041
3.5
1070
   147
1041
1.75
1070
    42
1041
0.0
1070
    44
1041
2.0
1070
   140
1041
3.5
1070
   343
1005
0
1070
   344
1005
0
1002
}
0
DIMENSION
5
201
100
AcDbEntity
8
2
62
256
6
ByLayer
370
13
48
1
60
0
100
AcDbDimension
2
DimnDraft3D4
10
14.000025
20
-96.156508
30
0
11
7.405276
21
-96.156508
31
0
70
32
71
5
72
1
41
1
210
0
220
0
230
1
3
Standard
100
AcDbAlignedDimension
13
0
23
0
33
0
14
14.000025
24
-86.0014
34
0
50
0
100
AcDbRotatedDimension
1001
ACAD
1000
DSTYLE
1002
{
1070
   279
1070
     0
1070
   172
1070
     1
1070
   173
1070
     1
1070
   340
1005
1D5
1070
   271
1070
     1
1070
   272
1070
     2
1070
    77
1070
     1
1070
    73
1070
     0
1070
   171
1070
     3
1070
   274
1070
     4
1070
   177
1070
     7
1070
   176
1070
     7
1070
   178
1070
     7
1070
    78
1070
     8
1070
    48
1040
-0.005
1070
    41
1041
3.5
1070
   147
1041
1.75
1070
    42
1041
0.0
1070
    44
1041
2.0
1070
   140
1041
3.5
1070
   343
1005
0
1070
   344
1005
0
1002
}
0
DIMENSION
5
20B
100
AcDbEntity
8
SK2
62
256
6
ByLayer
370
13
48
1
60
0
100
AcDbDimension
2
DimnDraft3D5
10
-28.353492
20
-20
30
0
11
-28.353492
21
-8.691646
31
0
70
32
71
5
72
1
41
1
210
0
220
0
230
1
3
Standard
100
AcDbAlignedDimension
13
0.5
23
20
33
0
14
0.5
24
-20
34
0
50
90
100
AcDbRotatedDimension
1001
ACAD
1000
DSTYLE
1002
{
1070
    74
1070
     0
1070
   279
1070
     0
1070
   172
1070
     1
1070
   173
1070
     1
1070
   340
1005
1D5
1070
   271
1070
     1
1070
   272
1070
     2
1070
    77
1070
     1
1070
    73
1070
     0
1070
   171
1070
     3
1070
   274
1070
     4
1070
   177
1070
     7
1070
   176
1070
     7
1070
   178
1070
     7
1070
    78
1070
     8
1070
    48
1040
-0.005
1070
    41
1041
3.5
1070
   147
1041
1.75
1070
    42
1041
0.0
1070
    44
1041
2.0
1070
   140
1041
3.5
1070
   343
1005
0
1070
   344
1005
0
1002
}
0
ENDSEC
0
SECTION
2
OBJECTS
0
DICTIONARY
5
275
330
0
100
AcDbDictionary
280
0
281
1
3
ACAD_GROUP
350
276
3
ACAD_MLINESTYLE
350
277
0
DICTIONARY
5
276
330
0
100
AcDbDictionary
280
0
281
1
0
DICTIONARY
5
277
330
0
100
AcDbDictionary
280
0
281
1
3
Standard
350
18
0
MLINESTYLE
5
18
330
277
100
AcDbMlineStyle
2
Standard
70
0
3

62
256
51
90
52
90
71
2
49
-0.5
62
256
6
ByLayer
49
0.5
62
256
6
ByLayer
0
RASTERVARIABLES
5
264
330

100
AcDbRasterVariables
90
0
70
1
71
1
72
1
0
ENDSEC
0
EOF
